  0
SECTION
  2
HEADER
  9
$ACADVER
  1
AC1015
  9
$ACADMAINTVER
 70
     6
  9
$DWGCODEPAGE
  3
ANSI_932
  9
$INSBASE
 10
0.0
 20
0.0
 30
0.0
  9
$EXTMIN
 10
18.63574414206842
 20
-10.56789458368934
 30
0.0
  9
$EXTMAX
 10
494.611279544577
 20
236.2247934694489
 30
0.0
  9
$LIMMIN
 10
0.0
 20
0.0
  9
$LIMMAX
 10
420.0
 20
297.0
  9
$ORTHOMODE
 70
     0
  9
$REGENMODE
 70
     1
  9
$FILLMODE
 70
     1
  9
$QTEXTMODE
 70
     0
  9
$MIRRTEXT
 70
     1
  9
$LTSCALE
 40
1.0
  9
$ATTMODE
 70
     1
  9
$TEXTSIZE
 40
5.0
  9
$TRACEWID
 40
1.0
  9
$TEXTSTYLE
  7
OKANO
  9
$CLAYER
  8
寸法線
  9
$CELTYPE
  6
ByLayer
  9
$CECOLOR
 62
     3
  9
$CELTSCALE
 40
1.0
  9
$DISPSILH
 70
     0
  9
$DIMSCALE
 40
0.0
  9
$DIMASZ
 40
3.0
  9
$DIMEXO
 40
2.0
  9
$DIMDLI
 40
8.0
  9
$DIMRND
 40
0.0
  9
$DIMDLE
 40
0.0
  9
$DIMEXE
 40
3.0
  9
$DIMTP
 40
0.0
  9
$DIMTM
 40
0.0
  9
$DIMTXT
 40
5.0
  9
$DIMCEN
 40
2.5
  9
$DIMTSZ
 40
0.0
  9
$DIMTOL
 70
     0
  9
$DIMLIM
 70
     0
  9
$DIMTIH
 70
     0
  9
$DIMTOH
 70
     0
  9
$DIMSE1
 70
     0
  9
$DIMSE2
 70
     0
  9
$DIMTAD
 70
     1
  9
$DIMZIN
 70
     8
  9
$DIMBLK
  1
Closed
  9
$DIMASO
 70
     1
  9
$DIMSHO
 70
     1
  9
$DIMPOST
  1

  9
$DIMAPOST
  1

  9
$DIMALT
 70
     0
  9
$DIMALTD
 70
     3
  9
$DIMALTF
 40
0.03937007874016
  9
$DIMLFAC
 40
1.0
  9
$DIMTOFL
 70
     1
  9
$DIMTVP
 40
0.0
  9
$DIMTIX
 70
     0
  9
$DIMSOXD
 70
     0
  9
$DIMSAH
 70
     0
  9
$DIMBLK1
  1

  9
$DIMBLK2
  1

  9
$DIMSTYLE
  2
sunpo
  9
$DIMCLRD
 70
     0
  9
$DIMCLRE
 70
     0
  9
$DIMCLRT
 70
     0
  9
$DIMTFAC
 40
1.0
  9
$DIMGAP
 40
1.0
  9
$DIMJUST
 70
     0
  9
$DIMSD1
 70
     0
  9
$DIMSD2
 70
     0
  9
$DIMTOLJ
 70
     0
  9
$DIMTZIN
 70
     8
  9
$DIMALTZ
 70
     0
  9
$DIMALTTZ
 70
     0
  9
$DIMUPT
 70
     0
  9
$DIMDEC
 70
     2
  9
$DIMTDEC
 70
     2
  9
$DIMALTU
 70
     2
  9
$DIMALTTD
 70
     3
  9
$DIMTXSTY
  7
OKANO
  9
$DIMAUNIT
 70
     0
  9
$DIMADEC
 70
     0
  9
$DIMALTRND
 40
0.0
  9
$DIMAZIN
 70
     0
  9
$DIMDSEP
 70
    46
  9
$DIMATFIT
 70
     3
  9
$DIMFRAC
 70
     0
  9
$DIMLDRBLK
  1
Closed
  9
$DIMLUNIT
 70
     2
  9
$DIMLWD
 70
    -2
  9
$DIMLWE
 70
    -2
  9
$DIMTMOVE
 70
     0
  9
$LUNITS
 70
     2
  9
$LUPREC
 70
     2
  9
$SKETCHINC
 40
1.0
  9
$FILLETRAD
 40
0.5
  9
$AUNITS
 70
     0
  9
$AUPREC
 70
     0
  9
$MENU
  1
.
  9
$ELEVATION
 40
0.0
  9
$PELEVATION
 40
0.0
  9
$THICKNESS
 40
0.0
  9
$LIMCHECK
 70
     0
  9
$CHAMFERA
 40
10.0
  9
$CHAMFERB
 40
10.0
  9
$CHAMFERC
 40
20.0
  9
$CHAMFERD
 40
0.0
  9
$SKPOLY
 70
     0
  9
$TDCREATE
 40
2452362.482225463
  9
$TDUCREATE
 40
2452362.107225463
  9
$TDUPDATE
 40
2456542.479655821
  9
$TDUUPDATE
 40
2456542.104655822
  9
$TDINDWG
 40
2.2003254745
  9
$TDUSRTIMER
 40
2.2003254745
  9
$USRTIMER
 70
     1
  9
$ANGBASE
 50
0.0
  9
$ANGDIR
 70
     0
  9
$PDMODE
 70
     0
  9
$PDSIZE
 40
0.0
  9
$PLINEWID
 40
0.0
  9
$SPLFRAME
 70
     0
  9
$SPLINETYPE
 70
     6
  9
$SPLINESEGS
 70
     8
  9
$HANDSEED
  5
2F67
  9
$SURFTAB1
 70
     6
  9
$SURFTAB2
 70
     6
  9
$SURFTYPE
 70
     6
  9
$SURFU
 70
     6
  9
$SURFV
 70
     6
  9
$UCSBASE
  2

  9
$UCSNAME
  2

  9
$UCSORG
 10
0.0
 20
0.0
 30
0.0
  9
$UCSXDIR
 10
1.0
 20
0.0
 30
0.0
  9
$UCSYDIR
 10
0.0
 20
1.0
 30
0.0
  9
$UCSORTHOREF
  2

  9
$UCSORTHOVIEW
 70
     0
  9
$UCSORGTOP
 10
0.0
 20
0.0
 30
0.0
  9
$UCSORGBOTTOM
 10
0.0
 20
0.0
 30
0.0
  9
$UCSORGLEFT
 10
0.0
 20
0.0
 30
0.0
  9
$UCSORGRIGHT
 10
0.0
 20
0.0
 30
0.0
  9
$UCSORGFRONT
 10
0.0
 20
0.0
 30
0.0
  9
$UCSORGBACK
 10
0.0
 20
0.0
 30
0.0
  9
$PUCSBASE
  2

  9
$PUCSNAME
  2

  9
$PUCSORG
 10
0.0
 20
0.0
 30
0.0
  9
$PUCSXDIR
 10
1.0
 20
0.0
 30
0.0
  9
$PUCSYDIR
 10
0.0
 20
1.0
 30
0.0
  9
$PUCSORTHOREF
  2

  9
$PUCSORTHOVIEW
 70
     0
  9
$PUCSORGTOP
 10
0.0
 20
0.0
 30
0.0
  9
$PUCSORGBOTTOM
 10
0.0
 20
0.0
 30
0.0
  9
$PUCSORGLEFT
 10
0.0
 20
0.0
 30
0.0
  9
$PUCSORGRIGHT
 10
0.0
 20
0.0
 30
0.0
  9
$PUCSORGFRONT
 10
0.0
 20
0.0
 30
0.0
  9
$PUCSORGBACK
 10
0.0
 20
0.0
 30
0.0
  9
$USERI1
 70
     0
  9
$USERI2
 70
     0
  9
$USERI3
 70
     0
  9
$USERI4
 70
     0
  9
$USERI5
 70
     0
  9
$USERR1
 40
0.0
  9
$USERR2
 40
0.0
  9
$USERR3
 40
0.0
  9
$USERR4
 40
0.0
  9
$USERR5
 40
0.0
  9
$WORLDVIEW
 70
     1
  9
$SHADEDGE
 70
     3
  9
$SHADEDIF
 70
    70
  9
$TILEMODE
 70
     0
  9
$MAXACTVP
 70
    64
  9
$PINSBASE
 10
0.0
 20
0.0
 30
0.0
  9
$PLIMCHECK
 70
     0
  9
$PEXTMIN
 10
-4.400932062405672
 20
-3.459116387827521
 30
-0.0015258207003583
  9
$PEXTMAX
 10
278.8478616361952
 20
202.393946056399
 30
0.0000000349246037
  9
$PLIMMIN
 10
-3.757080078125
 20
-3.757083177566528
  9
$PLIMMAX
 10
293.2112426757812
 20
206.2162444591522
  9
$UNITMODE
 70
     0
  9
$VISRETAIN
 70
     1
  9
$PLINEGEN
 70
     0
  9
$PSLTSCALE
 70
     1
  9
$TREEDEPTH
 70
  3020
  9
$CMLSTYLE
  2
Standard
  9
$CMLJUST
 70
     0
  9
$CMLSCALE
 40
20.0
  9
$PROXYGRAPHICS
 70
     1
  9
$MEASUREMENT
 70
     1
  9
$CELWEIGHT
370
    -1
  9
$ENDCAPS
280
     0
  9
$JOINSTYLE
280
     0
  9
$LWDISPLAY
290
     0
  9
$INSUNITS
 70
     4
  9
$HYPERLINKBASE
  1

  9
$STYLESHEET
  1

  9
$XEDIT
290
     1
  9
$CEPSNTYPE
380
     0
  9
$PSTYLEMODE
290
     1
  9
$FINGERPRINTGUID
  2
{FF7F33C3-4233-11D6-AEE0-0000F45FD7F4}
  9
$VERSIONGUID
  2
{86199F8A-5BCE-425C-A024-F5E5473730AE}
  9
$EXTNAMES
290
     1
  9
$PSVPSCALE
 40
0.0
  9
$OLESTARTUP
290
     0
  0
ENDSEC
  0
SECTION
  2
CLASSES
  0
CLASS
  1
ACDBDICTIONARYWDFLT
  2
AcDbDictionaryWithDefault
  3
AutoCAD 2000
 90
        0
280
     0
281
     0
  0
CLASS
  1
ACDBPLACEHOLDER
  2
AcDbPlaceHolder
  3
AutoCAD 2000
 90
        0
280
     0
281
     0
  0
CLASS
  1
LAYOUT
  2
AcDbLayout
  3
AutoCAD 2000
 90
        0
280
     0
281
     0
  0
CLASS
  1
DICTIONARYVAR
  2
AcDbDictionaryVar
  3
AutoCAD 2000
 90
        0
280
     0
281
     0
  0
ENDSEC
  0
SECTION
  2
TABLES
  0
TABLE
  2
VPORT
  5
8
330
0
100
AcDbSymbolTable
 70
     1
  0
VPORT
  5
2F60
330
8
100
AcDbSymbolTableRecord
100
AcDbViewportTableRecord
  2
*Active
 70
     0
 10
0.0
 20
0.0
 11
1.0
 21
1.0
 12
190.4595204175372
 22
88.29789340597187
 13
0.0
 23
0.0
 14
5.0
 24
5.0
 15
10.0
 25
10.0
 16
0.0
 26
0.0
 36
1.0
 17
0.0
 27
0.0
 37
0.0
 40
477.2295450867058
 41
2.205499276410998
 42
50.0
 43
0.0
 44
0.0
 50
0.0
 51
0.0
 71
     0
 72
   100
 73
     1
 74
     3
 75
     0
 76
     0
 77
     0
 78
     0
281
     0
 65
     1
110
0.0
120
0.0
130
0.0
111
1.0
121
0.0
131
0.0
112
0.0
122
1.0
132
0.0
 79
     0
146
0.0
  0
ENDTAB
  0
TABLE
  2
LTYPE
  5
5
330
0
100
AcDbSymbolTable
 70
     5
  0
LTYPE
  5
14
330
5
100
AcDbSymbolTableRecord
100
AcDbLinetypeTableRecord
  2
ByBlock
 70
     0
  3

 72
    65
 73
     0
 40
0.0
  0
LTYPE
  5
15
330
5
100
AcDbSymbolTableRecord
100
AcDbLinetypeTableRecord
  2
ByLayer
 70
     0
  3

 72
    65
 73
     0
 40
0.0
  0
LTYPE
  5
16
330
5
100
AcDbSymbolTableRecord
100
AcDbLinetypeTableRecord
  2
Continuous
 70
     0
  3
Solid line
 72
    65
 73
     0
 40
0.0
  0
LTYPE
  5
33
330
5
100
AcDbSymbolTableRecord
100
AcDbLinetypeTableRecord
  2
DASHED2
 70
     0
  3
Dashed (.5x) _ _ _ _ _ _ _ _ _ _ _ _ _ _ _ _ _
 72
    65
 73
     2
 40
9.524999999999998
 49
6.349999999999999
 74
     0
 49
-3.174999999999999
 74
     0
  0
LTYPE
  5
34
330
5
100
AcDbSymbolTableRecord
100
AcDbLinetypeTableRecord
  2
CENTER2
 70
     0
  3
Center (.5x) ___ _ ___ _ ___ _ ___ _ ___ _ ___
 72
    65
 73
     4
 40
28.57499999999999
 49
19.05
 74
     0
 49
-3.174999999999999
 74
     0
 49
3.174999999999999
 74
     0
 49
-3.174999999999999
 74
     0
  0
LTYPE
  5
35
330
5
100
AcDbSymbolTableRecord
100
AcDbLinetypeTableRecord
  2
PHANTOM2
 70
     0
  3
Phantom (.5x) ___ _ _ ___ _ _ ___ _ _ ___ _ _
 72
    65
 73
     6
 40
31.75
 49
15.875
 74
     0
 49
-3.174999999999999
 74
     0
 49
3.174999999999999
 74
     0
 49
-3.174999999999999
 74
     0
 49
3.174999999999999
 74
     0
 49
-3.174999999999999
 74
     0
  0
LTYPE
  5
36
330
5
100
AcDbSymbolTableRecord
100
AcDbLinetypeTableRecord
  2
HIDDEN2
 70
     0
  3
Hidden (.5x) _ _ _ _ _ _ _ _ _ _ _ _ _ _ _ _ _
 72
    65
 73
     2
 40
4.762499999999999
 49
3.174999999999999
 74
     0
 49
-1.587499999999999
 74
     0
  0
ENDTAB
  0
TABLE
  2
LAYER
  5
2
330
0
100
AcDbSymbolTable
 70
    13
  0
LAYER
  5
10
330
2
100
AcDbSymbolTableRecord
100
AcDbLayerTableRecord
  2
0
 70
     0
 62
     7
  6
Continuous
370
    -3
390
F
  0
LAYER
  5
40
330
2
100
AcDbSymbolTableRecord
100
AcDbLayerTableRecord
  2
50-0-CON
 70
     0
 62
     4
  6
Continuous
370
    50
390
F
  0
LAYER
  5
41
330
2
100
AcDbSymbolTableRecord
100
AcDbLayerTableRecord
  2
70-0-CON
 70
     0
 62
   202
  6
Continuous
370
    70
390
F
  0
LAYER
  5
4E
330
2
100
AcDbSymbolTableRecord
100
AcDbLayerTableRecord
  2
極太線
 70
     0
 62
     7
  6
Continuous
370
    70
390
F
  0
LAYER
  5
4F
330
2
100
AcDbSymbolTableRecord
100
AcDbLayerTableRecord
  2
細線
 70
     0
 62
     8
  6
Continuous
370
    18
390
F
  0
LAYER
  5
AB
330
2
100
AcDbSymbolTableRecord
100
AcDbLayerTableRecord
  2
構築線
 70
     0
 62
    -2
  6
Continuous
290
     0
370
    18
390
F
  0
LAYER
  5
B8
330
2
100
AcDbSymbolTableRecord
100
AcDbLayerTableRecord
  2
太線
 70
     0
 62
     7
  6
Continuous
370
    35
390
F
  0
LAYER
  5
B9
330
2
100
AcDbSymbolTableRecord
100
AcDbLayerTableRecord
  2
寸法線
 70
     0
 62
     5
  6
Continuous
370
    18
390
F
  0
LAYER
  5
BA
330
2
100
AcDbSymbolTableRecord
100
AcDbLayerTableRecord
  2
破線
 70
     0
 62
     8
  6
HIDDEN2
370
    18
390
F
  0
LAYER
  5
BB
330
2
100
AcDbSymbolTableRecord
100
AcDbLayerTableRecord
  2
中心線
 70
     0
 62
     1
  6
CENTER2
370
    18
390
F
  0
LAYER
  5
BC
330
2
100
AcDbSymbolTableRecord
100
AcDbLayerTableRecord
  2
想像線
 70
     0
 62
     8
  6
PHANTOM2
370
    18
390
F
  0
LAYER
  5
BD
330
2
100
AcDbSymbolTableRecord
100
AcDbLayerTableRecord
  2
文字
 70
     0
 62
     7
  6
Continuous
370
    18
390
F
  0
LAYER
  5
180
330
2
100
AcDbSymbolTableRecord
100
AcDbLayerTableRecord
  2
Defpoints
 70
     0
 62
     7
  6
Continuous
290
     0
370
    -3
390
F
  0
ENDTAB
  0
TABLE
  2
STYLE
  5
3
330
0
100
AcDbSymbolTable
 70
     3
  0
STYLE
  5
11
330
3
100
AcDbSymbolTableRecord
100
AcDbTextStyleTableRecord
  2
Standard
 70
     0
 40
0.0
 41
1.0
 50
0.0
 71
     0
 42
3.0
  3
txt
  4

  0
STYLE
  5
32
330
3
100
AcDbSymbolTableRecord
100
AcDbTextStyleTableRecord
  2

 70
     1
 40
0.0
 41
1.0
 50
0.0
 71
     0
 42
2.5
  3
ltypeshp.shx
  4

  0
STYLE
  5
50
330
3
100
AcDbSymbolTableRecord
100
AcDbTextStyleTableRecord
  2
OKANO
 70
     0
 40
0.0
 41
1.0
 50
15.0
 71
     0
 42
5.0
  3
isocp.shx
  4
bigfont.shx
  0
ENDTAB
  0
TABLE
  2
VIEW
  5
6
330
0
100
AcDbSymbolTable
 70
     0
  0
ENDTAB
  0
TABLE
  2
UCS
  5
7
330
0
100
AcDbSymbolTable
 70
     0
  0
ENDTAB
  0
TABLE
  2
APPID
  5
9
330
0
100
AcDbSymbolTable
 70
     1
  0
APPID
  5
12
330
9
100
AcDbSymbolTableRecord
100
AcDbRegAppTableRecord
  2
ACAD
 70
     0
  0
ENDTAB
  0
TABLE
  2
DIMSTYLE
  5
A
330
0
100
AcDbSymbolTable
 70
     2
100
AcDbDimStyleTable
 71
     2
340
A2
340
27
  0
DIMSTYLE
105
27
330
A
100
AcDbSymbolTableRecord
100
AcDbDimStyleTableRecord
  2
ISO-25
 70
     0
 41
2.5
 42
0.625
 43
3.75
 44
1.25
 73
     0
 74
     0
 77
     1
 78
     8
140
2.5
141
2.5
143
0.03937007874016
147
0.625
171
     3
172
     1
271
     2
272
     2
274
     3
283
     0
284
     8
340
11
  0
DIMSTYLE
105
A2
102
{ACAD_REACTORS
330
2A44
330
2A5A
330
2AA4
330
2AB1
330
2AD3
330
2B10
330
2B1D
330
2B6B
330
2B78
330
2B8E
330
2B9B
330
2BC7
330
2C3E
330
2C54
330
2C70
330
2C99
330
2CFB
330
2D11
330
2BEA
102
}
330
A
100
AcDbSymbolTableRecord
100
AcDbDimStyleTableRecord
  2
sunpo
 70
     0
 40
0.0
 41
3.0
 42
2.0
 43
8.0
 44
3.0
 73
     0
 74
     0
 77
     1
 78
     8
140
5.0
141
2.5
143
0.03937007874016
147
1.0
171
     3
172
     1
271
     2
272
     2
274
     3
283
     0
284
     8
340
50
341
9B
342
9B
  0
ENDTAB
  0
TABLE
  2
BLOCK_RECORD
  5
1
330
0
100
AcDbSymbolTable
 70
    21
  0
BLOCK_RECORD
  5
1F
330
1
100
AcDbSymbolTableRecord
100
AcDbBlockTableRecord
  2
*Model_Space
340
22
  0
BLOCK_RECORD
  5
1B
330
1
100
AcDbSymbolTableRecord
100
AcDbBlockTableRecord
  2
*Paper_Space
340
1E
  0
BLOCK_RECORD
  5
9B
330
1
100
AcDbSymbolTableRecord
100
AcDbBlockTableRecord
  2
_Closed
340
0
102
{BLKREFS
331
2A5F
331
2A60
331
2AA9
331
2AAA
331
2AC1
331
2AC2
331
2AD9
331
2ADA
331
2AF2
331
2AF3
331
2B2D
331
2B2E
331
2B36
331
2B37
331
2B7D
331
2B7E
331
2B88
331
2B89
331
2BD7
331
2BD8
331
2C4E
331
2C4F
331
2C59
331
2C5A
331
2C84
331
2C85
331
2CAD
331
2CAE
331
2D16
331
2D17
331
2D21
331
2D22
331
2D2A
331
2D2B
331
2D88
331
2D89
331
2ED4
331
2ED5
102
}
  0
BLOCK_RECORD
  5
1510
330
1
100
AcDbSymbolTableRecord
100
AcDbBlockTableRecord
  2
A$C10A573AC
340
0
  0
BLOCK_RECORD
  5
2A45
330
1
100
AcDbSymbolTableRecord
100
AcDbBlockTableRecord
  2
*D2
340
0
  0
BLOCK_RECORD
  5
2A5B
330
1
100
AcDbSymbolTableRecord
100
AcDbBlockTableRecord
  2
*D3
340
0
  0
BLOCK_RECORD
  5
2AA5
330
1
100
AcDbSymbolTableRecord
100
AcDbBlockTableRecord
  2
*D4
340
0
  0
BLOCK_RECORD
  5
2AB2
330
1
100
AcDbSymbolTableRecord
100
AcDbBlockTableRecord
  2
*D5
340
0
  0
BLOCK_RECORD
  5
2AD4
330
1
100
AcDbSymbolTableRecord
100
AcDbBlockTableRecord
  2
*D6
340
0
  0
BLOCK_RECORD
  5
2B11
330
1
100
AcDbSymbolTableRecord
100
AcDbBlockTableRecord
  2
*D7
340
0
  0
BLOCK_RECORD
  5
2B1E
330
1
100
AcDbSymbolTableRecord
100
AcDbBlockTableRecord
  2
*D8
340
0
  0
BLOCK_RECORD
  5
2B6C
330
1
100
AcDbSymbolTableRecord
100
AcDbBlockTableRecord
  2
*D9
340
0
  0
BLOCK_RECORD
  5
2B79
330
1
100
AcDbSymbolTableRecord
100
AcDbBlockTableRecord
  2
*D10
340
0
  0
BLOCK_RECORD
  5
2B8F
330
1
100
AcDbSymbolTableRecord
100
AcDbBlockTableRecord
  2
*D11
340
0
  0
BLOCK_RECORD
  5
2B9C
330
1
100
AcDbSymbolTableRecord
100
AcDbBlockTableRecord
  2
*D12
340
0
  0
BLOCK_RECORD
  5
2BC8
330
1
100
AcDbSymbolTableRecord
100
AcDbBlockTableRecord
  2
*D13
340
0
  0
BLOCK_RECORD
  5
2BEB
330
1
100
AcDbSymbolTableRecord
100
AcDbBlockTableRecord
  2
*D14
340
0
  0
BLOCK_RECORD
  5
2C3F
330
1
100
AcDbSymbolTableRecord
100
AcDbBlockTableRecord
  2
*D15
340
0
  0
BLOCK_RECORD
  5
2C55
330
1
100
AcDbSymbolTableRecord
100
AcDbBlockTableRecord
  2
*D16
340
0
  0
BLOCK_RECORD
  5
2C71
330
1
100
AcDbSymbolTableRecord
100
AcDbBlockTableRecord
  2
*D17
340
0
  0
BLOCK_RECORD
  5
2C9A
330
1
100
AcDbSymbolTableRecord
100
AcDbBlockTableRecord
  2
*D18
340
0
  0
BLOCK_RECORD
  5
2CFC
330
1
100
AcDbSymbolTableRecord
100
AcDbBlockTableRecord
  2
*D19
340
0
  0
BLOCK_RECORD
  5
2D12
330
1
100
AcDbSymbolTableRecord
100
AcDbBlockTableRecord
  2
*D20
340
0
  0
ENDTAB
  0
ENDSEC
  0
SECTION
  2
BLOCKS
  0
BLOCK
  5
20
330
1F
100
AcDbEntity
  8
0
100
AcDbBlockBegin
  2
*Model_Space
 70
     0
 10
0.0
 20
0.0
 30
0.0
  3
*Model_Space
  1

  0
ENDBLK
  5
21
330
1F
100
AcDbEntity
  8
0
100
AcDbBlockEnd
  0
BLOCK
  5
1C
330
1B
100
AcDbEntity
 67
     1
  8
0
100
AcDbBlockBegin
  2
*Paper_Space
 70
     0
 10
0.0
 20
0.0
 30
0.0
  3
*Paper_Space
  1

  0
ENDBLK
  5
1D
330
1B
100
AcDbEntity
 67
     1
  8
0
100
AcDbBlockEnd
  0
BLOCK
  5
A0
330
9B
100
AcDbEntity
  8
0
100
AcDbBlockBegin
  2
_Closed
 70
     0
 10
0.0
 20
0.0
 30
0.0
  3
_Closed
  1

  0
LINE
  5
9C
330
9B
100
AcDbEntity
  8
0
 62
     0
370
    -2
100
AcDbLine
 10
-1.0
 20
0.1666666666666666
 30
0.0
 11
0.0
 21
0.0
 31
0.0
  0
LINE
  5
9D
330
9B
100
AcDbEntity
  8
0
 62
     0
370
    -2
100
AcDbLine
 10
0.0
 20
0.0
 30
0.0
 11
-1.0
 21
-0.1666666666666666
 31
0.0
  0
LINE
  5
9E
330
9B
100
AcDbEntity
  8
0
 62
     0
370
    -2
100
AcDbLine
 10
-1.0
 20
0.1666666666666666
 30
0.0
 11
-1.0
 21
-0.1666666666666666
 31
0.0
  0
LINE
  5
9F
330
9B
100
AcDbEntity
  8
0
 62
     0
370
    -2
100
AcDbLine
 10
0.0
 20
0.0
 30
0.0
 11
-1.0
 21
0.0
 31
0.0
  0
ENDBLK
  5
A1
330
9B
100
AcDbEntity
  8
0
100
AcDbBlockEnd
  0
BLOCK
  5
155B
330
1510
100
AcDbEntity
  8
0
100
AcDbBlockBegin
  2
A$C10A573AC
 70
     0
 10
0.0
 20
0.0
 30
0.0
  3
A$C10A573AC
  1

  0
TEXT
  5
1511
330
1510
100
AcDbEntity
  8
文字
100
AcDbText
 10
0.9844302777919438
 20
5.224957122252135
 30
0.0
 40
3.0
  1
Materal : Steel.
 51
15.0
  7
OKANO
100
AcDbText
  0
TEXT
  5
1512
330
1510
100
AcDbEntity
  8
文字
100
AcDbText
 10
-0.1141909619694843
 20
0.7500001922403499
 30
0.0
 40
3.0
  1
Surface treatment : Electro galvanized.
 51
15.0
  7
OKANO
100
AcDbText
  0
TEXT
  5
1513
330
1510
100
AcDbEntity
  8
文字
100
AcDbText
 10
-0.4901926332574931
 20
9.159967445193728
 30
0.0
 40
3.0
  1
5 TORGUE SCREW  M5-6
 51
15.0
  7
OKANO
100
AcDbText
  0
TEXT
  5
1514
330
1510
100
AcDbEntity
  8
文字
100
AcDbText
 10
1.364713526390005
 20
78.88822913323082
 30
0.0
 40
3.0
  1
Special standard,
 51
15.0
  7
OKANO
100
AcDbText
  0
TEXT
  5
1515
330
1510
100
AcDbEntity
  8
文字
100
AcDbText
 10
92.88160823408942
 20
89.92753849837379
 30
0.0
 40
3.0
  1
Screw Type
 51
15.0
  7
OKANO
100
AcDbText
  0
LINE
  5
1516
330
1510
100
AcDbEntity
  8
太線
100
AcDbLine
 10
113.9464587597784
 20
81.93930390144641
 30
0.0
 11
112.4464587597784
 21
81.93930390144641
 31
0.0
  0
LINE
  5
1517
330
1510
100
AcDbEntity
  8
太線
100
AcDbLine
 10
112.4464587597784
 20
76.9393039014464
 30
0.0
 11
121.4644995438761
 21
76.9393039014464
 31
0.0
  0
TEXT
  5
1518
330
1510
100
AcDbEntity
  8
文字
100
AcDbText
 10
93.46068240437217
 20
77.96976862235396
 30
0.0
 40
2.0
  1
17-30
 51
15.0
  7
OKANO
100
AcDbText
  0
LINE
  5
1519
330
1510
100
AcDbEntity
  8
太線
100
AcDbLine
 10
111.9464587597784
 20
81.43930390144641
 30
0.0
 11
111.9464587597784
 21
77.4393039014464
 31
0.0
  0
LINE
  5
151A
330
1510
100
AcDbEntity
  8
太線
100
AcDbLine
 10
91.94645875977846
 20
81.43930390144641
 30
0.0
 11
91.94645875977846
 21
77.43930390144639
 31
0.0
  0
LINE
  5
151B
330
1510
100
AcDbEntity
  8
太線
100
AcDbLine
 10
101.9644995438761
 20
77.4393039014464
 30
0.0
 11
101.9644995438761
 21
81.43930390144641
 31
0.0
  0
LINE
  5
151C
330
1510
100
AcDbEntity
  8
太線
100
AcDbLine
 10
92.44645875977846
 20
76.9393039014464
 30
0.0
 11
101.4644995438761
 21
76.9393039014464
 31
0.0
  0
ARC
  5
151D
330
1510
100
AcDbEntity
  8
太線
100
AcDbCircle
 10
92.44645875977846
 20
77.43930390144639
 30
0.0
 40
0.5
100
AcDbArc
 50
180.0
 51
270.0
  0
ARC
  5
151E
330
1510
100
AcDbEntity
  8
太線
100
AcDbCircle
 10
101.4644995438761
 20
77.4393039014464
 30
0.0
 40
0.5
100
AcDbArc
 50
270.0
 51
0.0
  0
ARC
  5
151F
330
1510
100
AcDbEntity
  8
太線
100
AcDbCircle
 10
112.4464587597784
 20
77.4393039014464
 30
0.0
 40
0.5
100
AcDbArc
 50
180.0
 51
270.0
  0
LINE
  5
1520
330
1510
100
AcDbEntity
  8
想像線
100
AcDbLine
 10
93.94645875977847
 20
81.93930390144641
 30
0.0
 11
99.96449954387617
 21
81.93930390144641
 31
0.0
  0
LINE
  5
1521
330
1510
100
AcDbEntity
  8
極太線
100
AcDbLine
 10
96.38762957111168
 20
85.43930390144641
 30
0.0
 11
97.50528794844525
 21
85.43930390144641
 31
0.0
  0
CIRCLE
  5
1522
330
1510
100
AcDbEntity
  8
太線
100
AcDbCircle
 10
96.94645875977847
 20
85.43930390144641
 30
0.0
 40
0.5588291886667776
  0
LINE
  5
1523
330
1510
100
AcDbEntity
  8
太線
100
AcDbLine
 10
99.46449954387617
 20
86.93930390144641
 30
0.0
 11
94.44645875977846
 21
86.93930390144641
 31
0.0
  0
LINE
  5
1524
330
1510
100
AcDbEntity
  8
太線
100
AcDbLine
 10
93.94645875977847
 20
86.43930390144641
 30
0.0
 11
93.94645875977847
 21
81.93930390144641
 31
0.0
  0
ARC
  5
1525
330
1510
100
AcDbEntity
  8
太線
100
AcDbCircle
 10
92.44645875977846
 20
81.43930390144641
 30
0.0
 40
0.5
100
AcDbArc
 50
90.0
 51
180.0
  0
LINE
  5
1526
330
1510
100
AcDbEntity
  8
太線
100
AcDbLine
 10
93.94645875977847
 20
81.93930390144641
 30
0.0
 11
92.44645875977846
 21
81.93930390144641
 31
0.0
  0
ARC
  5
1527
330
1510
100
AcDbEntity
  8
太線
100
AcDbCircle
 10
94.44645875977846
 20
86.43930390144641
 30
0.0
 40
0.5
100
AcDbArc
 50
90.0
 51
180.0
  0
LINE
  5
1528
330
1510
100
AcDbEntity
  8
太線
100
AcDbLine
 10
99.96449954387617
 20
81.93930390144641
 30
0.0
 11
99.96449954387617
 21
86.43930390144641
 31
0.0
  0
LINE
  5
1529
330
1510
100
AcDbEntity
  8
太線
100
AcDbLine
 10
101.4644995438761
 20
81.93930390144641
 30
0.0
 11
99.96449954387617
 21
81.93930390144641
 31
0.0
  0
ARC
  5
152A
330
1510
100
AcDbEntity
  8
太線
100
AcDbCircle
 10
101.4644995438761
 20
81.43930390144641
 30
0.0
 40
0.5
100
AcDbArc
 50
0.0
 51
90.0
  0
ARC
  5
152B
330
1510
100
AcDbEntity
  8
太線
100
AcDbCircle
 10
99.46449954387617
 20
86.43930390144641
 30
0.0
 40
0.5
100
AcDbArc
 50
0.0
 51
90.0
  0
LINE
  5
152C
330
1510
100
AcDbEntity
  8
極太線
100
AcDbLine
 10
96.94645875977847
 20
85.99813309011318
 30
0.0
 11
96.94645875977847
 21
84.88047471277964
 31
0.0
  0
ARC
  5
152D
330
1510
100
AcDbEntity
  8
太線
100
AcDbCircle
 10
112.4464587597784
 20
81.43930390144641
 30
0.0
 40
0.5
100
AcDbArc
 50
90.0
 51
180.0
  0
TEXT
  5
152E
330
1510
100
AcDbEntity
  8
文字
100
AcDbText
 10
134.3819212586066
 20
78.16263579228063
 30
0.0
 40
2.0
  1
101
 51
15.0
  7
OKANO
100
AcDbText
  0
TEXT
  5
152F
330
1510
100
AcDbEntity
  8
文字
100
AcDbText
 10
113.3422276612066
 20
77.96976862235396
 30
0.0
 40
2.0
  1
38-83
 51
15.0
  7
OKANO
100
AcDbText
  0
LINE
  5
1530
330
1510
100
AcDbEntity
  8
太線
100
AcDbLine
 10
141.9825403279738
 20
77.4393039014464
 30
0.0
 11
141.9825403279738
 21
81.43930390144641
 31
0.0
  0
LINE
  5
1531
330
1510
100
AcDbEntity
  8
太線
100
AcDbLine
 10
131.9644995438761
 20
81.43930390144641
 30
0.0
 11
131.9644995438761
 21
77.4393039014464
 31
0.0
  0
LINE
  5
1532
330
1510
100
AcDbEntity
  8
太線
100
AcDbLine
 10
121.9644995438761
 20
77.4393039014464
 30
0.0
 11
121.9644995438761
 21
81.43930390144641
 31
0.0
  0
ARC
  5
1533
330
1510
100
AcDbEntity
  8
太線
100
AcDbCircle
 10
121.4644995438761
 20
77.4393039014464
 30
0.0
 40
0.5
100
AcDbArc
 50
270.0
 51
0.0
  0
LINE
  5
1534
330
1510
100
AcDbEntity
  8
太線
100
AcDbLine
 10
132.4644995438761
 20
76.9393039014464
 30
0.0
 11
141.4825403279738
 21
76.9393039014464
 31
0.0
  0
ARC
  5
1535
330
1510
100
AcDbEntity
  8
太線
100
AcDbCircle
 10
132.4644995438761
 20
77.4393039014464
 30
0.0
 40
0.5
100
AcDbArc
 50
180.0
 51
270.0
  0
ARC
  5
1536
330
1510
100
AcDbEntity
  8
太線
100
AcDbCircle
 10
141.4825403279738
 20
77.4393039014464
 30
0.0
 40
0.5
100
AcDbArc
 50
270.0
 51
0.0
  0
ARC
  5
1537
330
1510
100
AcDbEntity
  8
太線
100
AcDbCircle
 10
121.4644995438761
 20
81.43930390144641
 30
0.0
 40
0.5
100
AcDbArc
 50
0.0
 51
90.0
  0
LINE
  5
1538
330
1510
100
AcDbEntity
  8
太線
100
AcDbLine
 10
119.9644995438761
 20
81.93930390144641
 30
0.0
 11
119.9644995438761
 21
86.43930390144641
 31
0.0
  0
LINE
  5
1539
330
1510
100
AcDbEntity
  8
太線
100
AcDbLine
 10
113.9464587597784
 20
86.43930390144641
 30
0.0
 11
113.9464587597784
 21
81.93930390144641
 31
0.0
  0
LINE
  5
153A
330
1510
100
AcDbEntity
  8
想像線
100
AcDbLine
 10
113.9464587597784
 20
81.93930390144641
 30
0.0
 11
119.9644995438761
 21
81.93930390144641
 31
0.0
  0
LINE
  5
153B
330
1510
100
AcDbEntity
  8
太線
100
AcDbLine
 10
121.4644995438761
 20
81.93930390144641
 30
0.0
 11
119.9644995438761
 21
81.93930390144641
 31
0.0
  0
LINE
  5
153C
330
1510
100
AcDbEntity
  8
太線
100
AcDbLine
 10
119.4644995438761
 20
86.93930390144641
 30
0.0
 11
114.4464587597784
 21
86.93930390144641
 31
0.0
  0
ARC
  5
153D
330
1510
100
AcDbEntity
  8
太線
100
AcDbCircle
 10
114.4464587597784
 20
86.43930390144641
 30
0.0
 40
0.5
100
AcDbArc
 50
90.0
 51
180.0
  0
CIRCLE
  5
153E
330
1510
100
AcDbEntity
  8
太線
100
AcDbCircle
 10
115.4464587597784
 20
85.43930390144641
 30
0.0
 40
0.5588291886667776
  0
LINE
  5
153F
330
1510
100
AcDbEntity
  8
極太線
100
AcDbLine
 10
115.4464587597784
 20
85.99813309011318
 30
0.0
 11
115.4464587597784
 21
84.88047471277964
 31
0.0
  0
LINE
  5
1540
330
1510
100
AcDbEntity
  8
極太線
100
AcDbLine
 10
114.8876295711116
 20
85.43930390144641
 30
0.0
 11
116.0052879484452
 21
85.43930390144641
 31
0.0
  0
ARC
  5
1541
330
1510
100
AcDbEntity
  8
太線
100
AcDbCircle
 10
119.4644995438761
 20
86.43930390144641
 30
0.0
 40
0.5
100
AcDbArc
 50
0.0
 51
90.0
  0
LINE
  5
1542
330
1510
100
AcDbEntity
  8
極太線
100
AcDbLine
 10
117.9056703552094
 20
85.43930390144641
 30
0.0
 11
119.0233287325429
 21
85.43930390144641
 31
0.0
  0
LINE
  5
1543
330
1510
100
AcDbEntity
  8
極太線
100
AcDbLine
 10
118.4644995438761
 20
85.99813309011318
 30
0.0
 11
118.4644995438761
 21
84.88047471277964
 31
0.0
  0
CIRCLE
  5
1544
330
1510
100
AcDbEntity
  8
太線
100
AcDbCircle
 10
118.4644995438761
 20
85.43930390144641
 30
0.0
 40
0.5588291886667776
  0
LINE
  5
1545
330
1510
100
AcDbEntity
  8
想像線
100
AcDbLine
 10
133.9644995438761
 20
81.93930390144641
 30
0.0
 11
139.9825403279738
 21
81.93930390144641
 31
0.0
  0
LINE
  5
1546
330
1510
100
AcDbEntity
  8
極太線
100
AcDbLine
 10
137.9237111393071
 20
85.43930390144641
 30
0.0
 11
139.0413695166406
 21
85.43930390144641
 31
0.0
  0
CIRCLE
  5
1547
330
1510
100
AcDbEntity
  8
太線
100
AcDbCircle
 10
138.4825403279738
 20
85.43930390144641
 30
0.0
 40
0.5588291886667776
  0
CIRCLE
  5
1548
330
1510
100
AcDbEntity
  8
太線
100
AcDbCircle
 10
138.4825403279738
 20
83.26342923362075
 30
0.0
 40
0.5588291886667776
  0
LINE
  5
1549
330
1510
100
AcDbEntity
  8
極太線
100
AcDbLine
 10
137.9237111393071
 20
83.26342923362075
 30
0.0
 11
139.0413695166406
 21
83.26342923362075
 31
0.0
  0
LINE
  5
154A
330
1510
100
AcDbEntity
  8
太線
100
AcDbLine
 10
139.4825403279738
 20
86.93930390144641
 30
0.0
 11
134.4644995438761
 21
86.93930390144641
 31
0.0
  0
LINE
  5
154B
330
1510
100
AcDbEntity
  8
太線
100
AcDbLine
 10
133.9644995438761
 20
86.43930390144641
 30
0.0
 11
133.9644995438761
 21
81.93930390144641
 31
0.0
  0
ARC
  5
154C
330
1510
100
AcDbEntity
  8
太線
100
AcDbCircle
 10
132.4644995438761
 20
81.43930390144641
 30
0.0
 40
0.5
100
AcDbArc
 50
90.0
 51
180.0
  0
LINE
  5
154D
330
1510
100
AcDbEntity
  8
太線
100
AcDbLine
 10
133.9644995438761
 20
81.93930390144641
 30
0.0
 11
132.4644995438761
 21
81.93930390144641
 31
0.0
  0
LINE
  5
154E
330
1510
100
AcDbEntity
  8
極太線
100
AcDbLine
 10
134.9056703552093
 20
83.26342923362075
 30
0.0
 11
136.0233287325429
 21
83.26342923362075
 31
0.0
  0
LINE
  5
154F
330
1510
100
AcDbEntity
  8
極太線
100
AcDbLine
 10
135.4644995438761
 20
83.82225842228752
 30
0.0
 11
135.4644995438761
 21
82.70460004495395
 31
0.0
  0
CIRCLE
  5
1550
330
1510
100
AcDbEntity
  8
太線
100
AcDbCircle
 10
135.4644995438761
 20
83.26342923362075
 30
0.0
 40
0.5588291886667776
  0
ARC
  5
1551
330
1510
100
AcDbEntity
  8
太線
100
AcDbCircle
 10
134.4644995438761
 20
86.43930390144641
 30
0.0
 40
0.5
100
AcDbArc
 50
90.0
 51
180.0
  0
CIRCLE
  5
1552
330
1510
100
AcDbEntity
  8
太線
100
AcDbCircle
 10
135.4644995438761
 20
85.43930390144641
 30
0.0
 40
0.5588291886667776
  0
LINE
  5
1553
330
1510
100
AcDbEntity
  8
極太線
100
AcDbLine
 10
135.4644995438761
 20
85.99813309011318
 30
0.0
 11
135.4644995438761
 21
84.88047471277964
 31
0.0
  0
LINE
  5
1554
330
1510
100
AcDbEntity
  8
極太線
100
AcDbLine
 10
134.9056703552093
 20
85.43930390144641
 30
0.0
 11
136.0233287325429
 21
85.43930390144641
 31
0.0
  0
LINE
  5
1555
330
1510
100
AcDbEntity
  8
太線
100
AcDbLine
 10
139.9825403279738
 20
81.93930390144641
 30
0.0
 11
139.9825403279738
 21
86.43930390144641
 31
0.0
  0
ARC
  5
1556
330
1510
100
AcDbEntity
  8
太線
100
AcDbCircle
 10
141.4825403279738
 20
81.43930390144641
 30
0.0
 40
0.5
100
AcDbArc
 50
0.0
 51
90.0
  0
LINE
  5
1557
330
1510
100
AcDbEntity
  8
極太線
100
AcDbLine
 10
138.4825403279738
 20
83.82225842228752
 30
0.0
 11
138.4825403279738
 21
82.70460004495395
 31
0.0
  0
LINE
  5
1558
330
1510
100
AcDbEntity
  8
太線
100
AcDbLine
 10
141.4825403279738
 20
81.93930390144641
 30
0.0
 11
139.9825403279738
 21
81.93930390144641
 31
0.0
  0
ARC
  5
1559
330
1510
100
AcDbEntity
  8
太線
100
AcDbCircle
 10
139.4825403279738
 20
86.43930390144641
 30
0.0
 40
0.5
100
AcDbArc
 50
0.0
 51
90.0
  0
LINE
  5
155A
330
1510
100
AcDbEntity
  8
極太線
100
AcDbLine
 10
138.4825403279738
 20
85.99813309011318
 30
0.0
 11
138.4825403279738
 21
84.88047471277964
 31
0.0
  0
ENDBLK
  5
155C
330
1510
100
AcDbEntity
  8
0
100
AcDbBlockEnd
  0
BLOCK
  5
2A4F
330
2A45
100
AcDbEntity
  8
0
100
AcDbBlockBegin
  2
*D2
 70
     1
 10
0.0
 20
0.0
 30
0.0
  3
*D2
  1

  0
LINE
  5
2AEF
330
2A45
100
AcDbEntity
  8
寸法線
 62
     0
370
    -2
100
AcDbLine
 10
279.6414745488584
 20
150.4711488256961
 30
0.0
 11
310.7630623366767
 21
150.4711488256961
 31
0.0
  0
LINE
  5
2AF0
330
2A45
100
AcDbEntity
  8
寸法線
 62
     0
370
    -2
100
AcDbLine
 10
289.6414745488584
 20
210.4711488256961
 30
0.0
 11
310.7630623366767
 21
210.4711488256961
 31
0.0
  0
LINE
  5
2AF1
330
2A45
100
AcDbEntity
  8
寸法線
 62
     0
370
    -2
100
AcDbLine
 10
307.7630623366767
 20
153.4711488256961
 30
0.0
 11
307.7630623366767
 21
207.4711488256961
 31
0.0
  0
INSERT
  5
2AF2
330
2A45
100
AcDbEntity
  8
寸法線
 62
     0
370
    -2
100
AcDbBlockReference
  2
_Closed
 10
307.7630623366767
 20
150.4711488256961
 30
0.0
 41
3.0
 42
3.0
 43
3.0
 50
270.0
  0
INSERT
  5
2AF3
330
2A45
100
AcDbEntity
  8
寸法線
 62
     0
370
    -2
100
AcDbBlockReference
  2
_Closed
 10
307.7630623366767
 20
210.4711488256961
 30
0.0
 41
3.0
 42
3.0
 43
3.0
 50
90.0
  0
MTEXT
  5
2AF4
330
2A45
100
AcDbEntity
  8
寸法線
 62
     0
100
AcDbMText
 10
304.2630623366767
 20
180.4711488256961
 30
0.0
 40
5.0
 41
0.0
 71
     5
 72
     1
  1
57.3
  7
OKANO
 11
0.0000000000000001
 21
1.0
 31
0.0
 73
     1
 44
1.0
  0
POINT
  5
2AF5
330
2A45
100
AcDbEntity
  8
Defpoints
 62
     0
100
AcDbPoint
 10
277.6414745488584
 20
150.4711488256961
 30
0.0
  0
POINT
  5
2AF6
330
2A45
100
AcDbEntity
  8
Defpoints
 62
     0
100
AcDbPoint
 10
287.6414745488584
 20
210.4711488256961
 30
0.0
  0
POINT
  5
2AF7
330
2A45
100
AcDbEntity
  8
Defpoints
 62
     0
100
AcDbPoint
 10
307.7630623366767
 20
210.4711488256961
 30
0.0
  0
ENDBLK
  5
2A50
330
2A45
100
AcDbEntity
  8
0
100
AcDbBlockEnd
  0
BLOCK
  5
2A65
330
2A5B
100
AcDbEntity
  8
0
100
AcDbBlockBegin
  2
*D3
 70
     1
 10
0.0
 20
0.0
 30
0.0
  3
*D3
  1

  0
LINE
  5
2A5C
330
2A5B
100
AcDbEntity
  8
寸法線
 62
     0
370
    -2
100
AcDbLine
 10
205.6414745488584
 20
150.4711488256961
 30
0.0
 11
196.2312891574442
 21
150.4711488256961
 31
0.0
  0
LINE
  5
2A5D
330
2A5B
100
AcDbEntity
  8
寸法線
 62
     0
370
    -2
100
AcDbLine
 10
215.6414745488584
 20
125.4711488256961
 30
0.0
 11
196.2312891574442
 21
125.4711488256961
 31
0.0
  0
LINE
  5
2A5E
330
2A5B
100
AcDbEntity
  8
寸法線
 62
     0
370
    -2
100
AcDbLine
 10
199.2312891574442
 20
147.4711488256961
 30
0.0
 11
199.2312891574442
 21
128.4711488256961
 31
0.0
  0
INSERT
  5
2A5F
330
2A5B
100
AcDbEntity
  8
寸法線
 62
     0
370
    -2
100
AcDbBlockReference
  2
_Closed
 10
199.2312891574442
 20
150.4711488256961
 30
0.0
 41
3.0
 42
3.0
 43
3.0
 50
90.0
  0
INSERT
  5
2A60
330
2A5B
100
AcDbEntity
  8
寸法線
 62
     0
370
    -2
100
AcDbBlockReference
  2
_Closed
 10
199.2312891574442
 20
125.4711488256961
 30
0.0
 41
3.0
 42
3.0
 43
3.0
 50
270.0
  0
MTEXT
  5
2A61
330
2A5B
100
AcDbEntity
  8
寸法線
 62
     0
100
AcDbMText
 10
195.7307970314599
 20
137.9711488256962
 30
0.0
 40
5.0
 41
0.0
 71
     5
 72
     1
  1
25
  7
OKANO
 11
0.0000000000000001
 21
1.0
 31
0.0
 73
     1
 44
1.0
  0
POINT
  5
2A62
330
2A5B
100
AcDbEntity
  8
Defpoints
 62
     0
100
AcDbPoint
 10
207.6414745488584
 20
150.4711488256961
 30
0.0
  0
POINT
  5
2A63
330
2A5B
100
AcDbEntity
  8
Defpoints
 62
     0
100
AcDbPoint
 10
217.6414745488584
 20
125.4711488256961
 30
0.0
  0
POINT
  5
2A64
330
2A5B
100
AcDbEntity
  8
Defpoints
 62
     0
100
AcDbPoint
 10
199.2312891574442
 20
125.4711488256961
 30
0.0
  0
ENDBLK
  5
2A66
330
2A5B
100
AcDbEntity
  8
0
100
AcDbBlockEnd
  0
BLOCK
  5
2AAF
330
2AA5
100
AcDbEntity
  8
0
100
AcDbBlockBegin
  2
*D4
 70
     1
 10
0.0
 20
0.0
 30
0.0
  3
*D4
  1

  0
LINE
  5
2AA6
330
2AA5
100
AcDbEntity
  8
寸法線
 62
     0
370
    -2
100
AcDbLine
 10
102.2015140254043
 20
123.4711488256961
 30
0.0
 11
102.2015140254043
 21
114.3903612439743
 31
0.0
  0
LINE
  5
2AA7
330
2AA5
100
AcDbEntity
  8
寸法線
 62
     0
370
    -2
100
AcDbLine
 10
127.2015140254043
 20
148.4711488256961
 30
0.0
 11
127.2015140254043
 21
114.3903612439743
 31
0.0
  0
LINE
  5
2AA8
330
2AA5
100
AcDbEntity
  8
寸法線
 62
     0
370
    -2
100
AcDbLine
 10
105.2015140254043
 20
117.3903612439743
 30
0.0
 11
124.2015140254043
 21
117.3903612439743
 31
0.0
  0
INSERT
  5
2AA9
330
2AA5
100
AcDbEntity
  8
寸法線
 62
     0
370
    -2
100
AcDbBlockReference
  2
_Closed
 10
102.2015140254043
 20
117.3903612439743
 30
0.0
 41
3.0
 42
3.0
 43
3.0
 50
180.0
  0
INSERT
  5
2AAA
330
2AA5
100
AcDbEntity
  8
寸法線
 62
     0
370
    -2
100
AcDbBlockReference
  2
_Closed
 10
127.2015140254043
 20
117.3903612439743
 30
0.0
 41
3.0
 42
3.0
 43
3.0
  0
MTEXT
  5
2AAB
330
2AA5
100
AcDbEntity
  8
寸法線
 62
     0
100
AcDbMText
 10
114.7015140254043
 20
120.8908533699585
 30
0.0
 40
5.0
 41
0.0
 71
     5
 72
     1
  1
25
  7
OKANO
 73
     1
 44
1.0
  0
POINT
  5
2AAC
330
2AA5
100
AcDbEntity
  8
Defpoints
 62
     0
100
AcDbPoint
 10
102.2015140254043
 20
125.4711488256961
 30
0.0
  0
POINT
  5
2AAD
330
2AA5
100
AcDbEntity
  8
Defpoints
 62
     0
100
AcDbPoint
 10
127.2015140254043
 20
150.4711488256961
 30
0.0
  0
POINT
  5
2AAE
330
2AA5
100
AcDbEntity
  8
Defpoints
 62
     0
100
AcDbPoint
 10
127.2015140254043
 20
117.3903612439743
 30
0.0
  0
ENDBLK
  5
2AB0
330
2AA5
100
AcDbEntity
  8
0
100
AcDbBlockEnd
  0
BLOCK
  5
2ABC
330
2AB2
100
AcDbEntity
  8
0
100
AcDbBlockBegin
  2
*D5
 70
     1
 10
0.0
 20
0.0
 30
0.0
  3
*D5
  1

  0
LINE
  5
2ABE
330
2AB2
100
AcDbEntity
  8
寸法線
 62
     0
370
    -2
100
AcDbLine
 10
129.2015140254043
 20
148.4711488256961
 30
0.0
 11
145.7646083528009
 21
148.4711488256961
 31
0.0
  0
LINE
  5
2ABF
330
2AB2
100
AcDbEntity
  8
寸法線
 62
     0
370
    -2
100
AcDbLine
 10
104.2015140254043
 20
125.4711488256961
 30
0.0
 11
145.7646083528009
 21
125.4711488256961
 31
0.0
  0
LINE
  5
2AC0
330
2AB2
100
AcDbEntity
  8
寸法線
 62
     0
370
    -2
100
AcDbLine
 10
142.7646083528009
 20
145.4711488256961
 30
0.0
 11
142.7646083528009
 21
128.4711488256961
 31
0.0
  0
INSERT
  5
2AC1
330
2AB2
100
AcDbEntity
  8
寸法線
 62
     0
370
    -2
100
AcDbBlockReference
  2
_Closed
 10
142.7646083528009
 20
148.4711488256961
 30
0.0
 41
3.0
 42
3.0
 43
3.0
 50
90.0
  0
INSERT
  5
2AC2
330
2AB2
100
AcDbEntity
  8
寸法線
 62
     0
370
    -2
100
AcDbBlockReference
  2
_Closed
 10
142.7646083528009
 20
125.4711488256961
 30
0.0
 41
3.0
 42
3.0
 43
3.0
 50
270.0
  0
MTEXT
  5
2AC3
330
2AB2
100
AcDbEntity
  8
寸法線
 62
     0
100
AcDbMText
 10
139.2641162268166
 20
136.9711488256961
 30
0.0
 40
5.0
 41
0.0
 71
     5
 72
     1
  1
25.0
  7
OKANO
 11
0.0000000000000001
 21
1.0
 31
0.0
 73
     1
 44
1.0
  0
POINT
  5
2AC4
330
2AB2
100
AcDbEntity
  8
Defpoints
 62
     0
100
AcDbPoint
 10
127.2015140254043
 20
148.4711488256961
 30
0.0
  0
POINT
  5
2AC5
330
2AB2
100
AcDbEntity
  8
Defpoints
 62
     0
100
AcDbPoint
 10
102.2015140254043
 20
125.4711488256961
 30
0.0
  0
POINT
  5
2AC6
330
2AB2
100
AcDbEntity
  8
Defpoints
 62
     0
100
AcDbPoint
 10
142.7646083528009
 20
125.4711488256961
 30
0.0
  0
ENDBLK
  5
2ABD
330
2AB2
100
AcDbEntity
  8
0
100
AcDbBlockEnd
  0
BLOCK
  5
2ADD
330
2AD4
100
AcDbEntity
  8
0
100
AcDbBlockBegin
  2
*D6
 70
     1
 10
0.0
 20
0.0
 30
0.0
  3
*D6
  1

  0
LINE
  5
2AD5
330
2AD4
100
AcDbEntity
  8
寸法線
 62
     0
370
    -2
100
AcDbLine
 10
125.1383580206678
 20
167.0658368538297
 30
0.0
 11
110.463612831823
 21
150.6825142146499
 31
0.0
  0
LINE
  5
2AD6
330
2AD4
100
AcDbEntity
  8
寸法線
 62
     0
370
    -2
100
AcDbLine
 10
102.457232706837
 20
141.7439529604977
 30
0.0
 11
100.4556376755906
 21
139.5093126469597
 31
0.0
  0
MTEXT
  5
2AD7
330
2AD4
100
AcDbEntity
  8
寸法線
 62
     0
100
AcDbMText
 10
119.5237299234551
 20
166.0433151850583
 30
0.0
 40
5.0
 41
0.0
 71
     5
 72
     1
  1
\U+22056
  7
OKANO
 11
0.6671983437488325
 21
0.7448801045126759
 31
0.0
 73
     1
 44
1.0
  0
LINE
  5
2AD8
330
2AD4
100
AcDbEntity
  8
寸法線
 62
     0
370
    -2
100
AcDbLine
 10
104.4588277380835
 20
143.9785932740358
 30
0.0
 11
108.4620178005765
 21
148.4478739011118
 31
0.0
  0
INSERT
  5
2AD9
330
2AD4
100
AcDbEntity
  8
寸法線
 62
     0
370
    -2
100
AcDbBlockReference
  2
_Closed
 10
104.4588277380835
 20
143.9785932740358
 30
0.0
 41
3.0
 42
3.0
 43
3.0
 50
48.14880184868833
  0
INSERT
  5
2ADA
330
2AD4
100
AcDbEntity
  8
寸法線
 62
     0
370
    -2
100
AcDbBlockReference
  2
_Closed
 10
108.4620178005765
 20
148.4478739011118
 30
0.0
 41
3.0
 42
3.0
 43
3.0
 50
228.1488018486883
  0
POINT
  5
2ADB
330
2AD4
100
AcDbEntity
  8
Defpoints
 62
     0
100
AcDbPoint
 10
108.4620178005765
 20
148.4478739011118
 30
0.0
  0
POINT
  5
2ADC
330
2AD4
100
AcDbEntity
  8
Defpoints
 62
     0
100
AcDbPoint
 10
104.4588277380835
 20
143.9785932740358
 30
0.0
  0
ENDBLK
  5
2ADE
330
2AD4
100
AcDbEntity
  8
0
100
AcDbBlockEnd
  0
BLOCK
  5
2B1B
330
2B11
100
AcDbEntity
  8
0
100
AcDbBlockBegin
  2
*D7
 70
     1
 10
0.0
 20
0.0
 30
0.0
  3
*D7
  1

  0
LINE
  5
2B33
330
2B11
100
AcDbEntity
  8
寸法線
 62
     0
370
    -2
100
AcDbLine
 10
217.6414745488584
 20
113.4711488256961
 30
0.0
 11
217.6414745488584
 21
82.72067086330276
 31
0.0
  0
LINE
  5
2B34
330
2B11
100
AcDbEntity
  8
寸法線
 62
     0
370
    -2
100
AcDbLine
 10
277.6414745488584
 20
113.4711488256961
 30
0.0
 11
277.6414745488584
 21
82.72067086330276
 31
0.0
  0
LINE
  5
2B35
330
2B11
100
AcDbEntity
  8
寸法線
 62
     0
370
    -2
100
AcDbLine
 10
220.6414745488584
 20
85.72067086330276
 30
0.0
 11
274.6414745488584
 21
85.72067086330276
 31
0.0
  0
INSERT
  5
2B36
330
2B11
100
AcDbEntity
  8
寸法線
 62
     0
370
    -2
100
AcDbBlockReference
  2
_Closed
 10
217.6414745488584
 20
85.72067086330276
 30
0.0
 41
3.0
 42
3.0
 43
3.0
 50
180.0
  0
INSERT
  5
2B37
330
2B11
100
AcDbEntity
  8
寸法線
 62
     0
370
    -2
100
AcDbBlockReference
  2
_Closed
 10
277.6414745488584
 20
85.72067086330276
 30
0.0
 41
3.0
 42
3.0
 43
3.0
  0
MTEXT
  5
2B38
330
2B11
100
AcDbEntity
  8
寸法線
 62
     0
100
AcDbMText
 10
247.6414745488584
 20
89.22067086330276
 30
0.0
 40
5.0
 41
0.0
 71
     5
 72
     1
  1
57.3
  7
OKANO
 73
     1
 44
1.0
  0
POINT
  5
2B39
330
2B11
100
AcDbEntity
  8
Defpoints
 62
     0
100
AcDbPoint
 10
217.6414745488584
 20
115.4711488256961
 30
0.0
  0
POINT
  5
2B3A
330
2B11
100
AcDbEntity
  8
Defpoints
 62
     0
100
AcDbPoint
 10
277.6414745488584
 20
115.4711488256961
 30
0.0
  0
POINT
  5
2B3B
330
2B11
100
AcDbEntity
  8
Defpoints
 62
     0
100
AcDbPoint
 10
277.6414745488584
 20
85.72067086330276
 30
0.0
  0
ENDBLK
  5
2B1C
330
2B11
100
AcDbEntity
  8
0
100
AcDbBlockEnd
  0
BLOCK
  5
2B28
330
2B1E
100
AcDbEntity
  8
0
100
AcDbBlockBegin
  2
*D8
 70
     1
 10
0.0
 20
0.0
 30
0.0
  3
*D8
  1

  0
LINE
  5
2B2A
330
2B1E
100
AcDbEntity
  8
寸法線
 62
     0
370
    -2
100
AcDbLine
 10
222.6414745488584
 20
113.4711488256961
 30
0.0
 11
222.6414745488584
 21
95.09590984449946
 31
0.0
  0
LINE
  5
2B2B
330
2B1E
100
AcDbEntity
  8
寸法線
 62
     0
370
    -2
100
AcDbLine
 10
272.6414745488584
 20
113.4711488256961
 30
0.0
 11
272.6414745488584
 21
95.09590984449946
 31
0.0
  0
LINE
  5
2B2C
330
2B1E
100
AcDbEntity
  8
寸法線
 62
     0
370
    -2
100
AcDbLine
 10
225.6414745488584
 20
98.09590984449947
 30
0.0
 11
269.6414745488584
 21
98.09590984449947
 31
0.0
  0
INSERT
  5
2B2D
330
2B1E
100
AcDbEntity
  8
寸法線
 62
     0
370
    -2
100
AcDbBlockReference
  2
_Closed
 10
222.6414745488584
 20
98.09590984449947
 30
0.0
 41
3.0
 42
3.0
 43
3.0
 50
180.0
  0
INSERT
  5
2B2E
330
2B1E
100
AcDbEntity
  8
寸法線
 62
     0
370
    -2
100
AcDbBlockReference
  2
_Closed
 10
272.6414745488584
 20
98.09590984449947
 30
0.0
 41
3.0
 42
3.0
 43
3.0
  0
MTEXT
  5
2B2F
330
2B1E
100
AcDbEntity
  8
寸法線
 62
     0
100
AcDbMText
 10
247.6414745488584
 20
101.5959098444994
 30
0.0
 40
5.0
 41
0.0
 71
     5
 72
     1
  1
49.3
  7
OKANO
 73
     1
 44
1.0
  0
POINT
  5
2B30
330
2B1E
100
AcDbEntity
  8
Defpoints
 62
     0
100
AcDbPoint
 10
222.6414745488584
 20
115.4711488256961
 30
0.0
  0
POINT
  5
2B31
330
2B1E
100
AcDbEntity
  8
Defpoints
 62
     0
100
AcDbPoint
 10
272.6414745488584
 20
115.4711488256961
 30
0.0
  0
POINT
  5
2B32
330
2B1E
100
AcDbEntity
  8
Defpoints
 62
     0
100
AcDbPoint
 10
272.6414745488584
 20
98.09590984449947
 30
0.0
  0
ENDBLK
  5
2B29
330
2B1E
100
AcDbEntity
  8
0
100
AcDbBlockEnd
  0
BLOCK
  5
2B76
330
2B6C
100
AcDbEntity
  8
0
100
AcDbBlockBegin
  2
*D9
 70
     1
 10
0.0
 20
0.0
 30
0.0
  3
*D9
  1

  0
LINE
  5
2B85
330
2B6C
100
AcDbEntity
  8
寸法線
 62
     0
370
    -2
100
AcDbLine
 10
70.20151402540432
 20
210.4711488256961
 30
0.0
 11
21.38574414206847
 21
210.4711488256961
 31
0.0
  0
LINE
  5
2B86
330
2B6C
100
AcDbEntity
  8
寸法線
 62
     0
370
    -2
100
AcDbLine
 10
70.20151402540432
 20
150.4711488256961
 30
0.0
 11
21.38574414206845
 21
150.4711488256962
 31
0.0
  0
LINE
  5
2B87
330
2B6C
100
AcDbEntity
  8
寸法線
 62
     0
370
    -2
100
AcDbLine
 10
24.38574414206847
 20
207.4711488256961
 30
0.0
 11
24.38574414206846
 21
153.4711488256962
 31
0.0
  0
INSERT
  5
2B88
330
2B6C
100
AcDbEntity
  8
寸法線
 62
     0
370
    -2
100
AcDbBlockReference
  2
_Closed
 10
24.38574414206847
 20
210.4711488256961
 30
0.0
 41
3.0
 42
3.0
 43
3.0
 50
90.0
  0
INSERT
  5
2B89
330
2B6C
100
AcDbEntity
  8
寸法線
 62
     0
370
    -2
100
AcDbBlockReference
  2
_Closed
 10
24.38574414206845
 20
150.4711488256962
 30
0.0
 41
3.0
 42
3.0
 43
3.0
 50
270.0
  0
MTEXT
  5
2B8A
330
2B6C
100
AcDbEntity
  8
寸法線
 62
     0
100
AcDbMText
 10
20.88574414206843
 20
180.4711488256962
 30
0.0
 40
5.0
 41
0.0
 71
     5
 72
     1
  1
57.3
  7
OKANO
 11
0.0000000000000001
 21
1.0
 31
0.0
 73
     1
 44
1.0
  0
POINT
  5
2B8B
330
2B6C
100
AcDbEntity
  8
Defpoints
 62
     0
100
AcDbPoint
 10
72.20151402540432
 20
210.4711488256961
 30
0.0
  0
POINT
  5
2B8C
330
2B6C
100
AcDbEntity
  8
Defpoints
 62
     0
100
AcDbPoint
 10
72.20151402540432
 20
150.4711488256961
 30
0.0
  0
POINT
  5
2B8D
330
2B6C
100
AcDbEntity
  8
Defpoints
 62
     0
100
AcDbPoint
 10
24.38574414206845
 20
150.4711488256962
 30
0.0
  0
ENDBLK
  5
2B77
330
2B6C
100
AcDbEntity
  8
0
100
AcDbBlockEnd
  0
BLOCK
  5
2B83
330
2B79
100
AcDbEntity
  8
0
100
AcDbBlockBegin
  2
*D10
 70
     1
 10
0.0
 20
0.0
 30
0.0
  3
*D10
  1

  0
LINE
  5
2B7A
330
2B79
100
AcDbEntity
  8
寸法線
 62
     0
370
    -2
100
AcDbLine
 10
70.20151402540432
 20
150.4711488256961
 30
0.0
 11
21.38574414206845
 21
150.4711488256962
 31
0.0
  0
LINE
  5
2B7B
330
2B79
100
AcDbEntity
  8
寸法線
 62
     0
370
    -2
100
AcDbLine
 10
40.20151402540432
 20
115.4711488256961
 30
0.0
 11
21.38574414206845
 21
115.4711488256961
 31
0.0
  0
LINE
  5
2B7C
330
2B79
100
AcDbEntity
  8
寸法線
 62
     0
370
    -2
100
AcDbLine
 10
24.38574414206845
 20
147.4711488256962
 30
0.0
 11
24.38574414206845
 21
118.4711488256961
 31
0.0
  0
INSERT
  5
2B7D
330
2B79
100
AcDbEntity
  8
寸法線
 62
     0
370
    -2
100
AcDbBlockReference
  2
_Closed
 10
24.38574414206845
 20
150.4711488256962
 30
0.0
 41
3.0
 42
3.0
 43
3.0
 50
90.0
  0
INSERT
  5
2B7E
330
2B79
100
AcDbEntity
  8
寸法線
 62
     0
370
    -2
100
AcDbBlockReference
  2
_Closed
 10
24.38574414206845
 20
115.4711488256961
 30
0.0
 41
3.0
 42
3.0
 43
3.0
 50
270.0
  0
MTEXT
  5
2B7F
330
2B79
100
AcDbEntity
  8
寸法線
 62
     0
100
AcDbMText
 10
20.88574414206843
 20
132.9711488256961
 30
0.0
 40
5.0
 41
0.0
 71
     5
 72
     1
  1
35
  7
OKANO
 11
0.0000000000000001
 21
1.0
 31
0.0
 73
     1
 44
1.0
  0
POINT
  5
2B80
330
2B79
100
AcDbEntity
  8
Defpoints
 62
     0
100
AcDbPoint
 10
72.20151402540432
 20
150.4711488256961
 30
0.0
  0
POINT
  5
2B81
330
2B79
100
AcDbEntity
  8
Defpoints
 62
     0
100
AcDbPoint
 10
42.20151402540432
 20
115.4711488256961
 30
0.0
  0
POINT
  5
2B82
330
2B79
100
AcDbEntity
  8
Defpoints
 62
     0
100
AcDbPoint
 10
24.38574414206845
 20
115.4711488256961
 30
0.0
  0
ENDBLK
  5
2B84
330
2B79
100
AcDbEntity
  8
0
100
AcDbBlockEnd
  0
BLOCK
  5
2B99
330
2B8F
100
AcDbEntity
  8
0
100
AcDbBlockBegin
  2
*D11
 70
     1
 10
0.0
 20
0.0
 30
0.0
  3
*D11
  1

  0
LINE
  5
2D27
330
2B8F
100
AcDbEntity
  8
寸法線
 62
     0
370
    -2
100
AcDbLine
 10
100.2015140254043
 20
56.53560202454525
 30
0.0
 11
84.14285052731363
 21
56.53560202454525
 31
0.0
  0
LINE
  5
2D28
330
2B8F
100
AcDbEntity
  8
寸法線
 62
     0
370
    -2
100
AcDbLine
 10
100.2015140254043
 20
6.535602024545256
 30
0.0
 11
84.14285052731361
 21
6.53560202454526
 31
0.0
  0
LINE
  5
2D29
330
2B8F
100
AcDbEntity
  8
寸法線
 62
     0
370
    -2
100
AcDbLine
 10
87.14285052731362
 20
53.53560202454525
 30
0.0
 11
87.1428505273136
 21
9.53560202454526
 31
0.0
  0
INSERT
  5
2D2A
330
2B8F
100
AcDbEntity
  8
寸法線
 62
     0
370
    -2
100
AcDbBlockReference
  2
_Closed
 10
87.14285052731362
 20
56.53560202454525
 30
0.0
 41
3.0
 42
3.0
 43
3.0
 50
90.0
  0
INSERT
  5
2D2B
330
2B8F
100
AcDbEntity
  8
寸法線
 62
     0
370
    -2
100
AcDbBlockReference
  2
_Closed
 10
87.1428505273136
 20
6.535602024545259
 30
0.0
 41
3.0
 42
3.0
 43
3.0
 50
270.0
  0
MTEXT
  5
2D2C
330
2B8F
100
AcDbEntity
  8
寸法線
 62
     0
100
AcDbMText
 10
83.64285052731361
 20
31.53560202454527
 30
0.0
 40
5.0
 41
0.0
 71
     5
 72
     1
  1
49.0
  7
OKANO
 11
0.0000000000000001
 21
1.0
 31
0.0
 73
     1
 44
1.0
  0
POINT
  5
2D2D
330
2B8F
100
AcDbEntity
  8
Defpoints
 62
     0
100
AcDbPoint
 10
102.2015140254043
 20
56.53560202454525
 30
0.0
  0
POINT
  5
2D2E
330
2B8F
100
AcDbEntity
  8
Defpoints
 62
     0
100
AcDbPoint
 10
102.2015140254043
 20
6.535602024545255
 30
0.0
  0
POINT
  5
2D2F
330
2B8F
100
AcDbEntity
  8
Defpoints
 62
     0
100
AcDbPoint
 10
87.1428505273136
 20
6.535602024545259
 30
0.0
  0
ENDBLK
  5
2B9A
330
2B8F
100
AcDbEntity
  8
0
100
AcDbBlockEnd
  0
BLOCK
  5
2BA6
330
2B9C
100
AcDbEntity
  8
0
100
AcDbBlockBegin
  2
*D12
 70
     1
 10
0.0
 20
0.0
 30
0.0
  3
*D12
  1

  0
LINE
  5
2D1E
330
2B9C
100
AcDbEntity
  8
寸法線
 62
     0
370
    -2
100
AcDbLine
 10
139.2015140254043
 20
56.53560202454526
 30
0.0
 11
162.1351610243002
 21
56.53560202454525
 31
0.0
  0
LINE
  5
2D1F
330
2B9C
100
AcDbEntity
  8
寸法線
 62
     0
370
    -2
100
AcDbLine
 10
139.2015140254043
 20
6.535602024545255
 30
0.0
 11
162.1351610243002
 21
6.535602024545248
 31
0.0
  0
LINE
  5
2D20
330
2B9C
100
AcDbEntity
  8
寸法線
 62
     0
370
    -2
100
AcDbLine
 10
159.1351610243002
 20
53.53560202454525
 30
0.0
 11
159.1351610243002
 21
9.535602024545248
 31
0.0
  0
INSERT
  5
2D21
330
2B9C
100
AcDbEntity
  8
寸法線
 62
     0
370
    -2
100
AcDbBlockReference
  2
_Closed
 10
159.1351610243002
 20
56.53560202454525
 30
0.0
 41
3.0
 42
3.0
 43
3.0
 50
90.0
  0
INSERT
  5
2D22
330
2B9C
100
AcDbEntity
  8
寸法線
 62
     0
370
    -2
100
AcDbBlockReference
  2
_Closed
 10
159.1351610243002
 20
6.535602024545249
 30
0.0
 41
3.0
 42
3.0
 43
3.0
 50
270.0
  0
MTEXT
  5
2D23
330
2B9C
100
AcDbEntity
  8
寸法線
 62
     0
100
AcDbMText
 10
155.6351610243002
 20
31.53560202454527
 30
0.0
 40
5.0
 41
0.0
 71
     5
 72
     1
  1
49.3
  7
OKANO
 11
0.0000000000000001
 21
1.0
 31
0.0
 73
     1
 44
1.0
  0
POINT
  5
2D24
330
2B9C
100
AcDbEntity
  8
Defpoints
 62
     0
100
AcDbPoint
 10
137.2015140254043
 20
56.53560202454526
 30
0.0
  0
POINT
  5
2D25
330
2B9C
100
AcDbEntity
  8
Defpoints
 62
     0
100
AcDbPoint
 10
137.2015140254043
 20
6.535602024545256
 30
0.0
  0
POINT
  5
2D26
330
2B9C
100
AcDbEntity
  8
Defpoints
 62
     0
100
AcDbPoint
 10
159.1351610243002
 20
6.535602024545249
 30
0.0
  0
ENDBLK
  5
2BA7
330
2B9C
100
AcDbEntity
  8
0
100
AcDbBlockEnd
  0
BLOCK
  5
2BD2
330
2BC8
100
AcDbEntity
  8
0
100
AcDbBlockBegin
  2
*D13
 70
     1
 10
0.0
 20
0.0
 30
0.0
  3
*D13
  1

  0
LINE
  5
2BD4
330
2BC8
100
AcDbEntity
  8
寸法線
 62
     0
370
    -2
100
AcDbLine
 10
42.20151402540432
 20
182.4711488256961
 30
0.0
 11
42.20151402540432
 21
233.221392422382
 31
0.0
  0
LINE
  5
2BD5
330
2BC8
100
AcDbEntity
  8
寸法線
 62
     0
370
    -2
100
AcDbLine
 10
137.2015140254043
 20
182.4711488256961
 30
0.0
 11
137.2015140254043
 21
233.221392422382
 31
0.0
  0
LINE
  5
2BD6
330
2BC8
100
AcDbEntity
  8
寸法線
 62
     0
370
    -2
100
AcDbLine
 10
45.20151402540432
 20
230.221392422382
 30
0.0
 11
134.2015140254043
 21
230.221392422382
 31
0.0
  0
INSERT
  5
2BD7
330
2BC8
100
AcDbEntity
  8
寸法線
 62
     0
370
    -2
100
AcDbBlockReference
  2
_Closed
 10
42.20151402540432
 20
230.221392422382
 30
0.0
 41
3.0
 42
3.0
 43
3.0
 50
180.0
  0
INSERT
  5
2BD8
330
2BC8
100
AcDbEntity
  8
寸法線
 62
     0
370
    -2
100
AcDbBlockReference
  2
_Closed
 10
137.2015140254043
 20
230.221392422382
 30
0.0
 41
3.0
 42
3.0
 43
3.0
  0
MTEXT
  5
2BD9
330
2BC8
100
AcDbEntity
  8
寸法線
 62
     0
100
AcDbMText
 10
89.70151402540432
 20
233.7230929459154
 30
0.0
 40
5.0
 41
0.0
 71
     5
 72
     1
  1
92.3
  7
OKANO
 73
     1
 44
1.0
  0
POINT
  5
2BDA
330
2BC8
100
AcDbEntity
  8
Defpoints
 62
     0
100
AcDbPoint
 10
42.20151402540432
 20
180.4711488256961
 30
0.0
  0
POINT
  5
2BDB
330
2BC8
100
AcDbEntity
  8
Defpoints
 62
     0
100
AcDbPoint
 10
137.2015140254043
 20
180.4711488256961
 30
0.0
  0
POINT
  5
2BDC
330
2BC8
100
AcDbEntity
  8
Defpoints
 62
     0
100
AcDbPoint
 10
137.2015140254043
 20
230.221392422382
 30
0.0
  0
ENDBLK
  5
2BD3
330
2BC8
100
AcDbEntity
  8
0
100
AcDbBlockEnd
  0
BLOCK
  5
2BF5
330
2BEB
100
AcDbEntity
  8
0
100
AcDbBlockBegin
  2
*D14
 70
     1
 10
0.0
 20
0.0
 30
0.0
  3
*D14
  1

  0
LINE
  5
2D85
330
2BEB
100
AcDbEntity
  8
寸法線
 62
     0
370
    -2
100
AcDbLine
 10
289.7254425766056
 20
205.2274049756115
 30
0.0
 11
301.0016720404007
 21
205.2274049756115
 31
0.0
  0
LINE
  5
2D86
330
2BEB
100
AcDbEntity
  8
寸法線
 62
     0
370
    -2
100
AcDbLine
 10
289.6414745488584
 20
155.4711488256961
 30
0.0
 11
301.0016720404007
 21
155.4711488256961
 31
0.0
  0
LINE
  5
2D87
330
2BEB
100
AcDbEntity
  8
寸法線
 62
     0
370
    -2
100
AcDbLine
 10
298.0016720404007
 20
202.2274049756115
 30
0.0
 11
298.0016720404007
 21
158.4711488256961
 31
0.0
  0
INSERT
  5
2D88
330
2BEB
100
AcDbEntity
  8
寸法線
 62
     0
370
    -2
100
AcDbBlockReference
  2
_Closed
 10
298.0016720404007
 20
205.2274049756115
 30
0.0
 41
3.0
 42
3.0
 43
3.0
 50
90.0
  0
INSERT
  5
2D89
330
2BEB
100
AcDbEntity
  8
寸法線
 62
     0
370
    -2
100
AcDbBlockReference
  2
_Closed
 10
298.0016720404007
 20
155.4711488256961
 30
0.0
 41
3.0
 42
3.0
 43
3.0
 50
270.0
  0
MTEXT
  5
2D8A
330
2BEB
100
AcDbEntity
  8
寸法線
 62
     0
100
AcDbMText
 10
294.5016720404007
 20
180.3492769006538
 30
0.0
 40
5.0
 41
0.0
 71
     5
 72
     1
  1
49.6
  7
OKANO
 11
0.0000000000000001
 21
1.0
 31
0.0
 73
     1
 44
1.0
  0
POINT
  5
2D8B
330
2BEB
100
AcDbEntity
  8
Defpoints
 62
     0
100
AcDbPoint
 10
287.7254425766057
 20
205.2274049756115
 30
0.0
  0
POINT
  5
2D8C
330
2BEB
100
AcDbEntity
  8
Defpoints
 62
     0
100
AcDbPoint
 10
287.6414745488584
 20
155.4711488256961
 30
0.0
  0
POINT
  5
2D8D
330
2BEB
100
AcDbEntity
  8
Defpoints
 62
     0
100
AcDbPoint
 10
298.0016720404007
 20
155.4711488256961
 30
0.0
  0
ENDBLK
  5
2BF6
330
2BEB
100
AcDbEntity
  8
0
100
AcDbBlockEnd
  0
BLOCK
  5
2C49
330
2C3F
100
AcDbEntity
  8
0
100
AcDbBlockBegin
  2
*D15
 70
     1
 10
0.0
 20
0.0
 30
0.0
  3
*D15
  1

  0
LINE
  5
2C4B
330
2C3F
100
AcDbEntity
  8
寸法線
 62
     0
370
    -2
100
AcDbLine
 10
205.6414745488584
 20
205.4711488256961
 30
0.0
 11
196.3844510891765
 21
205.4711488256961
 31
0.0
  0
LINE
  5
2C4C
330
2C3F
100
AcDbEntity
  8
寸法線
 62
     0
370
    -2
100
AcDbLine
 10
205.6414745488584
 20
155.4711488256961
 30
0.0
 11
196.3844510891765
 21
155.4711488256961
 31
0.0
  0
LINE
  5
2C4D
330
2C3F
100
AcDbEntity
  8
寸法線
 62
     0
370
    -2
100
AcDbLine
 10
199.3844510891765
 20
202.4711488256961
 30
0.0
 11
199.3844510891765
 21
158.4711488256961
 31
0.0
  0
INSERT
  5
2C4E
330
2C3F
100
AcDbEntity
  8
寸法線
 62
     0
370
    -2
100
AcDbBlockReference
  2
_Closed
 10
199.3844510891765
 20
205.4711488256961
 30
0.0
 41
3.0
 42
3.0
 43
3.0
 50
90.0
  0
INSERT
  5
2C4F
330
2C3F
100
AcDbEntity
  8
寸法線
 62
     0
370
    -2
100
AcDbBlockReference
  2
_Closed
 10
199.3844510891765
 20
155.4711488256961
 30
0.0
 41
3.0
 42
3.0
 43
3.0
 50
270.0
  0
MTEXT
  5
2C50
330
2C3F
100
AcDbEntity
  8
寸法線
 62
     0
100
AcDbMText
 10
195.8844510891765
 20
180.4711488256962
 30
0.0
 40
5.0
 41
0.0
 71
     5
 72
     1
  1
49.3
  7
OKANO
 11
0.0000000000000001
 21
1.0
 31
0.0
 73
     1
 44
1.0
  0
POINT
  5
2C51
330
2C3F
100
AcDbEntity
  8
Defpoints
 62
     0
100
AcDbPoint
 10
207.6414745488584
 20
205.4711488256961
 30
0.0
  0
POINT
  5
2C52
330
2C3F
100
AcDbEntity
  8
Defpoints
 62
     0
100
AcDbPoint
 10
207.6414745488584
 20
155.4711488256961
 30
0.0
  0
POINT
  5
2C53
330
2C3F
100
AcDbEntity
  8
Defpoints
 62
     0
100
AcDbPoint
 10
199.3844510891765
 20
155.4711488256961
 30
0.0
  0
ENDBLK
  5
2C4A
330
2C3F
100
AcDbEntity
  8
0
100
AcDbBlockEnd
  0
BLOCK
  5
2C5F
330
2C55
100
AcDbEntity
  8
0
100
AcDbBlockBegin
  2
*D16
 70
     1
 10
0.0
 20
0.0
 30
0.0
  3
*D16
  1

  0
LINE
  5
2C56
330
2C55
100
AcDbEntity
  8
寸法線
 62
     0
370
    -2
100
AcDbLine
 10
289.6414745488584
 20
150.4711488256961
 30
0.0
 11
310.9610901472354
 21
150.4711488256961
 31
0.0
  0
LINE
  5
2C57
330
2C55
100
AcDbEntity
  8
寸法線
 62
     0
370
    -2
100
AcDbLine
 10
279.6414745488584
 20
115.4711488256961
 30
0.0
 11
310.9610901472354
 21
115.4711488256961
 31
0.0
  0
LINE
  5
2C58
330
2C55
100
AcDbEntity
  8
寸法線
 62
     0
370
    -2
100
AcDbLine
 10
307.9610901472354
 20
147.4711488256961
 30
0.0
 11
307.9610901472353
 21
118.4711488256961
 31
0.0
  0
INSERT
  5
2C59
330
2C55
100
AcDbEntity
  8
寸法線
 62
     0
370
    -2
100
AcDbBlockReference
  2
_Closed
 10
307.9610901472354
 20
150.4711488256961
 30
0.0
 41
3.0
 42
3.0
 43
3.0
 50
90.0
  0
INSERT
  5
2C5A
330
2C55
100
AcDbEntity
  8
寸法線
 62
     0
370
    -2
100
AcDbBlockReference
  2
_Closed
 10
307.9610901472353
 20
115.4711488256961
 30
0.0
 41
3.0
 42
3.0
 43
3.0
 50
270.0
  0
MTEXT
  5
2C5B
330
2C55
100
AcDbEntity
  8
寸法線
 62
     0
100
AcDbMText
 10
304.4610901472353
 20
132.9711488256961
 30
0.0
 40
5.0
 41
0.0
 71
     5
 72
     1
  1
35
  7
OKANO
 11
0.0000000000000001
 21
1.0
 31
0.0
 73
     1
 44
1.0
  0
POINT
  5
2C5C
330
2C55
100
AcDbEntity
  8
Defpoints
 62
     0
100
AcDbPoint
 10
287.6414745488584
 20
150.4711488256961
 30
0.0
  0
POINT
  5
2C5D
330
2C55
100
AcDbEntity
  8
Defpoints
 62
     0
100
AcDbPoint
 10
277.6414745488584
 20
115.4711488256961
 30
0.0
  0
POINT
  5
2C5E
330
2C55
100
AcDbEntity
  8
Defpoints
 62
     0
100
AcDbPoint
 10
307.9610901472353
 20
115.4711488256961
 30
0.0
  0
ENDBLK
  5
2C60
330
2C55
100
AcDbEntity
  8
0
100
AcDbBlockEnd
  0
BLOCK
  5
2C7D
330
2C71
100
AcDbEntity
  8
0
100
AcDbBlockBegin
  2
*D17
 70
     1
 10
0.0
 20
0.0
 30
0.0
  3
*D17
  1

  0
LINE
  5
2C7F
330
2C71
100
AcDbEntity
  8
寸法線
 62
     0
370
    -2
100
AcDbLine
 10
69.70151402540432
 20
123.4711488256961
 30
0.0
 11
69.70151402540432
 21
99.25148029533113
 31
0.0
  0
LINE
  5
2C80
330
2C71
100
AcDbEntity
  8
寸法線
 62
     0
370
    -2
100
AcDbLine
 10
74.70151402540432
 20
123.4711488256961
 30
0.0
 11
74.70151402540432
 21
99.25148029533113
 31
0.0
  0
LINE
  5
2C81
330
2C71
100
AcDbEntity
  8
寸法線
 62
     0
370
    -2
100
AcDbLine
 10
66.70151402540432
 20
102.2514802953311
 30
0.0
 11
63.70151402540432
 21
102.2514802953311
 31
0.0
  0
LINE
  5
2C82
330
2C71
100
AcDbEntity
  8
寸法線
 62
     0
370
    -2
100
AcDbLine
 10
77.70151402540432
 20
102.2514802953311
 30
0.0
 11
80.70151402540432
 21
102.2514802953311
 31
0.0
  0
LINE
  5
2C83
330
2C71
100
AcDbEntity
  8
寸法線
 62
     0
370
    -2
100
AcDbLine
 10
69.70151402540432
 20
102.2514802953311
 30
0.0
 11
74.70151402540432
 21
102.2514802953311
 31
0.0
  0
INSERT
  5
2C84
330
2C71
100
AcDbEntity
  8
寸法線
 62
     0
370
    -2
100
AcDbBlockReference
  2
_Closed
 10
69.70151402540432
 20
102.2514802953311
 30
0.0
 41
3.0
 42
3.0
 43
3.0
  0
INSERT
  5
2C85
330
2C71
100
AcDbEntity
  8
寸法線
 62
     0
370
    -2
100
AcDbBlockReference
  2
_Closed
 10
74.70151402540432
 20
102.2514802953311
 30
0.0
 41
3.0
 42
3.0
 43
3.0
 50
180.0
  0
MTEXT
  5
2C86
330
2C71
100
AcDbEntity
  8
寸法線
 62
     0
100
AcDbMText
 10
72.20151402540432
 20
105.7514802953311
 30
0.0
 40
5.0
 41
0.0
 71
     5
 72
     1
  1
4
  7
OKANO
 73
     1
 44
1.0
  0
POINT
  5
2C87
330
2C71
100
AcDbEntity
  8
Defpoints
 62
     0
100
AcDbPoint
 10
69.70151402540432
 20
125.4711488256961
 30
0.0
  0
POINT
  5
2C88
330
2C71
100
AcDbEntity
  8
Defpoints
 62
     0
100
AcDbPoint
 10
74.70151402540432
 20
125.4711488256961
 30
0.0
  0
POINT
  5
2C89
330
2C71
100
AcDbEntity
  8
Defpoints
 62
     0
100
AcDbPoint
 10
74.70151402540432
 20
102.2514802953311
 30
0.0
  0
ENDBLK
  5
2C7E
330
2C71
100
AcDbEntity
  8
0
100
AcDbBlockEnd
  0
BLOCK
  5
2CA6
330
2C9A
100
AcDbEntity
  8
0
100
AcDbBlockBegin
  2
*D18
 70
     1
 10
0.0
 20
0.0
 30
0.0
  3
*D18
  1

  0
LINE
  5
2CA8
330
2C9A
100
AcDbEntity
  8
寸法線
 62
     0
370
    -2
100
AcDbLine
 10
139.2015140254043
 20
210.4711488256961
 30
0.0
 11
153.0779528853056
 21
210.4711488256961
 31
0.0
  0
LINE
  5
2CA9
330
2C9A
100
AcDbEntity
  8
寸法線
 62
     0
370
    -2
100
AcDbLine
 10
139.2015140254043
 20
205.4711488256961
 30
0.0
 11
153.0779528853056
 21
205.4711488256961
 31
0.0
  0
LINE
  5
2CAA
330
2C9A
100
AcDbEntity
  8
寸法線
 62
     0
370
    -2
100
AcDbLine
 10
150.0779528853056
 20
213.4711488256961
 30
0.0
 11
150.0779528853056
 21
216.4711488256961
 31
0.0
  0
LINE
  5
2CAB
330
2C9A
100
AcDbEntity
  8
寸法線
 62
     0
370
    -2
100
AcDbLine
 10
150.0779528853056
 20
202.4711488256961
 30
0.0
 11
150.0779528853056
 21
199.4711488256961
 31
0.0
  0
LINE
  5
2CAC
330
2C9A
100
AcDbEntity
  8
寸法線
 62
     0
370
    -2
100
AcDbLine
 10
150.0779528853056
 20
210.4711488256961
 30
0.0
 11
150.0779528853056
 21
205.4711488256961
 31
0.0
  0
INSERT
  5
2CAD
330
2C9A
100
AcDbEntity
  8
寸法線
 62
     0
370
    -2
100
AcDbBlockReference
  2
_Closed
 10
150.0779528853056
 20
210.4711488256961
 30
0.0
 41
3.0
 42
3.0
 43
3.0
 50
270.0
  0
INSERT
  5
2CAE
330
2C9A
100
AcDbEntity
  8
寸法線
 62
     0
370
    -2
100
AcDbBlockReference
  2
_Closed
 10
150.0779528853056
 20
205.4711488256961
 30
0.0
 41
3.0
 42
3.0
 43
3.0
 50
90.0
  0
MTEXT
  5
2CAF
330
2C9A
100
AcDbEntity
  8
寸法線
 62
     0
100
AcDbMText
 10
146.5779528853055
 20
207.9711488256961
 30
0.0
 40
5.0
 41
0.0
 71
     5
 72
     1
  1
4
  7
OKANO
 11
0.0000000000000001
 21
1.0
 31
0.0
 73
     1
 44
1.0
  0
POINT
  5
2CB0
330
2C9A
100
AcDbEntity
  8
Defpoints
 62
     0
100
AcDbPoint
 10
137.2015140254043
 20
210.4711488256961
 30
0.0
  0
POINT
  5
2CB1
330
2C9A
100
AcDbEntity
  8
Defpoints
 62
     0
100
AcDbPoint
 10
137.2015140254043
 20
205.4711488256961
 30
0.0
  0
POINT
  5
2CB2
330
2C9A
100
AcDbEntity
  8
Defpoints
 62
     0
100
AcDbPoint
 10
150.0779528853056
 20
205.4711488256961
 30
0.0
  0
ENDBLK
  5
2CA7
330
2C9A
100
AcDbEntity
  8
0
100
AcDbBlockEnd
  0
BLOCK
  5
2D06
330
2CFC
100
AcDbEntity
  8
0
100
AcDbBlockBegin
  2
*D19
 70
     1
 10
0.0
 20
0.0
 30
0.0
  3
*D19
  1

  0
LINE
  5
2ED1
330
2CFC
100
AcDbEntity
  8
寸法線
 62
     0
370
    -2
100
AcDbLine
 10
205.6414745488584
 20
212.4788998873083
 30
0.0
 11
205.6414745488584
 21
232.4644206320887
 31
0.0
  0
LINE
  5
2ED2
330
2CFC
100
AcDbEntity
  8
寸法線
 62
     0
370
    -2
100
AcDbLine
 10
289.6414745488584
 20
212.4711488256961
 30
0.0
 11
289.6414745488584
 21
232.4644206320887
 31
0.0
  0
LINE
  5
2ED3
330
2CFC
100
AcDbEntity
  8
寸法線
 62
     0
370
    -2
100
AcDbLine
 10
208.6414745488584
 20
229.4644206320887
 30
0.0
 11
286.6414745488584
 21
229.4644206320887
 31
0.0
  0
INSERT
  5
2ED4
330
2CFC
100
AcDbEntity
  8
寸法線
 62
     0
370
    -2
100
AcDbBlockReference
  2
_Closed
 10
205.6414745488584
 20
229.4644206320887
 30
0.0
 41
3.0
 42
3.0
 43
3.0
 50
180.0
  0
INSERT
  5
2ED5
330
2CFC
100
AcDbEntity
  8
寸法線
 62
     0
370
    -2
100
AcDbBlockReference
  2
_Closed
 10
289.6414745488584
 20
229.4644206320887
 30
0.0
 41
3.0
 42
3.0
 43
3.0
  0
MTEXT
  5
2ED6
330
2CFC
100
AcDbEntity
  8
寸法線
 62
     0
100
AcDbMText
 10
247.6414745488584
 20
232.9644206320887
 30
0.0
 40
5.0
 41
0.0
 71
     5
 72
     1
  1
81.3
  7
OKANO
 73
     1
 44
1.0
  0
POINT
  5
2ED7
330
2CFC
100
AcDbEntity
  8
Defpoints
 62
     0
100
AcDbPoint
 10
205.6414745488584
 20
210.4788998873083
 30
0.0
  0
POINT
  5
2ED8
330
2CFC
100
AcDbEntity
  8
Defpoints
 62
     0
100
AcDbPoint
 10
289.6414745488584
 20
210.4711488256961
 30
0.0
  0
POINT
  5
2ED9
330
2CFC
100
AcDbEntity
  8
Defpoints
 62
     0
100
AcDbPoint
 10
289.6414745488584
 20
229.4644206320887
 30
0.0
  0
ENDBLK
  5
2D07
330
2CFC
100
AcDbEntity
  8
0
100
AcDbBlockEnd
  0
BLOCK
  5
2D1C
330
2D12
100
AcDbEntity
  8
0
100
AcDbBlockBegin
  2
*D20
 70
     1
 10
0.0
 20
0.0
 30
0.0
  3
*D20
  1

  0
LINE
  5
2D13
330
2D12
100
AcDbEntity
  8
寸法線
 62
     0
370
    -2
100
AcDbLine
 10
205.6414745488584
 20
152.4711488256961
 30
0.0
 11
205.6414745488584
 21
161.7058699698575
 31
0.0
  0
LINE
  5
2D14
330
2D12
100
AcDbEntity
  8
寸法線
 62
     0
370
    -2
100
AcDbLine
 10
217.6414745488584
 20
152.4711488256961
 30
0.0
 11
217.6414745488584
 21
161.7058699698575
 31
0.0
  0
LINE
  5
2D15
330
2D12
100
AcDbEntity
  8
寸法線
 62
     0
370
    -2
100
AcDbLine
 10
208.6414745488584
 20
158.7058699698575
 30
0.0
 11
214.6414745488584
 21
158.7058699698575
 31
0.0
  0
INSERT
  5
2D16
330
2D12
100
AcDbEntity
  8
寸法線
 62
     0
370
    -2
100
AcDbBlockReference
  2
_Closed
 10
205.6414745488584
 20
158.7058699698575
 30
0.0
 41
3.0
 42
3.0
 43
3.0
 50
180.0
  0
INSERT
  5
2D17
330
2D12
100
AcDbEntity
  8
寸法線
 62
     0
370
    -2
100
AcDbBlockReference
  2
_Closed
 10
217.6414745488584
 20
158.7058699698575
 30
0.0
 41
3.0
 42
3.0
 43
3.0
  0
MTEXT
  5
2D18
330
2D12
100
AcDbEntity
  8
寸法線
 62
     0
100
AcDbMText
 10
211.6414745488584
 20
162.2063620958417
 30
0.0
 40
5.0
 41
0.0
 71
     5
 72
     1
  1
12
  7
OKANO
 73
     1
 44
1.0
  0
POINT
  5
2D19
330
2D12
100
AcDbEntity
  8
Defpoints
 62
     0
100
AcDbPoint
 10
205.6414745488584
 20
150.4711488256961
 30
0.0
  0
POINT
  5
2D1A
330
2D12
100
AcDbEntity
  8
Defpoints
 62
     0
100
AcDbPoint
 10
217.6414745488584
 20
150.4711488256961
 30
0.0
  0
POINT
  5
2D1B
330
2D12
100
AcDbEntity
  8
Defpoints
 62
     0
100
AcDbPoint
 10
217.6414745488584
 20
158.7058699698575
 30
0.0
  0
ENDBLK
  5
2D1D
330
2D12
100
AcDbEntity
  8
0
100
AcDbBlockEnd
  0
ENDSEC
  0
SECTION
  2
ENTITIES
  0
XLINE
  5
22CA
330
1F
100
AcDbEntity
  8
構築線
 62
     3
370
     5
100
AcDbXline
 10
72.20151402540432
 20
178.0193172078315
 30
0.0
 11
0.0
 21
-1.0
 31
0.0
  0
XLINE
  5
2508
330
1F
100
AcDbEntity
  8
構築線
370
     5
100
AcDbXline
 10
40.70151402540432
 20
100.4711488256961
 30
0.0
 11
1.0
 21
0.0
 31
0.0
  0
XLINE
  5
28D9
330
1F
100
AcDbEntity
  8
構築線
370
     5
100
AcDbXline
 10
42.20151402540432
 20
178.0193172078315
 30
0.0
 11
0.0
 21
-1.0
 31
0.0
  0
XLINE
  5
28DA
330
1F
100
AcDbEntity
  8
構築線
370
     5
100
AcDbXline
 10
102.2015140254043
 20
178.0193172078315
 30
0.0
 11
0.0
 21
-1.0
 31
0.0
  0
XLINE
  5
28DB
330
1F
100
AcDbEntity
  8
構築線
370
     5
100
AcDbXline
 10
40.70151402540432
 20
150.4711488256961
 30
0.0
 11
1.0
 21
0.0
 31
0.0
  0
XLINE
  5
28DC
330
1F
100
AcDbEntity
  8
構築線
370
     5
100
AcDbXline
 10
40.70151402540432
 20
210.4711488256961
 30
0.0
 11
1.0
 21
0.0
 31
0.0
  0
XLINE
  5
28DD
330
1F
100
AcDbEntity
  8
構築線
 62
     3
370
     5
100
AcDbXline
 10
40.70151402540432
 20
180.4711488256961
 30
0.0
 11
1.0
 21
0.0
 31
0.0
  0
CIRCLE
  5
28DE
330
1F
100
AcDbEntity
  8
太線
100
AcDbCircle
 10
72.20151402540432
 20
180.4711488256961
 30
0.0
 40
30.0
  0
XLINE
  5
28DF
330
1F
100
AcDbEntity
  8
構築線
370
     5
100
AcDbXline
 10
152.2015140254043
 20
178.0193172078315
 30
0.0
 11
0.0
 21
-1.0
 31
0.0
  0
LINE
  5
28E0
330
1F
100
AcDbEntity
  8
太線
100
AcDbLine
 10
42.20151402540432
 20
180.4711488256961
 30
0.0
 11
42.20151402540431
 21
115.9711488256961
 31
0.0
  0
LINE
  5
28E2
330
1F
100
AcDbEntity
  8
太線
100
AcDbLine
 10
102.2015140254043
 20
115.9711488256961
 30
0.0
 11
102.2015140254043
 21
150.4711488256961
 31
0.0
  0
LINE
  5
28E3
330
1F
100
AcDbEntity
  8
太線
100
AcDbLine
 10
102.2015140254043
 20
150.4711488256961
 30
0.0
 11
136.7015140254043
 21
150.4711488256961
 31
0.0
  0
LINE
  5
28E5
330
1F
100
AcDbEntity
  8
太線
100
AcDbLine
 10
137.2015140254043
 20
210.4711488256961
 30
0.0
 11
72.20151402540432
 21
210.4711488256961
 31
0.0
  0
XLINE
  5
28E6
330
1F
100
AcDbEntity
  8
構築線
370
     5
100
AcDbXline
 10
97.20151402540432
 20
178.0193172078315
 30
0.0
 11
0.0
 21
-1.0
 31
0.0
  0
XLINE
  5
28E7
330
1F
100
AcDbEntity
  8
構築線
370
     5
100
AcDbXline
 10
47.20151402540432
 20
178.0193172078315
 30
0.0
 11
0.0
 21
-1.0
 31
0.0
  0
XLINE
  5
28E8
330
1F
100
AcDbEntity
  8
構築線
370
     5
100
AcDbXline
 10
40.70151402540432
 20
205.4711488256961
 30
0.0
 11
1.0
 21
0.0
 31
0.0
  0
XLINE
  5
28E9
330
1F
100
AcDbEntity
  8
構築線
370
     5
100
AcDbXline
 10
40.70151402540432
 20
155.4711488256961
 30
0.0
 11
1.0
 21
0.0
 31
0.0
  0
CIRCLE
  5
28EA
330
1F
100
AcDbEntity
  8
太線
100
AcDbCircle
 10
72.20151402540432
 20
180.4711488256961
 30
0.0
 40
25.0
  0
XLINE
  5
28EB
330
1F
100
AcDbEntity
  8
構築線
100
AcDbXline
 10
217.6414745488584
 20
210.4788998873083
 30
0.0
 11
0.0
 21
-1.0
 31
0.0
  0
XLINE
  5
28EC
330
1F
100
AcDbEntity
  8
構築線
100
AcDbXline
 10
277.6414745488584
 20
210.4788998873083
 30
0.0
 11
0.0
 21
-1.0
 31
0.0
  0
XLINE
  5
28ED
330
1F
100
AcDbEntity
  8
構築線
 62
     3
100
AcDbXline
 10
247.6414745488584
 20
210.4788998873083
 30
0.0
 11
0.0
 21
-1.0
 31
0.0
  0
XLINE
  5
28EE
330
1F
100
AcDbEntity
  8
構築線
100
AcDbXline
 10
222.6414745488584
 20
210.4788998873083
 30
0.0
 11
0.0
 21
-1.0
 31
0.0
  0
XLINE
  5
28EF
330
1F
100
AcDbEntity
  8
構築線
100
AcDbXline
 10
272.6414745488584
 20
210.4788998873083
 30
0.0
 11
0.0
 21
-1.0
 31
0.0
  0
CIRCLE
  5
28F0
330
1F
100
AcDbEntity
  8
太線
100
AcDbCircle
 10
247.6414745488584
 20
180.4711488256961
 30
0.0
 40
25.0
  0
CIRCLE
  5
28F1
330
1F
100
AcDbEntity
  8
太線
100
AcDbCircle
 10
247.6414745488584
 20
180.4711488256961
 30
0.0
 40
30.0
  0
LINE
  5
28F6
330
1F
100
AcDbEntity
  8
太線
100
AcDbLine
 10
217.6414745488584
 20
210.4711488256961
 30
0.0
 11
277.6414745488584
 21
210.4711488256961
 31
0.0
  0
LINE
  5
28F8
330
1F
100
AcDbEntity
  8
想像線
100
AcDbLine
 10
47.20151402540432
 20
115.4711488256961
 30
0.0
 11
47.20151402540432
 21
150.4711488256961
 31
0.0
  0
LINE
  5
28F9
330
1F
100
AcDbEntity
  8
想像線
100
AcDbLine
 10
47.20151402540432
 20
150.4711488256961
 30
0.0
 11
97.20151402540432
 21
150.4711488256961
 31
0.0
  0
LINE
  5
28FA
330
1F
100
AcDbEntity
  8
想像線
100
AcDbLine
 10
97.20151402540432
 20
150.4711488256961
 30
0.0
 11
97.20151402540434
 21
115.4711488256961
 31
0.0
  0
LINE
  5
28FB
330
1F
100
AcDbEntity
  8
想像線
100
AcDbLine
 10
137.2015140254043
 20
155.4711488256961
 30
0.0
 11
102.2015140254043
 21
155.4711488256961
 31
0.0
  0
LINE
  5
28FC
330
1F
100
AcDbEntity
  8
想像線
100
AcDbLine
 10
102.2015140254043
 20
155.4711488256961
 30
0.0
 11
102.2015140254043
 21
205.4711488256961
 31
0.0
  0
LINE
  5
28FD
330
1F
100
AcDbEntity
  8
想像線
100
AcDbLine
 10
102.2015140254043
 20
205.4711488256961
 30
0.0
 11
137.2015140254043
 21
205.4711488256961
 31
0.0
  0
LINE
  5
28FE
330
1F
100
AcDbEntity
  8
想像線
100
AcDbLine
 10
222.6414745488584
 20
115.4711488256961
 30
0.0
 11
222.6414745488584
 21
150.4711488256961
 31
0.0
  0
LINE
  5
28FF
330
1F
100
AcDbEntity
  8
想像線
100
AcDbLine
 10
222.6414745488584
 20
150.4711488256961
 30
0.0
 11
272.6414745488584
 21
150.4711488256961
 31
0.0
  0
LINE
  5
2900
330
1F
100
AcDbEntity
  8
想像線
100
AcDbLine
 10
272.6414745488584
 20
150.4711488256961
 30
0.0
 11
272.6414745488584
 21
115.4711488256961
 31
0.0
  0
XLINE
  5
2905
330
1F
100
AcDbEntity
  8
構築線
 62
     3
100
AcDbXline
 10
102.7912907694046
 20
31.53560202454525
 30
0.0
 11
1.0
 21
0.0
 31
0.0
  0
XLINE
  5
2906
330
1F
100
AcDbEntity
  8
構築線
100
AcDbXline
 10
102.7912907694046
 20
61.53560202454525
 30
0.0
 11
1.0
 21
0.0
 31
0.0
  0
XLINE
  5
2907
330
1F
100
AcDbEntity
  8
構築線
100
AcDbXline
 10
102.7912907694046
 20
1.535602024545255
 30
0.0
 11
1.0
 21
0.0
 31
0.0
  0
XLINE
  5
2908
330
1F
100
AcDbEntity
  8
構築線
100
AcDbXline
 10
102.7912907694046
 20
56.53560202454525
 30
0.0
 11
1.0
 21
0.0
 31
0.0
  0
XLINE
  5
2909
330
1F
100
AcDbEntity
  8
構築線
100
AcDbXline
 10
102.7912907694046
 20
6.535602024545255
 30
0.0
 11
1.0
 21
0.0
 31
0.0
  0
TEXT
  5
29C1
330
1F
100
AcDbEntity
  8
文字
100
AcDbText
 10
270.3814897060656
 20
3.65848005655755
 30
0.0
 40
3.599999999999999
  1
SET SCREW COUP
 51
15.0
  7
OKANO
100
AcDbText
  0
TEXT
  5
29C2
330
1F
100
AcDbEntity
  8
文字
100
AcDbText
 10
251.3874819578773
 20
-3.782311080513817
 30
0.0
 40
4.799999999999999
  1
joint kogyo T.okano
 51
15.0
  7
OKANO
100
AcDbText
  0
TEXT
  5
29C3
330
1F
100
AcDbEntity
  8
文字
100
AcDbText
 10
243.8991689460804
 20
10.97006042677396
 30
0.0
 40
4.799999999999999
  1
F-999-20040824 Auto CAD
 51
15.0
  7
OKANO
100
AcDbText
  0
LINE
  5
29C4
330
1F
100
AcDbEntity
  8
太線
100
AcDbLine
 10
216.4769407644665
 20
10.04925277634361
 30
0.0
 11
324.4769407644665
 21
10.04925277634361
 31
0.0
  0
LWPOLYLINE
  5
29C5
330
1F
100
AcDbEntity
  8
太線
100
AcDbPolyline
 90
        4
 70
     1
 43
0.0
 10
216.4769407644665
 20
18.4492527763436
 10
324.4769407644665
 20
18.4492527763436
 10
324.4769407644665
 20
-6.750747223656389
 10
216.4769407644665
 20
-6.750747223656389
  0
TEXT
  5
29C6
330
1F
100
AcDbEntity
  8
文字
100
AcDbText
 10
220.3493243305241
 20
1.855740977492928
 30
0.0
 40
2.399999999999999
  1
CHECK
 51
15.0
  7
OKANO
100
AcDbText
  0
LINE
  5
29C7
330
1F
100
AcDbEntity
  8
太線
100
AcDbLine
 10
240.4769407644665
 20
18.4492527763436
 30
0.0
 11
240.4769407644665
 21
-6.750747223656389
 31
0.0
  0
TEXT
  5
29C8
330
1F
100
AcDbEntity
  8
文字
100
AcDbText
 10
220.3493243305241
 20
-5.063686628722894
 30
0.0
 40
2.399999999999999
  1
ISSUED
 51
15.0
  7
OKANO
100
AcDbText
  0
TEXT
  5
29C9
330
1F
100
AcDbEntity
  8
文字
100
AcDbText
 10
220.6058387634247
 20
-1.732110439454753
 30
0.0
 40
2.399999999999999
  1
APPR
 51
15.0
  7
OKANO
100
AcDbText
  0
TEXT
  5
29CA
330
1F
100
AcDbEntity
  8
文字
100
AcDbText
 10
218.5537287788383
 20
11.85046895510877
 30
0.0
 40
2.399999999999999
  1
FILM NAME
 51
15.0
  7
OKANO
100
AcDbText
  0
TEXT
  5
29CB
330
1F
100
AcDbEntity
  8
文字
100
AcDbText
 10
219.8362976561704
 20
5.443591804251965
 30
0.0
 40
2.399999999999999
  1
DRAWN
 51
15.0
  7
OKANO
100
AcDbText
  0
TEXT
  5
29CC
330
1F
100
AcDbEntity
  8
文字
100
AcDbText
 10
250.8744541877997
 20
3.649666390872447
 30
0.0
 40
4.799999999999999
  1
1-3K
 51
15.0
  7
OKANO
100
AcDbText
  0
XLINE
  5
29DD
330
1F
100
AcDbEntity
  8
構築線
100
AcDbXline
 10
287.6414745488584
 20
210.4788998873083
 30
0.0
 11
0.0
 21
-1.0
 31
0.0
  0
XLINE
  5
29DE
330
1F
100
AcDbEntity
  8
構築線
100
AcDbXline
 10
207.6414745488584
 20
210.4788998873083
 30
0.0
 11
0.0
 21
-1.0
 31
0.0
  0
XLINE
  5
29E0
330
1F
100
AcDbEntity
  8
構築線
100
AcDbXline
 10
280.6414745488584
 20
210.4788998873083
 30
0.0
 11
0.0
 21
-1.0
 31
0.0
  0
XLINE
  5
29E1
330
1F
100
AcDbEntity
  8
構築線
100
AcDbXline
 10
214.6414745488584
 20
210.4788998873083
 30
0.0
 11
0.0
 21
-1.0
 31
0.0
  0
XLINE
  5
29E2
330
1F
100
AcDbEntity
  8
構築線
370
     5
100
AcDbXline
 10
40.70151402540432
 20
147.4711488256961
 30
0.0
 11
1.0
 21
0.0
 31
0.0
  0
LINE
  5
29E3
330
1F
100
AcDbEntity
  8
太線
100
AcDbLine
 10
277.6414745488584
 20
115.9711488256961
 30
0.0
 11
277.6414745488584
 21
150.4711488256961
 31
0.0
  0
LINE
  5
29E4
330
1F
100
AcDbEntity
  8
太線
100
AcDbLine
 10
277.6414745488584
 20
150.4711488256961
 30
0.0
 11
287.6414745488584
 21
150.4711488256961
 31
0.0
  0
LINE
  5
29E6
330
1F
100
AcDbEntity
  8
太線
100
AcDbLine
 10
289.1418621018226
 20
210.4699858660597
 30
0.0
 11
277.6414745488584
 21
210.4788998873083
 31
0.0
  0
LINE
  5
29E7
330
1F
100
AcDbEntity
  8
太線
100
AcDbLine
 10
217.6414745488584
 20
210.4711488256961
 30
0.0
 11
206.1414745488585
 21
210.4711488256961
 31
0.0
  0
LINE
  5
29ED
330
1F
100
AcDbEntity
  8
太線
100
AcDbLine
 10
217.6414745488584
 20
125.4711488256961
 30
0.0
 11
217.6414745488584
 21
115.9711488256961
 31
0.0
  0
LINE
  5
29EE
330
1F
100
AcDbEntity
  8
太線
100
AcDbLine
 10
217.6414745488584
 20
125.4711488256962
 30
0.0
 11
217.6414745488584
 21
150.4711488256961
 31
0.0
  0
LINE
  5
29EF
330
1F
100
AcDbEntity
  8
太線
100
AcDbLine
 10
217.6414745488584
 20
150.4711488256961
 30
0.0
 11
207.6414745488584
 21
150.4711488256961
 31
0.0
  0
CIRCLE
  5
29F0
330
1F
100
AcDbEntity
  8
太線
100
AcDbCircle
 10
280.6414745488584
 20
147.4711488256961
 30
0.0
 40
3.0
  0
CIRCLE
  5
29F1
330
1F
100
AcDbEntity
  8
太線
100
AcDbCircle
 10
214.6414745488584
 20
147.4711488256961
 30
0.0
 40
3.0
  0
XLINE
  5
29F2
330
1F
100
AcDbEntity
  8
構築線
100
AcDbXline
 10
250.1414745488584
 20
210.4788998873083
 30
0.0
 11
0.0
 21
-1.0
 31
0.0
  0
XLINE
  5
29F3
330
1F
100
AcDbEntity
  8
構築線
100
AcDbXline
 10
245.1414745488584
 20
210.4788998873083
 30
0.0
 11
0.0
 21
-1.0
 31
0.0
  0
XLINE
  5
29F4
330
1F
100
AcDbEntity
  8
構築線
370
     5
100
AcDbXline
 10
40.70151402540432
 20
182.9711488256961
 30
0.0
 11
1.0
 21
0.0
 31
0.0
  0
XLINE
  5
29F5
330
1F
100
AcDbEntity
  8
構築線
370
     5
100
AcDbXline
 10
40.70151402540432
 20
177.9711488256961
 30
0.0
 11
1.0
 21
0.0
 31
0.0
  0
XLINE
  5
29F6
330
1F
100
AcDbEntity
  8
構築線
370
     5
100
AcDbXline
 10
74.70151402540432
 20
178.0193172078315
 30
0.0
 11
0.0
 21
-1.0
 31
0.0
  0
XLINE
  5
29F7
330
1F
100
AcDbEntity
  8
構築線
370
     5
100
AcDbXline
 10
69.70151402540432
 20
178.0193172078315
 30
0.0
 11
0.0
 21
-1.0
 31
0.0
  0
XLINE
  5
29F8
330
1F
100
AcDbEntity
  8
構築線
100
AcDbXline
 10
102.7912907694046
 20
34.03560202454525
 30
0.0
 11
1.0
 21
0.0
 31
0.0
  0
XLINE
  5
29F9
330
1F
100
AcDbEntity
  8
構築線
100
AcDbXline
 10
102.7912907694046
 20
29.03560202454525
 30
0.0
 11
1.0
 21
0.0
 31
0.0
  0
LINE
  5
29FC
330
1F
100
AcDbEntity
  8
太線
100
AcDbLine
 10
245.1414745488584
 20
150.4711488256961
 30
0.0
 11
245.1414745488584
 21
125.9711488256961
 31
0.0
  0
LINE
  5
29FD
330
1F
100
AcDbEntity
  8
太線
100
AcDbLine
 10
245.6414745488584
 20
125.4711488256961
 30
0.0
 11
249.6414745488584
 21
125.4711488256961
 31
0.0
  0
LINE
  5
29FE
330
1F
100
AcDbEntity
  8
太線
100
AcDbLine
 10
250.1414745488584
 20
125.9711488256961
 30
0.0
 11
250.1414745488584
 21
150.4711488256961
 31
0.0
  0
LINE
  5
29FF
330
1F
100
AcDbEntity
  8
太線
100
AcDbLine
 10
69.70151402540432
 20
150.5754969679426
 30
0.0
 11
69.70151402540432
 21
125.9711488256961
 31
0.0
  0
LINE
  5
2A00
330
1F
100
AcDbEntity
  8
太線
100
AcDbLine
 10
70.20151402540432
 20
125.4711488256961
 30
0.0
 11
74.20151402540432
 21
125.4711488256961
 31
0.0
  0
LINE
  5
2A01
330
1F
100
AcDbEntity
  8
太線
100
AcDbLine
 10
74.70151402540432
 20
125.9711488256961
 30
0.0
 11
74.70151402540432
 21
150.4711488256961
 31
0.0
  0
LINE
  5
2A02
330
1F
100
AcDbEntity
  8
太線
100
AcDbLine
 10
102.2015140254043
 20
182.9711488256961
 30
0.0
 11
126.7015140254043
 21
182.9711488256961
 31
0.0
  0
LINE
  5
2A03
330
1F
100
AcDbEntity
  8
太線
100
AcDbLine
 10
127.2015140254043
 20
182.4711488256961
 30
0.0
 11
127.2015140254043
 21
178.5193172078315
 31
0.0
  0
LINE
  5
2A04
330
1F
100
AcDbEntity
  8
太線
100
AcDbLine
 10
126.7015140254043
 20
178.0193172078315
 30
0.0
 11
102.2015140254043
 21
178.0193172078315
 31
0.0
  0
LINE
  5
2A05
330
1F
100
AcDbEntity
  8
太線
100
AcDbLine
 10
127.2015140254043
 20
150.4711488256961
 30
0.0
 11
102.2015140254043
 21
125.4711488256961
 31
0.0
  0
CIRCLE
  5
2A0A
330
1F
100
AcDbEntity
  8
太線
100
AcDbCircle
 10
106.46042276933
 20
146.2132335875738
 30
0.0
 40
3.0
  0
XLINE
  5
2A0B
330
1F
100
AcDbEntity
  8
構築線
370
     5
100
AcDbXline
 10
40.70151402540432
 20
144.4711488256961
 30
0.0
 11
1.0
 21
0.0
 31
0.0
  0
XLINE
  5
2A0C
330
1F
100
AcDbEntity
  8
構築線
370
     5
100
AcDbXline
 10
108.2015140254043
 20
178.0193172078315
 30
0.0
 11
0.0
 21
-1.0
 31
0.0
  0
LINE
  5
2A0D
330
1F
100
AcDbEntity
  8
破線
100
AcDbLine
 10
245.5449403515151
 20
142.0522637724998
 30
0.0
 11
250.5449403515151
 21
142.0522637724998
 31
0.0
  0
LINE
  5
2A0E
330
1F
100
AcDbEntity
  8
破線
100
AcDbLine
 10
69.70151402540432
 20
144.4711488256961
 30
0.0
 11
74.70151402540432
 21
144.4711488256961
 31
0.0
  0
LINE
  5
2A0F
330
1F
100
AcDbEntity
  8
破線
100
AcDbLine
 10
108.2015140254043
 20
182.9711488256961
 30
0.0
 11
108.2015140254043
 21
177.9711488256961
 31
0.0
  0
LINE
  5
2A11
330
1F
100
AcDbEntity
  8
太線
100
AcDbLine
 10
102.2015140254043
 20
61.53560202454525
 30
0.0
 11
102.2015140254043
 21
71.53560202454525
 31
0.0
  0
LINE
  5
2A13
330
1F
100
AcDbEntity
  8
太線
100
AcDbLine
 10
42.20151402540432
 20
61.53560202454525
 30
0.0
 11
42.20151402540432
 21
73.03560202454524
 31
0.0
  0
LINE
  5
2A15
330
1F
100
AcDbEntity
  8
太線
100
AcDbLine
 10
126.7015140254043
 20
29.03560202454525
 30
0.0
 11
102.2015140254043
 21
29.03560202454525
 31
0.0
  0
LINE
  5
2A16
330
1F
100
AcDbEntity
  8
太線
100
AcDbLine
 10
102.2015140254043
 20
34.03560202454525
 30
0.0
 11
126.7015140254043
 21
34.03560202454525
 31
0.0
  0
LINE
  5
2A17
330
1F
100
AcDbEntity
  8
太線
100
AcDbLine
 10
127.2015140254042
 20
61.53560202454525
 30
0.0
 11
102.2015140254043
 21
61.53560202454525
 31
0.0
  0
LINE
  5
2A19
330
1F
100
AcDbEntity
  8
太線
100
AcDbLine
 10
136.7015140254043
 20
1.535602024545255
 30
0.0
 11
102.2015140254043
 21
1.535602024545255
 31
0.0
  0
LINE
  5
2A1A
330
1F
100
AcDbEntity
  8
想像線
100
AcDbLine
 10
102.2015140254043
 20
6.535602024545255
 30
0.0
 11
137.2015140254043
 21
6.535602024545256
 31
0.0
  0
LINE
  5
2A1B
330
1F
100
AcDbEntity
  8
想像線
100
AcDbLine
 10
137.2015140254043
 20
56.53560202454526
 30
0.0
 11
102.2015140254043
 21
56.53560202454525
 31
0.0
  0
LINE
  5
2A1D
330
1F
100
AcDbEntity
  8
太線
100
AcDbLine
 10
127.2015140254043
 20
61.53560202454523
 30
0.0
 11
136.7015140254043
 21
61.53560202454523
 31
0.0
  0
LINE
  5
2A1E
330
1F
100
AcDbEntity
  8
太線
100
AcDbLine
 10
127.2015140254043
 20
33.53560202454525
 30
0.0
 11
127.2015140254043
 21
29.53560202454525
 31
0.0
  0
LINE
  5
2A1F
330
1F
100
AcDbEntity
  8
太線
100
AcDbLine
 10
42.20151402540432
 20
61.53560202454525
 30
0.0
 11
42.20151402540432
 21
1.535602024545255
 31
0.0
  0
CIRCLE
  5
2A20
330
1F
100
AcDbEntity
  8
太線
100
AcDbCircle
 10
72.20151402540432
 20
31.53560202454525
 30
0.0
 40
30.0
  0
CIRCLE
  5
2A21
330
1F
100
AcDbEntity
  8
太線
100
AcDbCircle
 10
72.20151402540432
 20
31.53560202454525
 30
0.0
 40
25.0
  0
LINE
  5
2A22
330
1F
100
AcDbEntity
  8
想像線
100
AcDbLine
 10
102.2015140254043
 20
56.53560202454525
 30
0.0
 11
102.2015140254043
 21
6.535602024545255
 31
0.0
  0
CIRCLE
  5
2A23
330
1F
100
AcDbEntity
  8
太線
100
AcDbCircle
 10
105.2015140254043
 20
64.53560202454525
 30
0.0
 40
3.0
  0
CIRCLE
  5
2A26
330
1F
100
AcDbEntity
  8
太線
100
AcDbCircle
 10
105.2015140254043
 20
-1.464397975454744
 30
0.0
 40
3.0
  0
LINE
  5
2A27
330
1F
100
AcDbEntity
  8
太線
100
AcDbLine
 10
102.2015140254043
 20
1.535602024545255
 30
0.0
 11
102.2015140254043
 21
-8.464397975454744
 31
0.0
  0
LINE
  5
2A28
330
1F
100
AcDbEntity
  8
太線
100
AcDbLine
 10
42.20267698504083
 20
-9.964785528418932
 30
0.0
 11
42.19376296379215
 21
1.535602024545255
 31
0.0
  0
DIMENSION
  5
2A44
330
1F
100
AcDbEntity
  8
寸法線
100
AcDbDimension
  2
*D2
 10
307.7630623366767
 20
210.4711488256961
 30
0.0
 11
304.2630623366767
 21
180.4711488256961
 31
0.0
 70
    32
  1
57.3
 71
     5
 42
60.0
  3
sunpo
100
AcDbAlignedDimension
 13
277.6414745488584
 23
150.4711488256961
 33
0.0
 14
287.6414745488584
 24
210.4711488256961
 34
0.0
 50
90.0
100
AcDbRotatedDimension
1001
ACAD
1000
DSTYLE
1002
{
1070
    40
1040
1.0
1070
   279
1070
     1
1002
}
  0
DIMENSION
  5
2A5A
330
1F
100
AcDbEntity
  8
寸法線
100
AcDbDimension
  2
*D3
 10
199.2312891574442
 20
125.4711488256961
 30
0.0
 11
195.7307970314599
 21
137.9711488256962
 31
0.0
 70
    32
 71
     5
 42
25.00000000000001
  3
sunpo
100
AcDbAlignedDimension
 13
207.6414745488584
 23
150.4711488256961
 33
0.0
 14
217.6414745488584
 24
125.4711488256961
 34
0.0
 50
90.0
100
AcDbRotatedDimension
1001
ACAD
1000
DSTYLE
1002
{
1070
    40
1040
1.0
1002
}
  0
DIMENSION
  5
2AA4
330
1F
100
AcDbEntity
  8
寸法線
100
AcDbDimension
  2
*D4
 10
127.2015140254043
 20
117.3903612439743
 30
0.0
 11
114.7015140254043
 21
120.8908533699585
 31
0.0
 70
    32
 71
     5
 42
25.0
  3
sunpo
100
AcDbAlignedDimension
 13
102.2015140254043
 23
125.4711488256961
 33
0.0
 14
127.2015140254043
 24
150.4711488256961
 34
0.0
100
AcDbRotatedDimension
1001
ACAD
1000
DSTYLE
1002
{
1070
    40
1040
1.0
1002
}
  0
DIMENSION
  5
2AB1
330
1F
100
AcDbEntity
  8
寸法線
100
AcDbDimension
  2
*D5
 10
142.7646083528009
 20
125.4711488256961
 30
0.0
 11
139.2641162268166
 21
136.9711488256961
 31
0.0
 70
    32
  1
25.0
 71
     5
 42
23.0
  3
sunpo
100
AcDbAlignedDimension
 13
127.2015140254043
 23
148.4711488256961
 33
0.0
 14
102.2015140254043
 24
125.4711488256961
 34
0.0
 50
90.0
100
AcDbRotatedDimension
1001
ACAD
1000
DSTYLE
1002
{
1070
    40
1040
1.0
1002
}
  0
DIMENSION
  5
2AD3
330
1F
100
AcDbEntity
  8
寸法線
100
AcDbDimension
  2
*D6
 10
104.4588277380835
 20
143.9785932740358
 30
0.0
 11
122.1308102892494
 21
163.7081209819374
 31
0.0
 70
   163
 71
     5
 42
6.0
  3
sunpo
100
AcDbDiametricDimension
 15
108.4620178005765
 25
148.4478739011118
 35
0.0
 40
0.0
1001
ACAD
1000
DSTYLE
1002
{
1070
    40
1040
1.0
1070
   288
1070
     1
1002
}
  0
LINE
  5
2ADF
330
1F
100
AcDbEntity
  8
破線
100
AcDbLine
 10
245.9484061541718
 20
148.0994777120149
 30
0.0
 11
250.9484061541718
 21
148.0994777120149
 31
0.0
  0
XLINE
  5
2AE9
330
1F
100
AcDbEntity
  8
構築線
 62
     3
370
     5
100
AcDbXline
 10
40.70151402540432
 20
115.4711488256961
 30
0.0
 11
1.0
 21
0.0
 31
0.0
  0
XLINE
  5
2AEA
330
1F
100
AcDbEntity
  8
構築線
 62
     3
370
     5
100
AcDbXline
 10
137.2015140254043
 20
178.0193172078315
 30
0.0
 11
0.0
 21
-1.0
 31
0.0
  0
LINE
  5
2AEB
330
1F
100
AcDbEntity
  8
太線
100
AcDbLine
 10
137.2015140254043
 20
210.4711488256961
 30
0.0
 11
137.2015140254043
 21
150.9711488256961
 31
0.0
  0
LINE
  5
2AEC
330
1F
100
AcDbEntity
  8
太線
100
AcDbLine
 10
42.70151402540431
 20
115.4711488256961
 30
0.0
 11
101.7015140254043
 21
115.4711488256961
 31
0.0
  0
LINE
  5
2AED
330
1F
100
AcDbEntity
  8
太線
100
AcDbLine
 10
218.1414745488584
 20
115.4711488256961
 30
0.0
 11
277.1414745488584
 21
115.4711488256961
 31
0.0
  0
LINE
  5
2AEE
330
1F
100
AcDbEntity
  8
太線
100
AcDbLine
 10
137.2015140254043
 20
61.03560202454524
 30
0.0
 11
137.2015140254043
 21
2.035602024545255
 31
0.0
  0
DIMENSION
  5
2B10
330
1F
100
AcDbEntity
  8
寸法線
100
AcDbDimension
  2
*D7
 10
277.6414745488584
 20
85.72067086330276
 30
0.0
 11
247.6414745488584
 21
89.22067086330276
 31
0.0
 70
    32
  1
57.3
 71
     5
 42
60.0
  3
sunpo
100
AcDbAlignedDimension
 13
217.6414745488584
 23
115.4711488256961
 33
0.0
 14
277.6414745488584
 24
115.4711488256961
 34
0.0
100
AcDbRotatedDimension
1001
ACAD
1000
DSTYLE
1002
{
1070
    40
1040
1.0
1002
}
  0
DIMENSION
  5
2B1D
330
1F
100
AcDbEntity
  8
寸法線
100
AcDbDimension
  2
*D8
 10
272.6414745488584
 20
98.09590984449947
 30
0.0
 11
247.6414745488584
 21
101.5959098444994
 31
0.0
 70
    32
  1
49.3
 71
     5
 42
50.0
  3
sunpo
100
AcDbAlignedDimension
 13
222.6414745488584
 23
115.4711488256961
 33
0.0
 14
272.6414745488584
 24
115.4711488256961
 34
0.0
100
AcDbRotatedDimension
1001
ACAD
1000
DSTYLE
1002
{
1070
    40
1040
1.0
1002
}
  0
CIRCLE
  5
2B40
330
1F
100
AcDbEntity
  8
細線
100
AcDbCircle
 10
247.6414745488584
 20
180.4711488256961
 30
0.0
 40
23.8596282151463
  0
DIMENSION
  5
2B6B
330
1F
100
AcDbEntity
  8
寸法線
100
AcDbDimension
  2
*D9
 10
24.38574414206845
 20
150.4711488256962
 30
0.0
 11
20.88574414206843
 21
180.4711488256962
 31
0.0
 70
    32
  1
57.3
 71
     5
 42
59.99999999999997
  3
sunpo
100
AcDbAlignedDimension
 13
72.20151402540432
 23
210.4711488256961
 33
0.0
 14
72.20151402540432
 24
150.4711488256961
 34
0.0
 50
90.0
100
AcDbRotatedDimension
1001
ACAD
1000
DSTYLE
1002
{
1070
    40
1040
1.0
1002
}
  0
DIMENSION
  5
2B78
330
1F
100
AcDbEntity
  8
寸法線
100
AcDbDimension
  2
*D10
 10
24.38574414206845
 20
115.4711488256961
 30
0.0
 11
20.88574414206843
 21
132.9711488256961
 31
0.0
 70
    32
 71
     5
 42
35.00000000000004
  3
sunpo
100
AcDbAlignedDimension
 13
72.20151402540432
 23
150.4711488256961
 33
0.0
 14
42.20151402540432
 24
115.4711488256961
 34
0.0
 50
90.0
100
AcDbRotatedDimension
1001
ACAD
1000
DSTYLE
1002
{
1070
    40
1040
1.0
1070
   279
1070
     1
1002
}
  0
DIMENSION
  5
2B8E
330
1F
100
AcDbEntity
  8
寸法線
100
AcDbDimension
  2
*D11
 10
87.1428505273136
 20
6.535602024545259
 30
0.0
 11
83.64285052731361
 21
31.53560202454527
 31
0.0
 70
    32
  1
49.0
 71
     5
 42
50.0
  3
sunpo
100
AcDbAlignedDimension
 13
102.2015140254043
 23
56.53560202454525
 33
0.0
 14
102.2015140254043
 24
6.535602024545255
 34
0.0
 50
90.0
100
AcDbRotatedDimension
1001
ACAD
1000
DSTYLE
1002
{
1070
    40
1040
1.0
1002
}
  0
DIMENSION
  5
2B9B
330
1F
100
AcDbEntity
  8
寸法線
100
AcDbDimension
  2
*D12
 10
159.1351610243002
 20
6.535602024545249
 30
0.0
 11
155.6351610243002
 21
31.53560202454527
 31
0.0
 70
    32
  1
49.3
 71
     5
 42
50.0
  3
sunpo
100
AcDbAlignedDimension
 13
137.2015140254043
 23
56.53560202454526
 33
0.0
 14
137.2015140254043
 24
6.535602024545256
 34
0.0
 50
90.0
100
AcDbRotatedDimension
1001
ACAD
1000
DSTYLE
1002
{
1070
    40
1040
1.0
1002
}
  0
DIMENSION
  5
2BC7
330
1F
100
AcDbEntity
  8
寸法線
100
AcDbDimension
  2
*D13
 10
137.2015140254043
 20
230.221392422382
 30
0.0
 11
89.70151402540432
 21
233.7230929459154
 31
0.0
 70
    32
  1
92.3
 71
     5
 42
95.0
  3
sunpo
100
AcDbAlignedDimension
 13
42.20151402540432
 23
180.4711488256961
 33
0.0
 14
137.2015140254043
 24
180.4711488256961
 34
0.0
100
AcDbRotatedDimension
1001
ACAD
1000
DSTYLE
1002
{
1070
    40
1040
1.0
1002
}
  0
DIMENSION
  5
2BEA
330
1F
100
AcDbEntity
  8
寸法線
100
AcDbDimension
  2
*D14
 10
298.0016720404007
 20
155.4711488256961
 30
0.0
 11
294.5016720404007
 21
180.3492769006538
 31
0.0
 70
    32
  1
49.6
 71
     5
 42
49.75625614991537
  3
sunpo
100
AcDbAlignedDimension
 13
287.7254425766057
 23
205.2274049756115
 33
0.0
 14
287.6414745488584
 24
155.4711488256961
 34
0.0
 50
90.0
100
AcDbRotatedDimension
1001
ACAD
1000
DSTYLE
1002
{
1070
    40
1040
1.0
1002
}
  0
DIMENSION
  5
2C3E
330
1F
100
AcDbEntity
  8
寸法線
100
AcDbDimension
  2
*D15
 10
199.3844510891765
 20
155.4711488256961
 30
0.0
 11
195.8844510891765
 21
180.4711488256962
 31
0.0
 70
    32
  1
49.3
 71
     5
 42
50.0
  3
sunpo
100
AcDbAlignedDimension
 13
207.6414745488584
 23
205.4711488256961
 33
0.0
 14
207.6414745488584
 24
155.4711488256961
 34
0.0
 50
90.0
100
AcDbRotatedDimension
1001
ACAD
1000
DSTYLE
1002
{
1070
    40
1040
1.0
1002
}
  0
DIMENSION
  5
2C54
330
1F
100
AcDbEntity
  8
寸法線
100
AcDbDimension
  2
*D16
 10
307.9610901472353
 20
115.4711488256961
 30
0.0
 11
304.4610901472353
 21
132.9711488256961
 31
0.0
 70
    32
 71
     5
 42
35.0
  3
sunpo
100
AcDbAlignedDimension
 13
287.6414745488584
 23
150.4711488256961
 33
0.0
 14
277.6414745488584
 24
115.4711488256961
 34
0.0
 50
90.0
100
AcDbRotatedDimension
1001
ACAD
1000
DSTYLE
1002
{
1070
    40
1040
1.0
1002
}
  0
DIMENSION
  5
2C70
330
1F
100
AcDbEntity
  8
寸法線
100
AcDbDimension
  2
*D17
 10
74.70151402540432
 20
102.2514802953311
 30
0.0
 11
72.20151402540432
 21
105.7514802953311
 31
0.0
 70
    32
  1
4
 71
     5
 42
5.0
  3
sunpo
100
AcDbAlignedDimension
 13
69.70151402540432
 23
125.4711488256961
 33
0.0
 14
74.70151402540432
 24
125.4711488256961
 34
0.0
100
AcDbRotatedDimension
1001
ACAD
1000
DSTYLE
1002
{
1070
    40
1040
1.0
1002
}
  0
DIMENSION
  5
2C99
330
1F
100
AcDbEntity
  8
寸法線
100
AcDbDimension
  2
*D18
 10
150.0779528853056
 20
205.4711488256961
 30
0.0
 11
146.5779528853055
 21
207.9711488256961
 31
0.0
 70
    32
  1
4
 71
     5
 42
5.000000000000028
  3
sunpo
100
AcDbAlignedDimension
 13
137.2015140254043
 23
210.4711488256961
 33
0.0
 14
137.2015140254043
 24
205.4711488256961
 34
0.0
 50
90.0
100
AcDbRotatedDimension
1001
ACAD
1000
DSTYLE
1002
{
1070
    40
1040
1.0
1002
}
  0
CIRCLE
  5
2CB4
330
1F
100
AcDbEntity
  8
細線
100
AcDbCircle
 10
72.20151402540432
 20
31.53560202454525
 30
0.0
 40
23.81397932512767
  0
ARC
  5
2CB6
330
1F
100
AcDbEntity
  8
太線
100
AcDbCircle
 10
136.7015140254043
 20
61.03560202454524
 30
0.0
 40
0.5
100
AcDbArc
 50
0.0
 51
90.00000000000005
  0
ARC
  5
2CB7
330
1F
100
AcDbEntity
  8
太線
100
AcDbCircle
 10
136.7015140254043
 20
2.035602024545255
 30
0.0
 40
0.5
100
AcDbArc
 50
270.0
 51
0.0
  0
ARC
  5
2CB9
330
1F
100
AcDbEntity
  8
太線
100
AcDbCircle
 10
126.7015140254043
 20
33.53560202454525
 30
0.0
 40
0.5
100
AcDbArc
 50
0.0
 51
90.0
  0
ARC
  5
2CBA
330
1F
100
AcDbEntity
  8
太線
100
AcDbCircle
 10
126.7015140254043
 20
29.53560202454525
 30
0.0
 40
0.5
100
AcDbArc
 50
270.0
 51
0.0
  0
ARC
  5
2CBB
330
1F
100
AcDbEntity
  8
太線
100
AcDbCircle
 10
42.70151402540431
 20
115.9711488256961
 30
0.0
 40
0.5
100
AcDbArc
 50
180.0
 51
270.0
  0
ARC
  5
2CBC
330
1F
100
AcDbEntity
  8
太線
100
AcDbCircle
 10
101.7015140254043
 20
115.9711488256961
 30
0.0
 40
0.5
100
AcDbArc
 50
270.0
 51
0.0000000000000254
  0
ARC
  5
2CBD
330
1F
100
AcDbEntity
  8
太線
100
AcDbCircle
 10
136.7015140254043
 20
150.9711488256961
 30
0.0
 40
0.5
100
AcDbArc
 50
270.0
 51
0.0
  0
ARC
  5
2CBE
330
1F
100
AcDbEntity
  8
太線
100
AcDbCircle
 10
70.20151402540432
 20
125.9711488256961
 30
0.0
 40
0.5
100
AcDbArc
 50
180.0
 51
270.0
  0
ARC
  5
2CBF
330
1F
100
AcDbEntity
  8
太線
100
AcDbCircle
 10
74.20151402540432
 20
125.9711488256961
 30
0.0
 40
0.5
100
AcDbArc
 50
269.9999999999997
 51
0.0
  0
ARC
  5
2CC0
330
1F
100
AcDbEntity
  8
太線
100
AcDbCircle
 10
126.7015140254043
 20
182.4711488256961
 30
0.0
 40
0.5
100
AcDbArc
 50
0.0
 51
90.0
  0
ARC
  5
2CC1
330
1F
100
AcDbEntity
  8
太線
100
AcDbCircle
 10
126.7015140254043
 20
178.5193172078315
 30
0.0
 40
0.5
100
AcDbArc
 50
270.0
 51
0.0
  0
ARC
  5
2CC4
330
1F
100
AcDbEntity
  8
太線
100
AcDbCircle
 10
277.1414745488584
 20
115.9711488256961
 30
0.0
 40
0.5
100
AcDbArc
 50
270.0
 51
0.0
  0
ARC
  5
2CC5
330
1F
100
AcDbEntity
  8
太線
100
AcDbCircle
 10
218.1414745488584
 20
115.9711488256961
 30
0.0
 40
0.5
100
AcDbArc
 50
179.9999999999998
 51
270.0
  0
ARC
  5
2CC6
330
1F
100
AcDbEntity
  8
太線
100
AcDbCircle
 10
245.6414745488584
 20
125.9711488256961
 30
0.0
 40
0.5
100
AcDbArc
 50
180.0
 51
270.0
  0
ARC
  5
2CC7
330
1F
100
AcDbEntity
  8
太線
100
AcDbCircle
 10
249.6414745488584
 20
125.9711488256961
 30
0.0
 40
0.5
100
AcDbArc
 50
269.9999999999997
 51
0.0
  0
XLINE
  5
2CEA
330
1F
100
AcDbEntity
  8
構築線
100
AcDbXline
 10
202.6414745488584
 20
210.4788998873083
 30
0.0
 11
0.0
 21
-1.0
 31
0.0
  0
XLINE
  5
2CEC
330
1F
100
AcDbEntity
  8
構築線
100
AcDbXline
 10
289.6414745488584
 20
210.4788998873083
 30
0.0
 11
0.0
 21
-1.0
 31
0.0
  0
XLINE
  5
2CED
330
1F
100
AcDbEntity
  8
構築線
100
AcDbXline
 10
205.6414745488584
 20
210.4788998873083
 30
0.0
 11
0.0
 21
-1.0
 31
0.0
  0
LINE
  5
2CEE
330
1F
100
AcDbEntity
  8
太線
100
AcDbLine
 10
277.6414745488584
 20
125.4711488256961
 30
0.0
 11
289.6414745488584
 21
150.4711488256961
 31
0.0
  0
LINE
  5
2CEF
330
1F
100
AcDbEntity
  8
太線
100
AcDbLine
 10
289.6414745488584
 20
150.4711488256961
 30
0.0
 11
289.6414745488584
 21
209.969986016257
 31
0.0
  0
LINE
  5
2CF1
330
1F
100
AcDbEntity
  8
太線
100
AcDbLine
 10
287.6414745488584
 20
150.4711488256961
 30
0.0
 11
289.6414745488584
 21
150.4711488256961
 31
0.0
  0
LINE
  5
2CF2
330
1F
100
AcDbEntity
  8
太線
100
AcDbLine
 10
287.1418621018226
 20
210.4715360783821
 30
0.0
 11
289.6414745488584
 21
210.4711488256961
 31
0.0
  0
LINE
  5
2CF3
330
1F
100
AcDbEntity
  8
太線
100
AcDbLine
 10
208.1414745488584
 20
210.4711488256961
 30
0.0
 11
205.6414745488584
 21
210.4788998873083
 31
0.0
  0
LINE
  5
2CF4
330
1F
100
AcDbEntity
  8
太線
100
AcDbLine
 10
205.6414745488584
 20
209.9711488256961
 30
0.0
 11
205.6414745488584
 21
150.4711488256961
 31
0.0
  0
LINE
  5
2CF5
330
1F
100
AcDbEntity
  8
太線
100
AcDbLine
 10
205.6414745488584
 20
150.4711488256961
 30
0.0
 11
207.6414745488584
 21
150.4711488256961
 31
0.0
  0
LINE
  5
2CF6
330
1F
100
AcDbEntity
  8
太線
100
AcDbLine
 10
217.6414745488584
 20
125.4711488256961
 30
0.0
 11
205.6414745488584
 21
150.4711488256961
 31
0.0
  0
DIMENSION
  5
2CFB
330
1F
100
AcDbEntity
  8
寸法線
100
AcDbDimension
  2
*D19
 10
289.6414745488584
 20
229.4644206320887
 30
0.0
 11
247.6414745488584
 21
232.9644206320887
 31
0.0
 70
    32
  1
81.3
 71
     5
 42
84.0
  3
sunpo
100
AcDbAlignedDimension
 13
205.6414745488584
 23
210.4788998873083
 33
0.0
 14
289.6414745488584
 24
210.4711488256961
 34
0.0
100
AcDbRotatedDimension
1001
ACAD
1000
DSTYLE
1002
{
1070
    40
1040
1.0
1002
}
  0
DIMENSION
  5
2D11
330
1F
100
AcDbEntity
  8
寸法線
100
AcDbDimension
  2
*D20
 10
217.6414745488584
 20
158.7058699698575
 30
0.0
 11
211.6414745488584
 21
162.2063620958417
 31
0.0
 70
    32
 71
     5
 42
12.0
  3
sunpo
100
AcDbAlignedDimension
 13
205.6414745488584
 23
150.4711488256961
 33
0.0
 14
217.6414745488584
 24
150.4711488256961
 34
0.0
100
AcDbRotatedDimension
1001
ACAD
1000
DSTYLE
1002
{
1070
    40
1040
1.0
1002
}
  0
XLINE
  5
2D30
330
1F
100
AcDbEntity
  8
構築線
100
AcDbXline
 10
102.7912907694046
 20
73.53560202454525
 30
0.0
 11
1.0
 21
0.0
 31
0.0
  0
XLINE
  5
2D31
330
1F
100
AcDbEntity
  8
構築線
100
AcDbXline
 10
102.7912907694046
 20
-10.46439797545474
 30
0.0
 11
1.0
 21
0.0
 31
0.0
  0
LINE
  5
2D33
330
1F
100
AcDbEntity
  8
太線
100
AcDbLine
 10
42.70151402540432
 20
73.53560202454524
 30
0.0
 11
102.2015140254043
 21
73.53560202454525
 31
0.0
  0
LINE
  5
2D34
330
1F
100
AcDbEntity
  8
太線
100
AcDbLine
 10
102.2015140254043
 20
73.53560202454525
 30
0.0
 11
127.2015140254043
 21
61.53560202454525
 31
0.0
  0
LINE
  5
2D35
330
1F
100
AcDbEntity
  8
太線
100
AcDbLine
 10
42.20151402540432
 20
71.03560202454525
 30
0.0
 11
42.20151402540432
 21
73.53560202454525
 31
0.0
  0
LINE
  5
2D36
330
1F
100
AcDbEntity
  8
太線
100
AcDbLine
 10
127.2015140254043
 20
1.535602024545255
 30
0.0
 11
102.2015140254043
 21
-10.46439797545474
 31
0.0
  0
LINE
  5
2D37
330
1F
100
AcDbEntity
  8
太線
100
AcDbLine
 10
102.2015140254043
 20
-10.46439797545474
 30
0.0
 11
42.70267683484351
 21
-10.46439797545474
 31
0.0
  0
LINE
  5
2D38
330
1F
100
AcDbEntity
  8
太線
100
AcDbLine
 10
42.20151402540432
 20
-10.46439797545474
 30
0.0
 11
42.2011267727184
 21
-7.964785528418934
 31
0.0
  0
LINE
  5
2D39
330
1F
100
AcDbEntity
  8
太線
100
AcDbLine
 10
102.2015140254043
 20
-8.464397975454744
 30
0.0
 11
102.2015140254043
 21
-10.46439797545474
 31
0.0
  0
LINE
  5
2D3A
330
1F
100
AcDbEntity
  8
想像線
100
AcDbLine
 10
47.20151402540432
 20
73.53560202454525
 30
0.0
 11
48.38753470027665
 21
31.53560202454525
 31
0.0
  0
LINE
  5
2D3B
330
1F
100
AcDbEntity
  8
想像線
100
AcDbLine
 10
48.38753470027665
 20
31.53560202454525
 30
0.0
 11
47.20151402540432
 21
-10.46439797545474
 31
0.0
  0
LINE
  5
2D3C
330
1F
100
AcDbEntity
  8
想像線
100
AcDbLine
 10
97.20151402540432
 20
73.53560202454525
 30
0.0
 11
96.01549335053199
 21
31.53560202454525
 31
0.0
  0
LINE
  5
2D3D
330
1F
100
AcDbEntity
  8
想像線
100
AcDbLine
 10
96.01549335053199
 20
31.53560202454525
 30
0.0
 11
97.20151402540432
 21
-10.46439797545474
 31
0.0
  0
LINE
  5
2D3E
330
1F
100
AcDbEntity
  8
太線
100
AcDbLine
 10
102.2015140254043
 20
71.53560202454525
 30
0.0
 11
102.2015140254043
 21
73.53560202454525
 31
0.0
  0
ARC
  5
2D3F
330
1F
100
AcDbEntity
  8
太線
100
AcDbCircle
 10
42.70151402540432
 20
73.03560202454524
 30
0.0
 40
0.5
100
AcDbArc
 50
90.0
 51
180.0
  0
ARC
  5
2D40
330
1F
100
AcDbEntity
  8
太線
100
AcDbCircle
 10
42.70267683484351
 20
-9.964397975454742
 30
0.0
 40
0.5
100
AcDbArc
 50
180.0444103028185
 51
270.0
  0
ARC
  5
2D41
330
1F
100
AcDbEntity
  8
太線
100
AcDbCircle
 10
42.70267683484351
 20
-9.964397975454742
 30
0.0
 40
0.5
100
AcDbArc
 50
180.0444103028185
 51
270.0
  0
ARC
  5
2D42
330
1F
100
AcDbEntity
  8
太線
100
AcDbCircle
 10
42.70267683484351
 20
-9.964397975454742
 30
0.0
 40
0.5
100
AcDbArc
 50
180.0444103028185
 51
270.0
  0
ARC
  5
2D43
330
1F
100
AcDbEntity
  8
太線
100
AcDbCircle
 10
206.1414745488585
 20
209.9711488256961
 30
0.0
 40
0.5
100
AcDbArc
 50
90.0
 51
180.0
  0
ARC
  5
2D44
330
1F
100
AcDbEntity
  8
太線
100
AcDbCircle
 10
289.1414745488584
 20
209.969986016257
 30
0.0
 40
0.5
100
AcDbArc
 50
0.0
 51
89.95558969718166
  0
LINE
  5
2D4C
330
1F
100
AcDbEntity
  8
太線
100
AcDbLine
 10
69.70151402540432
 20
73.53560202454524
 30
0.0
 11
69.70151402540432
 21
61.53560202454525
 31
0.0
  0
LINE
  5
2D4D
330
1F
100
AcDbEntity
  8
太線
100
AcDbLine
 10
74.70151402540432
 20
73.53560202454525
 30
0.0
 11
74.70151402540432
 21
61.53560202454525
 31
0.0
  0
LINE
  5
2D4E
330
1F
100
AcDbEntity
  8
太線
100
AcDbLine
 10
69.70151402540432
 20
1.535602024545255
 30
0.0
 11
69.70151402540432
 21
-10.46439797545474
 31
0.0
  0
LINE
  5
2D4F
330
1F
100
AcDbEntity
  8
太線
100
AcDbLine
 10
74.70151402540432
 20
1.639950166791756
 30
0.0
 11
74.70151402540432
 21
-10.46439797545474
 31
0.0
  0
LINE
  5
2D50
330
1F
100
AcDbEntity
  8
太線
100
AcDbLine
 10
205.6414745488584
 20
182.9711488256961
 30
0.0
 11
217.6414745488584
 21
182.9711488256961
 31
0.0
  0
LINE
  5
2D51
330
1F
100
AcDbEntity
  8
太線
100
AcDbLine
 10
205.6414745488584
 20
177.9711488256961
 30
0.0
 11
217.6414745488584
 21
177.9711488256961
 31
0.0
  0
LINE
  5
2D52
330
1F
100
AcDbEntity
  8
太線
100
AcDbLine
 10
277.5371264066119
 20
182.9711488256961
 30
0.0
 11
289.6414745488584
 21
182.9711488256961
 31
0.0
  0
LINE
  5
2D53
330
1F
100
AcDbEntity
  8
太線
100
AcDbLine
 10
289.6414745488584
 20
182.9711488256961
 30
0.0
 11
289.6414745488584
 21
182.9711488256961
 31
0.0
  0
LINE
  5
2D55
330
1F
100
AcDbEntity
  8
太線
100
AcDbLine
 10
289.6414745488584
 20
177.9711488256961
 30
0.0
 11
277.6414745488584
 21
177.9711488256961
 31
0.0
  0
LINE
  5
2D56
330
1F
100
AcDbEntity
  8
想像線
100
AcDbLine
 10
282.9709279897979
 20
182.780626229222
 30
0.0
 11
282.9709279897979
 21
177.9550608239579
 31
0.0
  0
LINE
  5
2D57
330
1F
100
AcDbEntity
  8
想像線
100
AcDbLine
 10
212.0668574398409
 20
177.9550608239579
 30
0.0
 11
212.0668574398409
 21
182.780626229222
 31
0.0
  0
LINE
  5
2D58
330
1F
100
AcDbEntity
  8
想像線
100
AcDbLine
 10
74.64907629242066
 20
65.97344705022954
 30
0.0
 11
69.8196969437081
 21
65.97344705022954
 31
0.0
  0
LINE
  5
2D59
330
1F
100
AcDbEntity
  8
想像線
100
AcDbLine
 10
69.8196969437081
 20
65.97344705022954
 30
0.0
 11
69.8196969437081
 21
65.75410316817215
 31
0.0
  0
LINE
  5
2D5A
330
1F
100
AcDbEntity
  8
想像線
100
AcDbLine
 10
74.86859410283819
 20
-3.791057071423892
 30
0.0
 11
69.8196969437081
 21
-3.791057071423892
 31
0.0
  0
LINE
  5
2D5B
330
1F
100
AcDbEntity
  8
想像線
100
AcDbLine
 10
108.0248180910741
 20
33.88250206179304
 30
0.0
 11
108.0248180910741
 21
29.002550459154
 31
0.0
  0
XLINE
  5
2D64
330
1F
100
AcDbEntity
  8
構築線
100
AcDbXline
 10
72.52876022872351
 20
204.2125407223735
 30
0.0
 11
1.0
 21
0.0
 31
0.0
  0
XLINE
  5
2D65
330
1F
100
AcDbEntity
  8
構築線
100
AcDbXline
 10
96.13008255590466
 20
180.6303568555933
 30
0.0
 11
0.0
 21
-1.0
 31
0.0
  0
XLINE
  5
2D66
330
1F
100
AcDbEntity
  8
構築線
100
AcDbXline
 10
72.27308779628902
 20
156.5568770497894
 30
0.0
 11
1.0
 21
0.0
 31
0.0
  0
XLINE
  5
2D67
330
1F
100
AcDbEntity
  8
構築線
100
AcDbXline
 10
48.42591737004318
 20
180.8760044830671
 30
0.0
 11
0.0
 21
-1.0
 31
0.0
  0
LINE
  5
2D68
330
1F
100
AcDbEntity
  8
想像線
100
AcDbLine
 10
72.20151402540432
 20
204.2125407223735
 30
0.0
 11
102.2015140254043
 21
204.2125407223735
 31
0.0
  0
LINE
  5
2D69
330
1F
100
AcDbEntity
  8
想像線
100
AcDbLine
 10
72.20151402540432
 20
156.5568770497894
 30
0.0
 11
102.2015140254043
 21
156.5568770497894
 31
0.0
  0
LINE
  5
2D6A
330
1F
100
AcDbEntity
  8
想像線
100
AcDbLine
 10
48.42591737004318
 20
180.4711488256961
 30
0.0
 11
48.42591737004318
 21
150.4711488256962
 31
0.0
  0
LINE
  5
2D6B
330
1F
100
AcDbEntity
  8
想像線
100
AcDbLine
 10
96.13008255590466
 20
180.4711488256961
 30
0.0
 11
96.13008255590466
 21
150.4711488256961
 31
0.0
  0
XLINE
  5
2D6C
330
1F
100
AcDbEntity
  8
構築線
100
AcDbXline
 10
271.5011027640047
 20
180.4711488256961
 30
0.0
 11
0.0
 21
-1.0
 31
0.0
  0
XLINE
  5
2D6D
330
1F
100
AcDbEntity
  8
構築線
100
AcDbXline
 10
223.7605636898342
 20
180.0833100815685
 30
0.0
 11
0.0
 21
-1.0
 31
0.0
  0
XLINE
  5
2D6E
330
1F
100
AcDbEntity
  8
構築線
100
AcDbXline
 10
72.06519001025867
 20
55.40359785196438
 30
0.0
 11
1.0
 21
0.0
 31
0.0
  0
XLINE
  5
2D6F
330
1F
100
AcDbEntity
  8
構築線
100
AcDbXline
 10
72.28133498318084
 20
8.106072650914711
 30
0.0
 11
1.0
 21
0.0
 31
0.0
  0
LINE
  5
2D70
330
1F
100
AcDbEntity
  8
想像線
100
AcDbLine
 10
72.20151402540432
 20
55.34958134967293
 30
0.0
 11
102.2015140254043
 21
55.40359785196438
 31
0.0
  0
LINE
  5
2D71
330
1F
100
AcDbEntity
  8
想像線
100
AcDbLine
 10
72.20151402540432
 20
7.721622699417586
 30
0.0
 11
102.2015140254043
 21
8.106072650914711
 31
0.0
  0
LINE
  5
2D72
330
1F
100
AcDbEntity
  8
想像線
100
AcDbLine
 10
271.5011027640047
 20
180.4711488256961
 30
0.0
 11
271.5011027640047
 21
150.4711488256961
 31
0.0
  0
LINE
  5
2D73
330
1F
100
AcDbEntity
  8
想像線
100
AcDbLine
 10
223.7818463337121
 20
180.4711488256961
 30
0.0
 11
223.7605636898342
 21
156.5568770497894
 31
0.0
  0
LINE
  5
2D75
330
1F
100
AcDbEntity
  8
想像線
100
AcDbLine
 10
205.6414745488584
 20
205.4711488256961
 30
0.0
 11
289.6414745488584
 21
205.4711488256961
 31
0.0
  0
LINE
  5
2D76
330
1F
100
AcDbEntity
  8
想像線
100
AcDbLine
 10
205.6414745488584
 20
155.4711488256961
 30
0.0
 11
289.6414745488584
 21
155.4711488256961
 31
0.0
  0
TEXT
  5
2DA4
330
1F
100
AcDbEntity
  8
文字
100
AcDbText
 10
216.4494324545373
 20
49.73569797880602
 30
0.0
 40
4.799999999999999
  1
注記　内面バリは最小限にする
 51
15.0
  7
OKANO
100
AcDbText
  0
TEXT
  5
2DAC
330
1F
100
AcDbEntity
  8
文字
100
AcDbText
 10
246.5378186976927
 20
21.92293958982511
 30
0.0
 40
4.799999999999999
  1
JAN 4562182301017
 51
15.0
  7
OKANO
100
AcDbText
  0
LINE
  5
2E36
330
1F
100
AcDbEntity
  8
細線
 62
     0
100
AcDbLine
 10
481.8029443301502
 20
162.8395238230791
 30
0.0
 11
474.3029443301502
 21
162.8395238230791
 31
0.0
  0
LINE
  5
2E37
330
1F
100
AcDbEntity
  8
細線
 62
     0
100
AcDbLine
 10
481.8029443301502
 20
166.8395238230791
 30
0.0
 11
474.3029443301502
 21
166.8395238230791
 31
0.0
  0
LINE
  5
2E38
330
1F
100
AcDbEntity
  8
細線
 62
     0
100
AcDbLine
 10
474.3029443301502
 20
162.3395238230791
 30
0.0
 11
481.8029443301502
 21
162.3395238230791
 31
0.0
  0
LINE
  5
2E39
330
1F
100
AcDbEntity
  8
細線
 62
     0
100
AcDbLine
 10
474.3029443301502
 20
167.3395238230791
 30
0.0
 11
481.8029443301502
 21
167.3395238230791
 31
0.0
  0
LINE
  5
2E3A
330
1F
100
AcDbEntity
  8
細線
 62
     0
100
AcDbLine
 10
474.3029443301502
 20
162.8395238230791
 30
0.0
 11
474.3029443301502
 21
166.8395238230791
 31
0.0
  0
LINE
  5
2E3B
330
1F
100
AcDbEntity
  8
細線
 62
     0
100
AcDbLine
 10
473.8029443301502
 20
162.8395238230791
 30
0.0
 11
473.8029443301502
 21
166.8395238230791
 31
0.0
  0
LINE
  5
2E3C
330
1F
100
AcDbEntity
  8
細線
 62
     0
100
AcDbLine
 10
429.8029443301502
 20
162.8395238230791
 30
0.0
 11
429.8029443301502
 21
166.8395238230791
 31
0.0
  0
LINE
  5
2E3D
330
1F
100
AcDbEntity
  8
細線
 62
     0
100
AcDbLine
 10
429.3029443301502
 20
162.8395238230791
 30
0.0
 11
429.3029443301502
 21
166.8395238230791
 31
0.0
  0
LINE
  5
2E3E
330
1F
100
AcDbEntity
  8
細線
 62
     0
100
AcDbLine
 10
421.8029443301502
 20
162.3395238230791
 30
0.0
 11
421.8029443301502
 21
167.3395238230791
 31
0.0
  0
ARC
  5
2E3F
330
1F
100
AcDbEntity
  8
太線
100
AcDbCircle
 10
412.9946091157234
 20
164.8395238230791
 30
0.0
 40
2.5
100
AcDbArc
 50
348.463040967185
 51
11.53695903281653
  0
ARC
  5
2E40
330
1F
100
AcDbEntity
  8
太線
100
AcDbCircle
 10
412.9946091157234
 20
164.8395238230791
 30
0.0
 40
2.5
100
AcDbArc
 50
168.4630409671834
 51
191.5369590328149
  0
ARC
  5
2E41
330
1F
100
AcDbEntity
  8
細線
 62
     0
100
AcDbCircle
 10
427.3029443301501
 20
164.8395238230791
 30
0.0
 40
8.49999999999995
100
AcDbArc
 50
151.9275130641469
 51
208.072486935853
  0
CIRCLE
  5
2E42
330
1F
100
AcDbEntity
  8
太線
100
AcDbCircle
 10
412.9946091157234
 20
164.8395238230791
 30
0.0
 40
4.0
  0
LINE
  5
2E43
330
1F
100
AcDbEntity
  8
太線
100
AcDbLine
 10
410.5451193729402
 20
164.3395238230791
 30
0.0
 11
411.9946091157234
 21
164.339523823079
 31
0.0
  0
LINE
  5
2E44
330
1F
100
AcDbEntity
  8
太線
100
AcDbLine
 10
413.9946091157233
 20
164.339523823079
 30
0.0
 11
415.4440988585066
 21
164.3395238230791
 31
0.0
  0
ARC
  5
2E45
330
1F
100
AcDbEntity
  8
太線
100
AcDbCircle
 10
412.9946091157234
 20
164.8395238230791
 30
0.0
 40
2.5
100
AcDbArc
 50
258.4630409671818
 51
281.5369590328147
  0
LINE
  5
2E46
330
1F
100
AcDbEntity
  8
太線
100
AcDbLine
 10
412.4946091157234
 20
163.839523823079
 30
0.0
 11
412.4946091157234
 21
162.3900340802959
 31
0.0
  0
LINE
  5
2E47
330
1F
100
AcDbEntity
  8
太線
100
AcDbLine
 10
413.4946091157233
 20
162.3900340802959
 30
0.0
 11
413.4946091157233
 21
163.839523823079
 31
0.0
  0
ARC
  5
2E48
330
1F
100
AcDbEntity
  8
太線
100
AcDbCircle
 10
413.9946091157233
 20
163.839523823079
 30
0.0
 40
0.5
100
AcDbArc
 50
90.0
 51
180.0
  0
ARC
  5
2E49
330
1F
100
AcDbEntity
  8
太線
100
AcDbCircle
 10
411.9946091157234
 20
163.839523823079
 30
0.0
 40
0.5
100
AcDbArc
 50
0.0
 51
90.0
  0
LINE
  5
2E4A
330
1F
100
AcDbEntity
  8
細線
 62
     0
100
AcDbLine
 10
429.3029443301502
 20
162.3395238230791
 30
0.0
 11
421.8029443301502
 21
162.3395238230791
 31
0.0
  0
LINE
  5
2E4B
330
1F
100
AcDbEntity
  8
細線
 62
     0
100
AcDbLine
 10
421.8029443301502
 20
162.8395238230791
 30
0.0
 11
429.3029443301502
 21
162.8395238230791
 31
0.0
  0
LINE
  5
2E4C
330
1F
100
AcDbEntity
  8
細線
 62
     0
100
AcDbLine
 10
421.8029443301502
 20
160.8395238230791
 30
0.0
 11
419.8029443301502
 21
160.8395238230791
 31
0.0
  0
LINE
  5
2E4D
330
1F
100
AcDbEntity
  8
細線
 62
     0
100
AcDbLine
 10
421.8029443301502
 20
162.3395238230791
 30
0.0
 11
421.8029443301502
 21
160.8395238230791
 31
0.0
  0
LINE
  5
2E4E
330
1F
100
AcDbEntity
  8
細線
 62
     0
100
AcDbLine
 10
429.8029443301502
 20
162.8395238230791
 30
0.0
 11
429.3029443301502
 21
162.3395238230791
 31
0.0
  0
LINE
  5
2E4F
330
1F
100
AcDbEntity
  8
細線
 62
     0
100
AcDbLine
 10
454.3029443301502
 20
142.3395238230791
 30
0.0
 11
454.3029443301502
 21
134.8395238230791
 31
0.0
  0
LINE
  5
2E50
330
1F
100
AcDbEntity
  8
細線
 62
     0
100
AcDbLine
 10
449.3029443301502
 20
142.3395238230791
 30
0.0
 11
449.3029443301502
 21
134.8395238230791
 31
0.0
  0
LINE
  5
2E51
330
1F
100
AcDbEntity
  8
細線
 62
     0
100
AcDbLine
 10
453.8029443301502
 20
134.8395238230791
 30
0.0
 11
453.8029443301502
 21
142.3395238230791
 31
0.0
  0
LINE
  5
2E52
330
1F
100
AcDbEntity
  8
細線
 62
     0
100
AcDbLine
 10
449.8029443301502
 20
134.8395238230791
 30
0.0
 11
449.8029443301502
 21
142.3395238230791
 31
0.0
  0
LINE
  5
2E53
330
1F
100
AcDbEntity
  8
太線
100
AcDbLine
 10
452.3029443301502
 20
125.0311886086522
 30
0.0
 11
452.3029443301502
 21
123.5816988658691
 31
0.0
  0
LINE
  5
2E54
330
1F
100
AcDbEntity
  8
太線
100
AcDbLine
 10
451.3029443301502
 20
123.5816988658691
 30
0.0
 11
451.3029443301501
 21
125.0311886086522
 31
0.0
  0
CIRCLE
  5
2E55
330
1F
100
AcDbEntity
  8
太線
100
AcDbCircle
 10
451.8029443301502
 20
126.0311886086523
 30
0.0
 40
4.0
  0
ARC
  5
2E56
330
1F
100
AcDbEntity
  8
太線
100
AcDbCircle
 10
451.8029443301502
 20
126.0311886086523
 30
0.0
 40
2.5
100
AcDbArc
 50
258.4630409671852
 51
281.5369590328181
  0
ARC
  5
2E57
330
1F
100
AcDbEntity
  8
太線
100
AcDbCircle
 10
452.8029443301502
 20
127.0311886086523
 30
0.0
 40
0.5
100
AcDbArc
 50
180.0
 51
270.0
  0
ARC
  5
2E58
330
1F
100
AcDbEntity
  8
太線
100
AcDbCircle
 10
452.8029443301502
 20
125.0311886086522
 30
0.0
 40
0.5
100
AcDbArc
 50
90.0
 51
180.0
  0
LINE
  5
2E59
330
1F
100
AcDbEntity
  8
太線
100
AcDbLine
 10
452.3029443301502
 20
128.4806783514355
 30
0.0
 11
452.3029443301502
 21
127.0311886086523
 31
0.0
  0
LINE
  5
2E5A
330
1F
100
AcDbEntity
  8
太線
100
AcDbLine
 10
451.3029443301501
 20
127.0311886086523
 30
0.0
 11
451.3029443301502
 21
128.4806783514355
 31
0.0
  0
ARC
  5
2E5B
330
1F
100
AcDbEntity
  8
太線
100
AcDbCircle
 10
451.8029443301502
 20
126.0311886086523
 30
0.0
 40
2.5
100
AcDbArc
 50
78.46304096718187
 51
101.5369590328147
  0
ARC
  5
2E5C
330
1F
100
AcDbEntity
  8
太線
100
AcDbCircle
 10
451.8029443301502
 20
126.0311886086523
 30
0.0
 40
2.5
100
AcDbArc
 50
168.463040967185
 51
191.5369590328165
  0
LINE
  5
2E5D
330
1F
100
AcDbEntity
  8
太線
100
AcDbLine
 10
450.8029443301501
 20
125.5311886086522
 30
0.0
 11
449.3534545873671
 21
125.5311886086523
 31
0.0
  0
ARC
  5
2E5E
330
1F
100
AcDbEntity
  8
太線
100
AcDbCircle
 10
450.8029443301501
 20
125.0311886086522
 30
0.0
 40
0.5
100
AcDbArc
 50
0.0
 51
90.0
  0
LINE
  5
2E5F
330
1F
100
AcDbEntity
  8
太線
100
AcDbLine
 10
449.3534545873671
 20
126.5311886086523
 30
0.0
 11
450.8029443301501
 21
126.5311886086523
 31
0.0
  0
ARC
  5
2E60
330
1F
100
AcDbEntity
  8
太線
100
AcDbCircle
 10
450.8029443301501
 20
127.0311886086523
 30
0.0
 40
0.5
100
AcDbArc
 50
270.0
 51
0.0
  0
ARC
  5
2E61
330
1F
100
AcDbEntity
  8
太線
100
AcDbCircle
 10
451.8029443301502
 20
126.0311886086523
 30
0.0
 40
2.5
100
AcDbArc
 50
348.463040967185
 51
11.53695903281494
  0
LINE
  5
2E62
330
1F
100
AcDbEntity
  8
太線
100
AcDbLine
 10
452.8029443301502
 20
126.5311886086523
 30
0.0
 11
454.2524340729333
 21
126.5311886086523
 31
0.0
  0
LINE
  5
2E63
330
1F
100
AcDbEntity
  8
太線
100
AcDbLine
 10
454.2524340729333
 20
125.5311886086523
 30
0.0
 11
452.8029443301502
 21
125.5311886086522
 31
0.0
  0
LINE
  5
2E64
330
1F
100
AcDbEntity
  8
細線
 62
     0
100
AcDbLine
 10
449.3029443301502
 20
134.8395238230791
 30
0.0
 11
454.3029443301502
 21
134.8395238230791
 31
0.0
  0
ARC
  5
2E65
330
1F
100
AcDbEntity
  8
細線
 62
     0
100
AcDbCircle
 10
451.8029443301502
 20
140.339523823079
 30
0.0
 40
8.49999999999995
100
AcDbArc
 50
241.9275130641455
 51
298.0724869358544
  0
LINE
  5
2E66
330
1F
100
AcDbEntity
  8
細線
 62
     0
100
AcDbLine
 10
447.8029443301502
 20
134.8395238230791
 30
0.0
 11
447.8029443301502
 21
132.8395238230791
 31
0.0
  0
LINE
  5
2E67
330
1F
100
AcDbEntity
  8
細線
 62
     0
100
AcDbLine
 10
449.3029443301502
 20
134.8395238230791
 30
0.0
 11
447.8029443301502
 21
134.8395238230791
 31
0.0
  0
LINE
  5
2E68
330
1F
100
AcDbEntity
  8
細線
 62
     0
100
AcDbLine
 10
454.3029443301502
 20
134.8395238230791
 30
0.0
 11
455.8029443301502
 21
134.8395238230791
 31
0.0
  0
LINE
  5
2E69
330
1F
100
AcDbEntity
  8
細線
 62
     0
100
AcDbLine
 10
455.8029443301502
 20
134.8395238230791
 30
0.0
 11
455.8029443301502
 21
132.8395238230791
 31
0.0
  0
LINE
  5
2E6A
330
1F
100
AcDbEntity
  8
細線
 62
     0
100
AcDbLine
 10
449.8029443301502
 20
142.8395238230791
 30
0.0
 11
453.8029443301502
 21
142.8395238230791
 31
0.0
  0
LINE
  5
2E6B
330
1F
100
AcDbEntity
  8
細線
 62
     0
100
AcDbLine
 10
449.8029443301502
 20
142.3395238230791
 30
0.0
 11
453.8029443301502
 21
142.3395238230791
 31
0.0
  0
LINE
  5
2E6C
330
1F
100
AcDbEntity
  8
細線
 62
     0
100
AcDbLine
 10
449.8029443301502
 20
142.8395238230791
 30
0.0
 11
449.3029443301502
 21
142.3395238230791
 31
0.0
  0
LINE
  5
2E6D
330
1F
100
AcDbEntity
  8
細線
 62
     0
100
AcDbLine
 10
453.8029443301502
 20
142.8395238230791
 30
0.0
 11
454.3029443301502
 21
142.3395238230791
 31
0.0
  0
LINE
  5
2E6E
330
1F
100
AcDbEntity
  8
細線
 62
     0
100
AcDbLine
 10
473.8029443301502
 20
162.8395238230791
 30
0.0
 11
474.3029443301502
 21
162.3395238230791
 31
0.0
  0
LINE
  5
2E6F
330
1F
100
AcDbEntity
  8
太線
100
AcDbLine
 10
411.9946091157234
 20
165.3395238230791
 30
0.0
 11
410.5451193729402
 21
165.3395238230791
 31
0.0
  0
ARC
  5
2E70
330
1F
100
AcDbEntity
  8
太線
100
AcDbCircle
 10
412.9946091157234
 20
164.8395238230791
 30
0.0
 40
2.5
100
AcDbArc
 50
78.46304096718522
 51
101.5369590328147
  0
LINE
  5
2E71
330
1F
100
AcDbEntity
  8
太線
100
AcDbLine
 10
415.4440988585066
 20
165.3395238230791
 30
0.0
 11
413.9946091157233
 21
165.3395238230791
 31
0.0
  0
ARC
  5
2E72
330
1F
100
AcDbEntity
  8
太線
100
AcDbCircle
 10
413.9946091157233
 20
165.8395238230791
 30
0.0
 40
0.5
100
AcDbArc
 50
180.0
 51
270.0
  0
LINE
  5
2E73
330
1F
100
AcDbEntity
  8
太線
100
AcDbLine
 10
413.4946091157233
 20
165.8395238230791
 30
0.0
 11
413.4946091157233
 21
167.2890135658622
 31
0.0
  0
LINE
  5
2E74
330
1F
100
AcDbEntity
  8
太線
100
AcDbLine
 10
412.4946091157234
 20
167.2890135658622
 30
0.0
 11
412.4946091157234
 21
165.8395238230791
 31
0.0
  0
ARC
  5
2E75
330
1F
100
AcDbEntity
  8
太線
100
AcDbCircle
 10
411.9946091157234
 20
165.8395238230791
 30
0.0
 40
0.5
100
AcDbArc
 50
270.0
 51
0.0
  0
LINE
  5
2E76
330
1F
100
AcDbEntity
  8
細線
 62
     0
100
AcDbLine
 10
429.3029443301502
 20
167.3395238230791
 30
0.0
 11
421.8029443301502
 21
167.3395238230791
 31
0.0
  0
LINE
  5
2E77
330
1F
100
AcDbEntity
  8
細線
 62
     0
100
AcDbLine
 10
421.8029443301502
 20
166.8395238230791
 30
0.0
 11
429.3029443301502
 21
166.8395238230791
 31
0.0
  0
LINE
  5
2E78
330
1F
100
AcDbEntity
  8
細線
 62
     0
100
AcDbLine
 10
421.8029443301502
 20
168.8395238230791
 30
0.0
 11
419.8029443301502
 21
168.8395238230791
 31
0.0
  0
LINE
  5
2E79
330
1F
100
AcDbEntity
  8
細線
 62
     0
100
AcDbLine
 10
421.8029443301502
 20
167.3395238230791
 30
0.0
 11
421.8029443301502
 21
168.8395238230791
 31
0.0
  0
LINE
  5
2E7A
330
1F
100
AcDbEntity
  8
細線
 62
     0
100
AcDbLine
 10
429.8029443301502
 20
166.8395238230791
 30
0.0
 11
429.3029443301502
 21
167.3395238230791
 31
0.0
  0
LINE
  5
2E7B
330
1F
100
AcDbEntity
  8
細線
 62
     0
100
AcDbLine
 10
449.8029443301502
 20
194.8395238230791
 30
0.0
 11
449.8029443301502
 21
187.3395238230791
 31
0.0
  0
LINE
  5
2E7C
330
1F
100
AcDbEntity
  8
細線
 62
     0
100
AcDbLine
 10
453.8029443301502
 20
194.8395238230791
 30
0.0
 11
453.8029443301502
 21
187.3395238230791
 31
0.0
  0
LINE
  5
2E7D
330
1F
100
AcDbEntity
  8
細線
 62
     0
100
AcDbLine
 10
449.3029443301502
 20
187.3395238230791
 30
0.0
 11
449.3029443301502
 21
194.8395238230791
 31
0.0
  0
LINE
  5
2E7E
330
1F
100
AcDbEntity
  8
細線
 62
     0
100
AcDbLine
 10
454.3029443301502
 20
187.3395238230791
 30
0.0
 11
454.3029443301502
 21
194.8395238230791
 31
0.0
  0
LINE
  5
2E7F
330
1F
100
AcDbEntity
  8
細線
 62
     0
100
AcDbLine
 10
449.8029443301502
 20
187.3395238230791
 30
0.0
 11
453.8029443301502
 21
187.3395238230791
 31
0.0
  0
LINE
  5
2E80
330
1F
100
AcDbEntity
  8
細線
 62
     0
100
AcDbLine
 10
449.8029443301502
 20
186.8395238230791
 30
0.0
 11
453.8029443301502
 21
186.8395238230791
 31
0.0
  0
LINE
  5
2E81
330
1F
100
AcDbEntity
  8
細線
 62
     0
100
AcDbLine
 10
449.8029443301502
 20
186.8395238230791
 30
0.0
 11
449.3029443301502
 21
187.3395238230791
 31
0.0
  0
LINE
  5
2E82
330
1F
100
AcDbEntity
  8
細線
 62
     0
100
AcDbLine
 10
453.8029443301502
 20
186.8395238230791
 30
0.0
 11
454.3029443301502
 21
187.3395238230791
 31
0.0
  0
LINE
  5
2E83
330
1F
100
AcDbEntity
  8
細線
 62
     0
100
AcDbLine
 10
473.8029443301502
 20
166.8395238230791
 30
0.0
 11
474.3029443301502
 21
167.3395238230791
 31
0.0
  0
ARC
  5
2E84
330
1F
100
AcDbEntity
  8
太線
100
AcDbCircle
 10
452.8029443301502
 20
204.6478590375059
 30
0.0
 40
0.5
100
AcDbArc
 50
180.0
 51
270.0
  0
ARC
  5
2E85
330
1F
100
AcDbEntity
  8
太線
100
AcDbCircle
 10
450.8029443301502
 20
204.6478590375059
 30
0.0
 40
0.5
100
AcDbArc
 50
270.0
 51
0.0
  0
CIRCLE
  5
2E86
330
1F
100
AcDbEntity
  8
太線
100
AcDbCircle
 10
451.8029443301502
 20
203.6478590375058
 30
0.0
 40
4.0
  0
LINE
  5
2E87
330
1F
100
AcDbEntity
  8
細線
 62
     0
100
AcDbLine
 10
449.3029443301502
 20
194.8395238230791
 30
0.0
 11
454.3029443301502
 21
194.8395238230791
 31
0.0
  0
ARC
  5
2E88
330
1F
100
AcDbEntity
  8
細線
 62
     0
100
AcDbCircle
 10
451.8029443301502
 20
189.3395238230791
 30
0.0
 40
8.49999999999995
100
AcDbArc
 50
61.9275130641455
 51
118.0724869358545
  0
LINE
  5
2E89
330
1F
100
AcDbEntity
  8
細線
 62
     0
100
AcDbLine
 10
447.8029443301502
 20
194.8395238230791
 30
0.0
 11
447.8029443301502
 21
196.839523823079
 31
0.0
  0
LINE
  5
2E8A
330
1F
100
AcDbEntity
  8
細線
 62
     0
100
AcDbLine
 10
449.3029443301502
 20
194.8395238230791
 30
0.0
 11
447.8029443301502
 21
194.8395238230791
 31
0.0
  0
LINE
  5
2E8B
330
1F
100
AcDbEntity
  8
細線
 62
     0
100
AcDbLine
 10
455.8029443301502
 20
194.8395238230791
 30
0.0
 11
455.8029443301502
 21
196.839523823079
 31
0.0
  0
LINE
  5
2E8C
330
1F
100
AcDbEntity
  8
細線
 62
     0
100
AcDbLine
 10
454.3029443301502
 20
194.8395238230791
 30
0.0
 11
455.8029443301502
 21
194.8395238230791
 31
0.0
  0
ARC
  5
2E8D
330
1F
100
AcDbEntity
  8
太線
100
AcDbCircle
 10
452.8029443301502
 20
202.6478590375059
 30
0.0
 40
0.5
100
AcDbArc
 50
90.0
 51
180.0
  0
LINE
  5
2E8E
330
1F
100
AcDbEntity
  8
太線
100
AcDbLine
 10
452.3029443301502
 20
201.1983692947227
 30
0.0
 11
452.3029443301502
 21
202.6478590375059
 31
0.0
  0
LINE
  5
2E8F
330
1F
100
AcDbEntity
  8
太線
100
AcDbLine
 10
449.3534545873671
 20
203.1478590375058
 30
0.0
 11
450.8029443301502
 21
203.1478590375058
 31
0.0
  0
LINE
  5
2E90
330
1F
100
AcDbEntity
  8
太線
100
AcDbLine
 10
450.8029443301502
 20
204.1478590375059
 30
0.0
 11
449.3534545873671
 21
204.1478590375059
 31
0.0
  0
ARC
  5
2E91
330
1F
100
AcDbEntity
  8
太線
100
AcDbCircle
 10
451.8029443301502
 20
203.6478590375058
 30
0.0
 40
2.5
100
AcDbArc
 50
168.4630409671834
 51
191.5369590328149
  0
LINE
  5
2E92
330
1F
100
AcDbEntity
  8
太線
100
AcDbLine
 10
451.3029443301502
 20
202.6478590375059
 30
0.0
 11
451.3029443301502
 21
201.1983692947227
 31
0.0
  0
ARC
  5
2E93
330
1F
100
AcDbEntity
  8
太線
100
AcDbCircle
 10
450.8029443301502
 20
202.6478590375059
 30
0.0
 40
0.5
100
AcDbArc
 50
0.0
 51
90.0
  0
ARC
  5
2E94
330
1F
100
AcDbEntity
  8
太線
100
AcDbCircle
 10
451.8029443301502
 20
203.6478590375058
 30
0.0
 40
2.5
100
AcDbArc
 50
258.4630409671852
 51
281.5369590328181
  0
ARC
  5
2E95
330
1F
100
AcDbEntity
  8
太線
100
AcDbCircle
 10
451.8029443301502
 20
203.6478590375058
 30
0.0
 40
2.5
100
AcDbArc
 50
348.463040967185
 51
11.53695903281494
  0
LINE
  5
2E96
330
1F
100
AcDbEntity
  8
太線
100
AcDbLine
 10
454.2524340729333
 20
204.1478590375059
 30
0.0
 11
452.8029443301502
 21
204.1478590375059
 31
0.0
  0
LINE
  5
2E97
330
1F
100
AcDbEntity
  8
太線
100
AcDbLine
 10
452.8029443301502
 20
203.1478590375058
 30
0.0
 11
454.2524340729333
 21
203.1478590375058
 31
0.0
  0
LINE
  5
2E98
330
1F
100
AcDbEntity
  8
太線
100
AcDbLine
 10
452.3029443301502
 20
204.6478590375059
 30
0.0
 11
452.3029443301502
 21
206.097348780289
 31
0.0
  0
LINE
  5
2E99
330
1F
100
AcDbEntity
  8
太線
100
AcDbLine
 10
451.3029443301502
 20
206.097348780289
 30
0.0
 11
451.3029443301502
 21
204.6478590375059
 31
0.0
  0
ARC
  5
2E9A
330
1F
100
AcDbEntity
  8
太線
100
AcDbCircle
 10
451.8029443301502
 20
203.6478590375058
 30
0.0
 40
2.5
100
AcDbArc
 50
78.46304096718187
 51
101.5369590328147
  0
ARC
  5
2E9B
330
1F
100
AcDbEntity
  8
太線
100
AcDbCircle
 10
490.611279544577
 20
164.8395238230791
 30
0.0
 40
2.5
100
AcDbArc
 50
348.463040967185
 51
11.53695903281653
  0
ARC
  5
2E9C
330
1F
100
AcDbEntity
  8
太線
100
AcDbCircle
 10
490.611279544577
 20
164.8395238230791
 30
0.0
 40
2.5
100
AcDbArc
 50
168.4630409671834
 51
191.5369590328149
  0
LINE
  5
2E9D
330
1F
100
AcDbEntity
  8
細線
 62
     0
100
AcDbLine
 10
481.8029443301502
 20
162.3395238230791
 30
0.0
 11
481.8029443301502
 21
167.3395238230791
 31
0.0
  0
CIRCLE
  5
2E9E
330
1F
100
AcDbEntity
  8
太線
100
AcDbCircle
 10
490.611279544577
 20
164.8395238230791
 30
0.0
 40
4.0
  0
ARC
  5
2E9F
330
1F
100
AcDbEntity
  8
細線
 62
     0
100
AcDbCircle
 10
476.3029443301503
 20
164.8395238230791
 30
0.0
 40
8.49999999999995
100
AcDbArc
 50
331.9275130641469
 51
28.07248693585305
  0
LINE
  5
2EA0
330
1F
100
AcDbEntity
  8
太線
100
AcDbLine
 10
489.6112795445771
 20
164.339523823079
 30
0.0
 11
488.1617898017939
 21
164.3395238230791
 31
0.0
  0
LINE
  5
2EA1
330
1F
100
AcDbEntity
  8
細線
 62
     0
100
AcDbLine
 10
481.8029443301502
 20
160.8395238230791
 30
0.0
 11
483.8029443301502
 21
160.8395238230791
 31
0.0
  0
LINE
  5
2EA2
330
1F
100
AcDbEntity
  8
細線
 62
     0
100
AcDbLine
 10
481.8029443301502
 20
162.3395238230791
 30
0.0
 11
481.8029443301502
 21
160.8395238230791
 31
0.0
  0
LINE
  5
2EA3
330
1F
100
AcDbEntity
  8
太線
100
AcDbLine
 10
491.111279544577
 20
163.839523823079
 30
0.0
 11
491.111279544577
 21
162.3900340802959
 31
0.0
  0
LINE
  5
2EA4
330
1F
100
AcDbEntity
  8
太線
100
AcDbLine
 10
493.0607692873602
 20
164.3395238230791
 30
0.0
 11
491.611279544577
 21
164.339523823079
 31
0.0
  0
ARC
  5
2EA5
330
1F
100
AcDbEntity
  8
太線
100
AcDbCircle
 10
491.611279544577
 20
163.839523823079
 30
0.0
 40
0.5
100
AcDbArc
 50
90.0
 51
180.0
  0
LINE
  5
2EA6
330
1F
100
AcDbEntity
  8
太線
100
AcDbLine
 10
490.111279544577
 20
162.3900340802959
 30
0.0
 11
490.111279544577
 21
163.839523823079
 31
0.0
  0
ARC
  5
2EA7
330
1F
100
AcDbEntity
  8
太線
100
AcDbCircle
 10
489.6112795445771
 20
163.839523823079
 30
0.0
 40
0.5
100
AcDbArc
 50
0.0
 51
90.0
  0
ARC
  5
2EA8
330
1F
100
AcDbEntity
  8
太線
100
AcDbCircle
 10
490.611279544577
 20
164.8395238230791
 30
0.0
 40
2.5
100
AcDbArc
 50
258.4630409671852
 51
281.5369590328181
  0
LINE
  5
2EA9
330
1F
100
AcDbEntity
  8
太線
100
AcDbLine
 10
488.1617898017939
 20
165.3395238230791
 30
0.0
 11
489.6112795445771
 21
165.3395238230791
 31
0.0
  0
LINE
  5
2EAA
330
1F
100
AcDbEntity
  8
細線
 62
     0
100
AcDbLine
 10
481.8029443301502
 20
168.8395238230791
 30
0.0
 11
483.8029443301502
 21
168.8395238230791
 31
0.0
  0
LINE
  5
2EAB
330
1F
100
AcDbEntity
  8
細線
 62
     0
100
AcDbLine
 10
481.8029443301502
 20
167.3395238230791
 30
0.0
 11
481.8029443301502
 21
168.8395238230791
 31
0.0
  0
LINE
  5
2EAC
330
1F
100
AcDbEntity
  8
太線
100
AcDbLine
 10
491.111279544577
 20
167.2890135658622
 30
0.0
 11
491.111279544577
 21
165.8395238230791
 31
0.0
  0
LINE
  5
2EAD
330
1F
100
AcDbEntity
  8
太線
100
AcDbLine
 10
491.611279544577
 20
165.3395238230791
 30
0.0
 11
493.0607692873602
 21
165.3395238230791
 31
0.0
  0
ARC
  5
2EAE
330
1F
100
AcDbEntity
  8
太線
100
AcDbCircle
 10
491.611279544577
 20
165.8395238230791
 30
0.0
 40
0.5
100
AcDbArc
 50
180.0
 51
270.0
  0
LINE
  5
2EAF
330
1F
100
AcDbEntity
  8
太線
100
AcDbLine
 10
490.111279544577
 20
165.8395238230791
 30
0.0
 11
490.111279544577
 21
167.2890135658622
 31
0.0
  0
ARC
  5
2EB0
330
1F
100
AcDbEntity
  8
太線
100
AcDbCircle
 10
489.6112795445771
 20
165.8395238230791
 30
0.0
 40
0.5
100
AcDbArc
 50
270.0
 51
0.0
  0
ARC
  5
2EB1
330
1F
100
AcDbEntity
  8
太線
100
AcDbCircle
 10
490.611279544577
 20
164.8395238230791
 30
0.0
 40
2.5
100
AcDbArc
 50
78.46304096718522
 51
101.5369590328147
  0
LINE
  5
2EB2
330
1F
100
AcDbEntity
  8
細線
 62
     0
100
AcDbLine
 10
250.1298109206136
 20
203.9357272947589
 30
0.0
 11
250.1298109206136
 21
211.4357272947589
 31
0.0
  0
LINE
  5
2EB3
330
1F
100
AcDbEntity
  8
細線
 62
     0
100
AcDbLine
 10
245.1298109206136
 20
203.9357272947589
 30
0.0
 11
245.1298109206136
 21
211.4357272947589
 31
0.0
  0
LINE
  5
2EB4
330
1F
100
AcDbEntity
  8
細線
 62
     0
100
AcDbLine
 10
249.6298109206136
 20
211.4357272947589
 30
0.0
 11
249.6298109206136
 21
203.9357272947589
 31
0.0
  0
LINE
  5
2EB5
330
1F
100
AcDbEntity
  8
細線
 62
     0
100
AcDbLine
 10
245.6298109206136
 20
211.4357272947589
 30
0.0
 11
245.6298109206136
 21
203.9357272947589
 31
0.0
  0
LINE
  5
2EB6
330
1F
100
AcDbEntity
  8
細線
 62
     0
100
AcDbLine
 10
245.6298109206136
 20
203.4357272947589
 30
0.0
 11
249.6298109206136
 21
203.4357272947589
 31
0.0
  0
LINE
  5
2EB7
330
1F
100
AcDbEntity
  8
細線
 62
     0
100
AcDbLine
 10
245.6298109206136
 20
203.9357272947589
 30
0.0
 11
249.6298109206136
 21
203.9357272947589
 31
0.0
  0
LINE
  5
2EB8
330
1F
100
AcDbEntity
  8
細線
 62
     0
100
AcDbLine
 10
245.6298109206136
 20
203.4357272947589
 30
0.0
 11
245.1298109206136
 21
203.9357272947589
 31
0.0
  0
LINE
  5
2EB9
330
1F
100
AcDbEntity
  8
細線
 62
     0
100
AcDbLine
 10
249.6298109206136
 20
203.4357272947589
 30
0.0
 11
250.1298109206136
 21
203.9357272947589
 31
0.0
  0
ARC
  5
2EBA
330
1F
100
AcDbEntity
  8
太線
100
AcDbCircle
 10
247.6298109206136
 20
220.2440625091857
 30
0.0
 40
2.5
100
AcDbArc
 50
348.463040967185
 51
11.53695903281494
  0
ARC
  5
2EBB
330
1F
100
AcDbEntity
  8
太線
100
AcDbCircle
 10
247.6298109206136
 20
220.2440625091857
 30
0.0
 40
2.5
100
AcDbArc
 50
168.4630409671834
 51
191.5369590328149
  0
CIRCLE
  5
2EBC
330
1F
100
AcDbEntity
  8
太線
100
AcDbCircle
 10
247.6298109206136
 20
220.2440625091857
 30
0.0
 40
4.0
  0
LINE
  5
2EBD
330
1F
100
AcDbEntity
  8
細線
 62
     0
100
AcDbLine
 10
245.1298109206136
 20
211.4357272947589
 30
0.0
 11
243.6298109206136
 21
211.4357272947589
 31
0.0
  0
ARC
  5
2EBE
330
1F
100
AcDbEntity
  8
細線
 62
     0
100
AcDbCircle
 10
247.6298109206136
 20
205.9357272947589
 30
0.0
 40
8.49999999999995
100
AcDbArc
 50
61.9275130641455
 51
118.0724869358545
  0
LINE
  5
2EBF
330
1F
100
AcDbEntity
  8
細線
 62
     0
100
AcDbLine
 10
243.6298109206136
 20
211.4357272947589
 30
0.0
 11
243.6298109206136
 21
213.4357272947589
 31
0.0
  0
LINE
  5
2EC0
330
1F
100
AcDbEntity
  8
細線
 62
     0
100
AcDbLine
 10
245.1298109206136
 20
211.4357272947589
 30
0.0
 11
250.1298109206136
 21
211.4357272947589
 31
0.0
  0
LINE
  5
2EC1
330
1F
100
AcDbEntity
  8
細線
 62
     0
100
AcDbLine
 10
250.1298109206136
 20
211.4357272947589
 30
0.0
 11
251.6298109206136
 21
211.4357272947589
 31
0.0
  0
LINE
  5
2EC2
330
1F
100
AcDbEntity
  8
細線
 62
     0
100
AcDbLine
 10
251.6298109206136
 20
211.4357272947589
 30
0.0
 11
251.6298109206136
 21
213.4357272947589
 31
0.0
  0
ARC
  5
2EC3
330
1F
100
AcDbEntity
  8
太線
100
AcDbCircle
 10
247.6298109206136
 20
220.2440625091857
 30
0.0
 40
2.5
100
AcDbArc
 50
258.4630409671852
 51
281.5369590328181
  0
ARC
  5
2EC4
330
1F
100
AcDbEntity
  8
太線
100
AcDbCircle
 10
246.6298109206136
 20
219.2440625091857
 30
0.0
 40
0.5
100
AcDbArc
 50
0.0
 51
90.0
  0
LINE
  5
2EC5
330
1F
100
AcDbEntity
  8
太線
100
AcDbLine
 10
247.1298109206136
 20
219.2440625091857
 30
0.0
 11
247.1298109206136
 21
217.7945727664025
 31
0.0
  0
LINE
  5
2EC6
330
1F
100
AcDbEntity
  8
太線
100
AcDbLine
 10
245.1803211778304
 20
219.7440625091857
 30
0.0
 11
246.6298109206136
 21
219.7440625091857
 31
0.0
  0
LINE
  5
2EC7
330
1F
100
AcDbEntity
  8
太線
100
AcDbLine
 10
248.6298109206136
 20
219.7440625091857
 30
0.0
 11
250.0793006633967
 21
219.7440625091857
 31
0.0
  0
LINE
  5
2EC8
330
1F
100
AcDbEntity
  8
太線
100
AcDbLine
 10
248.1298109206136
 20
217.7945727664025
 30
0.0
 11
248.1298109206136
 21
219.2440625091857
 31
0.0
  0
ARC
  5
2EC9
330
1F
100
AcDbEntity
  8
太線
100
AcDbCircle
 10
248.6298109206136
 20
219.2440625091857
 30
0.0
 40
0.5
100
AcDbArc
 50
90.0
 51
180.0
  0
ARC
  5
2ECA
330
1F
100
AcDbEntity
  8
太線
100
AcDbCircle
 10
247.6298109206136
 20
220.2440625091857
 30
0.0
 40
2.5
100
AcDbArc
 50
78.46304096718187
 51
101.5369590328147
  0
LINE
  5
2ECB
330
1F
100
AcDbEntity
  8
太線
100
AcDbLine
 10
247.1298109206136
 20
222.6935522519688
 30
0.0
 11
247.1298109206136
 21
221.2440625091857
 31
0.0
  0
LINE
  5
2ECC
330
1F
100
AcDbEntity
  8
太線
100
AcDbLine
 10
246.6298109206136
 20
220.7440625091857
 30
0.0
 11
245.1803211778304
 21
220.7440625091857
 31
0.0
  0
ARC
  5
2ECD
330
1F
100
AcDbEntity
  8
太線
100
AcDbCircle
 10
246.6298109206136
 20
221.2440625091857
 30
0.0
 40
0.5
100
AcDbArc
 50
270.0
 51
0.0
  0
LINE
  5
2ECE
330
1F
100
AcDbEntity
  8
太線
100
AcDbLine
 10
248.1298109206136
 20
221.2440625091857
 30
0.0
 11
248.1298109206136
 21
222.6935522519688
 31
0.0
  0
LINE
  5
2ECF
330
1F
100
AcDbEntity
  8
太線
100
AcDbLine
 10
250.0793006633967
 20
220.7440625091857
 30
0.0
 11
248.6298109206136
 21
220.7440625091857
 31
0.0
  0
ARC
  5
2ED0
330
1F
100
AcDbEntity
  8
太線
100
AcDbCircle
 10
248.6298109206136
 20
221.2440625091857
 30
0.0
 40
0.5
100
AcDbArc
 50
180.0
 51
270.0
  0
LINE
  5
2EDA
330
1F
100
AcDbEntity
  8
細線
 62
     0
100
AcDbLine
 10
74.16878741043729
 20
211.4357272947589
 30
0.0
 11
75.66878741043729
 21
211.4357272947589
 31
0.0
  0
ARC
  5
2EDB
330
1F
100
AcDbEntity
  8
細線
 62
     0
100
AcDbCircle
 10
71.66878741043729
 20
205.9357272947589
 30
0.0
 40
8.49999999999995
100
AcDbArc
 50
61.9275130641455
 51
118.0724869358545
  0
LINE
  5
2EDC
330
1F
100
AcDbEntity
  8
細線
 62
     0
100
AcDbLine
 10
69.66878741043728
 20
211.4357272947589
 30
0.0
 11
69.66878741043728
 21
203.9357272947589
 31
0.0
  0
LINE
  5
2EDD
330
1F
100
AcDbEntity
  8
細線
 62
     0
100
AcDbLine
 10
73.66878741043729
 20
211.4357272947589
 30
0.0
 11
73.66878741043729
 21
203.9357272947589
 31
0.0
  0
LINE
  5
2EDE
330
1F
100
AcDbEntity
  8
細線
 62
     0
100
AcDbLine
 10
69.16878741043729
 20
203.9357272947589
 30
0.0
 11
69.16878741043729
 21
211.4357272947589
 31
0.0
  0
LINE
  5
2EDF
330
1F
100
AcDbEntity
  8
細線
 62
     0
100
AcDbLine
 10
74.16878741043729
 20
203.9357272947589
 30
0.0
 11
74.16878741043729
 21
211.4357272947589
 31
0.0
  0
LINE
  5
2EE0
330
1F
100
AcDbEntity
  8
細線
 62
     0
100
AcDbLine
 10
69.66878741043728
 20
203.9357272947589
 30
0.0
 11
73.66878741043729
 21
203.9357272947589
 31
0.0
  0
LINE
  5
2EE1
330
1F
100
AcDbEntity
  8
細線
 62
     0
100
AcDbLine
 10
69.66878741043728
 20
203.4357272947589
 30
0.0
 11
73.66878741043729
 21
203.4357272947589
 31
0.0
  0
LINE
  5
2EE2
330
1F
100
AcDbEntity
  8
細線
 62
     0
100
AcDbLine
 10
69.66878741043728
 20
203.4357272947589
 30
0.0
 11
69.16878741043729
 21
203.9357272947589
 31
0.0
  0
LINE
  5
2EE3
330
1F
100
AcDbEntity
  8
細線
 62
     0
100
AcDbLine
 10
73.66878741043729
 20
203.4357272947589
 30
0.0
 11
74.16878741043729
 21
203.9357272947589
 31
0.0
  0
LINE
  5
2EE4
330
1F
100
AcDbEntity
  8
細線
 62
     0
100
AcDbLine
 10
69.16878741043729
 20
211.4357272947589
 30
0.0
 11
74.16878741043729
 21
211.4357272947589
 31
0.0
  0
LINE
  5
2EE5
330
1F
100
AcDbEntity
  8
細線
 62
     0
100
AcDbLine
 10
67.66878741043729
 20
211.4357272947589
 30
0.0
 11
67.66878741043729
 21
213.4357272947589
 31
0.0
  0
LINE
  5
2EE6
330
1F
100
AcDbEntity
  8
細線
 62
     0
100
AcDbLine
 10
69.16878741043729
 20
211.4357272947589
 30
0.0
 11
67.66878741043729
 21
211.4357272947589
 31
0.0
  0
LINE
  5
2EE7
330
1F
100
AcDbEntity
  8
細線
 62
     0
100
AcDbLine
 10
75.66878741043729
 20
211.4357272947589
 30
0.0
 11
75.66878741043729
 21
213.4357272947589
 31
0.0
  0
CIRCLE
  5
2EE8
330
1F
100
AcDbEntity
  8
太線
100
AcDbCircle
 10
71.66878741043729
 20
220.2440625091857
 30
0.0
 40
4.0
  0
LINE
  5
2EE9
330
1F
100
AcDbEntity
  8
太線
100
AcDbLine
 10
72.16878741043728
 20
221.2440625091857
 30
0.0
 11
72.16878741043728
 21
222.6935522519688
 31
0.0
  0
LINE
  5
2EEA
330
1F
100
AcDbEntity
  8
太線
100
AcDbLine
 10
71.16878741043729
 20
222.6935522519688
 30
0.0
 11
71.16878741043729
 21
221.2440625091857
 31
0.0
  0
ARC
  5
2EEB
330
1F
100
AcDbEntity
  8
太線
100
AcDbCircle
 10
70.66878741043729
 20
221.2440625091857
 30
0.0
 40
0.5
100
AcDbArc
 50
270.0
 51
0.0
  0
ARC
  5
2EEC
330
1F
100
AcDbEntity
  8
太線
100
AcDbCircle
 10
70.66878741043729
 20
219.2440625091857
 30
0.0
 40
0.5
100
AcDbArc
 50
0.0
 51
90.0
  0
LINE
  5
2EED
330
1F
100
AcDbEntity
  8
太線
100
AcDbLine
 10
70.66878741043729
 20
220.7440625091857
 30
0.0
 11
69.21929766765413
 21
220.7440625091857
 31
0.0
  0
LINE
  5
2EEE
330
1F
100
AcDbEntity
  8
太線
100
AcDbLine
 10
69.21929766765413
 20
219.7440625091857
 30
0.0
 11
70.66878741043729
 21
219.7440625091857
 31
0.0
  0
ARC
  5
2EEF
330
1F
100
AcDbEntity
  8
太線
100
AcDbCircle
 10
71.66878741043729
 20
220.2440625091857
 30
0.0
 40
2.5
100
AcDbArc
 50
168.4630409671834
 51
191.5369590328149
  0
ARC
  5
2EF0
330
1F
100
AcDbEntity
  8
太線
100
AcDbCircle
 10
72.66878741043729
 20
221.2440625091857
 30
0.0
 40
0.5
100
AcDbArc
 50
180.0
 51
270.0
  0
LINE
  5
2EF1
330
1F
100
AcDbEntity
  8
太線
100
AcDbLine
 10
74.11827715322044
 20
220.7440625091857
 30
0.0
 11
72.66878741043729
 21
220.7440625091857
 31
0.0
  0
ARC
  5
2EF2
330
1F
100
AcDbEntity
  8
太線
100
AcDbCircle
 10
72.66878741043729
 20
219.2440625091857
 30
0.0
 40
0.5
100
AcDbArc
 50
90.0
 51
180.0
  0
LINE
  5
2EF3
330
1F
100
AcDbEntity
  8
太線
100
AcDbLine
 10
72.16878741043728
 20
217.7945727664025
 30
0.0
 11
72.16878741043728
 21
219.2440625091857
 31
0.0
  0
LINE
  5
2EF4
330
1F
100
AcDbEntity
  8
太線
100
AcDbLine
 10
72.66878741043729
 20
219.7440625091857
 30
0.0
 11
74.11827715322044
 21
219.7440625091857
 31
0.0
  0
LINE
  5
2EF5
330
1F
100
AcDbEntity
  8
太線
100
AcDbLine
 10
71.16878741043729
 20
219.2440625091857
 30
0.0
 11
71.16878741043729
 21
217.7945727664025
 31
0.0
  0
ARC
  5
2EF6
330
1F
100
AcDbEntity
  8
太線
100
AcDbCircle
 10
71.66878741043729
 20
220.2440625091857
 30
0.0
 40
2.5
100
AcDbArc
 50
258.4630409671852
 51
281.5369590328181
  0
ARC
  5
2EF7
330
1F
100
AcDbEntity
  8
太線
100
AcDbCircle
 10
71.66878741043729
 20
220.2440625091857
 30
0.0
 40
2.5
100
AcDbArc
 50
348.463040967185
 51
11.53695903281494
  0
ARC
  5
2EF8
330
1F
100
AcDbEntity
  8
太線
100
AcDbCircle
 10
71.66878741043729
 20
220.2440625091857
 30
0.0
 40
2.5
100
AcDbArc
 50
78.46304096718187
 51
101.5369590328147
  0
XLINE
  5
2EF9
330
1F
100
AcDbEntity
  8
構築線
 62
     3
370
     5
100
AcDbXline
 10
40.70151402540432
 20
127.4711488256961
 30
0.0
 11
1.0
 21
0.0
 31
0.0
  0
LINE
  5
2EFA
330
1F
100
AcDbEntity
  8
細線
 62
     0
100
AcDbLine
 10
50.13476676682444
 20
130.0416380069236
 30
0.0
 11
49.63476676682444
 21
130.5416380069236
 31
0.0
  0
LINE
  5
2EFB
330
1F
100
AcDbEntity
  8
太線
100
AcDbLine
 10
32.82643155239759
 20
130.4911277497067
 30
0.0
 11
32.82643155239759
 21
129.0416380069236
 31
0.0
  0
LINE
  5
2EFC
330
1F
100
AcDbEntity
  8
太線
100
AcDbLine
 10
33.82643155239759
 20
129.0416380069236
 30
0.0
 11
33.82643155239759
 21
130.4911277497067
 31
0.0
  0
CIRCLE
  5
2EFD
330
1F
100
AcDbEntity
  8
太線
100
AcDbCircle
 10
33.32643155239759
 20
128.0416380069236
 30
0.0
 40
4.0
  0
ARC
  5
2EFE
330
1F
100
AcDbEntity
  8
細線
 62
     0
100
AcDbCircle
 10
47.63476676682432
 20
128.0416380069236
 30
0.0
 40
8.49999999999995
100
AcDbArc
 50
151.9275130641469
 51
208.072486935853
  0
LINE
  5
2EFF
330
1F
100
AcDbEntity
  8
細線
 62
     0
100
AcDbLine
 10
42.13476676682444
 20
125.5416380069236
 30
0.0
 11
42.13476676682444
 21
130.5416380069236
 31
0.0
  0
LINE
  5
2F00
330
1F
100
AcDbEntity
  8
細線
 62
     0
100
AcDbLine
 10
42.13476676682444
 20
130.0416380069236
 30
0.0
 11
49.63476676682444
 21
130.0416380069236
 31
0.0
  0
LINE
  5
2F01
330
1F
100
AcDbEntity
  8
細線
 62
     0
100
AcDbLine
 10
42.13476676682444
 20
126.0416380069236
 30
0.0
 11
49.63476676682444
 21
126.0416380069236
 31
0.0
  0
LINE
  5
2F02
330
1F
100
AcDbEntity
  8
細線
 62
     0
100
AcDbLine
 10
49.63476676682444
 20
125.5416380069236
 30
0.0
 11
42.13476676682444
 21
125.5416380069236
 31
0.0
  0
LINE
  5
2F03
330
1F
100
AcDbEntity
  8
太線
100
AcDbLine
 10
35.7759212951808
 20
128.5416380069236
 30
0.0
 11
34.32643155239759
 21
128.5416380069236
 31
0.0
  0
LINE
  5
2F04
330
1F
100
AcDbEntity
  8
太線
100
AcDbLine
 10
34.32643155239759
 20
127.5416380069235
 30
0.0
 11
35.7759212951808
 21
127.5416380069236
 31
0.0
  0
LINE
  5
2F05
330
1F
100
AcDbEntity
  8
太線
100
AcDbLine
 10
32.32643155239759
 20
128.5416380069236
 30
0.0
 11
30.87694180961443
 21
128.5416380069236
 31
0.0
  0
LINE
  5
2F06
330
1F
100
AcDbEntity
  8
太線
100
AcDbLine
 10
30.87694180961443
 20
127.5416380069236
 30
0.0
 11
32.32643155239759
 21
127.5416380069235
 31
0.0
  0
ARC
  5
2F07
330
1F
100
AcDbEntity
  8
太線
100
AcDbCircle
 10
33.32643155239759
 20
128.0416380069236
 30
0.0
 40
2.5
100
AcDbArc
 50
168.4630409671834
 51
191.5369590328149
  0
ARC
  5
2F08
330
1F
100
AcDbEntity
  8
太線
100
AcDbCircle
 10
32.32643155239759
 20
129.0416380069236
 30
0.0
 40
0.5
100
AcDbArc
 50
270.0
 51
0.0
  0
ARC
  5
2F09
330
1F
100
AcDbEntity
  8
太線
100
AcDbCircle
 10
34.32643155239759
 20
129.0416380069236
 30
0.0
 40
0.5
100
AcDbArc
 50
180.0
 51
270.0
  0
ARC
  5
2F0A
330
1F
100
AcDbEntity
  8
太線
100
AcDbCircle
 10
32.32643155239759
 20
127.0416380069235
 30
0.0
 40
0.5
100
AcDbArc
 50
0.0
 51
90.0
  0
ARC
  5
2F0B
330
1F
100
AcDbEntity
  8
太線
100
AcDbCircle
 10
34.32643155239759
 20
127.0416380069235
 30
0.0
 40
0.5
100
AcDbArc
 50
90.0
 51
180.0
  0
LINE
  5
2F0C
330
1F
100
AcDbEntity
  8
太線
100
AcDbLine
 10
33.82643155239759
 20
125.5921482641404
 30
0.0
 11
33.82643155239759
 21
127.0416380069235
 31
0.0
  0
LINE
  5
2F0D
330
1F
100
AcDbEntity
  8
太線
100
AcDbLine
 10
32.82643155239759
 20
127.0416380069235
 30
0.0
 11
32.82643155239759
 21
125.5921482641404
 31
0.0
  0
ARC
  5
2F0E
330
1F
100
AcDbEntity
  8
太線
100
AcDbCircle
 10
33.32643155239759
 20
128.0416380069236
 30
0.0
 40
2.5
100
AcDbArc
 50
258.4630409671818
 51
281.5369590328147
  0
LINE
  5
2F0F
330
1F
100
AcDbEntity
  8
細線
 62
     0
100
AcDbLine
 10
42.13476676682444
 20
125.5416380069236
 30
0.0
 11
42.13476676682444
 21
124.0416380069236
 31
0.0
  0
LINE
  5
2F10
330
1F
100
AcDbEntity
  8
細線
 62
     0
100
AcDbLine
 10
42.13476676682444
 20
124.0416380069236
 30
0.0
 11
40.13476676682444
 21
124.0416380069236
 31
0.0
  0
ARC
  5
2F11
330
1F
100
AcDbEntity
  8
太線
100
AcDbCircle
 10
33.32643155239759
 20
128.0416380069236
 30
0.0
 40
2.5
100
AcDbArc
 50
348.463040967185
 51
11.53695903281653
  0
LINE
  5
2F12
330
1F
100
AcDbEntity
  8
細線
 62
     0
100
AcDbLine
 10
50.13476676682444
 20
126.0416380069236
 30
0.0
 11
49.63476676682444
 21
125.5416380069236
 31
0.0
  0
LINE
  5
2F13
330
1F
100
AcDbEntity
  8
細線
 62
     0
100
AcDbLine
 10
49.63476676682444
 20
126.0416380069236
 30
0.0
 11
49.63476676682444
 21
130.0416380069236
 31
0.0
  0
LINE
  5
2F14
330
1F
100
AcDbEntity
  8
細線
 62
     0
100
AcDbLine
 10
50.13476676682444
 20
126.0416380069236
 30
0.0
 11
50.13476676682444
 21
130.0416380069236
 31
0.0
  0
LINE
  5
2F15
330
1F
100
AcDbEntity
  8
細線
 62
     0
100
AcDbLine
 10
49.63476676682444
 20
130.5416380069236
 30
0.0
 11
42.13476676682444
 21
130.5416380069236
 31
0.0
  0
ARC
  5
2F16
330
1F
100
AcDbEntity
  8
太線
100
AcDbCircle
 10
33.32643155239759
 20
128.0416380069236
 30
0.0
 40
2.5
100
AcDbArc
 50
78.46304096718522
 51
101.5369590328147
  0
LINE
  5
2F17
330
1F
100
AcDbEntity
  8
細線
 62
     0
100
AcDbLine
 10
42.13476676682444
 20
130.5416380069236
 30
0.0
 11
42.13476676682444
 21
132.0416380069236
 31
0.0
  0
LINE
  5
2F18
330
1F
100
AcDbEntity
  8
細線
 62
     0
100
AcDbLine
 10
42.13476676682444
 20
132.0416380069236
 30
0.0
 11
40.13476676682444
 21
132.0416380069236
 31
0.0
  0
XLINE
  5
2F19
330
1F
100
AcDbEntity
  8
構築線
 62
     3
370
     5
100
AcDbXline
 10
125.2015140254043
 20
178.0193172078315
 30
0.0
 11
0.0
 21
-1.0
 31
0.0
  0
LINE
  5
2F1A
330
1F
100
AcDbEntity
  8
細線
 62
     0
100
AcDbLine
 10
127.1448262141052
 20
211.4357272947589
 30
0.0
 11
128.6448262141052
 21
211.4357272947589
 31
0.0
  0
ARC
  5
2F1B
330
1F
100
AcDbEntity
  8
細線
 62
     0
100
AcDbCircle
 10
124.6448262141052
 20
205.9357272947589
 30
0.0
 40
8.49999999999995
100
AcDbArc
 50
61.9275130641455
 51
118.0724869358545
  0
LINE
  5
2F1C
330
1F
100
AcDbEntity
  8
細線
 62
     0
100
AcDbLine
 10
122.6448262141052
 20
211.4357272947589
 30
0.0
 11
122.6448262141052
 21
203.9357272947589
 31
0.0
  0
LINE
  5
2F1D
330
1F
100
AcDbEntity
  8
細線
 62
     0
100
AcDbLine
 10
126.6448262141052
 20
211.4357272947589
 30
0.0
 11
126.6448262141052
 21
203.9357272947589
 31
0.0
  0
LINE
  5
2F1E
330
1F
100
AcDbEntity
  8
細線
 62
     0
100
AcDbLine
 10
122.1448262141052
 20
203.9357272947589
 30
0.0
 11
122.1448262141052
 21
211.4357272947589
 31
0.0
  0
LINE
  5
2F1F
330
1F
100
AcDbEntity
  8
細線
 62
     0
100
AcDbLine
 10
127.1448262141052
 20
203.9357272947589
 30
0.0
 11
127.1448262141052
 21
211.4357272947589
 31
0.0
  0
LINE
  5
2F20
330
1F
100
AcDbEntity
  8
細線
 62
     0
100
AcDbLine
 10
122.6448262141052
 20
203.9357272947589
 30
0.0
 11
126.6448262141052
 21
203.9357272947589
 31
0.0
  0
LINE
  5
2F21
330
1F
100
AcDbEntity
  8
細線
 62
     0
100
AcDbLine
 10
122.6448262141052
 20
203.4357272947589
 30
0.0
 11
126.6448262141052
 21
203.4357272947589
 31
0.0
  0
LINE
  5
2F22
330
1F
100
AcDbEntity
  8
細線
 62
     0
100
AcDbLine
 10
122.6448262141052
 20
203.4357272947589
 30
0.0
 11
122.1448262141052
 21
203.9357272947589
 31
0.0
  0
LINE
  5
2F23
330
1F
100
AcDbEntity
  8
細線
 62
     0
100
AcDbLine
 10
126.6448262141052
 20
203.4357272947589
 30
0.0
 11
127.1448262141052
 21
203.9357272947589
 31
0.0
  0
LINE
  5
2F24
330
1F
100
AcDbEntity
  8
細線
 62
     0
100
AcDbLine
 10
122.1448262141052
 20
211.4357272947589
 30
0.0
 11
127.1448262141052
 21
211.4357272947589
 31
0.0
  0
LINE
  5
2F25
330
1F
100
AcDbEntity
  8
細線
 62
     0
100
AcDbLine
 10
120.6448262141052
 20
211.4357272947589
 30
0.0
 11
120.6448262141052
 21
213.4357272947589
 31
0.0
  0
LINE
  5
2F26
330
1F
100
AcDbEntity
  8
細線
 62
     0
100
AcDbLine
 10
122.1448262141052
 20
211.4357272947589
 30
0.0
 11
120.6448262141052
 21
211.4357272947589
 31
0.0
  0
LINE
  5
2F27
330
1F
100
AcDbEntity
  8
細線
 62
     0
100
AcDbLine
 10
128.6448262141052
 20
211.4357272947589
 30
0.0
 11
128.6448262141052
 21
213.4357272947589
 31
0.0
  0
CIRCLE
  5
2F28
330
1F
100
AcDbEntity
  8
太線
100
AcDbCircle
 10
124.6448262141052
 20
220.2440625091857
 30
0.0
 40
4.0
  0
LINE
  5
2F29
330
1F
100
AcDbEntity
  8
太線
100
AcDbLine
 10
125.1448262141052
 20
221.2440625091857
 30
0.0
 11
125.1448262141052
 21
222.6935522519688
 31
0.0
  0
LINE
  5
2F2A
330
1F
100
AcDbEntity
  8
太線
100
AcDbLine
 10
124.1448262141052
 20
222.6935522519688
 30
0.0
 11
124.1448262141052
 21
221.2440625091857
 31
0.0
  0
ARC
  5
2F2B
330
1F
100
AcDbEntity
  8
太線
100
AcDbCircle
 10
123.6448262141052
 20
221.2440625091857
 30
0.0
 40
0.5
100
AcDbArc
 50
270.0
 51
0.0
  0
ARC
  5
2F2C
330
1F
100
AcDbEntity
  8
太線
100
AcDbCircle
 10
123.6448262141052
 20
219.2440625091857
 30
0.0
 40
0.5
100
AcDbArc
 50
0.0
 51
90.0
  0
LINE
  5
2F2D
330
1F
100
AcDbEntity
  8
太線
100
AcDbLine
 10
123.6448262141052
 20
220.7440625091857
 30
0.0
 11
122.1953364713221
 21
220.7440625091857
 31
0.0
  0
LINE
  5
2F2E
330
1F
100
AcDbEntity
  8
太線
100
AcDbLine
 10
122.1953364713221
 20
219.7440625091857
 30
0.0
 11
123.6448262141052
 21
219.7440625091857
 31
0.0
  0
ARC
  5
2F2F
330
1F
100
AcDbEntity
  8
太線
100
AcDbCircle
 10
124.6448262141052
 20
220.2440625091857
 30
0.0
 40
2.5
100
AcDbArc
 50
168.4630409671834
 51
191.5369590328149
  0
ARC
  5
2F30
330
1F
100
AcDbEntity
  8
太線
100
AcDbCircle
 10
125.6448262141052
 20
221.2440625091857
 30
0.0
 40
0.5
100
AcDbArc
 50
180.0
 51
270.0
  0
LINE
  5
2F31
330
1F
100
AcDbEntity
  8
太線
100
AcDbLine
 10
127.0943159568884
 20
220.7440625091857
 30
0.0
 11
125.6448262141052
 21
220.7440625091857
 31
0.0
  0
ARC
  5
2F32
330
1F
100
AcDbEntity
  8
太線
100
AcDbCircle
 10
125.6448262141052
 20
219.2440625091857
 30
0.0
 40
0.5
100
AcDbArc
 50
90.0
 51
180.0
  0
LINE
  5
2F33
330
1F
100
AcDbEntity
  8
太線
100
AcDbLine
 10
125.1448262141052
 20
217.7945727664025
 30
0.0
 11
125.1448262141052
 21
219.2440625091857
 31
0.0
  0
LINE
  5
2F34
330
1F
100
AcDbEntity
  8
太線
100
AcDbLine
 10
125.6448262141052
 20
219.7440625091857
 30
0.0
 11
127.0943159568884
 21
219.7440625091857
 31
0.0
  0
LINE
  5
2F35
330
1F
100
AcDbEntity
  8
太線
100
AcDbLine
 10
124.1448262141052
 20
219.2440625091857
 30
0.0
 11
124.1448262141052
 21
217.7945727664025
 31
0.0
  0
ARC
  5
2F36
330
1F
100
AcDbEntity
  8
太線
100
AcDbCircle
 10
124.6448262141052
 20
220.2440625091857
 30
0.0
 40
2.5
100
AcDbArc
 50
258.4630409671852
 51
281.5369590328181
  0
ARC
  5
2F37
330
1F
100
AcDbEntity
  8
太線
100
AcDbCircle
 10
124.6448262141052
 20
220.2440625091857
 30
0.0
 40
2.5
100
AcDbArc
 50
348.463040967185
 51
11.53695903281494
  0
ARC
  5
2F38
330
1F
100
AcDbEntity
  8
太線
100
AcDbCircle
 10
124.6448262141052
 20
220.2440625091857
 30
0.0
 40
2.5
100
AcDbArc
 50
78.46304096718187
 51
101.5369590328147
  0
LINE
  5
2F39
330
1F
100
AcDbEntity
  8
細線
 62
     0
100
AcDbLine
 10
49.37585850928963
 20
33.54925892645536
 30
0.0
 11
48.87585850928963
 21
34.04925892645536
 31
0.0
  0
LINE
  5
2F3A
330
1F
100
AcDbEntity
  8
太線
100
AcDbLine
 10
32.06752329486278
 20
33.99874866923852
 30
0.0
 11
32.06752329486278
 21
32.54925892645536
 31
0.0
  0
LINE
  5
2F3B
330
1F
100
AcDbEntity
  8
太線
100
AcDbLine
 10
33.06752329486278
 20
32.54925892645536
 30
0.0
 11
33.06752329486278
 21
33.99874866923852
 31
0.0
  0
CIRCLE
  5
2F3C
330
1F
100
AcDbEntity
  8
太線
100
AcDbCircle
 10
32.56752329486278
 20
31.54925892645539
 30
0.0
 40
4.0
  0
ARC
  5
2F3D
330
1F
100
AcDbEntity
  8
細線
 62
     0
100
AcDbCircle
 10
46.87585850928951
 20
31.54925892645539
 30
0.0
 40
8.49999999999995
100
AcDbArc
 50
151.9275130641469
 51
208.072486935853
  0
LINE
  5
2F3E
330
1F
100
AcDbEntity
  8
細線
 62
     0
100
AcDbLine
 10
41.37585850928963
 20
29.04925892645536
 30
0.0
 11
41.37585850928963
 21
34.04925892645536
 31
0.0
  0
LINE
  5
2F3F
330
1F
100
AcDbEntity
  8
細線
 62
     0
100
AcDbLine
 10
41.37585850928963
 20
33.54925892645536
 30
0.0
 11
48.87585850928963
 21
33.54925892645536
 31
0.0
  0
LINE
  5
2F40
330
1F
100
AcDbEntity
  8
細線
 62
     0
100
AcDbLine
 10
41.37585850928963
 20
29.54925892645536
 30
0.0
 11
48.87585850928963
 21
29.54925892645536
 31
0.0
  0
LINE
  5
2F41
330
1F
100
AcDbEntity
  8
細線
 62
     0
100
AcDbLine
 10
48.87585850928963
 20
29.04925892645536
 30
0.0
 11
41.37585850928963
 21
29.04925892645536
 31
0.0
  0
LINE
  5
2F42
330
1F
100
AcDbEntity
  8
太線
100
AcDbLine
 10
35.01701303764599
 20
32.04925892645536
 30
0.0
 11
33.56752329486278
 21
32.04925892645536
 31
0.0
  0
LINE
  5
2F43
330
1F
100
AcDbEntity
  8
太線
100
AcDbLine
 10
33.56752329486278
 20
31.0492589264553
 30
0.0
 11
35.01701303764599
 21
31.04925892645536
 31
0.0
  0
LINE
  5
2F44
330
1F
100
AcDbEntity
  8
太線
100
AcDbLine
 10
31.56752329486278
 20
32.04925892645536
 30
0.0
 11
30.11803355207962
 21
32.04925892645536
 31
0.0
  0
LINE
  5
2F45
330
1F
100
AcDbEntity
  8
太線
100
AcDbLine
 10
30.11803355207962
 20
31.04925892645536
 30
0.0
 11
31.56752329486278
 21
31.0492589264553
 31
0.0
  0
ARC
  5
2F46
330
1F
100
AcDbEntity
  8
太線
100
AcDbCircle
 10
32.56752329486278
 20
31.54925892645539
 30
0.0
 40
2.5
100
AcDbArc
 50
168.4630409671834
 51
191.5369590328149
  0
ARC
  5
2F47
330
1F
100
AcDbEntity
  8
太線
100
AcDbCircle
 10
31.56752329486278
 20
32.54925892645539
 30
0.0
 40
0.5
100
AcDbArc
 50
270.0
 51
0.0
  0
ARC
  5
2F48
330
1F
100
AcDbEntity
  8
太線
100
AcDbCircle
 10
33.56752329486278
 20
32.54925892645539
 30
0.0
 40
0.5
100
AcDbArc
 50
180.0
 51
270.0
  0
ARC
  5
2F49
330
1F
100
AcDbEntity
  8
太線
100
AcDbCircle
 10
31.56752329486278
 20
30.54925892645533
 30
0.0
 40
0.5
100
AcDbArc
 50
0.0
 51
90.0
  0
ARC
  5
2F4A
330
1F
100
AcDbEntity
  8
太線
100
AcDbCircle
 10
33.56752329486278
 20
30.54925892645533
 30
0.0
 40
0.5
100
AcDbArc
 50
90.0
 51
180.0
  0
LINE
  5
2F4B
330
1F
100
AcDbEntity
  8
太線
100
AcDbLine
 10
33.06752329486278
 20
29.0997691836722
 30
0.0
 11
33.06752329486278
 21
30.54925892645531
 31
0.0
  0
LINE
  5
2F4C
330
1F
100
AcDbEntity
  8
太線
100
AcDbLine
 10
32.06752329486278
 20
30.54925892645531
 30
0.0
 11
32.06752329486278
 21
29.0997691836722
 31
0.0
  0
ARC
  5
2F4D
330
1F
100
AcDbEntity
  8
太線
100
AcDbCircle
 10
32.56752329486278
 20
31.54925892645539
 30
0.0
 40
2.5
100
AcDbArc
 50
258.4630409671818
 51
281.5369590328147
  0
LINE
  5
2F4E
330
1F
100
AcDbEntity
  8
細線
 62
     0
100
AcDbLine
 10
41.37585850928963
 20
29.04925892645536
 30
0.0
 11
41.37585850928963
 21
27.54925892645536
 31
0.0
  0
LINE
  5
2F4F
330
1F
100
AcDbEntity
  8
細線
 62
     0
100
AcDbLine
 10
41.37585850928963
 20
27.54925892645536
 30
0.0
 11
39.37585850928963
 21
27.54925892645536
 31
0.0
  0
ARC
  5
2F50
330
1F
100
AcDbEntity
  8
太線
100
AcDbCircle
 10
32.56752329486278
 20
31.54925892645539
 30
0.0
 40
2.5
100
AcDbArc
 50
348.463040967185
 51
11.53695903281653
  0
LINE
  5
2F51
330
1F
100
AcDbEntity
  8
細線
 62
     0
100
AcDbLine
 10
49.37585850928963
 20
29.54925892645536
 30
0.0
 11
48.87585850928963
 21
29.04925892645536
 31
0.0
  0
LINE
  5
2F52
330
1F
100
AcDbEntity
  8
細線
 62
     0
100
AcDbLine
 10
48.87585850928963
 20
29.54925892645536
 30
0.0
 11
48.87585850928963
 21
33.54925892645536
 31
0.0
  0
LINE
  5
2F53
330
1F
100
AcDbEntity
  8
細線
 62
     0
100
AcDbLine
 10
49.37585850928963
 20
29.54925892645536
 30
0.0
 11
49.37585850928963
 21
33.54925892645536
 31
0.0
  0
LINE
  5
2F54
330
1F
100
AcDbEntity
  8
細線
 62
     0
100
AcDbLine
 10
48.87585850928963
 20
34.04925892645536
 30
0.0
 11
41.37585850928963
 21
34.04925892645536
 31
0.0
  0
ARC
  5
2F55
330
1F
100
AcDbEntity
  8
太線
100
AcDbCircle
 10
32.56752329486278
 20
31.54925892645539
 30
0.0
 40
2.5
100
AcDbArc
 50
78.46304096718522
 51
101.5369590328147
  0
LINE
  5
2F56
330
1F
100
AcDbEntity
  8
細線
 62
     0
100
AcDbLine
 10
41.37585850928963
 20
34.04925892645536
 30
0.0
 11
41.37585850928963
 21
35.54925892645536
 31
0.0
  0
LINE
  5
2F57
330
1F
100
AcDbEntity
  8
細線
 62
     0
100
AcDbLine
 10
41.37585850928963
 20
35.54925892645536
 30
0.0
 11
39.37585850928963
 21
35.54925892645536
 31
0.0
  0
CIRCLE
  5
2F58
330
1F
100
AcDbEntity
  8
太線
100
AcDbCircle
 10
72.20151402540432
 20
31.53560202454525
 30
0.0
 40
2.5
  0
TEXT
  5
2F5E
330
1F
100
AcDbEntity
  8
文字
100
AcDbText
 10
154.9987418754612
 20
224.4694616324924
 30
0.0
 40
4.799999999999999
  1
M5-8×3
 51
15.0
  7
OKANO
100
AcDbText
  0
LEADER
  5
2F5F
330
1F
100
AcDbEntity
  8
寸法線
 62
     5
100
AcDbLeader
  3
sunpo
 76
     2
 10
132.3855117991092
 20
219.5774737153458
 30
0.0
 10
155.2123788434623
 20
222.9987993325157
 30
0.0
1001
ACAD
1000
DSTYLE
1002
{
1070
   147
1040
1.0
1070
    77
1070
     0
1002
}
  0
VIEWPORT
  5
2E
330
1B
100
AcDbEntity
 67
     1
  8
0
100
AcDbViewport
 10
199.3705602788892
 20
111.4573643372574
 30
0.0
 40
569.2759276285687
 41
289.1369832634036
 68
     2
 69
     1
 12
199.3705602788892
 22
111.4573643372574
 13
0.0
 23
0.0
 14
10.0
 24
10.0
 15
10.0
 25
10.0
 16
0.0
 26
0.0
 36
1.0
 17
0.0
 27
0.0
 37
0.0
 42
50.0
 43
0.0
 44
0.0
 45
289.1369832634036
 50
0.0
 51
0.0
 72
   100
 90
    32800
  1

281
     0
 71
     1
 74
     0
110
0.0
120
0.0
130
0.0
111
1.0
121
0.0
131
0.0
112
0.0
122
1.0
132
0.0
 79
     0
146
0.0
  0
VIEWPORT
  5
30
330
1B
100
AcDbEntity
 67
     1
  8
70-0-CON
100
AcDbViewport
 10
141.8594093064315
 20
100.3480256368386
 30
0.0
 40
261.6199023344245
 41
192.6196987113174
 68
     1
 69
     2
 12
166.8887575431254
 22
115.6730636961181
 13
0.0
 23
0.0
 14
5.0
 24
5.0
 15
10.0
 25
10.0
 16
0.0
 26
0.0
 36
1.0
 17
0.0
 27
0.0
 37
0.0
 42
50.0
 43
0.0
 44
0.0
 45
265.6329250680067
 50
0.0
 51
0.0
 72
   100
 90
    32864
  1

281
     0
 71
     1
 74
     0
110
0.0
120
0.0
130
0.0
111
1.0
121
0.0
131
0.0
112
0.0
122
1.0
132
0.0
 79
     0
146
0.0
  0
LWPOLYLINE
  5
45
330
1B
100
AcDbEntity
 67
     1
  8
50-0-CON
100
AcDbPolyline
 90
        4
 70
     1
 43
0.0
 10
11.04945813921926
 20
4.038176281179858
 10
272.2125713060605
 20
4.033520706629644
 10
273.4987754093466
 20
195.9297862125246
 10
11.04945813921926
 20
196.6578749924973
  0
LINE
  5
4A
330
1B
100
AcDbEntity
 67
     1
  8
50-0-CON
100
AcDbLine
 10
10.38768783662635
 20
100.3480256368386
 30
0.0
 11
-4.391850629656119
 21
100.3480256368386
 31
0.0
  0
LINE
  5
4B
330
1B
100
AcDbEntity
 67
     1
  8
50-0-CON
100
AcDbLine
 10
141.8594093064315
 20
197.098652626247
 30
0.0
 11
141.8594093064315
 21
202.387980773708
 31
0.0
  0
LINE
  5
4C
330
1B
100
AcDbEntity
 67
     1
  8
50-0-CON
100
AcDbLine
 10
272.4487699456857
 20
100.7888032705883
 30
0.0
 11
278.8458837249377
 21
100.7888032705883
 31
0.0
  0
LINE
  5
4D
330
1B
100
AcDbEntity
 67
     1
  8
50-0-CON
100
AcDbLine
 10
140.9770484758805
 20
4.038176281179858
 30
0.0
 11
140.9770484758805
 21
-3.455038652015446
 31
0.0
  0
ENDSEC
  0
SECTION
  2
OBJECTS
  0
DICTIONARY
  5
C
330
0
100
AcDbDictionary
281
     1
  3
ACAD_GROUP
350
D
  3
ACAD_LAYOUT
350
1A
  3
ACAD_MLINESTYLE
350
17
  3
ACAD_PLOTSETTINGS
350
19
  3
ACAD_PLOTSTYLENAME
350
E
  3
AcadDim
350
13D0
  3
AcDbVariableDictionary
350
6AD
  3
DWGPROPS
350
30F
  0
DICTIONARY
  5
D
102
{ACAD_REACTORS
330
C
102
}
330
C
100
AcDbDictionary
281
     1
  0
DICTIONARY
  5
1A
102
{ACAD_REACTORS
330
C
102
}
330
C
100
AcDbDictionary
281
     1
  3
A4
350
1E
  3
Model
350
22
  0
DICTIONARY
  5
17
102
{ACAD_REACTORS
330
C
102
}
330
C
100
AcDbDictionary
281
     1
  3
Standard
350
18
  0
DICTIONARY
  5
19
102
{ACAD_REACTORS
330
C
102
}
330
C
100
AcDbDictionary
281
     1
  0
ACDBDICTIONARYWDFLT
  5
E
102
{ACAD_REACTORS
330
C
102
}
330
C
100
AcDbDictionary
281
     1
  3
Normal
350
F
100
AcDbDictionaryWithDefault
340
F
  0
XRECORD
  5
13D0
102
{ACAD_REACTORS
330
C
102
}
330
C
100
AcDbXrecord
280
     1
 90
   990106
  3

 60
     0
 61
     0
 62
     1
 63
     3
 64
     0
 65
     0
 66
     0
 67
     3
 68
     1
 69
     0
 70
     0
 71
     0
 72
     0
 40
0.0
170
     0
  0
DICTIONARY
  5
6AD
102
{ACAD_REACTORS
330
C
102
}
330
C
100
AcDbDictionary
281
     1
  3
SORTENTS
350
6AE
  0
XRECORD
  5
30F
102
{ACAD_REACTORS
330
C
102
}
330
C
100
AcDbXrecord
280
     1
  1
DWGPROPS COOKIE
  2

  3

  4

  6

  7

  8

  9

300
=
301
=
302
=
303
=
304
=
305
=
306
=
307
=
308
=
309
=
 40
0.3303803125
 41
2452362.482225463
 42
2452370.969861285
  1

 90
        0
  0
LAYOUT
  5
1E
102
{ACAD_REACTORS
330
1A
102
}
330
1A
100
AcDbPlotSettings
  1

  2
EPSON PM-920C
  4
A4
  6

 40
3.757083177566528
 41
14.7637300491333
 42
3.757080078125
 43
3.757080078125
 44
209.9733276367187
 45
296.9683227539062
 46
0.0
 47
0.0
 48
0.0
 49
0.0
140
0.0
141
0.0
142
1.0
143
1.0
 70
   688
 72
     1
 73
     1
 74
     5
  7
joint.ctb
 75
    16
147
1.0
148
0.0
149
0.0
100
AcDbLayout
  1
A4
 70
     1
 71
     1
 10
-3.757080078125
 20
-3.757083177566528
 11
293.2112426757812
 21
206.2162444591522
 12
0.0
 22
0.0
 32
0.0
 14
-4.400932062405672
 24
-3.459116387827521
 34
-0.0015258207003583
 15
278.8478616361952
 25
202.393946056399
 35
0.0000000349246037
146
0.0
 13
0.0
 23
0.0
 33
0.0
 16
1.0
 26
0.0
 36
0.0
 17
0.0
 27
1.0
 37
0.0
 76
     0
330
1B
331
30
  0
LAYOUT
  5
22
102
{ACAD_REACTORS
330
1A
102
}
330
1A
100
AcDbPlotSettings
  1

  2
EPSON PM-920C
  4
A4
  6

 40
3.757083177566528
 41
14.7637300491333
 42
3.757080078125
 43
3.757080078125
 44
209.9733276367187
 45
296.9683227539062
 46
0.0
 47
0.0
 48
0.0
 49
0.0
140
0.0
141
0.0
142
1.0
143
1.0
 70
 11952
 72
     1
 73
     1
 74
     0
  7

 75
     0
147
1.0
148
-45.64199848979289
149
-84.48806419330498
100
AcDbLayout
  1
Model
 70
     1
 71
     0
 10
0.0
 20
0.0
 11
12.0
 21
9.0
 12
0.0
 22
0.0
 32
0.0
 14
0.0
 24
0.0
 34
0.0
 15
0.0
 25
0.0
 35
0.0
146
0.0
 13
0.0
 23
0.0
 33
0.0
 16
1.0
 26
0.0
 36
0.0
 17
0.0
 27
1.0
 37
0.0
 76
     0
330
1F
  0
MLINESTYLE
  5
18
102
{ACAD_REACTORS
330
17
102
}
330
17
100
AcDbMlineStyle
  2
STANDARD
 70
     0
  3

 62
   256
 51
90.0
 52
90.0
 71
     2
 49
0.5
 62
   256
  6
BYLAYER
 49
-0.5
 62
   256
  6
BYLAYER
  0
ACDBPLACEHOLDER
  5
F
102
{ACAD_REACTORS
330
E
102
}
330
E
  0
DICTIONARYVAR
  5
6AE
102
{ACAD_REACTORS
330
6AD
102
}
330
6AD
100
DictionaryVariables
280
     0
  1
96
  0
ENDSEC
  0
EOF
