  0
SECTION
  2
HEADER
  9
$ACADVER
  1
AC1015
  9
$ACADMAINTVER
 70
     6
  9
$DWGCODEPAGE
  3
ANSI_932
  9
$INSBASE
 10
0.0
 20
0.0
 30
0.0
  9
$EXTMIN
 10
37.54676195033669
 20
96.92495001918558
 30
0.0
  9
$EXTMAX
 10
250.3150521739842
 20
250.7438036953403
 30
0.0
  9
$LIMMIN
 10
0.0
 20
0.0
  9
$LIMMAX
 10
420.0
 20
297.0
  9
$ORTHOMODE
 70
     1
  9
$REGENMODE
 70
     1
  9
$FILLMODE
 70
     1
  9
$QTEXTMODE
 70
     0
  9
$MIRRTEXT
 70
     1
  9
$LTSCALE
 40
1.0
  9
$ATTMODE
 70
     1
  9
$TEXTSIZE
 40
5.0
  9
$TRACEWID
 40
1.0
  9
$TEXTSTYLE
  7
OKANO
  9
$CLAYER
  8
寸法線
  9
$CELTYPE
  6
ByLayer
  9
$CECOLOR
 62
   256
  9
$CELTSCALE
 40
1.0
  9
$DISPSILH
 70
     0
  9
$DIMSCALE
 40
0.0
  9
$DIMASZ
 40
3.0
  9
$DIMEXO
 40
2.0
  9
$DIMDLI
 40
8.0
  9
$DIMRND
 40
0.0
  9
$DIMDLE
 40
0.0
  9
$DIMEXE
 40
3.0
  9
$DIMTP
 40
0.0
  9
$DIMTM
 40
0.0
  9
$DIMTXT
 40
5.0
  9
$DIMCEN
 40
2.5
  9
$DIMTSZ
 40
0.0
  9
$DIMTOL
 70
     0
  9
$DIMLIM
 70
     0
  9
$DIMTIH
 70
     0
  9
$DIMTOH
 70
     0
  9
$DIMSE1
 70
     0
  9
$DIMSE2
 70
     0
  9
$DIMTAD
 70
     1
  9
$DIMZIN
 70
     8
  9
$DIMBLK
  1
Closed
  9
$DIMASO
 70
     1
  9
$DIMSHO
 70
     1
  9
$DIMPOST
  1

  9
$DIMAPOST
  1

  9
$DIMALT
 70
     0
  9
$DIMALTD
 70
     3
  9
$DIMALTF
 40
0.03937007874016
  9
$DIMLFAC
 40
1.0
  9
$DIMTOFL
 70
     1
  9
$DIMTVP
 40
0.0
  9
$DIMTIX
 70
     0
  9
$DIMSOXD
 70
     0
  9
$DIMSAH
 70
     0
  9
$DIMBLK1
  1

  9
$DIMBLK2
  1

  9
$DIMSTYLE
  2
sunpo
  9
$DIMCLRD
 70
     0
  9
$DIMCLRE
 70
     0
  9
$DIMCLRT
 70
     0
  9
$DIMTFAC
 40
1.0
  9
$DIMGAP
 40
1.0
  9
$DIMJUST
 70
     0
  9
$DIMSD1
 70
     0
  9
$DIMSD2
 70
     0
  9
$DIMTOLJ
 70
     0
  9
$DIMTZIN
 70
     8
  9
$DIMALTZ
 70
     0
  9
$DIMALTTZ
 70
     0
  9
$DIMUPT
 70
     0
  9
$DIMDEC
 70
     2
  9
$DIMTDEC
 70
     2
  9
$DIMALTU
 70
     2
  9
$DIMALTTD
 70
     3
  9
$DIMTXSTY
  7
OKANO
  9
$DIMAUNIT
 70
     0
  9
$DIMADEC
 70
     0
  9
$DIMALTRND
 40
0.0
  9
$DIMAZIN
 70
     0
  9
$DIMDSEP
 70
    46
  9
$DIMATFIT
 70
     3
  9
$DIMFRAC
 70
     0
  9
$DIMLDRBLK
  1
Closed
  9
$DIMLUNIT
 70
     2
  9
$DIMLWD
 70
    -2
  9
$DIMLWE
 70
    -2
  9
$DIMTMOVE
 70
     0
  9
$LUNITS
 70
     2
  9
$LUPREC
 70
     2
  9
$SKETCHINC
 40
1.0
  9
$FILLETRAD
 40
1.0
  9
$AUNITS
 70
     0
  9
$AUPREC
 70
     0
  9
$MENU
  1
.
  9
$ELEVATION
 40
0.0
  9
$PELEVATION
 40
0.0
  9
$THICKNESS
 40
0.0
  9
$LIMCHECK
 70
     0
  9
$CHAMFERA
 40
10.0
  9
$CHAMFERB
 40
10.0
  9
$CHAMFERC
 40
20.0
  9
$CHAMFERD
 40
0.0
  9
$SKPOLY
 70
     0
  9
$TDCREATE
 40
2452362.482225463
  9
$TDUCREATE
 40
2452362.107225463
  9
$TDUPDATE
 40
2456458.550973287
  9
$TDUUPDATE
 40
2456458.175973287
  9
$TDINDWG
 40
3.4417278588
  9
$TDUSRTIMER
 40
3.4417278588
  9
$USRTIMER
 70
     1
  9
$ANGBASE
 50
0.0
  9
$ANGDIR
 70
     0
  9
$PDMODE
 70
     0
  9
$PDSIZE
 40
0.0
  9
$PLINEWID
 40
0.0
  9
$SPLFRAME
 70
     0
  9
$SPLINETYPE
 70
     6
  9
$SPLINESEGS
 70
     8
  9
$HANDSEED
  5
4D9B
  9
$SURFTAB1
 70
     6
  9
$SURFTAB2
 70
     6
  9
$SURFTYPE
 70
     6
  9
$SURFU
 70
     6
  9
$SURFV
 70
     6
  9
$UCSBASE
  2

  9
$UCSNAME
  2

  9
$UCSORG
 10
0.0
 20
0.0
 30
0.0
  9
$UCSXDIR
 10
1.0
 20
0.0
 30
0.0
  9
$UCSYDIR
 10
0.0
 20
1.0
 30
0.0
  9
$UCSORTHOREF
  2

  9
$UCSORTHOVIEW
 70
     0
  9
$UCSORGTOP
 10
0.0
 20
0.0
 30
0.0
  9
$UCSORGBOTTOM
 10
0.0
 20
0.0
 30
0.0
  9
$UCSORGLEFT
 10
0.0
 20
0.0
 30
0.0
  9
$UCSORGRIGHT
 10
0.0
 20
0.0
 30
0.0
  9
$UCSORGFRONT
 10
0.0
 20
0.0
 30
0.0
  9
$UCSORGBACK
 10
0.0
 20
0.0
 30
0.0
  9
$PUCSBASE
  2

  9
$PUCSNAME
  2

  9
$PUCSORG
 10
0.0
 20
0.0
 30
0.0
  9
$PUCSXDIR
 10
1.0
 20
0.0
 30
0.0
  9
$PUCSYDIR
 10
0.0
 20
1.0
 30
0.0
  9
$PUCSORTHOREF
  2

  9
$PUCSORTHOVIEW
 70
     0
  9
$PUCSORGTOP
 10
0.0
 20
0.0
 30
0.0
  9
$PUCSORGBOTTOM
 10
0.0
 20
0.0
 30
0.0
  9
$PUCSORGLEFT
 10
0.0
 20
0.0
 30
0.0
  9
$PUCSORGRIGHT
 10
0.0
 20
0.0
 30
0.0
  9
$PUCSORGFRONT
 10
0.0
 20
0.0
 30
0.0
  9
$PUCSORGBACK
 10
0.0
 20
0.0
 30
0.0
  9
$USERI1
 70
     0
  9
$USERI2
 70
     0
  9
$USERI3
 70
     0
  9
$USERI4
 70
     0
  9
$USERI5
 70
     0
  9
$USERR1
 40
0.0
  9
$USERR2
 40
0.0
  9
$USERR3
 40
0.0
  9
$USERR4
 40
0.0
  9
$USERR5
 40
0.0
  9
$WORLDVIEW
 70
     1
  9
$SHADEDGE
 70
     3
  9
$SHADEDIF
 70
    70
  9
$TILEMODE
 70
     0
  9
$MAXACTVP
 70
    64
  9
$PINSBASE
 10
0.0
 20
0.0
 30
0.0
  9
$PLIMCHECK
 70
     0
  9
$PEXTMIN
 10
-4.41382938596746
 20
-3.468932611831576
 30
-0.0015258207003583
  9
$PEXTMAX
 10
278.855004473357
 20
202.394257080618
 30
0.0000000349246037
  9
$PLIMMIN
 10
-20.0
 20
-7.5
  9
$PLIMMAX
 10
277.0
 20
202.4999999999999
  9
$UNITMODE
 70
     0
  9
$VISRETAIN
 70
     1
  9
$PLINEGEN
 70
     0
  9
$PSLTSCALE
 70
     1
  9
$TREEDEPTH
 70
  3020
  9
$CMLSTYLE
  2
Standard
  9
$CMLJUST
 70
     0
  9
$CMLSCALE
 40
20.0
  9
$PROXYGRAPHICS
 70
     1
  9
$MEASUREMENT
 70
     1
  9
$CELWEIGHT
370
    -1
  9
$ENDCAPS
280
     0
  9
$JOINSTYLE
280
     0
  9
$LWDISPLAY
290
     0
  9
$INSUNITS
 70
     4
  9
$HYPERLINKBASE
  1

  9
$STYLESHEET
  1

  9
$XEDIT
290
     1
  9
$CEPSNTYPE
380
     0
  9
$PSTYLEMODE
290
     1
  9
$FINGERPRINTGUID
  2
{FF7F33C3-4233-11D6-AEE0-0000F45FD7F4}
  9
$VERSIONGUID
  2
{4B0F04EA-BEC5-4A49-9E97-140F8BEA79A2}
  9
$EXTNAMES
290
     1
  9
$PSVPSCALE
 40
0.0
  9
$OLESTARTUP
290
     0
  0
ENDSEC
  0
SECTION
  2
CLASSES
  0
CLASS
  1
ACDBDICTIONARYWDFLT
  2
AcDbDictionaryWithDefault
  3
AutoCAD 2000
 90
        0
280
     0
281
     0
  0
CLASS
  1
ACDBPLACEHOLDER
  2
AcDbPlaceHolder
  3
AutoCAD 2000
 90
        0
280
     0
281
     0
  0
CLASS
  1
LAYOUT
  2
AcDbLayout
  3
AutoCAD 2000
 90
        0
280
     0
281
     0
  0
CLASS
  1
DICTIONARYVAR
  2
AcDbDictionaryVar
  3
AutoCAD 2000
 90
        0
280
     0
281
     0
  0
ENDSEC
  0
SECTION
  2
TABLES
  0
TABLE
  2
VPORT
  5
8
330
0
100
AcDbSymbolTable
 70
     2
  0
VPORT
  5
4D9A
330
8
100
AcDbSymbolTableRecord
100
AcDbViewportTableRecord
  2
*Active
 70
     0
 10
0.0
 20
0.0
 11
1.0
 21
1.0
 12
112.1475861974409
 22
176.6859453976968
 13
0.0
 23
0.0
 14
5.0
 24
5.0
 15
10.0
 25
10.0
 16
0.0
 26
0.0
 36
1.0
 17
0.0
 27
0.0
 37
0.0
 40
179.515276337688
 41
2.08724832214765
 42
50.0
 43
0.0
 44
0.0
 50
0.0
 51
0.0
 71
     0
 72
   100
 73
     1
 74
     3
 75
     0
 76
     0
 77
     0
 78
     0
281
     0
 65
     1
110
0.0
120
0.0
130
0.0
111
1.0
121
0.0
131
0.0
112
0.0
122
1.0
132
0.0
 79
     0
146
0.0
  0
ENDTAB
  0
TABLE
  2
LTYPE
  5
5
330
0
100
AcDbSymbolTable
 70
     5
  0
LTYPE
  5
14
330
5
100
AcDbSymbolTableRecord
100
AcDbLinetypeTableRecord
  2
ByBlock
 70
     0
  3

 72
    65
 73
     0
 40
0.0
  0
LTYPE
  5
15
330
5
100
AcDbSymbolTableRecord
100
AcDbLinetypeTableRecord
  2
ByLayer
 70
     0
  3

 72
    65
 73
     0
 40
0.0
  0
LTYPE
  5
16
330
5
100
AcDbSymbolTableRecord
100
AcDbLinetypeTableRecord
  2
Continuous
 70
     0
  3
Solid line
 72
    65
 73
     0
 40
0.0
  0
LTYPE
  5
33
330
5
100
AcDbSymbolTableRecord
100
AcDbLinetypeTableRecord
  2
DASHED2
 70
     0
  3
Dashed (.5x) _ _ _ _ _ _ _ _ _ _ _ _ _ _ _ _ _
 72
    65
 73
     2
 40
9.524999999999998
 49
6.349999999999999
 74
     0
 49
-3.174999999999999
 74
     0
  0
LTYPE
  5
34
330
5
100
AcDbSymbolTableRecord
100
AcDbLinetypeTableRecord
  2
CENTER2
 70
     0
  3
Center (.5x) ___ _ ___ _ ___ _ ___ _ ___ _ ___
 72
    65
 73
     4
 40
28.57499999999999
 49
19.05
 74
     0
 49
-3.174999999999999
 74
     0
 49
3.174999999999999
 74
     0
 49
-3.174999999999999
 74
     0
  0
LTYPE
  5
35
330
5
100
AcDbSymbolTableRecord
100
AcDbLinetypeTableRecord
  2
PHANTOM2
 70
     0
  3
Phantom (.5x) ___ _ _ ___ _ _ ___ _ _ ___ _ _
 72
    65
 73
     6
 40
31.75
 49
15.875
 74
     0
 49
-3.174999999999999
 74
     0
 49
3.174999999999999
 74
     0
 49
-3.174999999999999
 74
     0
 49
3.174999999999999
 74
     0
 49
-3.174999999999999
 74
     0
  0
LTYPE
  5
36
330
5
100
AcDbSymbolTableRecord
100
AcDbLinetypeTableRecord
  2
HIDDEN2
 70
     0
  3
Hidden (.5x) _ _ _ _ _ _ _ _ _ _ _ _ _ _ _ _ _
 72
    65
 73
     2
 40
4.762499999999999
 49
3.174999999999999
 74
     0
 49
-1.587499999999999
 74
     0
  0
ENDTAB
  0
TABLE
  2
LAYER
  5
2
330
0
100
AcDbSymbolTable
 70
    13
  0
LAYER
  5
10
330
2
100
AcDbSymbolTableRecord
100
AcDbLayerTableRecord
  2
0
 70
     0
 62
     7
  6
Continuous
370
    -3
390
F
  0
LAYER
  5
40
330
2
100
AcDbSymbolTableRecord
100
AcDbLayerTableRecord
  2
50-0-CON
 70
     0
 62
     4
  6
Continuous
370
    50
390
F
  0
LAYER
  5
41
330
2
100
AcDbSymbolTableRecord
100
AcDbLayerTableRecord
  2
70-0-CON
 70
     0
 62
   202
  6
Continuous
370
    70
390
F
  0
LAYER
  5
4E
330
2
100
AcDbSymbolTableRecord
100
AcDbLayerTableRecord
  2
極太線
 70
     0
 62
     7
  6
Continuous
370
    70
390
F
  0
LAYER
  5
4F
330
2
100
AcDbSymbolTableRecord
100
AcDbLayerTableRecord
  2
細線
 70
     0
 62
     8
  6
Continuous
370
    18
390
F
  0
LAYER
  5
AB
330
2
100
AcDbSymbolTableRecord
100
AcDbLayerTableRecord
  2
構築線
 70
     0
 62
    -2
  6
Continuous
370
    18
390
F
  0
LAYER
  5
B8
330
2
100
AcDbSymbolTableRecord
100
AcDbLayerTableRecord
  2
太線
 70
     0
 62
     7
  6
Continuous
370
    35
390
F
  0
LAYER
  5
B9
330
2
100
AcDbSymbolTableRecord
100
AcDbLayerTableRecord
  2
寸法線
 70
     0
 62
     5
  6
Continuous
370
    18
390
F
  0
LAYER
  5
BA
330
2
100
AcDbSymbolTableRecord
100
AcDbLayerTableRecord
  2
破線
 70
     0
 62
     8
  6
HIDDEN2
370
    18
390
F
  0
LAYER
  5
BB
330
2
100
AcDbSymbolTableRecord
100
AcDbLayerTableRecord
  2
中心線
 70
     0
 62
     1
  6
CENTER2
370
    18
390
F
  0
LAYER
  5
BC
330
2
100
AcDbSymbolTableRecord
100
AcDbLayerTableRecord
  2
想像線
 70
     0
 62
     8
  6
PHANTOM2
370
    18
390
F
  0
LAYER
  5
BD
330
2
100
AcDbSymbolTableRecord
100
AcDbLayerTableRecord
  2
文字
 70
     0
 62
     7
  6
Continuous
370
    18
390
F
  0
LAYER
  5
180
330
2
100
AcDbSymbolTableRecord
100
AcDbLayerTableRecord
  2
Defpoints
 70
     0
 62
     7
  6
Continuous
290
     0
370
    -3
390
F
  0
ENDTAB
  0
TABLE
  2
STYLE
  5
3
330
0
100
AcDbSymbolTable
 70
     3
  0
STYLE
  5
11
330
3
100
AcDbSymbolTableRecord
100
AcDbTextStyleTableRecord
  2
Standard
 70
     0
 40
0.0
 41
1.0
 50
0.0
 71
     0
 42
3.0
  3
txt
  4

  0
STYLE
  5
32
330
3
100
AcDbSymbolTableRecord
100
AcDbTextStyleTableRecord
  2

 70
     1
 40
0.0
 41
1.0
 50
0.0
 71
     0
 42
2.5
  3
ltypeshp.shx
  4

  0
STYLE
  5
50
330
3
100
AcDbSymbolTableRecord
100
AcDbTextStyleTableRecord
  2
OKANO
 70
     0
 40
0.0
 41
1.0
 50
15.0
 71
     0
 42
5.0
  3
isocp.shx
  4
bigfont.shx
  0
ENDTAB
  0
TABLE
  2
VIEW
  5
6
330
0
100
AcDbSymbolTable
 70
     0
  0
ENDTAB
  0
TABLE
  2
UCS
  5
7
330
0
100
AcDbSymbolTable
 70
     0
  0
ENDTAB
  0
TABLE
  2
APPID
  5
9
330
0
100
AcDbSymbolTable
 70
     1
  0
APPID
  5
12
330
9
100
AcDbSymbolTableRecord
100
AcDbRegAppTableRecord
  2
ACAD
 70
     0
  0
ENDTAB
  0
TABLE
  2
DIMSTYLE
  5
A
330
0
100
AcDbSymbolTable
 70
     2
100
AcDbDimStyleTable
 71
     2
340
A2
340
27
  0
DIMSTYLE
105
27
330
A
100
AcDbSymbolTableRecord
100
AcDbDimStyleTableRecord
  2
ISO-25
 70
     0
 41
2.5
 42
0.625
 43
3.75
 44
1.25
 73
     0
 74
     0
 77
     1
 78
     8
140
2.5
141
2.5
143
0.03937007874016
147
0.625
171
     3
172
     1
271
     2
272
     2
274
     3
283
     0
284
     8
340
11
  0
DIMSTYLE
105
A2
102
{ACAD_REACTORS
330
4CDA
330
4CE7
330
4CF4
330
4D26
330
4D35
330
4D7D
102
}
330
A
100
AcDbSymbolTableRecord
100
AcDbDimStyleTableRecord
  2
sunpo
 70
     0
 40
0.0
 41
3.0
 42
2.0
 43
8.0
 44
3.0
 73
     0
 74
     0
 77
     1
 78
     8
140
5.0
141
2.5
143
0.03937007874016
147
1.0
171
     3
172
     1
271
     2
272
     2
274
     3
283
     0
284
     8
340
50
341
9B
342
9B
  0
ENDTAB
  0
TABLE
  2
BLOCK_RECORD
  5
1
330
0
100
AcDbSymbolTable
 70
    10
  0
BLOCK_RECORD
  5
1F
330
1
100
AcDbSymbolTableRecord
100
AcDbBlockTableRecord
  2
*Model_Space
340
22
  0
BLOCK_RECORD
  5
1B
330
1
100
AcDbSymbolTableRecord
100
AcDbBlockTableRecord
  2
*Paper_Space
340
1E
  0
BLOCK_RECORD
  5
9B
330
1
100
AcDbSymbolTableRecord
100
AcDbBlockTableRecord
  2
_Closed
340
0
102
{BLKREFS
331
4CDF
331
4CE0
331
4CEC
331
4CED
331
4D04
331
4D05
331
4D2D
331
4D2E
331
4D3A
331
4D3B
331
4D5B
331
4D5C
331
4D77
331
4D78
331
4D8D
331
4D8E
102
}
  0
BLOCK_RECORD
  5
1510
330
1
100
AcDbSymbolTableRecord
100
AcDbBlockTableRecord
  2
A$C10A573AC
340
0
  0
BLOCK_RECORD
  5
4CDB
330
1
100
AcDbSymbolTableRecord
100
AcDbBlockTableRecord
  2
*D2
340
0
  0
BLOCK_RECORD
  5
4CE8
330
1
100
AcDbSymbolTableRecord
100
AcDbBlockTableRecord
  2
*D3
340
0
  0
BLOCK_RECORD
  5
4CF5
330
1
100
AcDbSymbolTableRecord
100
AcDbBlockTableRecord
  2
*D4
340
0
  0
BLOCK_RECORD
  5
4D27
330
1
100
AcDbSymbolTableRecord
100
AcDbBlockTableRecord
  2
*D6
340
0
  0
BLOCK_RECORD
  5
4D36
330
1
100
AcDbSymbolTableRecord
100
AcDbBlockTableRecord
  2
*D7
340
0
  0
BLOCK_RECORD
  5
4D7E
330
1
100
AcDbSymbolTableRecord
100
AcDbBlockTableRecord
  2
*D9
340
0
  0
ENDTAB
  0
ENDSEC
  0
SECTION
  2
BLOCKS
  0
BLOCK
  5
20
330
1F
100
AcDbEntity
  8
0
100
AcDbBlockBegin
  2
*Model_Space
 70
     0
 10
0.0
 20
0.0
 30
0.0
  3
*Model_Space
  1

  0
ENDBLK
  5
21
330
1F
100
AcDbEntity
  8
0
100
AcDbBlockEnd
  0
BLOCK
  5
1C
330
1B
100
AcDbEntity
 67
     1
  8
0
100
AcDbBlockBegin
  2
*Paper_Space
 70
     0
 10
0.0
 20
0.0
 30
0.0
  3
*Paper_Space
  1

  0
ENDBLK
  5
1D
330
1B
100
AcDbEntity
 67
     1
  8
0
100
AcDbBlockEnd
  0
BLOCK
  5
A0
330
9B
100
AcDbEntity
  8
0
100
AcDbBlockBegin
  2
_Closed
 70
     0
 10
0.0
 20
0.0
 30
0.0
  3
_Closed
  1

  0
LINE
  5
9C
330
9B
100
AcDbEntity
  8
0
 62
     0
370
    -2
100
AcDbLine
 10
-1.0
 20
0.1666666666666666
 30
0.0
 11
0.0
 21
0.0
 31
0.0
  0
LINE
  5
9D
330
9B
100
AcDbEntity
  8
0
 62
     0
370
    -2
100
AcDbLine
 10
0.0
 20
0.0
 30
0.0
 11
-1.0
 21
-0.1666666666666666
 31
0.0
  0
LINE
  5
9E
330
9B
100
AcDbEntity
  8
0
 62
     0
370
    -2
100
AcDbLine
 10
-1.0
 20
0.1666666666666666
 30
0.0
 11
-1.0
 21
-0.1666666666666666
 31
0.0
  0
LINE
  5
9F
330
9B
100
AcDbEntity
  8
0
 62
     0
370
    -2
100
AcDbLine
 10
0.0
 20
0.0
 30
0.0
 11
-1.0
 21
0.0
 31
0.0
  0
ENDBLK
  5
A1
330
9B
100
AcDbEntity
  8
0
100
AcDbBlockEnd
  0
BLOCK
  5
155B
330
1510
100
AcDbEntity
  8
0
100
AcDbBlockBegin
  2
A$C10A573AC
 70
     0
 10
0.0
 20
0.0
 30
0.0
  3
A$C10A573AC
  1

  0
TEXT
  5
1511
330
1510
100
AcDbEntity
  8
文字
100
AcDbText
 10
0.9844302777919438
 20
5.224957122252135
 30
0.0
 40
3.0
  1
Materal : Steel.
 51
15.0
  7
OKANO
100
AcDbText
  0
TEXT
  5
1512
330
1510
100
AcDbEntity
  8
文字
100
AcDbText
 10
-0.1141909619694843
 20
0.7500001922403499
 30
0.0
 40
3.0
  1
Surface treatment : Electro galvanized.
 51
15.0
  7
OKANO
100
AcDbText
  0
TEXT
  5
1513
330
1510
100
AcDbEntity
  8
文字
100
AcDbText
 10
-0.4901926332574931
 20
9.159967445193728
 30
0.0
 40
3.0
  1
5 TORGUE SCREW  M5-6
 51
15.0
  7
OKANO
100
AcDbText
  0
TEXT
  5
1514
330
1510
100
AcDbEntity
  8
文字
100
AcDbText
 10
1.364713526390005
 20
78.88822913323082
 30
0.0
 40
3.0
  1
Special standard,
 51
15.0
  7
OKANO
100
AcDbText
  0
TEXT
  5
1515
330
1510
100
AcDbEntity
  8
文字
100
AcDbText
 10
92.88160823408942
 20
89.92753849837379
 30
0.0
 40
3.0
  1
Screw Type
 51
15.0
  7
OKANO
100
AcDbText
  0
LINE
  5
1516
330
1510
100
AcDbEntity
  8
太線
100
AcDbLine
 10
113.9464587597784
 20
81.93930390144641
 30
0.0
 11
112.4464587597784
 21
81.93930390144641
 31
0.0
  0
LINE
  5
1517
330
1510
100
AcDbEntity
  8
太線
100
AcDbLine
 10
112.4464587597784
 20
76.9393039014464
 30
0.0
 11
121.4644995438761
 21
76.9393039014464
 31
0.0
  0
TEXT
  5
1518
330
1510
100
AcDbEntity
  8
文字
100
AcDbText
 10
93.46068240437217
 20
77.96976862235396
 30
0.0
 40
2.0
  1
17-30
 51
15.0
  7
OKANO
100
AcDbText
  0
LINE
  5
1519
330
1510
100
AcDbEntity
  8
太線
100
AcDbLine
 10
111.9464587597784
 20
81.43930390144641
 30
0.0
 11
111.9464587597784
 21
77.4393039014464
 31
0.0
  0
LINE
  5
151A
330
1510
100
AcDbEntity
  8
太線
100
AcDbLine
 10
91.94645875977846
 20
81.43930390144641
 30
0.0
 11
91.94645875977846
 21
77.43930390144639
 31
0.0
  0
LINE
  5
151B
330
1510
100
AcDbEntity
  8
太線
100
AcDbLine
 10
101.9644995438761
 20
77.4393039014464
 30
0.0
 11
101.9644995438761
 21
81.43930390144641
 31
0.0
  0
LINE
  5
151C
330
1510
100
AcDbEntity
  8
太線
100
AcDbLine
 10
92.44645875977846
 20
76.9393039014464
 30
0.0
 11
101.4644995438761
 21
76.9393039014464
 31
0.0
  0
ARC
  5
151D
330
1510
100
AcDbEntity
  8
太線
100
AcDbCircle
 10
92.44645875977846
 20
77.43930390144639
 30
0.0
 40
0.5
100
AcDbArc
 50
180.0
 51
270.0
  0
ARC
  5
151E
330
1510
100
AcDbEntity
  8
太線
100
AcDbCircle
 10
101.4644995438761
 20
77.4393039014464
 30
0.0
 40
0.5
100
AcDbArc
 50
270.0
 51
0.0
  0
ARC
  5
151F
330
1510
100
AcDbEntity
  8
太線
100
AcDbCircle
 10
112.4464587597784
 20
77.4393039014464
 30
0.0
 40
0.5
100
AcDbArc
 50
180.0
 51
270.0
  0
LINE
  5
1520
330
1510
100
AcDbEntity
  8
想像線
100
AcDbLine
 10
93.94645875977847
 20
81.93930390144641
 30
0.0
 11
99.96449954387617
 21
81.93930390144641
 31
0.0
  0
LINE
  5
1521
330
1510
100
AcDbEntity
  8
極太線
100
AcDbLine
 10
96.38762957111168
 20
85.43930390144641
 30
0.0
 11
97.50528794844525
 21
85.43930390144641
 31
0.0
  0
CIRCLE
  5
1522
330
1510
100
AcDbEntity
  8
太線
100
AcDbCircle
 10
96.94645875977847
 20
85.43930390144641
 30
0.0
 40
0.5588291886667776
  0
LINE
  5
1523
330
1510
100
AcDbEntity
  8
太線
100
AcDbLine
 10
99.46449954387617
 20
86.93930390144641
 30
0.0
 11
94.44645875977846
 21
86.93930390144641
 31
0.0
  0
LINE
  5
1524
330
1510
100
AcDbEntity
  8
太線
100
AcDbLine
 10
93.94645875977847
 20
86.43930390144641
 30
0.0
 11
93.94645875977847
 21
81.93930390144641
 31
0.0
  0
ARC
  5
1525
330
1510
100
AcDbEntity
  8
太線
100
AcDbCircle
 10
92.44645875977846
 20
81.43930390144641
 30
0.0
 40
0.5
100
AcDbArc
 50
90.0
 51
180.0
  0
LINE
  5
1526
330
1510
100
AcDbEntity
  8
太線
100
AcDbLine
 10
93.94645875977847
 20
81.93930390144641
 30
0.0
 11
92.44645875977846
 21
81.93930390144641
 31
0.0
  0
ARC
  5
1527
330
1510
100
AcDbEntity
  8
太線
100
AcDbCircle
 10
94.44645875977846
 20
86.43930390144641
 30
0.0
 40
0.5
100
AcDbArc
 50
90.0
 51
180.0
  0
LINE
  5
1528
330
1510
100
AcDbEntity
  8
太線
100
AcDbLine
 10
99.96449954387617
 20
81.93930390144641
 30
0.0
 11
99.96449954387617
 21
86.43930390144641
 31
0.0
  0
LINE
  5
1529
330
1510
100
AcDbEntity
  8
太線
100
AcDbLine
 10
101.4644995438761
 20
81.93930390144641
 30
0.0
 11
99.96449954387617
 21
81.93930390144641
 31
0.0
  0
ARC
  5
152A
330
1510
100
AcDbEntity
  8
太線
100
AcDbCircle
 10
101.4644995438761
 20
81.43930390144641
 30
0.0
 40
0.5
100
AcDbArc
 50
0.0
 51
90.0
  0
ARC
  5
152B
330
1510
100
AcDbEntity
  8
太線
100
AcDbCircle
 10
99.46449954387617
 20
86.43930390144641
 30
0.0
 40
0.5
100
AcDbArc
 50
0.0
 51
90.0
  0
LINE
  5
152C
330
1510
100
AcDbEntity
  8
極太線
100
AcDbLine
 10
96.94645875977847
 20
85.99813309011318
 30
0.0
 11
96.94645875977847
 21
84.88047471277964
 31
0.0
  0
ARC
  5
152D
330
1510
100
AcDbEntity
  8
太線
100
AcDbCircle
 10
112.4464587597784
 20
81.43930390144641
 30
0.0
 40
0.5
100
AcDbArc
 50
90.0
 51
180.0
  0
TEXT
  5
152E
330
1510
100
AcDbEntity
  8
文字
100
AcDbText
 10
134.3819212586066
 20
78.16263579228063
 30
0.0
 40
2.0
  1
101
 51
15.0
  7
OKANO
100
AcDbText
  0
TEXT
  5
152F
330
1510
100
AcDbEntity
  8
文字
100
AcDbText
 10
113.3422276612066
 20
77.96976862235396
 30
0.0
 40
2.0
  1
38-83
 51
15.0
  7
OKANO
100
AcDbText
  0
LINE
  5
1530
330
1510
100
AcDbEntity
  8
太線
100
AcDbLine
 10
141.9825403279738
 20
77.4393039014464
 30
0.0
 11
141.9825403279738
 21
81.43930390144641
 31
0.0
  0
LINE
  5
1531
330
1510
100
AcDbEntity
  8
太線
100
AcDbLine
 10
131.9644995438761
 20
81.43930390144641
 30
0.0
 11
131.9644995438761
 21
77.4393039014464
 31
0.0
  0
LINE
  5
1532
330
1510
100
AcDbEntity
  8
太線
100
AcDbLine
 10
121.9644995438761
 20
77.4393039014464
 30
0.0
 11
121.9644995438761
 21
81.43930390144641
 31
0.0
  0
ARC
  5
1533
330
1510
100
AcDbEntity
  8
太線
100
AcDbCircle
 10
121.4644995438761
 20
77.4393039014464
 30
0.0
 40
0.5
100
AcDbArc
 50
270.0
 51
0.0
  0
LINE
  5
1534
330
1510
100
AcDbEntity
  8
太線
100
AcDbLine
 10
132.4644995438761
 20
76.9393039014464
 30
0.0
 11
141.4825403279738
 21
76.9393039014464
 31
0.0
  0
ARC
  5
1535
330
1510
100
AcDbEntity
  8
太線
100
AcDbCircle
 10
132.4644995438761
 20
77.4393039014464
 30
0.0
 40
0.5
100
AcDbArc
 50
180.0
 51
270.0
  0
ARC
  5
1536
330
1510
100
AcDbEntity
  8
太線
100
AcDbCircle
 10
141.4825403279738
 20
77.4393039014464
 30
0.0
 40
0.5
100
AcDbArc
 50
270.0
 51
0.0
  0
ARC
  5
1537
330
1510
100
AcDbEntity
  8
太線
100
AcDbCircle
 10
121.4644995438761
 20
81.43930390144641
 30
0.0
 40
0.5
100
AcDbArc
 50
0.0
 51
90.0
  0
LINE
  5
1538
330
1510
100
AcDbEntity
  8
太線
100
AcDbLine
 10
119.9644995438761
 20
81.93930390144641
 30
0.0
 11
119.9644995438761
 21
86.43930390144641
 31
0.0
  0
LINE
  5
1539
330
1510
100
AcDbEntity
  8
太線
100
AcDbLine
 10
113.9464587597784
 20
86.43930390144641
 30
0.0
 11
113.9464587597784
 21
81.93930390144641
 31
0.0
  0
LINE
  5
153A
330
1510
100
AcDbEntity
  8
想像線
100
AcDbLine
 10
113.9464587597784
 20
81.93930390144641
 30
0.0
 11
119.9644995438761
 21
81.93930390144641
 31
0.0
  0
LINE
  5
153B
330
1510
100
AcDbEntity
  8
太線
100
AcDbLine
 10
121.4644995438761
 20
81.93930390144641
 30
0.0
 11
119.9644995438761
 21
81.93930390144641
 31
0.0
  0
LINE
  5
153C
330
1510
100
AcDbEntity
  8
太線
100
AcDbLine
 10
119.4644995438761
 20
86.93930390144641
 30
0.0
 11
114.4464587597784
 21
86.93930390144641
 31
0.0
  0
ARC
  5
153D
330
1510
100
AcDbEntity
  8
太線
100
AcDbCircle
 10
114.4464587597784
 20
86.43930390144641
 30
0.0
 40
0.5
100
AcDbArc
 50
90.0
 51
180.0
  0
CIRCLE
  5
153E
330
1510
100
AcDbEntity
  8
太線
100
AcDbCircle
 10
115.4464587597784
 20
85.43930390144641
 30
0.0
 40
0.5588291886667776
  0
LINE
  5
153F
330
1510
100
AcDbEntity
  8
極太線
100
AcDbLine
 10
115.4464587597784
 20
85.99813309011318
 30
0.0
 11
115.4464587597784
 21
84.88047471277964
 31
0.0
  0
LINE
  5
1540
330
1510
100
AcDbEntity
  8
極太線
100
AcDbLine
 10
114.8876295711116
 20
85.43930390144641
 30
0.0
 11
116.0052879484452
 21
85.43930390144641
 31
0.0
  0
ARC
  5
1541
330
1510
100
AcDbEntity
  8
太線
100
AcDbCircle
 10
119.4644995438761
 20
86.43930390144641
 30
0.0
 40
0.5
100
AcDbArc
 50
0.0
 51
90.0
  0
LINE
  5
1542
330
1510
100
AcDbEntity
  8
極太線
100
AcDbLine
 10
117.9056703552094
 20
85.43930390144641
 30
0.0
 11
119.0233287325429
 21
85.43930390144641
 31
0.0
  0
LINE
  5
1543
330
1510
100
AcDbEntity
  8
極太線
100
AcDbLine
 10
118.4644995438761
 20
85.99813309011318
 30
0.0
 11
118.4644995438761
 21
84.88047471277964
 31
0.0
  0
CIRCLE
  5
1544
330
1510
100
AcDbEntity
  8
太線
100
AcDbCircle
 10
118.4644995438761
 20
85.43930390144641
 30
0.0
 40
0.5588291886667776
  0
LINE
  5
1545
330
1510
100
AcDbEntity
  8
想像線
100
AcDbLine
 10
133.9644995438761
 20
81.93930390144641
 30
0.0
 11
139.9825403279738
 21
81.93930390144641
 31
0.0
  0
LINE
  5
1546
330
1510
100
AcDbEntity
  8
極太線
100
AcDbLine
 10
137.9237111393071
 20
85.43930390144641
 30
0.0
 11
139.0413695166406
 21
85.43930390144641
 31
0.0
  0
CIRCLE
  5
1547
330
1510
100
AcDbEntity
  8
太線
100
AcDbCircle
 10
138.4825403279738
 20
85.43930390144641
 30
0.0
 40
0.5588291886667776
  0
CIRCLE
  5
1548
330
1510
100
AcDbEntity
  8
太線
100
AcDbCircle
 10
138.4825403279738
 20
83.26342923362075
 30
0.0
 40
0.5588291886667776
  0
LINE
  5
1549
330
1510
100
AcDbEntity
  8
極太線
100
AcDbLine
 10
137.9237111393071
 20
83.26342923362075
 30
0.0
 11
139.0413695166406
 21
83.26342923362075
 31
0.0
  0
LINE
  5
154A
330
1510
100
AcDbEntity
  8
太線
100
AcDbLine
 10
139.4825403279738
 20
86.93930390144641
 30
0.0
 11
134.4644995438761
 21
86.93930390144641
 31
0.0
  0
LINE
  5
154B
330
1510
100
AcDbEntity
  8
太線
100
AcDbLine
 10
133.9644995438761
 20
86.43930390144641
 30
0.0
 11
133.9644995438761
 21
81.93930390144641
 31
0.0
  0
ARC
  5
154C
330
1510
100
AcDbEntity
  8
太線
100
AcDbCircle
 10
132.4644995438761
 20
81.43930390144641
 30
0.0
 40
0.5
100
AcDbArc
 50
90.0
 51
180.0
  0
LINE
  5
154D
330
1510
100
AcDbEntity
  8
太線
100
AcDbLine
 10
133.9644995438761
 20
81.93930390144641
 30
0.0
 11
132.4644995438761
 21
81.93930390144641
 31
0.0
  0
LINE
  5
154E
330
1510
100
AcDbEntity
  8
極太線
100
AcDbLine
 10
134.9056703552093
 20
83.26342923362075
 30
0.0
 11
136.0233287325429
 21
83.26342923362075
 31
0.0
  0
LINE
  5
154F
330
1510
100
AcDbEntity
  8
極太線
100
AcDbLine
 10
135.4644995438761
 20
83.82225842228752
 30
0.0
 11
135.4644995438761
 21
82.70460004495395
 31
0.0
  0
CIRCLE
  5
1550
330
1510
100
AcDbEntity
  8
太線
100
AcDbCircle
 10
135.4644995438761
 20
83.26342923362075
 30
0.0
 40
0.5588291886667776
  0
ARC
  5
1551
330
1510
100
AcDbEntity
  8
太線
100
AcDbCircle
 10
134.4644995438761
 20
86.43930390144641
 30
0.0
 40
0.5
100
AcDbArc
 50
90.0
 51
180.0
  0
CIRCLE
  5
1552
330
1510
100
AcDbEntity
  8
太線
100
AcDbCircle
 10
135.4644995438761
 20
85.43930390144641
 30
0.0
 40
0.5588291886667776
  0
LINE
  5
1553
330
1510
100
AcDbEntity
  8
極太線
100
AcDbLine
 10
135.4644995438761
 20
85.99813309011318
 30
0.0
 11
135.4644995438761
 21
84.88047471277964
 31
0.0
  0
LINE
  5
1554
330
1510
100
AcDbEntity
  8
極太線
100
AcDbLine
 10
134.9056703552093
 20
85.43930390144641
 30
0.0
 11
136.0233287325429
 21
85.43930390144641
 31
0.0
  0
LINE
  5
1555
330
1510
100
AcDbEntity
  8
太線
100
AcDbLine
 10
139.9825403279738
 20
81.93930390144641
 30
0.0
 11
139.9825403279738
 21
86.43930390144641
 31
0.0
  0
ARC
  5
1556
330
1510
100
AcDbEntity
  8
太線
100
AcDbCircle
 10
141.4825403279738
 20
81.43930390144641
 30
0.0
 40
0.5
100
AcDbArc
 50
0.0
 51
90.0
  0
LINE
  5
1557
330
1510
100
AcDbEntity
  8
極太線
100
AcDbLine
 10
138.4825403279738
 20
83.82225842228752
 30
0.0
 11
138.4825403279738
 21
82.70460004495395
 31
0.0
  0
LINE
  5
1558
330
1510
100
AcDbEntity
  8
太線
100
AcDbLine
 10
141.4825403279738
 20
81.93930390144641
 30
0.0
 11
139.9825403279738
 21
81.93930390144641
 31
0.0
  0
ARC
  5
1559
330
1510
100
AcDbEntity
  8
太線
100
AcDbCircle
 10
139.4825403279738
 20
86.43930390144641
 30
0.0
 40
0.5
100
AcDbArc
 50
0.0
 51
90.0
  0
LINE
  5
155A
330
1510
100
AcDbEntity
  8
極太線
100
AcDbLine
 10
138.4825403279738
 20
85.99813309011318
 30
0.0
 11
138.4825403279738
 21
84.88047471277964
 31
0.0
  0
ENDBLK
  5
155C
330
1510
100
AcDbEntity
  8
0
100
AcDbBlockEnd
  0
BLOCK
  5
4CE5
330
4CDB
100
AcDbEntity
  8
0
100
AcDbBlockBegin
  2
*D2
 70
     1
 10
0.0
 20
0.0
 30
0.0
  3
*D2
  1

  0
LINE
  5
4CDC
330
4CDB
100
AcDbEntity
  8
寸法線
 62
     0
370
    -2
100
AcDbLine
 10
39.02145054541529
 20
222.6818801169495
 30
0.0
 11
39.02145054541529
 21
210.7219991493925
 31
0.0
  0
LINE
  5
4CDD
330
4CDB
100
AcDbEntity
  8
寸法線
 62
     0
370
    -2
100
AcDbLine
 10
88.02145054541529
 20
222.6818801169495
 30
0.0
 11
88.02145054541529
 21
210.7219991493925
 31
0.0
  0
LINE
  5
4CDE
330
4CDB
100
AcDbEntity
  8
寸法線
 62
     0
370
    -2
100
AcDbLine
 10
42.02145054541529
 20
213.7219991493925
 30
0.0
 11
85.02145054541529
 21
213.7219991493925
 31
0.0
  0
INSERT
  5
4CDF
330
4CDB
100
AcDbEntity
  8
寸法線
 62
     0
370
    -2
100
AcDbBlockReference
  2
_Closed
 10
39.02145054541529
 20
213.7219991493925
 30
0.0
 41
3.0
 42
3.0
 43
3.0
 50
180.0
  0
INSERT
  5
4CE0
330
4CDB
100
AcDbEntity
  8
寸法線
 62
     0
370
    -2
100
AcDbBlockReference
  2
_Closed
 10
88.02145054541529
 20
213.7219991493925
 30
0.0
 41
3.0
 42
3.0
 43
3.0
  0
MTEXT
  5
4CE1
330
4CDB
100
AcDbEntity
  8
寸法線
 62
     0
100
AcDbMText
 10
63.52145054541529
 20
217.2219991493925
 30
0.0
 40
5.0
 41
0.0
 71
     5
 72
     1
  1
49
  7
OKANO
 73
     1
 44
1.0
  0
POINT
  5
4CE2
330
4CDB
100
AcDbEntity
  8
Defpoints
 62
     0
100
AcDbPoint
 10
39.02145054541529
 20
224.6818801169495
 30
0.0
  0
POINT
  5
4CE3
330
4CDB
100
AcDbEntity
  8
Defpoints
 62
     0
100
AcDbPoint
 10
88.02145054541529
 20
224.6818801169495
 30
0.0
  0
POINT
  5
4CE4
330
4CDB
100
AcDbEntity
  8
Defpoints
 62
     0
100
AcDbPoint
 10
88.02145054541529
 20
213.7219991493925
 30
0.0
  0
ENDBLK
  5
4CE6
330
4CDB
100
AcDbEntity
  8
0
100
AcDbBlockEnd
  0
BLOCK
  5
4CF2
330
4CE8
100
AcDbEntity
  8
0
100
AcDbBlockBegin
  2
*D3
 70
     1
 10
0.0
 20
0.0
 30
0.0
  3
*D3
  1

  0
LINE
  5
4CE9
330
4CE8
100
AcDbEntity
  8
寸法線
 62
     0
370
    -2
100
AcDbLine
 10
38.02145054541529
 20
222.6818801169495
 30
0.0
 11
38.02145054541529
 21
199.9490440942985
 31
0.0
  0
LINE
  5
4CEA
330
4CE8
100
AcDbEntity
  8
寸法線
 62
     0
370
    -2
100
AcDbLine
 10
89.02145054541529
 20
222.6818801169495
 30
0.0
 11
89.02145054541529
 21
199.9490440942985
 31
0.0
  0
LINE
  5
4CEB
330
4CE8
100
AcDbEntity
  8
寸法線
 62
     0
370
    -2
100
AcDbLine
 10
41.02145054541529
 20
202.9490440942985
 30
0.0
 11
86.02145054541528
 21
202.9490440942985
 31
0.0
  0
INSERT
  5
4CEC
330
4CE8
100
AcDbEntity
  8
寸法線
 62
     0
370
    -2
100
AcDbBlockReference
  2
_Closed
 10
38.02145054541529
 20
202.9490440942985
 30
0.0
 41
3.0
 42
3.0
 43
3.0
 50
180.0
  0
INSERT
  5
4CED
330
4CE8
100
AcDbEntity
  8
寸法線
 62
     0
370
    -2
100
AcDbBlockReference
  2
_Closed
 10
89.02145054541529
 20
202.9490440942985
 30
0.0
 41
3.0
 42
3.0
 43
3.0
  0
MTEXT
  5
4CEE
330
4CE8
100
AcDbEntity
  8
寸法線
 62
     0
100
AcDbMText
 10
63.52145054541529
 20
206.4490440942985
 30
0.0
 40
5.0
 41
0.0
 71
     5
 72
     1
  1
51
  7
OKANO
 73
     1
 44
1.0
  0
POINT
  5
4CEF
330
4CE8
100
AcDbEntity
  8
Defpoints
 62
     0
100
AcDbPoint
 10
38.02145054541529
 20
224.6818801169495
 30
0.0
  0
POINT
  5
4CF0
330
4CE8
100
AcDbEntity
  8
Defpoints
 62
     0
100
AcDbPoint
 10
89.02145054541529
 20
224.6818801169495
 30
0.0
  0
POINT
  5
4CF1
330
4CE8
100
AcDbEntity
  8
Defpoints
 62
     0
100
AcDbPoint
 10
89.02145054541529
 20
202.9490440942985
 30
0.0
  0
ENDBLK
  5
4CF3
330
4CE8
100
AcDbEntity
  8
0
100
AcDbBlockEnd
  0
BLOCK
  5
4CFF
330
4CF5
100
AcDbEntity
  8
0
100
AcDbBlockBegin
  2
*D4
 70
     1
 10
0.0
 20
0.0
 30
0.0
  3
*D4
  1

  0
LINE
  5
4D01
330
4CF5
100
AcDbEntity
  8
寸法線
 62
     0
370
    -2
100
AcDbLine
 10
91.02145054541528
 20
224.6818801169495
 30
0.0
 11
118.8735284132274
 21
224.6818801169495
 31
0.0
  0
LINE
  5
4D02
330
4CF5
100
AcDbEntity
  8
寸法線
 62
     0
370
    -2
100
AcDbLine
 10
65.45327409866946
 20
250.7438036953403
 30
0.0
 11
118.8735284132274
 21
250.7438036953403
 31
0.0
  0
LINE
  5
4D03
330
4CF5
100
AcDbEntity
  8
寸法線
 62
     0
370
    -2
100
AcDbLine
 10
115.8735284132274
 20
227.6818801169495
 30
0.0
 11
115.8735284132274
 21
247.7438036953403
 31
0.0
  0
INSERT
  5
4D04
330
4CF5
100
AcDbEntity
  8
寸法線
 62
     0
370
    -2
100
AcDbBlockReference
  2
_Closed
 10
115.8735284132274
 20
224.6818801169495
 30
0.0
 41
3.0
 42
3.0
 43
3.0
 50
270.0
  0
INSERT
  5
4D05
330
4CF5
100
AcDbEntity
  8
寸法線
 62
     0
370
    -2
100
AcDbBlockReference
  2
_Closed
 10
115.8735284132274
 20
250.7438036953403
 30
0.0
 41
3.0
 42
3.0
 43
3.0
 50
90.0
  0
MTEXT
  5
4D06
330
4CF5
100
AcDbEntity
  8
寸法線
 62
     0
100
AcDbMText
 10
112.3730362872431
 20
237.7128419061449
 30
0.0
 40
5.0
 41
0.0
 71
     5
 72
     1
  1
27
  7
OKANO
 11
0.0000000000000001
 21
1.0
 31
0.0
 73
     1
 44
1.0
  0
POINT
  5
4D07
330
4CF5
100
AcDbEntity
  8
Defpoints
 62
     0
100
AcDbPoint
 10
89.02145054541529
 20
224.6818801169495
 30
0.0
  0
POINT
  5
4D08
330
4CF5
100
AcDbEntity
  8
Defpoints
 62
     0
100
AcDbPoint
 10
63.45327409866945
 20
250.7438036953403
 30
0.0
  0
POINT
  5
4D09
330
4CF5
100
AcDbEntity
  8
Defpoints
 62
     0
100
AcDbPoint
 10
115.8735284132274
 20
250.7438036953403
 30
0.0
  0
ENDBLK
  5
4D00
330
4CF5
100
AcDbEntity
  8
0
100
AcDbBlockEnd
  0
BLOCK
  5
4D33
330
4D27
100
AcDbEntity
  8
0
100
AcDbBlockBegin
  2
*D6
 70
     1
 10
0.0
 20
0.0
 30
0.0
  3
*D6
  1

  0
LINE
  5
4D28
330
4D27
100
AcDbEntity
  8
寸法線
 62
     0
370
    -2
100
AcDbLine
 10
201.8855806509116
 20
241.6818801169495
 30
0.0
 11
201.8855806509116
 21
246.6531974488061
 31
0.0
  0
LINE
  5
4D29
330
4D27
100
AcDbEntity
  8
寸法線
 62
     0
370
    -2
100
AcDbLine
 10
204.8855806509116
 20
241.6818801169495
 30
0.0
 11
204.8855806509116
 21
246.6531974488061
 31
0.0
  0
LINE
  5
4D2A
330
4D27
100
AcDbEntity
  8
寸法線
 62
     0
370
    -2
100
AcDbLine
 10
198.8855806509116
 20
243.6531974488061
 30
0.0
 11
195.8855806509116
 21
243.6531974488061
 31
0.0
  0
LINE
  5
4D2B
330
4D27
100
AcDbEntity
  8
寸法線
 62
     0
370
    -2
100
AcDbLine
 10
207.8855806509116
 20
243.6531974488061
 30
0.0
 11
216.0913520168516
 21
243.6531974488061
 31
0.0
  0
LINE
  5
4D2C
330
4D27
100
AcDbEntity
  8
寸法線
 62
     0
370
    -2
100
AcDbLine
 10
201.8855806509116
 20
243.6531974488061
 30
0.0
 11
204.8855806509116
 21
243.6531974488061
 31
0.0
  0
INSERT
  5
4D2D
330
4D27
100
AcDbEntity
  8
寸法線
 62
     0
370
    -2
100
AcDbBlockReference
  2
_Closed
 10
201.8855806509116
 20
243.6531974488061
 30
0.0
 41
3.0
 42
3.0
 43
3.0
  0
INSERT
  5
4D2E
330
4D27
100
AcDbEntity
  8
寸法線
 62
     0
370
    -2
100
AcDbBlockReference
  2
_Closed
 10
204.8855806509116
 20
243.6531974488061
 30
0.0
 41
3.0
 42
3.0
 43
3.0
 50
180.0
  0
MTEXT
  5
4D2F
330
4D27
100
AcDbEntity
  8
寸法線
 62
     0
100
AcDbMText
 10
213.4884663338816
 20
247.1531974488061
 30
0.0
 40
5.0
 41
0.0
 71
     5
 72
     1
  1
3
  7
OKANO
 73
     1
 44
1.0
  0
POINT
  5
4D30
330
4D27
100
AcDbEntity
  8
Defpoints
 62
     0
100
AcDbPoint
 10
201.8855806509116
 20
239.6818801169495
 30
0.0
  0
POINT
  5
4D31
330
4D27
100
AcDbEntity
  8
Defpoints
 62
     0
100
AcDbPoint
 10
204.8855806509116
 20
239.6818801169495
 30
0.0
  0
POINT
  5
4D32
330
4D27
100
AcDbEntity
  8
Defpoints
 62
     0
100
AcDbPoint
 10
204.8855806509116
 20
243.6531974488061
 30
0.0
  0
ENDBLK
  5
4D34
330
4D27
100
AcDbEntity
  8
0
100
AcDbBlockEnd
  0
BLOCK
  5
4D40
330
4D36
100
AcDbEntity
  8
0
100
AcDbBlockBegin
  2
*D7
 70
     1
 10
0.0
 20
0.0
 30
0.0
  3
*D7
  1

  0
LINE
  5
4D37
330
4D36
100
AcDbEntity
  8
寸法線
 62
     0
370
    -2
100
AcDbLine
 10
206.8855806509116
 20
239.6818801169495
 30
0.0
 11
221.3719399850772
 21
239.6818801169495
 31
0.0
  0
LINE
  5
4D38
330
4D36
100
AcDbEntity
  8
寸法線
 62
     0
370
    -2
100
AcDbLine
 10
206.8855806509116
 20
229.6818801169495
 30
0.0
 11
221.3719399850772
 21
229.6818801169495
 31
0.0
  0
LINE
  5
4D39
330
4D36
100
AcDbEntity
  8
寸法線
 62
     0
370
    -2
100
AcDbLine
 10
218.3719399850772
 20
236.6818801169495
 30
0.0
 11
218.3719399850772
 21
232.6818801169495
 31
0.0
  0
INSERT
  5
4D3A
330
4D36
100
AcDbEntity
  8
寸法線
 62
     0
370
    -2
100
AcDbBlockReference
  2
_Closed
 10
218.3719399850772
 20
239.6818801169495
 30
0.0
 41
3.0
 42
3.0
 43
3.0
 50
90.0
  0
INSERT
  5
4D3B
330
4D36
100
AcDbEntity
  8
寸法線
 62
     0
370
    -2
100
AcDbBlockReference
  2
_Closed
 10
218.3719399850772
 20
229.6818801169495
 30
0.0
 41
3.0
 42
3.0
 43
3.0
 50
270.0
  0
MTEXT
  5
4D3C
330
4D36
100
AcDbEntity
  8
寸法線
 62
     0
100
AcDbMText
 10
214.8719399850772
 20
234.6818801169495
 30
0.0
 40
5.0
 41
0.0
 71
     5
 72
     1
  1
10
  7
OKANO
 11
0.0000000000000001
 21
1.0
 31
0.0
 73
     1
 44
1.0
  0
POINT
  5
4D3D
330
4D36
100
AcDbEntity
  8
Defpoints
 62
     0
100
AcDbPoint
 10
204.8855806509116
 20
239.6818801169495
 30
0.0
  0
POINT
  5
4D3E
330
4D36
100
AcDbEntity
  8
Defpoints
 62
     0
100
AcDbPoint
 10
204.8855806509116
 20
229.6818801169495
 30
0.0
  0
POINT
  5
4D3F
330
4D36
100
AcDbEntity
  8
Defpoints
 62
     0
100
AcDbPoint
 10
218.3719399850772
 20
229.6818801169495
 30
0.0
  0
ENDBLK
  5
4D41
330
4D36
100
AcDbEntity
  8
0
100
AcDbBlockEnd
  0
BLOCK
  5
4D88
330
4D7E
100
AcDbEntity
  8
0
100
AcDbBlockBegin
  2
*D9
 70
     1
 10
0.0
 20
0.0
 30
0.0
  3
*D9
  1

  0
LINE
  5
4D8A
330
4D7E
100
AcDbEntity
  8
寸法線
 62
     0
370
    -2
100
AcDbLine
 10
87.0214505454153
 20
232.6818801169495
 30
0.0
 11
87.0214505454153
 21
231.6162304598432
 31
0.0
  0
LINE
  5
4D8B
330
4D7E
100
AcDbEntity
  8
寸法線
 62
     0
370
    -2
100
AcDbLine
 10
38.9245846242793
 20
232.6818801169495
 30
0.0
 11
38.9245846242793
 21
231.6162304598432
 31
0.0
  0
LINE
  5
4D8C
330
4D7E
100
AcDbEntity
  8
寸法線
 62
     0
370
    -2
100
AcDbLine
 10
84.02145054541529
 20
234.6162304598432
 30
0.0
 11
41.9245846242793
 21
234.6162304598432
 31
0.0
  0
INSERT
  5
4D8D
330
4D7E
100
AcDbEntity
  8
寸法線
 62
     0
370
    -2
100
AcDbBlockReference
  2
_Closed
 10
87.0214505454153
 20
234.6162304598432
 30
0.0
 41
3.0
 42
3.0
 43
3.0
  0
INSERT
  5
4D8E
330
4D7E
100
AcDbEntity
  8
寸法線
 62
     0
370
    -2
100
AcDbBlockReference
  2
_Closed
 10
38.9245846242793
 20
234.6162304598432
 30
0.0
 41
3.0
 42
3.0
 43
3.0
 50
180.0
  0
MTEXT
  5
4D8F
330
4D7E
100
AcDbEntity
  8
寸法線
 62
     0
100
AcDbMText
 10
62.9730175848473
 20
238.1162304598432
 30
0.0
 40
5.0
 41
0.0
 71
     5
 72
     1
  1
48
  7
OKANO
 73
     1
 44
1.0
  0
POINT
  5
4D90
330
4D7E
100
AcDbEntity
  8
Defpoints
 62
     0
100
AcDbPoint
 10
87.0214505454153
 20
234.6818801169495
 30
0.0
  0
POINT
  5
4D91
330
4D7E
100
AcDbEntity
  8
Defpoints
 62
     0
100
AcDbPoint
 10
38.9245846242793
 20
234.6818801169495
 30
0.0
  0
POINT
  5
4D92
330
4D7E
100
AcDbEntity
  8
Defpoints
 62
     0
100
AcDbPoint
 10
38.9245846242793
 20
234.6162304598432
 30
0.0
  0
ENDBLK
  5
4D89
330
4D7E
100
AcDbEntity
  8
0
100
AcDbBlockEnd
  0
ENDSEC
  0
SECTION
  2
ENTITIES
  0
TEXT
  5
29C2
330
1F
100
AcDbEntity
  8
文字
100
AcDbText
 10
177.2255933673949
 20
99.89338616232817
 30
0.0
 40
4.799999999999999
  1
joint kogyo T.okano
 51
15.0
  7
OKANO
100
AcDbText
  0
TEXT
  5
29C3
330
1F
100
AcDbEntity
  8
文字
100
AcDbText
 10
169.737280355598
 20
114.6457576696159
 30
0.0
 40
4.799999999999999
  1
F-999-2012603 Auto CAD
 51
15.0
  7
OKANO
100
AcDbText
  0
LINE
  5
29C4
330
1F
100
AcDbEntity
  8
太線
100
AcDbLine
 10
142.3150521739842
 20
113.7249500191856
 30
0.0
 11
250.3150521739842
 21
113.7249500191856
 31
0.0
  0
LWPOLYLINE
  5
29C5
330
1F
100
AcDbEntity
  8
太線
100
AcDbPolyline
 90
        4
 70
     1
 43
0.0
 10
142.3150521739842
 20
122.1249500191855
 10
250.3150521739842
 20
122.1249500191855
 10
250.3150521739842
 20
96.92495001918558
 10
142.3150521739842
 20
96.92495001918558
  0
TEXT
  5
29C6
330
1F
100
AcDbEntity
  8
文字
100
AcDbText
 10
146.1874357400417
 20
105.5314382203349
 30
0.0
 40
2.399999999999999
  1
CHECK
 51
15.0
  7
OKANO
100
AcDbText
  0
LINE
  5
29C7
330
1F
100
AcDbEntity
  8
太線
100
AcDbLine
 10
166.3150521739842
 20
122.1249500191855
 30
0.0
 11
166.3150521739842
 21
96.92495001918558
 31
0.0
  0
TEXT
  5
29C8
330
1F
100
AcDbEntity
  8
文字
100
AcDbText
 10
146.1874357400417
 20
98.61201061411907
 30
0.0
 40
2.399999999999999
  1
ISSUED
 51
15.0
  7
OKANO
100
AcDbText
  0
TEXT
  5
29C9
330
1F
100
AcDbEntity
  8
文字
100
AcDbText
 10
146.4439501729424
 20
101.9435868033872
 30
0.0
 40
2.399999999999999
  1
APPR
 51
15.0
  7
OKANO
100
AcDbText
  0
TEXT
  5
29CA
330
1F
100
AcDbEntity
  8
文字
100
AcDbText
 10
144.391840188356
 20
115.5261661979507
 30
0.0
 40
2.399999999999999
  1
FILM NAME
 51
15.0
  7
OKANO
100
AcDbText
  0
TEXT
  5
29CB
330
1F
100
AcDbEntity
  8
文字
100
AcDbText
 10
145.674409065688
 20
109.1192890470939
 30
0.0
 40
2.399999999999999
  1
DRAWN
 51
15.0
  7
OKANO
100
AcDbText
  0
XLINE
  5
4C09
330
1F
100
AcDbEntity
  8
構築線
 62
     3
100
AcDbXline
 10
202.6894126873933
 20
157.8614694436758
 30
0.0
 11
1.0
 21
0.0
 31
0.0
  0
TEXT
  5
4C6B
330
1F
100
AcDbEntity
  8
文字
100
AcDbText
 10
175.0540488425897
 20
106.9295865220367
 30
0.0
 40
4.799999999999999
  1
11-1Ｃ-48.6 (SUS304)
 51
15.0
  7
OKANO
100
AcDbText
  0
XLINE
  5
4C74
330
1F
100
AcDbEntity
  8
構築線
 62
     3
100
AcDbXline
 10
63.52145054541529
 20
154.2722205913379
 30
0.0
 11
0.0
 21
1.0
 31
0.0
  0
CIRCLE
  5
4C75
330
1F
100
AcDbEntity
  8
構築線
 62
     3
100
AcDbCircle
 10
63.52145054541529
 20
157.8614694436758
 30
0.0
 40
25.5
  0
CIRCLE
  5
4C76
330
1F
100
AcDbEntity
  8
構築線
 62
     3
100
AcDbCircle
 10
63.52145054541529
 20
157.8614694436758
 30
0.0
 40
24.5
  0
CIRCLE
  5
4C77
330
1F
100
AcDbEntity
  8
太線
100
AcDbCircle
 10
63.52145054541529
 20
157.8614694436758
 30
0.0
 40
25.5
  0
ARC
  5
4C78
330
1F
100
AcDbEntity
  8
破線
100
AcDbCircle
 10
63.52145054541529
 20
157.8614694436758
 30
0.0
 40
24.5
100
AcDbArc
 50
3.510100100485499
 51
356.4898998995146
  0
XLINE
  5
4C79
330
1F
100
AcDbEntity
  8
構築線
 62
     3
100
AcDbXline
 10
43.48125840402235
 20
224.6818801169495
 30
0.0
 11
1.0
 21
0.0
 31
0.0
  0
XLINE
  5
4C7A
330
1F
100
AcDbEntity
  8
構築線
 62
     3
100
AcDbXline
 10
43.48125840402235
 20
250.6818801169495
 30
0.0
 11
1.0
 21
0.0
 31
0.0
  0
XLINE
  5
4C7B
330
1F
100
AcDbEntity
  8
構築線
 62
     3
100
AcDbXline
 10
89.02145054541529
 20
157.8614694436758
 30
0.0
 11
0.0
 21
1.0
 31
0.0
  0
XLINE
  5
4C7C
330
1F
100
AcDbEntity
  8
構築線
 62
     3
100
AcDbXline
 10
38.02145054541529
 20
157.8614694436758
 30
0.0
 11
0.0
 21
1.0
 31
0.0
  0
XLINE
  5
4C7D
330
1F
100
AcDbEntity
  8
構築線
 62
     3
100
AcDbXline
 10
43.48125840402235
 20
243.6818801169495
 30
0.0
 11
1.0
 21
0.0
 31
0.0
  0
XLINE
  5
4C7E
330
1F
100
AcDbEntity
  8
構築線
 62
     3
100
AcDbXline
 10
86.02145054541528
 20
154.2722205913379
 30
0.0
 11
0.0
 21
1.0
 31
0.0
  0
XLINE
  5
4C7F
330
1F
100
AcDbEntity
  8
構築線
 62
     3
100
AcDbXline
 10
41.02145054541529
 20
154.2722205913379
 30
0.0
 11
0.0
 21
1.0
 31
0.0
  0
XLINE
  5
4C80
330
1F
100
AcDbEntity
  8
構築線
 62
     3
100
AcDbXline
 10
73.52145054541529
 20
154.2722205913379
 30
0.0
 11
0.0
 21
1.0
 31
0.0
  0
XLINE
  5
4C81
330
1F
100
AcDbEntity
  8
構築線
 62
     3
100
AcDbXline
 10
53.52145054541529
 20
154.2722205913379
 30
0.0
 11
0.0
 21
1.0
 31
0.0
  0
XLINE
  5
4C82
330
1F
100
AcDbEntity
  8
構築線
 62
     3
100
AcDbXline
 10
43.48125840402235
 20
246.6818801169495
 30
0.0
 11
1.0
 21
0.0
 31
0.0
  0
LINE
  5
4C84
330
1F
100
AcDbEntity
  8
太線
100
AcDbLine
 10
89.02145054541529
 20
224.6818801169495
 30
0.0
 11
89.02145054541529
 21
243.2676665545763
 31
0.0
  0
LINE
  5
4C8F
330
1F
100
AcDbEntity
  8
太線
100
AcDbLine
 10
38.02145054541529
 20
224.6818801169495
 30
0.0
 11
38.02145054541529
 21
243.2676665545763
 31
0.0
  0
ARC
  5
4C98
330
1F
100
AcDbEntity
  8
太線
100
AcDbCircle
 10
63.52145054541528
 20
185.4006301169495
 30
0.0
 40
65.28125
100
AcDbArc
 50
69.83880402491542
 51
110.1611959750845
  0
ARC
  5
4C99
330
1F
100
AcDbEntity
  8
太線
100
AcDbCircle
 10
42.35371187205426
 20
242.4861229263225
 30
0.0
 40
4.402192481611395
100
AcDbArc
 50
107.6159882372383
 51
169.7737815667396
  0
ARC
  5
4C9A
330
1F
100
AcDbEntity
  8
太線
100
AcDbCircle
 10
84.6891892187763
 20
242.4861229263225
 30
0.0
 40
4.402192481611395
100
AcDbArc
 50
10.22621843326039
 51
72.38401176276164
  0
LINE
  5
4C9B
330
1F
100
AcDbEntity
  8
太線
100
AcDbLine
 10
38.02145054541529
 20
224.6818801169495
 30
0.0
 11
89.02145054541529
 21
224.6818801169495
 31
0.0
  0
XLINE
  5
4C9C
330
1F
100
AcDbEntity
  8
構築線
 62
     3
100
AcDbXline
 10
39.02145054541529
 20
157.8614694436758
 30
0.0
 11
0.0
 21
1.0
 31
0.0
  0
LINE
  5
4C9E
330
1F
100
AcDbEntity
  8
破線
100
AcDbLine
 10
39.02145054541529
 20
224.6818801169495
 30
0.0
 11
39.02145054541529
 21
243.2676665545763
 31
0.0
  0
ARC
  5
4C9F
330
1F
100
AcDbEntity
  8
破線
100
AcDbCircle
 10
42.35371187205426
 20
242.4861229263225
 30
0.0
 40
3.402192481611395
100
AcDbArc
 50
107.6159882372383
 51
169.7737815667396
  0
ARC
  5
4CA0
330
1F
100
AcDbEntity
  8
破線
100
AcDbCircle
 10
63.52145054541528
 20
185.4006301169495
 30
0.0
 40
64.28125
100
AcDbArc
 50
69.83880402491542
 51
110.1611959750845
  0
ARC
  5
4CA1
330
1F
100
AcDbEntity
  8
破線
100
AcDbCircle
 10
84.6891892187763
 20
242.4861229263225
 30
0.0
 40
3.402192481611395
100
AcDbArc
 50
10.22621843326039
 51
72.38401176276164
  0
LINE
  5
4CA2
330
1F
100
AcDbEntity
  8
太線
100
AcDbLine
 10
88.02145054541529
 20
224.6818801169495
 30
0.0
 11
88.02145054541529
 21
243.2676665545763
 31
0.0
  0
XLINE
  5
4CA3
330
1F
100
AcDbEntity
  8
構築線
 62
     3
100
AcDbXline
 10
43.48125840402235
 20
239.6818801169495
 30
0.0
 11
1.0
 21
0.0
 31
0.0
  0
XLINE
  5
4CA4
330
1F
100
AcDbEntity
  8
構築線
 62
     3
100
AcDbXline
 10
43.48125840402235
 20
229.6818801169495
 30
0.0
 11
1.0
 21
0.0
 31
0.0
  0
XLINE
  5
4CA5
330
1F
100
AcDbEntity
  8
構築線
 62
     3
100
AcDbXline
 10
43.48125840402235
 20
234.6818801169495
 30
0.0
 11
1.0
 21
0.0
 31
0.0
  0
XLINE
  5
4CA6
330
1F
100
AcDbEntity
  8
構築線
 62
     3
100
AcDbXline
 10
88.02145054541529
 20
157.8614694436758
 30
0.0
 11
0.0
 21
1.0
 31
0.0
  0
XLINE
  5
4CA7
330
1F
100
AcDbEntity
  8
構築線
 62
     3
100
AcDbXline
 10
87.0214505454153
 20
157.8614694436758
 30
0.0
 11
0.0
 21
1.0
 31
0.0
  0
XLINE
  5
4CA8
330
1F
100
AcDbEntity
  8
構築線
 62
     3
100
AcDbXline
 10
87.52145054541529
 20
157.8614694436758
 30
0.0
 11
0.0
 21
1.0
 31
0.0
  0
LINE
  5
4CAC
330
1F
100
AcDbEntity
  8
太線
 62
     3
100
AcDbLine
 10
88.02145054541529
 20
243.2676665545763
 30
0.0
 11
88.02145054541529
 21
224.6818801169495
 31
0.0
  0
LINE
  5
4CAD
330
1F
100
AcDbEntity
  8
破線
100
AcDbLine
 10
88.02145054541529
 20
243.2676665545763
 30
0.0
 11
88.02145054541529
 21
224.6818801169495
 31
0.0
  0
LINE
  5
4CAE
330
1F
100
AcDbEntity
  8
太線
100
AcDbLine
 10
88.02145054541529
 20
229.6818801169495
 30
0.0
 11
87.0214505454153
 21
234.6818801169495
 31
0.0
  0
LINE
  5
4CAF
330
1F
100
AcDbEntity
  8
太線
100
AcDbLine
 10
87.0214505454153
 20
234.6818801169495
 30
0.0
 11
87.52145054541529
 21
239.1818801169495
 31
0.0
  0
LINE
  5
4CB2
330
1F
100
AcDbEntity
  8
太線
100
AcDbLine
 10
87.52145054541529
 20
239.1818801169495
 30
0.0
 11
88.02145054541529
 21
239.1818801169495
 31
0.0
  0
LINE
  5
4CB3
330
1F
100
AcDbEntity
  8
太線
100
AcDbLine
 10
89.02145054541529
 20
229.6818801169495
 30
0.0
 11
88.02145054541529
 21
234.6818801169495
 31
0.0
  0
LINE
  5
4CB4
330
1F
100
AcDbEntity
  8
太線
100
AcDbLine
 10
88.02145054541529
 20
234.6818801169495
 30
0.0
 11
88.52145054541528
 21
239.1818801169495
 31
0.0
  0
LINE
  5
4CB5
330
1F
100
AcDbEntity
  8
太線
100
AcDbLine
 10
88.52145054541528
 20
239.1818801169495
 30
0.0
 11
88.02145054541529
 21
239.1818801169495
 31
0.0
  0
XLINE
  5
4CB6
330
1F
100
AcDbEntity
  8
構築線
 62
     3
100
AcDbXline
 10
202.6894126873933
 20
159.3614694436759
 30
0.0
 11
1.0
 21
0.0
 31
0.0
  0
XLINE
  5
4CB7
330
1F
100
AcDbEntity
  8
構築線
 62
     3
100
AcDbXline
 10
202.6894126873933
 20
156.3614694436759
 30
0.0
 11
1.0
 21
0.0
 31
0.0
  0
LINE
  5
4CB8
330
1F
100
AcDbEntity
  8
破線
100
AcDbLine
 10
87.97548906669025
 20
159.3614694436759
 30
0.0
 11
87.02145054541528
 21
159.3614694436759
 31
0.0
  0
LINE
  5
4CB9
330
1F
100
AcDbEntity
  8
破線
100
AcDbLine
 10
87.02145054541528
 20
159.3614694436759
 30
0.0
 11
87.0214505454153
 21
156.3614694436759
 31
0.0
  0
LINE
  5
4CBA
330
1F
100
AcDbEntity
  8
破線
100
AcDbLine
 10
87.0214505454153
 20
156.3614694436759
 30
0.0
 11
87.97548906669025
 21
156.3614694436759
 31
0.0
  0
XLINE
  5
4CBB
330
1F
100
AcDbEntity
  8
構築線
 62
     3
100
AcDbXline
 10
203.3855806509115
 20
217.0322894178344
 30
0.0
 11
0.0
 21
1.0
 31
0.0
  0
LINE
  5
4CC0
330
1F
100
AcDbEntity
  8
太線
100
AcDbLine
 10
177.8855806509116
 20
224.6818801169495
 30
0.0
 11
177.8855806509116
 21
243.2676665545763
 31
0.0
  0
LINE
  5
4CC1
330
1F
100
AcDbEntity
  8
太線
100
AcDbLine
 10
228.8855806509116
 20
224.6818801169495
 30
0.0
 11
228.8855806509116
 21
243.2676665545763
 31
0.0
  0
LINE
  5
4CC2
330
1F
100
AcDbEntity
  8
太線
100
AcDbLine
 10
177.8855806509116
 20
224.6818801169495
 30
0.0
 11
228.8855806509116
 21
224.6818801169495
 31
0.0
  0
ARC
  5
4CCA
330
1F
100
AcDbEntity
  8
太線
100
AcDbCircle
 10
203.3855806509115
 20
185.4006301169495
 30
0.0
 40
65.28125
100
AcDbArc
 50
69.83880402491542
 51
110.1611959750845
  0
ARC
  5
4CCC
330
1F
100
AcDbEntity
  8
太線
100
AcDbCircle
 10
182.2178419775505
 20
242.4861229263225
 30
0.0
 40
4.402192481611395
100
AcDbArc
 50
107.6159882372383
 51
169.7737815667396
  0
ARC
  5
4CCE
330
1F
100
AcDbEntity
  8
太線
100
AcDbCircle
 10
224.5533193242726
 20
242.4861229263225
 30
0.0
 40
4.402192481611395
100
AcDbArc
 50
10.22621843326039
 51
72.38401176276164
  0
XLINE
  5
4CCF
330
1F
100
AcDbEntity
  8
構築線
 62
     3
100
AcDbXline
 10
204.8855806509116
 20
217.0322894178344
 30
0.0
 11
0.0
 21
1.0
 31
0.0
  0
XLINE
  5
4CD0
330
1F
100
AcDbEntity
  8
構築線
 62
     3
100
AcDbXline
 10
201.8855806509116
 20
217.0322894178344
 30
0.0
 11
0.0
 21
1.0
 31
0.0
  0
LINE
  5
4CD1
330
1F
100
AcDbEntity
  8
太線
 62
     3
100
AcDbLine
 10
204.8855806509116
 20
239.6818801169495
 30
0.0
 11
201.8855806509116
 21
239.6818801169495
 31
0.0
  0
LINE
  5
4CD2
330
1F
100
AcDbEntity
  8
太線
 62
     3
100
AcDbLine
 10
201.8855806509116
 20
239.6818801169495
 30
0.0
 11
201.8855806509116
 21
229.6818801169495
 31
0.0
  0
LINE
  5
4CD3
330
1F
100
AcDbEntity
  8
太線
100
AcDbLine
 10
204.8855806509116
 20
239.6818801169495
 30
0.0
 11
201.8855806509116
 21
239.6818801169495
 31
0.0
  0
LINE
  5
4CD4
330
1F
100
AcDbEntity
  8
太線
100
AcDbLine
 10
201.8855806509116
 20
239.6818801169495
 30
0.0
 11
201.8855806509116
 21
229.6818801169495
 31
0.0
  0
LINE
  5
4CD5
330
1F
100
AcDbEntity
  8
太線
100
AcDbLine
 10
204.8855806509116
 20
239.6818801169495
 30
0.0
 11
204.8855806509116
 21
229.6818801169495
 31
0.0
  0
LINE
  5
4CD6
330
1F
100
AcDbEntity
  8
太線
100
AcDbLine
 10
201.8855806509116
 20
234.6818801169495
 30
0.0
 11
204.8855806509116
 21
234.6818801169495
 31
0.0
  0
TEXT
  5
4CD7
330
1F
100
AcDbEntity
  8
文字
100
AcDbText
 10
52.25925197283936
 20
163.2582041963084
 30
0.0
 40
6.0
  1
JOINT
 51
15.0
  7
OKANO
100
AcDbText
  0
TEXT
  5
4CD8
330
1F
100
AcDbEntity
  8
文字
100
AcDbText
 10
49.56618132310905
 20
155.4544693293417
 30
0.0
 40
4.0
  1
11-1C  48.6
 51
15.0
  7
OKANO
100
AcDbText
  0
TEXT
  5
4CD9
330
1F
100
AcDbEntity
  8
文字
100
AcDbText
 10
50.72190172896966
 20
146.1541378413621
 30
0.0
 40
4.5
  1
ステンレス
 51
15.0
  7
OKANO
100
AcDbText
  0
DIMENSION
  5
4CDA
330
1F
100
AcDbEntity
  8
寸法線
100
AcDbDimension
  2
*D2
 10
88.02145054541529
 20
213.7219991493925
 30
0.0
 11
63.52145054541529
 21
217.2219991493925
 31
0.0
 70
    32
 71
     5
 42
49.0
  3
sunpo
100
AcDbAlignedDimension
 13
39.02145054541529
 23
224.6818801169495
 33
0.0
 14
88.02145054541529
 24
224.6818801169495
 34
0.0
100
AcDbRotatedDimension
1001
ACAD
1000
DSTYLE
1002
{
1070
    40
1040
1.0
1002
}
  0
DIMENSION
  5
4CE7
330
1F
100
AcDbEntity
  8
寸法線
100
AcDbDimension
  2
*D3
 10
89.02145054541529
 20
202.9490440942985
 30
0.0
 11
63.52145054541529
 21
206.4490440942985
 31
0.0
 70
    32
 71
     5
 42
51.0
  3
sunpo
100
AcDbAlignedDimension
 13
38.02145054541529
 23
224.6818801169495
 33
0.0
 14
89.02145054541529
 24
224.6818801169495
 34
0.0
100
AcDbRotatedDimension
1001
ACAD
1000
DSTYLE
1002
{
1070
    40
1040
1.0
1002
}
  0
DIMENSION
  5
4CF4
330
1F
100
AcDbEntity
  8
寸法線
100
AcDbDimension
  2
*D4
 10
115.8735284132274
 20
250.7438036953403
 30
0.0
 11
112.3730362872431
 21
237.7128419061449
 31
0.0
 70
    32
  1
27
 71
     5
 42
26.06192357839083
  3
sunpo
100
AcDbAlignedDimension
 13
89.02145054541529
 23
224.6818801169495
 33
0.0
 14
63.45327409866945
 24
250.7438036953403
 34
0.0
 50
90.0
100
AcDbRotatedDimension
1001
ACAD
1000
DSTYLE
1002
{
1070
    40
1040
1.0
1002
}
  0
TEXT
  5
4D19
330
1F
100
AcDbEntity
  8
文字
100
AcDbText
 10
108.2925845766051
 20
180.9720283527144
 30
0.0
 40
4.799999999999999
  1
11-1Ｃ-48.6　材料：（SUS 304  1.0t 2B)　生地
 51
15.0
  7
OKANO
100
AcDbText
  0
TEXT
  5
4D1B
330
1F
100
AcDbEntity
  8
文字
100
AcDbText
 10
107.9849832995243
 20
167.1039730558034
 30
0.0
 40
4.799999999999999
  1
重量：38g
 51
15.0
  7
OKANO
100
AcDbText
  0
DIMENSION
  5
4D26
330
1F
100
AcDbEntity
  8
寸法線
100
AcDbDimension
  2
*D6
 10
204.8855806509116
 20
243.6531974488061
 30
0.0
 11
213.4884663338816
 21
247.1531974488061
 31
0.0
 70
    32
 71
     5
 42
3.0
  3
sunpo
100
AcDbAlignedDimension
 13
201.8855806509116
 23
239.6818801169495
 33
0.0
 14
204.8855806509116
 24
239.6818801169495
 34
0.0
100
AcDbRotatedDimension
1001
ACAD
1000
DSTYLE
1002
{
1070
    40
1040
1.0
1002
}
  0
DIMENSION
  5
4D35
330
1F
100
AcDbEntity
  8
寸法線
100
AcDbDimension
  2
*D7
 10
218.3719399850772
 20
229.6818801169495
 30
0.0
 11
214.8719399850772
 21
234.6818801169495
 31
0.0
 70
    32
 71
     5
 42
10.0
  3
sunpo
100
AcDbAlignedDimension
 13
204.8855806509116
 23
239.6818801169495
 33
0.0
 14
204.8855806509116
 24
229.6818801169495
 34
0.0
 50
90.0
100
AcDbRotatedDimension
1001
ACAD
1000
DSTYLE
1002
{
1070
    40
1040
1.0
1002
}
  0
TEXT
  5
4D49
330
1F
100
AcDbEntity
  8
文字
100
AcDbText
 10
169.1159376466696
 20
204.2026539241366
 30
0.0
 40
4.799999999999999
  1
脱落防止機能（板バネ加工）
 51
15.0
  7
OKANO
100
AcDbText
  0
LEADER
  5
4D4A
330
1F
100
AcDbEntity
  8
寸法線
100
AcDbLeader
  3
sunpo
 76
     2
 10
200.515491432375
 20
232.5316779849767
 30
0.0
 10
181.0135263158863
 20
211.0464957065995
 30
0.0
1001
ACAD
1000
DSTYLE
1002
{
1070
   147
1040
1.0
1070
    77
1070
     0
1002
}
  0
XLINE
  5
4D61
330
1F
100
AcDbEntity
  8
構築線
 62
     3
100
AcDbXline
 10
43.48125840402235
 20
239.1818801169495
 30
0.0
 11
1.0
 21
0.0
 31
0.0
  0
LINE
  5
4D62
330
1F
100
AcDbEntity
  8
太線
100
AcDbLine
 10
204.8855806509116
 20
239.1818801169495
 30
0.0
 11
201.8855806509115
 21
239.1818801169495
 31
0.0
  0
DIMENSION
  5
4D7D
330
1F
100
AcDbEntity
  8
寸法線
100
AcDbDimension
  2
*D9
 10
38.9245846242793
 20
234.6162304598432
 30
0.0
 11
62.9730175848473
 21
238.1162304598432
 31
0.0
 70
    32
  1
48
 71
     5
 42
48.09686592113599
  3
sunpo
100
AcDbAlignedDimension
 13
87.0214505454153
 23
234.6818801169495
 33
0.0
 14
38.9245846242793
 24
234.6818801169495
 34
0.0
100
AcDbRotatedDimension
1001
ACAD
1000
DSTYLE
1002
{
1070
    40
1040
1.0
1002
}
  0
VIEWPORT
  5
2E
330
1B
100
AcDbEntity
 67
     1
  8
0
100
AcDbViewport
 10
162.6768644538648
 20
133.5610894007262
 30
0.0
 40
614.2817289077298
 41
294.3021788014524
 68
     2
 69
     1
 12
162.6768644538648
 22
133.5610894007262
 13
0.0
 23
0.0
 14
10.0
 24
10.0
 15
10.0
 25
10.0
 16
0.0
 26
0.0
 36
1.0
 17
0.0
 27
0.0
 37
0.0
 42
50.0
 43
0.0
 44
0.0
 45
294.3021788014524
 50
0.0
 51
0.0
 72
   100
 90
    32800
  1

281
     0
 71
     1
 74
     0
110
0.0
120
0.0
130
0.0
111
1.0
121
0.0
131
0.0
112
0.0
122
1.0
132
0.0
 79
     0
146
0.0
  0
VIEWPORT
  5
30
330
1B
100
AcDbEntity
 67
     1
  8
70-0-CON
100
AcDbViewport
 10
141.8594093064315
 20
100.3480256368386
 30
0.0
 40
261.6199023344245
 41
192.6196987113174
 68
     1
 69
     2
 12
143.3292457217994
 22
189.2008695227443
 13
0.0
 23
0.0
 14
5.0
 24
5.0
 15
10.0
 25
10.0
 16
0.0
 26
0.0
 36
1.0
 17
0.0
 27
0.0
 37
0.0
 42
50.0
 43
0.0
 44
0.0
 45
201.9726331197648
 50
0.0
 51
0.0
 72
   100
 90
    32864
  1

281
     0
 71
     1
 74
     0
110
0.0
120
0.0
130
0.0
111
1.0
121
0.0
131
0.0
112
0.0
122
1.0
132
0.0
 79
     0
146
0.0
  0
LWPOLYLINE
  5
45
330
1B
100
AcDbEntity
 67
     1
  8
50-0-CON
100
AcDbPolyline
 90
        4
 70
     1
 43
0.0
 10
11.04945813921926
 20
4.038176281179858
 10
272.2125713060605
 20
4.033520706629644
 10
273.4987754093466
 20
195.9297862125246
 10
11.04945813921926
 20
196.6578749924973
  0
LINE
  5
4A
330
1B
100
AcDbEntity
 67
     1
  8
50-0-CON
100
AcDbLine
 10
10.38768783662635
 20
100.3480256368386
 30
0.0
 11
-4.391850629656119
 21
100.3480256368386
 31
0.0
  0
LINE
  5
4B
330
1B
100
AcDbEntity
 67
     1
  8
50-0-CON
100
AcDbLine
 10
141.8594093064315
 20
197.098652626247
 30
0.0
 11
141.8594093064315
 21
202.387980773708
 31
0.0
  0
LINE
  5
4C
330
1B
100
AcDbEntity
 67
     1
  8
50-0-CON
100
AcDbLine
 10
272.4487699456857
 20
100.7888032705883
 30
0.0
 11
278.8458837249377
 21
100.7888032705883
 31
0.0
  0
LINE
  5
4D
330
1B
100
AcDbEntity
 67
     1
  8
50-0-CON
100
AcDbLine
 10
140.9770484758805
 20
4.038176281179858
 30
0.0
 11
140.9770484758805
 21
-3.455038652015446
 31
0.0
  0
ENDSEC
  0
SECTION
  2
OBJECTS
  0
DICTIONARY
  5
C
330
0
100
AcDbDictionary
281
     1
  3
ACAD_GROUP
350
D
  3
ACAD_LAYOUT
350
1A
  3
ACAD_MLINESTYLE
350
17
  3
ACAD_PLOTSETTINGS
350
19
  3
ACAD_PLOTSTYLENAME
350
E
  3
AcadDim
350
4827
  3
AcDbVariableDictionary
350
6AD
  3
DWGPROPS
350
30F
  0
DICTIONARY
  5
D
102
{ACAD_REACTORS
330
C
102
}
330
C
100
AcDbDictionary
281
     1
  0
DICTIONARY
  5
1A
102
{ACAD_REACTORS
330
C
102
}
330
C
100
AcDbDictionary
281
     1
  3
A4
350
1E
  3
Model
350
22
  0
DICTIONARY
  5
17
102
{ACAD_REACTORS
330
C
102
}
330
C
100
AcDbDictionary
281
     1
  3
Standard
350
18
  0
DICTIONARY
  5
19
102
{ACAD_REACTORS
330
C
102
}
330
C
100
AcDbDictionary
281
     1
  0
ACDBDICTIONARYWDFLT
  5
E
102
{ACAD_REACTORS
330
C
102
}
330
C
100
AcDbDictionary
281
     1
  3
Normal
350
F
100
AcDbDictionaryWithDefault
340
F
  0
XRECORD
  5
4827
102
{ACAD_REACTORS
330
C
102
}
330
C
100
AcDbXrecord
280
     1
 90
   990106
  3

 60
     0
 61
     0
 62
     1
 63
     3
 64
     0
 65
     0
 66
     0
 67
     3
 68
     1
 69
     0
 70
     0
 71
     0
 72
     0
 40
0.0
170
     0
  0
DICTIONARY
  5
6AD
102
{ACAD_REACTORS
330
C
102
}
330
C
100
AcDbDictionary
281
     1
  3
SORTENTS
350
6AE
  0
XRECORD
  5
30F
102
{ACAD_REACTORS
330
C
102
}
330
C
100
AcDbXrecord
280
     1
  1
DWGPROPS COOKIE
  2

  3

  4

  6

  7

  8

  9

300
=
301
=
302
=
303
=
304
=
305
=
306
=
307
=
308
=
309
=
 40
0.3303803125
 41
2452362.482225463
 42
2452370.969861285
  1

 90
        0
  0
LAYOUT
  5
1E
102
{ACAD_REACTORS
330
1A
102
}
330
1A
100
AcDbPlotSettings
  1

  2
none_device
  4
ISO_A4_(210.00_x_297.00_MM)
  6

 40
7.5
 41
20.0
 42
7.5
 43
20.0
 44
210.0
 45
297.0
 46
0.0
 47
0.0
 48
0.0
 49
0.0
140
0.0
141
0.0
142
1.0
143
1.0
 70
   656
 72
     1
 73
     1
 74
     5
  7

 75
    16
147
1.0
148
0.0
149
0.0
100
AcDbLayout
  1
A4
 70
     1
 71
     1
 10
-20.0
 20
-7.5
 11
277.0
 21
202.4999999999999
 12
0.0
 22
0.0
 32
0.0
 14
-4.41382938596746
 24
-3.468932611831576
 34
-0.0015258207003583
 15
278.855004473357
 25
202.394257080618
 35
0.0000000349246037
146
0.0
 13
0.0
 23
0.0
 33
0.0
 16
1.0
 26
0.0
 36
0.0
 17
0.0
 27
1.0
 37
0.0
 76
     0
330
1B
331
30
  0
LAYOUT
  5
22
102
{ACAD_REACTORS
330
1A
102
}
330
1A
100
AcDbPlotSettings
  1

  2
EPSON PM-920C
  4
A4
  6

 40
3.757083177566528
 41
14.7637300491333
 42
3.757080078125
 43
3.757080078125
 44
209.9733276367187
 45
296.9683227539062
 46
0.0
 47
0.0
 48
0.0
 49
0.0
140
0.0
141
0.0
142
1.0
143
1.0
 70
 11952
 72
     1
 73
     1
 74
     0
  7
C:\Program Files\ACAD LT 2000\Plot Styles\JOINT.ctb
 75
     0
147
1.0
148
-45.64199848979289
149
-84.48806419330498
100
AcDbLayout
  1
Model
 70
     1
 71
     0
 10
0.0
 20
0.0
 11
12.0
 21
9.0
 12
0.0
 22
0.0
 32
0.0
 14
0.0
 24
0.0
 34
0.0
 15
0.0
 25
0.0
 35
0.0
146
0.0
 13
0.0
 23
0.0
 33
0.0
 16
1.0
 26
0.0
 36
0.0
 17
0.0
 27
1.0
 37
0.0
 76
     0
330
1F
  0
MLINESTYLE
  5
18
102
{ACAD_REACTORS
330
17
102
}
330
17
100
AcDbMlineStyle
  2
STANDARD
 70
     0
  3

 62
   256
 51
90.0
 52
90.0
 71
     2
 49
0.5
 62
   256
  6
BYLAYER
 49
-0.5
 62
   256
  6
BYLAYER
  0
ACDBPLACEHOLDER
  5
F
102
{ACAD_REACTORS
330
E
102
}
330
E
  0
DICTIONARYVAR
  5
6AE
102
{ACAD_REACTORS
330
6AD
102
}
330
6AD
100
DictionaryVariables
280
     0
  1
96
  0
ENDSEC
  0
EOF
