  0
SECTION
  2
HEADER
  9
$ACADVER
  1
AC1015
  9
$ACADMAINTVER
 70
     6
  9
$DWGCODEPAGE
  3
ANSI_932
  9
$INSBASE
 10
0.0
 20
0.0
 30
0.0
  9
$EXTMIN
 10
531.0925830517213
 20
122.4171016243728
 30
0.0
  9
$EXTMAX
 10
1029.853020852653
 20
456.7396987939109
 30
0.0
  9
$LIMMIN
 10
0.0
 20
0.0
  9
$LIMMAX
 10
420.0
 20
297.0
  9
$ORTHOMODE
 70
     0
  9
$REGENMODE
 70
     1
  9
$FILLMODE
 70
     1
  9
$QTEXTMODE
 70
     0
  9
$MIRRTEXT
 70
     1
  9
$LTSCALE
 40
1.0
  9
$ATTMODE
 70
     1
  9
$TEXTSIZE
 40
5.0
  9
$TRACEWID
 40
1.0
  9
$TEXTSTYLE
  7
OKANO
  9
$CLAYER
  8
太線
  9
$CELTYPE
  6
ByLayer
  9
$CECOLOR
 62
   256
  9
$CELTSCALE
 40
1.0
  9
$DISPSILH
 70
     0
  9
$DIMSCALE
 40
0.0
  9
$DIMASZ
 40
3.0
  9
$DIMEXO
 40
2.0
  9
$DIMDLI
 40
8.0
  9
$DIMRND
 40
0.0
  9
$DIMDLE
 40
0.0
  9
$DIMEXE
 40
3.0
  9
$DIMTP
 40
0.0
  9
$DIMTM
 40
0.0
  9
$DIMTXT
 40
5.0
  9
$DIMCEN
 40
2.5
  9
$DIMTSZ
 40
0.0
  9
$DIMTOL
 70
     0
  9
$DIMLIM
 70
     0
  9
$DIMTIH
 70
     0
  9
$DIMTOH
 70
     0
  9
$DIMSE1
 70
     0
  9
$DIMSE2
 70
     0
  9
$DIMTAD
 70
     1
  9
$DIMZIN
 70
     8
  9
$DIMBLK
  1
Closed
  9
$DIMASO
 70
     1
  9
$DIMSHO
 70
     1
  9
$DIMPOST
  1

  9
$DIMAPOST
  1

  9
$DIMALT
 70
     0
  9
$DIMALTD
 70
     3
  9
$DIMALTF
 40
0.03937007874016
  9
$DIMLFAC
 40
1.0
  9
$DIMTOFL
 70
     1
  9
$DIMTVP
 40
0.0
  9
$DIMTIX
 70
     0
  9
$DIMSOXD
 70
     0
  9
$DIMSAH
 70
     0
  9
$DIMBLK1
  1

  9
$DIMBLK2
  1

  9
$DIMSTYLE
  2
sunpo
  9
$DIMCLRD
 70
     0
  9
$DIMCLRE
 70
     0
  9
$DIMCLRT
 70
     0
  9
$DIMTFAC
 40
1.0
  9
$DIMGAP
 40
1.0
  9
$DIMJUST
 70
     0
  9
$DIMSD1
 70
     0
  9
$DIMSD2
 70
     0
  9
$DIMTOLJ
 70
     0
  9
$DIMTZIN
 70
     8
  9
$DIMALTZ
 70
     0
  9
$DIMALTTZ
 70
     0
  9
$DIMUPT
 70
     0
  9
$DIMDEC
 70
     2
  9
$DIMTDEC
 70
     2
  9
$DIMALTU
 70
     2
  9
$DIMALTTD
 70
     3
  9
$DIMTXSTY
  7
OKANO
  9
$DIMAUNIT
 70
     0
  9
$DIMADEC
 70
     0
  9
$DIMALTRND
 40
0.0
  9
$DIMAZIN
 70
     0
  9
$DIMDSEP
 70
    46
  9
$DIMATFIT
 70
     3
  9
$DIMFRAC
 70
     0
  9
$DIMLDRBLK
  1
Closed
  9
$DIMLUNIT
 70
     2
  9
$DIMLWD
 70
    -2
  9
$DIMLWE
 70
    -2
  9
$DIMTMOVE
 70
     0
  9
$LUNITS
 70
     2
  9
$LUPREC
 70
     2
  9
$SKETCHINC
 40
1.0
  9
$FILLETRAD
 40
3.0
  9
$AUNITS
 70
     0
  9
$AUPREC
 70
     0
  9
$MENU
  1
.
  9
$ELEVATION
 40
0.0
  9
$PELEVATION
 40
0.0
  9
$THICKNESS
 40
0.0
  9
$LIMCHECK
 70
     0
  9
$CHAMFERA
 40
10.0
  9
$CHAMFERB
 40
10.0
  9
$CHAMFERC
 40
20.0
  9
$CHAMFERD
 40
0.0
  9
$SKPOLY
 70
     0
  9
$TDCREATE
 40
2452362.482225463
  9
$TDUCREATE
 40
2452362.107225463
  9
$TDUPDATE
 40
2456904.466938101
  9
$TDUUPDATE
 40
2456904.091938101
  9
$TDINDWG
 40
3.4639830440
  9
$TDUSRTIMER
 40
3.4639830440
  9
$USRTIMER
 70
     1
  9
$ANGBASE
 50
0.0
  9
$ANGDIR
 70
     0
  9
$PDMODE
 70
     0
  9
$PDSIZE
 40
0.0
  9
$PLINEWID
 40
0.0
  9
$SPLFRAME
 70
     0
  9
$SPLINETYPE
 70
     6
  9
$SPLINESEGS
 70
     8
  9
$HANDSEED
  5
4F75
  9
$SURFTAB1
 70
     6
  9
$SURFTAB2
 70
     6
  9
$SURFTYPE
 70
     6
  9
$SURFU
 70
     6
  9
$SURFV
 70
     6
  9
$UCSBASE
  2

  9
$UCSNAME
  2

  9
$UCSORG
 10
0.0
 20
0.0
 30
0.0
  9
$UCSXDIR
 10
1.0
 20
0.0
 30
0.0
  9
$UCSYDIR
 10
0.0
 20
1.0
 30
0.0
  9
$UCSORTHOREF
  2

  9
$UCSORTHOVIEW
 70
     0
  9
$UCSORGTOP
 10
0.0
 20
0.0
 30
0.0
  9
$UCSORGBOTTOM
 10
0.0
 20
0.0
 30
0.0
  9
$UCSORGLEFT
 10
0.0
 20
0.0
 30
0.0
  9
$UCSORGRIGHT
 10
0.0
 20
0.0
 30
0.0
  9
$UCSORGFRONT
 10
0.0
 20
0.0
 30
0.0
  9
$UCSORGBACK
 10
0.0
 20
0.0
 30
0.0
  9
$PUCSBASE
  2

  9
$PUCSNAME
  2

  9
$PUCSORG
 10
0.0
 20
0.0
 30
0.0
  9
$PUCSXDIR
 10
1.0
 20
0.0
 30
0.0
  9
$PUCSYDIR
 10
0.0
 20
1.0
 30
0.0
  9
$PUCSORTHOREF
  2

  9
$PUCSORTHOVIEW
 70
     0
  9
$PUCSORGTOP
 10
0.0
 20
0.0
 30
0.0
  9
$PUCSORGBOTTOM
 10
0.0
 20
0.0
 30
0.0
  9
$PUCSORGLEFT
 10
0.0
 20
0.0
 30
0.0
  9
$PUCSORGRIGHT
 10
0.0
 20
0.0
 30
0.0
  9
$PUCSORGFRONT
 10
0.0
 20
0.0
 30
0.0
  9
$PUCSORGBACK
 10
0.0
 20
0.0
 30
0.0
  9
$USERI1
 70
     0
  9
$USERI2
 70
     0
  9
$USERI3
 70
     0
  9
$USERI4
 70
     0
  9
$USERI5
 70
     0
  9
$USERR1
 40
0.0
  9
$USERR2
 40
0.0
  9
$USERR3
 40
0.0
  9
$USERR4
 40
0.0
  9
$USERR5
 40
0.0
  9
$WORLDVIEW
 70
     1
  9
$SHADEDGE
 70
     3
  9
$SHADEDIF
 70
    70
  9
$TILEMODE
 70
     0
  9
$MAXACTVP
 70
    64
  9
$PINSBASE
 10
0.0
 20
0.0
 30
0.0
  9
$PLIMCHECK
 70
     0
  9
$PEXTMIN
 10
-4.391850629656119
 20
-3.455038652015446
 30
0.0
  9
$PEXTMAX
 10
278.8458837249377
 20
202.387980773708
 30
0.0
  9
$PLIMMIN
 10
-20.0
 20
-7.5
  9
$PLIMMAX
 10
277.0
 20
202.4999999999999
  9
$UNITMODE
 70
     0
  9
$VISRETAIN
 70
     1
  9
$PLINEGEN
 70
     0
  9
$PSLTSCALE
 70
     1
  9
$TREEDEPTH
 70
  3020
  9
$CMLSTYLE
  2
Standard
  9
$CMLJUST
 70
     0
  9
$CMLSCALE
 40
20.0
  9
$PROXYGRAPHICS
 70
     1
  9
$MEASUREMENT
 70
     1
  9
$CELWEIGHT
370
    -1
  9
$ENDCAPS
280
     0
  9
$JOINSTYLE
280
     0
  9
$LWDISPLAY
290
     0
  9
$INSUNITS
 70
     4
  9
$HYPERLINKBASE
  1

  9
$STYLESHEET
  1

  9
$XEDIT
290
     1
  9
$CEPSNTYPE
380
     0
  9
$PSTYLEMODE
290
     1
  9
$FINGERPRINTGUID
  2
{FF7F33C3-4233-11D6-AEE0-0000F45FD7F4}
  9
$VERSIONGUID
  2
{E215DDA1-E30F-4E40-9C92-12AB90545864}
  9
$EXTNAMES
290
     1
  9
$PSVPSCALE
 40
0.0
  9
$OLESTARTUP
290
     0
  0
ENDSEC
  0
SECTION
  2
CLASSES
  0
CLASS
  1
ACDBDICTIONARYWDFLT
  2
AcDbDictionaryWithDefault
  3
AutoCAD 2000
 90
        0
280
     0
281
     0
  0
CLASS
  1
ACDBPLACEHOLDER
  2
AcDbPlaceHolder
  3
AutoCAD 2000
 90
        0
280
     0
281
     0
  0
CLASS
  1
LAYOUT
  2
AcDbLayout
  3
AutoCAD 2000
 90
        0
280
     0
281
     0
  0
CLASS
  1
DICTIONARYVAR
  2
AcDbDictionaryVar
  3
AutoCAD 2000
 90
        0
280
     0
281
     0
  0
ENDSEC
  0
SECTION
  2
TABLES
  0
TABLE
  2
VPORT
  5
8
330
0
100
AcDbSymbolTable
 70
     2
  0
VPORT
  5
4F74
330
8
100
AcDbSymbolTableRecord
100
AcDbViewportTableRecord
  2
*Active
 70
     0
 10
0.0
 20
0.0
 11
1.0
 21
1.0
 12
967.2909374510059
 22
204.9337024376905
 13
0.0
 23
0.0
 14
5.0
 24
5.0
 15
10.0
 25
10.0
 16
0.0
 26
0.0
 36
1.0
 17
0.0
 27
0.0
 37
0.0
 40
242.4798098942466
 41
1.968879668049792
 42
50.0
 43
0.0
 44
0.0
 50
0.0
 51
0.0
 71
     0
 72
   100
 73
     1
 74
     3
 75
     0
 76
     0
 77
     0
 78
     0
281
     0
 65
     1
110
0.0
120
0.0
130
0.0
111
1.0
121
0.0
131
0.0
112
0.0
122
1.0
132
0.0
 79
     0
146
0.0
  0
ENDTAB
  0
TABLE
  2
LTYPE
  5
5
330
0
100
AcDbSymbolTable
 70
     5
  0
LTYPE
  5
14
330
5
100
AcDbSymbolTableRecord
100
AcDbLinetypeTableRecord
  2
ByBlock
 70
     0
  3

 72
    65
 73
     0
 40
0.0
  0
LTYPE
  5
15
330
5
100
AcDbSymbolTableRecord
100
AcDbLinetypeTableRecord
  2
ByLayer
 70
     0
  3

 72
    65
 73
     0
 40
0.0
  0
LTYPE
  5
16
330
5
100
AcDbSymbolTableRecord
100
AcDbLinetypeTableRecord
  2
Continuous
 70
     0
  3
Solid line
 72
    65
 73
     0
 40
0.0
  0
LTYPE
  5
33
330
5
100
AcDbSymbolTableRecord
100
AcDbLinetypeTableRecord
  2
DASHED2
 70
     0
  3
Dashed (.5x) _ _ _ _ _ _ _ _ _ _ _ _ _ _ _ _ _
 72
    65
 73
     2
 40
9.524999999999998
 49
6.349999999999999
 74
     0
 49
-3.174999999999999
 74
     0
  0
LTYPE
  5
34
330
5
100
AcDbSymbolTableRecord
100
AcDbLinetypeTableRecord
  2
CENTER2
 70
     0
  3
Center (.5x) ___ _ ___ _ ___ _ ___ _ ___ _ ___
 72
    65
 73
     4
 40
28.57499999999999
 49
19.05
 74
     0
 49
-3.174999999999999
 74
     0
 49
3.174999999999999
 74
     0
 49
-3.174999999999999
 74
     0
  0
LTYPE
  5
35
330
5
100
AcDbSymbolTableRecord
100
AcDbLinetypeTableRecord
  2
PHANTOM2
 70
     0
  3
Phantom (.5x) ___ _ _ ___ _ _ ___ _ _ ___ _ _
 72
    65
 73
     6
 40
31.75
 49
15.875
 74
     0
 49
-3.174999999999999
 74
     0
 49
3.174999999999999
 74
     0
 49
-3.174999999999999
 74
     0
 49
3.174999999999999
 74
     0
 49
-3.174999999999999
 74
     0
  0
LTYPE
  5
36
330
5
100
AcDbSymbolTableRecord
100
AcDbLinetypeTableRecord
  2
HIDDEN2
 70
     0
  3
Hidden (.5x) _ _ _ _ _ _ _ _ _ _ _ _ _ _ _ _ _
 72
    65
 73
     2
 40
4.762499999999999
 49
3.174999999999999
 74
     0
 49
-1.587499999999999
 74
     0
  0
ENDTAB
  0
TABLE
  2
LAYER
  5
2
330
0
100
AcDbSymbolTable
 70
    13
  0
LAYER
  5
10
330
2
100
AcDbSymbolTableRecord
100
AcDbLayerTableRecord
  2
0
 70
     0
 62
     7
  6
Continuous
370
    -3
390
F
  0
LAYER
  5
40
330
2
100
AcDbSymbolTableRecord
100
AcDbLayerTableRecord
  2
50-0-CON
 70
     0
 62
     4
  6
Continuous
370
    50
390
F
  0
LAYER
  5
41
330
2
100
AcDbSymbolTableRecord
100
AcDbLayerTableRecord
  2
70-0-CON
 70
     0
 62
   202
  6
Continuous
370
    70
390
F
  0
LAYER
  5
4E
330
2
100
AcDbSymbolTableRecord
100
AcDbLayerTableRecord
  2
極太線
 70
     0
 62
     7
  6
Continuous
370
    70
390
F
  0
LAYER
  5
4F
330
2
100
AcDbSymbolTableRecord
100
AcDbLayerTableRecord
  2
細線
 70
     0
 62
     8
  6
Continuous
370
    18
390
F
  0
LAYER
  5
AB
330
2
100
AcDbSymbolTableRecord
100
AcDbLayerTableRecord
  2
構築線
 70
     0
 62
    -2
  6
Continuous
370
    18
390
F
  0
LAYER
  5
B8
330
2
100
AcDbSymbolTableRecord
100
AcDbLayerTableRecord
  2
太線
 70
     0
 62
     7
  6
Continuous
370
    35
390
F
  0
LAYER
  5
B9
330
2
100
AcDbSymbolTableRecord
100
AcDbLayerTableRecord
  2
寸法線
 70
     0
 62
     5
  6
Continuous
370
    18
390
F
  0
LAYER
  5
BA
330
2
100
AcDbSymbolTableRecord
100
AcDbLayerTableRecord
  2
破線
 70
     0
 62
     8
  6
HIDDEN2
370
    18
390
F
  0
LAYER
  5
BB
330
2
100
AcDbSymbolTableRecord
100
AcDbLayerTableRecord
  2
中心線
 70
     0
 62
     1
  6
CENTER2
370
    18
390
F
  0
LAYER
  5
BC
330
2
100
AcDbSymbolTableRecord
100
AcDbLayerTableRecord
  2
想像線
 70
     0
 62
     8
  6
PHANTOM2
370
    18
390
F
  0
LAYER
  5
BD
330
2
100
AcDbSymbolTableRecord
100
AcDbLayerTableRecord
  2
文字
 70
     0
 62
     7
  6
Continuous
370
    18
390
F
  0
LAYER
  5
180
330
2
100
AcDbSymbolTableRecord
100
AcDbLayerTableRecord
  2
Defpoints
 70
     0
 62
     7
  6
Continuous
290
     0
370
    -3
390
F
  0
ENDTAB
  0
TABLE
  2
STYLE
  5
3
330
0
100
AcDbSymbolTable
 70
     3
  0
STYLE
  5
11
330
3
100
AcDbSymbolTableRecord
100
AcDbTextStyleTableRecord
  2
Standard
 70
     0
 40
0.0
 41
1.0
 50
0.0
 71
     0
 42
3.0
  3
txt
  4

  0
STYLE
  5
32
330
3
100
AcDbSymbolTableRecord
100
AcDbTextStyleTableRecord
  2

 70
     1
 40
0.0
 41
1.0
 50
0.0
 71
     0
 42
2.5
  3
ltypeshp.shx
  4

  0
STYLE
  5
50
330
3
100
AcDbSymbolTableRecord
100
AcDbTextStyleTableRecord
  2
OKANO
 70
     0
 40
0.0
 41
1.0
 50
15.0
 71
     0
 42
5.0
  3
isocp.shx
  4
bigfont.shx
  0
ENDTAB
  0
TABLE
  2
VIEW
  5
6
330
0
100
AcDbSymbolTable
 70
     0
  0
ENDTAB
  0
TABLE
  2
UCS
  5
7
330
0
100
AcDbSymbolTable
 70
     0
  0
ENDTAB
  0
TABLE
  2
APPID
  5
9
330
0
100
AcDbSymbolTable
 70
     1
  0
APPID
  5
12
330
9
100
AcDbSymbolTableRecord
100
AcDbRegAppTableRecord
  2
ACAD
 70
     0
  0
ENDTAB
  0
TABLE
  2
DIMSTYLE
  5
A
330
0
100
AcDbSymbolTable
 70
     2
100
AcDbDimStyleTable
 71
     2
340
A2
340
27
  0
DIMSTYLE
105
27
330
A
100
AcDbSymbolTableRecord
100
AcDbDimStyleTableRecord
  2
ISO-25
 70
     0
 41
2.5
 42
0.625
 43
3.75
 44
1.25
 73
     0
 74
     0
 77
     1
 78
     8
140
2.5
141
2.5
143
0.03937007874016
147
0.625
171
     3
172
     1
271
     2
272
     2
274
     3
283
     0
284
     8
340
11
  0
DIMSTYLE
105
A2
102
{ACAD_REACTORS
330
4EBF
330
4ECC
330
4ED9
330
4EE6
330
4EF3
330
4F12
330
4F1F
330
4F2C
330
4F39
330
4F4F
102
}
330
A
100
AcDbSymbolTableRecord
100
AcDbDimStyleTableRecord
  2
sunpo
 70
     0
 40
0.0
 41
3.0
 42
2.0
 43
8.0
 44
3.0
 73
     0
 74
     0
 77
     1
 78
     8
140
5.0
141
2.5
143
0.03937007874016
147
1.0
171
     3
172
     1
271
     2
272
     2
274
     3
283
     0
284
     8
340
50
341
9B
342
9B
  0
ENDTAB
  0
TABLE
  2
BLOCK_RECORD
  5
1
330
0
100
AcDbSymbolTable
 70
    39
  0
BLOCK_RECORD
  5
1F
330
1
100
AcDbSymbolTableRecord
100
AcDbBlockTableRecord
  2
*Model_Space
340
22
  0
BLOCK_RECORD
  5
1B
330
1
100
AcDbSymbolTableRecord
100
AcDbBlockTableRecord
  2
*Paper_Space
340
1E
  0
BLOCK_RECORD
  5
9B
330
1
100
AcDbSymbolTableRecord
100
AcDbBlockTableRecord
  2
_Closed
340
0
102
{BLKREFS
331
4A0F
331
4A1A
331
4A1B
331
4A26
331
4A27
331
4A32
331
4A33
331
4A8A
331
4A8B
331
4A9D
331
4A9E
331
4B1B
331
4B1C
331
4B24
331
4B25
331
4B2F
331
4B30
331
4B41
331
4B42
331
4B4E
331
4B4F
331
4BC9
331
4BCA
331
4BE1
331
4BE2
331
4BF9
331
4BFA
331
4C2D
331
4C2E
331
4C62
331
4C63
331
4C78
331
4C79
331
4C91
331
4C92
331
4CA9
331
4CAA
331
4CB4
331
4CB5
331
4CDB
331
4CDC
331
4DA3
331
4DA4
331
4DC7
331
4DC8
331
4DD5
331
4DD6
331
4DF6
331
4DF7
331
4EA2
331
4EA3
331
4EAD
331
4EAE
331
4EDE
331
4EDF
331
4EEB
331
4EEC
331
4EF8
331
4EF9
331
4F03
331
4F04
331
4F0C
331
4F0D
331
4F17
331
4F18
331
4F24
331
4F25
331
4F31
331
4F32
331
4F49
331
4F4A
331
4F54
331
4F55
102
}
  0
BLOCK_RECORD
  5
1510
330
1
100
AcDbSymbolTableRecord
100
AcDbBlockTableRecord
  2
A$C10A573AC
340
0
  0
BLOCK_RECORD
  5
4EC0
330
1
100
AcDbSymbolTableRecord
100
AcDbBlockTableRecord
  2
*D29
340
0
  0
BLOCK_RECORD
  5
4ECD
330
1
100
AcDbSymbolTableRecord
100
AcDbBlockTableRecord
  2
*D30
340
0
  0
BLOCK_RECORD
  5
4EDA
330
1
100
AcDbSymbolTableRecord
100
AcDbBlockTableRecord
  2
*D31
340
0
  0
BLOCK_RECORD
  5
4EE7
330
1
100
AcDbSymbolTableRecord
100
AcDbBlockTableRecord
  2
*D32
340
0
  0
BLOCK_RECORD
  5
4EF4
330
1
100
AcDbSymbolTableRecord
100
AcDbBlockTableRecord
  2
*D33
340
0
  0
BLOCK_RECORD
  5
4F13
330
1
100
AcDbSymbolTableRecord
100
AcDbBlockTableRecord
  2
*D34
340
0
  0
BLOCK_RECORD
  5
4F20
330
1
100
AcDbSymbolTableRecord
100
AcDbBlockTableRecord
  2
*D35
340
0
  0
BLOCK_RECORD
  5
4F2D
330
1
100
AcDbSymbolTableRecord
100
AcDbBlockTableRecord
  2
*D36
340
0
  0
BLOCK_RECORD
  5
4F3A
330
1
100
AcDbSymbolTableRecord
100
AcDbBlockTableRecord
  2
*D37
340
0
  0
BLOCK_RECORD
  5
4F50
330
1
100
AcDbSymbolTableRecord
100
AcDbBlockTableRecord
  2
*D38
340
0
  0
ENDTAB
  0
ENDSEC
  0
SECTION
  2
BLOCKS
  0
BLOCK
  5
20
330
1F
100
AcDbEntity
  8
0
100
AcDbBlockBegin
  2
*Model_Space
 70
     0
 10
0.0
 20
0.0
 30
0.0
  3
*Model_Space
  1

  0
ENDBLK
  5
21
330
1F
100
AcDbEntity
  8
0
100
AcDbBlockEnd
  0
BLOCK
  5
1C
330
1B
100
AcDbEntity
 67
     1
  8
0
100
AcDbBlockBegin
  2
*Paper_Space
 70
     0
 10
0.0
 20
0.0
 30
0.0
  3
*Paper_Space
  1

  0
ENDBLK
  5
1D
330
1B
100
AcDbEntity
 67
     1
  8
0
100
AcDbBlockEnd
  0
BLOCK
  5
A0
330
9B
100
AcDbEntity
  8
0
100
AcDbBlockBegin
  2
_Closed
 70
     0
 10
0.0
 20
0.0
 30
0.0
  3
_Closed
  1

  0
LINE
  5
9C
330
9B
100
AcDbEntity
  8
0
 62
     0
370
    -2
100
AcDbLine
 10
-1.0
 20
0.1666666666666666
 30
0.0
 11
0.0
 21
0.0
 31
0.0
  0
LINE
  5
9D
330
9B
100
AcDbEntity
  8
0
 62
     0
370
    -2
100
AcDbLine
 10
0.0
 20
0.0
 30
0.0
 11
-1.0
 21
-0.1666666666666666
 31
0.0
  0
LINE
  5
9E
330
9B
100
AcDbEntity
  8
0
 62
     0
370
    -2
100
AcDbLine
 10
-1.0
 20
0.1666666666666666
 30
0.0
 11
-1.0
 21
-0.1666666666666666
 31
0.0
  0
LINE
  5
9F
330
9B
100
AcDbEntity
  8
0
 62
     0
370
    -2
100
AcDbLine
 10
0.0
 20
0.0
 30
0.0
 11
-1.0
 21
0.0
 31
0.0
  0
ENDBLK
  5
A1
330
9B
100
AcDbEntity
  8
0
100
AcDbBlockEnd
  0
BLOCK
  5
155B
330
1510
100
AcDbEntity
  8
0
100
AcDbBlockBegin
  2
A$C10A573AC
 70
     0
 10
0.0
 20
0.0
 30
0.0
  3
A$C10A573AC
  1

  0
TEXT
  5
1511
330
1510
100
AcDbEntity
  8
文字
100
AcDbText
 10
0.9844302777919438
 20
5.224957122252135
 30
0.0
 40
3.0
  1
Materal : Steel.
 51
15.0
  7
OKANO
100
AcDbText
  0
TEXT
  5
1512
330
1510
100
AcDbEntity
  8
文字
100
AcDbText
 10
-0.1141909619694843
 20
0.7500001922403499
 30
0.0
 40
3.0
  1
Surface treatment : Electro galvanized.
 51
15.0
  7
OKANO
100
AcDbText
  0
TEXT
  5
1513
330
1510
100
AcDbEntity
  8
文字
100
AcDbText
 10
-0.4901926332574931
 20
9.159967445193728
 30
0.0
 40
3.0
  1
5 TORGUE SCREW  M5-6
 51
15.0
  7
OKANO
100
AcDbText
  0
TEXT
  5
1514
330
1510
100
AcDbEntity
  8
文字
100
AcDbText
 10
1.364713526390005
 20
78.88822913323082
 30
0.0
 40
3.0
  1
Special standard,
 51
15.0
  7
OKANO
100
AcDbText
  0
TEXT
  5
1515
330
1510
100
AcDbEntity
  8
文字
100
AcDbText
 10
92.88160823408942
 20
89.92753849837379
 30
0.0
 40
3.0
  1
Screw Type
 51
15.0
  7
OKANO
100
AcDbText
  0
LINE
  5
1516
330
1510
100
AcDbEntity
  8
太線
100
AcDbLine
 10
113.9464587597784
 20
81.93930390144641
 30
0.0
 11
112.4464587597784
 21
81.93930390144641
 31
0.0
  0
LINE
  5
1517
330
1510
100
AcDbEntity
  8
太線
100
AcDbLine
 10
112.4464587597784
 20
76.9393039014464
 30
0.0
 11
121.4644995438761
 21
76.9393039014464
 31
0.0
  0
TEXT
  5
1518
330
1510
100
AcDbEntity
  8
文字
100
AcDbText
 10
93.46068240437217
 20
77.96976862235396
 30
0.0
 40
2.0
  1
17-30
 51
15.0
  7
OKANO
100
AcDbText
  0
LINE
  5
1519
330
1510
100
AcDbEntity
  8
太線
100
AcDbLine
 10
111.9464587597784
 20
81.43930390144641
 30
0.0
 11
111.9464587597784
 21
77.4393039014464
 31
0.0
  0
LINE
  5
151A
330
1510
100
AcDbEntity
  8
太線
100
AcDbLine
 10
91.94645875977846
 20
81.43930390144641
 30
0.0
 11
91.94645875977846
 21
77.43930390144639
 31
0.0
  0
LINE
  5
151B
330
1510
100
AcDbEntity
  8
太線
100
AcDbLine
 10
101.9644995438761
 20
77.4393039014464
 30
0.0
 11
101.9644995438761
 21
81.43930390144641
 31
0.0
  0
LINE
  5
151C
330
1510
100
AcDbEntity
  8
太線
100
AcDbLine
 10
92.44645875977846
 20
76.9393039014464
 30
0.0
 11
101.4644995438761
 21
76.9393039014464
 31
0.0
  0
ARC
  5
151D
330
1510
100
AcDbEntity
  8
太線
100
AcDbCircle
 10
92.44645875977846
 20
77.43930390144639
 30
0.0
 40
0.5
100
AcDbArc
 50
180.0
 51
270.0
  0
ARC
  5
151E
330
1510
100
AcDbEntity
  8
太線
100
AcDbCircle
 10
101.4644995438761
 20
77.4393039014464
 30
0.0
 40
0.5
100
AcDbArc
 50
270.0
 51
0.0
  0
ARC
  5
151F
330
1510
100
AcDbEntity
  8
太線
100
AcDbCircle
 10
112.4464587597784
 20
77.4393039014464
 30
0.0
 40
0.5
100
AcDbArc
 50
180.0
 51
270.0
  0
LINE
  5
1520
330
1510
100
AcDbEntity
  8
想像線
100
AcDbLine
 10
93.94645875977847
 20
81.93930390144641
 30
0.0
 11
99.96449954387617
 21
81.93930390144641
 31
0.0
  0
LINE
  5
1521
330
1510
100
AcDbEntity
  8
極太線
100
AcDbLine
 10
96.38762957111168
 20
85.43930390144641
 30
0.0
 11
97.50528794844525
 21
85.43930390144641
 31
0.0
  0
CIRCLE
  5
1522
330
1510
100
AcDbEntity
  8
太線
100
AcDbCircle
 10
96.94645875977847
 20
85.43930390144641
 30
0.0
 40
0.5588291886667776
  0
LINE
  5
1523
330
1510
100
AcDbEntity
  8
太線
100
AcDbLine
 10
99.46449954387617
 20
86.93930390144641
 30
0.0
 11
94.44645875977846
 21
86.93930390144641
 31
0.0
  0
LINE
  5
1524
330
1510
100
AcDbEntity
  8
太線
100
AcDbLine
 10
93.94645875977847
 20
86.43930390144641
 30
0.0
 11
93.94645875977847
 21
81.93930390144641
 31
0.0
  0
ARC
  5
1525
330
1510
100
AcDbEntity
  8
太線
100
AcDbCircle
 10
92.44645875977846
 20
81.43930390144641
 30
0.0
 40
0.5
100
AcDbArc
 50
90.0
 51
180.0
  0
LINE
  5
1526
330
1510
100
AcDbEntity
  8
太線
100
AcDbLine
 10
93.94645875977847
 20
81.93930390144641
 30
0.0
 11
92.44645875977846
 21
81.93930390144641
 31
0.0
  0
ARC
  5
1527
330
1510
100
AcDbEntity
  8
太線
100
AcDbCircle
 10
94.44645875977846
 20
86.43930390144641
 30
0.0
 40
0.5
100
AcDbArc
 50
90.0
 51
180.0
  0
LINE
  5
1528
330
1510
100
AcDbEntity
  8
太線
100
AcDbLine
 10
99.96449954387617
 20
81.93930390144641
 30
0.0
 11
99.96449954387617
 21
86.43930390144641
 31
0.0
  0
LINE
  5
1529
330
1510
100
AcDbEntity
  8
太線
100
AcDbLine
 10
101.4644995438761
 20
81.93930390144641
 30
0.0
 11
99.96449954387617
 21
81.93930390144641
 31
0.0
  0
ARC
  5
152A
330
1510
100
AcDbEntity
  8
太線
100
AcDbCircle
 10
101.4644995438761
 20
81.43930390144641
 30
0.0
 40
0.5
100
AcDbArc
 50
0.0
 51
90.0
  0
ARC
  5
152B
330
1510
100
AcDbEntity
  8
太線
100
AcDbCircle
 10
99.46449954387617
 20
86.43930390144641
 30
0.0
 40
0.5
100
AcDbArc
 50
0.0
 51
90.0
  0
LINE
  5
152C
330
1510
100
AcDbEntity
  8
極太線
100
AcDbLine
 10
96.94645875977847
 20
85.99813309011318
 30
0.0
 11
96.94645875977847
 21
84.88047471277964
 31
0.0
  0
ARC
  5
152D
330
1510
100
AcDbEntity
  8
太線
100
AcDbCircle
 10
112.4464587597784
 20
81.43930390144641
 30
0.0
 40
0.5
100
AcDbArc
 50
90.0
 51
180.0
  0
TEXT
  5
152E
330
1510
100
AcDbEntity
  8
文字
100
AcDbText
 10
134.3819212586066
 20
78.16263579228063
 30
0.0
 40
2.0
  1
101
 51
15.0
  7
OKANO
100
AcDbText
  0
TEXT
  5
152F
330
1510
100
AcDbEntity
  8
文字
100
AcDbText
 10
113.3422276612066
 20
77.96976862235396
 30
0.0
 40
2.0
  1
38-83
 51
15.0
  7
OKANO
100
AcDbText
  0
LINE
  5
1530
330
1510
100
AcDbEntity
  8
太線
100
AcDbLine
 10
141.9825403279738
 20
77.4393039014464
 30
0.0
 11
141.9825403279738
 21
81.43930390144641
 31
0.0
  0
LINE
  5
1531
330
1510
100
AcDbEntity
  8
太線
100
AcDbLine
 10
131.9644995438761
 20
81.43930390144641
 30
0.0
 11
131.9644995438761
 21
77.4393039014464
 31
0.0
  0
LINE
  5
1532
330
1510
100
AcDbEntity
  8
太線
100
AcDbLine
 10
121.9644995438761
 20
77.4393039014464
 30
0.0
 11
121.9644995438761
 21
81.43930390144641
 31
0.0
  0
ARC
  5
1533
330
1510
100
AcDbEntity
  8
太線
100
AcDbCircle
 10
121.4644995438761
 20
77.4393039014464
 30
0.0
 40
0.5
100
AcDbArc
 50
270.0
 51
0.0
  0
LINE
  5
1534
330
1510
100
AcDbEntity
  8
太線
100
AcDbLine
 10
132.4644995438761
 20
76.9393039014464
 30
0.0
 11
141.4825403279738
 21
76.9393039014464
 31
0.0
  0
ARC
  5
1535
330
1510
100
AcDbEntity
  8
太線
100
AcDbCircle
 10
132.4644995438761
 20
77.4393039014464
 30
0.0
 40
0.5
100
AcDbArc
 50
180.0
 51
270.0
  0
ARC
  5
1536
330
1510
100
AcDbEntity
  8
太線
100
AcDbCircle
 10
141.4825403279738
 20
77.4393039014464
 30
0.0
 40
0.5
100
AcDbArc
 50
270.0
 51
0.0
  0
ARC
  5
1537
330
1510
100
AcDbEntity
  8
太線
100
AcDbCircle
 10
121.4644995438761
 20
81.43930390144641
 30
0.0
 40
0.5
100
AcDbArc
 50
0.0
 51
90.0
  0
LINE
  5
1538
330
1510
100
AcDbEntity
  8
太線
100
AcDbLine
 10
119.9644995438761
 20
81.93930390144641
 30
0.0
 11
119.9644995438761
 21
86.43930390144641
 31
0.0
  0
LINE
  5
1539
330
1510
100
AcDbEntity
  8
太線
100
AcDbLine
 10
113.9464587597784
 20
86.43930390144641
 30
0.0
 11
113.9464587597784
 21
81.93930390144641
 31
0.0
  0
LINE
  5
153A
330
1510
100
AcDbEntity
  8
想像線
100
AcDbLine
 10
113.9464587597784
 20
81.93930390144641
 30
0.0
 11
119.9644995438761
 21
81.93930390144641
 31
0.0
  0
LINE
  5
153B
330
1510
100
AcDbEntity
  8
太線
100
AcDbLine
 10
121.4644995438761
 20
81.93930390144641
 30
0.0
 11
119.9644995438761
 21
81.93930390144641
 31
0.0
  0
LINE
  5
153C
330
1510
100
AcDbEntity
  8
太線
100
AcDbLine
 10
119.4644995438761
 20
86.93930390144641
 30
0.0
 11
114.4464587597784
 21
86.93930390144641
 31
0.0
  0
ARC
  5
153D
330
1510
100
AcDbEntity
  8
太線
100
AcDbCircle
 10
114.4464587597784
 20
86.43930390144641
 30
0.0
 40
0.5
100
AcDbArc
 50
90.0
 51
180.0
  0
CIRCLE
  5
153E
330
1510
100
AcDbEntity
  8
太線
100
AcDbCircle
 10
115.4464587597784
 20
85.43930390144641
 30
0.0
 40
0.5588291886667776
  0
LINE
  5
153F
330
1510
100
AcDbEntity
  8
極太線
100
AcDbLine
 10
115.4464587597784
 20
85.99813309011318
 30
0.0
 11
115.4464587597784
 21
84.88047471277964
 31
0.0
  0
LINE
  5
1540
330
1510
100
AcDbEntity
  8
極太線
100
AcDbLine
 10
114.8876295711116
 20
85.43930390144641
 30
0.0
 11
116.0052879484452
 21
85.43930390144641
 31
0.0
  0
ARC
  5
1541
330
1510
100
AcDbEntity
  8
太線
100
AcDbCircle
 10
119.4644995438761
 20
86.43930390144641
 30
0.0
 40
0.5
100
AcDbArc
 50
0.0
 51
90.0
  0
LINE
  5
1542
330
1510
100
AcDbEntity
  8
極太線
100
AcDbLine
 10
117.9056703552094
 20
85.43930390144641
 30
0.0
 11
119.0233287325429
 21
85.43930390144641
 31
0.0
  0
LINE
  5
1543
330
1510
100
AcDbEntity
  8
極太線
100
AcDbLine
 10
118.4644995438761
 20
85.99813309011318
 30
0.0
 11
118.4644995438761
 21
84.88047471277964
 31
0.0
  0
CIRCLE
  5
1544
330
1510
100
AcDbEntity
  8
太線
100
AcDbCircle
 10
118.4644995438761
 20
85.43930390144641
 30
0.0
 40
0.5588291886667776
  0
LINE
  5
1545
330
1510
100
AcDbEntity
  8
想像線
100
AcDbLine
 10
133.9644995438761
 20
81.93930390144641
 30
0.0
 11
139.9825403279738
 21
81.93930390144641
 31
0.0
  0
LINE
  5
1546
330
1510
100
AcDbEntity
  8
極太線
100
AcDbLine
 10
137.9237111393071
 20
85.43930390144641
 30
0.0
 11
139.0413695166406
 21
85.43930390144641
 31
0.0
  0
CIRCLE
  5
1547
330
1510
100
AcDbEntity
  8
太線
100
AcDbCircle
 10
138.4825403279738
 20
85.43930390144641
 30
0.0
 40
0.5588291886667776
  0
CIRCLE
  5
1548
330
1510
100
AcDbEntity
  8
太線
100
AcDbCircle
 10
138.4825403279738
 20
83.26342923362075
 30
0.0
 40
0.5588291886667776
  0
LINE
  5
1549
330
1510
100
AcDbEntity
  8
極太線
100
AcDbLine
 10
137.9237111393071
 20
83.26342923362075
 30
0.0
 11
139.0413695166406
 21
83.26342923362075
 31
0.0
  0
LINE
  5
154A
330
1510
100
AcDbEntity
  8
太線
100
AcDbLine
 10
139.4825403279738
 20
86.93930390144641
 30
0.0
 11
134.4644995438761
 21
86.93930390144641
 31
0.0
  0
LINE
  5
154B
330
1510
100
AcDbEntity
  8
太線
100
AcDbLine
 10
133.9644995438761
 20
86.43930390144641
 30
0.0
 11
133.9644995438761
 21
81.93930390144641
 31
0.0
  0
ARC
  5
154C
330
1510
100
AcDbEntity
  8
太線
100
AcDbCircle
 10
132.4644995438761
 20
81.43930390144641
 30
0.0
 40
0.5
100
AcDbArc
 50
90.0
 51
180.0
  0
LINE
  5
154D
330
1510
100
AcDbEntity
  8
太線
100
AcDbLine
 10
133.9644995438761
 20
81.93930390144641
 30
0.0
 11
132.4644995438761
 21
81.93930390144641
 31
0.0
  0
LINE
  5
154E
330
1510
100
AcDbEntity
  8
極太線
100
AcDbLine
 10
134.9056703552093
 20
83.26342923362075
 30
0.0
 11
136.0233287325429
 21
83.26342923362075
 31
0.0
  0
LINE
  5
154F
330
1510
100
AcDbEntity
  8
極太線
100
AcDbLine
 10
135.4644995438761
 20
83.82225842228752
 30
0.0
 11
135.4644995438761
 21
82.70460004495395
 31
0.0
  0
CIRCLE
  5
1550
330
1510
100
AcDbEntity
  8
太線
100
AcDbCircle
 10
135.4644995438761
 20
83.26342923362075
 30
0.0
 40
0.5588291886667776
  0
ARC
  5
1551
330
1510
100
AcDbEntity
  8
太線
100
AcDbCircle
 10
134.4644995438761
 20
86.43930390144641
 30
0.0
 40
0.5
100
AcDbArc
 50
90.0
 51
180.0
  0
CIRCLE
  5
1552
330
1510
100
AcDbEntity
  8
太線
100
AcDbCircle
 10
135.4644995438761
 20
85.43930390144641
 30
0.0
 40
0.5588291886667776
  0
LINE
  5
1553
330
1510
100
AcDbEntity
  8
極太線
100
AcDbLine
 10
135.4644995438761
 20
85.99813309011318
 30
0.0
 11
135.4644995438761
 21
84.88047471277964
 31
0.0
  0
LINE
  5
1554
330
1510
100
AcDbEntity
  8
極太線
100
AcDbLine
 10
134.9056703552093
 20
85.43930390144641
 30
0.0
 11
136.0233287325429
 21
85.43930390144641
 31
0.0
  0
LINE
  5
1555
330
1510
100
AcDbEntity
  8
太線
100
AcDbLine
 10
139.9825403279738
 20
81.93930390144641
 30
0.0
 11
139.9825403279738
 21
86.43930390144641
 31
0.0
  0
ARC
  5
1556
330
1510
100
AcDbEntity
  8
太線
100
AcDbCircle
 10
141.4825403279738
 20
81.43930390144641
 30
0.0
 40
0.5
100
AcDbArc
 50
0.0
 51
90.0
  0
LINE
  5
1557
330
1510
100
AcDbEntity
  8
極太線
100
AcDbLine
 10
138.4825403279738
 20
83.82225842228752
 30
0.0
 11
138.4825403279738
 21
82.70460004495395
 31
0.0
  0
LINE
  5
1558
330
1510
100
AcDbEntity
  8
太線
100
AcDbLine
 10
141.4825403279738
 20
81.93930390144641
 30
0.0
 11
139.9825403279738
 21
81.93930390144641
 31
0.0
  0
ARC
  5
1559
330
1510
100
AcDbEntity
  8
太線
100
AcDbCircle
 10
139.4825403279738
 20
86.43930390144641
 30
0.0
 40
0.5
100
AcDbArc
 50
0.0
 51
90.0
  0
LINE
  5
155A
330
1510
100
AcDbEntity
  8
極太線
100
AcDbLine
 10
138.4825403279738
 20
85.99813309011318
 30
0.0
 11
138.4825403279738
 21
84.88047471277964
 31
0.0
  0
ENDBLK
  5
155C
330
1510
100
AcDbEntity
  8
0
100
AcDbBlockEnd
  0
BLOCK
  5
4ECA
330
4EC0
100
AcDbEntity
  8
0
100
AcDbBlockBegin
  2
*D29
 70
     1
 10
0.0
 20
0.0
 30
0.0
  3
*D29
  1

  0
LINE
  5
4F00
330
4EC0
100
AcDbEntity
  8
寸法線
 62
     0
370
    -2
100
AcDbLine
 10
533.077249150705
 20
329.2161144629456
 30
0.0
 11
533.077249150705
 21
285.4304103688966
 31
0.0
  0
LINE
  5
4F01
330
4EC0
100
AcDbEntity
  8
寸法線
 62
     0
370
    -2
100
AcDbLine
 10
584.577249150705
 20
329.2161144629456
 30
0.0
 11
584.577249150705
 21
285.4304103688966
 31
0.0
  0
LINE
  5
4F02
330
4EC0
100
AcDbEntity
  8
寸法線
 62
     0
370
    -2
100
AcDbLine
 10
536.077249150705
 20
288.4304103688966
 30
0.0
 11
581.577249150705
 21
288.4304103688966
 31
0.0
  0
INSERT
  5
4F03
330
4EC0
100
AcDbEntity
  8
寸法線
 62
     0
370
    -2
100
AcDbBlockReference
  2
_Closed
 10
533.077249150705
 20
288.4304103688966
 30
0.0
 41
3.0
 42
3.0
 43
3.0
 50
180.0
  0
INSERT
  5
4F04
330
4EC0
100
AcDbEntity
  8
寸法線
 62
     0
370
    -2
100
AcDbBlockReference
  2
_Closed
 10
584.577249150705
 20
288.4304103688966
 30
0.0
 41
3.0
 42
3.0
 43
3.0
  0
MTEXT
  5
4F05
330
4EC0
100
AcDbEntity
  8
寸法線
 62
     0
100
AcDbMText
 10
558.827249150705
 20
291.9304103688966
 30
0.0
 40
5.0
 41
0.0
 71
     5
 72
     1
  1
51
  7
OKANO
 73
     1
 44
1.0
  0
POINT
  5
4F06
330
4EC0
100
AcDbEntity
  8
Defpoints
 62
     0
100
AcDbPoint
 10
533.077249150705
 20
331.2161144629456
 30
0.0
  0
POINT
  5
4F07
330
4EC0
100
AcDbEntity
  8
Defpoints
 62
     0
100
AcDbPoint
 10
584.577249150705
 20
331.2161144629456
 30
0.0
  0
POINT
  5
4F08
330
4EC0
100
AcDbEntity
  8
Defpoints
 62
     0
100
AcDbPoint
 10
584.577249150705
 20
288.4304103688966
 30
0.0
  0
ENDBLK
  5
4ECB
330
4EC0
100
AcDbEntity
  8
0
100
AcDbBlockEnd
  0
BLOCK
  5
4ED7
330
4ECD
100
AcDbEntity
  8
0
100
AcDbBlockBegin
  2
*D30
 70
     1
 10
0.0
 20
0.0
 30
0.0
  3
*D30
  1

  0
LINE
  5
4F09
330
4ECD
100
AcDbEntity
  8
寸法線
 62
     0
370
    -2
100
AcDbLine
 10
630.327249150705
 20
329.2161144629456
 30
0.0
 11
630.327249150705
 21
284.8417371370042
 31
0.0
  0
LINE
  5
4F0A
330
4ECD
100
AcDbEntity
  8
寸法線
 62
     0
370
    -2
100
AcDbLine
 10
687.327249150705
 20
329.2161144629456
 30
0.0
 11
687.327249150705
 21
284.8417371370042
 31
0.0
  0
LINE
  5
4F0B
330
4ECD
100
AcDbEntity
  8
寸法線
 62
     0
370
    -2
100
AcDbLine
 10
633.327249150705
 20
287.8417371370042
 30
0.0
 11
684.327249150705
 21
287.8417371370042
 31
0.0
  0
INSERT
  5
4F0C
330
4ECD
100
AcDbEntity
  8
寸法線
 62
     0
370
    -2
100
AcDbBlockReference
  2
_Closed
 10
630.327249150705
 20
287.8417371370042
 30
0.0
 41
3.0
 42
3.0
 43
3.0
 50
180.0
  0
INSERT
  5
4F0D
330
4ECD
100
AcDbEntity
  8
寸法線
 62
     0
370
    -2
100
AcDbBlockReference
  2
_Closed
 10
687.327249150705
 20
287.8417371370042
 30
0.0
 41
3.0
 42
3.0
 43
3.0
  0
MTEXT
  5
4F0E
330
4ECD
100
AcDbEntity
  8
寸法線
 62
     0
100
AcDbMText
 10
658.827249150705
 20
291.3417371370042
 30
0.0
 40
5.0
 41
0.0
 71
     5
 72
     1
  1
57.5
  7
OKANO
 73
     1
 44
1.0
  0
POINT
  5
4F0F
330
4ECD
100
AcDbEntity
  8
Defpoints
 62
     0
100
AcDbPoint
 10
630.327249150705
 20
331.2161144629456
 30
0.0
  0
POINT
  5
4F10
330
4ECD
100
AcDbEntity
  8
Defpoints
 62
     0
100
AcDbPoint
 10
687.327249150705
 20
331.2161144629456
 30
0.0
  0
POINT
  5
4F11
330
4ECD
100
AcDbEntity
  8
Defpoints
 62
     0
100
AcDbPoint
 10
687.327249150705
 20
287.8417371370042
 30
0.0
  0
ENDBLK
  5
4ED8
330
4ECD
100
AcDbEntity
  8
0
100
AcDbBlockEnd
  0
BLOCK
  5
4EE4
330
4EDA
100
AcDbEntity
  8
0
100
AcDbBlockBegin
  2
*D31
 70
     1
 10
0.0
 20
0.0
 30
0.0
  3
*D31
  1

  0
LINE
  5
4EDB
330
4EDA
100
AcDbEntity
  8
寸法線
 62
     0
370
    -2
100
AcDbLine
 10
729.327249150705
 20
329.2161144629456
 30
0.0
 11
729.327249150705
 21
285.4304103688966
 31
0.0
  0
LINE
  5
4EDC
330
4EDA
100
AcDbEntity
  8
寸法線
 62
     0
370
    -2
100
AcDbLine
 10
788.327249150705
 20
329.2161144629456
 30
0.0
 11
788.327249150705
 21
285.4304103688966
 31
0.0
  0
LINE
  5
4EDD
330
4EDA
100
AcDbEntity
  8
寸法線
 62
     0
370
    -2
100
AcDbLine
 10
732.327249150705
 20
288.4304103688966
 30
0.0
 11
785.327249150705
 21
288.4304103688966
 31
0.0
  0
INSERT
  5
4EDE
330
4EDA
100
AcDbEntity
  8
寸法線
 62
     0
370
    -2
100
AcDbBlockReference
  2
_Closed
 10
729.327249150705
 20
288.4304103688966
 30
0.0
 41
3.0
 42
3.0
 43
3.0
 50
180.0
  0
INSERT
  5
4EDF
330
4EDA
100
AcDbEntity
  8
寸法線
 62
     0
370
    -2
100
AcDbBlockReference
  2
_Closed
 10
788.327249150705
 20
288.4304103688966
 30
0.0
 41
3.0
 42
3.0
 43
3.0
  0
MTEXT
  5
4EE0
330
4EDA
100
AcDbEntity
  8
寸法線
 62
     0
100
AcDbMText
 10
758.827249150705
 20
291.9304103688966
 30
0.0
 40
5.0
 41
0.0
 71
     5
 72
     1
  1
59
  7
OKANO
 73
     1
 44
1.0
  0
POINT
  5
4EE1
330
4EDA
100
AcDbEntity
  8
Defpoints
 62
     0
100
AcDbPoint
 10
729.327249150705
 20
331.2161144629456
 30
0.0
  0
POINT
  5
4EE2
330
4EDA
100
AcDbEntity
  8
Defpoints
 62
     0
100
AcDbPoint
 10
788.327249150705
 20
331.2161144629456
 30
0.0
  0
POINT
  5
4EE3
330
4EDA
100
AcDbEntity
  8
Defpoints
 62
     0
100
AcDbPoint
 10
788.327249150705
 20
288.4304103688966
 30
0.0
  0
ENDBLK
  5
4EE5
330
4EDA
100
AcDbEntity
  8
0
100
AcDbBlockEnd
  0
BLOCK
  5
4EF1
330
4EE7
100
AcDbEntity
  8
0
100
AcDbBlockBegin
  2
*D32
 70
     1
 10
0.0
 20
0.0
 30
0.0
  3
*D32
  1

  0
LINE
  5
4EE8
330
4EE7
100
AcDbEntity
  8
寸法線
 62
     0
370
    -2
100
AcDbLine
 10
828.8272491507051
 20
378.8230306674151
 30
0.0
 11
828.8272491507051
 21
333.7015968485693
 31
0.0
  0
LINE
  5
4EE9
330
4EE7
100
AcDbEntity
  8
寸法線
 62
     0
370
    -2
100
AcDbLine
 10
888.827249150705
 20
378.8230306674151
 30
0.0
 11
888.827249150705
 21
333.7015968485693
 31
0.0
  0
LINE
  5
4EEA
330
4EE7
100
AcDbEntity
  8
寸法線
 62
     0
370
    -2
100
AcDbLine
 10
831.827249150705
 20
336.7015968485693
 30
0.0
 11
885.8272491507049
 21
336.7015968485693
 31
0.0
  0
INSERT
  5
4EEB
330
4EE7
100
AcDbEntity
  8
寸法線
 62
     0
370
    -2
100
AcDbBlockReference
  2
_Closed
 10
828.8272491507051
 20
336.7015968485693
 30
0.0
 41
3.0
 42
3.0
 43
3.0
 50
180.0
  0
INSERT
  5
4EEC
330
4EE7
100
AcDbEntity
  8
寸法線
 62
     0
370
    -2
100
AcDbBlockReference
  2
_Closed
 10
888.827249150705
 20
336.7015968485693
 30
0.0
 41
3.0
 42
3.0
 43
3.0
  0
MTEXT
  5
4EED
330
4EE7
100
AcDbEntity
  8
寸法線
 62
     0
100
AcDbMText
 10
858.827249150705
 20
340.2015968485693
 30
0.0
 40
5.0
 41
0.0
 71
     5
 72
     1
  1
60
  7
OKANO
 73
     1
 44
1.0
  0
POINT
  5
4EEE
330
4EE7
100
AcDbEntity
  8
Defpoints
 62
     0
100
AcDbPoint
 10
828.8272491507051
 20
380.8230306674151
 30
0.0
  0
POINT
  5
4EEF
330
4EE7
100
AcDbEntity
  8
Defpoints
 62
     0
100
AcDbPoint
 10
888.827249150705
 20
380.8230306674151
 30
0.0
  0
POINT
  5
4EF0
330
4EE7
100
AcDbEntity
  8
Defpoints
 62
     0
100
AcDbPoint
 10
888.827249150705
 20
336.7015968485693
 30
0.0
  0
ENDBLK
  5
4EF2
330
4EE7
100
AcDbEntity
  8
0
100
AcDbBlockEnd
  0
BLOCK
  5
4EFE
330
4EF4
100
AcDbEntity
  8
0
100
AcDbBlockBegin
  2
*D33
 70
     1
 10
0.0
 20
0.0
 30
0.0
  3
*D33
  1

  0
LINE
  5
4EF5
330
4EF4
100
AcDbEntity
  8
寸法線
 62
     0
370
    -2
100
AcDbLine
 10
928.8272491507051
 20
378.8230306674151
 30
0.0
 11
928.8272491507051
 21
332.5242510239399
 31
0.0
  0
LINE
  5
4EF6
330
4EF4
100
AcDbEntity
  8
寸法線
 62
     0
370
    -2
100
AcDbLine
 10
988.827249150705
 20
378.8230306674151
 30
0.0
 11
988.827249150705
 21
332.5242510239399
 31
0.0
  0
LINE
  5
4EF7
330
4EF4
100
AcDbEntity
  8
寸法線
 62
     0
370
    -2
100
AcDbLine
 10
931.827249150705
 20
335.52425102394
 30
0.0
 11
985.8272491507049
 21
335.52425102394
 31
0.0
  0
INSERT
  5
4EF8
330
4EF4
100
AcDbEntity
  8
寸法線
 62
     0
370
    -2
100
AcDbBlockReference
  2
_Closed
 10
928.8272491507051
 20
335.52425102394
 30
0.0
 41
3.0
 42
3.0
 43
3.0
 50
180.0
  0
INSERT
  5
4EF9
330
4EF4
100
AcDbEntity
  8
寸法線
 62
     0
370
    -2
100
AcDbBlockReference
  2
_Closed
 10
988.827249150705
 20
335.52425102394
 30
0.0
 41
3.0
 42
3.0
 43
3.0
  0
MTEXT
  5
4EFA
330
4EF4
100
AcDbEntity
  8
寸法線
 62
     0
100
AcDbMText
 10
958.827249150705
 20
339.0242510239399
 30
0.0
 40
5.0
 41
0.0
 71
     5
 72
     1
  1
60
  7
OKANO
 73
     1
 44
1.0
  0
POINT
  5
4EFB
330
4EF4
100
AcDbEntity
  8
Defpoints
 62
     0
100
AcDbPoint
 10
928.8272491507051
 20
380.8230306674151
 30
0.0
  0
POINT
  5
4EFC
330
4EF4
100
AcDbEntity
  8
Defpoints
 62
     0
100
AcDbPoint
 10
988.827249150705
 20
380.8230306674151
 30
0.0
  0
POINT
  5
4EFD
330
4EF4
100
AcDbEntity
  8
Defpoints
 62
     0
100
AcDbPoint
 10
988.827249150705
 20
335.52425102394
 30
0.0
  0
ENDBLK
  5
4EFF
330
4EF4
100
AcDbEntity
  8
0
100
AcDbBlockEnd
  0
BLOCK
  5
4F1D
330
4F13
100
AcDbEntity
  8
0
100
AcDbBlockBegin
  2
*D34
 70
     1
 10
0.0
 20
0.0
 30
0.0
  3
*D34
  1

  0
LINE
  5
4F14
330
4F13
100
AcDbEntity
  8
寸法線
 62
     0
370
    -2
100
AcDbLine
 10
586.327249150705
 20
199.5395767836676
 30
0.0
 11
602.9290595130869
 21
199.5395767836676
 31
0.0
  0
LINE
  5
4F15
330
4F13
100
AcDbEntity
  8
寸法線
 62
     0
370
    -2
100
AcDbLine
 10
560.827249150705
 20
220.5395767836675
 30
0.0
 11
602.9290595130869
 21
220.5395767836675
 31
0.0
  0
LINE
  5
4F16
330
4F13
100
AcDbEntity
  8
寸法線
 62
     0
370
    -2
100
AcDbLine
 10
599.9290595130869
 20
202.5395767836676
 30
0.0
 11
599.9290595130869
 21
217.5395767836675
 31
0.0
  0
INSERT
  5
4F17
330
4F13
100
AcDbEntity
  8
寸法線
 62
     0
370
    -2
100
AcDbBlockReference
  2
_Closed
 10
599.9290595130869
 20
199.5395767836676
 30
0.0
 41
3.0
 42
3.0
 43
3.0
 50
270.0
  0
INSERT
  5
4F18
330
4F13
100
AcDbEntity
  8
寸法線
 62
     0
370
    -2
100
AcDbBlockReference
  2
_Closed
 10
599.9290595130869
 20
220.5395767836675
 30
0.0
 41
3.0
 42
3.0
 43
3.0
 50
90.0
  0
MTEXT
  5
4F19
330
4F13
100
AcDbEntity
  8
寸法線
 62
     0
100
AcDbMText
 10
596.4285673871026
 20
210.0395767836676
 30
0.0
 40
5.0
 41
0.0
 71
     5
 72
     1
  1
21
  7
OKANO
 11
0.0000000000000001
 21
1.0
 31
0.0
 73
     1
 44
1.0
  0
POINT
  5
4F1A
330
4F13
100
AcDbEntity
  8
Defpoints
 62
     0
100
AcDbPoint
 10
584.3272491507049
 20
199.5395767836676
 30
0.0
  0
POINT
  5
4F1B
330
4F13
100
AcDbEntity
  8
Defpoints
 62
     0
100
AcDbPoint
 10
558.827249150705
 20
220.5395767836675
 30
0.0
  0
POINT
  5
4F1C
330
4F13
100
AcDbEntity
  8
Defpoints
 62
     0
100
AcDbPoint
 10
599.9290595130869
 20
220.5395767836675
 30
0.0
  0
ENDBLK
  5
4F1E
330
4F13
100
AcDbEntity
  8
0
100
AcDbBlockEnd
  0
BLOCK
  5
4F2A
330
4F20
100
AcDbEntity
  8
0
100
AcDbBlockBegin
  2
*D35
 70
     1
 10
0.0
 20
0.0
 30
0.0
  3
*D35
  1

  0
LINE
  5
4F21
330
4F20
100
AcDbEntity
  8
寸法線
 62
     0
370
    -2
100
AcDbLine
 10
690.077249150705
 20
199.5395767836676
 30
0.0
 11
708.3642877279694
 21
199.5395767836676
 31
0.0
  0
LINE
  5
4F22
330
4F20
100
AcDbEntity
  8
寸法線
 62
     0
370
    -2
100
AcDbLine
 10
660.827249150705
 20
229.5369354475791
 30
0.0
 11
708.3642877279694
 21
229.5369354475791
 31
0.0
  0
LINE
  5
4F23
330
4F20
100
AcDbEntity
  8
寸法線
 62
     0
370
    -2
100
AcDbLine
 10
705.3642877279694
 20
202.5395767836676
 30
0.0
 11
705.3642877279694
 21
226.5369354475791
 31
0.0
  0
INSERT
  5
4F24
330
4F20
100
AcDbEntity
  8
寸法線
 62
     0
370
    -2
100
AcDbBlockReference
  2
_Closed
 10
705.3642877279694
 20
199.5395767836676
 30
0.0
 41
3.0
 42
3.0
 43
3.0
 50
270.0
  0
INSERT
  5
4F25
330
4F20
100
AcDbEntity
  8
寸法線
 62
     0
370
    -2
100
AcDbBlockReference
  2
_Closed
 10
705.3642877279694
 20
229.5369354475791
 30
0.0
 41
3.0
 42
3.0
 43
3.0
 50
90.0
  0
MTEXT
  5
4F26
330
4F20
100
AcDbEntity
  8
寸法線
 62
     0
100
AcDbMText
 10
701.8642877279694
 20
214.5382561156235
 30
0.0
 40
5.0
 41
0.0
 71
     5
 72
     1
  1
30
  7
OKANO
 11
0.0000000000000001
 21
1.0
 31
0.0
 73
     1
 44
1.0
  0
POINT
  5
4F27
330
4F20
100
AcDbEntity
  8
Defpoints
 62
     0
100
AcDbPoint
 10
688.077249150705
 20
199.5395767836676
 30
0.0
  0
POINT
  5
4F28
330
4F20
100
AcDbEntity
  8
Defpoints
 62
     0
100
AcDbPoint
 10
658.827249150705
 20
229.5369354475791
 30
0.0
  0
POINT
  5
4F29
330
4F20
100
AcDbEntity
  8
Defpoints
 62
     0
100
AcDbPoint
 10
705.3642877279694
 20
229.5369354475791
 30
0.0
  0
ENDBLK
  5
4F2B
330
4F20
100
AcDbEntity
  8
0
100
AcDbBlockEnd
  0
BLOCK
  5
4F37
330
4F2D
100
AcDbEntity
  8
0
100
AcDbBlockBegin
  2
*D36
 70
     1
 10
0.0
 20
0.0
 30
0.0
  3
*D36
  1

  0
LINE
  5
4F2E
330
4F2D
100
AcDbEntity
  8
寸法線
 62
     0
370
    -2
100
AcDbLine
 10
789.827249150705
 20
199.5395767836676
 30
0.0
 11
805.5531838983265
 21
199.5395767836676
 31
0.0
  0
LINE
  5
4F2F
330
4F2D
100
AcDbEntity
  8
寸法線
 62
     0
370
    -2
100
AcDbLine
 10
760.827249150705
 20
229.5395767836676
 30
0.0
 11
805.5531838983265
 21
229.5395767836676
 31
0.0
  0
LINE
  5
4F30
330
4F2D
100
AcDbEntity
  8
寸法線
 62
     0
370
    -2
100
AcDbLine
 10
802.5531838983265
 20
202.5395767836676
 30
0.0
 11
802.5531838983265
 21
226.5395767836677
 31
0.0
  0
INSERT
  5
4F31
330
4F2D
100
AcDbEntity
  8
寸法線
 62
     0
370
    -2
100
AcDbBlockReference
  2
_Closed
 10
802.5531838983265
 20
199.5395767836676
 30
0.0
 41
3.0
 42
3.0
 43
3.0
 50
270.0
  0
INSERT
  5
4F32
330
4F2D
100
AcDbEntity
  8
寸法線
 62
     0
370
    -2
100
AcDbBlockReference
  2
_Closed
 10
802.5531838983265
 20
229.5395767836676
 30
0.0
 41
3.0
 42
3.0
 43
3.0
 50
90.0
  0
MTEXT
  5
4F33
330
4F2D
100
AcDbEntity
  8
寸法線
 62
     0
100
AcDbMText
 10
799.0531838983265
 20
214.5395767836678
 30
0.0
 40
5.0
 41
0.0
 71
     5
 72
     1
  1
30
  7
OKANO
 11
0.0000000000000001
 21
1.0
 31
0.0
 73
     1
 44
1.0
  0
POINT
  5
4F34
330
4F2D
100
AcDbEntity
  8
Defpoints
 62
     0
100
AcDbPoint
 10
787.827249150705
 20
199.5395767836676
 30
0.0
  0
POINT
  5
4F35
330
4F2D
100
AcDbEntity
  8
Defpoints
 62
     0
100
AcDbPoint
 10
758.827249150705
 20
229.5395767836676
 30
0.0
  0
POINT
  5
4F36
330
4F2D
100
AcDbEntity
  8
Defpoints
 62
     0
100
AcDbPoint
 10
802.5531838983265
 20
229.5395767836676
 30
0.0
  0
ENDBLK
  5
4F38
330
4F2D
100
AcDbEntity
  8
0
100
AcDbBlockEnd
  0
BLOCK
  5
4F44
330
4F3A
100
AcDbEntity
  8
0
100
AcDbBlockBegin
  2
*D37
 70
     1
 10
0.0
 20
0.0
 30
0.0
  3
*D37
  1

  0
LINE
  5
4F46
330
4F3A
100
AcDbEntity
  8
寸法線
 62
     0
370
    -2
100
AcDbLine
 10
889.827249150705
 20
199.5395767836676
 30
0.0
 11
912.0486269100688
 21
199.5395767836676
 31
0.0
  0
LINE
  5
4F47
330
4F3A
100
AcDbEntity
  8
寸法線
 62
     0
370
    -2
100
AcDbLine
 10
860.8272491507049
 20
292.7176841236594
 30
0.0
 11
912.0486269100688
 21
292.7176841236594
 31
0.0
  0
LINE
  5
4F48
330
4F3A
100
AcDbEntity
  8
寸法線
 62
     0
370
    -2
100
AcDbLine
 10
909.0486269100686
 20
202.5395767836676
 30
0.0
 11
909.0486269100688
 21
289.7176841236594
 31
0.0
  0
INSERT
  5
4F49
330
4F3A
100
AcDbEntity
  8
寸法線
 62
     0
370
    -2
100
AcDbBlockReference
  2
_Closed
 10
909.0486269100686
 20
199.5395767836676
 30
0.0
 41
3.0
 42
3.0
 43
3.0
 50
270.0
  0
INSERT
  5
4F4A
330
4F3A
100
AcDbEntity
  8
寸法線
 62
     0
370
    -2
100
AcDbBlockReference
  2
_Closed
 10
909.0486269100688
 20
292.7176841236594
 30
0.0
 41
3.0
 42
3.0
 43
3.0
 50
90.0
  0
MTEXT
  5
4F4B
330
4F3A
100
AcDbEntity
  8
寸法線
 62
     0
100
AcDbMText
 10
905.5486269100686
 20
246.1286304536637
 30
0.0
 40
5.0
 41
0.0
 71
     5
 72
     1
  1
95
  7
OKANO
 11
0.0000000000000001
 21
1.0
 31
0.0
 73
     1
 44
1.0
  0
POINT
  5
4F4C
330
4F3A
100
AcDbEntity
  8
Defpoints
 62
     0
100
AcDbPoint
 10
887.8272491507051
 20
199.5395767836676
 30
0.0
  0
POINT
  5
4F4D
330
4F3A
100
AcDbEntity
  8
Defpoints
 62
     0
100
AcDbPoint
 10
858.827249150705
 20
292.7176841236594
 30
0.0
  0
POINT
  5
4F4E
330
4F3A
100
AcDbEntity
  8
Defpoints
 62
     0
100
AcDbPoint
 10
909.0486269100688
 20
292.7176841236594
 30
0.0
  0
ENDBLK
  5
4F45
330
4F3A
100
AcDbEntity
  8
0
100
AcDbBlockEnd
  0
BLOCK
  5
4F5A
330
4F50
100
AcDbEntity
  8
0
100
AcDbBlockBegin
  2
*D38
 70
     1
 10
0.0
 20
0.0
 30
0.0
  3
*D38
  1

  0
LINE
  5
4F51
330
4F50
100
AcDbEntity
  8
寸法線
 62
     0
370
    -2
100
AcDbLine
 10
960.8272491507049
 20
314.5395767836677
 30
0.0
 11
1011.357998967277
 21
314.5395767836677
 31
0.0
  0
LINE
  5
4F52
330
4F50
100
AcDbEntity
  8
寸法線
 62
     0
370
    -2
100
AcDbLine
 10
990.827249150705
 20
199.5395767836677
 30
0.0
 11
1011.357998967277
 21
199.5395767836677
 31
0.0
  0
LINE
  5
4F53
330
4F50
100
AcDbEntity
  8
寸法線
 62
     0
370
    -2
100
AcDbLine
 10
1008.357998967277
 20
311.5395767836677
 30
0.0
 11
1008.357998967277
 21
202.5395767836676
 31
0.0
  0
INSERT
  5
4F54
330
4F50
100
AcDbEntity
  8
寸法線
 62
     0
370
    -2
100
AcDbBlockReference
  2
_Closed
 10
1008.357998967277
 20
314.5395767836677
 30
0.0
 41
3.0
 42
3.0
 43
3.0
 50
90.0
  0
INSERT
  5
4F55
330
4F50
100
AcDbEntity
  8
寸法線
 62
     0
370
    -2
100
AcDbBlockReference
  2
_Closed
 10
1008.357998967277
 20
199.5395767836677
 30
0.0
 41
3.0
 42
3.0
 43
3.0
 50
270.0
  0
MTEXT
  5
4F56
330
4F50
100
AcDbEntity
  8
寸法線
 62
     0
100
AcDbMText
 10
1004.857998967277
 20
257.0395767836678
 30
0.0
 40
5.0
 41
0.0
 71
     5
 72
     1
  1
115
  7
OKANO
 11
0.0000000000000001
 21
1.0
 31
0.0
 73
     1
 44
1.0
  0
POINT
  5
4F57
330
4F50
100
AcDbEntity
  8
Defpoints
 62
     0
100
AcDbPoint
 10
958.827249150705
 20
314.5395767836677
 30
0.0
  0
POINT
  5
4F58
330
4F50
100
AcDbEntity
  8
Defpoints
 62
     0
100
AcDbPoint
 10
988.827249150705
 20
199.5395767836677
 30
0.0
  0
POINT
  5
4F59
330
4F50
100
AcDbEntity
  8
Defpoints
 62
     0
100
AcDbPoint
 10
1008.357998967277
 20
199.5395767836677
 30
0.0
  0
ENDBLK
  5
4F5B
330
4F50
100
AcDbEntity
  8
0
100
AcDbBlockEnd
  0
ENDSEC
  0
SECTION
  2
ENTITIES
  0
TEXT
  5
29C2
330
1F
100
AcDbEntity
  8
文字
100
AcDbText
 10
931.827356101664
 20
126.2760686104581
 30
0.0
 40
6.24
  1
joint kogyo T.okano
 51
15.0
  7
OKANO
100
AcDbText
  0
TEXT
  5
29C3
330
1F
100
AcDbEntity
  8
文字
100
AcDbText
 10
922.0925491863283
 20
145.4541515699323
 30
0.0
 40
6.24
  1
F-999-2013603 Auto CAD
 51
15.0
  7
OKANO
100
AcDbText
  0
LINE
  5
29C4
330
1F
100
AcDbEntity
  8
太線
100
AcDbLine
 10
886.4436525502302
 20
144.2571016243728
 30
0.0
 11
1026.84365255023
 21
144.2571016243728
 31
0.0
  0
LWPOLYLINE
  5
29C5
330
1F
100
AcDbEntity
  8
太線
100
AcDbPolyline
 90
        4
 70
     1
 43
0.0
 10
886.4436525502302
 20
155.1771016243728
 10
1026.84365255023
 20
155.1771016243728
 10
1026.84365255023
 20
122.4171016243728
 10
886.4436525502302
 20
122.4171016243728
  0
TEXT
  5
29C6
330
1F
100
AcDbEntity
  8
文字
100
AcDbText
 10
891.477751186105
 20
133.6055362858669
 30
0.0
 40
3.12
  1
CHECK
 51
15.0
  7
OKANO
100
AcDbText
  0
LINE
  5
29C7
330
1F
100
AcDbEntity
  8
太線
100
AcDbLine
 10
917.6436525502301
 20
155.1771016243728
 30
0.0
 11
917.6436525502301
 21
122.4171016243728
 31
0.0
  0
TEXT
  5
29C8
330
1F
100
AcDbEntity
  8
文字
100
AcDbText
 10
891.477751186105
 20
124.6102803977864
 30
0.0
 40
3.12
  1
ISSUED
 51
15.0
  7
OKANO
100
AcDbText
  0
TEXT
  5
29C9
330
1F
100
AcDbEntity
  8
文字
100
AcDbText
 10
891.8112199488758
 20
128.9413294438349
 30
0.0
 40
3.12
  1
APPR
 51
15.0
  7
OKANO
100
AcDbText
  0
TEXT
  5
29CA
330
1F
100
AcDbEntity
  8
文字
100
AcDbText
 10
889.1434769689135
 20
146.5986826567675
 30
0.0
 40
3.12
  1
FILM NAME
 51
15.0
  7
OKANO
100
AcDbText
  0
TEXT
  5
29CB
330
1F
100
AcDbEntity
  8
文字
100
AcDbText
 10
890.810816509445
 20
138.2697423606537
 30
0.0
 40
3.12
  1
DRAWN
 51
15.0
  7
OKANO
100
AcDbText
  0
TEXT
  5
4C6B
330
1F
100
AcDbEntity
  8
文字
100
AcDbText
 10
920.9473537555233
 20
134.8490913300284
 30
0.0
 40
6.24
  1
11-1Ｃ　単管キャップ
 51
15.0
  7
OKANO
100
AcDbText
  0
XLINE
  5
4D10
330
1F
100
AcDbEntity
  8
構築線
100
AcDbXline
 10
179.9036478508089
 20
273.7161144629457
 30
0.0
 11
1.0
 21
0.0
 31
0.0
  0
LINE
  5
4D14
330
1F
100
AcDbEntity
  8
太線
100
AcDbLine
 10
928.8272491507051
 20
199.5395767836677
 30
0.0
 11
928.8272491507051
 21
244.5395767836677
 31
0.0
  0
LINE
  5
4D15
330
1F
100
AcDbEntity
  8
太線
100
AcDbLine
 10
928.8272491507051
 20
244.5395767836677
 30
0.0
 11
988.827249150705
 21
244.5395767836677
 31
0.0
  0
LINE
  5
4D16
330
1F
100
AcDbEntity
  8
太線
100
AcDbLine
 10
988.827249150705
 20
244.5395767836677
 30
0.0
 11
988.827249150705
 21
199.5395767836677
 31
0.0
  0
LINE
  5
4D17
330
1F
100
AcDbEntity
  8
太線
100
AcDbLine
 10
988.827249150705
 20
199.5395767836677
 30
0.0
 11
928.8272491507051
 21
199.5395767836677
 31
0.0
  0
ARC
  5
4D18
330
1F
100
AcDbEntity
  8
太線
100
AcDbCircle
 10
958.827249150705
 20
222.0395767836677
 30
0.0
 40
37.49999999999998
100
AcDbArc
 50
36.86989764584402
 51
66.4241172284915
  0
ARC
  5
4D29
330
1F
100
AcDbEntity
  8
太線
100
AcDbCircle
 10
958.827249150705
 20
283.5395767836677
 30
0.0
 40
24.0
100
AcDbArc
 50
98.38553864708131
 51
261.6144613529186
  0
ARC
  5
4D2A
330
1F
100
AcDbEntity
  8
太線
100
AcDbCircle
 10
958.827249150705
 20
283.5395767836677
 30
0.0
 40
31.0
100
AcDbArc
 50
298.9356193939489
 51
241.064380606051
  0
LINE
  5
4D2D
330
1F
100
AcDbEntity
  8
太線
100
AcDbLine
 10
962.327249150705
 20
314.3413624461905
 30
0.0
 11
962.327249150705
 21
252.7377911211448
 31
0.0
  0
LINE
  5
4D2E
330
1F
100
AcDbEntity
  8
太線
100
AcDbLine
 10
955.3272491507049
 20
314.3413624461905
 30
0.0
 11
955.3272491507049
 21
252.7377911211448
 31
0.0
  0
CIRCLE
  5
4D31
330
1F
100
AcDbEntity
  8
太線
100
AcDbCircle
 10
958.827249150705
 20
211.0395767836677
 30
0.0
 40
11.5
  0
CIRCLE
  5
4D34
330
1F
100
AcDbEntity
  8
太線
100
AcDbCircle
 10
958.827249150705
 20
211.0395767836677
 30
0.0
 40
8.276472678623424
  0
CIRCLE
  5
4D39
330
1F
100
AcDbEntity
  8
太線
100
AcDbCircle
 10
958.827249150705
 20
211.0395767836677
 30
0.0
 40
5.0
  0
LWPOLYLINE
  5
4D3A
330
1F
100
AcDbEntity
  8
太線
100
AcDbPolyline
 90
        6
 70
     1
 43
0.0
 10
958.827249150705
 20
216.0395767836677
 10
954.4971221317828
 20
213.5395767836677
 10
954.4971221317828
 20
208.5395767836677
 10
958.827249150705
 20
206.0395767836677
 10
963.1573761696271
 20
208.5395767836677
 10
963.1573761696271
 20
213.5395767836677
  0
ARC
  5
4D3B
330
1F
100
AcDbEntity
  8
太線
100
AcDbCircle
 10
958.827249150705
 20
222.0395767836677
 30
0.0
 40
37.49999999999998
100
AcDbArc
 50
113.5758827715084
 51
143.1301023541559
  0
ARC
  5
4D3C
330
1F
100
AcDbEntity
  8
太線
100
AcDbCircle
 10
958.827249150705
 20
283.5395767836677
 30
0.0
 40
24.0
100
AcDbArc
 50
278.3855386470813
 51
81.61446135291868
  0
ARC
  5
4D3E
330
1F
100
AcDbEntity
  8
太線
100
AcDbCircle
 10
958.827249150705
 20
255.0939811454297
 30
0.0
 40
4.219197960577302
100
AcDbArc
 50
213.9483275191789
 51
326.0516724808211
  0
ARC
  5
4D3F
330
1F
100
AcDbEntity
  8
太線
100
AcDbCircle
 10
945.2516191833282
 20
270.8741880732896
 30
0.0
 40
14.53451893235643
100
AcDbArc
 50
264.3814924759918
 51
310.3180707075175
  0
ARC
  5
4D40
330
1F
100
AcDbEntity
  8
太線
100
AcDbCircle
 10
969.598396898783
 20
262.0315255285649
 30
0.0
 40
7.034114579292825
100
AcDbArc
 50
200.3943732757995
 51
306.9412684915651
  0
LINE
  5
4D48
330
1F
100
AcDbEntity
  8
太線
100
AcDbLine
 10
729.827249150705
 20
199.5395767836676
 30
0.0
 11
729.827249150705
 21
219.8059290678098
 31
0.0
  0
LINE
  5
4D4A
330
1F
100
AcDbEntity
  8
太線
100
AcDbLine
 10
729.827249150705
 20
199.5395767836676
 30
0.0
 11
787.827249150705
 21
199.5395767836676
 31
0.0
  0
LINE
  5
4D4B
330
1F
100
AcDbEntity
  8
太線
100
AcDbLine
 10
787.827249150705
 20
199.5395767836676
 30
0.0
 11
787.827249150705
 21
219.8059290678097
 31
0.0
  0
ARC
  5
4D4C
330
1F
100
AcDbEntity
  8
太線
100
AcDbCircle
 10
758.827249150705
 20
172.977076783668
 30
0.0
 40
56.56249999999968
100
AcDbArc
 50
60.96038443191783
 51
119.039615568082
  0
CIRCLE
  5
4D4F
330
1F
100
AcDbEntity
  8
太線
100
AcDbCircle
 10
758.827249150705
 20
209.5395767836676
 30
0.0
 40
4.0
  0
ARC
  5
4D54
330
1F
100
AcDbEntity
  8
太線
100
AcDbCircle
 10
758.827249150705
 20
209.5395767836676
 30
0.0
 40
2.290644806704901
100
AcDbArc
 50
77.39202075740013
 51
102.6079792426012
  0
LINE
  5
4D59
330
1F
100
AcDbEntity
  8
太線
100
AcDbLine
 10
758.327249150705
 20
210.0395767836676
 30
0.0
 11
756.5918400985438
 21
210.0395767836676
 31
0.0
  0
LINE
  5
4D5A
330
1F
100
AcDbEntity
  8
太線
100
AcDbLine
 10
758.327249150705
 20
209.0395767836676
 30
0.0
 11
756.5918400985438
 21
209.0395767836676
 31
0.0
  0
LINE
  5
4D5B
330
1F
100
AcDbEntity
  8
太線
100
AcDbLine
 10
758.327249150705
 20
209.0395767836676
 30
0.0
 11
758.327249150705
 21
207.3041677315065
 31
0.0
  0
LINE
  5
4D5C
330
1F
100
AcDbEntity
  8
太線
100
AcDbLine
 10
759.327249150705
 20
209.0395767836676
 30
0.0
 11
759.327249150705
 21
207.3041677315065
 31
0.0
  0
LINE
  5
4D5D
330
1F
100
AcDbEntity
  8
太線
100
AcDbLine
 10
759.327249150705
 20
209.0395767836676
 30
0.0
 11
761.0626582028662
 21
209.0395767836676
 31
0.0
  0
LINE
  5
4D5E
330
1F
100
AcDbEntity
  8
太線
100
AcDbLine
 10
759.327249150705
 20
210.0395767836676
 30
0.0
 11
759.327249150705
 21
211.7749858358288
 31
0.0
  0
LINE
  5
4D5F
330
1F
100
AcDbEntity
  8
太線
100
AcDbLine
 10
759.327249150705
 20
210.0395767836676
 30
0.0
 11
761.0626582028662
 21
210.0395767836676
 31
0.0
  0
LINE
  5
4D60
330
1F
100
AcDbEntity
  8
太線
100
AcDbLine
 10
758.327249150705
 20
210.0395767836676
 30
0.0
 11
758.327249150705
 21
211.7749858358288
 31
0.0
  0
ARC
  5
4D61
330
1F
100
AcDbEntity
  8
太線
100
AcDbCircle
 10
758.827249150705
 20
209.5395767836676
 30
0.0
 40
2.290644806704901
100
AcDbArc
 50
167.3920207573994
 51
192.607979242599
  0
ARC
  5
4D62
330
1F
100
AcDbEntity
  8
太線
100
AcDbCircle
 10
758.827249150705
 20
209.5395767836676
 30
0.0
 40
2.290644806704901
100
AcDbArc
 50
257.3920207573987
 51
282.6079792425998
  0
ARC
  5
4D63
330
1F
100
AcDbEntity
  8
太線
100
AcDbCircle
 10
758.827249150705
 20
209.5395767836676
 30
0.0
 40
2.290644806704901
100
AcDbArc
 50
347.3920207574008
 51
12.60797924260056
  0
ARC
  5
4D64
330
1F
100
AcDbEntity
  8
太線
100
AcDbCircle
 10
732.827249150705
 20
219.8059290678098
 30
0.0
 40
3.0
100
AcDbArc
 50
119.039615568082
 51
180.0
  0
ARC
  5
4D65
330
1F
100
AcDbEntity
  8
太線
100
AcDbCircle
 10
784.827249150705
 20
219.8059290678097
 30
0.0
 40
3.0
100
AcDbArc
 50
0.0
 51
60.96038443191793
  0
XLINE
  5
4DF0
330
1F
100
AcDbEntity
  8
構築線
100
AcDbXline
 10
231.6894126873933
 20
246.0395767836677
 30
0.0
 11
1.0
 21
0.0
 31
0.0
  0
XLINE
  5
4DFE
330
1F
100
AcDbEntity
  8
構築線
100
AcDbXline
 10
231.6894126873933
 20
199.5395767836676
 30
0.0
 11
1.0
 21
0.0
 31
0.0
  0
CIRCLE
  5
4E03
330
1F
100
AcDbEntity
  8
太線
100
AcDbCircle
 10
658.827249150705
 20
331.2161144629456
 30
0.0
 40
28.5
  0
CIRCLE
  5
4E06
330
1F
100
AcDbEntity
  8
太線
100
AcDbCircle
 10
858.827249150705
 20
380.8230306674151
 30
0.0
 40
30.0
  0
XLINE
  5
4E13
330
1F
100
AcDbEntity
  8
構築線
100
AcDbXline
 10
558.827249150705
 20
107.6909132706921
 30
0.0
 11
0.0
 21
1.0
 31
0.0
  0
XLINE
  5
4E16
330
1F
100
AcDbEntity
  8
構築線
100
AcDbXline
 10
658.827249150705
 20
107.6909132706921
 30
0.0
 11
0.0
 21
1.0
 31
0.0
  0
LINE
  5
4E17
330
1F
100
AcDbEntity
  8
太線
100
AcDbLine
 10
533.327249150705
 20
199.5395767836676
 30
0.0
 11
584.3272491507049
 21
199.5395767836676
 31
0.0
  0
ARC
  5
4E18
330
1F
100
AcDbEntity
  8
太線
100
AcDbCircle
 10
558.827249150705
 20
153.0145767836676
 30
0.0
 40
67.52499999999995
100
AcDbArc
 50
69.59205255653674
 51
110.4079474434633
  0
LINE
  5
4E19
330
1F
100
AcDbEntity
  8
太線
100
AcDbLine
 10
533.327249150705
 20
213.4895767836678
 30
0.0
 11
533.327249150705
 21
199.5395767836676
 31
0.0
  0
LINE
  5
4E1A
330
1F
100
AcDbEntity
  8
太線
100
AcDbLine
 10
560.327249150705
 20
204.5395767836676
 30
0.0
 11
560.327249150705
 21
214.5395767836676
 31
0.0
  0
LINE
  5
4E1B
330
1F
100
AcDbEntity
  8
太線
100
AcDbLine
 10
557.327249150705
 20
214.5395767836676
 30
0.0
 11
557.327249150705
 21
204.5395767836676
 31
0.0
  0
LINE
  5
4E1C
330
1F
100
AcDbEntity
  8
破線
100
AcDbLine
 10
560.327249150705
 20
204.5395767836676
 30
0.0
 11
557.327249150705
 21
204.5395767836676
 31
0.0
  0
ARC
  5
4E1D
330
1F
100
AcDbEntity
  8
太線
100
AcDbCircle
 10
536.327249150705
 20
213.4895767836678
 30
0.0
 40
3.0
100
AcDbArc
 50
110.4079474434638
 51
180.0
  0
LINE
  5
4E1E
330
1F
100
AcDbEntity
  8
太線
100
AcDbLine
 10
560.327249150705
 20
209.5395767836675
 30
0.0
 11
557.327249150705
 21
209.5395767836675
 31
0.0
  0
LINE
  5
4E1F
330
1F
100
AcDbEntity
  8
太線
100
AcDbLine
 10
560.327249150705
 20
214.5395767836676
 30
0.0
 11
557.327249150705
 21
214.5395767836676
 31
0.0
  0
LINE
  5
4E20
330
1F
100
AcDbEntity
  8
太線
100
AcDbLine
 10
584.3272491507049
 20
199.5395767836676
 30
0.0
 11
584.3272491507049
 21
213.4895767836678
 31
0.0
  0
ARC
  5
4E21
330
1F
100
AcDbEntity
  8
太線
100
AcDbCircle
 10
581.327249150705
 20
213.4895767836678
 30
0.0
 40
3.0
100
AcDbArc
 50
0.0
 51
69.59205255653692
  0
CIRCLE
  5
4E23
330
1F
100
AcDbEntity
  8
太線
100
AcDbCircle
 10
558.827249150705
 20
331.2161144629456
 30
0.0
 40
25.75
  0
XLINE
  5
4E24
330
1F
100
AcDbEntity
  8
構築線
100
AcDbXline
 10
758.827249150705
 20
107.6909132706921
 30
0.0
 11
0.0
 21
1.0
 31
0.0
  0
XLINE
  5
4E25
330
1F
100
AcDbEntity
  8
構築線
100
AcDbXline
 10
858.827249150705
 20
107.6909132706921
 30
0.0
 11
0.0
 21
1.0
 31
0.0
  0
XLINE
  5
4E26
330
1F
100
AcDbEntity
  8
構築線
100
AcDbXline
 10
958.827249150705
 20
107.6909132706921
 30
0.0
 11
0.0
 21
1.0
 31
0.0
  0
TEXT
  5
4E28
330
1F
100
AcDbEntity
  8
文字
100
AcDbText
 10
776.3744393216373
 20
176.011164009736
 30
0.0
 40
7.0
  1
ホーロセットビスＭ-5-5（SUS）
 51
15.0
  7
OKANO
100
AcDbText
  0
LINE
  5
4E29
330
1F
100
AcDbEntity
  8
太線
100
AcDbLine
 10
833.827249150705
 20
280.6074508305779
 30
0.0
 11
857.1159311301691
 21
292.0910830350466
 31
0.0
  0
LINE
  5
4E2A
330
1F
100
AcDbEntity
  8
太線
100
AcDbLine
 10
883.827249150705
 20
280.6074508305779
 30
0.0
 11
860.538567171241
 21
292.0910830350466
 31
0.0
  0
LINE
  5
4E2B
330
1F
100
AcDbEntity
  8
太線
100
AcDbLine
 10
829.827249150705
 20
220.5395767836676
 30
0.0
 11
887.8272491507051
 21
220.5395767836676
 31
0.0
  0
LINE
  5
4E2C
330
1F
100
AcDbEntity
  8
太線
100
AcDbLine
 10
829.827249150705
 20
222.5395767836676
 30
0.0
 11
887.8272491507051
 21
222.5395767836676
 31
0.0
  0
LINE
  5
4E2D
330
1F
100
AcDbEntity
  8
太線
100
AcDbLine
 10
829.827249150705
 20
224.5395767836676
 30
0.0
 11
887.8272491507051
 21
224.5395767836676
 31
0.0
  0
LINE
  5
4E2E
330
1F
100
AcDbEntity
  8
太線
100
AcDbLine
 10
829.827249150705
 20
226.5395767836676
 30
0.0
 11
887.8272491507051
 21
226.5395767836676
 31
0.0
  0
LINE
  5
4E2F
330
1F
100
AcDbEntity
  8
太線
100
AcDbLine
 10
829.827249150705
 20
244.5395767836676
 30
0.0
 11
887.8272491507051
 21
244.5395767836676
 31
0.0
  0
LINE
  5
4E30
330
1F
100
AcDbEntity
  8
太線
100
AcDbLine
 10
863.827249150705
 20
206.5395767836676
 30
0.0
 11
887.8272491507051
 21
206.5395767836676
 31
0.0
  0
LINE
  5
4E31
330
1F
100
AcDbEntity
  8
太線
100
AcDbLine
 10
887.8272491507051
 20
204.5395767836676
 30
0.0
 11
863.827249150705
 21
204.5395767836676
 31
0.0
  0
LINE
  5
4E32
330
1F
100
AcDbEntity
  8
太線
100
AcDbLine
 10
829.827249150705
 20
200.5395767836676
 30
0.0
 11
887.8272491507051
 21
200.5395767836676
 31
0.0
  0
LINE
  5
4E33
330
1F
100
AcDbEntity
  8
太線
100
AcDbLine
 10
829.827249150705
 20
202.5395767836676
 30
0.0
 11
887.8272491507051
 21
202.5395767836676
 31
0.0
  0
LINE
  5
4E34
330
1F
100
AcDbEntity
  8
太線
100
AcDbLine
 10
887.8272491507051
 20
199.5395767836676
 30
0.0
 11
858.827249150705
 21
199.5395767836676
 31
0.0
  0
ARC
  5
4E35
330
1F
100
AcDbEntity
  8
太線
100
AcDbCircle
 10
829.827249150705
 20
241.5395767836677
 30
0.0
 40
1.0
100
AcDbArc
 50
90.0
 51
270.0
  0
ARC
  5
4E36
330
1F
100
AcDbEntity
  8
太線
 62
     3
100
AcDbCircle
 10
829.827249150705
 20
241.5395767836677
 30
0.0
 40
1.0
100
AcDbArc
 50
90.0
 51
270.0
  0
ARC
  5
4E37
330
1F
100
AcDbEntity
  8
太線
100
AcDbCircle
 10
829.827249150705
 20
241.5395767836677
 30
0.0
 40
1.0
100
AcDbArc
 50
90.0
 51
270.0
  0
ARC
  5
4E38
330
1F
100
AcDbEntity
  8
太線
 62
     3
100
AcDbCircle
 10
829.827249150705
 20
241.5395767836677
 30
0.0
 40
1.0
100
AcDbArc
 50
90.0
 51
270.0
  0
ARC
  5
4E39
330
1F
100
AcDbEntity
  8
太線
100
AcDbCircle
 10
829.827249150705
 20
241.5395767836677
 30
0.0
 40
1.0
100
AcDbArc
 50
90.0
 51
270.0
  0
LINE
  5
4E3A
330
1F
100
AcDbEntity
  8
太線
100
AcDbLine
 10
829.827249150705
 20
207.5395767836676
 30
0.0
 11
829.827249150705
 21
220.5395767836676
 31
0.0
  0
LINE
  5
4E3B
330
1F
100
AcDbEntity
  8
太線
100
AcDbLine
 10
829.827249150705
 20
204.5395767836676
 30
0.0
 11
853.8272491507051
 21
204.5395767836676
 31
0.0
  0
LINE
  5
4E3C
330
1F
100
AcDbEntity
  8
太線
100
AcDbLine
 10
829.827249150705
 20
206.5395767836676
 30
0.0
 11
853.8272491507051
 21
206.5395767836676
 31
0.0
  0
LINE
  5
4E3D
330
1F
100
AcDbEntity
  8
太線
100
AcDbLine
 10
829.827249150705
 20
199.5395767836676
 30
0.0
 11
858.827249150705
 21
199.5395767836676
 31
0.0
  0
LINE
  5
4E3E
330
1F
100
AcDbEntity
  8
太線
100
AcDbLine
 10
829.827249150705
 20
207.5395767836676
 30
0.0
 11
829.827249150705
 21
206.5395767836676
 31
0.0
  0
ARC
  5
4E3F
330
1F
100
AcDbEntity
  8
太線
100
AcDbCircle
 10
829.827249150705
 20
201.5395767836676
 30
0.0
 40
1.0
100
AcDbArc
 50
90.0
 51
270.0
  0
LINE
  5
4E40
330
1F
100
AcDbEntity
  8
太線
100
AcDbLine
 10
829.827249150705
 20
200.5395767836676
 30
0.0
 11
829.827249150705
 21
199.5395767836676
 31
0.0
  0
LINE
  5
4E41
330
1F
100
AcDbEntity
  8
太線
100
AcDbLine
 10
829.827249150705
 20
203.5395767836676
 30
0.0
 11
829.827249150705
 21
204.5395767836676
 31
0.0
  0
LINE
  5
4E42
330
1F
100
AcDbEntity
  8
太線
100
AcDbLine
 10
829.827249150705
 20
203.5395767836676
 30
0.0
 11
829.827249150705
 21
202.5395767836676
 31
0.0
  0
ARC
  5
4E43
330
1F
100
AcDbEntity
  8
太線
100
AcDbCircle
 10
829.827249150705
 20
205.5395767836676
 30
0.0
 40
1.0
100
AcDbArc
 50
90.0
 51
270.0
  0
CIRCLE
  5
4E44
330
1F
100
AcDbEntity
  8
太線
100
AcDbCircle
 10
858.827249150705
 20
207.0395767836676
 30
0.0
 40
1.990286980435485
  0
CIRCLE
  5
4E45
330
1F
100
AcDbEntity
  8
太線
100
AcDbCircle
 10
858.827249150705
 20
207.0395767836676
 30
0.0
 40
2.5
  0
LINE
  5
4E46
330
1F
100
AcDbEntity
  8
太線
100
AcDbLine
 10
854.4683502071643
 20
204.5395767836676
 30
0.0
 11
853.8272491507051
 21
204.5395767836676
 31
0.0
  0
ARC
  5
4E47
330
1F
100
AcDbEntity
  8
太線
100
AcDbCircle
 10
858.827249150705
 20
207.0395767836676
 30
0.0
 40
5.024937810560444
100
AcDbArc
 50
185.7105931374996
 51
209.8359669150938
  0
ARC
  5
4E48
330
1F
100
AcDbEntity
  8
太線
100
AcDbCircle
 10
858.827249150705
 20
207.0395767836676
 30
0.0
 40
5.024937810560444
100
AcDbArc
 50
330.1640330849061
 51
354.2894068625003
  0
LINE
  5
4E49
330
1F
100
AcDbEntity
  8
太線
100
AcDbLine
 10
863.1861480942458
 20
204.5395767836676
 30
0.0
 11
863.827249150705
 21
204.5395767836676
 31
0.0
  0
LINE
  5
4E4A
330
1F
100
AcDbEntity
  8
太線
100
AcDbLine
 10
829.827249150705
 20
226.5395767836676
 30
0.0
 11
829.827249150705
 21
240.5395767836676
 31
0.0
  0
LINE
  5
4E4B
330
1F
100
AcDbEntity
  8
太線
100
AcDbLine
 10
829.827249150705
 20
222.5395767836676
 30
0.0
 11
829.827249150705
 21
224.5395767836676
 31
0.0
  0
ARC
  5
4E4C
330
1F
100
AcDbEntity
  8
太線
100
AcDbCircle
 10
829.827249150705
 20
221.5395767836676
 30
0.0
 40
1.0
100
AcDbArc
 50
90.0
 51
270.0
  0
ARC
  5
4E4D
330
1F
100
AcDbEntity
  8
太線
100
AcDbCircle
 10
829.827249150705
 20
225.5395767836676
 30
0.0
 40
1.0
100
AcDbArc
 50
90.0
 51
270.0
  0
LINE
  5
4E4E
330
1F
100
AcDbEntity
  8
太線
100
AcDbLine
 10
845.0251201876497
 20
260.3832235977064
 30
0.0
 11
833.827249150705
 21
266.0232196802805
 31
0.0
  0
ARC
  5
4E4F
330
1F
100
AcDbEntity
  8
太線
100
AcDbCircle
 10
841.827249150705
 20
256.5395767836676
 30
0.0
 40
4.999999999999972
100
AcDbArc
 50
283.2449898088846
 51
50.23992345945164
  0
LINE
  5
4E50
330
1F
100
AcDbEntity
  8
太線
 62
     0
100
AcDbLine
 10
829.1496195522606
 20
246.2749801609458
 30
0.0
 11
842.9728255184453
 21
251.6725802985986
 31
0.0
  0
LINE
  5
4E51
330
1F
100
AcDbEntity
  8
太線
100
AcDbLine
 10
829.827249150705
 20
242.5395767836676
 30
0.0
 11
829.827249150705
 21
244.5395767836676
 31
0.0
  0
LINE
  5
4E52
330
1F
100
AcDbEntity
  8
太線
100
AcDbLine
 10
829.827249150705
 20
242.5395767836676
 30
0.0
 11
829.827249150705
 21
244.5395767836676
 31
0.0
  0
ARC
  5
4E53
330
1F
100
AcDbEntity
  8
太線
100
AcDbCircle
 10
829.827249150705
 20
245.5395767836676
 30
0.0
 40
1.0
100
AcDbArc
 50
90.0
 51
270.0
  0
ARC
  5
4E54
330
1F
100
AcDbEntity
  8
太線
100
AcDbCircle
 10
829.827249150705
 20
245.5395767836676
 30
0.0
 40
1.0
100
AcDbArc
 50
90.0
 51
270.0
  0
ARC
  5
4E55
330
1F
100
AcDbEntity
  8
太線
100
AcDbCircle
 10
838.4437024545734
 20
273.3318788713934
 30
0.0
 40
8.616587981333976
100
AcDbArc
 50
122.3957046837171
 51
237.6042953162829
  0
ARC
  5
4E56
330
1F
100
AcDbEntity
  8
太線
100
AcDbCircle
 10
887.8272491507051
 20
241.5395767836677
 30
0.0
 40
1.0
100
AcDbArc
 50
270.0
 51
90.0
  0
ARC
  5
4E57
330
1F
100
AcDbEntity
  8
太線
 62
     3
100
AcDbCircle
 10
887.8272491507051
 20
241.5395767836677
 30
0.0
 40
1.0
100
AcDbArc
 50
270.0
 51
90.0
  0
ARC
  5
4E58
330
1F
100
AcDbEntity
  8
太線
100
AcDbCircle
 10
887.8272491507051
 20
241.5395767836677
 30
0.0
 40
1.0
100
AcDbArc
 50
270.0
 51
90.0
  0
ARC
  5
4E59
330
1F
100
AcDbEntity
  8
太線
 62
     3
100
AcDbCircle
 10
887.8272491507051
 20
241.5395767836677
 30
0.0
 40
1.0
100
AcDbArc
 50
270.0
 51
90.0
  0
ARC
  5
4E5A
330
1F
100
AcDbEntity
  8
太線
100
AcDbCircle
 10
887.8272491507051
 20
241.5395767836677
 30
0.0
 40
1.0
100
AcDbArc
 50
270.0
 51
90.0
  0
LINE
  5
4E5B
330
1F
100
AcDbEntity
  8
太線
100
AcDbLine
 10
887.8272491507051
 20
207.5395767836676
 30
0.0
 11
887.8272491507051
 21
220.5395767836676
 31
0.0
  0
LINE
  5
4E5C
330
1F
100
AcDbEntity
  8
太線
100
AcDbLine
 10
887.8272491507051
 20
207.5395767836676
 30
0.0
 11
887.8272491507051
 21
206.5395767836676
 31
0.0
  0
ARC
  5
4E5D
330
1F
100
AcDbEntity
  8
太線
100
AcDbCircle
 10
887.8272491507051
 20
201.5395767836676
 30
0.0
 40
1.0
100
AcDbArc
 50
270.0
 51
90.0
  0
LINE
  5
4E5E
330
1F
100
AcDbEntity
  8
太線
 62
     3
100
AcDbLine
 10
887.8272491507051
 20
199.5395767836676
 30
0.0
 11
887.8272491507051
 21
200.5395767836676
 31
0.0
  0
LINE
  5
4E5F
330
1F
100
AcDbEntity
  8
太線
100
AcDbLine
 10
887.8272491507051
 20
199.5395767836676
 30
0.0
 11
887.8272491507051
 21
200.5395767836676
 31
0.0
  0
LINE
  5
4E60
330
1F
100
AcDbEntity
  8
太線
100
AcDbLine
 10
887.8272491507051
 20
203.5395767836676
 30
0.0
 11
887.8272491507051
 21
204.5395767836676
 31
0.0
  0
LINE
  5
4E61
330
1F
100
AcDbEntity
  8
太線
100
AcDbLine
 10
887.8272491507051
 20
203.5395767836676
 30
0.0
 11
887.8272491507051
 21
202.5395767836676
 31
0.0
  0
ARC
  5
4E62
330
1F
100
AcDbEntity
  8
太線
100
AcDbCircle
 10
887.8272491507051
 20
205.5395767836676
 30
0.0
 40
1.0
100
AcDbArc
 50
270.0
 51
90.0
  0
LINE
  5
4E63
330
1F
100
AcDbEntity
  8
破線
 62
     3
100
AcDbLine
 10
883.827249150705
 20
221.5395767836676
 30
0.0
 11
882.827249150705
 21
221.5395767836676
 31
0.0
  0
LINE
  5
4E64
330
1F
100
AcDbEntity
  8
破線
100
AcDbLine
 10
883.827249150705
 20
221.5395767836676
 30
0.0
 11
882.827249150705
 21
221.5395767836676
 31
0.0
  0
LINE
  5
4E65
330
1F
100
AcDbEntity
  8
太線
100
AcDbLine
 10
887.8272491507051
 20
226.5395767836676
 30
0.0
 11
887.8272491507051
 21
240.5395767836676
 31
0.0
  0
LINE
  5
4E66
330
1F
100
AcDbEntity
  8
太線
100
AcDbLine
 10
887.8272491507051
 20
222.5395767836676
 30
0.0
 11
887.8272491507051
 21
224.5395767836676
 31
0.0
  0
ARC
  5
4E67
330
1F
100
AcDbEntity
  8
太線
100
AcDbCircle
 10
887.8272491507051
 20
221.5395767836676
 30
0.0
 40
1.0
100
AcDbArc
 50
270.0
 51
90.0
  0
ARC
  5
4E68
330
1F
100
AcDbEntity
  8
太線
100
AcDbCircle
 10
887.8272491507051
 20
225.5395767836676
 30
0.0
 40
1.0
100
AcDbArc
 50
270.0
 51
90.0
  0
LINE
  5
4E69
330
1F
100
AcDbEntity
  8
太線
100
AcDbLine
 10
872.6293781137604
 20
260.3832235977064
 30
0.0
 11
883.827249150705
 21
266.0232196802805
 31
0.0
  0
LINE
  5
4E6A
330
1F
100
AcDbEntity
  8
太線
 62
     0
100
AcDbLine
 10
888.5048787491493
 20
246.2749801609458
 30
0.0
 11
874.6816727829648
 21
251.6725802985986
 31
0.0
  0
ARC
  5
4E6B
330
1F
100
AcDbEntity
  8
太線
100
AcDbCircle
 10
875.827249150705
 20
256.5395767836676
 30
0.0
 40
4.999999999999972
100
AcDbArc
 50
129.7600765405483
 51
256.7550101911153
  0
LINE
  5
4E6C
330
1F
100
AcDbEntity
  8
太線
100
AcDbLine
 10
887.8272491507051
 20
242.5395767836676
 30
0.0
 11
887.8272491507051
 21
244.5395767836676
 31
0.0
  0
LINE
  5
4E6D
330
1F
100
AcDbEntity
  8
太線
100
AcDbLine
 10
887.8272491507051
 20
242.5395767836676
 30
0.0
 11
887.8272491507051
 21
244.5395767836676
 31
0.0
  0
ARC
  5
4E6E
330
1F
100
AcDbEntity
  8
太線
100
AcDbCircle
 10
887.8272491507051
 20
245.5395767836676
 30
0.0
 40
1.0
100
AcDbArc
 50
270.0
 51
90.0
  0
ARC
  5
4E6F
330
1F
100
AcDbEntity
  8
太線
100
AcDbCircle
 10
887.8272491507051
 20
245.5395767836676
 30
0.0
 40
1.0
100
AcDbArc
 50
270.0
 51
90.0
  0
ARC
  5
4E70
330
1F
100
AcDbEntity
  8
太線
100
AcDbCircle
 10
879.2107958468365
 20
273.3318788713934
 30
0.0
 40
8.616587981333976
100
AcDbArc
 50
302.3957046837169
 51
57.60429531628282
  0
ARC
  5
4E71
330
1F
100
AcDbEntity
  8
太線
100
AcDbCircle
 10
858.8272491507098
 20
290.06748262223
 30
0.0
 40
2.650201501429421
100
AcDbArc
 50
49.77947314195056
 51
130.220526857669
  0
CIRCLE
  5
4E85
330
1F
100
AcDbEntity
  8
太線
100
AcDbCircle
 10
958.827249150705
 20
380.8230306674151
 30
0.0
 40
30.0
  0
ARC
  5
4E86
330
1F
100
AcDbEntity
  8
太線
100
AcDbCircle
 10
958.827249150705
 20
380.8230306674151
 30
0.0
 40
35.0
100
AcDbArc
 50
250.8179100570947
 51
289.1820899429053
  0
LINE
  5
4E87
330
1F
100
AcDbEntity
  8
太線
100
AcDbLine
 10
947.3272491507049
 20
351.1793129518518
 30
0.0
 11
947.3272491507049
 21
347.766261315284
 31
0.0
  0
ARC
  5
4E88
330
1F
100
AcDbEntity
  8
太線
100
AcDbCircle
 10
944.327249150705
 20
351.1793129518518
 30
0.0
 40
3.0
100
AcDbArc
 50
0.0
 51
63.93478151742286
  0
ARC
  5
4E89
330
1F
100
AcDbEntity
  8
太線
100
AcDbCircle
 10
973.3272491507049
 20
351.1793129518519
 30
0.0
 40
3.0
100
AcDbArc
 50
116.0652184825776
 51
180.0
  0
LINE
  5
4E8A
330
1F
100
AcDbEntity
  8
太線
100
AcDbLine
 10
970.327249150705
 20
351.1793129518519
 30
0.0
 11
970.327249150705
 21
347.766261315284
 31
0.0
  0
CIRCLE
  5
4E8B
330
1F
100
AcDbEntity
  8
太線
100
AcDbCircle
 10
758.827249150705
 20
331.2161144629456
 30
0.0
 40
29.5
  0
LINE
  5
4E8C
330
1F
100
AcDbEntity
  8
太線
100
AcDbLine
 10
630.577249150705
 20
199.5395767836677
 30
0.0
 11
688.077249150705
 21
199.5395767836677
 31
0.0
  0
ARC
  5
4E8D
330
1F
100
AcDbEntity
  8
太線
100
AcDbCircle
 10
659.327249150705
 20
182.2137219371104
 30
0.0
 40
47.32585484655729
100
AcDbArc
 50
54.48436705394501
 51
125.5156329460551
  0
LINE
  5
4E8E
330
1F
100
AcDbEntity
  8
太線
100
AcDbLine
 10
659.827249150705
 20
209.0395767836677
 30
0.0
 11
659.827249150705
 21
207.3041677315065
 31
0.0
  0
LINE
  5
4E8F
330
1F
100
AcDbEntity
  8
太線
100
AcDbLine
 10
658.827249150705
 20
209.0395767836677
 30
0.0
 11
658.827249150705
 21
207.3041677315065
 31
0.0
  0
CIRCLE
  5
4E90
330
1F
100
AcDbEntity
  8
太線
100
AcDbCircle
 10
659.327249150705
 20
209.5395767836677
 30
0.0
 40
4.0
  0
LINE
  5
4E91
330
1F
100
AcDbEntity
  8
太線
100
AcDbLine
 10
630.577249150705
 20
199.5395767836677
 30
0.0
 11
630.577249150705
 21
218.2930637808589
 31
0.0
  0
ARC
  5
4E92
330
1F
100
AcDbEntity
  8
太線
100
AcDbCircle
 10
659.327249150705
 20
209.5395767836677
 30
0.0
 40
2.290644806704901
100
AcDbArc
 50
257.3920207573987
 51
282.6079792425998
  0
ARC
  5
4E93
330
1F
100
AcDbEntity
  8
太線
100
AcDbCircle
 10
633.577249150705
 20
218.2930637808589
 30
0.0
 40
3.0
100
AcDbArc
 50
125.5156329460553
 51
180.0
  0
LINE
  5
4E94
330
1F
100
AcDbEntity
  8
太線
100
AcDbLine
 10
659.827249150705
 20
210.0395767836677
 30
0.0
 11
661.5626582028662
 21
210.0395767836677
 31
0.0
  0
LINE
  5
4E95
330
1F
100
AcDbEntity
  8
太線
100
AcDbLine
 10
659.827249150705
 20
209.0395767836677
 30
0.0
 11
661.5626582028662
 21
209.0395767836677
 31
0.0
  0
ARC
  5
4E96
330
1F
100
AcDbEntity
  8
太線
100
AcDbCircle
 10
659.327249150705
 20
209.5395767836677
 30
0.0
 40
2.290644806704901
100
AcDbArc
 50
77.39202075740013
 51
102.6079792426012
  0
ARC
  5
4E97
330
1F
100
AcDbEntity
  8
太線
100
AcDbCircle
 10
659.327249150705
 20
209.5395767836677
 30
0.0
 40
2.290644806704901
100
AcDbArc
 50
167.3920207573994
 51
192.607979242599
  0
LINE
  5
4E98
330
1F
100
AcDbEntity
  8
太線
100
AcDbLine
 10
658.827249150705
 20
209.0395767836677
 30
0.0
 11
657.0918400985438
 21
209.0395767836677
 31
0.0
  0
LINE
  5
4E99
330
1F
100
AcDbEntity
  8
太線
100
AcDbLine
 10
658.827249150705
 20
210.0395767836677
 30
0.0
 11
657.0918400985438
 21
210.0395767836677
 31
0.0
  0
LINE
  5
4E9A
330
1F
100
AcDbEntity
  8
太線
100
AcDbLine
 10
658.827249150705
 20
210.0395767836677
 30
0.0
 11
658.827249150705
 21
211.7749858358288
 31
0.0
  0
LINE
  5
4E9B
330
1F
100
AcDbEntity
  8
太線
100
AcDbLine
 10
659.827249150705
 20
210.0395767836677
 30
0.0
 11
659.827249150705
 21
211.7749858358288
 31
0.0
  0
ARC
  5
4E9C
330
1F
100
AcDbEntity
  8
太線
100
AcDbCircle
 10
659.327249150705
 20
209.5395767836677
 30
0.0
 40
2.290644806704901
100
AcDbArc
 50
347.3920207574008
 51
12.60797924260056
  0
LINE
  5
4E9D
330
1F
100
AcDbEntity
  8
太線
100
AcDbLine
 10
688.077249150705
 20
199.5395767836677
 30
0.0
 11
688.077249150705
 21
218.293063780859
 31
0.0
  0
ARC
  5
4E9E
330
1F
100
AcDbEntity
  8
太線
100
AcDbCircle
 10
685.077249150705
 20
218.293063780859
 30
0.0
 40
3.0
100
AcDbArc
 50
0.0
 51
54.48436705394512
  0
XLINE
  5
4EA8
330
1F
100
AcDbEntity
  8
構築線
100
AcDbXline
 10
391.5501647134035
 20
-65.86720336247026
 30
0.0
 11
1.0
 21
0.0
 31
0.0
  0
XLINE
  5
4EB1
330
1F
100
AcDbEntity
  8
構築線
100
AcDbXline
 10
905.244688234071
 20
380.8230306674151
 30
0.0
 11
1.0
 21
0.0
 31
0.0
  0
TEXT
  5
4EB3
330
1F
100
AcDbEntity
  8
文字
100
AcDbText
 10
581.0370103378388
 20
412.3688535045294
 30
0.0
 40
10.0
  1
11-1Ｃ　キャップ
 51
15.0
  7
OKANO
100
AcDbText
  0
TEXT
  5
4EB4
330
1F
100
AcDbEntity
  8
文字
100
AcDbText
 10
527.5829641084879
 20
384.7388574685816
 30
0.0
 40
10.0
  1
11-1Ｃ-48.6　
 51
15.0
  7
OKANO
100
AcDbText
  0
TEXT
  5
4EB5
330
1F
100
AcDbEntity
  8
文字
100
AcDbText
 10
628.3724676506437
 20
385.9524664289454
 30
0.0
 40
10.0
  1
11-1Ｃ-Z
 51
15.0
  7
OKANO
100
AcDbText
  0
TEXT
  5
4EB6
330
1F
100
AcDbEntity
  8
文字
100
AcDbText
 10
734.0192982092453
 20
388.3796837105171
 30
0.0
 40
10.0
  1
11-1Ｃ-D
 51
15.0
  7
OKANO
100
AcDbText
  0
TEXT
  5
4EB7
330
1F
100
AcDbEntity
  8
文字
100
AcDbText
 10
829.7571622824028
 20
441.1716559095593
 30
0.0
 40
10.0
  1
11-1Ｃ-G
 51
15.0
  7
OKANO
100
AcDbText
  0
TEXT
  5
4EB8
330
1F
100
AcDbEntity
  8
文字
100
AcDbText
 10
936.0111581245583
 20
447.2396987939109
 30
0.0
 40
10.0
  1
11-1Ｃ-O
 51
15.0
  7
OKANO
100
AcDbText
  0
TEXT
  5
4EB9
330
1F
100
AcDbEntity
  8
文字
100
AcDbText
 10
534.2617869755954
 20
371.9959681784298
 30
0.0
 40
10.0
  1
ステンレス
 51
15.0
  7
OKANO
100
AcDbText
  0
TEXT
  5
4EBA
330
1F
100
AcDbEntity
  8
文字
100
AcDbText
 10
630.8011311588666
 20
368.3551419364941
 30
0.0
 40
10.0
  1
亜鉛合金
 51
15.0
  7
OKANO
100
AcDbText
  0
TEXT
  5
4EBB
330
1F
100
AcDbEntity
  8
文字
100
AcDbText
 10
732.19780117158
 20
371.995967539274
 30
0.0
 40
10.0
  1
ダクタイル
 51
15.0
  7
OKANO
100
AcDbText
  0
TEXT
  5
4EBC
330
1F
100
AcDbEntity
  8
文字
100
AcDbText
 10
801.22037496331
 20
425.3947445380759
 30
0.0
 40
10.0
  1
擬宝珠：ダクタイル
 51
15.0
  7
OKANO
100
AcDbText
  0
TEXT
  5
4EBD
330
1F
100
AcDbEntity
  8
文字
100
AcDbText
 10
921.4391818232348
 20
424.7879403774719
 30
0.0
 40
10.0
  1
王冠：ダクタイル
 51
15.0
  7
OKANO
100
AcDbText
  0
XLINE
  5
4EBE
330
1F
100
AcDbEntity
  8
構築線
100
AcDbXline
 10
558.827249150705
 20
331.2161144629456
 30
0.0
 11
1.0
 21
0.0
 31
0.0
  0
DIMENSION
  5
4EBF
330
1F
100
AcDbEntity
  8
寸法線
100
AcDbDimension
  2
*D29
 10
584.577249150705
 20
288.4304103688966
 30
0.0
 11
558.827249150705
 21
291.9304103688966
 31
0.0
 70
    32
  1
51
 71
     5
 42
51.5
  3
sunpo
100
AcDbAlignedDimension
 13
533.077249150705
 23
331.2161144629456
 33
0.0
 14
584.577249150705
 24
331.2161144629456
 34
0.0
100
AcDbRotatedDimension
1001
ACAD
1000
DSTYLE
1002
{
1070
    40
1040
1.0
1002
}
  0
DIMENSION
  5
4ECC
330
1F
100
AcDbEntity
  8
寸法線
100
AcDbDimension
  2
*D30
 10
687.327249150705
 20
287.8417371370042
 30
0.0
 11
658.827249150705
 21
291.3417371370042
 31
0.0
 70
    32
  1
57.5
 71
     5
 42
57.0
  3
sunpo
100
AcDbAlignedDimension
 13
630.327249150705
 23
331.2161144629456
 33
0.0
 14
687.327249150705
 24
331.2161144629456
 34
0.0
100
AcDbRotatedDimension
1001
ACAD
1000
DSTYLE
1002
{
1070
    40
1040
1.0
1002
}
  0
DIMENSION
  5
4ED9
330
1F
100
AcDbEntity
  8
寸法線
100
AcDbDimension
  2
*D31
 10
788.327249150705
 20
288.4304103688966
 30
0.0
 11
758.827249150705
 21
291.9304103688966
 31
0.0
 70
    32
 71
     5
 42
59.0
  3
sunpo
100
AcDbAlignedDimension
 13
729.327249150705
 23
331.2161144629456
 33
0.0
 14
788.327249150705
 24
331.2161144629456
 34
0.0
100
AcDbRotatedDimension
1001
ACAD
1000
DSTYLE
1002
{
1070
    40
1040
1.0
1002
}
  0
DIMENSION
  5
4EE6
330
1F
100
AcDbEntity
  8
寸法線
100
AcDbDimension
  2
*D32
 10
888.827249150705
 20
336.7015968485693
 30
0.0
 11
858.827249150705
 21
340.2015968485693
 31
0.0
 70
    32
 71
     5
 42
60.0
  3
sunpo
100
AcDbAlignedDimension
 13
828.8272491507051
 23
380.8230306674151
 33
0.0
 14
888.827249150705
 24
380.8230306674151
 34
0.0
100
AcDbRotatedDimension
1001
ACAD
1000
DSTYLE
1002
{
1070
    40
1040
1.0
1002
}
  0
DIMENSION
  5
4EF3
330
1F
100
AcDbEntity
  8
寸法線
100
AcDbDimension
  2
*D33
 10
988.827249150705
 20
335.52425102394
 30
0.0
 11
958.827249150705
 21
339.0242510239399
 31
0.0
 70
    32
 71
     5
 42
60.0
  3
sunpo
100
AcDbAlignedDimension
 13
928.8272491507051
 23
380.8230306674151
 33
0.0
 14
988.827249150705
 24
380.8230306674151
 34
0.0
100
AcDbRotatedDimension
1001
ACAD
1000
DSTYLE
1002
{
1070
    40
1040
1.0
1002
}
  0
DIMENSION
  5
4F12
330
1F
100
AcDbEntity
  8
寸法線
100
AcDbDimension
  2
*D34
 10
599.9290595130869
 20
220.5395767836675
 30
0.0
 11
596.4285673871026
 21
210.0395767836676
 31
0.0
 70
    32
 71
     5
 42
20.99999999999994
  3
sunpo
100
AcDbAlignedDimension
 13
584.3272491507049
 23
199.5395767836676
 33
0.0
 14
558.827249150705
 24
220.5395767836675
 34
0.0
 50
90.0
100
AcDbRotatedDimension
1001
ACAD
1000
DSTYLE
1002
{
1070
    40
1040
1.0
1002
}
  0
DIMENSION
  5
4F1F
330
1F
100
AcDbEntity
  8
寸法線
100
AcDbDimension
  2
*D35
 10
705.3642877279694
 20
229.5369354475791
 30
0.0
 11
701.8642877279694
 21
214.5382561156235
 31
0.0
 70
    32
 71
     5
 42
29.99735866391151
  3
sunpo
100
AcDbAlignedDimension
 13
688.077249150705
 23
199.5395767836676
 33
0.0
 14
658.827249150705
 24
229.5369354475791
 34
0.0
 50
90.0
100
AcDbRotatedDimension
1001
ACAD
1000
DSTYLE
1002
{
1070
    40
1040
1.0
1002
}
  0
DIMENSION
  5
4F2C
330
1F
100
AcDbEntity
  8
寸法線
100
AcDbDimension
  2
*D36
 10
802.5531838983265
 20
229.5395767836676
 30
0.0
 11
799.0531838983265
 21
214.5395767836678
 31
0.0
 70
    32
 71
     5
 42
30.00000000000003
  3
sunpo
100
AcDbAlignedDimension
 13
787.827249150705
 23
199.5395767836676
 33
0.0
 14
758.827249150705
 24
229.5395767836676
 34
0.0
 50
90.0
100
AcDbRotatedDimension
1001
ACAD
1000
DSTYLE
1002
{
1070
    40
1040
1.0
1002
}
  0
DIMENSION
  5
4F39
330
1F
100
AcDbEntity
  8
寸法線
100
AcDbDimension
  2
*D37
 10
909.0486269100688
 20
292.7176841236594
 30
0.0
 11
905.5486269100686
 21
246.1286304536637
 31
0.0
 70
    32
  1
95
 71
     5
 42
93.17810733999175
  3
sunpo
100
AcDbAlignedDimension
 13
887.8272491507051
 23
199.5395767836676
 33
0.0
 14
858.827249150705
 24
292.7176841236594
 34
0.0
 50
90.0
100
AcDbRotatedDimension
1001
ACAD
1000
DSTYLE
1002
{
1070
    40
1040
1.0
1002
}
  0
DIMENSION
  5
4F4F
330
1F
100
AcDbEntity
  8
寸法線
100
AcDbDimension
  2
*D38
 10
1008.357998967277
 20
199.5395767836677
 30
0.0
 11
1004.857998967277
 21
257.0395767836678
 31
0.0
 70
    32
 71
     5
 42
115.0
  3
sunpo
100
AcDbAlignedDimension
 13
958.827249150705
 23
314.5395767836677
 33
0.0
 14
988.827249150705
 24
199.5395767836677
 34
0.0
 50
90.0
100
AcDbRotatedDimension
1001
ACAD
1000
DSTYLE
1002
{
1070
    40
1040
1.0
1002
}
  0
TEXT
  5
4F5C
330
1F
100
AcDbEntity
  8
文字
100
AcDbText
 10
912.9943009111098
 20
168.1063008785299
 30
0.0
 40
7.0
  1
ホーロセットビス　ダクタイル
 51
15.0
  7
OKANO
100
AcDbText
  0
TEXT
  5
4F5D
330
1F
100
AcDbEntity
  8
文字
100
AcDbText
 10
928.8134438539151
 20
177.4484116193532
 30
0.0
 40
7.0
  1
PF-8/3ー13ｍｍ
 51
15.0
  7
OKANO
100
AcDbText
  0
LEADER
  5
4F5E
330
1F
100
AcDbEntity
  8
寸法線
100
AcDbLeader
  3
sunpo
 76
     2
 10
957.255739769309
 20
209.0386400297672
 30
0.0
 10
943.1360806002086
 20
191.3995729200771
 30
0.0
1001
ACAD
1000
DSTYLE
1002
{
1070
   147
1040
1.0
1070
    77
1070
     0
1002
}
  0
TEXT
  5
4F60
330
1F
100
AcDbEntity
  8
文字
100
AcDbText
 10
653.9918190816254
 20
173.8552919561544
 30
0.0
 40
7.0
  1
ナベビスM-5-8 (SUS)
 51
15.0
  7
OKANO
100
AcDbText
  0
TEXT
  5
4F62
330
1F
100
AcDbEntity
  8
文字
100
AcDbText
 10
538.2244612389788
 20
174.5739164001187
 30
0.0
 40
7.0
  1
板バネ加工
 51
15.0
  7
OKANO
100
AcDbText
  0
LEADER
  5
4F63
330
1F
100
AcDbEntity
  8
寸法線
100
AcDbLeader
  3
sunpo
 76
     2
 10
558.5824403875592
 20
202.8759119862428
 30
0.0
 10
551.3407559508809
 20
185.9887041367168
 30
0.0
1001
ACAD
1000
DSTYLE
1002
{
1070
   147
1040
1.0
1070
    77
1070
     0
1002
}
  0
LEADER
  5
4F64
330
1F
100
AcDbEntity
  8
寸法線
100
AcDbLeader
  3
sunpo
 76
     2
 10
659.9660343710893
 20
203.6800644061863
 30
0.0
 10
653.5289803514829
 20
185.9887041367168
 30
0.0
1001
ACAD
1000
DSTYLE
1002
{
1070
   147
1040
1.0
1070
    77
1070
     0
1002
}
  0
LEADER
  5
4F65
330
1F
100
AcDbEntity
  8
寸法線
100
AcDbLeader
  3
sunpo
 76
     2
 10
756.5218375431636
 20
203.6800644061863
 30
0.0
 10
745.256993899105
 20
184.380398657674
 30
0.0
1001
ACAD
1000
DSTYLE
1002
{
1070
   147
1040
1.0
1070
    77
1070
     0
1002
}
  0
TEXT
  5
4F66
330
1F
100
AcDbEntity
  8
文字
100
AcDbText
 10
546.9183422231683
 20
265.4802166346298
 30
0.0
 40
7.0
  1
40g
 51
15.0
  7
OKANO
100
AcDbText
  0
LEADER
  5
4F67
330
1F
100
AcDbEntity
  8
寸法線
100
AcDbLeader
  3
sunpo
 76
     2
 10
859.3880604667429
 20
205.6181869907994
 30
0.0
 10
845.6824530020531
 20
186.4417568458008
 30
0.0
1001
ACAD
1000
DSTYLE
1002
{
1070
   147
1040
1.0
1070
    77
1070
     0
1002
}
  0
TEXT
  5
4F68
330
1F
100
AcDbEntity
  8
文字
100
AcDbText
 10
648.3612282123028
 20
266.3393901307254
 30
0.0
 40
7.0
  1
145g
 51
15.0
  7
OKANO
100
AcDbText
  0
TEXT
  5
4F69
330
1F
100
AcDbEntity
  8
文字
100
AcDbText
 10
746.3653713579215
 20
264.6210431385345
 30
0.0
 40
7.0
  1
195g
 51
15.0
  7
OKANO
100
AcDbText
  0
TEXT
  5
4F6A
330
1F
100
AcDbEntity
  8
文字
100
AcDbText
 10
845.2292005111699
 20
320.4673370027865
 30
0.0
 40
7.0
  1
600g
 51
15.0
  7
OKANO
100
AcDbText
  0
TEXT
  5
4F6B
330
1F
100
AcDbEntity
  8
文字
100
AcDbText
 10
946.6720865003043
 20
323.9040316263241
 30
0.0
 40
7.0
  1
500g
 51
15.0
  7
OKANO
100
AcDbText
  0
VIEWPORT
  5
2E
330
1B
100
AcDbEntity
 67
     1
  8
0
100
AcDbViewport
 10
181.1562940579355
 20
151.7935423982349
 30
0.0
 40
651.2405881158711
 41
330.7670847964698
 68
     2
 69
     1
 12
181.1562940579355
 22
151.7935423982349
 13
0.0
 23
0.0
 14
10.0
 24
10.0
 15
10.0
 25
10.0
 16
0.0
 26
0.0
 36
1.0
 17
0.0
 27
0.0
 37
0.0
 42
50.0
 43
0.0
 44
0.0
 45
330.7670847964698
 50
0.0
 51
0.0
 72
   100
 90
    32800
  1

281
     0
 71
     1
 74
     0
110
0.0
120
0.0
130
0.0
111
1.0
121
0.0
131
0.0
112
0.0
122
1.0
132
0.0
 79
     0
146
0.0
  0
VIEWPORT
  5
30
330
1B
100
AcDbEntity
 67
     1
  8
70-0-CON
100
AcDbViewport
 10
141.8594093064315
 20
100.3480256368386
 30
0.0
 40
261.6199023344245
 41
192.6196987113174
 68
     1
 69
     2
 12
795.5594773444031
 22
310.8647852785919
 13
0.0
 23
0.0
 14
5.0
 24
5.0
 15
10.0
 25
10.0
 16
0.0
 26
0.0
 36
1.0
 17
0.0
 27
0.0
 37
0.0
 42
50.0
 43
0.0
 44
0.0
 45
410.199329803225
 50
0.0
 51
0.0
 72
   100
 90
    32864
  1

281
     0
 71
     1
 74
     0
110
0.0
120
0.0
130
0.0
111
1.0
121
0.0
131
0.0
112
0.0
122
1.0
132
0.0
 79
     0
146
0.0
  0
LWPOLYLINE
  5
45
330
1B
100
AcDbEntity
 67
     1
  8
50-0-CON
100
AcDbPolyline
 90
        4
 70
     1
 43
0.0
 10
11.04945813921926
 20
4.038176281179858
 10
272.2125713060605
 20
4.033520706629644
 10
273.4987754093466
 20
195.9297862125246
 10
11.04945813921926
 20
196.6578749924973
  0
LINE
  5
4A
330
1B
100
AcDbEntity
 67
     1
  8
50-0-CON
100
AcDbLine
 10
10.38768783662635
 20
100.3480256368386
 30
0.0
 11
-4.391850629656119
 21
100.3480256368386
 31
0.0
  0
LINE
  5
4B
330
1B
100
AcDbEntity
 67
     1
  8
50-0-CON
100
AcDbLine
 10
141.8594093064315
 20
197.098652626247
 30
0.0
 11
141.8594093064315
 21
202.387980773708
 31
0.0
  0
LINE
  5
4C
330
1B
100
AcDbEntity
 67
     1
  8
50-0-CON
100
AcDbLine
 10
272.4487699456857
 20
100.7888032705883
 30
0.0
 11
278.8458837249377
 21
100.7888032705883
 31
0.0
  0
LINE
  5
4D
330
1B
100
AcDbEntity
 67
     1
  8
50-0-CON
100
AcDbLine
 10
140.9770484758805
 20
4.038176281179858
 30
0.0
 11
140.9770484758805
 21
-3.455038652015446
 31
0.0
  0
ENDSEC
  0
SECTION
  2
OBJECTS
  0
DICTIONARY
  5
C
330
0
100
AcDbDictionary
281
     1
  3
ACAD_GROUP
350
D
  3
ACAD_LAYOUT
350
1A
  3
ACAD_MLINESTYLE
350
17
  3
ACAD_PLOTSETTINGS
350
19
  3
ACAD_PLOTSTYLENAME
350
E
  3
AcadDim
350
4827
  3
AcDbVariableDictionary
350
6AD
  3
DWGPROPS
350
30F
  0
DICTIONARY
  5
D
102
{ACAD_REACTORS
330
C
102
}
330
C
100
AcDbDictionary
281
     1
  0
DICTIONARY
  5
1A
102
{ACAD_REACTORS
330
C
102
}
330
C
100
AcDbDictionary
281
     1
  3
A4
350
1E
  3
Model
350
22
  0
DICTIONARY
  5
17
102
{ACAD_REACTORS
330
C
102
}
330
C
100
AcDbDictionary
281
     1
  3
Standard
350
18
  0
DICTIONARY
  5
19
102
{ACAD_REACTORS
330
C
102
}
330
C
100
AcDbDictionary
281
     1
  0
ACDBDICTIONARYWDFLT
  5
E
102
{ACAD_REACTORS
330
C
102
}
330
C
100
AcDbDictionary
281
     1
  3
Normal
350
F
100
AcDbDictionaryWithDefault
340
F
  0
XRECORD
  5
4827
102
{ACAD_REACTORS
330
C
102
}
330
C
100
AcDbXrecord
280
     1
 90
   990106
  3

 60
     0
 61
     0
 62
     1
 63
     3
 64
     0
 65
     0
 66
     0
 67
     3
 68
     1
 69
     0
 70
     0
 71
     0
 72
     0
 40
0.6848725508324378
170
     0
  0
DICTIONARY
  5
6AD
102
{ACAD_REACTORS
330
C
102
}
330
C
100
AcDbDictionary
281
     1
  3
SORTENTS
350
6AE
  0
XRECORD
  5
30F
102
{ACAD_REACTORS
330
C
102
}
330
C
100
AcDbXrecord
280
     1
  1
DWGPROPS COOKIE
  2

  3

  4

  6

  7

  8

  9

300
=
301
=
302
=
303
=
304
=
305
=
306
=
307
=
308
=
309
=
 40
0.3303803125
 41
2452362.482225463
 42
2452370.969861285
  1

 90
        0
  0
LAYOUT
  5
1E
102
{ACAD_REACTORS
330
1A
102
}
330
1A
100
AcDbPlotSettings
  1

  2
none_device
  4
ISO_A4_(210.00_x_297.00_MM)
  6

 40
7.5
 41
20.0
 42
7.5
 43
20.0
 44
210.0
 45
297.0
 46
0.0
 47
0.0
 48
0.0
 49
0.0
140
0.0
141
0.0
142
1.0
143
1.0
 70
   656
 72
     1
 73
     1
 74
     5
  7

 75
    16
147
1.0
148
0.0
149
0.0
100
AcDbLayout
  1
A4
 70
     1
 71
     1
 10
-20.0
 20
-7.5
 11
277.0
 21
202.4999999999999
 12
0.0
 22
0.0
 32
0.0
 14
-4.391850629656119
 24
-3.455038652015446
 34
0.0
 15
278.8458837249377
 25
202.387980773708
 35
0.0
146
0.0
 13
0.0
 23
0.0
 33
0.0
 16
1.0
 26
0.0
 36
0.0
 17
0.0
 27
1.0
 37
0.0
 76
     0
330
1B
331
30
  0
LAYOUT
  5
22
102
{ACAD_REACTORS
330
1A
102
}
330
1A
100
AcDbPlotSettings
  1

  2
EPSON PM-920C
  4
A4
  6

 40
3.757083177566528
 41
14.7637300491333
 42
3.757080078125
 43
3.757080078125
 44
209.9733276367187
 45
296.9683227539062
 46
0.0
 47
0.0
 48
0.0
 49
0.0
140
0.0
141
0.0
142
1.0
143
1.0
 70
 11952
 72
     1
 73
     1
 74
     0
  7
C:\Program Files\ACAD LT 2000\Plot Styles\JOINT.ctb
 75
     0
147
1.0
148
-45.64199848979289
149
-84.48806419330498
100
AcDbLayout
  1
Model
 70
     1
 71
     0
 10
0.0
 20
0.0
 11
12.0
 21
9.0
 12
0.0
 22
0.0
 32
0.0
 14
0.0
 24
0.0
 34
0.0
 15
0.0
 25
0.0
 35
0.0
146
0.0
 13
0.0
 23
0.0
 33
0.0
 16
1.0
 26
0.0
 36
0.0
 17
0.0
 27
1.0
 37
0.0
 76
     0
330
1F
  0
MLINESTYLE
  5
18
102
{ACAD_REACTORS
330
17
102
}
330
17
100
AcDbMlineStyle
  2
STANDARD
 70
     0
  3

 62
   256
 51
90.0
 52
90.0
 71
     2
 49
0.5
 62
   256
  6
BYLAYER
 49
-0.5
 62
   256
  6
BYLAYER
  0
ACDBPLACEHOLDER
  5
F
102
{ACAD_REACTORS
330
E
102
}
330
E
  0
DICTIONARYVAR
  5
6AE
102
{ACAD_REACTORS
330
6AD
102
}
330
6AD
100
DictionaryVariables
280
     0
  1
96
  0
ENDSEC
  0
EOF
