  0
SECTION
  2
HEADER
  9
$ACADVER
  1
AC1015
  9
$ACADMAINTVER
 70
     6
  9
$DWGCODEPAGE
  3
ANSI_932
  9
$INSBASE
 10
0.0
 20
0.0
 30
0.0
  9
$EXTMIN
 10
92.82158857801219
 20
1.535602024545255
 30
0.0
  9
$EXTMAX
 10
637.0962725612054
 20
263.0976711428846
 30
0.0
  9
$LIMMIN
 10
0.0
 20
0.0
  9
$LIMMAX
 10
420.0
 20
297.0
  9
$ORTHOMODE
 70
     0
  9
$REGENMODE
 70
     1
  9
$FILLMODE
 70
     1
  9
$QTEXTMODE
 70
     0
  9
$MIRRTEXT
 70
     1
  9
$LTSCALE
 40
1.0
  9
$ATTMODE
 70
     1
  9
$TEXTSIZE
 40
5.0
  9
$TRACEWID
 40
1.0
  9
$TEXTSTYLE
  7
OKANO
  9
$CLAYER
  8
太線
  9
$CELTYPE
  6
ByLayer
  9
$CECOLOR
 62
     5
  9
$CELTSCALE
 40
1.0
  9
$DISPSILH
 70
     0
  9
$DIMSCALE
 40
0.0
  9
$DIMASZ
 40
3.0
  9
$DIMEXO
 40
2.0
  9
$DIMDLI
 40
8.0
  9
$DIMRND
 40
0.0
  9
$DIMDLE
 40
0.0
  9
$DIMEXE
 40
3.0
  9
$DIMTP
 40
0.0
  9
$DIMTM
 40
0.0
  9
$DIMTXT
 40
5.0
  9
$DIMCEN
 40
2.5
  9
$DIMTSZ
 40
0.0
  9
$DIMTOL
 70
     0
  9
$DIMLIM
 70
     0
  9
$DIMTIH
 70
     0
  9
$DIMTOH
 70
     0
  9
$DIMSE1
 70
     0
  9
$DIMSE2
 70
     0
  9
$DIMTAD
 70
     1
  9
$DIMZIN
 70
     8
  9
$DIMBLK
  1
Closed
  9
$DIMASO
 70
     1
  9
$DIMSHO
 70
     1
  9
$DIMPOST
  1

  9
$DIMAPOST
  1

  9
$DIMALT
 70
     0
  9
$DIMALTD
 70
     3
  9
$DIMALTF
 40
0.03937007874016
  9
$DIMLFAC
 40
1.0
  9
$DIMTOFL
 70
     1
  9
$DIMTVP
 40
0.0
  9
$DIMTIX
 70
     0
  9
$DIMSOXD
 70
     0
  9
$DIMSAH
 70
     0
  9
$DIMBLK1
  1

  9
$DIMBLK2
  1

  9
$DIMSTYLE
  2
sunpo
  9
$DIMCLRD
 70
     0
  9
$DIMCLRE
 70
     0
  9
$DIMCLRT
 70
     0
  9
$DIMTFAC
 40
1.0
  9
$DIMGAP
 40
1.0
  9
$DIMJUST
 70
     0
  9
$DIMSD1
 70
     0
  9
$DIMSD2
 70
     0
  9
$DIMTOLJ
 70
     0
  9
$DIMTZIN
 70
     8
  9
$DIMALTZ
 70
     0
  9
$DIMALTTZ
 70
     0
  9
$DIMUPT
 70
     0
  9
$DIMDEC
 70
     2
  9
$DIMTDEC
 70
     2
  9
$DIMALTU
 70
     2
  9
$DIMALTTD
 70
     3
  9
$DIMTXSTY
  7
OKANO
  9
$DIMAUNIT
 70
     0
  9
$DIMADEC
 70
     0
  9
$DIMALTRND
 40
0.0
  9
$DIMAZIN
 70
     0
  9
$DIMDSEP
 70
    46
  9
$DIMATFIT
 70
     3
  9
$DIMFRAC
 70
     0
  9
$DIMLDRBLK
  1
Closed
  9
$DIMLUNIT
 70
     2
  9
$DIMLWD
 70
    -2
  9
$DIMLWE
 70
    -2
  9
$DIMTMOVE
 70
     0
  9
$LUNITS
 70
     2
  9
$LUPREC
 70
     2
  9
$SKETCHINC
 40
1.0
  9
$FILLETRAD
 40
0.5
  9
$AUNITS
 70
     0
  9
$AUPREC
 70
     0
  9
$MENU
  1
.
  9
$ELEVATION
 40
0.0
  9
$PELEVATION
 40
0.0
  9
$THICKNESS
 40
0.0
  9
$LIMCHECK
 70
     0
  9
$CHAMFERA
 40
10.0
  9
$CHAMFERB
 40
10.0
  9
$CHAMFERC
 40
20.0
  9
$CHAMFERD
 40
0.0
  9
$SKPOLY
 70
     0
  9
$TDCREATE
 40
2452362.482225463
  9
$TDUCREATE
 40
2452362.107225463
  9
$TDUPDATE
 40
2456542.478953530
  9
$TDUUPDATE
 40
2456542.103953530
  9
$TDINDWG
 40
2.2283959491
  9
$TDUSRTIMER
 40
2.2283959491
  9
$USRTIMER
 70
     1
  9
$ANGBASE
 50
0.0
  9
$ANGDIR
 70
     0
  9
$PDMODE
 70
     0
  9
$PDSIZE
 40
0.0
  9
$PLINEWID
 40
0.0
  9
$SPLFRAME
 70
     0
  9
$SPLINETYPE
 70
     6
  9
$SPLINESEGS
 70
     8
  9
$HANDSEED
  5
3090
  9
$SURFTAB1
 70
     6
  9
$SURFTAB2
 70
     6
  9
$SURFTYPE
 70
     6
  9
$SURFU
 70
     6
  9
$SURFV
 70
     6
  9
$UCSBASE
  2

  9
$UCSNAME
  2

  9
$UCSORG
 10
0.0
 20
0.0
 30
0.0
  9
$UCSXDIR
 10
1.0
 20
0.0
 30
0.0
  9
$UCSYDIR
 10
0.0
 20
1.0
 30
0.0
  9
$UCSORTHOREF
  2

  9
$UCSORTHOVIEW
 70
     0
  9
$UCSORGTOP
 10
0.0
 20
0.0
 30
0.0
  9
$UCSORGBOTTOM
 10
0.0
 20
0.0
 30
0.0
  9
$UCSORGLEFT
 10
0.0
 20
0.0
 30
0.0
  9
$UCSORGRIGHT
 10
0.0
 20
0.0
 30
0.0
  9
$UCSORGFRONT
 10
0.0
 20
0.0
 30
0.0
  9
$UCSORGBACK
 10
0.0
 20
0.0
 30
0.0
  9
$PUCSBASE
  2

  9
$PUCSNAME
  2

  9
$PUCSORG
 10
0.0
 20
0.0
 30
0.0
  9
$PUCSXDIR
 10
1.0
 20
0.0
 30
0.0
  9
$PUCSYDIR
 10
0.0
 20
1.0
 30
0.0
  9
$PUCSORTHOREF
  2

  9
$PUCSORTHOVIEW
 70
     0
  9
$PUCSORGTOP
 10
0.0
 20
0.0
 30
0.0
  9
$PUCSORGBOTTOM
 10
0.0
 20
0.0
 30
0.0
  9
$PUCSORGLEFT
 10
0.0
 20
0.0
 30
0.0
  9
$PUCSORGRIGHT
 10
0.0
 20
0.0
 30
0.0
  9
$PUCSORGFRONT
 10
0.0
 20
0.0
 30
0.0
  9
$PUCSORGBACK
 10
0.0
 20
0.0
 30
0.0
  9
$USERI1
 70
     0
  9
$USERI2
 70
     0
  9
$USERI3
 70
     0
  9
$USERI4
 70
     0
  9
$USERI5
 70
     0
  9
$USERR1
 40
0.0
  9
$USERR2
 40
0.0
  9
$USERR3
 40
0.0
  9
$USERR4
 40
0.0
  9
$USERR5
 40
0.0
  9
$WORLDVIEW
 70
     1
  9
$SHADEDGE
 70
     3
  9
$SHADEDIF
 70
    70
  9
$TILEMODE
 70
     0
  9
$MAXACTVP
 70
    64
  9
$PINSBASE
 10
0.0
 20
0.0
 30
0.0
  9
$PLIMCHECK
 70
     0
  9
$PEXTMIN
 10
-4.400950791736249
 20
-3.461455399935687
 30
-0.0015258207003583
  9
$PEXTMAX
 10
278.8632049462244
 20
202.4035238883311
 30
0.0000000349246037
  9
$PLIMMIN
 10
-3.17498779296875
 20
-3.174999952316284
  9
$PLIMMAX
 10
293.8250122070312
 20
206.8250000476837
  9
$UNITMODE
 70
     0
  9
$VISRETAIN
 70
     1
  9
$PLINEGEN
 70
     0
  9
$PSLTSCALE
 70
     1
  9
$TREEDEPTH
 70
  3020
  9
$CMLSTYLE
  2
Standard
  9
$CMLJUST
 70
     0
  9
$CMLSCALE
 40
20.0
  9
$PROXYGRAPHICS
 70
     1
  9
$MEASUREMENT
 70
     1
  9
$CELWEIGHT
370
    -1
  9
$ENDCAPS
280
     0
  9
$JOINSTYLE
280
     0
  9
$LWDISPLAY
290
     0
  9
$INSUNITS
 70
     4
  9
$HYPERLINKBASE
  1

  9
$STYLESHEET
  1

  9
$XEDIT
290
     1
  9
$CEPSNTYPE
380
     0
  9
$PSTYLEMODE
290
     1
  9
$FINGERPRINTGUID
  2
{FF7F33C3-4233-11D6-AEE0-0000F45FD7F4}
  9
$VERSIONGUID
  2
{2A708F45-5958-4EB3-9818-E39D121DC992}
  9
$EXTNAMES
290
     1
  9
$PSVPSCALE
 40
0.0
  9
$OLESTARTUP
290
     0
  0
ENDSEC
  0
SECTION
  2
CLASSES
  0
CLASS
  1
ACDBDICTIONARYWDFLT
  2
AcDbDictionaryWithDefault
  3
AutoCAD 2000
 90
        0
280
     0
281
     0
  0
CLASS
  1
ACDBPLACEHOLDER
  2
AcDbPlaceHolder
  3
AutoCAD 2000
 90
        0
280
     0
281
     0
  0
CLASS
  1
LAYOUT
  2
AcDbLayout
  3
AutoCAD 2000
 90
        0
280
     0
281
     0
  0
CLASS
  1
DICTIONARYVAR
  2
AcDbDictionaryVar
  3
AutoCAD 2000
 90
        0
280
     0
281
     0
  0
CLASS
  1
PLOTSETTINGS
  2
AcDbPlotSettings
  3
AutoCAD 2000
 90
    32768
280
     0
281
     0
  0
ENDSEC
  0
SECTION
  2
TABLES
  0
TABLE
  2
VPORT
  5
8
330
0
100
AcDbSymbolTable
 70
     1
  0
VPORT
  5
3089
330
8
100
AcDbSymbolTableRecord
100
AcDbViewportTableRecord
  2
*Active
 70
     0
 10
0.0
 20
0.0
 11
1.0
 21
1.0
 12
296.1672119434838
 22
210.9046077247218
 13
0.0
 23
0.0
 14
5.0
 24
5.0
 15
10.0
 25
10.0
 16
0.0
 26
0.0
 36
1.0
 17
0.0
 27
0.0
 37
0.0
 40
422.1780036809798
 41
2.205499276410998
 42
50.0
 43
0.0
 44
0.0
 50
0.0
 51
0.0
 71
     0
 72
   100
 73
     1
 74
     3
 75
     0
 76
     0
 77
     0
 78
     0
281
     0
 65
     1
110
0.0
120
0.0
130
0.0
111
1.0
121
0.0
131
0.0
112
0.0
122
1.0
132
0.0
 79
     0
146
0.0
  0
ENDTAB
  0
TABLE
  2
LTYPE
  5
5
330
0
100
AcDbSymbolTable
 70
     5
  0
LTYPE
  5
14
330
5
100
AcDbSymbolTableRecord
100
AcDbLinetypeTableRecord
  2
ByBlock
 70
     0
  3

 72
    65
 73
     0
 40
0.0
  0
LTYPE
  5
15
330
5
100
AcDbSymbolTableRecord
100
AcDbLinetypeTableRecord
  2
ByLayer
 70
     0
  3

 72
    65
 73
     0
 40
0.0
  0
LTYPE
  5
16
330
5
100
AcDbSymbolTableRecord
100
AcDbLinetypeTableRecord
  2
Continuous
 70
     0
  3
Solid line
 72
    65
 73
     0
 40
0.0
  0
LTYPE
  5
33
330
5
100
AcDbSymbolTableRecord
100
AcDbLinetypeTableRecord
  2
DASHED2
 70
     0
  3
Dashed (.5x) _ _ _ _ _ _ _ _ _ _ _ _ _ _ _ _ _
 72
    65
 73
     2
 40
9.524999999999998
 49
6.349999999999999
 74
     0
 49
-3.174999999999999
 74
     0
  0
LTYPE
  5
34
330
5
100
AcDbSymbolTableRecord
100
AcDbLinetypeTableRecord
  2
CENTER2
 70
     0
  3
Center (.5x) ___ _ ___ _ ___ _ ___ _ ___ _ ___
 72
    65
 73
     4
 40
28.57499999999999
 49
19.05
 74
     0
 49
-3.174999999999999
 74
     0
 49
3.174999999999999
 74
     0
 49
-3.174999999999999
 74
     0
  0
LTYPE
  5
35
330
5
100
AcDbSymbolTableRecord
100
AcDbLinetypeTableRecord
  2
PHANTOM2
 70
     0
  3
Phantom (.5x) ___ _ _ ___ _ _ ___ _ _ ___ _ _
 72
    65
 73
     6
 40
31.75
 49
15.875
 74
     0
 49
-3.174999999999999
 74
     0
 49
3.174999999999999
 74
     0
 49
-3.174999999999999
 74
     0
 49
3.174999999999999
 74
     0
 49
-3.174999999999999
 74
     0
  0
LTYPE
  5
36
330
5
100
AcDbSymbolTableRecord
100
AcDbLinetypeTableRecord
  2
HIDDEN2
 70
     0
  3
Hidden (.5x) _ _ _ _ _ _ _ _ _ _ _ _ _ _ _ _ _
 72
    65
 73
     2
 40
4.762499999999999
 49
3.174999999999999
 74
     0
 49
-1.587499999999999
 74
     0
  0
ENDTAB
  0
TABLE
  2
LAYER
  5
2
330
0
100
AcDbSymbolTable
 70
    13
  0
LAYER
  5
10
330
2
100
AcDbSymbolTableRecord
100
AcDbLayerTableRecord
  2
0
 70
     0
 62
     7
  6
Continuous
370
    -3
390
F
  0
LAYER
  5
40
330
2
100
AcDbSymbolTableRecord
100
AcDbLayerTableRecord
  2
50-0-CON
 70
     0
 62
     4
  6
Continuous
370
    50
390
F
  0
LAYER
  5
41
330
2
100
AcDbSymbolTableRecord
100
AcDbLayerTableRecord
  2
70-0-CON
 70
     0
 62
   202
  6
Continuous
370
    70
390
F
  0
LAYER
  5
4E
330
2
100
AcDbSymbolTableRecord
100
AcDbLayerTableRecord
  2
極太線
 70
     0
 62
     7
  6
Continuous
370
    70
390
F
  0
LAYER
  5
4F
330
2
100
AcDbSymbolTableRecord
100
AcDbLayerTableRecord
  2
細線
 70
     0
 62
     8
  6
Continuous
370
    18
390
F
  0
LAYER
  5
AB
330
2
100
AcDbSymbolTableRecord
100
AcDbLayerTableRecord
  2
構築線
 70
     0
 62
    -2
  6
Continuous
290
     0
370
    18
390
F
  0
LAYER
  5
B8
330
2
100
AcDbSymbolTableRecord
100
AcDbLayerTableRecord
  2
太線
 70
     0
 62
     7
  6
Continuous
370
    35
390
F
  0
LAYER
  5
B9
330
2
100
AcDbSymbolTableRecord
100
AcDbLayerTableRecord
  2
寸法線
 70
     0
 62
     5
  6
Continuous
370
    18
390
F
  0
LAYER
  5
BA
330
2
100
AcDbSymbolTableRecord
100
AcDbLayerTableRecord
  2
破線
 70
     0
 62
     8
  6
HIDDEN2
370
    18
390
F
  0
LAYER
  5
BB
330
2
100
AcDbSymbolTableRecord
100
AcDbLayerTableRecord
  2
中心線
 70
     0
 62
     1
  6
CENTER2
370
    18
390
F
  0
LAYER
  5
BC
330
2
100
AcDbSymbolTableRecord
100
AcDbLayerTableRecord
  2
想像線
 70
     0
 62
     8
  6
PHANTOM2
370
    18
390
F
  0
LAYER
  5
BD
330
2
100
AcDbSymbolTableRecord
100
AcDbLayerTableRecord
  2
文字
 70
     0
 62
     7
  6
Continuous
370
    18
390
F
  0
LAYER
  5
180
330
2
100
AcDbSymbolTableRecord
100
AcDbLayerTableRecord
  2
Defpoints
 70
     0
 62
     7
  6
Continuous
290
     0
370
    -3
390
F
  0
ENDTAB
  0
TABLE
  2
STYLE
  5
3
330
0
100
AcDbSymbolTable
 70
     3
  0
STYLE
  5
11
330
3
100
AcDbSymbolTableRecord
100
AcDbTextStyleTableRecord
  2
Standard
 70
     0
 40
0.0
 41
1.0
 50
0.0
 71
     0
 42
3.0
  3
txt
  4

  0
STYLE
  5
32
330
3
100
AcDbSymbolTableRecord
100
AcDbTextStyleTableRecord
  2

 70
     1
 40
0.0
 41
1.0
 50
0.0
 71
     0
 42
2.5
  3
ltypeshp.shx
  4

  0
STYLE
  5
50
330
3
100
AcDbSymbolTableRecord
100
AcDbTextStyleTableRecord
  2
OKANO
 70
     0
 40
0.0
 41
1.0
 50
15.0
 71
     0
 42
5.0
  3
isocp.shx
  4
bigfont.shx
  0
ENDTAB
  0
TABLE
  2
VIEW
  5
6
330
0
100
AcDbSymbolTable
 70
     0
  0
ENDTAB
  0
TABLE
  2
UCS
  5
7
330
0
100
AcDbSymbolTable
 70
     0
  0
ENDTAB
  0
TABLE
  2
APPID
  5
9
330
0
100
AcDbSymbolTable
 70
     1
  0
APPID
  5
12
330
9
100
AcDbSymbolTableRecord
100
AcDbRegAppTableRecord
  2
ACAD
 70
     0
  0
ENDTAB
  0
TABLE
  2
DIMSTYLE
  5
A
330
0
100
AcDbSymbolTable
 70
     2
100
AcDbDimStyleTable
 71
     2
340
A2
340
27
  0
DIMSTYLE
105
27
330
A
100
AcDbSymbolTableRecord
100
AcDbDimStyleTableRecord
  2
ISO-25
 70
     0
 41
2.5
 42
0.625
 43
3.75
 44
1.25
 73
     0
 74
     0
 77
     1
 78
     8
140
2.5
141
2.5
143
0.03937007874016
147
0.625
171
     3
172
     1
271
     2
272
     2
274
     3
283
     0
284
     8
340
11
  0
DIMSTYLE
105
A2
102
{ACAD_REACTORS
330
2BA2
330
2BBC
330
2BFD
330
2C5B
330
2C68
330
2CA3
330
2CB0
330
2CBD
330
2CCA
330
2CD7
330
2CF1
330
2D4F
330
2D5C
330
2D7B
330
2D95
330
2E07
330
2E1D
102
}
330
A
100
AcDbSymbolTableRecord
100
AcDbDimStyleTableRecord
  2
sunpo
 70
     0
 40
0.0
 41
3.0
 42
2.0
 43
8.0
 44
3.0
 73
     0
 74
     0
 77
     1
 78
     8
140
5.0
141
2.5
143
0.03937007874016
147
1.0
171
     3
172
     1
271
     2
272
     2
274
     3
283
     0
284
     8
340
50
341
9B
342
9B
  0
ENDTAB
  0
TABLE
  2
BLOCK_RECORD
  5
1
330
0
100
AcDbSymbolTable
 70
    19
  0
BLOCK_RECORD
  5
1F
330
1
100
AcDbSymbolTableRecord
100
AcDbBlockTableRecord
  2
*Model_Space
340
22
  0
BLOCK_RECORD
  5
1B
330
1
100
AcDbSymbolTableRecord
100
AcDbBlockTableRecord
  2
*Paper_Space
340
1E
  0
BLOCK_RECORD
  5
9B
330
1
100
AcDbSymbolTableRecord
100
AcDbBlockTableRecord
  2
_Closed
340
0
102
{BLKREFS
331
2BC1
331
2BC2
331
2C03
331
2C04
331
2D01
331
2D02
331
2D1C
331
2D1D
331
2D25
331
2D26
331
2D2E
331
2D2F
331
2D6C
331
2D6D
331
2D75
331
2D76
331
2D8F
331
2D90
331
2DA5
331
2DA6
331
2DD2
331
2DD3
331
2E2E
331
2E2F
331
2E58
331
2E59
331
2F9B
331
2F9C
331
3031
331
3032
331
303A
331
303B
331
3043
331
3044
102
}
  0
BLOCK_RECORD
  5
1510
330
1
100
AcDbSymbolTableRecord
100
AcDbBlockTableRecord
  2
A$C10A573AC
340
0
  0
BLOCK_RECORD
  5
2BA3
330
1
100
AcDbSymbolTableRecord
100
AcDbBlockTableRecord
  2
*D2
340
0
  0
BLOCK_RECORD
  5
2BBD
330
1
100
AcDbSymbolTableRecord
100
AcDbBlockTableRecord
  2
*D3
340
0
  0
BLOCK_RECORD
  5
2BFE
330
1
100
AcDbSymbolTableRecord
100
AcDbBlockTableRecord
  2
*D4
340
0
  0
BLOCK_RECORD
  5
2C5C
330
1
100
AcDbSymbolTableRecord
100
AcDbBlockTableRecord
  2
*D5
340
0
  0
BLOCK_RECORD
  5
2C69
330
1
100
AcDbSymbolTableRecord
100
AcDbBlockTableRecord
  2
*D6
340
0
  0
BLOCK_RECORD
  5
2CA4
330
1
100
AcDbSymbolTableRecord
100
AcDbBlockTableRecord
  2
*D7
340
0
  0
BLOCK_RECORD
  5
2CB1
330
1
100
AcDbSymbolTableRecord
100
AcDbBlockTableRecord
  2
*D8
340
0
  0
BLOCK_RECORD
  5
2CBE
330
1
100
AcDbSymbolTableRecord
100
AcDbBlockTableRecord
  2
*D9
340
0
  0
BLOCK_RECORD
  5
2CCB
330
1
100
AcDbSymbolTableRecord
100
AcDbBlockTableRecord
  2
*D10
340
0
  0
BLOCK_RECORD
  5
2CD8
330
1
100
AcDbSymbolTableRecord
100
AcDbBlockTableRecord
  2
*D11
340
0
  0
BLOCK_RECORD
  5
2CF2
330
1
100
AcDbSymbolTableRecord
100
AcDbBlockTableRecord
  2
*D12
340
0
  0
BLOCK_RECORD
  5
2D50
330
1
100
AcDbSymbolTableRecord
100
AcDbBlockTableRecord
  2
*D13
340
0
  0
BLOCK_RECORD
  5
2D5D
330
1
100
AcDbSymbolTableRecord
100
AcDbBlockTableRecord
  2
*D14
340
0
  0
BLOCK_RECORD
  5
2D7C
330
1
100
AcDbSymbolTableRecord
100
AcDbBlockTableRecord
  2
*D15
340
0
  0
BLOCK_RECORD
  5
2D96
330
1
100
AcDbSymbolTableRecord
100
AcDbBlockTableRecord
  2
*D16
340
0
  0
BLOCK_RECORD
  5
2E08
330
1
100
AcDbSymbolTableRecord
100
AcDbBlockTableRecord
  2
*D17
340
0
  0
BLOCK_RECORD
  5
2E1E
330
1
100
AcDbSymbolTableRecord
100
AcDbBlockTableRecord
  2
*D18
340
0
  0
ENDTAB
  0
ENDSEC
  0
SECTION
  2
BLOCKS
  0
BLOCK
  5
20
330
1F
100
AcDbEntity
  8
0
100
AcDbBlockBegin
  2
*Model_Space
 70
     0
 10
0.0
 20
0.0
 30
0.0
  3
*Model_Space
  1

  0
ENDBLK
  5
21
330
1F
100
AcDbEntity
  8
0
100
AcDbBlockEnd
  0
BLOCK
  5
1C
330
1B
100
AcDbEntity
 67
     1
  8
0
100
AcDbBlockBegin
  2
*Paper_Space
 70
     0
 10
0.0
 20
0.0
 30
0.0
  3
*Paper_Space
  1

  0
ENDBLK
  5
1D
330
1B
100
AcDbEntity
 67
     1
  8
0
100
AcDbBlockEnd
  0
BLOCK
  5
A0
330
9B
100
AcDbEntity
  8
0
100
AcDbBlockBegin
  2
_Closed
 70
     0
 10
0.0
 20
0.0
 30
0.0
  3
_Closed
  1

  0
LINE
  5
9C
330
9B
100
AcDbEntity
  8
0
 62
     0
370
    -2
100
AcDbLine
 10
-1.0
 20
0.1666666666666666
 30
0.0
 11
0.0
 21
0.0
 31
0.0
  0
LINE
  5
9D
330
9B
100
AcDbEntity
  8
0
 62
     0
370
    -2
100
AcDbLine
 10
0.0
 20
0.0
 30
0.0
 11
-1.0
 21
-0.1666666666666666
 31
0.0
  0
LINE
  5
9E
330
9B
100
AcDbEntity
  8
0
 62
     0
370
    -2
100
AcDbLine
 10
-1.0
 20
0.1666666666666666
 30
0.0
 11
-1.0
 21
-0.1666666666666666
 31
0.0
  0
LINE
  5
9F
330
9B
100
AcDbEntity
  8
0
 62
     0
370
    -2
100
AcDbLine
 10
0.0
 20
0.0
 30
0.0
 11
-1.0
 21
0.0
 31
0.0
  0
ENDBLK
  5
A1
330
9B
100
AcDbEntity
  8
0
100
AcDbBlockEnd
  0
BLOCK
  5
155B
330
1510
100
AcDbEntity
  8
0
100
AcDbBlockBegin
  2
A$C10A573AC
 70
     0
 10
0.0
 20
0.0
 30
0.0
  3
A$C10A573AC
  1

  0
TEXT
  5
1511
330
1510
100
AcDbEntity
  8
文字
100
AcDbText
 10
0.9844302777919438
 20
5.224957122252135
 30
0.0
 40
3.0
  1
Materal : Steel.
 51
15.0
  7
OKANO
100
AcDbText
  0
TEXT
  5
1512
330
1510
100
AcDbEntity
  8
文字
100
AcDbText
 10
-0.1141909619694843
 20
0.7500001922403499
 30
0.0
 40
3.0
  1
Surface treatment : Electro galvanized.
 51
15.0
  7
OKANO
100
AcDbText
  0
TEXT
  5
1513
330
1510
100
AcDbEntity
  8
文字
100
AcDbText
 10
-0.4901926332574931
 20
9.159967445193728
 30
0.0
 40
3.0
  1
5 TORGUE SCREW  M5-6
 51
15.0
  7
OKANO
100
AcDbText
  0
TEXT
  5
1514
330
1510
100
AcDbEntity
  8
文字
100
AcDbText
 10
1.364713526390005
 20
78.88822913323082
 30
0.0
 40
3.0
  1
Special standard,
 51
15.0
  7
OKANO
100
AcDbText
  0
TEXT
  5
1515
330
1510
100
AcDbEntity
  8
文字
100
AcDbText
 10
92.88160823408942
 20
89.92753849837379
 30
0.0
 40
3.0
  1
Screw Type
 51
15.0
  7
OKANO
100
AcDbText
  0
LINE
  5
1516
330
1510
100
AcDbEntity
  8
太線
100
AcDbLine
 10
113.9464587597784
 20
81.93930390144641
 30
0.0
 11
112.4464587597784
 21
81.93930390144641
 31
0.0
  0
LINE
  5
1517
330
1510
100
AcDbEntity
  8
太線
100
AcDbLine
 10
112.4464587597784
 20
76.9393039014464
 30
0.0
 11
121.4644995438761
 21
76.9393039014464
 31
0.0
  0
TEXT
  5
1518
330
1510
100
AcDbEntity
  8
文字
100
AcDbText
 10
93.46068240437217
 20
77.96976862235396
 30
0.0
 40
2.0
  1
17-30
 51
15.0
  7
OKANO
100
AcDbText
  0
LINE
  5
1519
330
1510
100
AcDbEntity
  8
太線
100
AcDbLine
 10
111.9464587597784
 20
81.43930390144641
 30
0.0
 11
111.9464587597784
 21
77.4393039014464
 31
0.0
  0
LINE
  5
151A
330
1510
100
AcDbEntity
  8
太線
100
AcDbLine
 10
91.94645875977846
 20
81.43930390144641
 30
0.0
 11
91.94645875977846
 21
77.43930390144639
 31
0.0
  0
LINE
  5
151B
330
1510
100
AcDbEntity
  8
太線
100
AcDbLine
 10
101.9644995438761
 20
77.4393039014464
 30
0.0
 11
101.9644995438761
 21
81.43930390144641
 31
0.0
  0
LINE
  5
151C
330
1510
100
AcDbEntity
  8
太線
100
AcDbLine
 10
92.44645875977846
 20
76.9393039014464
 30
0.0
 11
101.4644995438761
 21
76.9393039014464
 31
0.0
  0
ARC
  5
151D
330
1510
100
AcDbEntity
  8
太線
100
AcDbCircle
 10
92.44645875977846
 20
77.43930390144639
 30
0.0
 40
0.5
100
AcDbArc
 50
180.0
 51
270.0
  0
ARC
  5
151E
330
1510
100
AcDbEntity
  8
太線
100
AcDbCircle
 10
101.4644995438761
 20
77.4393039014464
 30
0.0
 40
0.5
100
AcDbArc
 50
270.0
 51
0.0
  0
ARC
  5
151F
330
1510
100
AcDbEntity
  8
太線
100
AcDbCircle
 10
112.4464587597784
 20
77.4393039014464
 30
0.0
 40
0.5
100
AcDbArc
 50
180.0
 51
270.0
  0
LINE
  5
1520
330
1510
100
AcDbEntity
  8
想像線
100
AcDbLine
 10
93.94645875977847
 20
81.93930390144641
 30
0.0
 11
99.96449954387617
 21
81.93930390144641
 31
0.0
  0
LINE
  5
1521
330
1510
100
AcDbEntity
  8
極太線
100
AcDbLine
 10
96.38762957111168
 20
85.43930390144641
 30
0.0
 11
97.50528794844525
 21
85.43930390144641
 31
0.0
  0
CIRCLE
  5
1522
330
1510
100
AcDbEntity
  8
太線
100
AcDbCircle
 10
96.94645875977847
 20
85.43930390144641
 30
0.0
 40
0.5588291886667776
  0
LINE
  5
1523
330
1510
100
AcDbEntity
  8
太線
100
AcDbLine
 10
99.46449954387617
 20
86.93930390144641
 30
0.0
 11
94.44645875977846
 21
86.93930390144641
 31
0.0
  0
LINE
  5
1524
330
1510
100
AcDbEntity
  8
太線
100
AcDbLine
 10
93.94645875977847
 20
86.43930390144641
 30
0.0
 11
93.94645875977847
 21
81.93930390144641
 31
0.0
  0
ARC
  5
1525
330
1510
100
AcDbEntity
  8
太線
100
AcDbCircle
 10
92.44645875977846
 20
81.43930390144641
 30
0.0
 40
0.5
100
AcDbArc
 50
90.0
 51
180.0
  0
LINE
  5
1526
330
1510
100
AcDbEntity
  8
太線
100
AcDbLine
 10
93.94645875977847
 20
81.93930390144641
 30
0.0
 11
92.44645875977846
 21
81.93930390144641
 31
0.0
  0
ARC
  5
1527
330
1510
100
AcDbEntity
  8
太線
100
AcDbCircle
 10
94.44645875977846
 20
86.43930390144641
 30
0.0
 40
0.5
100
AcDbArc
 50
90.0
 51
180.0
  0
LINE
  5
1528
330
1510
100
AcDbEntity
  8
太線
100
AcDbLine
 10
99.96449954387617
 20
81.93930390144641
 30
0.0
 11
99.96449954387617
 21
86.43930390144641
 31
0.0
  0
LINE
  5
1529
330
1510
100
AcDbEntity
  8
太線
100
AcDbLine
 10
101.4644995438761
 20
81.93930390144641
 30
0.0
 11
99.96449954387617
 21
81.93930390144641
 31
0.0
  0
ARC
  5
152A
330
1510
100
AcDbEntity
  8
太線
100
AcDbCircle
 10
101.4644995438761
 20
81.43930390144641
 30
0.0
 40
0.5
100
AcDbArc
 50
0.0
 51
90.0
  0
ARC
  5
152B
330
1510
100
AcDbEntity
  8
太線
100
AcDbCircle
 10
99.46449954387617
 20
86.43930390144641
 30
0.0
 40
0.5
100
AcDbArc
 50
0.0
 51
90.0
  0
LINE
  5
152C
330
1510
100
AcDbEntity
  8
極太線
100
AcDbLine
 10
96.94645875977847
 20
85.99813309011318
 30
0.0
 11
96.94645875977847
 21
84.88047471277964
 31
0.0
  0
ARC
  5
152D
330
1510
100
AcDbEntity
  8
太線
100
AcDbCircle
 10
112.4464587597784
 20
81.43930390144641
 30
0.0
 40
0.5
100
AcDbArc
 50
90.0
 51
180.0
  0
TEXT
  5
152E
330
1510
100
AcDbEntity
  8
文字
100
AcDbText
 10
134.3819212586066
 20
78.16263579228063
 30
0.0
 40
2.0
  1
101
 51
15.0
  7
OKANO
100
AcDbText
  0
TEXT
  5
152F
330
1510
100
AcDbEntity
  8
文字
100
AcDbText
 10
113.3422276612066
 20
77.96976862235396
 30
0.0
 40
2.0
  1
38-83
 51
15.0
  7
OKANO
100
AcDbText
  0
LINE
  5
1530
330
1510
100
AcDbEntity
  8
太線
100
AcDbLine
 10
141.9825403279738
 20
77.4393039014464
 30
0.0
 11
141.9825403279738
 21
81.43930390144641
 31
0.0
  0
LINE
  5
1531
330
1510
100
AcDbEntity
  8
太線
100
AcDbLine
 10
131.9644995438761
 20
81.43930390144641
 30
0.0
 11
131.9644995438761
 21
77.4393039014464
 31
0.0
  0
LINE
  5
1532
330
1510
100
AcDbEntity
  8
太線
100
AcDbLine
 10
121.9644995438761
 20
77.4393039014464
 30
0.0
 11
121.9644995438761
 21
81.43930390144641
 31
0.0
  0
ARC
  5
1533
330
1510
100
AcDbEntity
  8
太線
100
AcDbCircle
 10
121.4644995438761
 20
77.4393039014464
 30
0.0
 40
0.5
100
AcDbArc
 50
270.0
 51
0.0
  0
LINE
  5
1534
330
1510
100
AcDbEntity
  8
太線
100
AcDbLine
 10
132.4644995438761
 20
76.9393039014464
 30
0.0
 11
141.4825403279738
 21
76.9393039014464
 31
0.0
  0
ARC
  5
1535
330
1510
100
AcDbEntity
  8
太線
100
AcDbCircle
 10
132.4644995438761
 20
77.4393039014464
 30
0.0
 40
0.5
100
AcDbArc
 50
180.0
 51
270.0
  0
ARC
  5
1536
330
1510
100
AcDbEntity
  8
太線
100
AcDbCircle
 10
141.4825403279738
 20
77.4393039014464
 30
0.0
 40
0.5
100
AcDbArc
 50
270.0
 51
0.0
  0
ARC
  5
1537
330
1510
100
AcDbEntity
  8
太線
100
AcDbCircle
 10
121.4644995438761
 20
81.43930390144641
 30
0.0
 40
0.5
100
AcDbArc
 50
0.0
 51
90.0
  0
LINE
  5
1538
330
1510
100
AcDbEntity
  8
太線
100
AcDbLine
 10
119.9644995438761
 20
81.93930390144641
 30
0.0
 11
119.9644995438761
 21
86.43930390144641
 31
0.0
  0
LINE
  5
1539
330
1510
100
AcDbEntity
  8
太線
100
AcDbLine
 10
113.9464587597784
 20
86.43930390144641
 30
0.0
 11
113.9464587597784
 21
81.93930390144641
 31
0.0
  0
LINE
  5
153A
330
1510
100
AcDbEntity
  8
想像線
100
AcDbLine
 10
113.9464587597784
 20
81.93930390144641
 30
0.0
 11
119.9644995438761
 21
81.93930390144641
 31
0.0
  0
LINE
  5
153B
330
1510
100
AcDbEntity
  8
太線
100
AcDbLine
 10
121.4644995438761
 20
81.93930390144641
 30
0.0
 11
119.9644995438761
 21
81.93930390144641
 31
0.0
  0
LINE
  5
153C
330
1510
100
AcDbEntity
  8
太線
100
AcDbLine
 10
119.4644995438761
 20
86.93930390144641
 30
0.0
 11
114.4464587597784
 21
86.93930390144641
 31
0.0
  0
ARC
  5
153D
330
1510
100
AcDbEntity
  8
太線
100
AcDbCircle
 10
114.4464587597784
 20
86.43930390144641
 30
0.0
 40
0.5
100
AcDbArc
 50
90.0
 51
180.0
  0
CIRCLE
  5
153E
330
1510
100
AcDbEntity
  8
太線
100
AcDbCircle
 10
115.4464587597784
 20
85.43930390144641
 30
0.0
 40
0.5588291886667776
  0
LINE
  5
153F
330
1510
100
AcDbEntity
  8
極太線
100
AcDbLine
 10
115.4464587597784
 20
85.99813309011318
 30
0.0
 11
115.4464587597784
 21
84.88047471277964
 31
0.0
  0
LINE
  5
1540
330
1510
100
AcDbEntity
  8
極太線
100
AcDbLine
 10
114.8876295711116
 20
85.43930390144641
 30
0.0
 11
116.0052879484452
 21
85.43930390144641
 31
0.0
  0
ARC
  5
1541
330
1510
100
AcDbEntity
  8
太線
100
AcDbCircle
 10
119.4644995438761
 20
86.43930390144641
 30
0.0
 40
0.5
100
AcDbArc
 50
0.0
 51
90.0
  0
LINE
  5
1542
330
1510
100
AcDbEntity
  8
極太線
100
AcDbLine
 10
117.9056703552094
 20
85.43930390144641
 30
0.0
 11
119.0233287325429
 21
85.43930390144641
 31
0.0
  0
LINE
  5
1543
330
1510
100
AcDbEntity
  8
極太線
100
AcDbLine
 10
118.4644995438761
 20
85.99813309011318
 30
0.0
 11
118.4644995438761
 21
84.88047471277964
 31
0.0
  0
CIRCLE
  5
1544
330
1510
100
AcDbEntity
  8
太線
100
AcDbCircle
 10
118.4644995438761
 20
85.43930390144641
 30
0.0
 40
0.5588291886667776
  0
LINE
  5
1545
330
1510
100
AcDbEntity
  8
想像線
100
AcDbLine
 10
133.9644995438761
 20
81.93930390144641
 30
0.0
 11
139.9825403279738
 21
81.93930390144641
 31
0.0
  0
LINE
  5
1546
330
1510
100
AcDbEntity
  8
極太線
100
AcDbLine
 10
137.9237111393071
 20
85.43930390144641
 30
0.0
 11
139.0413695166406
 21
85.43930390144641
 31
0.0
  0
CIRCLE
  5
1547
330
1510
100
AcDbEntity
  8
太線
100
AcDbCircle
 10
138.4825403279738
 20
85.43930390144641
 30
0.0
 40
0.5588291886667776
  0
CIRCLE
  5
1548
330
1510
100
AcDbEntity
  8
太線
100
AcDbCircle
 10
138.4825403279738
 20
83.26342923362075
 30
0.0
 40
0.5588291886667776
  0
LINE
  5
1549
330
1510
100
AcDbEntity
  8
極太線
100
AcDbLine
 10
137.9237111393071
 20
83.26342923362075
 30
0.0
 11
139.0413695166406
 21
83.26342923362075
 31
0.0
  0
LINE
  5
154A
330
1510
100
AcDbEntity
  8
太線
100
AcDbLine
 10
139.4825403279738
 20
86.93930390144641
 30
0.0
 11
134.4644995438761
 21
86.93930390144641
 31
0.0
  0
LINE
  5
154B
330
1510
100
AcDbEntity
  8
太線
100
AcDbLine
 10
133.9644995438761
 20
86.43930390144641
 30
0.0
 11
133.9644995438761
 21
81.93930390144641
 31
0.0
  0
ARC
  5
154C
330
1510
100
AcDbEntity
  8
太線
100
AcDbCircle
 10
132.4644995438761
 20
81.43930390144641
 30
0.0
 40
0.5
100
AcDbArc
 50
90.0
 51
180.0
  0
LINE
  5
154D
330
1510
100
AcDbEntity
  8
太線
100
AcDbLine
 10
133.9644995438761
 20
81.93930390144641
 30
0.0
 11
132.4644995438761
 21
81.93930390144641
 31
0.0
  0
LINE
  5
154E
330
1510
100
AcDbEntity
  8
極太線
100
AcDbLine
 10
134.9056703552093
 20
83.26342923362075
 30
0.0
 11
136.0233287325429
 21
83.26342923362075
 31
0.0
  0
LINE
  5
154F
330
1510
100
AcDbEntity
  8
極太線
100
AcDbLine
 10
135.4644995438761
 20
83.82225842228752
 30
0.0
 11
135.4644995438761
 21
82.70460004495395
 31
0.0
  0
CIRCLE
  5
1550
330
1510
100
AcDbEntity
  8
太線
100
AcDbCircle
 10
135.4644995438761
 20
83.26342923362075
 30
0.0
 40
0.5588291886667776
  0
ARC
  5
1551
330
1510
100
AcDbEntity
  8
太線
100
AcDbCircle
 10
134.4644995438761
 20
86.43930390144641
 30
0.0
 40
0.5
100
AcDbArc
 50
90.0
 51
180.0
  0
CIRCLE
  5
1552
330
1510
100
AcDbEntity
  8
太線
100
AcDbCircle
 10
135.4644995438761
 20
85.43930390144641
 30
0.0
 40
0.5588291886667776
  0
LINE
  5
1553
330
1510
100
AcDbEntity
  8
極太線
100
AcDbLine
 10
135.4644995438761
 20
85.99813309011318
 30
0.0
 11
135.4644995438761
 21
84.88047471277964
 31
0.0
  0
LINE
  5
1554
330
1510
100
AcDbEntity
  8
極太線
100
AcDbLine
 10
134.9056703552093
 20
85.43930390144641
 30
0.0
 11
136.0233287325429
 21
85.43930390144641
 31
0.0
  0
LINE
  5
1555
330
1510
100
AcDbEntity
  8
太線
100
AcDbLine
 10
139.9825403279738
 20
81.93930390144641
 30
0.0
 11
139.9825403279738
 21
86.43930390144641
 31
0.0
  0
ARC
  5
1556
330
1510
100
AcDbEntity
  8
太線
100
AcDbCircle
 10
141.4825403279738
 20
81.43930390144641
 30
0.0
 40
0.5
100
AcDbArc
 50
0.0
 51
90.0
  0
LINE
  5
1557
330
1510
100
AcDbEntity
  8
極太線
100
AcDbLine
 10
138.4825403279738
 20
83.82225842228752
 30
0.0
 11
138.4825403279738
 21
82.70460004495395
 31
0.0
  0
LINE
  5
1558
330
1510
100
AcDbEntity
  8
太線
100
AcDbLine
 10
141.4825403279738
 20
81.93930390144641
 30
0.0
 11
139.9825403279738
 21
81.93930390144641
 31
0.0
  0
ARC
  5
1559
330
1510
100
AcDbEntity
  8
太線
100
AcDbCircle
 10
139.4825403279738
 20
86.43930390144641
 30
0.0
 40
0.5
100
AcDbArc
 50
0.0
 51
90.0
  0
LINE
  5
155A
330
1510
100
AcDbEntity
  8
極太線
100
AcDbLine
 10
138.4825403279738
 20
85.99813309011318
 30
0.0
 11
138.4825403279738
 21
84.88047471277964
 31
0.0
  0
ENDBLK
  5
155C
330
1510
100
AcDbEntity
  8
0
100
AcDbBlockEnd
  0
BLOCK
  5
2BAD
330
2BA3
100
AcDbEntity
  8
0
100
AcDbBlockBegin
  2
*D2
 70
     1
 10
0.0
 20
0.0
 30
0.0
  3
*D2
  1

  0
LINE
  5
2CFE
330
2BA3
100
AcDbEntity
  8
寸法線
 62
     0
370
    -2
100
AcDbLine
 10
129.0157804096668
 20
150.4711488256961
 30
0.0
 11
95.57158857801221
 21
150.4711488256961
 31
0.0
  0
LINE
  5
2CFF
330
2BA3
100
AcDbEntity
  8
寸法線
 62
     0
370
    -2
100
AcDbLine
 10
114.0157804096668
 20
210.4788998873083
 30
0.0
 11
95.57158857801223
 21
210.4788998873083
 31
0.0
  0
LINE
  5
2D00
330
2BA3
100
AcDbEntity
  8
寸法線
 62
     0
370
    -2
100
AcDbLine
 10
98.57158857801222
 20
153.4711488256961
 30
0.0
 11
98.57158857801223
 21
207.4788998873083
 31
0.0
  0
INSERT
  5
2D01
330
2BA3
100
AcDbEntity
  8
寸法線
 62
     0
370
    -2
100
AcDbBlockReference
  2
_Closed
 10
98.57158857801222
 20
150.4711488256961
 30
0.0
 41
3.0
 42
3.0
 43
3.0
 50
270.0
  0
INSERT
  5
2D02
330
2BA3
100
AcDbEntity
  8
寸法線
 62
     0
370
    -2
100
AcDbBlockReference
  2
_Closed
 10
98.57158857801223
 20
210.4788998873083
 30
0.0
 41
3.0
 42
3.0
 43
3.0
 50
90.0
  0
MTEXT
  5
2D03
330
2BA3
100
AcDbEntity
  8
寸法線
 62
     0
100
AcDbMText
 10
95.0715885780122
 20
180.4750243565022
 30
0.0
 40
5.0
 41
0.0
 71
     5
 72
     1
  1
57.3
  7
OKANO
 11
0.0000000000000001
 21
1.0
 31
0.0
 73
     1
 44
1.0
  0
POINT
  5
2D04
330
2BA3
100
AcDbEntity
  8
Defpoints
 62
     0
100
AcDbPoint
 10
131.0157804096668
 20
150.4711488256961
 30
0.0
  0
POINT
  5
2D05
330
2BA3
100
AcDbEntity
  8
Defpoints
 62
     0
100
AcDbPoint
 10
116.0157804096668
 20
210.4788998873083
 30
0.0
  0
POINT
  5
2D06
330
2BA3
100
AcDbEntity
  8
Defpoints
 62
     0
100
AcDbPoint
 10
98.57158857801223
 20
210.4788998873083
 30
0.0
  0
ENDBLK
  5
2BAE
330
2BA3
100
AcDbEntity
  8
0
100
AcDbBlockEnd
  0
BLOCK
  5
2BC7
330
2BBD
100
AcDbEntity
  8
0
100
AcDbBlockBegin
  2
*D3
 70
     1
 10
0.0
 20
0.0
 30
0.0
  3
*D3
  1

  0
LINE
  5
2BBE
330
2BBD
100
AcDbEntity
  8
寸法線
 62
     0
370
    -2
100
AcDbLine
 10
188.0157804096668
 20
125.4711488256961
 30
0.0
 11
208.3221389779395
 21
125.4711488256961
 31
0.0
  0
LINE
  5
2BBF
330
2BBD
100
AcDbEntity
  8
寸法線
 62
     0
370
    -2
100
AcDbLine
 10
188.0157804096668
 20
150.4711488256961
 30
0.0
 11
208.3221389779395
 21
150.4711488256961
 31
0.0
  0
LINE
  5
2BC0
330
2BBD
100
AcDbEntity
  8
寸法線
 62
     0
370
    -2
100
AcDbLine
 10
205.3221389779395
 20
128.4711488256961
 30
0.0
 11
205.3221389779395
 21
147.4711488256961
 31
0.0
  0
INSERT
  5
2BC1
330
2BBD
100
AcDbEntity
  8
寸法線
 62
     0
370
    -2
100
AcDbBlockReference
  2
_Closed
 10
205.3221389779395
 20
125.4711488256961
 30
0.0
 41
3.0
 42
3.0
 43
3.0
 50
270.0
  0
INSERT
  5
2BC2
330
2BBD
100
AcDbEntity
  8
寸法線
 62
     0
370
    -2
100
AcDbBlockReference
  2
_Closed
 10
205.3221389779395
 20
150.4711488256961
 30
0.0
 41
3.0
 42
3.0
 43
3.0
 50
90.0
  0
MTEXT
  5
2BC3
330
2BBD
100
AcDbEntity
  8
寸法線
 62
     0
100
AcDbMText
 10
201.8216468519552
 20
137.9711488256962
 30
0.0
 40
5.0
 41
0.0
 71
     5
 72
     1
  1
25
  7
OKANO
 11
0.0000000000000001
 21
1.0
 31
0.0
 73
     1
 44
1.0
  0
POINT
  5
2BC4
330
2BBD
100
AcDbEntity
  8
Defpoints
 62
     0
100
AcDbPoint
 10
186.0157804096668
 20
125.4711488256961
 30
0.0
  0
POINT
  5
2BC5
330
2BBD
100
AcDbEntity
  8
Defpoints
 62
     0
100
AcDbPoint
 10
186.0157804096668
 20
150.4711488256961
 30
0.0
  0
POINT
  5
2BC6
330
2BBD
100
AcDbEntity
  8
Defpoints
 62
     0
100
AcDbPoint
 10
205.3221389779395
 20
150.4711488256961
 30
0.0
  0
ENDBLK
  5
2BC8
330
2BBD
100
AcDbEntity
  8
0
100
AcDbBlockEnd
  0
BLOCK
  5
2C07
330
2BFE
100
AcDbEntity
  8
0
100
AcDbBlockBegin
  2
*D4
 70
     1
 10
0.0
 20
0.0
 30
0.0
  3
*D4
  1

  0
LINE
  5
2BFF
330
2BFE
100
AcDbEntity
  8
寸法線
 62
     0
370
    -2
100
AcDbLine
 10
129.8618372520582
 20
170.1726985447131
 30
0.0
 11
124.7481285973816
 21
153.2156218003493
 31
0.0
  0
LINE
  5
2C00
330
2BFE
100
AcDbEntity
  8
寸法線
 62
     0
370
    -2
100
AcDbLine
 10
121.283432221952
 20
141.7266758510429
 30
0.0
 11
120.4172581280946
 21
138.8544393637163
 31
0.0
  0
MTEXT
  5
2C01
330
2BFE
100
AcDbEntity
  8
寸法線
 62
     0
100
AcDbMText
 10
125.2094026782211
 20
166.8674827016427
 30
0.0
 40
5.0
 41
0.0
 71
     5
 72
     1
  1
\U+22056
  7
OKANO
 11
0.2887246979524705
 21
0.9574121624422026
 31
0.0
 73
     1
 44
1.0
  0
LINE
  5
2C02
330
2BFE
100
AcDbEntity
  8
寸法線
 62
     0
370
    -2
100
AcDbLine
 10
122.1496063158094
 20
144.5989123383695
 30
0.0
 11
123.8819545035242
 21
150.3433853130228
 31
0.0
  0
INSERT
  5
2C03
330
2BFE
100
AcDbEntity
  8
寸法線
 62
     0
370
    -2
100
AcDbBlockReference
  2
_Closed
 10
122.1496063158094
 20
144.5989123383695
 30
0.0
 41
3.0
 42
3.0
 43
3.0
 50
73.21837905159384
  0
INSERT
  5
2C04
330
2BFE
100
AcDbEntity
  8
寸法線
 62
     0
370
    -2
100
AcDbBlockReference
  2
_Closed
 10
123.8819545035242
 20
150.3433853130228
 30
0.0
 41
3.0
 42
3.0
 43
3.0
 50
253.2183790515938
  0
POINT
  5
2C05
330
2BFE
100
AcDbEntity
  8
Defpoints
 62
     0
100
AcDbPoint
 10
123.8819545035242
 20
150.3433853130228
 30
0.0
  0
POINT
  5
2C06
330
2BFE
100
AcDbEntity
  8
Defpoints
 62
     0
100
AcDbPoint
 10
122.1496063158094
 20
144.5989123383695
 30
0.0
  0
ENDBLK
  5
2C08
330
2BFE
100
AcDbEntity
  8
0
100
AcDbBlockEnd
  0
BLOCK
  5
2C66
330
2C5C
100
AcDbEntity
  8
0
100
AcDbBlockBegin
  2
*D5
 70
     1
 10
0.0
 20
0.0
 30
0.0
  3
*D5
  1

  0
LINE
  5
2E55
330
2C5C
100
AcDbEntity
  8
寸法線
 62
     0
370
    -2
100
AcDbLine
 10
198.0157804096668
 20
205.4711488256961
 30
0.0
 11
211.389313843358
 21
205.4711488256961
 31
0.0
  0
LINE
  5
2E56
330
2C5C
100
AcDbEntity
  8
寸法線
 62
     0
370
    -2
100
AcDbLine
 10
198.0157804096668
 20
155.4711488256961
 30
0.0
 11
211.3893138433579
 21
155.4711488256961
 31
0.0
  0
LINE
  5
2E57
330
2C5C
100
AcDbEntity
  8
寸法線
 62
     0
370
    -2
100
AcDbLine
 10
208.3893138433579
 20
202.4711488256961
 30
0.0
 11
208.3893138433579
 21
158.4711488256961
 31
0.0
  0
INSERT
  5
2E58
330
2C5C
100
AcDbEntity
  8
寸法線
 62
     0
370
    -2
100
AcDbBlockReference
  2
_Closed
 10
208.3893138433579
 20
205.4711488256961
 30
0.0
 41
3.0
 42
3.0
 43
3.0
 50
90.0
  0
INSERT
  5
2E59
330
2C5C
100
AcDbEntity
  8
寸法線
 62
     0
370
    -2
100
AcDbBlockReference
  2
_Closed
 10
208.3893138433579
 20
155.4711488256961
 30
0.0
 41
3.0
 42
3.0
 43
3.0
 50
270.0
  0
MTEXT
  5
2E5A
330
2C5C
100
AcDbEntity
  8
寸法線
 62
     0
100
AcDbMText
 10
204.8893138433579
 20
180.4711488256962
 30
0.0
 40
5.0
 41
0.0
 71
     5
 72
     1
  1
49.6
  7
OKANO
 11
0.0000000000000001
 21
1.0
 31
0.0
 73
     1
 44
1.0
  0
POINT
  5
2E5B
330
2C5C
100
AcDbEntity
  8
Defpoints
 62
     0
100
AcDbPoint
 10
196.0157804096668
 20
205.4711488256961
 30
0.0
  0
POINT
  5
2E5C
330
2C5C
100
AcDbEntity
  8
Defpoints
 62
     0
100
AcDbPoint
 10
196.0157804096668
 20
155.4711488256961
 30
0.0
  0
POINT
  5
2E5D
330
2C5C
100
AcDbEntity
  8
Defpoints
 62
     0
100
AcDbPoint
 10
208.3893138433579
 20
155.4711488256961
 30
0.0
  0
ENDBLK
  5
2C67
330
2C5C
100
AcDbEntity
  8
0
100
AcDbBlockEnd
  0
BLOCK
  5
2C73
330
2C69
100
AcDbEntity
  8
0
100
AcDbBlockBegin
  2
*D6
 70
     1
 10
0.0
 20
0.0
 30
0.0
  3
*D6
  1

  0
LINE
  5
2DCF
330
2C69
100
AcDbEntity
  8
寸法線
 62
     0
370
    -2
100
AcDbLine
 10
114.0157804096668
 20
205.4711488256961
 30
0.0
 11
102.5560085577965
 21
205.4711488256961
 31
0.0
  0
LINE
  5
2DD0
330
2C69
100
AcDbEntity
  8
寸法線
 62
     0
370
    -2
100
AcDbLine
 10
114.0157804096668
 20
155.4711488256961
 30
0.0
 11
102.5560085577965
 21
155.4711488256961
 31
0.0
  0
LINE
  5
2DD1
330
2C69
100
AcDbEntity
  8
寸法線
 62
     0
370
    -2
100
AcDbLine
 10
105.5560085577965
 20
202.4711488256961
 30
0.0
 11
105.5560085577965
 21
158.4711488256961
 31
0.0
  0
INSERT
  5
2DD2
330
2C69
100
AcDbEntity
  8
寸法線
 62
     0
370
    -2
100
AcDbBlockReference
  2
_Closed
 10
105.5560085577965
 20
205.4711488256961
 30
0.0
 41
3.0
 42
3.0
 43
3.0
 50
90.0
  0
INSERT
  5
2DD3
330
2C69
100
AcDbEntity
  8
寸法線
 62
     0
370
    -2
100
AcDbBlockReference
  2
_Closed
 10
105.5560085577965
 20
155.4711488256961
 30
0.0
 41
3.0
 42
3.0
 43
3.0
 50
270.0
  0
MTEXT
  5
2DD4
330
2C69
100
AcDbEntity
  8
寸法線
 62
     0
100
AcDbMText
 10
102.0560085577965
 20
180.4711488256961
 30
0.0
 40
5.0
 41
0.0
 71
     5
 72
     1
  1
49.3
  7
OKANO
 11
0.0000000000000001
 21
1.0
 31
0.0
 73
     1
 44
1.0
  0
POINT
  5
2DD5
330
2C69
100
AcDbEntity
  8
Defpoints
 62
     0
100
AcDbPoint
 10
116.0157804096668
 20
205.4711488256961
 30
0.0
  0
POINT
  5
2DD6
330
2C69
100
AcDbEntity
  8
Defpoints
 62
     0
100
AcDbPoint
 10
116.0157804096668
 20
155.4711488256961
 30
0.0
  0
POINT
  5
2DD7
330
2C69
100
AcDbEntity
  8
Defpoints
 62
     0
100
AcDbPoint
 10
105.5560085577965
 20
155.4711488256961
 30
0.0
  0
ENDBLK
  5
2C74
330
2C69
100
AcDbEntity
  8
0
100
AcDbBlockEnd
  0
BLOCK
  5
2CAE
330
2CA4
100
AcDbEntity
  8
0
100
AcDbBlockBegin
  2
*D7
 70
     1
 10
0.0
 20
0.0
 30
0.0
  3
*D7
  1

  0
LINE
  5
2D2B
330
2CA4
100
AcDbEntity
  8
寸法線
 62
     0
370
    -2
100
AcDbLine
 10
131.0157804096668
 20
113.4711488256961
 30
0.0
 11
131.0157804096668
 21
100.223394386801
 31
0.0
  0
LINE
  5
2D2C
330
2CA4
100
AcDbEntity
  8
寸法線
 62
     0
370
    -2
100
AcDbLine
 10
181.0157804096668
 20
113.4711488256961
 30
0.0
 11
181.0157804096668
 21
100.223394386801
 31
0.0
  0
LINE
  5
2D2D
330
2CA4
100
AcDbEntity
  8
寸法線
 62
     0
370
    -2
100
AcDbLine
 10
134.0157804096668
 20
103.223394386801
 30
0.0
 11
178.0157804096668
 21
103.223394386801
 31
0.0
  0
INSERT
  5
2D2E
330
2CA4
100
AcDbEntity
  8
寸法線
 62
     0
370
    -2
100
AcDbBlockReference
  2
_Closed
 10
131.0157804096668
 20
103.223394386801
 30
0.0
 41
3.0
 42
3.0
 43
3.0
 50
180.0
  0
INSERT
  5
2D2F
330
2CA4
100
AcDbEntity
  8
寸法線
 62
     0
370
    -2
100
AcDbBlockReference
  2
_Closed
 10
181.0157804096668
 20
103.223394386801
 30
0.0
 41
3.0
 42
3.0
 43
3.0
  0
MTEXT
  5
2D30
330
2CA4
100
AcDbEntity
  8
寸法線
 62
     0
100
AcDbMText
 10
156.0157804096668
 20
106.723394386801
 30
0.0
 40
5.0
 41
0.0
 71
     5
 72
     1
  1
49.3
  7
OKANO
 73
     1
 44
1.0
  0
POINT
  5
2D31
330
2CA4
100
AcDbEntity
  8
Defpoints
 62
     0
100
AcDbPoint
 10
131.0157804096668
 20
115.4711488256961
 30
0.0
  0
POINT
  5
2D32
330
2CA4
100
AcDbEntity
  8
Defpoints
 62
     0
100
AcDbPoint
 10
181.0157804096668
 20
115.4711488256961
 30
0.0
  0
POINT
  5
2D33
330
2CA4
100
AcDbEntity
  8
Defpoints
 62
     0
100
AcDbPoint
 10
181.0157804096668
 20
103.223394386801
 30
0.0
  0
ENDBLK
  5
2CAF
330
2CA4
100
AcDbEntity
  8
0
100
AcDbBlockEnd
  0
BLOCK
  5
2CBB
330
2CB1
100
AcDbEntity
  8
0
100
AcDbBlockBegin
  2
*D8
 70
     1
 10
0.0
 20
0.0
 30
0.0
  3
*D8
  1

  0
LINE
  5
2D22
330
2CB1
100
AcDbEntity
  8
寸法線
 62
     0
370
    -2
100
AcDbLine
 10
126.5157804096668
 20
113.9711488256961
 30
0.0
 11
126.5157804096668
 21
84.27705605279777
 31
0.0
  0
LINE
  5
2D23
330
2CB1
100
AcDbEntity
  8
寸法線
 62
     0
370
    -2
100
AcDbLine
 10
185.5157804096668
 20
113.9711488256961
 30
0.0
 11
185.5157804096668
 21
84.27705605279777
 31
0.0
  0
LINE
  5
2D24
330
2CB1
100
AcDbEntity
  8
寸法線
 62
     0
370
    -2
100
AcDbLine
 10
129.5157804096668
 20
87.27705605279778
 30
0.0
 11
182.5157804096668
 21
87.27705605279778
 31
0.0
  0
INSERT
  5
2D25
330
2CB1
100
AcDbEntity
  8
寸法線
 62
     0
370
    -2
100
AcDbBlockReference
  2
_Closed
 10
126.5157804096668
 20
87.27705605279778
 30
0.0
 41
3.0
 42
3.0
 43
3.0
 50
180.0
  0
INSERT
  5
2D26
330
2CB1
100
AcDbEntity
  8
寸法線
 62
     0
370
    -2
100
AcDbBlockReference
  2
_Closed
 10
185.5157804096668
 20
87.27705605279778
 30
0.0
 41
3.0
 42
3.0
 43
3.0
  0
MTEXT
  5
2D27
330
2CB1
100
AcDbEntity
  8
寸法線
 62
     0
100
AcDbMText
 10
156.0157804096668
 20
90.77705605279778
 30
0.0
 40
5.0
 41
0.0
 71
     5
 72
     1
  1
57.3
  7
OKANO
 73
     1
 44
1.0
  0
POINT
  5
2D28
330
2CB1
100
AcDbEntity
  8
Defpoints
 62
     0
100
AcDbPoint
 10
126.5157804096668
 20
115.9711488256961
 30
0.0
  0
POINT
  5
2D29
330
2CB1
100
AcDbEntity
  8
Defpoints
 62
     0
100
AcDbPoint
 10
185.5157804096668
 20
115.9711488256961
 30
0.0
  0
POINT
  5
2D2A
330
2CB1
100
AcDbEntity
  8
Defpoints
 62
     0
100
AcDbPoint
 10
185.5157804096668
 20
87.27705605279778
 30
0.0
  0
ENDBLK
  5
2CBC
330
2CB1
100
AcDbEntity
  8
0
100
AcDbBlockEnd
  0
BLOCK
  5
2CC8
330
2CBE
100
AcDbEntity
  8
0
100
AcDbBlockBegin
  2
*D9
 70
     1
 10
0.0
 20
0.0
 30
0.0
  3
*D9
  1

  0
LINE
  5
302E
330
2CBE
100
AcDbEntity
  8
寸法線
 62
     0
370
    -2
100
AcDbLine
 10
354.1941274164269
 20
115.4711488256961
 30
0.0
 11
386.3107518060459
 21
115.4711488256961
 31
0.0
  0
LINE
  5
302F
330
2CBE
100
AcDbEntity
  8
寸法線
 62
     0
370
    -2
100
AcDbLine
 10
349.6941274164269
 20
150.4711488256961
 30
0.0
 11
386.310751806046
 21
150.4711488256961
 31
0.0
  0
LINE
  5
3030
330
2CBE
100
AcDbEntity
  8
寸法線
 62
     0
370
    -2
100
AcDbLine
 10
383.3107518060459
 20
118.4711488256961
 30
0.0
 11
383.310751806046
 21
147.4711488256961
 31
0.0
  0
INSERT
  5
3031
330
2CBE
100
AcDbEntity
  8
寸法線
 62
     0
370
    -2
100
AcDbBlockReference
  2
_Closed
 10
383.3107518060459
 20
115.4711488256961
 30
0.0
 41
3.0
 42
3.0
 43
3.0
 50
270.0
  0
INSERT
  5
3032
330
2CBE
100
AcDbEntity
  8
寸法線
 62
     0
370
    -2
100
AcDbBlockReference
  2
_Closed
 10
383.310751806046
 20
150.4711488256961
 30
0.0
 41
3.0
 42
3.0
 43
3.0
 50
90.0
  0
MTEXT
  5
3033
330
2CBE
100
AcDbEntity
  8
寸法線
 62
     0
100
AcDbMText
 10
379.8107518060459
 20
132.9711488256962
 30
0.0
 40
5.0
 41
0.0
 71
     5
 72
     1
  1
35
  7
OKANO
 11
0.0000000000000001
 21
1.0
 31
0.0
 73
     1
 44
1.0
  0
POINT
  5
3034
330
2CBE
100
AcDbEntity
  8
Defpoints
 62
     0
100
AcDbPoint
 10
352.1941274164269
 20
115.4711488256961
 30
0.0
  0
POINT
  5
3035
330
2CBE
100
AcDbEntity
  8
Defpoints
 62
     0
100
AcDbPoint
 10
347.6941274164269
 20
150.4711488256961
 30
0.0
  0
POINT
  5
3036
330
2CBE
100
AcDbEntity
  8
Defpoints
 62
     0
100
AcDbPoint
 10
383.310751806046
 20
150.4711488256961
 30
0.0
  0
ENDBLK
  5
2CC9
330
2CBE
100
AcDbEntity
  8
0
100
AcDbBlockEnd
  0
BLOCK
  5
2CD5
330
2CCB
100
AcDbEntity
  8
0
100
AcDbBlockBegin
  2
*D10
 70
     1
 10
0.0
 20
0.0
 30
0.0
  3
*D10
  1

  0
LINE
  5
3037
330
2CCB
100
AcDbEntity
  8
寸法線
 62
     0
370
    -2
100
AcDbLine
 10
349.6941274164269
 20
150.4711488256961
 30
0.0
 11
386.310751806046
 21
150.4711488256961
 31
0.0
  0
LINE
  5
3038
330
2CCB
100
AcDbEntity
  8
寸法線
 62
     0
370
    -2
100
AcDbLine
 10
349.6941274164269
 20
210.4711488256961
 30
0.0
 11
386.310751806046
 21
210.4711488256961
 31
0.0
  0
LINE
  5
3039
330
2CCB
100
AcDbEntity
  8
寸法線
 62
     0
370
    -2
100
AcDbLine
 10
383.310751806046
 20
153.4711488256961
 30
0.0
 11
383.310751806046
 21
207.4711488256961
 31
0.0
  0
INSERT
  5
303A
330
2CCB
100
AcDbEntity
  8
寸法線
 62
     0
370
    -2
100
AcDbBlockReference
  2
_Closed
 10
383.310751806046
 20
150.4711488256961
 30
0.0
 41
3.0
 42
3.0
 43
3.0
 50
270.0
  0
INSERT
  5
303B
330
2CCB
100
AcDbEntity
  8
寸法線
 62
     0
370
    -2
100
AcDbBlockReference
  2
_Closed
 10
383.310751806046
 20
210.4711488256961
 30
0.0
 41
3.0
 42
3.0
 43
3.0
 50
90.0
  0
MTEXT
  5
303C
330
2CCB
100
AcDbEntity
  8
寸法線
 62
     0
100
AcDbMText
 10
379.8107518060459
 20
180.4711488256962
 30
0.0
 40
5.0
 41
0.0
 71
     5
 72
     1
  1
57.3
  7
OKANO
 11
0.0000000000000001
 21
1.0
 31
0.0
 73
     1
 44
1.0
  0
POINT
  5
303D
330
2CCB
100
AcDbEntity
  8
Defpoints
 62
     0
100
AcDbPoint
 10
347.6941274164269
 20
150.4711488256961
 30
0.0
  0
POINT
  5
303E
330
2CCB
100
AcDbEntity
  8
Defpoints
 62
     0
100
AcDbPoint
 10
347.6941274164269
 20
210.4711488256961
 30
0.0
  0
POINT
  5
303F
330
2CCB
100
AcDbEntity
  8
Defpoints
 62
     0
100
AcDbPoint
 10
383.310751806046
 20
210.4711488256961
 30
0.0
  0
ENDBLK
  5
2CD6
330
2CCB
100
AcDbEntity
  8
0
100
AcDbBlockEnd
  0
BLOCK
  5
2CE2
330
2CD8
100
AcDbEntity
  8
0
100
AcDbBlockBegin
  2
*D11
 70
     1
 10
0.0
 20
0.0
 30
0.0
  3
*D11
  1

  0
LINE
  5
3040
330
2CD8
100
AcDbEntity
  8
寸法線
 62
     0
370
    -2
100
AcDbLine
 10
349.6941274164269
 20
210.4711488256961
 30
0.0
 11
386.310751806046
 21
210.4711488256961
 31
0.0
  0
LINE
  5
3041
330
2CD8
100
AcDbEntity
  8
寸法線
 62
     0
370
    -2
100
AcDbLine
 10
354.6941274164268
 20
244.9711488256961
 30
0.0
 11
386.310751806046
 21
244.9711488256961
 31
0.0
  0
LINE
  5
3042
330
2CD8
100
AcDbEntity
  8
寸法線
 62
     0
370
    -2
100
AcDbLine
 10
383.310751806046
 20
213.4711488256961
 30
0.0
 11
383.310751806046
 21
241.9711488256961
 31
0.0
  0
INSERT
  5
3043
330
2CD8
100
AcDbEntity
  8
寸法線
 62
     0
370
    -2
100
AcDbBlockReference
  2
_Closed
 10
383.310751806046
 20
210.4711488256961
 30
0.0
 41
3.0
 42
3.0
 43
3.0
 50
270.0
  0
INSERT
  5
3044
330
2CD8
100
AcDbEntity
  8
寸法線
 62
     0
370
    -2
100
AcDbBlockReference
  2
_Closed
 10
383.310751806046
 20
244.9711488256961
 30
0.0
 41
3.0
 42
3.0
 43
3.0
 50
90.0
  0
MTEXT
  5
3045
330
2CD8
100
AcDbEntity
  8
寸法線
 62
     0
100
AcDbMText
 10
379.8107518060459
 20
227.7211488256962
 30
0.0
 40
5.0
 41
0.0
 71
     5
 72
     1
  1
35.0
  7
OKANO
 11
0.0000000000000001
 21
1.0
 31
0.0
 73
     1
 44
1.0
  0
POINT
  5
3046
330
2CD8
100
AcDbEntity
  8
Defpoints
 62
     0
100
AcDbPoint
 10
347.6941274164269
 20
210.4711488256961
 30
0.0
  0
POINT
  5
3047
330
2CD8
100
AcDbEntity
  8
Defpoints
 62
     0
100
AcDbPoint
 10
352.6941274164268
 20
244.9711488256961
 30
0.0
  0
POINT
  5
3048
330
2CD8
100
AcDbEntity
  8
Defpoints
 62
     0
100
AcDbPoint
 10
383.310751806046
 20
244.9711488256961
 30
0.0
  0
ENDBLK
  5
2CE3
330
2CD8
100
AcDbEntity
  8
0
100
AcDbBlockEnd
  0
BLOCK
  5
2CFC
330
2CF2
100
AcDbEntity
  8
0
100
AcDbBlockBegin
  2
*D12
 70
     1
 10
0.0
 20
0.0
 30
0.0
  3
*D12
  1

  0
LINE
  5
2D19
330
2CF2
100
AcDbEntity
  8
寸法線
 62
     0
370
    -2
100
AcDbLine
 10
131.0157804096668
 20
212.4788998873083
 30
0.0
 11
131.0157804096668
 21
215.4108322513323
 31
0.0
  0
LINE
  5
2D1A
330
2CF2
100
AcDbEntity
  8
寸法線
 62
     0
370
    -2
100
AcDbLine
 10
181.0157804096668
 20
212.4788998873083
 30
0.0
 11
181.0157804096668
 21
215.4108322513323
 31
0.0
  0
LINE
  5
2D1B
330
2CF2
100
AcDbEntity
  8
寸法線
 62
     0
370
    -2
100
AcDbLine
 10
134.0157804096668
 20
212.4108322513324
 30
0.0
 11
178.0157804096668
 21
212.4108322513324
 31
0.0
  0
INSERT
  5
2D1C
330
2CF2
100
AcDbEntity
  8
寸法線
 62
     0
370
    -2
100
AcDbBlockReference
  2
_Closed
 10
131.0157804096668
 20
212.4108322513324
 30
0.0
 41
3.0
 42
3.0
 43
3.0
 50
180.0
  0
INSERT
  5
2D1D
330
2CF2
100
AcDbEntity
  8
寸法線
 62
     0
370
    -2
100
AcDbBlockReference
  2
_Closed
 10
181.0157804096668
 20
212.4108322513324
 30
0.0
 41
3.0
 42
3.0
 43
3.0
  0
MTEXT
  5
2D1E
330
2CF2
100
AcDbEntity
  8
寸法線
 62
     0
100
AcDbMText
 10
156.0157804096668
 20
215.9108322513324
 30
0.0
 40
5.0
 41
0.0
 71
     5
 72
     1
  1
49.0
  7
OKANO
 73
     1
 44
1.0
  0
POINT
  5
2D1F
330
2CF2
100
AcDbEntity
  8
Defpoints
 62
     0
100
AcDbPoint
 10
131.0157804096668
 20
210.4788998873083
 30
0.0
  0
POINT
  5
2D20
330
2CF2
100
AcDbEntity
  8
Defpoints
 62
     0
100
AcDbPoint
 10
181.0157804096668
 20
210.4788998873083
 30
0.0
  0
POINT
  5
2D21
330
2CF2
100
AcDbEntity
  8
Defpoints
 62
     0
100
AcDbPoint
 10
181.0157804096668
 20
212.4108322513324
 30
0.0
  0
ENDBLK
  5
2CFD
330
2CF2
100
AcDbEntity
  8
0
100
AcDbBlockEnd
  0
BLOCK
  5
2D5A
330
2D50
100
AcDbEntity
  8
0
100
AcDbBlockBegin
  2
*D13
 70
     1
 10
0.0
 20
0.0
 30
0.0
  3
*D13
  1

  0
LINE
  5
2D72
330
2D50
100
AcDbEntity
  8
寸法線
 62
     0
370
    -2
100
AcDbLine
 10
352.1941274164269
 20
113.4711488256961
 30
0.0
 11
352.1941274164269
 21
97.78646175290134
 31
0.0
  0
LINE
  5
2D73
330
2D50
100
AcDbEntity
  8
寸法線
 62
     0
370
    -2
100
AcDbLine
 10
292.6941274164269
 20
113.9711488256961
 30
0.0
 11
292.6941274164269
 21
97.78646175290134
 31
0.0
  0
LINE
  5
2D74
330
2D50
100
AcDbEntity
  8
寸法線
 62
     0
370
    -2
100
AcDbLine
 10
349.1941274164269
 20
100.7864617529013
 30
0.0
 11
295.6941274164269
 21
100.7864617529013
 31
0.0
  0
INSERT
  5
2D75
330
2D50
100
AcDbEntity
  8
寸法線
 62
     0
370
    -2
100
AcDbBlockReference
  2
_Closed
 10
352.1941274164269
 20
100.7864617529013
 30
0.0
 41
3.0
 42
3.0
 43
3.0
  0
INSERT
  5
2D76
330
2D50
100
AcDbEntity
  8
寸法線
 62
     0
370
    -2
100
AcDbBlockReference
  2
_Closed
 10
292.6941274164269
 20
100.7864617529013
 30
0.0
 41
3.0
 42
3.0
 43
3.0
 50
180.0
  0
MTEXT
  5
2D77
330
2D50
100
AcDbEntity
  8
寸法線
 62
     0
100
AcDbMText
 10
322.4441274164269
 20
104.2864617529013
 30
0.0
 40
5.0
 41
0.0
 71
     5
 72
     1
  1
57.3
  7
OKANO
 73
     1
 44
1.0
  0
POINT
  5
2D78
330
2D50
100
AcDbEntity
  8
Defpoints
 62
     0
100
AcDbPoint
 10
352.1941274164269
 20
115.4711488256961
 30
0.0
  0
POINT
  5
2D79
330
2D50
100
AcDbEntity
  8
Defpoints
 62
     0
100
AcDbPoint
 10
292.6941274164269
 20
115.9711488256961
 30
0.0
  0
POINT
  5
2D7A
330
2D50
100
AcDbEntity
  8
Defpoints
 62
     0
100
AcDbPoint
 10
292.6941274164269
 20
100.7864617529013
 30
0.0
  0
ENDBLK
  5
2D5B
330
2D50
100
AcDbEntity
  8
0
100
AcDbBlockEnd
  0
BLOCK
  5
2D67
330
2D5D
100
AcDbEntity
  8
0
100
AcDbBlockBegin
  2
*D14
 70
     1
 10
0.0
 20
0.0
 30
0.0
  3
*D14
  1

  0
LINE
  5
2D69
330
2D5D
100
AcDbEntity
  8
寸法線
 62
     0
370
    -2
100
AcDbLine
 10
291.1941274164269
 20
244.9711488256961
 30
0.0
 11
275.2211318179659
 21
244.9711488256961
 31
0.0
  0
LINE
  5
2D6A
330
2D5D
100
AcDbEntity
  8
寸法線
 62
     0
370
    -2
100
AcDbLine
 10
290.6941274164269
 20
115.9711488256961
 30
0.0
 11
275.2211318179659
 21
115.9711488256961
 31
0.0
  0
LINE
  5
2D6B
330
2D5D
100
AcDbEntity
  8
寸法線
 62
     0
370
    -2
100
AcDbLine
 10
278.2211318179659
 20
241.9711488256961
 30
0.0
 11
278.2211318179658
 21
118.9711488256961
 31
0.0
  0
INSERT
  5
2D6C
330
2D5D
100
AcDbEntity
  8
寸法線
 62
     0
370
    -2
100
AcDbBlockReference
  2
_Closed
 10
278.2211318179659
 20
244.9711488256961
 30
0.0
 41
3.0
 42
3.0
 43
3.0
 50
90.0
  0
INSERT
  5
2D6D
330
2D5D
100
AcDbEntity
  8
寸法線
 62
     0
370
    -2
100
AcDbBlockReference
  2
_Closed
 10
278.2211318179658
 20
115.9711488256961
 30
0.0
 41
3.0
 42
3.0
 43
3.0
 50
270.0
  0
MTEXT
  5
2D6E
330
2D5D
100
AcDbEntity
  8
寸法線
 62
     0
100
AcDbMText
 10
274.7206396919816
 20
180.4711488256961
 30
0.0
 40
5.0
 41
0.0
 71
     5
 72
     1
  1
127.3
  7
OKANO
 11
0.0000000000000001
 21
1.0
 31
0.0
 73
     1
 44
1.0
  0
POINT
  5
2D6F
330
2D5D
100
AcDbEntity
  8
Defpoints
 62
     0
100
AcDbPoint
 10
293.1941274164269
 20
244.9711488256961
 30
0.0
  0
POINT
  5
2D70
330
2D5D
100
AcDbEntity
  8
Defpoints
 62
     0
100
AcDbPoint
 10
292.6941274164269
 20
115.9711488256961
 30
0.0
  0
POINT
  5
2D71
330
2D5D
100
AcDbEntity
  8
Defpoints
 62
     0
100
AcDbPoint
 10
278.2211318179658
 20
115.9711488256961
 30
0.0
  0
ENDBLK
  5
2D68
330
2D5D
100
AcDbEntity
  8
0
100
AcDbBlockEnd
  0
BLOCK
  5
2D88
330
2D7C
100
AcDbEntity
  8
0
100
AcDbBlockBegin
  2
*D15
 70
     1
 10
0.0
 20
0.0
 30
0.0
  3
*D15
  1

  0
LINE
  5
2D8A
330
2D7C
100
AcDbEntity
  8
寸法線
 62
     0
370
    -2
100
AcDbLine
 10
181.0157804096668
 20
247.4711488256961
 30
0.0
 11
181.0157804096668
 21
256.5532986166259
 31
0.0
  0
LINE
  5
2D8B
330
2D7C
100
AcDbEntity
  8
寸法線
 62
     0
370
    -2
100
AcDbLine
 10
185.5157804096668
 20
246.9711488256961
 30
0.0
 11
185.5157804096668
 21
256.5532986166259
 31
0.0
  0
LINE
  5
2D8C
330
2D7C
100
AcDbEntity
  8
寸法線
 62
     0
370
    -2
100
AcDbLine
 10
178.0157804096668
 20
253.5532986166259
 30
0.0
 11
175.0157804096668
 21
253.5532986166259
 31
0.0
  0
LINE
  5
2D8D
330
2D7C
100
AcDbEntity
  8
寸法線
 62
     0
370
    -2
100
AcDbLine
 10
188.5157804096668
 20
253.5532986166259
 30
0.0
 11
201.8905522929419
 21
253.5532986166259
 31
0.0
  0
LINE
  5
2D8E
330
2D7C
100
AcDbEntity
  8
寸法線
 62
     0
370
    -2
100
AcDbLine
 10
181.0157804096668
 20
253.5532986166259
 30
0.0
 11
185.5157804096668
 21
253.5532986166259
 31
0.0
  0
INSERT
  5
2D8F
330
2D7C
100
AcDbEntity
  8
寸法線
 62
     0
370
    -2
100
AcDbBlockReference
  2
_Closed
 10
181.0157804096668
 20
253.5532986166259
 30
0.0
 41
3.0
 42
3.0
 43
3.0
  0
INSERT
  5
2D90
330
2D7C
100
AcDbEntity
  8
寸法線
 62
     0
370
    -2
100
AcDbBlockReference
  2
_Closed
 10
185.5157804096668
 20
253.5532986166259
 30
0.0
 41
3.0
 42
3.0
 43
3.0
 50
180.0
  0
MTEXT
  5
2D91
330
2D7C
100
AcDbEntity
  8
寸法線
 62
     0
100
AcDbMText
 10
196.7031663513044
 20
257.0532986166259
 30
0.0
 40
5.0
 41
0.0
 71
     5
 72
     1
  1
4.0
  7
OKANO
 73
     1
 44
1.0
  0
POINT
  5
2D92
330
2D7C
100
AcDbEntity
  8
Defpoints
 62
     0
100
AcDbPoint
 10
181.0157804096668
 20
245.4711488256961
 30
0.0
  0
POINT
  5
2D93
330
2D7C
100
AcDbEntity
  8
Defpoints
 62
     0
100
AcDbPoint
 10
185.5157804096668
 20
244.9711488256961
 30
0.0
  0
POINT
  5
2D94
330
2D7C
100
AcDbEntity
  8
Defpoints
 62
     0
100
AcDbPoint
 10
185.5157804096668
 20
253.5532986166259
 30
0.0
  0
ENDBLK
  5
2D89
330
2D7C
100
AcDbEntity
  8
0
100
AcDbBlockEnd
  0
BLOCK
  5
2DA0
330
2D96
100
AcDbEntity
  8
0
100
AcDbBlockBegin
  2
*D16
 70
     1
 10
0.0
 20
0.0
 30
0.0
  3
*D16
  1

  0
LINE
  5
2DA2
330
2D96
100
AcDbEntity
  8
寸法線
 62
     0
370
    -2
100
AcDbLine
 10
131.0157804096668
 20
148.4711488256961
 30
0.0
 11
131.0157804096668
 21
144.6726167161998
 31
0.0
  0
LINE
  5
2DA3
330
2D96
100
AcDbEntity
  8
寸法線
 62
     0
370
    -2
100
AcDbLine
 10
181.0157804096668
 20
148.4711488256961
 30
0.0
 11
181.0157804096668
 21
144.6726167161998
 31
0.0
  0
LINE
  5
2DA4
330
2D96
100
AcDbEntity
  8
寸法線
 62
     0
370
    -2
100
AcDbLine
 10
134.0157804096668
 20
147.6726167161998
 30
0.0
 11
178.0157804096668
 21
147.6726167161998
 31
0.0
  0
INSERT
  5
2DA5
330
2D96
100
AcDbEntity
  8
寸法線
 62
     0
370
    -2
100
AcDbBlockReference
  2
_Closed
 10
131.0157804096668
 20
147.6726167161998
 30
0.0
 41
3.0
 42
3.0
 43
3.0
 50
180.0
  0
INSERT
  5
2DA6
330
2D96
100
AcDbEntity
  8
寸法線
 62
     0
370
    -2
100
AcDbBlockReference
  2
_Closed
 10
181.0157804096668
 20
147.6726167161998
 30
0.0
 41
3.0
 42
3.0
 43
3.0
  0
MTEXT
  5
2DA7
330
2D96
100
AcDbEntity
  8
寸法線
 62
     0
100
AcDbMText
 10
156.0157804096668
 20
151.1726167161998
 30
0.0
 40
5.0
 41
0.0
 71
     5
 72
     1
  1
49.0
  7
OKANO
 73
     1
 44
1.0
  0
POINT
  5
2DA8
330
2D96
100
AcDbEntity
  8
Defpoints
 62
     0
100
AcDbPoint
 10
131.0157804096668
 20
150.4711488256961
 30
0.0
  0
POINT
  5
2DA9
330
2D96
100
AcDbEntity
  8
Defpoints
 62
     0
100
AcDbPoint
 10
181.0157804096668
 20
150.4711488256961
 30
0.0
  0
POINT
  5
2DAA
330
2D96
100
AcDbEntity
  8
Defpoints
 62
     0
100
AcDbPoint
 10
181.0157804096668
 20
147.6726167161998
 30
0.0
  0
ENDBLK
  5
2DA1
330
2D96
100
AcDbEntity
  8
0
100
AcDbBlockEnd
  0
BLOCK
  5
2E12
330
2E08
100
AcDbEntity
  8
0
100
AcDbBlockBegin
  2
*D17
 70
     1
 10
0.0
 20
0.0
 30
0.0
  3
*D17
  1

  0
LINE
  5
2F98
330
2E08
100
AcDbEntity
  8
寸法線
 62
     0
370
    -2
100
AcDbLine
 10
114.0157804096668
 20
63.53560202454525
 30
0.0
 11
114.0157804096668
 21
80.10772813579421
 31
0.0
  0
LINE
  5
2F99
330
2E08
100
AcDbEntity
  8
寸法線
 62
     0
370
    -2
100
AcDbLine
 10
198.0157804096668
 20
63.53560202454525
 30
0.0
 11
198.0157804096668
 21
80.10772813579421
 31
0.0
  0
LINE
  5
2F9A
330
2E08
100
AcDbEntity
  8
寸法線
 62
     0
370
    -2
100
AcDbLine
 10
117.0157804096668
 20
77.10772813579422
 30
0.0
 11
195.0157804096668
 21
77.10772813579422
 31
0.0
  0
INSERT
  5
2F9B
330
2E08
100
AcDbEntity
  8
寸法線
 62
     0
370
    -2
100
AcDbBlockReference
  2
_Closed
 10
114.0157804096668
 20
77.10772813579422
 30
0.0
 41
3.0
 42
3.0
 43
3.0
 50
180.0
  0
INSERT
  5
2F9C
330
2E08
100
AcDbEntity
  8
寸法線
 62
     0
370
    -2
100
AcDbBlockReference
  2
_Closed
 10
198.0157804096668
 20
77.10772813579422
 30
0.0
 41
3.0
 42
3.0
 43
3.0
  0
MTEXT
  5
2F9D
330
2E08
100
AcDbEntity
  8
寸法線
 62
     0
100
AcDbMText
 10
156.0157804096668
 20
80.60772813579422
 30
0.0
 40
5.0
 41
0.0
 71
     5
 72
     1
  1
81.3
  7
OKANO
 73
     1
 44
1.0
  0
POINT
  5
2F9E
330
2E08
100
AcDbEntity
  8
Defpoints
 62
     0
100
AcDbPoint
 10
114.0157804096668
 20
61.53560202454525
 30
0.0
  0
POINT
  5
2F9F
330
2E08
100
AcDbEntity
  8
Defpoints
 62
     0
100
AcDbPoint
 10
198.0157804096668
 20
61.53560202454525
 30
0.0
  0
POINT
  5
2FA0
330
2E08
100
AcDbEntity
  8
Defpoints
 62
     0
100
AcDbPoint
 10
198.0157804096668
 20
77.10772813579422
 30
0.0
  0
ENDBLK
  5
2E13
330
2E08
100
AcDbEntity
  8
0
100
AcDbBlockEnd
  0
BLOCK
  5
2E29
330
2E1E
100
AcDbEntity
  8
0
100
AcDbBlockBegin
  2
*D18
 70
     1
 10
0.0
 20
0.0
 30
0.0
  3
*D18
  1

  0
LINE
  5
2E2B
330
2E1E
100
AcDbEntity
  8
寸法線
 62
     0
370
    -2
100
AcDbLine
 10
186.0157804096668
 20
152.4711488256961
 30
0.0
 11
186.0157804096668
 21
163.9918050665916
 31
0.0
  0
LINE
  5
2E2C
330
2E1E
100
AcDbEntity
  8
寸法線
 62
     0
370
    -2
100
AcDbLine
 10
198.1689596938031
 20
152.4711488256961
 30
0.0
 11
198.1689596938031
 21
163.9918050665916
 31
0.0
  0
LINE
  5
2E2D
330
2E1E
100
AcDbEntity
  8
寸法線
 62
     0
370
    -2
100
AcDbLine
 10
189.0157804096668
 20
160.9918050665916
 30
0.0
 11
195.1689596938031
 21
160.9918050665916
 31
0.0
  0
INSERT
  5
2E2E
330
2E1E
100
AcDbEntity
  8
寸法線
 62
     0
370
    -2
100
AcDbBlockReference
  2
_Closed
 10
186.0157804096668
 20
160.9918050665916
 30
0.0
 41
3.0
 42
3.0
 43
3.0
 50
180.0
  0
INSERT
  5
2E2F
330
2E1E
100
AcDbEntity
  8
寸法線
 62
     0
370
    -2
100
AcDbBlockReference
  2
_Closed
 10
198.1689596938031
 20
160.9918050665916
 30
0.0
 41
3.0
 42
3.0
 43
3.0
  0
MTEXT
  5
2E30
330
2E1E
100
AcDbEntity
  8
寸法線
 62
     0
100
AcDbMText
 10
192.092370051735
 20
164.4922971925758
 30
0.0
 40
5.0
 41
0.0
 71
     5
 72
     1
  1
12
  7
OKANO
 73
     1
 44
1.0
  0
POINT
  5
2E31
330
2E1E
100
AcDbEntity
  8
Defpoints
 62
     0
100
AcDbPoint
 10
186.0157804096668
 20
150.4711488256961
 30
0.0
  0
POINT
  5
2E32
330
2E1E
100
AcDbEntity
  8
Defpoints
 62
     0
100
AcDbPoint
 10
198.1689596938031
 20
150.4711488256961
 30
0.0
  0
POINT
  5
2E33
330
2E1E
100
AcDbEntity
  8
Defpoints
 62
     0
100
AcDbPoint
 10
198.1689596938031
 20
160.9918050665916
 30
0.0
  0
ENDBLK
  5
2E2A
330
2E1E
100
AcDbEntity
  8
0
100
AcDbBlockEnd
  0
ENDSEC
  0
SECTION
  2
ENTITIES
  0
XLINE
  5
22CA
330
1F
100
AcDbEntity
  8
構築線
370
     5
100
AcDbXline
 10
72.20151402540432
 20
178.0193172078315
 30
0.0
 11
0.0
 21
-1.0
 31
0.0
  0
XLINE
  5
2508
330
1F
100
AcDbEntity
  8
構築線
370
     5
100
AcDbXline
 10
40.70151402540432
 20
100.4711488256961
 30
0.0
 11
1.0
 21
0.0
 31
0.0
  0
XLINE
  5
28D9
330
1F
100
AcDbEntity
  8
構築線
370
     5
100
AcDbXline
 10
42.20151402540432
 20
178.0193172078315
 30
0.0
 11
0.0
 21
-1.0
 31
0.0
  0
XLINE
  5
28DA
330
1F
100
AcDbEntity
  8
構築線
370
     5
100
AcDbXline
 10
102.2015140254043
 20
178.0193172078315
 30
0.0
 11
0.0
 21
-1.0
 31
0.0
  0
XLINE
  5
28DB
330
1F
100
AcDbEntity
  8
構築線
370
     5
100
AcDbXline
 10
40.70151402540432
 20
150.4711488256961
 30
0.0
 11
1.0
 21
0.0
 31
0.0
  0
XLINE
  5
28DC
330
1F
100
AcDbEntity
  8
構築線
370
     5
100
AcDbXline
 10
40.70151402540432
 20
210.4711488256961
 30
0.0
 11
1.0
 21
0.0
 31
0.0
  0
XLINE
  5
28DD
330
1F
100
AcDbEntity
  8
構築線
 62
     3
370
     5
100
AcDbXline
 10
40.70151402540432
 20
180.4711488256961
 30
0.0
 11
1.0
 21
0.0
 31
0.0
  0
CIRCLE
  5
28DE
330
1F
100
AcDbEntity
  8
太線
100
AcDbCircle
 10
322.6941274164269
 20
180.4711488256961
 30
0.0
 40
30.0
  0
LINE
  5
28E0
330
1F
100
AcDbEntity
  8
太線
100
AcDbLine
 10
292.6941274164269
 20
180.4711488256961
 30
0.0
 11
292.6941274164269
 21
115.9711488256961
 31
0.0
  0
XLINE
  5
28E6
330
1F
100
AcDbEntity
  8
構築線
370
     5
100
AcDbXline
 10
97.20151402540432
 20
178.0193172078315
 30
0.0
 11
0.0
 21
-1.0
 31
0.0
  0
XLINE
  5
28E7
330
1F
100
AcDbEntity
  8
構築線
370
     5
100
AcDbXline
 10
47.20151402540432
 20
178.0193172078315
 30
0.0
 11
0.0
 21
-1.0
 31
0.0
  0
XLINE
  5
28E8
330
1F
100
AcDbEntity
  8
構築線
370
     5
100
AcDbXline
 10
40.70151402540432
 20
205.4711488256961
 30
0.0
 11
1.0
 21
0.0
 31
0.0
  0
XLINE
  5
28E9
330
1F
100
AcDbEntity
  8
構築線
370
     5
100
AcDbXline
 10
40.70151402540432
 20
155.4711488256961
 30
0.0
 11
1.0
 21
0.0
 31
0.0
  0
CIRCLE
  5
28EA
330
1F
100
AcDbEntity
  8
太線
100
AcDbCircle
 10
322.6941274164269
 20
180.4711488256961
 30
0.0
 40
25.0
  0
XLINE
  5
28EB
330
1F
100
AcDbEntity
  8
構築線
100
AcDbXline
 10
217.6414745488584
 20
210.4788998873083
 30
0.0
 11
0.0
 21
-1.0
 31
0.0
  0
XLINE
  5
28EC
330
1F
100
AcDbEntity
  8
構築線
100
AcDbXline
 10
277.6414745488584
 20
210.4788998873083
 30
0.0
 11
0.0
 21
-1.0
 31
0.0
  0
XLINE
  5
28ED
330
1F
100
AcDbEntity
  8
構築線
100
AcDbXline
 10
247.6414745488584
 20
210.4788998873083
 30
0.0
 11
0.0
 21
-1.0
 31
0.0
  0
XLINE
  5
28EE
330
1F
100
AcDbEntity
  8
構築線
100
AcDbXline
 10
222.6414745488584
 20
210.4788998873083
 30
0.0
 11
0.0
 21
-1.0
 31
0.0
  0
XLINE
  5
28EF
330
1F
100
AcDbEntity
  8
構築線
100
AcDbXline
 10
272.6414745488584
 20
210.4788998873083
 30
0.0
 11
0.0
 21
-1.0
 31
0.0
  0
LINE
  5
28F8
330
1F
100
AcDbEntity
  8
想像線
100
AcDbLine
 10
297.6941274164269
 20
115.4711488256961
 30
0.0
 11
297.6941274164269
 21
150.4711488256961
 31
0.0
  0
LINE
  5
28F9
330
1F
100
AcDbEntity
  8
想像線
100
AcDbLine
 10
297.6941274164269
 20
150.4711488256961
 30
0.0
 11
347.6941274164269
 21
150.4711488256961
 31
0.0
  0
LINE
  5
28FA
330
1F
100
AcDbEntity
  8
想像線
100
AcDbLine
 10
347.6941274164269
 20
150.4711488256961
 30
0.0
 11
347.6941274164269
 21
115.4711488256961
 31
0.0
  0
LINE
  5
28FE
330
1F
100
AcDbEntity
  8
想像線
100
AcDbLine
 10
131.0157804096668
 20
115.4711488256961
 30
0.0
 11
131.0157804096668
 21
150.4711488256961
 31
0.0
  0
LINE
  5
28FF
330
1F
100
AcDbEntity
  8
想像線
100
AcDbLine
 10
131.0157804096668
 20
150.4711488256961
 30
0.0
 11
181.0157804096668
 21
150.4711488256961
 31
0.0
  0
LINE
  5
2900
330
1F
100
AcDbEntity
  8
想像線
100
AcDbLine
 10
181.0157804096668
 20
150.4711488256961
 30
0.0
 11
181.0157804096668
 21
115.4711488256961
 31
0.0
  0
XLINE
  5
2905
330
1F
100
AcDbEntity
  8
構築線
100
AcDbXline
 10
102.7912907694046
 20
31.53560202454525
 30
0.0
 11
1.0
 21
0.0
 31
0.0
  0
XLINE
  5
2906
330
1F
100
AcDbEntity
  8
構築線
100
AcDbXline
 10
102.7912907694046
 20
61.53560202454525
 30
0.0
 11
1.0
 21
0.0
 31
0.0
  0
XLINE
  5
2907
330
1F
100
AcDbEntity
  8
構築線
100
AcDbXline
 10
102.7912907694046
 20
1.535602024545255
 30
0.0
 11
1.0
 21
0.0
 31
0.0
  0
XLINE
  5
2908
330
1F
100
AcDbEntity
  8
構築線
100
AcDbXline
 10
102.7912907694046
 20
56.53560202454525
 30
0.0
 11
1.0
 21
0.0
 31
0.0
  0
XLINE
  5
2909
330
1F
100
AcDbEntity
  8
構築線
100
AcDbXline
 10
102.7912907694046
 20
6.535602024545255
 30
0.0
 11
1.0
 21
0.0
 31
0.0
  0
CIRCLE
  5
290A
330
1F
100
AcDbEntity
  8
太線
100
AcDbCircle
 10
156.0157804096668
 20
31.53560202454525
 30
0.0
 40
30.0
  0
CIRCLE
  5
290B
330
1F
100
AcDbEntity
  8
太線
100
AcDbCircle
 10
156.0157804096668
 20
31.53560202454525
 30
0.0
 40
25.0
  0
LINE
  5
290F
330
1F
100
AcDbEntity
  8
太線
100
AcDbLine
 10
156.0157804096668
 20
61.53560202454525
 30
0.0
 11
126.0157804096668
 21
61.53560202454525
 31
0.0
  0
LINE
  5
2911
330
1F
100
AcDbEntity
  8
太線
100
AcDbLine
 10
126.0157804096668
 20
1.535602024545255
 30
0.0
 11
156.0157804096668
 21
1.535602024545255
 31
0.0
  0
TEXT
  5
29C1
330
1F
100
AcDbEntity
  8
文字
100
AcDbText
 10
356.1774498931965
 20
14.42675187346606
 30
0.0
 40
3.599999999999999
  1
SET SCREW COUP
 51
15.0
  7
OKANO
100
AcDbText
  0
TEXT
  5
29C2
330
1F
100
AcDbEntity
  8
文字
100
AcDbText
 10
336.6684946954831
 20
6.618623260180626
 30
0.0
 40
4.799999999999999
  1
joint kogyo T.okano
 51
15.0
  7
OKANO
100
AcDbText
  0
TEXT
  5
29C3
330
1F
100
AcDbEntity
  8
文字
100
AcDbText
 10
329.1801816836862
 20
21.37099476746841
 30
0.0
 40
4.799999999999999
  1
F-999-20040824 Auto CAD
 51
15.0
  7
OKANO
100
AcDbText
  0
LINE
  5
29C4
330
1F
100
AcDbEntity
  8
太線
100
AcDbLine
 10
301.7579535020723
 20
20.45018711703805
 30
0.0
 11
409.7579535020724
 21
20.45018711703805
 31
0.0
  0
LWPOLYLINE
  5
29C5
330
1F
100
AcDbEntity
  8
太線
100
AcDbPolyline
 90
        4
 70
     1
 43
0.0
 10
301.7579535020723
 20
28.85018711703805
 10
409.7579535020724
 20
28.85018711703805
 10
409.7579535020724
 20
3.650187117038058
 10
301.7579535020723
 20
3.650187117038058
  0
TEXT
  5
29C6
330
1F
100
AcDbEntity
  8
文字
100
AcDbText
 10
305.6303370681299
 20
12.25667531818737
 30
0.0
 40
2.399999999999999
  1
CHECK
 51
15.0
  7
OKANO
100
AcDbText
  0
LINE
  5
29C7
330
1F
100
AcDbEntity
  8
太線
100
AcDbLine
 10
325.7579535020723
 20
28.85018711703805
 30
0.0
 11
325.7579535020723
 21
3.650187117038058
 31
0.0
  0
TEXT
  5
29C8
330
1F
100
AcDbEntity
  8
文字
100
AcDbText
 10
305.6303370681299
 20
5.337247711971556
 30
0.0
 40
2.399999999999999
  1
ISSUED
 51
15.0
  7
OKANO
100
AcDbText
  0
TEXT
  5
29C9
330
1F
100
AcDbEntity
  8
文字
100
AcDbText
 10
305.8868515010306
 20
8.66882390123969
 30
0.0
 40
2.399999999999999
  1
APPR
 51
15.0
  7
OKANO
100
AcDbText
  0
TEXT
  5
29CA
330
1F
100
AcDbEntity
  8
文字
100
AcDbText
 10
303.8347415164441
 20
22.25140329580321
 30
0.0
 40
2.399999999999999
  1
FILM NAME
 51
15.0
  7
OKANO
100
AcDbText
  0
TEXT
  5
29CB
330
1F
100
AcDbEntity
  8
文字
100
AcDbText
 10
305.1173103937762
 20
15.84452614494641
 30
0.0
 40
2.399999999999999
  1
DRAWN
 51
15.0
  7
OKANO
100
AcDbText
  0
TEXT
  5
29CC
330
1F
100
AcDbEntity
  8
文字
100
AcDbText
 10
336.1554669254055
 20
14.05060073156689
 30
0.0
 40
4.799999999999999
  1
2-3X
 51
15.0
  7
OKANO
100
AcDbText
  0
XLINE
  5
29D1
330
1F
100
AcDbEntity
  8
構築線
370
     5
100
AcDbXline
 10
40.70151402540432
 20
260.4711488256961
 30
0.0
 11
1.0
 21
0.0
 31
0.0
  0
LINE
  5
29D8
330
1F
100
AcDbEntity
  8
太線
100
AcDbLine
 10
352.6941274164268
 20
178.0193172078315
 30
0.0
 11
352.6941274164268
 21
115.9711488256961
 31
0.0
  0
LINE
  5
29DF
330
1F
100
AcDbEntity
  8
太線
100
AcDbLine
 10
156.0157804096668
 20
61.53560202454525
 30
0.0
 11
195.5157804096668
 21
61.53560202454526
 31
0.0
  0
LINE
  5
29E1
330
1F
100
AcDbEntity
  8
太線
100
AcDbLine
 10
186.6055571536671
 20
1.535602024545255
 30
0.0
 11
156.0157804096668
 21
1.535602024545255
 31
0.0
  0
LINE
  5
2A65
330
1F
100
AcDbEntity
  8
太線
100
AcDbLine
 10
126.0157804096668
 20
210.4711488256961
 30
0.0
 11
186.0157804096668
 21
210.4711488256961
 31
0.0
  0
XLINE
  5
2A75
330
1F
100
AcDbEntity
  8
構築線
100
AcDbXline
 10
287.6414745488584
 20
210.4788998873083
 30
0.0
 11
0.0
 21
-1.0
 31
0.0
  0
XLINE
  5
2A76
330
1F
100
AcDbEntity
  8
構築線
100
AcDbXline
 10
207.6414745488584
 20
210.4788998873083
 30
0.0
 11
0.0
 21
-1.0
 31
0.0
  0
XLINE
  5
2A89
330
1F
100
AcDbEntity
  8
構築線
370
     5
100
AcDbXline
 10
40.70151402540432
 20
125.4711488256961
 30
0.0
 11
1.0
 21
0.0
 31
0.0
  0
XLINE
  5
2A8E
330
1F
100
AcDbEntity
  8
構築線
370
     5
100
AcDbXline
 10
40.70151402540432
 20
147.4711488256961
 30
0.0
 11
1.0
 21
0.0
 31
0.0
  0
XLINE
  5
2A8F
330
1F
100
AcDbEntity
  8
構築線
100
AcDbXline
 10
280.6414745488584
 20
210.4788998873083
 30
0.0
 11
0.0
 21
-1.0
 31
0.0
  0
XLINE
  5
2A90
330
1F
100
AcDbEntity
  8
構築線
100
AcDbXline
 10
214.6414745488584
 20
210.4788998873083
 30
0.0
 11
0.0
 21
-1.0
 31
0.0
  0
CIRCLE
  5
2A91
330
1F
100
AcDbEntity
  8
太線
 62
     0
100
AcDbCircle
 10
189.0157804096668
 20
147.4711488256961
 30
0.0
 40
3.0
  0
LINE
  5
2A94
330
1F
100
AcDbEntity
  8
太線
 62
     0
100
AcDbLine
 10
186.0157804096668
 20
210.4711488256961
 30
0.0
 11
196.0157804096668
 21
210.4788998873083
 31
0.0
  0
LINE
  5
2A96
330
1F
100
AcDbEntity
  8
太線
 62
     0
100
AcDbLine
 10
186.0157804096668
 20
150.4711488256961
 30
0.0
 11
196.0157804096668
 21
150.4711488256961
 31
0.0
  0
LINE
  5
2A97
330
1F
100
AcDbEntity
  8
太線
 62
     0
100
AcDbLine
 10
186.0157804096668
 20
115.9711488256961
 30
0.0
 11
186.0157804096668
 21
125.4711488256961
 31
0.0
  0
LINE
  5
2A99
330
1F
100
AcDbEntity
  8
太線
 62
     0
100
AcDbLine
 10
186.0157804096668
 20
150.4711488256961
 30
0.0
 11
186.0157804096668
 21
125.4711488256961
 31
0.0
  0
LINE
  5
2A9E
330
1F
100
AcDbEntity
  8
太線
 62
     0
100
AcDbLine
 10
126.0157804096668
 20
210.4711488256961
 30
0.0
 11
116.0157804096668
 21
210.4788998873083
 31
0.0
  0
CIRCLE
  5
2AA1
330
1F
100
AcDbEntity
  8
太線
 62
     0
100
AcDbCircle
 10
123.0157804096668
 20
147.4711488256961
 30
0.0
 40
3.0
  0
XLINE
  5
2AA3
330
1F
100
AcDbEntity
  8
構築線
370
     5
100
AcDbXline
 10
74.70151402540432
 20
178.0193172078315
 30
0.0
 11
0.0
 21
-1.0
 31
0.0
  0
XLINE
  5
2AA4
330
1F
100
AcDbEntity
  8
構築線
370
     5
100
AcDbXline
 10
69.70151402540432
 20
178.0193172078315
 30
0.0
 11
0.0
 21
-1.0
 31
0.0
  0
LINE
  5
2AA5
330
1F
100
AcDbEntity
  8
太線
 62
     0
100
AcDbLine
 10
320.1941274164269
 20
150.4711488256961
 30
0.0
 11
320.1941274164269
 21
125.4711488256961
 31
0.0
  0
LINE
  5
2AA6
330
1F
100
AcDbEntity
  8
太線
 62
     0
100
AcDbLine
 10
320.1941274164269
 20
125.4711488256961
 30
0.0
 11
325.1941274164269
 21
125.4711488256961
 31
0.0
  0
LINE
  5
2AA7
330
1F
100
AcDbEntity
  8
太線
 62
     0
100
AcDbLine
 10
325.1941274164269
 20
125.4711488256961
 30
0.0
 11
325.1941274164269
 21
150.5754969679426
 31
0.0
  0
XLINE
  5
2AAA
330
1F
100
AcDbEntity
  8
構築線
100
AcDbXline
 10
102.7912907694046
 20
34.03560202454525
 30
0.0
 11
1.0
 21
0.0
 31
0.0
  0
XLINE
  5
2AAB
330
1F
100
AcDbEntity
  8
構築線
100
AcDbXline
 10
102.7912907694046
 20
29.03560202454525
 30
0.0
 11
1.0
 21
0.0
 31
0.0
  0
LINE
  5
2AAC
330
1F
100
AcDbEntity
  8
太線
 62
     0
100
AcDbLine
 10
186.0157804096668
 20
61.53560202454525
 30
0.0
 11
196.0157804096668
 21
61.53560202454525
 31
0.0
  0
LINE
  5
2AAE
330
1F
100
AcDbEntity
  8
太線
 62
     0
100
AcDbLine
 10
195.5157804096668
 20
1.535602024545255
 30
0.0
 11
186.0157804096668
 21
1.535602024545255
 31
0.0
  0
LINE
  5
2AAF
330
1F
100
AcDbEntity
  8
太線
 62
     0
100
AcDbLine
 10
126.0157804096668
 20
61.53560202454525
 30
0.0
 11
116.5157804096668
 21
61.53560202454526
 31
0.0
  0
LINE
  5
2AB1
330
1F
100
AcDbEntity
  8
太線
 62
     0
100
AcDbLine
 10
116.5157804096668
 20
1.535602024545255
 30
0.0
 11
126.0157804096668
 21
1.535602024545255
 31
0.0
  0
LINE
  5
2AB2
330
1F
100
AcDbEntity
  8
太線
 62
     0
100
AcDbLine
 10
185.9114322674203
 20
34.03560202454525
 30
0.0
 11
196.0157804096668
 21
34.03560202454525
 31
0.0
  0
LINE
  5
2AB3
330
1F
100
AcDbEntity
  8
太線
 62
     0
100
AcDbLine
 10
196.0157804096668
 20
29.03560202454525
 30
0.0
 11
186.0157804096668
 21
29.03560202454525
 31
0.0
  0
LINE
  5
2AB4
330
1F
100
AcDbEntity
  8
太線
 62
     0
100
AcDbLine
 10
126.0157804096668
 20
34.03560202454525
 30
0.0
 11
116.0157804096668
 21
34.03560202454525
 31
0.0
  0
LINE
  5
2AB5
330
1F
100
AcDbEntity
  8
太線
 62
     0
100
AcDbLine
 10
116.0157804096668
 20
29.03560202454525
 30
0.0
 11
126.0157804096668
 21
29.03560202454525
 31
0.0
  0
XLINE
  5
2ABE
330
1F
100
AcDbEntity
  8
構築線
100
AcDbXline
 10
283.6414745488584
 20
210.4788998873083
 30
0.0
 11
0.0
 21
-1.0
 31
0.0
  0
XLINE
  5
2AC0
330
1F
100
AcDbEntity
  8
構築線
100
AcDbXline
 10
211.6414745488584
 20
210.4788998873083
 30
0.0
 11
0.0
 21
-1.0
 31
0.0
  0
LINE
  5
2AC1
330
1F
100
AcDbEntity
  8
破線
 62
     0
100
AcDbLine
 10
192.0157804096668
 20
34.03560202454525
 30
0.0
 11
192.0157804096668
 21
29.03560202454525
 31
0.0
  0
LINE
  5
2AC2
330
1F
100
AcDbEntity
  8
破線
 62
     0
100
AcDbLine
 10
120.0157804096668
 20
34.03560202454525
 30
0.0
 11
120.0157804096668
 21
29.03560202454525
 31
0.0
  0
LINE
  5
2AC5
330
1F
100
AcDbEntity
  8
太線
 62
     0
100
AcDbLine
 10
126.0157804096668
 20
115.9711488256961
 30
0.0
 11
126.0157804096668
 21
150.4711488256961
 31
0.0
  0
LINE
  5
2AC6
330
1F
100
AcDbEntity
  8
太線
 62
     0
100
AcDbLine
 10
126.0157804096668
 20
150.4711488256961
 30
0.0
 11
116.0157804096668
 21
150.4711488256961
 31
0.0
  0
LINE
  5
2B1A
330
1F
100
AcDbEntity
  8
想像線
100
AcDbLine
 10
116.0157804096668
 20
205.4711488256961
 30
0.0
 11
196.0157804096668
 21
205.4711488256961
 31
0.0
  0
LINE
  5
2B1B
330
1F
100
AcDbEntity
  8
想像線
100
AcDbLine
 10
116.0157804096668
 20
155.4711488256961
 30
0.0
 11
196.0157804096668
 21
155.4711488256961
 31
0.0
  0
XLINE
  5
2B54
330
1F
100
AcDbEntity
  8
構築線
100
AcDbXline
 10
215.1238126587759
 20
144.3069187020544
 30
0.0
 11
-1.0
 21
0.0
 31
0.0
  0
LINE
  5
2B55
330
1F
100
AcDbEntity
  8
破線
100
AcDbLine
 10
320.1941274164269
 20
144.3069187020544
 30
0.0
 11
325.1941274164269
 21
144.3069187020544
 31
0.0
  0
LINE
  5
2B62
330
1F
100
AcDbEntity
  8
太線
 62
     0
100
AcDbLine
 10
126.0157804096668
 20
210.4788998873083
 30
0.0
 11
116.0157804096668
 21
210.4788998873083
 31
0.0
  0
LINE
  5
2B64
330
1F
100
AcDbEntity
  8
太線
 62
     0
100
AcDbLine
 10
126.0157804096668
 20
244.9711488256961
 30
0.0
 11
126.0157804096668
 21
210.4788998873083
 31
0.0
  0
LINE
  5
2B65
330
1F
100
AcDbEntity
  8
太線
 62
     0
100
AcDbLine
 10
186.0157804096668
 20
210.4788998873083
 30
0.0
 11
186.0157804096668
 21
235.4788998873083
 31
0.0
  0
LINE
  5
2B67
330
1F
100
AcDbEntity
  8
想像線
100
AcDbLine
 10
181.0157804096668
 20
210.4788998873083
 30
0.0
 11
181.0157804096668
 21
245.4711488256961
 31
0.0
  0
LINE
  5
2B68
330
1F
100
AcDbEntity
  8
想像線
100
AcDbLine
 10
131.0157804096668
 20
245.4711488256961
 30
0.0
 11
131.0157804096668
 21
210.4788998873083
 31
0.0
  0
LINE
  5
2B6A
330
1F
100
AcDbEntity
  8
太線
 62
     0
100
AcDbLine
 10
186.0157804096668
 20
244.9711488256961
 30
0.0
 11
186.0157804096668
 21
235.4788998873083
 31
0.0
  0
CIRCLE
  5
2B6C
330
1F
100
AcDbEntity
  8
太線
 62
     0
100
AcDbCircle
 10
123.0157804096668
 20
213.4788998873083
 30
0.0
 40
3.0
  0
LINE
  5
2B6D
330
1F
100
AcDbEntity
  8
太線
 62
     0
100
AcDbLine
 10
186.0157804096668
 20
210.4788998873083
 30
0.0
 11
196.0157804096668
 21
210.4788998873083
 31
0.0
  0
CIRCLE
  5
2B6E
330
1F
100
AcDbEntity
  8
太線
 62
     0
100
AcDbCircle
 10
189.0157804096668
 20
213.4788998873083
 30
0.0
 40
3.0
  0
LINE
  5
2B7B
330
1F
100
AcDbEntity
  8
太線
 62
     0
100
AcDbLine
 10
325.1941274164269
 20
235.4711488256961
 30
0.0
 11
325.1941274164269
 21
210.3668006834496
 31
0.0
  0
LINE
  5
2B7C
330
1F
100
AcDbEntity
  8
太線
 62
     0
100
AcDbLine
 10
320.1941274164269
 20
210.4711488256961
 30
0.0
 11
320.1941274164269
 21
235.4711488256961
 31
0.0
  0
LINE
  5
2B7D
330
1F
100
AcDbEntity
  8
太線
100
AcDbLine
 10
352.6941274164268
 20
182.9229804435607
 30
0.0
 11
352.6941274164268
 21
244.9711488256961
 31
0.0
  0
LINE
  5
2B7E
330
1F
100
AcDbEntity
  8
想像線
100
AcDbLine
 10
347.6941274164269
 20
210.4711488256961
 30
0.0
 11
347.6941274164269
 21
245.4711488256961
 31
0.0
  0
LINE
  5
2B7F
330
1F
100
AcDbEntity
  8
想像線
100
AcDbLine
 10
297.6941274164269
 20
245.4711488256961
 30
0.0
 11
297.6941274164269
 21
210.4711488256961
 31
0.0
  0
LINE
  5
2B80
330
1F
100
AcDbEntity
  8
太線
100
AcDbLine
 10
292.6941274164269
 20
180.4711488256961
 30
0.0
 11
292.6941274164269
 21
244.9711488256961
 31
0.0
  0
LINE
  5
2B82
330
1F
100
AcDbEntity
  8
太線
 62
     0
100
AcDbLine
 10
320.1941274164269
 20
235.4711488256961
 30
0.0
 11
325.1941274164269
 21
235.4711488256961
 31
0.0
  0
LINE
  5
2B83
330
1F
100
AcDbEntity
  8
想像線
100
AcDbLine
 10
297.6941274164269
 20
210.4711488256961
 30
0.0
 11
347.6941274164269
 21
210.4711488256961
 31
0.0
  0
LINE
  5
2B84
330
1F
100
AcDbEntity
  8
破線
100
AcDbLine
 10
320.1941274164269
 20
216.6353789493379
 30
0.0
 11
325.1941274164269
 21
216.6353789493379
 31
0.0
  0
DIMENSION
  5
2BA2
330
1F
100
AcDbEntity
  8
寸法線
100
AcDbDimension
  2
*D2
 10
98.57158857801223
 20
210.4788998873083
 30
0.0
 11
95.0715885780122
 21
180.4750243565022
 31
0.0
 70
    32
  1
57.3
 71
     5
 42
60.00775106161217
  3
sunpo
100
AcDbAlignedDimension
 13
131.0157804096668
 23
150.4711488256961
 33
0.0
 14
116.0157804096668
 24
210.4788998873083
 34
0.0
 50
90.0
100
AcDbRotatedDimension
1001
ACAD
1000
DSTYLE
1002
{
1070
    40
1040
1.0
1070
   279
1070
     1
1002
}
  0
DIMENSION
  5
2BBC
330
1F
100
AcDbEntity
  8
寸法線
100
AcDbDimension
  2
*D3
 10
205.3221389779395
 20
150.4711488256961
 30
0.0
 11
201.8216468519552
 21
137.9711488256962
 31
0.0
 70
    32
 71
     5
 42
24.99999999999998
  3
sunpo
100
AcDbAlignedDimension
 13
186.0157804096668
 23
125.4711488256961
 33
0.0
 14
186.0157804096668
 24
150.4711488256961
 34
0.0
 50
90.0
100
AcDbRotatedDimension
1001
ACAD
1000
DSTYLE
1002
{
1070
    40
1040
1.0
1002
}
  0
DIMENSION
  5
2BFD
330
1F
100
AcDbEntity
  8
寸法線
100
AcDbDimension
  2
*D4
 10
122.1496063158094
 20
144.5989123383695
 30
0.0
 11
128.5603452467688
 21
165.8569462588091
 31
0.0
 70
   163
 71
     5
 42
6.0
  3
sunpo
100
AcDbDiametricDimension
 15
123.8819545035242
 25
150.3433853130228
 35
0.0
 40
0.0
1001
ACAD
1000
DSTYLE
1002
{
1070
    40
1040
1.0
1070
   288
1070
     1
1002
}
  0
XLINE
  5
2C38
330
1F
100
AcDbEntity
  8
構築線
 62
     3
370
     5
100
AcDbXline
 10
40.70151402540432
 20
115.4711488256961
 30
0.0
 11
1.0
 21
0.0
 31
0.0
  0
XLINE
  5
2C39
330
1F
100
AcDbEntity
  8
構築線
 62
     3
370
     5
100
AcDbXline
 10
40.70151402540432
 20
245.4711488256961
 30
0.0
 11
1.0
 21
0.0
 31
0.0
  0
LINE
  5
2C3A
330
1F
100
AcDbEntity
  8
太線
100
AcDbLine
 10
126.5157804096668
 20
115.4711488256961
 30
0.0
 11
185.5157804096668
 21
115.4711488256961
 31
0.0
  0
LINE
  5
2C3B
330
1F
100
AcDbEntity
  8
太線
100
AcDbLine
 10
293.1941274164269
 20
115.4711488256961
 30
0.0
 11
352.1941274164269
 21
115.4711488256961
 31
0.0
  0
LINE
  5
2C3C
330
1F
100
AcDbEntity
  8
太線
100
AcDbLine
 10
293.1941274164269
 20
245.4711488256961
 30
0.0
 11
352.1941274164269
 21
245.4711488256961
 31
0.0
  0
LINE
  5
2C3D
330
1F
100
AcDbEntity
  8
太線
100
AcDbLine
 10
126.5157804096668
 20
245.4711488256961
 30
0.0
 11
185.5157804096668
 21
245.4711488256961
 31
0.0
  0
CIRCLE
  5
2C3F
330
1F
100
AcDbEntity
  8
細線
100
AcDbCircle
 10
156.0157804096668
 20
31.53560202454525
 30
0.0
 40
23.0933490556639
  0
ARC
  5
2C41
330
1F
100
AcDbEntity
  8
太線
100
AcDbCircle
 10
293.1941274164269
 20
115.9711488256961
 30
0.0
 40
0.5
100
AcDbArc
 50
180.0
 51
270.0
  0
ARC
  5
2C42
330
1F
100
AcDbEntity
  8
太線
100
AcDbCircle
 10
352.1941274164269
 20
115.9711488256961
 30
0.0
 40
0.5
100
AcDbArc
 50
270.0
 51
0.0
  0
ARC
  5
2C43
330
1F
100
AcDbEntity
  8
太線
100
AcDbCircle
 10
352.1941274164269
 20
244.9711488256961
 30
0.0
 40
0.5
100
AcDbArc
 50
0.0
 51
90.0
  0
ARC
  5
2C44
330
1F
100
AcDbEntity
  8
太線
100
AcDbCircle
 10
293.1941274164269
 20
244.9711488256961
 30
0.0
 40
0.5
100
AcDbArc
 50
90.0
 51
180.0
  0
ARC
  5
2C45
330
1F
100
AcDbEntity
  8
太線
100
AcDbCircle
 10
185.5157804096668
 20
244.9711488256961
 30
0.0
 40
0.5
100
AcDbArc
 50
0.0
 51
90.0
  0
ARC
  5
2C46
330
1F
100
AcDbEntity
  8
太線
100
AcDbCircle
 10
126.5157804096668
 20
244.9711488256961
 30
0.0
 40
0.5
100
AcDbArc
 50
89.99999999999998
 51
179.9999999999999
  0
ARC
  5
2C47
330
1F
100
AcDbEntity
  8
太線
100
AcDbCircle
 10
185.5157804096668
 20
115.9711488256961
 30
0.0
 40
0.5
100
AcDbArc
 50
270.0
 51
0.0
  0
ARC
  5
2C48
330
1F
100
AcDbEntity
  8
太線
100
AcDbCircle
 10
126.5157804096668
 20
115.9711488256961
 30
0.0
 40
0.5
100
AcDbArc
 50
180.0
 51
270.0
  0
DIMENSION
  5
2C5B
330
1F
100
AcDbEntity
  8
寸法線
100
AcDbDimension
  2
*D5
 10
208.3893138433579
 20
155.4711488256961
 30
0.0
 11
204.8893138433579
 21
180.4711488256962
 31
0.0
 70
    32
  1
49.6
 71
     5
 42
50.0
  3
sunpo
100
AcDbAlignedDimension
 13
196.0157804096668
 23
205.4711488256961
 33
0.0
 14
196.0157804096668
 24
155.4711488256961
 34
0.0
 50
90.0
100
AcDbRotatedDimension
1001
ACAD
1000
DSTYLE
1002
{
1070
    40
1040
1.0
1002
}
  0
DIMENSION
  5
2C68
330
1F
100
AcDbEntity
  8
寸法線
100
AcDbDimension
  2
*D6
 10
105.5560085577965
 20
155.4711488256961
 30
0.0
 11
102.0560085577965
 21
180.4711488256961
 31
0.0
 70
    32
  1
49.3
 71
     5
 42
50.0
  3
sunpo
100
AcDbAlignedDimension
 13
116.0157804096668
 23
205.4711488256961
 33
0.0
 14
116.0157804096668
 24
155.4711488256961
 34
0.0
 50
90.0
100
AcDbRotatedDimension
1001
ACAD
1000
DSTYLE
1002
{
1070
    40
1040
1.0
1002
}
  0
DIMENSION
  5
2CA3
330
1F
100
AcDbEntity
  8
寸法線
100
AcDbDimension
  2
*D7
 10
181.0157804096668
 20
103.223394386801
 30
0.0
 11
156.0157804096668
 21
106.723394386801
 31
0.0
 70
    32
  1
49.3
 71
     5
 42
50.0
  3
sunpo
100
AcDbAlignedDimension
 13
131.0157804096668
 23
115.4711488256961
 33
0.0
 14
181.0157804096668
 24
115.4711488256961
 34
0.0
100
AcDbRotatedDimension
1001
ACAD
1000
DSTYLE
1002
{
1070
    40
1040
1.0
1002
}
  0
DIMENSION
  5
2CB0
330
1F
100
AcDbEntity
  8
寸法線
100
AcDbDimension
  2
*D8
 10
185.5157804096668
 20
87.27705605279778
 30
0.0
 11
156.0157804096668
 21
90.77705605279778
 31
0.0
 70
    32
  1
57.3
 71
     5
 42
58.99999999999998
  3
sunpo
100
AcDbAlignedDimension
 13
126.5157804096668
 23
115.9711488256961
 33
0.0
 14
185.5157804096668
 24
115.9711488256961
 34
0.0
100
AcDbRotatedDimension
1001
ACAD
1000
DSTYLE
1002
{
1070
    40
1040
1.0
1002
}
  0
DIMENSION
  5
2CBD
330
1F
100
AcDbEntity
  8
寸法線
100
AcDbDimension
  2
*D9
 10
383.310751806046
 20
150.4711488256961
 30
0.0
 11
379.8107518060459
 21
132.9711488256962
 31
0.0
 70
    32
 71
     5
 42
35.00000000000001
  3
sunpo
100
AcDbAlignedDimension
 13
352.1941274164269
 23
115.4711488256961
 33
0.0
 14
347.6941274164269
 24
150.4711488256961
 34
0.0
 50
90.0
100
AcDbRotatedDimension
1001
ACAD
1000
DSTYLE
1002
{
1070
    40
1040
1.0
1002
}
  0
DIMENSION
  5
2CCA
330
1F
100
AcDbEntity
  8
寸法線
100
AcDbDimension
  2
*D10
 10
383.310751806046
 20
210.4711488256961
 30
0.0
 11
379.8107518060459
 21
180.4711488256962
 31
0.0
 70
    32
  1
57.3
 71
     5
 42
60.0
  3
sunpo
100
AcDbAlignedDimension
 13
347.6941274164269
 23
150.4711488256961
 33
0.0
 14
347.6941274164269
 24
210.4711488256961
 34
0.0
 50
90.0
100
AcDbRotatedDimension
1001
ACAD
1000
DSTYLE
1002
{
1070
    40
1040
1.0
1070
   279
1070
     1
1002
}
  0
DIMENSION
  5
2CD7
330
1F
100
AcDbEntity
  8
寸法線
100
AcDbDimension
  2
*D11
 10
383.310751806046
 20
244.9711488256961
 30
0.0
 11
379.8107518060459
 21
227.7211488256962
 31
0.0
 70
    32
  1
35.0
 71
     5
 42
34.5
  3
sunpo
100
AcDbAlignedDimension
 13
347.6941274164269
 23
210.4711488256961
 33
0.0
 14
352.6941274164268
 24
244.9711488256961
 34
0.0
 50
90.0
100
AcDbRotatedDimension
1001
ACAD
1000
DSTYLE
1002
{
1070
    40
1040
1.0
1070
   279
1070
     1
1002
}
  0
DIMENSION
  5
2CF1
330
1F
100
AcDbEntity
  8
寸法線
100
AcDbDimension
  2
*D12
 10
181.0157804096668
 20
212.4108322513324
 30
0.0
 11
156.0157804096668
 21
215.9108322513324
 31
0.0
 70
    32
  1
49.0
 71
     5
 42
50.0
  3
sunpo
100
AcDbAlignedDimension
 13
131.0157804096668
 23
210.4788998873083
 33
0.0
 14
181.0157804096668
 24
210.4788998873083
 34
0.0
100
AcDbRotatedDimension
1001
ACAD
1000
DSTYLE
1002
{
1070
    40
1040
1.0
1002
}
  0
DIMENSION
  5
2D4F
330
1F
100
AcDbEntity
  8
寸法線
100
AcDbDimension
  2
*D13
 10
292.6941274164269
 20
100.7864617529013
 30
0.0
 11
322.4441274164269
 21
104.2864617529013
 31
0.0
 70
    32
  1
57.3
 71
     5
 42
59.5
  3
sunpo
100
AcDbAlignedDimension
 13
352.1941274164269
 23
115.4711488256961
 33
0.0
 14
292.6941274164269
 24
115.9711488256961
 34
0.0
100
AcDbRotatedDimension
1001
ACAD
1000
DSTYLE
1002
{
1070
    40
1040
1.0
1002
}
  0
DIMENSION
  5
2D5C
330
1F
100
AcDbEntity
  8
寸法線
100
AcDbDimension
  2
*D14
 10
278.2211318179658
 20
115.9711488256961
 30
0.0
 11
274.7206396919816
 21
180.4711488256961
 31
0.0
 70
    32
  1
127.3
 71
     5
 42
129.0
  3
sunpo
100
AcDbAlignedDimension
 13
293.1941274164269
 23
244.9711488256961
 33
0.0
 14
292.6941274164269
 24
115.9711488256961
 34
0.0
 50
90.0
100
AcDbRotatedDimension
1001
ACAD
1000
DSTYLE
1002
{
1070
    40
1040
1.0
1002
}
  0
DIMENSION
  5
2D7B
330
1F
100
AcDbEntity
  8
寸法線
100
AcDbDimension
  2
*D15
 10
185.5157804096668
 20
253.5532986166259
 30
0.0
 11
196.7031663513044
 21
257.0532986166259
 31
0.0
 70
    32
  1
4.0
 71
     5
 42
4.5
  3
sunpo
100
AcDbAlignedDimension
 13
181.0157804096668
 23
245.4711488256961
 33
0.0
 14
185.5157804096668
 24
244.9711488256961
 34
0.0
100
AcDbRotatedDimension
1001
ACAD
1000
DSTYLE
1002
{
1070
    40
1040
1.0
1002
}
  0
DIMENSION
  5
2D95
330
1F
100
AcDbEntity
  8
寸法線
100
AcDbDimension
  2
*D16
 10
181.0157804096668
 20
147.6726167161998
 30
0.0
 11
156.0157804096668
 21
151.1726167161998
 31
0.0
 70
    32
  1
49.0
 71
     5
 42
50.0
  3
sunpo
100
AcDbAlignedDimension
 13
131.0157804096668
 23
150.4711488256961
 33
0.0
 14
181.0157804096668
 24
150.4711488256961
 34
0.0
100
AcDbRotatedDimension
1001
ACAD
1000
DSTYLE
1002
{
1070
    40
1040
1.0
1002
}
  0
XLINE
  5
2DE4
330
1F
100
AcDbEntity
  8
構築線
100
AcDbXline
 10
114.0157804096668
 20
180.4711488256961
 30
0.0
 11
0.0
 21
-1.0
 31
0.0
  0
LINE
  5
2DE6
330
1F
100
AcDbEntity
  8
太線
100
AcDbLine
 10
186.0157804096668
 20
125.4711488256961
 30
0.0
 11
198.1689596938031
 21
150.4711488256961
 31
0.0
  0
LINE
  5
2DE7
330
1F
100
AcDbEntity
  8
太線
100
AcDbLine
 10
198.1689596938031
 20
150.4711488256961
 30
0.0
 11
198.0157804096668
 21
210.4711488256961
 31
0.0
  0
LINE
  5
2DE8
330
1F
100
AcDbEntity
  8
太線
100
AcDbLine
 10
198.0157804096668
 20
210.4711488256961
 30
0.0
 11
186.0157804096668
 21
235.4788998873083
 31
0.0
  0
LINE
  5
2DE9
330
1F
100
AcDbEntity
  8
太線
100
AcDbLine
 10
126.0157804096668
 20
125.4711488256962
 30
0.0
 11
114.0157804096668
 21
150.4711488256961
 31
0.0
  0
LINE
  5
2DEA
330
1F
100
AcDbEntity
  8
太線
100
AcDbLine
 10
114.0157804096668
 20
150.4711488256961
 30
0.0
 11
114.0157804096668
 21
210.4711488256961
 31
0.0
  0
LINE
  5
2DEB
330
1F
100
AcDbEntity
  8
太線
100
AcDbLine
 10
114.0157804096668
 20
210.4711488256961
 30
0.0
 11
126.0157804096668
 21
235.4788998873082
 31
0.0
  0
LINE
  5
2DEC
330
1F
100
AcDbEntity
  8
太線
100
AcDbLine
 10
198.0157804096668
 20
150.4711488256961
 30
0.0
 11
196.0157804096668
 21
150.4711488256961
 31
0.0
  0
LINE
  5
2DED
330
1F
100
AcDbEntity
  8
太線
100
AcDbLine
 10
114.0157804096668
 20
150.4711488256961
 30
0.0
 11
116.0157804096668
 21
150.4711488256961
 31
0.0
  0
LINE
  5
2DEE
330
1F
100
AcDbEntity
  8
太線
100
AcDbLine
 10
114.0157804096668
 20
210.4711488256961
 30
0.0
 11
116.0157804096668
 21
210.4788998873083
 31
0.0
  0
LINE
  5
2DEF
330
1F
100
AcDbEntity
  8
太線
100
AcDbLine
 10
196.0157804096668
 20
210.4788998873083
 30
0.0
 11
198.0157804096668
 21
210.4711488256961
 31
0.0
  0
LINE
  5
2DF0
330
1F
100
AcDbEntity
  8
太線
100
AcDbLine
 10
195.5157804096668
 20
61.53560202454526
 30
0.0
 11
198.0157804096668
 21
61.53560202454525
 31
0.0
  0
LINE
  5
2DF1
330
1F
100
AcDbEntity
  8
太線
100
AcDbLine
 10
198.0157804096668
 20
61.53560202454525
 30
0.0
 11
198.0157804096668
 21
1.535602024545255
 31
0.0
  0
LINE
  5
2DF2
330
1F
100
AcDbEntity
  8
太線
100
AcDbLine
 10
198.0157804096668
 20
1.535602024545255
 30
0.0
 11
195.5157804096668
 21
1.535602024545255
 31
0.0
  0
LINE
  5
2DF3
330
1F
100
AcDbEntity
  8
太線
100
AcDbLine
 10
116.5157804096668
 20
61.53560202454526
 30
0.0
 11
114.0157804096668
 21
61.53560202454525
 31
0.0
  0
LINE
  5
2DF4
330
1F
100
AcDbEntity
  8
太線
100
AcDbLine
 10
114.0157804096668
 20
61.53560202454525
 30
0.0
 11
114.0157804096668
 21
1.535602024545255
 31
0.0
  0
LINE
  5
2DF5
330
1F
100
AcDbEntity
  8
太線
100
AcDbLine
 10
114.0157804096668
 20
1.535602024545255
 30
0.0
 11
116.5157804096668
 21
1.535602024545255
 31
0.0
  0
LINE
  5
2DF6
330
1F
100
AcDbEntity
  8
太線
100
AcDbLine
 10
196.0157804096668
 20
34.03560202454525
 30
0.0
 11
198.0157804096668
 21
34.03560202454525
 31
0.0
  0
LINE
  5
2DF7
330
1F
100
AcDbEntity
  8
太線
100
AcDbLine
 10
196.0157804096668
 20
29.03560202454525
 30
0.0
 11
198.0157804096668
 21
29.03560202454525
 31
0.0
  0
LINE
  5
2DF8
330
1F
100
AcDbEntity
  8
太線
100
AcDbLine
 10
116.0157804096668
 20
34.03560202454525
 30
0.0
 11
114.0157804096668
 21
34.03560202454525
 31
0.0
  0
LINE
  5
2DF9
330
1F
100
AcDbEntity
  8
太線
100
AcDbLine
 10
116.0157804096668
 20
29.03560202454525
 30
0.0
 11
114.0157804096668
 21
29.03560202454528
 31
0.0
  0
DIMENSION
  5
2E07
330
1F
100
AcDbEntity
  8
寸法線
100
AcDbDimension
  2
*D17
 10
198.0157804096668
 20
77.10772813579422
 30
0.0
 11
156.0157804096668
 21
80.60772813579422
 31
0.0
 70
    32
  1
81.3
 71
     5
 42
84.0
  3
sunpo
100
AcDbAlignedDimension
 13
114.0157804096668
 23
61.53560202454525
 33
0.0
 14
198.0157804096668
 24
61.53560202454525
 34
0.0
100
AcDbRotatedDimension
1001
ACAD
1000
DSTYLE
1002
{
1070
    40
1040
1.0
1002
}
  0
DIMENSION
  5
2E1D
330
1F
100
AcDbEntity
  8
寸法線
100
AcDbDimension
  2
*D18
 10
198.1689596938031
 20
160.9918050665916
 30
0.0
 11
192.092370051735
 21
164.4922971925758
 31
0.0
 70
    32
  1
12
 71
     5
 42
12.15317928413634
  3
sunpo
100
AcDbAlignedDimension
 13
186.0157804096668
 23
150.4711488256961
 33
0.0
 14
198.1689596938031
 24
150.4711488256961
 34
0.0
100
AcDbRotatedDimension
1001
ACAD
1000
DSTYLE
1002
{
1070
    40
1040
1.0
1002
}
  0
XLINE
  5
2E3B
330
1F
100
AcDbEntity
  8
構築線
100
AcDbXline
 10
346.6889203310665
 20
180.4711488256961
 30
0.0
 11
0.0
 21
-1.0
 31
0.0
  0
XLINE
  5
2E3C
330
1F
100
AcDbEntity
  8
構築線
100
AcDbXline
 10
298.6993345017872
 20
180.4711488256961
 30
0.0
 11
0.0
 21
-1.0
 31
0.0
  0
XLINE
  5
2E3D
330
1F
100
AcDbEntity
  8
構築線
100
AcDbXline
 10
179.1091294653307
 20
31.53560202454525
 30
0.0
 11
0.0
 21
1.0
 31
0.0
  0
XLINE
  5
2E3E
330
1F
100
AcDbEntity
  8
構築線
100
AcDbXline
 10
132.9224313540029
 20
31.53560202454525
 30
0.0
 11
0.0
 21
1.0
 31
0.0
  0
LINE
  5
2E3F
330
1F
100
AcDbEntity
  8
想像線
100
AcDbLine
 10
179.1091294653307
 20
210.4711488256961
 30
0.0
 11
179.1091294653307
 21
205.4711488256961
 31
0.0
  0
LINE
  5
2E40
330
1F
100
AcDbEntity
  8
想像線
100
AcDbLine
 10
132.9224313540029
 20
210.4711488256961
 30
0.0
 11
132.9224313540029
 21
205.4711488256961
 31
0.0
  0
LINE
  5
2E41
330
1F
100
AcDbEntity
  8
想像線
100
AcDbLine
 10
132.9224313540029
 20
150.4711488256961
 30
0.0
 11
132.9224313540029
 21
155.4711488256961
 31
0.0
  0
LINE
  5
2E42
330
1F
100
AcDbEntity
  8
想像線
100
AcDbLine
 10
179.1091294653307
 20
150.4711488256961
 30
0.0
 11
179.1091294653307
 21
155.4711488256961
 31
0.0
  0
LINE
  5
2E43
330
1F
100
AcDbEntity
  8
想像線
100
AcDbLine
 10
298.6993345017872
 20
210.4711488256961
 30
0.0
 11
298.6993345017872
 21
180.4711488256961
 31
0.0
  0
LINE
  5
2E44
330
1F
100
AcDbEntity
  8
想像線
100
AcDbLine
 10
346.6889203310665
 20
210.4711488256961
 30
0.0
 11
346.6889203310665
 21
180.4711488256961
 31
0.0
  0
LINE
  5
2E45
330
1F
100
AcDbEntity
  8
想像線
100
AcDbLine
 10
298.6993345017873
 20
180.4711488256961
 30
0.0
 11
298.6993345017872
 21
150.4711488256961
 31
0.0
  0
LINE
  5
2E46
330
1F
100
AcDbEntity
  8
想像線
100
AcDbLine
 10
346.6889203310665
 20
180.4711488256961
 30
0.0
 11
346.6889203310665
 21
150.4711488256961
 31
0.0
  0
TEXT
  5
2E77
330
1F
100
AcDbEntity
  8
文字
100
AcDbText
 10
290.0508314415693
 20
61.95613919627365
 30
0.0
 40
4.799999999999999
  1
注記　内面バリは最小限にする
 51
15.0
  7
OKANO
100
AcDbText
  0
TEXT
  5
2E83
330
1F
100
AcDbEntity
  8
文字
100
AcDbText
 10
338.2876252808912
 20
31.48082845661908
 30
0.0
 40
4.799999999999999
  1
JAN 4562182301024
 51
15.0
  7
OKANO
100
AcDbText
  0
TEXT
  5
2E98
330
1F
100
AcDbEntity
  8
文字
100
AcDbText
 10
130.0695300289582
 20
258.5376711428846
 30
0.0
 40
4.799999999999999
  1
M5-8×3
 51
15.0
  7
OKANO
100
AcDbText
  0
LINE
  5
2F19
330
1F
100
AcDbEntity
  8
細線
 62
     0
100
AcDbLine
 10
624.2879373467785
 20
174.0819478487605
 30
0.0
 11
616.7879373467785
 21
174.0819478487605
 31
0.0
  0
LINE
  5
2F1A
330
1F
100
AcDbEntity
  8
細線
 62
     0
100
AcDbLine
 10
624.2879373467785
 20
178.0819478487605
 30
0.0
 11
616.7879373467785
 21
178.0819478487605
 31
0.0
  0
LINE
  5
2F1B
330
1F
100
AcDbEntity
  8
細線
 62
     0
100
AcDbLine
 10
616.7879373467785
 20
173.5819478487605
 30
0.0
 11
624.2879373467785
 21
173.5819478487605
 31
0.0
  0
LINE
  5
2F1C
330
1F
100
AcDbEntity
  8
細線
 62
     0
100
AcDbLine
 10
616.7879373467785
 20
178.5819478487605
 30
0.0
 11
624.2879373467785
 21
178.5819478487605
 31
0.0
  0
LINE
  5
2F1D
330
1F
100
AcDbEntity
  8
細線
 62
     0
100
AcDbLine
 10
616.7879373467785
 20
174.0819478487605
 30
0.0
 11
616.7879373467785
 21
178.0819478487605
 31
0.0
  0
LINE
  5
2F1E
330
1F
100
AcDbEntity
  8
細線
 62
     0
100
AcDbLine
 10
616.2879373467785
 20
174.0819478487605
 30
0.0
 11
616.2879373467785
 21
178.0819478487605
 31
0.0
  0
LINE
  5
2F1F
330
1F
100
AcDbEntity
  8
細線
 62
     0
100
AcDbLine
 10
572.2879373467785
 20
174.0819478487605
 30
0.0
 11
572.2879373467785
 21
178.0819478487605
 31
0.0
  0
LINE
  5
2F20
330
1F
100
AcDbEntity
  8
細線
 62
     0
100
AcDbLine
 10
571.7879373467785
 20
174.0819478487605
 30
0.0
 11
571.7879373467785
 21
178.0819478487605
 31
0.0
  0
LINE
  5
2F21
330
1F
100
AcDbEntity
  8
細線
 62
     0
100
AcDbLine
 10
564.2879373467785
 20
173.5819478487605
 30
0.0
 11
564.2879373467785
 21
178.5819478487605
 31
0.0
  0
ARC
  5
2F22
330
1F
100
AcDbEntity
  8
太線
100
AcDbCircle
 10
555.4796021323517
 20
176.0819478487605
 30
0.0
 40
2.5
100
AcDbArc
 50
348.463040967185
 51
11.53695903281653
  0
ARC
  5
2F23
330
1F
100
AcDbEntity
  8
太線
100
AcDbCircle
 10
555.4796021323517
 20
176.0819478487605
 30
0.0
 40
2.5
100
AcDbArc
 50
168.4630409671834
 51
191.5369590328149
  0
ARC
  5
2F24
330
1F
100
AcDbEntity
  8
細線
 62
     0
100
AcDbCircle
 10
569.7879373467784
 20
176.0819478487605
 30
0.0
 40
8.49999999999995
100
AcDbArc
 50
151.9275130641469
 51
208.072486935853
  0
CIRCLE
  5
2F25
330
1F
100
AcDbEntity
  8
太線
100
AcDbCircle
 10
555.4796021323517
 20
176.0819478487605
 30
0.0
 40
4.0
  0
LINE
  5
2F26
330
1F
100
AcDbEntity
  8
太線
100
AcDbLine
 10
553.0301123895685
 20
175.5819478487605
 30
0.0
 11
554.4796021323517
 21
175.5819478487604
 31
0.0
  0
LINE
  5
2F27
330
1F
100
AcDbEntity
  8
太線
100
AcDbLine
 10
556.4796021323517
 20
175.5819478487604
 30
0.0
 11
557.9290918751349
 21
175.5819478487605
 31
0.0
  0
ARC
  5
2F28
330
1F
100
AcDbEntity
  8
太線
100
AcDbCircle
 10
555.4796021323517
 20
176.0819478487605
 30
0.0
 40
2.5
100
AcDbArc
 50
258.4630409671818
 51
281.5369590328181
  0
LINE
  5
2F29
330
1F
100
AcDbEntity
  8
太線
100
AcDbLine
 10
554.9796021323516
 20
175.0819478487604
 30
0.0
 11
554.9796021323516
 21
173.6324581059773
 31
0.0
  0
LINE
  5
2F2A
330
1F
100
AcDbEntity
  8
太線
100
AcDbLine
 10
555.9796021323517
 20
173.6324581059773
 30
0.0
 11
555.9796021323517
 21
175.0819478487604
 31
0.0
  0
ARC
  5
2F2B
330
1F
100
AcDbEntity
  8
太線
100
AcDbCircle
 10
556.4796021323517
 20
175.0819478487604
 30
0.0
 40
0.5
100
AcDbArc
 50
90.0
 51
180.0
  0
ARC
  5
2F2C
330
1F
100
AcDbEntity
  8
太線
100
AcDbCircle
 10
554.4796021323517
 20
175.0819478487604
 30
0.0
 40
0.5
100
AcDbArc
 50
0.0
 51
90.0
  0
LINE
  5
2F2D
330
1F
100
AcDbEntity
  8
細線
 62
     0
100
AcDbLine
 10
571.7879373467785
 20
173.5819478487605
 30
0.0
 11
564.2879373467785
 21
173.5819478487605
 31
0.0
  0
LINE
  5
2F2E
330
1F
100
AcDbEntity
  8
細線
 62
     0
100
AcDbLine
 10
564.2879373467785
 20
174.0819478487605
 30
0.0
 11
571.7879373467785
 21
174.0819478487605
 31
0.0
  0
LINE
  5
2F2F
330
1F
100
AcDbEntity
  8
細線
 62
     0
100
AcDbLine
 10
564.2879373467785
 20
172.0819478487605
 30
0.0
 11
562.2879373467785
 21
172.0819478487605
 31
0.0
  0
LINE
  5
2F30
330
1F
100
AcDbEntity
  8
細線
 62
     0
100
AcDbLine
 10
564.2879373467785
 20
173.5819478487605
 30
0.0
 11
564.2879373467785
 21
172.0819478487605
 31
0.0
  0
LINE
  5
2F31
330
1F
100
AcDbEntity
  8
細線
 62
     0
100
AcDbLine
 10
572.2879373467785
 20
174.0819478487605
 30
0.0
 11
571.7879373467785
 21
173.5819478487605
 31
0.0
  0
LINE
  5
2F32
330
1F
100
AcDbEntity
  8
細線
 62
     0
100
AcDbLine
 10
596.7879373467785
 20
153.5819478487605
 30
0.0
 11
596.7879373467785
 21
146.0819478487605
 31
0.0
  0
LINE
  5
2F33
330
1F
100
AcDbEntity
  8
細線
 62
     0
100
AcDbLine
 10
591.7879373467785
 20
153.5819478487605
 30
0.0
 11
591.7879373467785
 21
146.0819478487605
 31
0.0
  0
LINE
  5
2F34
330
1F
100
AcDbEntity
  8
細線
 62
     0
100
AcDbLine
 10
596.2879373467785
 20
146.0819478487605
 30
0.0
 11
596.2879373467785
 21
153.5819478487605
 31
0.0
  0
LINE
  5
2F35
330
1F
100
AcDbEntity
  8
細線
 62
     0
100
AcDbLine
 10
592.2879373467785
 20
146.0819478487605
 30
0.0
 11
592.2879373467785
 21
153.5819478487605
 31
0.0
  0
LINE
  5
2F36
330
1F
100
AcDbEntity
  8
太線
100
AcDbLine
 10
594.7879373467785
 20
136.2736126343337
 30
0.0
 11
594.7879373467785
 21
134.8241228915505
 31
0.0
  0
LINE
  5
2F37
330
1F
100
AcDbEntity
  8
太線
100
AcDbLine
 10
593.7879373467786
 20
134.8241228915505
 30
0.0
 11
593.7879373467786
 21
136.2736126343337
 31
0.0
  0
CIRCLE
  5
2F38
330
1F
100
AcDbEntity
  8
太線
100
AcDbCircle
 10
594.2879373467786
 20
137.2736126343337
 30
0.0
 40
4.0
  0
ARC
  5
2F39
330
1F
100
AcDbEntity
  8
太線
100
AcDbCircle
 10
594.2879373467786
 20
137.2736126343337
 30
0.0
 40
2.5
100
AcDbArc
 50
258.4630409671818
 51
281.5369590328181
  0
ARC
  5
2F3A
330
1F
100
AcDbEntity
  8
太線
100
AcDbCircle
 10
595.2879373467785
 20
138.2736126343337
 30
0.0
 40
0.5
100
AcDbArc
 50
180.0
 51
270.0
  0
ARC
  5
2F3B
330
1F
100
AcDbEntity
  8
太線
100
AcDbCircle
 10
595.2879373467785
 20
136.2736126343337
 30
0.0
 40
0.5
100
AcDbArc
 50
90.0
 51
180.0
  0
LINE
  5
2F3C
330
1F
100
AcDbEntity
  8
太線
100
AcDbLine
 10
594.7879373467785
 20
139.7231023771169
 30
0.0
 11
594.7879373467785
 21
138.2736126343337
 31
0.0
  0
LINE
  5
2F3D
330
1F
100
AcDbEntity
  8
太線
100
AcDbLine
 10
593.7879373467786
 20
138.2736126343337
 30
0.0
 11
593.7879373467786
 21
139.7231023771169
 31
0.0
  0
ARC
  5
2F3E
330
1F
100
AcDbEntity
  8
太線
100
AcDbCircle
 10
594.2879373467786
 20
137.2736126343337
 30
0.0
 40
2.5
100
AcDbArc
 50
78.46304096718187
 51
101.5369590328181
  0
ARC
  5
2F3F
330
1F
100
AcDbEntity
  8
太線
100
AcDbCircle
 10
594.2879373467786
 20
137.2736126343337
 30
0.0
 40
2.5
100
AcDbArc
 50
168.463040967185
 51
191.5369590328165
  0
LINE
  5
2F40
330
1F
100
AcDbEntity
  8
太線
100
AcDbLine
 10
593.2879373467785
 20
136.7736126343337
 30
0.0
 11
591.8384476039953
 21
136.7736126343337
 31
0.0
  0
ARC
  5
2F41
330
1F
100
AcDbEntity
  8
太線
100
AcDbCircle
 10
593.2879373467785
 20
136.2736126343337
 30
0.0
 40
0.5
100
AcDbArc
 50
0.0
 51
90.0
  0
LINE
  5
2F42
330
1F
100
AcDbEntity
  8
太線
100
AcDbLine
 10
591.8384476039953
 20
137.7736126343337
 30
0.0
 11
593.2879373467785
 21
137.7736126343337
 31
0.0
  0
ARC
  5
2F43
330
1F
100
AcDbEntity
  8
太線
100
AcDbCircle
 10
593.2879373467785
 20
138.2736126343337
 30
0.0
 40
0.5
100
AcDbArc
 50
270.0
 51
0.0
  0
ARC
  5
2F44
330
1F
100
AcDbEntity
  8
太線
100
AcDbCircle
 10
594.2879373467786
 20
137.2736126343337
 30
0.0
 40
2.5
100
AcDbArc
 50
348.463040967185
 51
11.53695903281494
  0
LINE
  5
2F45
330
1F
100
AcDbEntity
  8
太線
100
AcDbLine
 10
595.2879373467785
 20
137.7736126343337
 30
0.0
 11
596.7374270895617
 21
137.7736126343337
 31
0.0
  0
LINE
  5
2F46
330
1F
100
AcDbEntity
  8
太線
100
AcDbLine
 10
596.7374270895617
 20
136.7736126343337
 30
0.0
 11
595.2879373467785
 21
136.7736126343337
 31
0.0
  0
LINE
  5
2F47
330
1F
100
AcDbEntity
  8
細線
 62
     0
100
AcDbLine
 10
591.7879373467785
 20
146.0819478487605
 30
0.0
 11
596.7879373467785
 21
146.0819478487605
 31
0.0
  0
ARC
  5
2F48
330
1F
100
AcDbEntity
  8
細線
 62
     0
100
AcDbCircle
 10
594.2879373467786
 20
151.5819478487604
 30
0.0
 40
8.49999999999995
100
AcDbArc
 50
241.9275130641455
 51
298.0724869358544
  0
LINE
  5
2F49
330
1F
100
AcDbEntity
  8
細線
 62
     0
100
AcDbLine
 10
590.2879373467786
 20
146.0819478487605
 30
0.0
 11
590.2879373467786
 21
144.0819478487605
 31
0.0
  0
LINE
  5
2F4A
330
1F
100
AcDbEntity
  8
細線
 62
     0
100
AcDbLine
 10
591.7879373467785
 20
146.0819478487605
 30
0.0
 11
590.2879373467786
 21
146.0819478487605
 31
0.0
  0
LINE
  5
2F4B
330
1F
100
AcDbEntity
  8
細線
 62
     0
100
AcDbLine
 10
596.7879373467785
 20
146.0819478487605
 30
0.0
 11
598.2879373467786
 21
146.0819478487605
 31
0.0
  0
LINE
  5
2F4C
330
1F
100
AcDbEntity
  8
細線
 62
     0
100
AcDbLine
 10
598.2879373467786
 20
146.0819478487605
 30
0.0
 11
598.2879373467786
 21
144.0819478487605
 31
0.0
  0
LINE
  5
2F4D
330
1F
100
AcDbEntity
  8
細線
 62
     0
100
AcDbLine
 10
592.2879373467785
 20
154.0819478487605
 30
0.0
 11
596.2879373467785
 21
154.0819478487605
 31
0.0
  0
LINE
  5
2F4E
330
1F
100
AcDbEntity
  8
細線
 62
     0
100
AcDbLine
 10
592.2879373467785
 20
153.5819478487605
 30
0.0
 11
596.2879373467785
 21
153.5819478487605
 31
0.0
  0
LINE
  5
2F4F
330
1F
100
AcDbEntity
  8
細線
 62
     0
100
AcDbLine
 10
592.2879373467785
 20
154.0819478487605
 30
0.0
 11
591.7879373467785
 21
153.5819478487605
 31
0.0
  0
LINE
  5
2F50
330
1F
100
AcDbEntity
  8
細線
 62
     0
100
AcDbLine
 10
596.2879373467785
 20
154.0819478487605
 30
0.0
 11
596.7879373467785
 21
153.5819478487605
 31
0.0
  0
LINE
  5
2F51
330
1F
100
AcDbEntity
  8
細線
 62
     0
100
AcDbLine
 10
616.2879373467785
 20
174.0819478487605
 30
0.0
 11
616.7879373467785
 21
173.5819478487605
 31
0.0
  0
LINE
  5
2F52
330
1F
100
AcDbEntity
  8
太線
100
AcDbLine
 10
554.4796021323517
 20
176.5819478487605
 30
0.0
 11
553.0301123895685
 21
176.5819478487605
 31
0.0
  0
ARC
  5
2F53
330
1F
100
AcDbEntity
  8
太線
100
AcDbCircle
 10
555.4796021323517
 20
176.0819478487605
 30
0.0
 40
2.5
100
AcDbArc
 50
78.46304096718187
 51
101.5369590328181
  0
LINE
  5
2F54
330
1F
100
AcDbEntity
  8
太線
100
AcDbLine
 10
557.9290918751349
 20
176.5819478487605
 30
0.0
 11
556.4796021323517
 21
176.5819478487605
 31
0.0
  0
ARC
  5
2F55
330
1F
100
AcDbEntity
  8
太線
100
AcDbCircle
 10
556.4796021323517
 20
177.0819478487605
 30
0.0
 40
0.5
100
AcDbArc
 50
180.0
 51
270.0
  0
LINE
  5
2F56
330
1F
100
AcDbEntity
  8
太線
100
AcDbLine
 10
555.9796021323517
 20
177.0819478487605
 30
0.0
 11
555.9796021323517
 21
178.5314375915437
 31
0.0
  0
LINE
  5
2F57
330
1F
100
AcDbEntity
  8
太線
100
AcDbLine
 10
554.9796021323516
 20
178.5314375915437
 30
0.0
 11
554.9796021323516
 21
177.0819478487605
 31
0.0
  0
ARC
  5
2F58
330
1F
100
AcDbEntity
  8
太線
100
AcDbCircle
 10
554.4796021323517
 20
177.0819478487605
 30
0.0
 40
0.5
100
AcDbArc
 50
270.0
 51
0.0
  0
LINE
  5
2F59
330
1F
100
AcDbEntity
  8
細線
 62
     0
100
AcDbLine
 10
571.7879373467785
 20
178.5819478487605
 30
0.0
 11
564.2879373467785
 21
178.5819478487605
 31
0.0
  0
LINE
  5
2F5A
330
1F
100
AcDbEntity
  8
細線
 62
     0
100
AcDbLine
 10
564.2879373467785
 20
178.0819478487605
 30
0.0
 11
571.7879373467785
 21
178.0819478487605
 31
0.0
  0
LINE
  5
2F5B
330
1F
100
AcDbEntity
  8
細線
 62
     0
100
AcDbLine
 10
564.2879373467785
 20
180.0819478487605
 30
0.0
 11
562.2879373467785
 21
180.0819478487605
 31
0.0
  0
LINE
  5
2F5C
330
1F
100
AcDbEntity
  8
細線
 62
     0
100
AcDbLine
 10
564.2879373467785
 20
178.5819478487605
 30
0.0
 11
564.2879373467785
 21
180.0819478487605
 31
0.0
  0
LINE
  5
2F5D
330
1F
100
AcDbEntity
  8
細線
 62
     0
100
AcDbLine
 10
572.2879373467785
 20
178.0819478487605
 30
0.0
 11
571.7879373467785
 21
178.5819478487605
 31
0.0
  0
LINE
  5
2F5E
330
1F
100
AcDbEntity
  8
細線
 62
     0
100
AcDbLine
 10
592.2879373467785
 20
206.0819478487605
 30
0.0
 11
592.2879373467785
 21
198.5819478487605
 31
0.0
  0
LINE
  5
2F5F
330
1F
100
AcDbEntity
  8
細線
 62
     0
100
AcDbLine
 10
596.2879373467785
 20
206.0819478487605
 30
0.0
 11
596.2879373467785
 21
198.5819478487605
 31
0.0
  0
LINE
  5
2F60
330
1F
100
AcDbEntity
  8
細線
 62
     0
100
AcDbLine
 10
591.7879373467785
 20
198.5819478487605
 30
0.0
 11
591.7879373467785
 21
206.0819478487605
 31
0.0
  0
LINE
  5
2F61
330
1F
100
AcDbEntity
  8
細線
 62
     0
100
AcDbLine
 10
596.7879373467785
 20
198.5819478487605
 30
0.0
 11
596.7879373467785
 21
206.0819478487605
 31
0.0
  0
LINE
  5
2F62
330
1F
100
AcDbEntity
  8
細線
 62
     0
100
AcDbLine
 10
592.2879373467785
 20
198.5819478487605
 30
0.0
 11
596.2879373467785
 21
198.5819478487605
 31
0.0
  0
LINE
  5
2F63
330
1F
100
AcDbEntity
  8
細線
 62
     0
100
AcDbLine
 10
592.2879373467785
 20
198.0819478487605
 30
0.0
 11
596.2879373467785
 21
198.0819478487605
 31
0.0
  0
LINE
  5
2F64
330
1F
100
AcDbEntity
  8
細線
 62
     0
100
AcDbLine
 10
592.2879373467785
 20
198.0819478487605
 30
0.0
 11
591.7879373467785
 21
198.5819478487605
 31
0.0
  0
LINE
  5
2F65
330
1F
100
AcDbEntity
  8
細線
 62
     0
100
AcDbLine
 10
596.2879373467785
 20
198.0819478487605
 30
0.0
 11
596.7879373467785
 21
198.5819478487605
 31
0.0
  0
LINE
  5
2F66
330
1F
100
AcDbEntity
  8
細線
 62
     0
100
AcDbLine
 10
616.2879373467785
 20
178.0819478487605
 30
0.0
 11
616.7879373467785
 21
178.5819478487605
 31
0.0
  0
ARC
  5
2F67
330
1F
100
AcDbEntity
  8
太線
100
AcDbCircle
 10
595.2879373467785
 20
215.8902830631873
 30
0.0
 40
0.5
100
AcDbArc
 50
180.0
 51
270.0
  0
ARC
  5
2F68
330
1F
100
AcDbEntity
  8
太線
100
AcDbCircle
 10
593.2879373467785
 20
215.8902830631873
 30
0.0
 40
0.5
100
AcDbArc
 50
270.0
 51
0.0
  0
CIRCLE
  5
2F69
330
1F
100
AcDbEntity
  8
太線
100
AcDbCircle
 10
594.2879373467786
 20
214.8902830631873
 30
0.0
 40
4.0
  0
LINE
  5
2F6A
330
1F
100
AcDbEntity
  8
細線
 62
     0
100
AcDbLine
 10
591.7879373467785
 20
206.0819478487605
 30
0.0
 11
596.7879373467785
 21
206.0819478487605
 31
0.0
  0
ARC
  5
2F6B
330
1F
100
AcDbEntity
  8
細線
 62
     0
100
AcDbCircle
 10
594.2879373467786
 20
200.5819478487605
 30
0.0
 40
8.49999999999995
100
AcDbArc
 50
61.9275130641455
 51
118.0724869358545
  0
LINE
  5
2F6C
330
1F
100
AcDbEntity
  8
細線
 62
     0
100
AcDbLine
 10
590.2879373467786
 20
206.0819478487605
 30
0.0
 11
590.2879373467786
 21
208.0819478487605
 31
0.0
  0
LINE
  5
2F6D
330
1F
100
AcDbEntity
  8
細線
 62
     0
100
AcDbLine
 10
591.7879373467785
 20
206.0819478487605
 30
0.0
 11
590.2879373467786
 21
206.0819478487605
 31
0.0
  0
LINE
  5
2F6E
330
1F
100
AcDbEntity
  8
細線
 62
     0
100
AcDbLine
 10
598.2879373467786
 20
206.0819478487605
 30
0.0
 11
598.2879373467786
 21
208.0819478487605
 31
0.0
  0
LINE
  5
2F6F
330
1F
100
AcDbEntity
  8
細線
 62
     0
100
AcDbLine
 10
596.7879373467785
 20
206.0819478487605
 30
0.0
 11
598.2879373467786
 21
206.0819478487605
 31
0.0
  0
ARC
  5
2F70
330
1F
100
AcDbEntity
  8
太線
100
AcDbCircle
 10
595.2879373467785
 20
213.8902830631873
 30
0.0
 40
0.5
100
AcDbArc
 50
90.0
 51
180.0
  0
LINE
  5
2F71
330
1F
100
AcDbEntity
  8
太線
100
AcDbLine
 10
594.7879373467785
 20
212.4407933204041
 30
0.0
 11
594.7879373467785
 21
213.8902830631873
 31
0.0
  0
LINE
  5
2F72
330
1F
100
AcDbEntity
  8
太線
100
AcDbLine
 10
591.8384476039953
 20
214.3902830631873
 30
0.0
 11
593.2879373467785
 21
214.3902830631873
 31
0.0
  0
LINE
  5
2F73
330
1F
100
AcDbEntity
  8
太線
100
AcDbLine
 10
593.2879373467785
 20
215.3902830631873
 30
0.0
 11
591.8384476039953
 21
215.3902830631873
 31
0.0
  0
ARC
  5
2F74
330
1F
100
AcDbEntity
  8
太線
100
AcDbCircle
 10
594.2879373467786
 20
214.8902830631873
 30
0.0
 40
2.5
100
AcDbArc
 50
168.4630409671834
 51
191.5369590328149
  0
LINE
  5
2F75
330
1F
100
AcDbEntity
  8
太線
100
AcDbLine
 10
593.7879373467786
 20
213.8902830631873
 30
0.0
 11
593.7879373467786
 21
212.4407933204041
 31
0.0
  0
ARC
  5
2F76
330
1F
100
AcDbEntity
  8
太線
100
AcDbCircle
 10
593.2879373467785
 20
213.8902830631873
 30
0.0
 40
0.5
100
AcDbArc
 50
0.0
 51
90.0
  0
ARC
  5
2F77
330
1F
100
AcDbEntity
  8
太線
100
AcDbCircle
 10
594.2879373467786
 20
214.8902830631873
 30
0.0
 40
2.5
100
AcDbArc
 50
258.4630409671818
 51
281.5369590328181
  0
ARC
  5
2F78
330
1F
100
AcDbEntity
  8
太線
100
AcDbCircle
 10
594.2879373467786
 20
214.8902830631873
 30
0.0
 40
2.5
100
AcDbArc
 50
348.463040967185
 51
11.53695903281494
  0
LINE
  5
2F79
330
1F
100
AcDbEntity
  8
太線
100
AcDbLine
 10
596.7374270895617
 20
215.3902830631873
 30
0.0
 11
595.2879373467785
 21
215.3902830631873
 31
0.0
  0
LINE
  5
2F7A
330
1F
100
AcDbEntity
  8
太線
100
AcDbLine
 10
595.2879373467785
 20
214.3902830631873
 30
0.0
 11
596.7374270895617
 21
214.3902830631873
 31
0.0
  0
LINE
  5
2F7B
330
1F
100
AcDbEntity
  8
太線
100
AcDbLine
 10
594.7879373467785
 20
215.8902830631873
 30
0.0
 11
594.7879373467785
 21
217.3397728059704
 31
0.0
  0
LINE
  5
2F7C
330
1F
100
AcDbEntity
  8
太線
100
AcDbLine
 10
593.7879373467786
 20
217.3397728059704
 30
0.0
 11
593.7879373467786
 21
215.8902830631873
 31
0.0
  0
ARC
  5
2F7D
330
1F
100
AcDbEntity
  8
太線
100
AcDbCircle
 10
594.2879373467786
 20
214.8902830631873
 30
0.0
 40
2.5
100
AcDbArc
 50
78.46304096718187
 51
101.5369590328181
  0
ARC
  5
2F7E
330
1F
100
AcDbEntity
  8
太線
100
AcDbCircle
 10
633.0962725612054
 20
176.0819478487605
 30
0.0
 40
2.5
100
AcDbArc
 50
348.463040967185
 51
11.53695903281653
  0
ARC
  5
2F7F
330
1F
100
AcDbEntity
  8
太線
100
AcDbCircle
 10
633.0962725612054
 20
176.0819478487605
 30
0.0
 40
2.5
100
AcDbArc
 50
168.4630409671834
 51
191.5369590328149
  0
LINE
  5
2F80
330
1F
100
AcDbEntity
  8
細線
 62
     0
100
AcDbLine
 10
624.2879373467785
 20
173.5819478487605
 30
0.0
 11
624.2879373467785
 21
178.5819478487605
 31
0.0
  0
CIRCLE
  5
2F81
330
1F
100
AcDbEntity
  8
太線
100
AcDbCircle
 10
633.0962725612054
 20
176.0819478487605
 30
0.0
 40
4.0
  0
ARC
  5
2F82
330
1F
100
AcDbEntity
  8
細線
 62
     0
100
AcDbCircle
 10
618.7879373467787
 20
176.0819478487605
 30
0.0
 40
8.49999999999995
100
AcDbArc
 50
331.9275130641469
 51
28.07248693585305
  0
LINE
  5
2F83
330
1F
100
AcDbEntity
  8
太線
100
AcDbLine
 10
632.0962725612054
 20
175.5819478487604
 30
0.0
 11
630.6467828184223
 21
175.5819478487605
 31
0.0
  0
LINE
  5
2F84
330
1F
100
AcDbEntity
  8
細線
 62
     0
100
AcDbLine
 10
624.2879373467785
 20
172.0819478487605
 30
0.0
 11
626.2879373467785
 21
172.0819478487605
 31
0.0
  0
LINE
  5
2F85
330
1F
100
AcDbEntity
  8
細線
 62
     0
100
AcDbLine
 10
624.2879373467785
 20
173.5819478487605
 30
0.0
 11
624.2879373467785
 21
172.0819478487605
 31
0.0
  0
LINE
  5
2F86
330
1F
100
AcDbEntity
  8
太線
100
AcDbLine
 10
633.5962725612054
 20
175.0819478487604
 30
0.0
 11
633.5962725612054
 21
173.6324581059773
 31
0.0
  0
LINE
  5
2F87
330
1F
100
AcDbEntity
  8
太線
100
AcDbLine
 10
635.5457623039885
 20
175.5819478487605
 30
0.0
 11
634.0962725612054
 21
175.5819478487604
 31
0.0
  0
ARC
  5
2F88
330
1F
100
AcDbEntity
  8
太線
100
AcDbCircle
 10
634.0962725612054
 20
175.0819478487604
 30
0.0
 40
0.5
100
AcDbArc
 50
90.0
 51
180.0
  0
LINE
  5
2F89
330
1F
100
AcDbEntity
  8
太線
100
AcDbLine
 10
632.5962725612054
 20
173.6324581059773
 30
0.0
 11
632.5962725612054
 21
175.0819478487604
 31
0.0
  0
ARC
  5
2F8A
330
1F
100
AcDbEntity
  8
太線
100
AcDbCircle
 10
632.0962725612054
 20
175.0819478487604
 30
0.0
 40
0.5
100
AcDbArc
 50
0.0
 51
90.0
  0
ARC
  5
2F8B
330
1F
100
AcDbEntity
  8
太線
100
AcDbCircle
 10
633.0962725612054
 20
176.0819478487605
 30
0.0
 40
2.5
100
AcDbArc
 50
258.4630409671818
 51
281.5369590328181
  0
LINE
  5
2F8C
330
1F
100
AcDbEntity
  8
太線
100
AcDbLine
 10
630.6467828184223
 20
176.5819478487605
 30
0.0
 11
632.0962725612054
 21
176.5819478487605
 31
0.0
  0
LINE
  5
2F8D
330
1F
100
AcDbEntity
  8
細線
 62
     0
100
AcDbLine
 10
624.2879373467785
 20
180.0819478487605
 30
0.0
 11
626.2879373467785
 21
180.0819478487605
 31
0.0
  0
LINE
  5
2F8E
330
1F
100
AcDbEntity
  8
細線
 62
     0
100
AcDbLine
 10
624.2879373467785
 20
178.5819478487605
 30
0.0
 11
624.2879373467785
 21
180.0819478487605
 31
0.0
  0
LINE
  5
2F8F
330
1F
100
AcDbEntity
  8
太線
100
AcDbLine
 10
633.5962725612054
 20
178.5314375915437
 30
0.0
 11
633.5962725612054
 21
177.0819478487605
 31
0.0
  0
LINE
  5
2F90
330
1F
100
AcDbEntity
  8
太線
100
AcDbLine
 10
634.0962725612054
 20
176.5819478487605
 30
0.0
 11
635.5457623039885
 21
176.5819478487605
 31
0.0
  0
ARC
  5
2F91
330
1F
100
AcDbEntity
  8
太線
100
AcDbCircle
 10
634.0962725612054
 20
177.0819478487605
 30
0.0
 40
0.5
100
AcDbArc
 50
180.0
 51
270.0
  0
LINE
  5
2F92
330
1F
100
AcDbEntity
  8
太線
100
AcDbLine
 10
632.5962725612054
 20
177.0819478487605
 30
0.0
 11
632.5962725612054
 21
178.5314375915437
 31
0.0
  0
ARC
  5
2F93
330
1F
100
AcDbEntity
  8
太線
100
AcDbCircle
 10
632.0962725612054
 20
177.0819478487605
 30
0.0
 40
0.5
100
AcDbArc
 50
270.0
 51
0.0
  0
ARC
  5
2F94
330
1F
100
AcDbEntity
  8
太線
100
AcDbCircle
 10
633.0962725612054
 20
176.0819478487605
 30
0.0
 40
2.5
100
AcDbArc
 50
78.46304096718187
 51
101.5369590328181
  0
XLINE
  5
2F95
330
1F
100
AcDbEntity
  8
構築線
 62
     3
370
     5
100
AcDbXline
 10
40.70151402540432
 20
233.4711488256961
 30
0.0
 11
1.0
 21
0.0
 31
0.0
  0
XLINE
  5
2F96
330
1F
100
AcDbEntity
  8
構築線
 62
     3
370
     5
100
AcDbXline
 10
40.70151402540432
 20
127.4711488256961
 30
0.0
 11
1.0
 21
0.0
 31
0.0
  0
XLINE
  5
2F97
330
1F
100
AcDbEntity
  8
構築線
 62
     3
100
AcDbXline
 10
156.0157804096668
 20
31.53560202454525
 30
0.0
 11
0.0
 21
1.0
 31
0.0
  0
CIRCLE
  5
2FA1
330
1F
100
AcDbEntity
  8
太線
100
AcDbCircle
 10
155.4682662176983
 20
70.93158947733434
 30
0.0
 40
4.0
  0
LINE
  5
2FA2
330
1F
100
AcDbEntity
  8
細線
 62
     0
100
AcDbLine
 10
159.4682662176983
 20
62.12325426290755
 30
0.0
 11
159.4682662176983
 21
64.12325426290755
 31
0.0
  0
LINE
  5
2FA3
330
1F
100
AcDbEntity
  8
細線
 62
     0
100
AcDbLine
 10
151.4682662176983
 20
62.12325426290755
 30
0.0
 11
151.4682662176983
 21
64.12325426290755
 31
0.0
  0
LINE
  5
2FA4
330
1F
100
AcDbEntity
  8
細線
 62
     0
100
AcDbLine
 10
152.9682662176983
 20
62.12325426290755
 30
0.0
 11
157.9682662176983
 21
62.12325426290755
 31
0.0
  0
LINE
  5
2FA5
330
1F
100
AcDbEntity
  8
細線
 62
     0
100
AcDbLine
 10
153.4682662176983
 20
54.12325426290755
 30
0.0
 11
157.4682662176983
 21
54.12325426290755
 31
0.0
  0
LINE
  5
2FA6
330
1F
100
AcDbEntity
  8
細線
 62
     0
100
AcDbLine
 10
153.4682662176983
 20
54.62325426290755
 30
0.0
 11
157.4682662176983
 21
54.62325426290755
 31
0.0
  0
LINE
  5
2FA7
330
1F
100
AcDbEntity
  8
細線
 62
     0
100
AcDbLine
 10
152.9682662176983
 20
54.62325426290755
 30
0.0
 11
152.9682662176983
 21
62.12325426290755
 31
0.0
  0
LINE
  5
2FA8
330
1F
100
AcDbEntity
  8
細線
 62
     0
100
AcDbLine
 10
153.4682662176983
 20
62.12325426290755
 30
0.0
 11
153.4682662176983
 21
54.62325426290755
 31
0.0
  0
LINE
  5
2FA9
330
1F
100
AcDbEntity
  8
細線
 62
     0
100
AcDbLine
 10
153.4682662176983
 20
54.12325426290755
 30
0.0
 11
152.9682662176983
 21
54.62325426290755
 31
0.0
  0
LINE
  5
2FAA
330
1F
100
AcDbEntity
  8
細線
 62
     0
100
AcDbLine
 10
152.9682662176983
 20
62.12325426290755
 30
0.0
 11
151.4682662176983
 21
62.12325426290755
 31
0.0
  0
LINE
  5
2FAB
330
1F
100
AcDbEntity
  8
細線
 62
     0
100
AcDbLine
 10
157.9682662176983
 20
54.62325426290755
 30
0.0
 11
157.9682662176983
 21
62.12325426290755
 31
0.0
  0
LINE
  5
2FAC
330
1F
100
AcDbEntity
  8
細線
 62
     0
100
AcDbLine
 10
157.4682662176983
 20
62.12325426290755
 30
0.0
 11
157.4682662176983
 21
54.62325426290755
 31
0.0
  0
LINE
  5
2FAD
330
1F
100
AcDbEntity
  8
細線
 62
     0
100
AcDbLine
 10
157.4682662176983
 20
54.12325426290755
 30
0.0
 11
157.9682662176983
 21
54.62325426290755
 31
0.0
  0
LINE
  5
2FAE
330
1F
100
AcDbEntity
  8
細線
 62
     0
100
AcDbLine
 10
157.9682662176983
 20
62.12325426290755
 30
0.0
 11
159.4682662176983
 21
62.12325426290755
 31
0.0
  0
LINE
  5
2FAF
330
1F
100
AcDbEntity
  8
太線
100
AcDbLine
 10
156.4682662176983
 20
70.43158947733434
 30
0.0
 11
157.9177559604814
 21
70.43158947733434
 31
0.0
  0
LINE
  5
2FB0
330
1F
100
AcDbEntity
  8
太線
100
AcDbLine
 10
157.9177559604814
 20
71.43158947733434
 30
0.0
 11
156.4682662176983
 21
71.43158947733437
 31
0.0
  0
ARC
  5
2FB1
330
1F
100
AcDbEntity
  8
細線
 62
     0
100
AcDbCircle
 10
155.4682662176983
 20
56.6232542629076
 30
0.0
 40
8.49999999999995
100
AcDbArc
 50
61.9275130641455
 51
118.0724869358545
  0
ARC
  5
2FB2
330
1F
100
AcDbEntity
  8
太線
100
AcDbCircle
 10
155.4682662176983
 20
70.93158947733434
 30
0.0
 40
2.5
100
AcDbArc
 50
78.46304096718187
 51
101.5369590328181
  0
LINE
  5
2FB3
330
1F
100
AcDbEntity
  8
太線
100
AcDbLine
 10
154.9682662176983
 20
73.38107922011753
 30
0.0
 11
154.9682662176983
 21
71.93158947733437
 31
0.0
  0
LINE
  5
2FB4
330
1F
100
AcDbEntity
  8
太線
100
AcDbLine
 10
155.9682662176983
 20
71.93158947733437
 30
0.0
 11
155.9682662176983
 21
73.38107922011753
 31
0.0
  0
ARC
  5
2FB5
330
1F
100
AcDbEntity
  8
太線
100
AcDbCircle
 10
155.4682662176983
 20
70.93158947733434
 30
0.0
 40
2.5
100
AcDbArc
 50
258.4630409671818
 51
281.5369590328181
  0
ARC
  5
2FB6
330
1F
100
AcDbEntity
  8
太線
100
AcDbCircle
 10
154.4682662176983
 20
69.93158947733434
 30
0.0
 40
0.5
100
AcDbArc
 50
0.0
 51
90.0
  0
LINE
  5
2FB7
330
1F
100
AcDbEntity
  8
太線
100
AcDbLine
 10
154.9682662176983
 20
69.93158947733434
 30
0.0
 11
154.9682662176983
 21
68.48209973455116
 31
0.0
  0
ARC
  5
2FB8
330
1F
100
AcDbEntity
  8
太線
100
AcDbCircle
 10
155.4682662176983
 20
70.93158947733434
 30
0.0
 40
2.5
100
AcDbArc
 50
168.4630409671834
 51
191.5369590328149
  0
LINE
  5
2FB9
330
1F
100
AcDbEntity
  8
太線
100
AcDbLine
 10
154.4682662176983
 20
71.43158947733437
 30
0.0
 11
153.0187764749151
 21
71.43158947733434
 31
0.0
  0
LINE
  5
2FBA
330
1F
100
AcDbEntity
  8
太線
100
AcDbLine
 10
153.0187764749151
 20
70.43158947733434
 30
0.0
 11
154.4682662176983
 21
70.43158947733434
 31
0.0
  0
LINE
  5
2FBB
330
1F
100
AcDbEntity
  8
太線
100
AcDbLine
 10
155.9682662176983
 20
68.48209973455116
 30
0.0
 11
155.9682662176983
 21
69.93158947733434
 31
0.0
  0
ARC
  5
2FBC
330
1F
100
AcDbEntity
  8
太線
100
AcDbCircle
 10
156.4682662176983
 20
69.93158947733434
 30
0.0
 40
0.5
100
AcDbArc
 50
90.0
 51
180.0
  0
ARC
  5
2FBD
330
1F
100
AcDbEntity
  8
太線
100
AcDbCircle
 10
154.4682662176983
 20
71.93158947733437
 30
0.0
 40
0.5
100
AcDbArc
 50
270.0
 51
0.0
  0
ARC
  5
2FBE
330
1F
100
AcDbEntity
  8
太線
100
AcDbCircle
 10
156.4682662176983
 20
71.93158947733437
 30
0.0
 40
0.5
100
AcDbArc
 50
180.0
 51
270.0
  0
ARC
  5
2FBF
330
1F
100
AcDbEntity
  8
太線
100
AcDbCircle
 10
155.4682662176983
 20
70.93158947733434
 30
0.0
 40
2.5
100
AcDbArc
 50
348.463040967185
 51
11.53695903281494
  0
CIRCLE
  5
2FD1
330
1F
100
AcDbEntity
  8
太線
100
AcDbCircle
 10
156.0157804096668
 20
180.4711488256961
 30
0.0
 40
4.0
  0
LINE
  5
2FD2
330
1F
100
AcDbEntity
  8
太線
100
AcDbLine
 10
157.0157804096668
 20
179.9711488256961
 30
0.0
 11
158.4652701524499
 21
179.9711488256961
 31
0.0
  0
LINE
  5
2FD3
330
1F
100
AcDbEntity
  8
太線
100
AcDbLine
 10
158.4652701524499
 20
180.9711488256961
 30
0.0
 11
157.0157804096668
 21
180.9711488256962
 31
0.0
  0
ARC
  5
2FD4
330
1F
100
AcDbEntity
  8
太線
100
AcDbCircle
 10
156.0157804096668
 20
180.4711488256961
 30
0.0
 40
2.5
100
AcDbArc
 50
78.46304096718187
 51
101.5369590328181
  0
LINE
  5
2FD5
330
1F
100
AcDbEntity
  8
太線
100
AcDbLine
 10
155.5157804096668
 20
182.9206385684793
 30
0.0
 11
155.5157804096668
 21
181.4711488256961
 31
0.0
  0
LINE
  5
2FD6
330
1F
100
AcDbEntity
  8
太線
100
AcDbLine
 10
156.5157804096668
 20
181.4711488256961
 30
0.0
 11
156.5157804096668
 21
182.9206385684793
 31
0.0
  0
ARC
  5
2FD7
330
1F
100
AcDbEntity
  8
太線
100
AcDbCircle
 10
156.0157804096668
 20
180.4711488256961
 30
0.0
 40
2.5
100
AcDbArc
 50
258.4630409671818
 51
281.5369590328181
  0
ARC
  5
2FD8
330
1F
100
AcDbEntity
  8
太線
100
AcDbCircle
 10
155.0157804096668
 20
179.4711488256961
 30
0.0
 40
0.5
100
AcDbArc
 50
0.0
 51
90.0
  0
LINE
  5
2FD9
330
1F
100
AcDbEntity
  8
太線
100
AcDbLine
 10
155.5157804096668
 20
179.4711488256961
 30
0.0
 11
155.5157804096668
 21
178.0216590829129
 31
0.0
  0
ARC
  5
2FDA
330
1F
100
AcDbEntity
  8
太線
100
AcDbCircle
 10
156.0157804096668
 20
180.4711488256961
 30
0.0
 40
2.5
100
AcDbArc
 50
168.4630409671834
 51
191.5369590328149
  0
LINE
  5
2FDB
330
1F
100
AcDbEntity
  8
太線
100
AcDbLine
 10
155.0157804096668
 20
180.9711488256962
 30
0.0
 11
153.5662906668836
 21
180.9711488256961
 31
0.0
  0
LINE
  5
2FDC
330
1F
100
AcDbEntity
  8
太線
100
AcDbLine
 10
153.5662906668836
 20
179.9711488256961
 30
0.0
 11
155.0157804096668
 21
179.9711488256961
 31
0.0
  0
LINE
  5
2FDD
330
1F
100
AcDbEntity
  8
太線
100
AcDbLine
 10
156.5157804096668
 20
178.0216590829129
 30
0.0
 11
156.5157804096668
 21
179.4711488256961
 31
0.0
  0
ARC
  5
2FDE
330
1F
100
AcDbEntity
  8
太線
100
AcDbCircle
 10
157.0157804096668
 20
179.4711488256961
 30
0.0
 40
0.5
100
AcDbArc
 50
90.0
 51
180.0
  0
ARC
  5
2FDF
330
1F
100
AcDbEntity
  8
太線
100
AcDbCircle
 10
155.0157804096668
 20
181.4711488256961
 30
0.0
 40
0.5
100
AcDbArc
 50
270.0
 51
0.0
  0
ARC
  5
2FE0
330
1F
100
AcDbEntity
  8
太線
100
AcDbCircle
 10
157.0157804096668
 20
181.4711488256961
 30
0.0
 40
0.5
100
AcDbArc
 50
180.0
 51
270.0
  0
ARC
  5
2FE1
330
1F
100
AcDbEntity
  8
太線
100
AcDbCircle
 10
156.0157804096668
 20
180.4711488256961
 30
0.0
 40
2.5
100
AcDbArc
 50
348.463040967185
 51
11.53695903281494
  0
CIRCLE
  5
2FE2
330
1F
100
AcDbEntity
  8
太線
100
AcDbCircle
 10
156.0157804096668
 20
127.4711488256961
 30
0.0
 40
4.0
  0
ARC
  5
2FE3
330
1F
100
AcDbEntity
  8
太線
100
AcDbCircle
 10
157.0157804096668
 20
128.4711488256961
 30
0.0
 40
0.5
100
AcDbArc
 50
180.0
 51
270.0
  0
ARC
  5
2FE4
330
1F
100
AcDbEntity
  8
太線
100
AcDbCircle
 10
157.0157804096668
 20
126.4711488256961
 30
0.0
 40
0.5
100
AcDbArc
 50
90.0
 51
180.0
  0
ARC
  5
2FE5
330
1F
100
AcDbEntity
  8
太線
100
AcDbCircle
 10
155.0157804096668
 20
128.4711488256961
 30
0.0
 40
0.5
100
AcDbArc
 50
270.0
 51
0.0
  0
LINE
  5
2FE6
330
1F
100
AcDbEntity
  8
太線
100
AcDbLine
 10
156.5157804096668
 20
125.0216590829129
 30
0.0
 11
156.5157804096668
 21
126.4711488256961
 31
0.0
  0
LINE
  5
2FE7
330
1F
100
AcDbEntity
  8
太線
100
AcDbLine
 10
153.5662906668836
 20
126.9711488256961
 30
0.0
 11
155.0157804096668
 21
126.9711488256961
 31
0.0
  0
LINE
  5
2FE8
330
1F
100
AcDbEntity
  8
太線
100
AcDbLine
 10
155.0157804096668
 20
127.9711488256962
 30
0.0
 11
153.5662906668836
 21
127.9711488256961
 31
0.0
  0
ARC
  5
2FE9
330
1F
100
AcDbEntity
  8
太線
100
AcDbCircle
 10
156.0157804096668
 20
127.4711488256961
 30
0.0
 40
2.5
100
AcDbArc
 50
168.4630409671834
 51
191.5369590328149
  0
LINE
  5
2FEA
330
1F
100
AcDbEntity
  8
太線
100
AcDbLine
 10
155.5157804096668
 20
126.4711488256961
 30
0.0
 11
155.5157804096668
 21
125.0216590829129
 31
0.0
  0
ARC
  5
2FEB
330
1F
100
AcDbEntity
  8
太線
100
AcDbCircle
 10
155.0157804096668
 20
126.4711488256961
 30
0.0
 40
0.5
100
AcDbArc
 50
0.0
 51
90.0
  0
ARC
  5
2FEC
330
1F
100
AcDbEntity
  8
太線
100
AcDbCircle
 10
156.0157804096668
 20
127.4711488256961
 30
0.0
 40
2.5
100
AcDbArc
 50
258.4630409671818
 51
281.5369590328181
  0
LINE
  5
2FED
330
1F
100
AcDbEntity
  8
太線
100
AcDbLine
 10
156.5157804096668
 20
128.4711488256961
 30
0.0
 11
156.5157804096668
 21
129.9206385684793
 31
0.0
  0
LINE
  5
2FEE
330
1F
100
AcDbEntity
  8
太線
100
AcDbLine
 10
155.5157804096668
 20
129.9206385684793
 30
0.0
 11
155.5157804096668
 21
128.4711488256961
 31
0.0
  0
ARC
  5
2FEF
330
1F
100
AcDbEntity
  8
太線
100
AcDbCircle
 10
156.0157804096668
 20
127.4711488256961
 30
0.0
 40
2.5
100
AcDbArc
 50
78.46304096718187
 51
101.5369590328181
  0
ARC
  5
2FF0
330
1F
100
AcDbEntity
  8
太線
100
AcDbCircle
 10
156.0157804096668
 20
127.4711488256961
 30
0.0
 40
2.5
100
AcDbArc
 50
348.463040967185
 51
11.53695903281494
  0
LINE
  5
2FF1
330
1F
100
AcDbEntity
  8
太線
100
AcDbLine
 10
158.4652701524499
 20
127.9711488256961
 30
0.0
 11
157.0157804096668
 21
127.9711488256962
 31
0.0
  0
LINE
  5
2FF2
330
1F
100
AcDbEntity
  8
太線
100
AcDbLine
 10
157.0157804096668
 20
126.9711488256961
 30
0.0
 11
158.4652701524499
 21
126.9711488256961
 31
0.0
  0
CIRCLE
  5
2FF3
330
1F
100
AcDbEntity
  8
太線
100
AcDbCircle
 10
156.0157804096668
 20
233.4711488256961
 30
0.0
 40
4.0
  0
ARC
  5
2FF4
330
1F
100
AcDbEntity
  8
太線
100
AcDbCircle
 10
157.0157804096668
 20
234.4711488256961
 30
0.0
 40
0.5
100
AcDbArc
 50
180.0
 51
270.0
  0
ARC
  5
2FF5
330
1F
100
AcDbEntity
  8
太線
100
AcDbCircle
 10
157.0157804096668
 20
232.4711488256961
 30
0.0
 40
0.5
100
AcDbArc
 50
90.0
 51
180.0
  0
ARC
  5
2FF6
330
1F
100
AcDbEntity
  8
太線
100
AcDbCircle
 10
155.0157804096668
 20
234.4711488256961
 30
0.0
 40
0.5
100
AcDbArc
 50
270.0
 51
0.0
  0
LINE
  5
2FF7
330
1F
100
AcDbEntity
  8
太線
100
AcDbLine
 10
156.5157804096668
 20
231.0216590829129
 30
0.0
 11
156.5157804096668
 21
232.4711488256961
 31
0.0
  0
LINE
  5
2FF8
330
1F
100
AcDbEntity
  8
太線
100
AcDbLine
 10
153.5662906668836
 20
232.9711488256961
 30
0.0
 11
155.0157804096668
 21
232.9711488256961
 31
0.0
  0
LINE
  5
2FF9
330
1F
100
AcDbEntity
  8
太線
100
AcDbLine
 10
155.0157804096668
 20
233.9711488256961
 30
0.0
 11
153.5662906668836
 21
233.9711488256961
 31
0.0
  0
ARC
  5
2FFA
330
1F
100
AcDbEntity
  8
太線
100
AcDbCircle
 10
156.0157804096668
 20
233.4711488256961
 30
0.0
 40
2.5
100
AcDbArc
 50
168.4630409671834
 51
191.5369590328149
  0
LINE
  5
2FFB
330
1F
100
AcDbEntity
  8
太線
100
AcDbLine
 10
155.5157804096668
 20
232.4711488256961
 30
0.0
 11
155.5157804096668
 21
231.0216590829129
 31
0.0
  0
ARC
  5
2FFC
330
1F
100
AcDbEntity
  8
太線
100
AcDbCircle
 10
155.0157804096668
 20
232.4711488256961
 30
0.0
 40
0.5
100
AcDbArc
 50
0.0
 51
90.0
  0
ARC
  5
2FFD
330
1F
100
AcDbEntity
  8
太線
100
AcDbCircle
 10
156.0157804096668
 20
233.4711488256961
 30
0.0
 40
2.5
100
AcDbArc
 50
258.4630409671818
 51
281.5369590328181
  0
LINE
  5
2FFE
330
1F
100
AcDbEntity
  8
太線
100
AcDbLine
 10
156.5157804096668
 20
234.4711488256961
 30
0.0
 11
156.5157804096668
 21
235.9206385684793
 31
0.0
  0
LINE
  5
2FFF
330
1F
100
AcDbEntity
  8
太線
100
AcDbLine
 10
155.5157804096668
 20
235.9206385684793
 30
0.0
 11
155.5157804096668
 21
234.4711488256961
 31
0.0
  0
ARC
  5
3000
330
1F
100
AcDbEntity
  8
太線
100
AcDbCircle
 10
156.0157804096668
 20
233.4711488256961
 30
0.0
 40
2.5
100
AcDbArc
 50
78.46304096718187
 51
101.5369590328181
  0
ARC
  5
3001
330
1F
100
AcDbEntity
  8
太線
100
AcDbCircle
 10
156.0157804096668
 20
233.4711488256961
 30
0.0
 40
2.5
100
AcDbArc
 50
348.463040967185
 51
11.53695903281494
  0
LINE
  5
3002
330
1F
100
AcDbEntity
  8
太線
100
AcDbLine
 10
158.4652701524499
 20
233.9711488256961
 30
0.0
 11
157.0157804096668
 21
233.9711488256961
 31
0.0
  0
LINE
  5
3003
330
1F
100
AcDbEntity
  8
太線
100
AcDbLine
 10
157.0157804096668
 20
232.9711488256961
 30
0.0
 11
158.4652701524499
 21
232.9711488256961
 31
0.0
  0
LEADER
  5
3004
330
1F
100
AcDbEntity
  8
寸法線
 62
     5
100
AcDbLeader
  3
sunpo
 76
     2
 10
148.0055647577014
 20
237.9003688991129
 30
0.0
 10
136.04820920577
 20
256.9084101385634
 30
0.0
1001
ACAD
1000
DSTYLE
1002
{
1070
   147
1040
1.0
1070
    77
1070
     0
1002
}
  0
LINE
  5
3006
330
1F
100
AcDbEntity
  8
細線
 62
     0
100
AcDbLine
 10
345.6790103319653
 20
236.1775962635096
 30
0.0
 11
353.1790103319654
 21
236.1775962635096
 31
0.0
  0
LINE
  5
3007
330
1F
100
AcDbEntity
  8
細線
 62
     0
100
AcDbLine
 10
345.6790103319653
 20
231.1775962635096
 30
0.0
 11
353.1790103319654
 21
231.1775962635096
 31
0.0
  0
LINE
  5
3008
330
1F
100
AcDbEntity
  8
細線
 62
     0
100
AcDbLine
 10
353.1790103319654
 20
235.6775962635096
 30
0.0
 11
345.6790103319653
 21
235.6775962635096
 31
0.0
  0
LINE
  5
3009
330
1F
100
AcDbEntity
  8
細線
 62
     0
100
AcDbLine
 10
353.1790103319654
 20
231.6775962635096
 30
0.0
 11
345.6790103319653
 21
231.6775962635096
 31
0.0
  0
LINE
  5
300A
330
1F
100
AcDbEntity
  8
細線
 62
     0
100
AcDbLine
 10
345.1790103319654
 20
231.6775962635096
 30
0.0
 11
345.1790103319654
 21
235.6775962635096
 31
0.0
  0
LINE
  5
300B
330
1F
100
AcDbEntity
  8
細線
 62
     0
100
AcDbLine
 10
345.6790103319653
 20
231.6775962635096
 30
0.0
 11
345.6790103319653
 21
235.6775962635096
 31
0.0
  0
LINE
  5
300C
330
1F
100
AcDbEntity
  8
細線
 62
     0
100
AcDbLine
 10
345.1790103319654
 20
231.6775962635096
 30
0.0
 11
345.6790103319653
 21
231.1775962635096
 31
0.0
  0
LINE
  5
300D
330
1F
100
AcDbEntity
  8
細線
 62
     0
100
AcDbLine
 10
345.1790103319654
 20
235.6775962635096
 30
0.0
 11
345.6790103319653
 21
236.1775962635096
 31
0.0
  0
CIRCLE
  5
300E
330
1F
100
AcDbEntity
  8
太線
100
AcDbCircle
 10
361.9873455463922
 20
233.6775962635096
 30
0.0
 40
4.0
  0
ARC
  5
300F
330
1F
100
AcDbEntity
  8
細線
 62
     0
100
AcDbCircle
 10
347.6790103319655
 20
233.6775962635096
 30
0.0
 40
8.49999999999995
100
AcDbArc
 50
331.9275130641469
 51
28.07248693585305
  0
LINE
  5
3010
330
1F
100
AcDbEntity
  8
細線
 62
     0
100
AcDbLine
 10
353.1790103319654
 20
231.1775962635096
 30
0.0
 11
353.1790103319654
 21
236.1775962635096
 31
0.0
  0
LINE
  5
3011
330
1F
100
AcDbEntity
  8
細線
 62
     0
100
AcDbLine
 10
353.1790103319654
 20
231.1775962635096
 30
0.0
 11
353.1790103319654
 21
229.6775962635096
 31
0.0
  0
LINE
  5
3012
330
1F
100
AcDbEntity
  8
細線
 62
     0
100
AcDbLine
 10
353.1790103319654
 20
229.6775962635096
 30
0.0
 11
355.1790103319654
 21
229.6775962635096
 31
0.0
  0
LINE
  5
3013
330
1F
100
AcDbEntity
  8
細線
 62
     0
100
AcDbLine
 10
353.1790103319654
 20
236.1775962635096
 30
0.0
 11
353.1790103319654
 21
237.6775962635096
 31
0.0
  0
LINE
  5
3014
330
1F
100
AcDbEntity
  8
細線
 62
     0
100
AcDbLine
 10
353.1790103319654
 20
237.6775962635096
 30
0.0
 11
355.1790103319654
 21
237.6775962635096
 31
0.0
  0
LINE
  5
3015
330
1F
100
AcDbEntity
  8
太線
100
AcDbLine
 10
361.4873455463922
 20
234.6775962635096
 30
0.0
 11
361.4873455463922
 21
236.1270860062928
 31
0.0
  0
LINE
  5
3016
330
1F
100
AcDbEntity
  8
太線
100
AcDbLine
 10
362.4873455463922
 20
236.1270860062928
 30
0.0
 11
362.4873455463922
 21
234.6775962635096
 31
0.0
  0
ARC
  5
3017
330
1F
100
AcDbEntity
  8
太線
100
AcDbCircle
 10
362.9873455463922
 20
234.6775962635097
 30
0.0
 40
0.5
100
AcDbArc
 50
180.0
 51
270.0
  0
LINE
  5
3018
330
1F
100
AcDbEntity
  8
太線
100
AcDbLine
 10
362.9873455463922
 20
234.1775962635096
 30
0.0
 11
364.4368352891754
 21
234.1775962635096
 31
0.0
  0
ARC
  5
3019
330
1F
100
AcDbEntity
  8
太線
100
AcDbCircle
 10
361.9873455463922
 20
233.6775962635096
 30
0.0
 40
2.5
100
AcDbArc
 50
258.4630409671818
 51
281.5369590328181
  0
LINE
  5
301A
330
1F
100
AcDbEntity
  8
太線
100
AcDbLine
 10
361.4873455463922
 20
231.2281065207264
 30
0.0
 11
361.4873455463922
 21
232.6775962635096
 31
0.0
  0
ARC
  5
301B
330
1F
100
AcDbEntity
  8
太線
100
AcDbCircle
 10
362.9873455463922
 20
232.6775962635096
 30
0.0
 40
0.5
100
AcDbArc
 50
90.0
 51
180.0
  0
LINE
  5
301C
330
1F
100
AcDbEntity
  8
太線
100
AcDbLine
 10
364.4368352891754
 20
233.1775962635096
 30
0.0
 11
362.9873455463922
 21
233.1775962635096
 31
0.0
  0
LINE
  5
301D
330
1F
100
AcDbEntity
  8
太線
100
AcDbLine
 10
362.4873455463922
 20
232.6775962635096
 30
0.0
 11
362.4873455463922
 21
231.2281065207264
 31
0.0
  0
ARC
  5
301E
330
1F
100
AcDbEntity
  8
太線
100
AcDbCircle
 10
361.9873455463922
 20
233.6775962635096
 30
0.0
 40
2.5
100
AcDbArc
 50
348.463040967185
 51
11.53695903281653
  0
LINE
  5
301F
330
1F
100
AcDbEntity
  8
太線
100
AcDbLine
 10
359.537855803609
 20
234.1775962635096
 30
0.0
 11
360.9873455463922
 21
234.1775962635096
 31
0.0
  0
LINE
  5
3020
330
1F
100
AcDbEntity
  8
太線
100
AcDbLine
 10
360.9873455463922
 20
233.1775962635096
 30
0.0
 11
359.537855803609
 21
233.1775962635096
 31
0.0
  0
ARC
  5
3021
330
1F
100
AcDbEntity
  8
太線
100
AcDbCircle
 10
361.9873455463922
 20
233.6775962635096
 30
0.0
 40
2.5
100
AcDbArc
 50
168.4630409671834
 51
191.5369590328149
  0
ARC
  5
3022
330
1F
100
AcDbEntity
  8
太線
100
AcDbCircle
 10
360.9873455463922
 20
234.6775962635097
 30
0.0
 40
0.5
100
AcDbArc
 50
270.0
 51
0.0
  0
ARC
  5
3023
330
1F
100
AcDbEntity
  8
太線
100
AcDbCircle
 10
360.9873455463922
 20
232.6775962635096
 30
0.0
 40
0.5
100
AcDbArc
 50
0.0
 51
90.0
  0
ARC
  5
3024
330
1F
100
AcDbEntity
  8
太線
100
AcDbCircle
 10
361.9873455463922
 20
233.6775962635096
 30
0.0
 40
2.5
100
AcDbArc
 50
78.46304096718187
 51
101.5369590328181
  0
LINE
  5
3049
330
1F
100
AcDbEntity
  8
細線
 62
     0
100
AcDbLine
 10
345.1905279317006
 20
182.9748369395715
 30
0.0
 11
352.6905279317006
 21
182.9748369395715
 31
0.0
  0
LINE
  5
304A
330
1F
100
AcDbEntity
  8
細線
 62
     0
100
AcDbLine
 10
345.1905279317006
 20
177.9748369395715
 30
0.0
 11
352.6905279317006
 21
177.9748369395715
 31
0.0
  0
LINE
  5
304B
330
1F
100
AcDbEntity
  8
細線
 62
     0
100
AcDbLine
 10
352.6905279317006
 20
182.4748369395715
 30
0.0
 11
345.1905279317006
 21
182.4748369395715
 31
0.0
  0
LINE
  5
304C
330
1F
100
AcDbEntity
  8
細線
 62
     0
100
AcDbLine
 10
352.6905279317006
 20
178.4748369395715
 30
0.0
 11
345.1905279317006
 21
178.4748369395715
 31
0.0
  0
LINE
  5
304D
330
1F
100
AcDbEntity
  8
細線
 62
     0
100
AcDbLine
 10
344.6905279317006
 20
178.4748369395715
 30
0.0
 11
344.6905279317006
 21
182.4748369395715
 31
0.0
  0
LINE
  5
304E
330
1F
100
AcDbEntity
  8
細線
 62
     0
100
AcDbLine
 10
345.1905279317006
 20
178.4748369395715
 30
0.0
 11
345.1905279317006
 21
182.4748369395715
 31
0.0
  0
LINE
  5
304F
330
1F
100
AcDbEntity
  8
細線
 62
     0
100
AcDbLine
 10
344.6905279317006
 20
178.4748369395715
 30
0.0
 11
345.1905279317006
 21
177.9748369395715
 31
0.0
  0
LINE
  5
3050
330
1F
100
AcDbEntity
  8
細線
 62
     0
100
AcDbLine
 10
344.6905279317006
 20
182.4748369395715
 30
0.0
 11
345.1905279317006
 21
182.9748369395715
 31
0.0
  0
CIRCLE
  5
3051
330
1F
100
AcDbEntity
  8
太線
100
AcDbCircle
 10
361.4988631461275
 20
180.4748369395715
 30
0.0
 40
4.0
  0
ARC
  5
3052
330
1F
100
AcDbEntity
  8
細線
 62
     0
100
AcDbCircle
 10
347.1905279317007
 20
180.4748369395715
 30
0.0
 40
8.49999999999995
100
AcDbArc
 50
331.9275130641469
 51
28.07248693585305
  0
LINE
  5
3053
330
1F
100
AcDbEntity
  8
細線
 62
     0
100
AcDbLine
 10
352.6905279317006
 20
177.9748369395715
 30
0.0
 11
352.6905279317006
 21
182.9748369395715
 31
0.0
  0
LINE
  5
3054
330
1F
100
AcDbEntity
  8
細線
 62
     0
100
AcDbLine
 10
352.6905279317006
 20
177.9748369395715
 30
0.0
 11
352.6905279317006
 21
176.4748369395715
 31
0.0
  0
LINE
  5
3055
330
1F
100
AcDbEntity
  8
細線
 62
     0
100
AcDbLine
 10
352.6905279317006
 20
176.4748369395715
 30
0.0
 11
354.6905279317006
 21
176.4748369395715
 31
0.0
  0
LINE
  5
3056
330
1F
100
AcDbEntity
  8
細線
 62
     0
100
AcDbLine
 10
352.6905279317006
 20
182.9748369395715
 30
0.0
 11
352.6905279317006
 21
184.4748369395714
 31
0.0
  0
LINE
  5
3057
330
1F
100
AcDbEntity
  8
細線
 62
     0
100
AcDbLine
 10
352.6905279317006
 20
184.4748369395714
 30
0.0
 11
354.6905279317006
 21
184.4748369395714
 31
0.0
  0
LINE
  5
3058
330
1F
100
AcDbEntity
  8
太線
100
AcDbLine
 10
360.9988631461275
 20
181.4748369395715
 30
0.0
 11
360.9988631461275
 21
182.9243266823546
 31
0.0
  0
LINE
  5
3059
330
1F
100
AcDbEntity
  8
太線
100
AcDbLine
 10
361.9988631461275
 20
182.9243266823546
 30
0.0
 11
361.9988631461275
 21
181.4748369395715
 31
0.0
  0
ARC
  5
305A
330
1F
100
AcDbEntity
  8
太線
100
AcDbCircle
 10
362.4988631461275
 20
181.4748369395715
 30
0.0
 40
0.5
100
AcDbArc
 50
180.0
 51
270.0
  0
LINE
  5
305B
330
1F
100
AcDbEntity
  8
太線
100
AcDbLine
 10
362.4988631461275
 20
180.9748369395714
 30
0.0
 11
363.9483528889106
 21
180.9748369395714
 31
0.0
  0
ARC
  5
305C
330
1F
100
AcDbEntity
  8
太線
100
AcDbCircle
 10
361.4988631461275
 20
180.4748369395715
 30
0.0
 40
2.5
100
AcDbArc
 50
258.4630409671818
 51
281.5369590328181
  0
LINE
  5
305D
330
1F
100
AcDbEntity
  8
太線
100
AcDbLine
 10
360.9988631461275
 20
178.0253471967883
 30
0.0
 11
360.9988631461275
 21
179.4748369395714
 31
0.0
  0
ARC
  5
305E
330
1F
100
AcDbEntity
  8
太線
100
AcDbCircle
 10
362.4988631461275
 20
179.4748369395714
 30
0.0
 40
0.5
100
AcDbArc
 50
90.0
 51
180.0
  0
LINE
  5
305F
330
1F
100
AcDbEntity
  8
太線
100
AcDbLine
 10
363.9483528889106
 20
179.9748369395715
 30
0.0
 11
362.4988631461275
 21
179.9748369395714
 31
0.0
  0
LINE
  5
3060
330
1F
100
AcDbEntity
  8
太線
100
AcDbLine
 10
361.9988631461275
 20
179.4748369395714
 30
0.0
 11
361.9988631461275
 21
178.0253471967883
 31
0.0
  0
ARC
  5
3061
330
1F
100
AcDbEntity
  8
太線
100
AcDbCircle
 10
361.4988631461275
 20
180.4748369395715
 30
0.0
 40
2.5
100
AcDbArc
 50
348.463040967185
 51
11.53695903281653
  0
LINE
  5
3062
330
1F
100
AcDbEntity
  8
太線
100
AcDbLine
 10
359.0493734033443
 20
180.9748369395714
 30
0.0
 11
360.4988631461275
 21
180.9748369395714
 31
0.0
  0
LINE
  5
3063
330
1F
100
AcDbEntity
  8
太線
100
AcDbLine
 10
360.4988631461275
 20
179.9748369395714
 30
0.0
 11
359.0493734033443
 21
179.9748369395715
 31
0.0
  0
ARC
  5
3064
330
1F
100
AcDbEntity
  8
太線
100
AcDbCircle
 10
361.4988631461275
 20
180.4748369395715
 30
0.0
 40
2.5
100
AcDbArc
 50
168.4630409671834
 51
191.5369590328149
  0
ARC
  5
3065
330
1F
100
AcDbEntity
  8
太線
100
AcDbCircle
 10
360.4988631461275
 20
181.4748369395715
 30
0.0
 40
0.5
100
AcDbArc
 50
270.0
 51
0.0
  0
ARC
  5
3066
330
1F
100
AcDbEntity
  8
太線
100
AcDbCircle
 10
360.4988631461275
 20
179.4748369395714
 30
0.0
 40
0.5
100
AcDbArc
 50
0.0
 51
90.0
  0
ARC
  5
3067
330
1F
100
AcDbEntity
  8
太線
100
AcDbCircle
 10
361.4988631461275
 20
180.4748369395715
 30
0.0
 40
2.5
100
AcDbArc
 50
78.46304096718187
 51
101.5369590328181
  0
LINE
  5
3068
330
1F
100
AcDbEntity
  8
細線
 62
     0
100
AcDbLine
 10
344.7020434091127
 20
129.283978720845
 30
0.0
 11
352.2020434091127
 21
129.283978720845
 31
0.0
  0
LINE
  5
3069
330
1F
100
AcDbEntity
  8
細線
 62
     0
100
AcDbLine
 10
344.7020434091127
 20
124.283978720845
 30
0.0
 11
352.2020434091127
 21
124.283978720845
 31
0.0
  0
LINE
  5
306A
330
1F
100
AcDbEntity
  8
細線
 62
     0
100
AcDbLine
 10
352.2020434091127
 20
128.783978720845
 30
0.0
 11
344.7020434091127
 21
128.783978720845
 31
0.0
  0
LINE
  5
306B
330
1F
100
AcDbEntity
  8
細線
 62
     0
100
AcDbLine
 10
352.2020434091127
 20
124.783978720845
 30
0.0
 11
344.7020434091127
 21
124.783978720845
 31
0.0
  0
LINE
  5
306C
330
1F
100
AcDbEntity
  8
細線
 62
     0
100
AcDbLine
 10
344.2020434091127
 20
124.783978720845
 30
0.0
 11
344.2020434091127
 21
128.783978720845
 31
0.0
  0
LINE
  5
306D
330
1F
100
AcDbEntity
  8
細線
 62
     0
100
AcDbLine
 10
344.7020434091127
 20
124.783978720845
 30
0.0
 11
344.7020434091127
 21
128.783978720845
 31
0.0
  0
LINE
  5
306E
330
1F
100
AcDbEntity
  8
細線
 62
     0
100
AcDbLine
 10
344.2020434091127
 20
124.783978720845
 30
0.0
 11
344.7020434091127
 21
124.283978720845
 31
0.0
  0
LINE
  5
306F
330
1F
100
AcDbEntity
  8
細線
 62
     0
100
AcDbLine
 10
344.2020434091127
 20
128.783978720845
 30
0.0
 11
344.7020434091127
 21
129.283978720845
 31
0.0
  0
CIRCLE
  5
3070
330
1F
100
AcDbEntity
  8
太線
100
AcDbCircle
 10
361.0103786235396
 20
126.783978720845
 30
0.0
 40
4.0
  0
ARC
  5
3071
330
1F
100
AcDbEntity
  8
細線
 62
     0
100
AcDbCircle
 10
346.7020434091129
 20
126.783978720845
 30
0.0
 40
8.49999999999995
100
AcDbArc
 50
331.9275130641469
 51
28.07248693585305
  0
LINE
  5
3072
330
1F
100
AcDbEntity
  8
細線
 62
     0
100
AcDbLine
 10
352.2020434091127
 20
124.283978720845
 30
0.0
 11
352.2020434091127
 21
129.283978720845
 31
0.0
  0
LINE
  5
3073
330
1F
100
AcDbEntity
  8
細線
 62
     0
100
AcDbLine
 10
352.2020434091127
 20
124.283978720845
 30
0.0
 11
352.2020434091127
 21
122.783978720845
 31
0.0
  0
LINE
  5
3074
330
1F
100
AcDbEntity
  8
細線
 62
     0
100
AcDbLine
 10
352.2020434091127
 20
122.783978720845
 30
0.0
 11
354.2020434091127
 21
122.783978720845
 31
0.0
  0
LINE
  5
3075
330
1F
100
AcDbEntity
  8
細線
 62
     0
100
AcDbLine
 10
352.2020434091127
 20
129.283978720845
 30
0.0
 11
352.2020434091127
 21
130.783978720845
 31
0.0
  0
LINE
  5
3076
330
1F
100
AcDbEntity
  8
細線
 62
     0
100
AcDbLine
 10
352.2020434091127
 20
130.783978720845
 30
0.0
 11
354.2020434091127
 21
130.783978720845
 31
0.0
  0
LINE
  5
3077
330
1F
100
AcDbEntity
  8
太線
100
AcDbLine
 10
360.5103786235396
 20
127.783978720845
 30
0.0
 11
360.5103786235396
 21
129.2334684636281
 31
0.0
  0
LINE
  5
3078
330
1F
100
AcDbEntity
  8
太線
100
AcDbLine
 10
361.5103786235396
 20
129.2334684636281
 30
0.0
 11
361.5103786235396
 21
127.783978720845
 31
0.0
  0
ARC
  5
3079
330
1F
100
AcDbEntity
  8
太線
100
AcDbCircle
 10
362.0103786235396
 20
127.783978720845
 30
0.0
 40
0.5
100
AcDbArc
 50
180.0
 51
270.0
  0
LINE
  5
307A
330
1F
100
AcDbEntity
  8
太線
100
AcDbLine
 10
362.0103786235396
 20
127.283978720845
 30
0.0
 11
363.4598683663227
 21
127.283978720845
 31
0.0
  0
ARC
  5
307B
330
1F
100
AcDbEntity
  8
太線
100
AcDbCircle
 10
361.0103786235396
 20
126.783978720845
 30
0.0
 40
2.5
100
AcDbArc
 50
258.4630409671818
 51
281.5369590328181
  0
LINE
  5
307C
330
1F
100
AcDbEntity
  8
太線
100
AcDbLine
 10
360.5103786235396
 20
124.3344889780618
 30
0.0
 11
360.5103786235396
 21
125.7839787208449
 31
0.0
  0
ARC
  5
307D
330
1F
100
AcDbEntity
  8
太線
100
AcDbCircle
 10
362.0103786235396
 20
125.7839787208449
 30
0.0
 40
0.5
100
AcDbArc
 50
90.0
 51
180.0
  0
LINE
  5
307E
330
1F
100
AcDbEntity
  8
太線
100
AcDbLine
 10
363.4598683663227
 20
126.283978720845
 30
0.0
 11
362.0103786235396
 21
126.2839787208449
 31
0.0
  0
LINE
  5
307F
330
1F
100
AcDbEntity
  8
太線
100
AcDbLine
 10
361.5103786235396
 20
125.7839787208449
 30
0.0
 11
361.5103786235396
 21
124.3344889780618
 31
0.0
  0
ARC
  5
3080
330
1F
100
AcDbEntity
  8
太線
100
AcDbCircle
 10
361.0103786235396
 20
126.783978720845
 30
0.0
 40
2.5
100
AcDbArc
 50
348.463040967185
 51
11.53695903281653
  0
LINE
  5
3081
330
1F
100
AcDbEntity
  8
太線
100
AcDbLine
 10
358.5608888807564
 20
127.283978720845
 30
0.0
 11
360.0103786235396
 21
127.283978720845
 31
0.0
  0
LINE
  5
3082
330
1F
100
AcDbEntity
  8
太線
100
AcDbLine
 10
360.0103786235396
 20
126.2839787208449
 30
0.0
 11
358.5608888807564
 21
126.283978720845
 31
0.0
  0
ARC
  5
3083
330
1F
100
AcDbEntity
  8
太線
100
AcDbCircle
 10
361.0103786235396
 20
126.783978720845
 30
0.0
 40
2.5
100
AcDbArc
 50
168.4630409671834
 51
191.5369590328149
  0
ARC
  5
3084
330
1F
100
AcDbEntity
  8
太線
100
AcDbCircle
 10
360.0103786235396
 20
127.783978720845
 30
0.0
 40
0.5
100
AcDbArc
 50
270.0
 51
0.0
  0
ARC
  5
3085
330
1F
100
AcDbEntity
  8
太線
100
AcDbCircle
 10
360.0103786235396
 20
125.7839787208449
 30
0.0
 40
0.5
100
AcDbArc
 50
0.0
 51
90.0
  0
ARC
  5
3086
330
1F
100
AcDbEntity
  8
太線
100
AcDbCircle
 10
361.0103786235396
 20
126.783978720845
 30
0.0
 40
2.5
100
AcDbArc
 50
78.46304096718187
 51
101.5369590328181
  0
VIEWPORT
  5
2E
330
1B
100
AcDbEntity
 67
     1
  8
0
100
AcDbViewport
 10
195.1035379346402
 20
102.1027476207897
 30
0.0
 40
521.9910667656998
 41
265.1208579357927
 68
     2
 69
     1
 12
195.1035379346402
 22
102.1027476207897
 13
0.0
 23
0.0
 14
10.0
 24
10.0
 15
10.0
 25
10.0
 16
0.0
 26
0.0
 36
1.0
 17
0.0
 27
0.0
 37
0.0
 42
50.0
 43
0.0
 44
0.0
 45
265.1208579357927
 50
0.0
 51
0.0
 72
   100
 90
    32800
  1

281
     0
 71
     1
 74
     0
110
0.0
120
0.0
130
0.0
111
1.0
121
0.0
131
0.0
112
0.0
122
1.0
132
0.0
 79
     0
146
0.0
  0
VIEWPORT
  5
30
330
1B
100
AcDbEntity
 67
     1
  8
70-0-CON
100
AcDbViewport
 10
141.8594093064315
 20
100.3480256368386
 30
0.0
 40
261.6199023344245
 41
192.6196987113174
 68
     1
 69
     2
 12
234.1007392193637
 22
133.9731121758347
 13
0.0
 23
0.0
 14
5.0
 24
5.0
 15
10.0
 25
10.0
 16
0.0
 26
0.0
 36
1.0
 17
0.0
 27
0.0
 37
0.0
 42
50.0
 43
0.0
 44
0.0
 45
304.1568203495314
 50
0.0
 51
0.0
 72
   100
 90
    32864
  1

281
     0
 71
     1
 74
     0
110
0.0
120
0.0
130
0.0
111
1.0
121
0.0
131
0.0
112
0.0
122
1.0
132
0.0
 79
     0
146
0.0
  0
LWPOLYLINE
  5
45
330
1B
100
AcDbEntity
 67
     1
  8
50-0-CON
100
AcDbPolyline
 90
        4
 70
     1
 43
0.0
 10
11.04945813921926
 20
4.038176281179858
 10
272.2125713060605
 20
4.033520706629644
 10
273.4987754093466
 20
195.9297862125246
 10
11.04945813921926
 20
196.6578749924973
  0
LINE
  5
4A
330
1B
100
AcDbEntity
 67
     1
  8
50-0-CON
100
AcDbLine
 10
10.38768783662635
 20
100.3480256368386
 30
0.0
 11
-4.391850629656119
 21
100.3480256368386
 31
0.0
  0
LINE
  5
4B
330
1B
100
AcDbEntity
 67
     1
  8
50-0-CON
100
AcDbLine
 10
141.8594093064315
 20
197.098652626247
 30
0.0
 11
141.8594093064315
 21
202.387980773708
 31
0.0
  0
LINE
  5
4C
330
1B
100
AcDbEntity
 67
     1
  8
50-0-CON
100
AcDbLine
 10
272.4487699456857
 20
100.7888032705883
 30
0.0
 11
278.8458837249377
 21
100.7888032705883
 31
0.0
  0
LINE
  5
4D
330
1B
100
AcDbEntity
 67
     1
  8
50-0-CON
100
AcDbLine
 10
140.9770484758805
 20
4.038176281179858
 30
0.0
 11
140.9770484758805
 21
-3.455038652015446
 31
0.0
  0
ENDSEC
  0
SECTION
  2
OBJECTS
  0
DICTIONARY
  5
C
330
0
100
AcDbDictionary
281
     1
  3
ACAD_GROUP
350
D
  3
ACAD_LAYOUT
350
1A
  3
ACAD_MLINESTYLE
350
17
  3
ACAD_PLOTSETTINGS
350
19
  3
ACAD_PLOTSTYLENAME
350
E
  3
AcadDim
350
13D0
  3
AcDbVariableDictionary
350
6AD
  3
DWGPROPS
350
30F
  0
DICTIONARY
  5
D
102
{ACAD_REACTORS
330
C
102
}
330
C
100
AcDbDictionary
281
     1
  0
DICTIONARY
  5
1A
102
{ACAD_REACTORS
330
C
102
}
330
C
100
AcDbDictionary
281
     1
  3
A4
350
1E
  3
Model
350
22
  0
DICTIONARY
  5
17
102
{ACAD_REACTORS
330
C
102
}
330
C
100
AcDbDictionary
281
     1
  3
Standard
350
18
  0
DICTIONARY
  5
19
102
{ACAD_REACTORS
330
C
102
}
330
C
100
AcDbDictionary
281
     1
  0
ACDBDICTIONARYWDFLT
  5
E
102
{ACAD_REACTORS
330
C
102
}
330
C
100
AcDbDictionary
281
     1
  3
Normal
350
F
100
AcDbDictionaryWithDefault
340
F
  0
XRECORD
  5
13D0
102
{ACAD_REACTORS
330
C
102
}
330
C
100
AcDbXrecord
280
     1
 90
   990106
  3

 60
     0
 61
     0
 62
     1
 63
     3
 64
     0
 65
     0
 66
     0
 67
     3
 68
     1
 69
     0
 70
     0
 71
     0
 72
     0
 40
0.0
170
     0
  0
DICTIONARY
  5
6AD
102
{ACAD_REACTORS
330
C
102
}
330
C
100
AcDbDictionary
281
     1
  3
SORTENTS
350
6AE
  0
XRECORD
  5
30F
102
{ACAD_REACTORS
330
C
102
}
330
C
100
AcDbXrecord
280
     1
  1
DWGPROPS COOKIE
  2

  3

  4

  6

  7

  8

  9

300
=
301
=
302
=
303
=
304
=
305
=
306
=
307
=
308
=
309
=
 40
0.3303803125
 41
2452362.482225463
 42
2452370.969861285
  1

 90
        0
  0
LAYOUT
  5
1E
102
{ACAD_REACTORS
330
1A
102
}
330
1A
100
AcDbPlotSettings
  1

  2
CAD.pc3
  4
A4
  6

 40
3.174999952316284
 41
3.174999952316284
 42
3.175003051757812
 43
3.17498779296875
 44
210.0
 45
297.0
 46
0.0
 47
0.0
 48
0.0
 49
0.0
140
0.0
141
0.0
142
1.0
143
1.0
 70
   688
 72
     1
 73
     1
 74
     5
  7
aclt.ctb
 75
    16
147
1.0
148
0.0
149
0.0
100
AcDbLayout
  1
A4
 70
     1
 71
     1
 10
-3.17498779296875
 20
-3.174999952316284
 11
293.8250122070312
 21
206.8250000476837
 12
0.0
 22
0.0
 32
0.0
 14
-4.400950791736249
 24
-3.461455399935687
 34
-0.0015258207003583
 15
278.8632049462244
 25
202.4035238883311
 35
0.0000000349246037
146
0.0
 13
0.0
 23
0.0
 33
0.0
 16
1.0
 26
0.0
 36
0.0
 17
0.0
 27
1.0
 37
0.0
 76
     0
330
1B
331
30
  0
LAYOUT
  5
22
102
{ACAD_REACTORS
330
1A
102
}
330
1A
100
AcDbPlotSettings
  1

  2
EPSON PM-920C
  4
A4
  6

 40
3.757083177566528
 41
14.7637300491333
 42
3.757080078125
 43
3.757080078125
 44
209.9733276367187
 45
296.9683227539062
 46
0.0
 47
0.0
 48
0.0
 49
0.0
140
0.0
141
0.0
142
1.0
143
1.0
 70
 11952
 72
     1
 73
     1
 74
     0
  7
C:\Program Files\ACAD LT 2000\Plot Styles\ジョイント.ctb
 75
     0
147
1.0
148
-45.64199848979289
149
-84.48806419330498
100
AcDbLayout
  1
Model
 70
     1
 71
     0
 10
0.0
 20
0.0
 11
12.0
 21
9.0
 12
0.0
 22
0.0
 32
0.0
 14
0.0
 24
0.0
 34
0.0
 15
0.0
 25
0.0
 35
0.0
146
0.0
 13
0.0
 23
0.0
 33
0.0
 16
1.0
 26
0.0
 36
0.0
 17
0.0
 27
1.0
 37
0.0
 76
     0
330
1F
  0
MLINESTYLE
  5
18
102
{ACAD_REACTORS
330
17
102
}
330
17
100
AcDbMlineStyle
  2
STANDARD
 70
     0
  3

 62
   256
 51
90.0
 52
90.0
 71
     2
 49
0.5
 62
   256
  6
BYLAYER
 49
-0.5
 62
   256
  6
BYLAYER
  0
ACDBPLACEHOLDER
  5
F
102
{ACAD_REACTORS
330
E
102
}
330
E
  0
DICTIONARYVAR
  5
6AE
102
{ACAD_REACTORS
330
6AD
102
}
330
6AD
100
DictionaryVariables
280
     0
  1
96
  0
ENDSEC
  0
EOF
