  0
SECTION
  2
HEADER
  9
$ACADVER
  1
AC1015
  9
$ACADMAINTVER
 70
     6
  9
$DWGCODEPAGE
  3
ANSI_932
  9
$INSBASE
 10
0.0
 20
0.0
 30
0.0
  9
$EXTMIN
 10
28.89725951996696
 20
80.12167308676925
 30
0.0
  9
$EXTMAX
 10
202.6921031646868
 20
226.3370923343465
 30
0.0
  9
$LIMMIN
 10
0.0
 20
0.0
  9
$LIMMAX
 10
420.0
 20
297.0
  9
$ORTHOMODE
 70
     1
  9
$REGENMODE
 70
     1
  9
$FILLMODE
 70
     1
  9
$QTEXTMODE
 70
     0
  9
$MIRRTEXT
 70
     1
  9
$LTSCALE
 40
1.0
  9
$ATTMODE
 70
     1
  9
$TEXTSIZE
 40
2.0
  9
$TRACEWID
 40
1.0
  9
$TEXTSTYLE
  7
OKANO
  9
$CLAYER
  8
太線
  9
$CELTYPE
  6
ByLayer
  9
$CECOLOR
 62
   256
  9
$CELTSCALE
 40
1.0
  9
$DISPSILH
 70
     0
  9
$DIMSCALE
 40
0.0
  9
$DIMASZ
 40
3.0
  9
$DIMEXO
 40
2.0
  9
$DIMDLI
 40
8.0
  9
$DIMRND
 40
0.0
  9
$DIMDLE
 40
0.0
  9
$DIMEXE
 40
3.0
  9
$DIMTP
 40
0.0
  9
$DIMTM
 40
0.0
  9
$DIMTXT
 40
5.0
  9
$DIMCEN
 40
2.5
  9
$DIMTSZ
 40
0.0
  9
$DIMTOL
 70
     0
  9
$DIMLIM
 70
     0
  9
$DIMTIH
 70
     0
  9
$DIMTOH
 70
     0
  9
$DIMSE1
 70
     0
  9
$DIMSE2
 70
     0
  9
$DIMTAD
 70
     1
  9
$DIMZIN
 70
     8
  9
$DIMBLK
  1
Closed
  9
$DIMASO
 70
     1
  9
$DIMSHO
 70
     1
  9
$DIMPOST
  1

  9
$DIMAPOST
  1

  9
$DIMALT
 70
     0
  9
$DIMALTD
 70
     3
  9
$DIMALTF
 40
0.03937007874016
  9
$DIMLFAC
 40
1.0
  9
$DIMTOFL
 70
     1
  9
$DIMTVP
 40
0.0
  9
$DIMTIX
 70
     0
  9
$DIMSOXD
 70
     0
  9
$DIMSAH
 70
     0
  9
$DIMBLK1
  1

  9
$DIMBLK2
  1

  9
$DIMSTYLE
  2
sunpo
  9
$DIMCLRD
 70
     0
  9
$DIMCLRE
 70
     0
  9
$DIMCLRT
 70
     0
  9
$DIMTFAC
 40
1.0
  9
$DIMGAP
 40
1.0
  9
$DIMJUST
 70
     0
  9
$DIMSD1
 70
     0
  9
$DIMSD2
 70
     0
  9
$DIMTOLJ
 70
     0
  9
$DIMTZIN
 70
     8
  9
$DIMALTZ
 70
     0
  9
$DIMALTTZ
 70
     0
  9
$DIMUPT
 70
     0
  9
$DIMDEC
 70
     2
  9
$DIMTDEC
 70
     2
  9
$DIMALTU
 70
     2
  9
$DIMALTTD
 70
     3
  9
$DIMTXSTY
  7
OKANO
  9
$DIMAUNIT
 70
     0
  9
$DIMADEC
 70
     0
  9
$DIMALTRND
 40
0.0
  9
$DIMAZIN
 70
     0
  9
$DIMDSEP
 70
    46
  9
$DIMATFIT
 70
     3
  9
$DIMFRAC
 70
     0
  9
$DIMLDRBLK
  1
Closed
  9
$DIMLUNIT
 70
     2
  9
$DIMLWD
 70
    -2
  9
$DIMLWE
 70
    -2
  9
$DIMTMOVE
 70
     0
  9
$LUNITS
 70
     2
  9
$LUPREC
 70
     2
  9
$SKETCHINC
 40
1.0
  9
$FILLETRAD
 40
0.5
  9
$AUNITS
 70
     0
  9
$AUPREC
 70
     0
  9
$MENU
  1
.
  9
$ELEVATION
 40
0.0
  9
$PELEVATION
 40
0.0
  9
$THICKNESS
 40
0.0
  9
$LIMCHECK
 70
     0
  9
$CHAMFERA
 40
10.0
  9
$CHAMFERB
 40
10.0
  9
$CHAMFERC
 40
20.0
  9
$CHAMFERD
 40
0.0
  9
$SKPOLY
 70
     0
  9
$TDCREATE
 40
2452362.482225463
  9
$TDUCREATE
 40
2452362.107225463
  9
$TDUPDATE
 40
2456482.680062928
  9
$TDUUPDATE
 40
2456482.305062928
  9
$TDINDWG
 40
1.6997723148
  9
$TDUSRTIMER
 40
1.6997723148
  9
$USRTIMER
 70
     1
  9
$ANGBASE
 50
0.0
  9
$ANGDIR
 70
     0
  9
$PDMODE
 70
     0
  9
$PDSIZE
 40
0.0
  9
$PLINEWID
 40
0.0
  9
$SPLFRAME
 70
     0
  9
$SPLINETYPE
 70
     6
  9
$SPLINESEGS
 70
     8
  9
$HANDSEED
  5
1ACD
  9
$SURFTAB1
 70
     6
  9
$SURFTAB2
 70
     6
  9
$SURFTYPE
 70
     6
  9
$SURFU
 70
     6
  9
$SURFV
 70
     6
  9
$UCSBASE
  2

  9
$UCSNAME
  2

  9
$UCSORG
 10
0.0
 20
0.0
 30
0.0
  9
$UCSXDIR
 10
1.0
 20
0.0
 30
0.0
  9
$UCSYDIR
 10
0.0
 20
1.0
 30
0.0
  9
$UCSORTHOREF
  2

  9
$UCSORTHOVIEW
 70
     0
  9
$UCSORGTOP
 10
0.0
 20
0.0
 30
0.0
  9
$UCSORGBOTTOM
 10
0.0
 20
0.0
 30
0.0
  9
$UCSORGLEFT
 10
0.0
 20
0.0
 30
0.0
  9
$UCSORGRIGHT
 10
0.0
 20
0.0
 30
0.0
  9
$UCSORGFRONT
 10
0.0
 20
0.0
 30
0.0
  9
$UCSORGBACK
 10
0.0
 20
0.0
 30
0.0
  9
$PUCSBASE
  2

  9
$PUCSNAME
  2

  9
$PUCSORG
 10
0.0
 20
0.0
 30
0.0
  9
$PUCSXDIR
 10
1.0
 20
0.0
 30
0.0
  9
$PUCSYDIR
 10
0.0
 20
1.0
 30
0.0
  9
$PUCSORTHOREF
  2

  9
$PUCSORTHOVIEW
 70
     0
  9
$PUCSORGTOP
 10
0.0
 20
0.0
 30
0.0
  9
$PUCSORGBOTTOM
 10
0.0
 20
0.0
 30
0.0
  9
$PUCSORGLEFT
 10
0.0
 20
0.0
 30
0.0
  9
$PUCSORGRIGHT
 10
0.0
 20
0.0
 30
0.0
  9
$PUCSORGFRONT
 10
0.0
 20
0.0
 30
0.0
  9
$PUCSORGBACK
 10
0.0
 20
0.0
 30
0.0
  9
$USERI1
 70
     0
  9
$USERI2
 70
     0
  9
$USERI3
 70
     0
  9
$USERI4
 70
     0
  9
$USERI5
 70
     0
  9
$USERR1
 40
0.0
  9
$USERR2
 40
0.0
  9
$USERR3
 40
0.0
  9
$USERR4
 40
0.0
  9
$USERR5
 40
0.0
  9
$WORLDVIEW
 70
     1
  9
$SHADEDGE
 70
     3
  9
$SHADEDIF
 70
    70
  9
$TILEMODE
 70
     0
  9
$MAXACTVP
 70
    64
  9
$PINSBASE
 10
0.0
 20
0.0
 30
0.0
  9
$PLIMCHECK
 70
     0
  9
$PEXTMIN
 10
-4.391850629656119
 20
-3.455038652015446
 30
0.0
  9
$PEXTMAX
 10
278.8458837249377
 20
202.387980773708
 30
0.0
  9
$PLIMMIN
 10
-3.757080078125
 20
-3.757083177566528
  9
$PLIMMAX
 10
293.2112426757812
 20
206.2162444591522
  9
$UNITMODE
 70
     0
  9
$VISRETAIN
 70
     1
  9
$PLINEGEN
 70
     0
  9
$PSLTSCALE
 70
     1
  9
$TREEDEPTH
 70
  3020
  9
$CMLSTYLE
  2
Standard
  9
$CMLJUST
 70
     0
  9
$CMLSCALE
 40
20.0
  9
$PROXYGRAPHICS
 70
     1
  9
$MEASUREMENT
 70
     1
  9
$CELWEIGHT
370
    -1
  9
$ENDCAPS
280
     0
  9
$JOINSTYLE
280
     0
  9
$LWDISPLAY
290
     0
  9
$INSUNITS
 70
     4
  9
$HYPERLINKBASE
  1

  9
$STYLESHEET
  1

  9
$XEDIT
290
     1
  9
$CEPSNTYPE
380
     0
  9
$PSTYLEMODE
290
     1
  9
$FINGERPRINTGUID
  2
{FF7F33C3-4233-11D6-AEE0-0000F45FD7F4}
  9
$VERSIONGUID
  2
{D8F9FAC0-2384-4CB8-9B12-B82CB249ED95}
  9
$EXTNAMES
290
     1
  9
$PSVPSCALE
 40
0.0
  9
$OLESTARTUP
290
     0
  0
ENDSEC
  0
SECTION
  2
CLASSES
  0
CLASS
  1
ACDBDICTIONARYWDFLT
  2
AcDbDictionaryWithDefault
  3
AutoCAD 2000
 90
        0
280
     0
281
     0
  0
CLASS
  1
ACDBPLACEHOLDER
  2
AcDbPlaceHolder
  3
AutoCAD 2000
 90
        0
280
     0
281
     0
  0
CLASS
  1
LAYOUT
  2
AcDbLayout
  3
AutoCAD 2000
 90
        0
280
     0
281
     0
  0
CLASS
  1
DICTIONARYVAR
  2
AcDbDictionaryVar
  3
AutoCAD 2000
 90
        0
280
     0
281
     0
  0
ENDSEC
  0
SECTION
  2
TABLES
  0
TABLE
  2
VPORT
  5
8
330
0
100
AcDbSymbolTable
 70
     3
  0
VPORT
  5
1ACC
330
8
100
AcDbSymbolTableRecord
100
AcDbViewportTableRecord
  2
*Active
 70
     0
 10
0.0
 20
0.0
 11
1.0
 21
1.0
 12
125.1234753625821
 22
126.7784052792933
 13
0.0
 23
0.0
 14
5.0
 24
5.0
 15
10.0
 25
10.0
 16
0.0
 26
0.0
 36
1.0
 17
0.0
 27
0.0
 37
0.0
 40
280.8992100673544
 41
1.968879668049792
 42
50.0
 43
0.0
 44
0.0
 50
0.0
 51
0.0
 71
     0
 72
   100
 73
     1
 74
     3
 75
     0
 76
     0
 77
     0
 78
     0
281
     0
 65
     1
110
0.0
120
0.0
130
0.0
111
1.0
121
0.0
131
0.0
112
0.0
122
1.0
132
0.0
 79
     0
146
0.0
  0
ENDTAB
  0
TABLE
  2
LTYPE
  5
5
330
0
100
AcDbSymbolTable
 70
     5
  0
LTYPE
  5
14
330
5
100
AcDbSymbolTableRecord
100
AcDbLinetypeTableRecord
  2
ByBlock
 70
     0
  3

 72
    65
 73
     0
 40
0.0
  0
LTYPE
  5
15
330
5
100
AcDbSymbolTableRecord
100
AcDbLinetypeTableRecord
  2
ByLayer
 70
     0
  3

 72
    65
 73
     0
 40
0.0
  0
LTYPE
  5
16
330
5
100
AcDbSymbolTableRecord
100
AcDbLinetypeTableRecord
  2
Continuous
 70
     0
  3
Solid line
 72
    65
 73
     0
 40
0.0
  0
LTYPE
  5
33
330
5
100
AcDbSymbolTableRecord
100
AcDbLinetypeTableRecord
  2
DASHED2
 70
     0
  3
Dashed (.5x) _ _ _ _ _ _ _ _ _ _ _ _ _ _ _ _ _
 72
    65
 73
     2
 40
9.524999999999998
 49
6.349999999999999
 74
     0
 49
-3.174999999999999
 74
     0
  0
LTYPE
  5
34
330
5
100
AcDbSymbolTableRecord
100
AcDbLinetypeTableRecord
  2
CENTER2
 70
     0
  3
Center (.5x) ___ _ ___ _ ___ _ ___ _ ___ _ ___
 72
    65
 73
     4
 40
28.57499999999999
 49
19.05
 74
     0
 49
-3.174999999999999
 74
     0
 49
3.174999999999999
 74
     0
 49
-3.174999999999999
 74
     0
  0
LTYPE
  5
35
330
5
100
AcDbSymbolTableRecord
100
AcDbLinetypeTableRecord
  2
PHANTOM2
 70
     0
  3
Phantom (.5x) ___ _ _ ___ _ _ ___ _ _ ___ _ _
 72
    65
 73
     6
 40
31.75
 49
15.875
 74
     0
 49
-3.174999999999999
 74
     0
 49
3.174999999999999
 74
     0
 49
-3.174999999999999
 74
     0
 49
3.174999999999999
 74
     0
 49
-3.174999999999999
 74
     0
  0
LTYPE
  5
36
330
5
100
AcDbSymbolTableRecord
100
AcDbLinetypeTableRecord
  2
HIDDEN2
 70
     0
  3
Hidden (.5x) _ _ _ _ _ _ _ _ _ _ _ _ _ _ _ _ _
 72
    65
 73
     2
 40
4.762499999999999
 49
3.174999999999999
 74
     0
 49
-1.587499999999999
 74
     0
  0
ENDTAB
  0
TABLE
  2
LAYER
  5
2
330
0
100
AcDbSymbolTable
 70
    13
  0
LAYER
  5
10
330
2
100
AcDbSymbolTableRecord
100
AcDbLayerTableRecord
  2
0
 70
     0
 62
     7
  6
Continuous
370
    -3
390
F
  0
LAYER
  5
40
330
2
100
AcDbSymbolTableRecord
100
AcDbLayerTableRecord
  2
50-0-CON
 70
     0
 62
     4
  6
Continuous
370
    50
390
F
  0
LAYER
  5
41
330
2
100
AcDbSymbolTableRecord
100
AcDbLayerTableRecord
  2
70-0-CON
 70
     0
 62
   202
  6
Continuous
370
    70
390
F
  0
LAYER
  5
4E
330
2
100
AcDbSymbolTableRecord
100
AcDbLayerTableRecord
  2
極太線
 70
     0
 62
     7
  6
Continuous
370
    70
390
F
  0
LAYER
  5
4F
330
2
100
AcDbSymbolTableRecord
100
AcDbLayerTableRecord
  2
細線
 70
     0
 62
     8
  6
Continuous
370
    18
390
F
  0
LAYER
  5
AB
330
2
100
AcDbSymbolTableRecord
100
AcDbLayerTableRecord
  2
構築線
 70
     0
 62
    -2
  6
Continuous
290
     0
370
    18
390
F
  0
LAYER
  5
B8
330
2
100
AcDbSymbolTableRecord
100
AcDbLayerTableRecord
  2
太線
 70
     0
 62
     7
  6
Continuous
370
    35
390
F
  0
LAYER
  5
B9
330
2
100
AcDbSymbolTableRecord
100
AcDbLayerTableRecord
  2
寸法線
 70
     0
 62
     5
  6
Continuous
370
    18
390
F
  0
LAYER
  5
BA
330
2
100
AcDbSymbolTableRecord
100
AcDbLayerTableRecord
  2
破線
 70
     0
 62
     8
  6
HIDDEN2
370
    18
390
F
  0
LAYER
  5
BB
330
2
100
AcDbSymbolTableRecord
100
AcDbLayerTableRecord
  2
中心線
 70
     0
 62
     1
  6
CENTER2
370
    18
390
F
  0
LAYER
  5
BC
330
2
100
AcDbSymbolTableRecord
100
AcDbLayerTableRecord
  2
想像線
 70
     0
 62
     8
  6
PHANTOM2
370
    18
390
F
  0
LAYER
  5
BD
330
2
100
AcDbSymbolTableRecord
100
AcDbLayerTableRecord
  2
文字
 70
     0
 62
     7
  6
Continuous
370
    18
390
F
  0
LAYER
  5
180
330
2
100
AcDbSymbolTableRecord
100
AcDbLayerTableRecord
  2
Defpoints
 70
     0
 62
     7
  6
Continuous
290
     0
370
    -3
390
F
  0
ENDTAB
  0
TABLE
  2
STYLE
  5
3
330
0
100
AcDbSymbolTable
 70
     3
  0
STYLE
  5
11
330
3
100
AcDbSymbolTableRecord
100
AcDbTextStyleTableRecord
  2
Standard
 70
     0
 40
0.0
 41
1.0
 50
0.0
 71
     0
 42
3.0
  3
txt
  4

  0
STYLE
  5
32
330
3
100
AcDbSymbolTableRecord
100
AcDbTextStyleTableRecord
  2

 70
     1
 40
0.0
 41
1.0
 50
0.0
 71
     0
 42
2.5
  3
ltypeshp.shx
  4

  0
STYLE
  5
50
330
3
100
AcDbSymbolTableRecord
100
AcDbTextStyleTableRecord
  2
OKANO
 70
     0
 40
0.0
 41
1.0
 50
15.0
 71
     0
 42
2.0
  3
isocp.shx
  4
bigfont.shx
  0
ENDTAB
  0
TABLE
  2
VIEW
  5
6
330
0
100
AcDbSymbolTable
 70
     0
  0
ENDTAB
  0
TABLE
  2
UCS
  5
7
330
0
100
AcDbSymbolTable
 70
     0
  0
ENDTAB
  0
TABLE
  2
APPID
  5
9
330
0
100
AcDbSymbolTable
 70
     1
  0
APPID
  5
12
330
9
100
AcDbSymbolTableRecord
100
AcDbRegAppTableRecord
  2
ACAD
 70
     0
  0
ENDTAB
  0
TABLE
  2
DIMSTYLE
  5
A
330
0
100
AcDbSymbolTable
 70
     2
100
AcDbDimStyleTable
 71
     2
340
A2
340
27
  0
DIMSTYLE
105
27
330
A
100
AcDbSymbolTableRecord
100
AcDbDimStyleTableRecord
  2
ISO-25
 70
     0
 41
2.5
 42
0.625
 43
3.75
 44
1.25
 73
     0
 74
     0
 77
     1
 78
     8
140
2.5
141
2.5
143
0.03937007874016
147
0.625
171
     3
172
     1
271
     2
272
     2
274
     3
283
     0
284
     8
340
11
  0
DIMSTYLE
105
A2
102
{ACAD_REACTORS
330
15DB
330
15E8
330
15F5
330
1617
330
16B9
330
180A
330
1820
330
1888
330
189A
330
194D
330
1963
330
1979
330
199C
330
19B5
330
19C9
102
}
330
A
100
AcDbSymbolTableRecord
100
AcDbDimStyleTableRecord
  2
sunpo
 70
     0
 40
0.0
 41
3.0
 42
2.0
 43
8.0
 44
3.0
 73
     0
 74
     0
 77
     1
 78
     8
140
5.0
141
2.5
143
0.03937007874016
147
1.0
171
     3
172
     1
271
     2
272
     2
274
     3
283
     0
284
     8
340
50
341
9B
342
9B
  0
ENDTAB
  0
TABLE
  2
BLOCK_RECORD
  5
1
330
0
100
AcDbSymbolTable
 70
    23
  0
BLOCK_RECORD
  5
1F
330
1
100
AcDbSymbolTableRecord
100
AcDbBlockTableRecord
  2
*Model_Space
340
22
  0
BLOCK_RECORD
  5
1B
330
1
100
AcDbSymbolTableRecord
100
AcDbBlockTableRecord
  2
*Paper_Space
340
1E
  0
BLOCK_RECORD
  5
9B
330
1
100
AcDbSymbolTableRecord
100
AcDbBlockTableRecord
  2
_Closed
340
0
102
{BLKREFS
331
17F2
331
17F3
331
17FB
331
17FC
331
1804
331
1805
331
1830
331
1831
331
1838
331
1839
331
1843
331
1844
331
184D
331
184E
331
18FF
331
1900
331
1908
331
1909
331
1911
331
1912
331
191B
331
191C
331
1924
331
1925
331
192D
331
192E
331
1937
331
1938
331
195D
331
195E
331
1973
331
1974
331
1989
331
198A
331
1997
331
19A3
331
19A4
331
19B0
331
19C5
331
19C6
331
19D9
331
19DA
331
19EF
331
19F0
331
19F9
331
19FA
331
1A02
331
1A03
331
1A39
331
1A3A
331
1A42
331
1A43
331
1A4C
331
1A4D
331
1A53
331
1A54
331
1A5E
331
1A5F
331
1A68
331
1A69
331
1A6F
331
1A70
331
1A7A
331
1A7B
331
1A86
331
1A87
331
1A90
331
1A91
331
1A98
331
1A99
331
1A9F
331
1AA0
331
1AA8
331
1AA9
331
1AB1
331
1AB2
331
1ABC
331
1ABD
331
1AC5
331
1AC6
102
}
  0
BLOCK_RECORD
  5
15DC
330
1
100
AcDbSymbolTableRecord
100
AcDbBlockTableRecord
  2
*D1
340
0
  0
BLOCK_RECORD
  5
15E9
330
1
100
AcDbSymbolTableRecord
100
AcDbBlockTableRecord
  2
*D2
340
0
  0
BLOCK_RECORD
  5
15F6
330
1
100
AcDbSymbolTableRecord
100
AcDbBlockTableRecord
  2
*D3
340
0
  0
BLOCK_RECORD
  5
1618
330
1
100
AcDbSymbolTableRecord
100
AcDbBlockTableRecord
  2
*D4
340
0
  0
BLOCK_RECORD
  5
16BA
330
1
100
AcDbSymbolTableRecord
100
AcDbBlockTableRecord
  2
*D5
340
0
  0
BLOCK_RECORD
  5
180B
330
1
100
AcDbSymbolTableRecord
100
AcDbBlockTableRecord
  2
*D6
340
0
  0
BLOCK_RECORD
  5
1821
330
1
100
AcDbSymbolTableRecord
100
AcDbBlockTableRecord
  2
*D7
340
0
  0
BLOCK_RECORD
  5
18CC
330
1
100
AcDbSymbolTableRecord
100
AcDbBlockTableRecord
  2
*D11
340
0
  0
BLOCK_RECORD
  5
18D7
330
1
100
AcDbSymbolTableRecord
100
AcDbBlockTableRecord
  2
*D12
340
0
  0
BLOCK_RECORD
  5
194E
330
1
100
AcDbSymbolTableRecord
100
AcDbBlockTableRecord
  2
*D15
340
0
  0
BLOCK_RECORD
  5
1964
330
1
100
AcDbSymbolTableRecord
100
AcDbBlockTableRecord
  2
*D16
340
0
  0
BLOCK_RECORD
  5
197A
330
1
100
AcDbSymbolTableRecord
100
AcDbBlockTableRecord
  2
*D17
340
0
  0
BLOCK_RECORD
  5
199D
330
1
100
AcDbSymbolTableRecord
100
AcDbBlockTableRecord
  2
*D19
340
0
  0
BLOCK_RECORD
  5
19B6
330
1
100
AcDbSymbolTableRecord
100
AcDbBlockTableRecord
  2
*D21
340
0
  0
BLOCK_RECORD
  5
19CA
330
1
100
AcDbSymbolTableRecord
100
AcDbBlockTableRecord
  2
*D22
340
0
  0
ENDTAB
  0
ENDSEC
  0
SECTION
  2
BLOCKS
  0
BLOCK
  5
20
330
1F
100
AcDbEntity
  8
0
100
AcDbBlockBegin
  2
*Model_Space
 70
     0
 10
0.0
 20
0.0
 30
0.0
  3
*Model_Space
  1

  0
ENDBLK
  5
21
330
1F
100
AcDbEntity
  8
0
100
AcDbBlockEnd
  0
BLOCK
  5
1C
330
1B
100
AcDbEntity
 67
     1
  8
0
100
AcDbBlockBegin
  2
*Paper_Space
 70
     0
 10
0.0
 20
0.0
 30
0.0
  3
*Paper_Space
  1

  0
ENDBLK
  5
1D
330
1B
100
AcDbEntity
 67
     1
  8
0
100
AcDbBlockEnd
  0
BLOCK
  5
A0
330
9B
100
AcDbEntity
  8
0
100
AcDbBlockBegin
  2
_Closed
 70
     0
 10
0.0
 20
0.0
 30
0.0
  3
_Closed
  1

  0
LINE
  5
9C
330
9B
100
AcDbEntity
  8
0
 62
     0
370
    -2
100
AcDbLine
 10
-1.0
 20
0.1666666666666666
 30
0.0
 11
0.0
 21
0.0
 31
0.0
  0
LINE
  5
9D
330
9B
100
AcDbEntity
  8
0
 62
     0
370
    -2
100
AcDbLine
 10
0.0
 20
0.0
 30
0.0
 11
-1.0
 21
-0.1666666666666666
 31
0.0
  0
LINE
  5
9E
330
9B
100
AcDbEntity
  8
0
 62
     0
370
    -2
100
AcDbLine
 10
-1.0
 20
0.1666666666666666
 30
0.0
 11
-1.0
 21
-0.1666666666666666
 31
0.0
  0
LINE
  5
9F
330
9B
100
AcDbEntity
  8
0
 62
     0
370
    -2
100
AcDbLine
 10
0.0
 20
0.0
 30
0.0
 11
-1.0
 21
0.0
 31
0.0
  0
ENDBLK
  5
A1
330
9B
100
AcDbEntity
  8
0
100
AcDbBlockEnd
  0
BLOCK
  5
15E6
330
15DC
100
AcDbEntity
  8
0
100
AcDbBlockBegin
  2
*D1
 70
     1
 10
0.0
 20
0.0
 30
0.0
  3
*D1
  1

  0
LINE
  5
1AA5
330
15DC
100
AcDbEntity
  8
寸法線
 62
     0
370
    -2
100
AcDbLine
 10
131.1543873147712
 20
205.0539374529959
 30
0.0
 11
131.1543873147712
 21
216.7226365200123
 31
0.0
  0
LINE
  5
1AA6
330
15DC
100
AcDbEntity
  8
寸法線
 62
     0
370
    -2
100
AcDbLine
 10
188.5599099262025
 20
205.0539374529959
 30
0.0
 11
188.5599099262025
 21
216.7226365200123
 31
0.0
  0
LINE
  5
1AA7
330
15DC
100
AcDbEntity
  8
寸法線
 62
     0
370
    -2
100
AcDbLine
 10
134.1543873147712
 20
213.7226365200123
 30
0.0
 11
185.5599099262025
 21
213.7226365200123
 31
0.0
  0
INSERT
  5
1AA8
330
15DC
100
AcDbEntity
  8
寸法線
 62
     0
370
    -2
100
AcDbBlockReference
  2
_Closed
 10
131.1543873147712
 20
213.7226365200123
 30
0.0
 41
3.0
 42
3.0
 43
3.0
 50
180.0
  0
INSERT
  5
1AA9
330
15DC
100
AcDbEntity
  8
寸法線
 62
     0
370
    -2
100
AcDbBlockReference
  2
_Closed
 10
188.5599099262025
 20
213.7226365200123
 30
0.0
 41
3.0
 42
3.0
 43
3.0
  0
MTEXT
  5
1AAA
330
15DC
100
AcDbEntity
  8
寸法線
 62
     0
100
AcDbMText
 10
159.8571486204868
 20
217.2226365200123
 30
0.0
 40
5.0
 41
0.0
 71
     5
 72
     1
  1
88
  7
OKANO
 73
     1
 44
1.0
  0
POINT
  5
1AAB
330
15DC
100
AcDbEntity
  8
Defpoints
 62
     0
100
AcDbPoint
 10
131.1543873147712
 20
203.0539374529959
 30
0.0
  0
POINT
  5
1AAC
330
15DC
100
AcDbEntity
  8
Defpoints
 62
     0
100
AcDbPoint
 10
188.5599099262025
 20
203.0539374529959
 30
0.0
  0
POINT
  5
1AAD
330
15DC
100
AcDbEntity
  8
Defpoints
 62
     0
100
AcDbPoint
 10
188.5599099262025
 20
213.7226365200123
 30
0.0
  0
ENDBLK
  5
15E7
330
15DC
100
AcDbEntity
  8
0
100
AcDbBlockEnd
  0
BLOCK
  5
15F3
330
15E9
100
AcDbEntity
  8
0
100
AcDbBlockBegin
  2
*D2
 70
     1
 10
0.0
 20
0.0
 30
0.0
  3
*D2
  1

  0
LINE
  5
1AAE
330
15E9
100
AcDbEntity
  8
寸法線
 62
     0
370
    -2
100
AcDbLine
 10
139.1644600398296
 20
205.3206547812361
 30
0.0
 11
139.1644600398296
 21
209.2545470882807
 31
0.0
  0
LINE
  5
1AAF
330
15E9
100
AcDbEntity
  8
寸法線
 62
     0
370
    -2
100
AcDbLine
 10
181.3508444736498
 20
205.3206547812361
 30
0.0
 11
181.3508444736498
 21
209.2545470882807
 31
0.0
  0
LINE
  5
1AB0
330
15E9
100
AcDbEntity
  8
寸法線
 62
     0
370
    -2
100
AcDbLine
 10
142.1644600398296
 20
206.2545470882807
 30
0.0
 11
178.3508444736498
 21
206.2545470882807
 31
0.0
  0
INSERT
  5
1AB1
330
15E9
100
AcDbEntity
  8
寸法線
 62
     0
370
    -2
100
AcDbBlockReference
  2
_Closed
 10
139.1644600398296
 20
206.2545470882807
 30
0.0
 41
3.0
 42
3.0
 43
3.0
 50
180.0
  0
INSERT
  5
1AB2
330
15E9
100
AcDbEntity
  8
寸法線
 62
     0
370
    -2
100
AcDbBlockReference
  2
_Closed
 10
181.3508444736498
 20
206.2545470882807
 30
0.0
 41
3.0
 42
3.0
 43
3.0
  0
MTEXT
  5
1AB3
330
15E9
100
AcDbEntity
  8
寸法線
 62
     0
100
AcDbMText
 10
160.2576522567398
 20
209.7550392142649
 30
0.0
 40
5.0
 41
0.0
 71
     5
 72
     1
  1
72
  7
OKANO
 73
     1
 44
1.0
  0
POINT
  5
1AB4
330
15E9
100
AcDbEntity
  8
Defpoints
 62
     0
100
AcDbPoint
 10
139.1644600398296
 20
203.3206547812361
 30
0.0
  0
POINT
  5
1AB5
330
15E9
100
AcDbEntity
  8
Defpoints
 62
     0
100
AcDbPoint
 10
181.3508444736498
 20
203.3206547812361
 30
0.0
  0
POINT
  5
1AB6
330
15E9
100
AcDbEntity
  8
Defpoints
 62
     0
100
AcDbPoint
 10
181.3508444736498
 20
206.2545470882807
 30
0.0
  0
ENDBLK
  5
15F4
330
15E9
100
AcDbEntity
  8
0
100
AcDbBlockEnd
  0
BLOCK
  5
1600
330
15F6
100
AcDbEntity
  8
0
100
AcDbBlockBegin
  2
*D3
 70
     1
 10
0.0
 20
0.0
 30
0.0
  3
*D3
  1

  0
LINE
  5
1AC2
330
15F6
100
AcDbEntity
  8
寸法線
 62
     0
370
    -2
100
AcDbLine
 10
128.3533800422653
 20
201.9577314010831
 30
0.0
 11
122.8143382653272
 21
201.9577314010831
 31
0.0
  0
LINE
  5
1AC3
330
15F6
100
AcDbEntity
  8
寸法線
 62
     0
370
    -2
100
AcDbLine
 10
128.3533800422653
 20
181.9539207564523
 30
0.0
 11
122.8143382653272
 21
181.9539207564523
 31
0.0
  0
LINE
  5
1AC4
330
15F6
100
AcDbEntity
  8
寸法線
 62
     0
370
    -2
100
AcDbLine
 10
125.8143382653272
 20
198.9577314010831
 30
0.0
 11
125.8143382653272
 21
184.9539207564523
 31
0.0
  0
INSERT
  5
1AC5
330
15F6
100
AcDbEntity
  8
寸法線
 62
     0
370
    -2
100
AcDbBlockReference
  2
_Closed
 10
125.8143382653272
 20
201.9577314010831
 30
0.0
 41
3.0
 42
3.0
 43
3.0
 50
90.0
  0
INSERT
  5
1AC6
330
15F6
100
AcDbEntity
  8
寸法線
 62
     0
370
    -2
100
AcDbBlockReference
  2
_Closed
 10
125.8143382653272
 20
181.9539207564523
 30
0.0
 41
3.0
 42
3.0
 43
3.0
 50
270.0
  0
MTEXT
  5
1AC7
330
15F6
100
AcDbEntity
  8
寸法線
 62
     0
100
AcDbMText
 10
122.3143382653272
 20
191.9558260787677
 30
0.0
 40
5.0
 41
0.0
 71
     5
 72
     1
  1
35
  7
OKANO
 11
0.0000000000000001
 21
1.0
 31
0.0
 73
     1
 44
1.0
  0
POINT
  5
1AC8
330
15F6
100
AcDbEntity
  8
Defpoints
 62
     0
100
AcDbPoint
 10
130.3533800422653
 20
201.9577314010831
 30
0.0
  0
POINT
  5
1AC9
330
15F6
100
AcDbEntity
  8
Defpoints
 62
     0
100
AcDbPoint
 10
130.3533800422653
 20
181.9539207564523
 30
0.0
  0
POINT
  5
1ACA
330
15F6
100
AcDbEntity
  8
Defpoints
 62
     0
100
AcDbPoint
 10
125.8143382653272
 20
181.9539207564523
 30
0.0
  0
ENDBLK
  5
1601
330
15F6
100
AcDbEntity
  8
0
100
AcDbBlockEnd
  0
BLOCK
  5
1621
330
1618
100
AcDbEntity
  8
0
100
AcDbBlockBegin
  2
*D4
 70
     1
 10
0.0
 20
0.0
 30
0.0
  3
*D4
  1

  0
LINE
  5
1A94
330
1618
100
AcDbEntity
  8
寸法線
 62
     0
370
    -2
100
AcDbLine
 10
92.70508903921644
 20
214.0724517306185
 30
0.0
 11
81.53633474738091
 21
201.6731639904594
 31
0.0
  0
LINE
  5
1A95
330
1618
100
AcDbEntity
  8
寸法線
 62
     0
370
    -2
100
AcDbLine
 10
63.81040669694189
 20
181.9942565119933
 30
0.0
 11
61.80257952050563
 21
179.7652141100718
 31
0.0
  0
MTEXT
  5
1A96
330
1618
100
AcDbEntity
  8
寸法線
 62
     0
100
AcDbMText
 10
85.52407601260835
 20
211.3297941006753
 30
0.0
 40
5.0
 41
0.0
 71
     5
 72
     1
  1
48.5
  7
OKANO
 11
0.6692757254787482
 21
0.7430141339738399
 31
0.0
 73
     1
 44
1.0
  0
LINE
  5
1A97
330
1618
100
AcDbEntity
  8
寸法線
 62
     0
370
    -2
100
AcDbLine
 10
65.81823387337812
 20
184.2232989139148
 30
0.0
 11
79.52850757094465
 21
199.4441215885378
 31
0.0
  0
INSERT
  5
1A98
330
1618
100
AcDbEntity
  8
寸法線
 62
     0
370
    -2
100
AcDbBlockReference
  2
_Closed
 10
65.81823387337812
 20
184.2232989139148
 30
0.0
 41
3.0
 42
3.0
 43
3.0
 50
47.98881046604466
  0
INSERT
  5
1A99
330
1618
100
AcDbEntity
  8
寸法線
 62
     0
370
    -2
100
AcDbBlockReference
  2
_Closed
 10
79.52850757094465
 20
199.4441215885378
 30
0.0
 41
3.0
 42
3.0
 43
3.0
 50
227.9888104660446
  0
POINT
  5
1A9A
330
1618
100
AcDbEntity
  8
Defpoints
 62
     0
100
AcDbPoint
 10
79.52850757094465
 20
199.4441215885378
 30
0.0
  0
POINT
  5
1A9B
330
1618
100
AcDbEntity
  8
Defpoints
 62
     0
100
AcDbPoint
 10
65.81823387337812
 20
184.2232989139148
 30
0.0
  0
ENDBLK
  5
1622
330
1618
100
AcDbEntity
  8
0
100
AcDbBlockEnd
  0
BLOCK
  5
16C6
330
16BA
100
AcDbEntity
  8
0
100
AcDbBlockBegin
  2
*D5
 70
     1
 10
0.0
 20
0.0
 30
0.0
  3
*D5
  1

  0
LINE
  5
1AB7
330
16BA
100
AcDbEntity
  8
寸法線
 62
     0
370
    -2
100
AcDbLine
 10
103.7996828263937
 20
181.2631661718674
 30
0.0
 11
109.7554580806268
 21
181.2631661718674
 31
0.0
  0
LINE
  5
1AB8
330
16BA
100
AcDbEntity
  8
寸法線
 62
     0
370
    -2
100
AcDbLine
 10
103.7996828263937
 20
182.2151830890933
 30
0.0
 11
109.7554580806268
 21
182.2151830890933
 31
0.0
  0
LINE
  5
1AB9
330
16BA
100
AcDbEntity
  8
寸法線
 62
     0
370
    -2
100
AcDbLine
 10
106.7554580806268
 20
178.2631661718674
 30
0.0
 11
106.7554580806268
 21
175.2631661718674
 31
0.0
  0
LINE
  5
1ABA
330
16BA
100
AcDbEntity
  8
寸法線
 62
     0
370
    -2
100
AcDbLine
 10
106.7554580806268
 20
185.2151830890933
 30
0.0
 11
106.7554580806268
 21
196.0453101080155
 31
0.0
  0
LINE
  5
1ABB
330
16BA
100
AcDbEntity
  8
寸法線
 62
     0
370
    -2
100
AcDbLine
 10
106.7554580806268
 20
181.2631661718674
 30
0.0
 11
106.7554580806268
 21
182.2151830890933
 31
0.0
  0
INSERT
  5
1ABC
330
16BA
100
AcDbEntity
  8
寸法線
 62
     0
370
    -2
100
AcDbBlockReference
  2
_Closed
 10
106.7554580806268
 20
181.2631661718674
 30
0.0
 41
3.0
 42
3.0
 43
3.0
 50
90.0
  0
INSERT
  5
1ABD
330
16BA
100
AcDbEntity
  8
寸法線
 62
     0
370
    -2
100
AcDbBlockReference
  2
_Closed
 10
106.7554580806268
 20
182.2151830890933
 30
0.0
 41
3.0
 42
3.0
 43
3.0
 50
270.0
  0
MTEXT
  5
1ABE
330
16BA
100
AcDbEntity
  8
寸法線
 62
     0
100
AcDbMText
 10
103.2554580806268
 20
192.1302465985544
 30
0.0
 40
5.0
 41
0.0
 71
     5
 72
     1
  1
1.4
  7
OKANO
 11
0.0000000000000001
 21
1.0
 31
0.0
 73
     1
 44
1.0
  0
POINT
  5
1ABF
330
16BA
100
AcDbEntity
  8
Defpoints
 62
     0
100
AcDbPoint
 10
101.7996828263937
 20
181.2631661718674
 30
0.0
  0
POINT
  5
1AC0
330
16BA
100
AcDbEntity
  8
Defpoints
 62
     0
100
AcDbPoint
 10
101.7996828263937
 20
182.2151830890933
 30
0.0
  0
POINT
  5
1AC1
330
16BA
100
AcDbEntity
  8
Defpoints
 62
     0
100
AcDbPoint
 10
106.7554580806268
 20
182.2151830890933
 30
0.0
  0
ENDBLK
  5
16C7
330
16BA
100
AcDbEntity
  8
0
100
AcDbBlockEnd
  0
BLOCK
  5
1815
330
180B
100
AcDbEntity
  8
0
100
AcDbBlockBegin
  2
*D6
 70
     1
 10
0.0
 20
0.0
 30
0.0
  3
*D6
  1

  0
LINE
  5
1A9C
330
180B
100
AcDbEntity
  8
寸法線
 62
     0
370
    -2
100
AcDbLine
 10
60.30445040508003
 20
181.4209840869754
 30
0.0
 11
31.649228023904
 21
181.4209840869754
 31
0.0
  0
LINE
  5
1A9D
330
180B
100
AcDbEntity
  8
寸法線
 62
     0
370
    -2
100
AcDbLine
 10
60.30445040508003
 20
204.3505790386821
 30
0.0
 11
31.649228023904
 21
204.3505790386821
 31
0.0
  0
LINE
  5
1A9E
330
180B
100
AcDbEntity
  8
寸法線
 62
     0
370
    -2
100
AcDbLine
 10
34.649228023904
 20
184.4209840869754
 30
0.0
 11
34.649228023904
 21
201.3505790386821
 31
0.0
  0
INSERT
  5
1A9F
330
180B
100
AcDbEntity
  8
寸法線
 62
     0
370
    -2
100
AcDbBlockReference
  2
_Closed
 10
34.649228023904
 20
181.4209840869754
 30
0.0
 41
3.0
 42
3.0
 43
3.0
 50
270.0
  0
INSERT
  5
1AA0
330
180B
100
AcDbEntity
  8
寸法線
 62
     0
370
    -2
100
AcDbBlockReference
  2
_Closed
 10
34.649228023904
 20
204.3505790386821
 30
0.0
 41
3.0
 42
3.0
 43
3.0
 50
90.0
  0
MTEXT
  5
1AA1
330
180B
100
AcDbEntity
  8
寸法線
 62
     0
100
AcDbMText
 10
31.14922802390397
 20
192.8857815628287
 30
0.0
 40
5.0
 41
0.0
 71
     5
 72
     1
  1
50
  7
OKANO
 11
0.0000000000000001
 21
1.0
 31
0.0
 73
     1
 44
1.0
  0
POINT
  5
1AA2
330
180B
100
AcDbEntity
  8
Defpoints
 62
     0
100
AcDbPoint
 10
62.30445040508003
 20
181.4209840869754
 30
0.0
  0
POINT
  5
1AA3
330
180B
100
AcDbEntity
  8
Defpoints
 62
     0
100
AcDbPoint
 10
62.30445040508003
 20
204.3505790386821
 30
0.0
  0
POINT
  5
1AA4
330
180B
100
AcDbEntity
  8
Defpoints
 62
     0
100
AcDbPoint
 10
34.649228023904
 20
204.3505790386821
 30
0.0
  0
ENDBLK
  5
1816
330
180B
100
AcDbEntity
  8
0
100
AcDbBlockEnd
  0
BLOCK
  5
182A
330
1821
100
AcDbEntity
  8
0
100
AcDbBlockBegin
  2
*D7
 70
     1
 10
0.0
 20
0.0
 30
0.0
  3
*D7
  1

  0
LINE
  5
1A8C
330
1821
100
AcDbEntity
  8
寸法線
 62
     0
370
    -2
100
AcDbLine
 10
151.5962653021766
 20
163.3569853909516
 30
0.0
 11
140.7370125973649
 21
186.9392991769331
 31
0.0
  0
LINE
  5
1A8D
330
1821
100
AcDbEntity
  8
寸法線
 62
     0
370
    -2
100
AcDbLine
 10
136.1360688337456
 20
196.9308614413646
 30
0.0
 11
134.8812659891222
 21
199.6558329680277
 31
0.0
  0
MTEXT
  5
1A8E
330
1821
100
AcDbEntity
  8
寸法線
 62
     0
100
AcDbMText
 10
152.6500643614102
 20
169.4375453605191
 30
0.0
 40
5.0
 41
0.0
 71
     5
 72
     1
  1
6.2
  7
OKANO
 11
0.4182676148744749
 21
-0.9083238422210538
 31
0.0
 73
     1
 44
1.0
  0
LINE
  5
1A8F
330
1821
100
AcDbEntity
  8
寸法線
 62
     0
370
    -2
100
AcDbLine
 10
137.3908716783691
 20
194.2058899147014
 30
0.0
 11
139.4822097527414
 21
189.6642707035962
 31
0.0
  0
INSERT
  5
1A90
330
1821
100
AcDbEntity
  8
寸法線
 62
     0
370
    -2
100
AcDbBlockReference
  2
_Closed
 10
137.3908716783691
 20
194.2058899147014
 30
0.0
 41
3.0
 42
3.0
 43
3.0
 50
294.725262998897
  0
INSERT
  5
1A91
330
1821
100
AcDbEntity
  8
寸法線
 62
     0
370
    -2
100
AcDbBlockReference
  2
_Closed
 10
139.4822097527414
 20
189.6642707035962
 30
0.0
 41
3.0
 42
3.0
 43
3.0
 50
114.725262998897
  0
POINT
  5
1A92
330
1821
100
AcDbEntity
  8
Defpoints
 62
     0
100
AcDbPoint
 10
139.4822097527414
 20
189.6642707035962
 30
0.0
  0
POINT
  5
1A93
330
1821
100
AcDbEntity
  8
Defpoints
 62
     0
100
AcDbPoint
 10
137.3908716783691
 20
194.2058899147014
 30
0.0
  0
ENDBLK
  5
182B
330
1821
100
AcDbEntity
  8
0
100
AcDbBlockEnd
  0
BLOCK
  5
18D5
330
18CC
100
AcDbEntity
  8
0
100
AcDbBlockBegin
  2
*D11
 70
     1
 10
0.0
 20
0.0
 30
0.0
  3
*D11
  1

  0
LINE
  5
1A64
330
18CC
100
AcDbEntity
  8
寸法線
 62
     0
370
    -2
100
AcDbLine
 10
92.70508903921635
 20
130.9032469571221
 30
0.0
 11
81.53633474738084
 21
118.5039592169629
 31
0.0
  0
LINE
  5
1A65
330
18CC
100
AcDbEntity
  8
寸法線
 62
     0
370
    -2
100
AcDbLine
 10
63.81040669694186
 20
98.82505173849688
 30
0.0
 11
61.80257952050563
 21
96.59600933657536
 31
0.0
  0
MTEXT
  5
1A66
330
18CC
100
AcDbEntity
  8
寸法線
 62
     0
100
AcDbMText
 10
85.5240760126083
 20
128.1605893271789
 30
0.0
 40
5.0
 41
0.0
 71
     5
 72
     1
  1
48.5
  7
OKANO
 11
0.6692757254787471
 21
0.7430141339738411
 31
0.0
 73
     1
 44
1.0
  0
LINE
  5
1A67
330
18CC
100
AcDbEntity
  8
寸法線
 62
     0
370
    -2
100
AcDbLine
 10
65.81823387337812
 20
101.0540941404183
 30
0.0
 11
79.52850757094461
 21
116.2749168150414
 31
0.0
  0
INSERT
  5
1A68
330
18CC
100
AcDbEntity
  8
寸法線
 62
     0
370
    -2
100
AcDbBlockReference
  2
_Closed
 10
65.81823387337812
 20
101.0540941404183
 30
0.0
 41
3.0
 42
3.0
 43
3.0
 50
47.98881046604474
  0
INSERT
  5
1A69
330
18CC
100
AcDbEntity
  8
寸法線
 62
     0
370
    -2
100
AcDbBlockReference
  2
_Closed
 10
79.52850757094461
 20
116.2749168150414
 30
0.0
 41
3.0
 42
3.0
 43
3.0
 50
227.9888104660447
  0
POINT
  5
1A6A
330
18CC
100
AcDbEntity
  8
Defpoints
 62
     0
100
AcDbPoint
 10
79.52850757094461
 20
116.2749168150414
 30
0.0
  0
POINT
  5
1A6B
330
18CC
100
AcDbEntity
  8
Defpoints
 62
     0
100
AcDbPoint
 10
65.81823387337812
 20
101.0540941404183
 30
0.0
  0
ENDBLK
  5
18D6
330
18CC
100
AcDbEntity
  8
0
100
AcDbBlockEnd
  0
BLOCK
  5
18E3
330
18D7
100
AcDbEntity
  8
0
100
AcDbBlockBegin
  2
*D12
 70
     1
 10
0.0
 20
0.0
 30
0.0
  3
*D12
  1

  0
LINE
  5
1A75
330
18D7
100
AcDbEntity
  8
寸法線
 62
     0
370
    -2
100
AcDbLine
 10
103.7996828263938
 20
98.09396139837103
 30
0.0
 11
109.7554580806269
 21
98.09396139837103
 31
0.0
  0
LINE
  5
1A76
330
18D7
100
AcDbEntity
  8
寸法線
 62
     0
370
    -2
100
AcDbLine
 10
103.7996828263938
 20
99.04597831559691
 30
0.0
 11
109.7554580806269
 21
99.04597831559691
 31
0.0
  0
LINE
  5
1A77
330
18D7
100
AcDbEntity
  8
寸法線
 62
     0
370
    -2
100
AcDbLine
 10
106.7554580806268
 20
95.09396139837102
 30
0.0
 11
106.7554580806268
 21
92.09396139837101
 31
0.0
  0
LINE
  5
1A78
330
18D7
100
AcDbEntity
  8
寸法線
 62
     0
370
    -2
100
AcDbLine
 10
106.7554580806269
 20
102.0459783155968
 30
0.0
 11
106.7554580806269
 21
112.8761053345191
 31
0.0
  0
LINE
  5
1A79
330
18D7
100
AcDbEntity
  8
寸法線
 62
     0
370
    -2
100
AcDbLine
 10
106.7554580806269
 20
98.09396139837103
 30
0.0
 11
106.7554580806269
 21
99.04597831559691
 31
0.0
  0
INSERT
  5
1A7A
330
18D7
100
AcDbEntity
  8
寸法線
 62
     0
370
    -2
100
AcDbBlockReference
  2
_Closed
 10
106.7554580806269
 20
98.09396139837103
 30
0.0
 41
3.0
 42
3.0
 43
3.0
 50
90.0
  0
INSERT
  5
1A7B
330
18D7
100
AcDbEntity
  8
寸法線
 62
     0
370
    -2
100
AcDbBlockReference
  2
_Closed
 10
106.7554580806269
 20
99.04597831559691
 30
0.0
 41
3.0
 42
3.0
 43
3.0
 50
270.0
  0
MTEXT
  5
1A7C
330
18D7
100
AcDbEntity
  8
寸法線
 62
     0
100
AcDbMText
 10
103.2554580806268
 20
108.961041825058
 30
0.0
 40
5.0
 41
0.0
 71
     5
 72
     1
  1
1.4
  7
OKANO
 11
0.0000000000000001
 21
1.0
 31
0.0
 73
     1
 44
1.0
  0
POINT
  5
1A7D
330
18D7
100
AcDbEntity
  8
Defpoints
 62
     0
100
AcDbPoint
 10
101.7996828263938
 20
98.09396139837103
 30
0.0
  0
POINT
  5
1A7E
330
18D7
100
AcDbEntity
  8
Defpoints
 62
     0
100
AcDbPoint
 10
101.7996828263938
 20
99.04597831559691
 30
0.0
  0
POINT
  5
1A7F
330
18D7
100
AcDbEntity
  8
Defpoints
 62
     0
100
AcDbPoint
 10
106.7554580806269
 20
99.04597831559691
 30
0.0
  0
ENDBLK
  5
18E4
330
18D7
100
AcDbEntity
  8
0
100
AcDbBlockEnd
  0
BLOCK
  5
1958
330
194E
100
AcDbEntity
  8
0
100
AcDbBlockBegin
  2
*D15
 70
     1
 10
0.0
 20
0.0
 30
0.0
  3
*D15
  1

  0
LINE
  5
195A
330
194E
100
AcDbEntity
  8
寸法線
 62
     0
370
    -2
100
AcDbLine
 10
159.8230934208928
 20
106.6706325318219
 30
0.0
 11
159.8230934208928
 21
82.21410048655128
 31
0.0
  0
LINE
  5
195B
330
194E
100
AcDbEntity
  8
寸法線
 62
     0
370
    -2
100
AcDbLine
 10
181.5102236524335
 20
106.6706325318219
 30
0.0
 11
181.5102236524335
 21
82.21410048655128
 31
0.0
  0
LINE
  5
195C
330
194E
100
AcDbEntity
  8
寸法線
 62
     0
370
    -2
100
AcDbLine
 10
162.8230934208928
 20
85.21410048655127
 30
0.0
 11
178.5102236524335
 21
85.21410048655127
 31
0.0
  0
INSERT
  5
195D
330
194E
100
AcDbEntity
  8
寸法線
 62
     0
370
    -2
100
AcDbBlockReference
  2
_Closed
 10
159.8230934208928
 20
85.21410048655127
 30
0.0
 41
3.0
 42
3.0
 43
3.0
 50
180.0
  0
INSERT
  5
195E
330
194E
100
AcDbEntity
  8
寸法線
 62
     0
370
    -2
100
AcDbBlockReference
  2
_Closed
 10
181.5102236524335
 20
85.21410048655127
 30
0.0
 41
3.0
 42
3.0
 43
3.0
  0
MTEXT
  5
195F
330
194E
100
AcDbEntity
  8
寸法線
 62
     0
100
AcDbMText
 10
170.6666585366631
 20
88.71410048655127
 30
0.0
 40
5.0
 41
0.0
 71
     5
 72
     1
  1
37
  7
OKANO
 73
     1
 44
1.0
  0
POINT
  5
1960
330
194E
100
AcDbEntity
  8
Defpoints
 62
     0
100
AcDbPoint
 10
159.8230934208928
 20
108.6706325318219
 30
0.0
  0
POINT
  5
1961
330
194E
100
AcDbEntity
  8
Defpoints
 62
     0
100
AcDbPoint
 10
181.5102236524335
 20
108.6706325318219
 30
0.0
  0
POINT
  5
1962
330
194E
100
AcDbEntity
  8
Defpoints
 62
     0
100
AcDbPoint
 10
181.5102236524335
 20
85.21410048655127
 30
0.0
  0
ENDBLK
  5
1959
330
194E
100
AcDbEntity
  8
0
100
AcDbBlockEnd
  0
BLOCK
  5
196E
330
1964
100
AcDbEntity
  8
0
100
AcDbBlockBegin
  2
*D16
 70
     1
 10
0.0
 20
0.0
 30
0.0
  3
*D16
  1

  0
LINE
  5
1970
330
1964
100
AcDbEntity
  8
寸法線
 62
     0
370
    -2
100
AcDbLine
 10
148.5377613257039
 20
120.7658755356524
 30
0.0
 11
148.5377613257039
 21
129.5741743120019
 31
0.0
  0
LINE
  5
1971
330
1964
100
AcDbEntity
  8
寸法線
 62
     0
370
    -2
100
AcDbLine
 10
188.4365407155553
 20
119.2658755356524
 30
0.0
 11
188.4365407155553
 21
129.5741743120019
 31
0.0
  0
LINE
  5
1972
330
1964
100
AcDbEntity
  8
寸法線
 62
     0
370
    -2
100
AcDbLine
 10
151.5377613257039
 20
126.5741743120019
 30
0.0
 11
185.4365407155553
 21
126.5741743120019
 31
0.0
  0
INSERT
  5
1973
330
1964
100
AcDbEntity
  8
寸法線
 62
     0
370
    -2
100
AcDbBlockReference
  2
_Closed
 10
148.5377613257039
 20
126.5741743120019
 30
0.0
 41
3.0
 42
3.0
 43
3.0
 50
180.0
  0
INSERT
  5
1974
330
1964
100
AcDbEntity
  8
寸法線
 62
     0
370
    -2
100
AcDbBlockReference
  2
_Closed
 10
188.4365407155553
 20
126.5741743120019
 30
0.0
 41
3.0
 42
3.0
 43
3.0
  0
MTEXT
  5
1975
330
1964
100
AcDbEntity
  8
寸法線
 62
     0
100
AcDbMText
 10
168.4871510206296
 20
130.0746664379861
 30
0.0
 40
5.0
 41
0.0
 71
     5
 72
     1
  1
72
  7
OKANO
 73
     1
 44
1.0
  0
POINT
  5
1976
330
1964
100
AcDbEntity
  8
Defpoints
 62
     0
100
AcDbPoint
 10
148.5377613257039
 20
118.7658755356524
 30
0.0
  0
POINT
  5
1977
330
1964
100
AcDbEntity
  8
Defpoints
 62
     0
100
AcDbPoint
 10
188.4365407155553
 20
117.2658755356524
 30
0.0
  0
POINT
  5
1978
330
1964
100
AcDbEntity
  8
Defpoints
 62
     0
100
AcDbPoint
 10
188.4365407155553
 20
126.5741743120019
 30
0.0
  0
ENDBLK
  5
196F
330
1964
100
AcDbEntity
  8
0
100
AcDbBlockEnd
  0
BLOCK
  5
1984
330
197A
100
AcDbEntity
  8
0
100
AcDbBlockBegin
  2
*D17
 70
     1
 10
0.0
 20
0.0
 30
0.0
  3
*D17
  1

  0
LINE
  5
1986
330
197A
100
AcDbEntity
  8
寸法線
 62
     0
370
    -2
100
AcDbLine
 10
188.9365407155553
 20
98.76587553565247
 30
0.0
 11
202.6921031646868
 21
98.76587553565247
 31
0.0
  0
LINE
  5
1987
330
197A
100
AcDbEntity
  8
寸法線
 62
     0
370
    -2
100
AcDbLine
 10
188.9365407155553
 20
118.7658755356524
 30
0.0
 11
202.6921031646868
 21
118.7658755356524
 31
0.0
  0
LINE
  5
1988
330
197A
100
AcDbEntity
  8
寸法線
 62
     0
370
    -2
100
AcDbLine
 10
199.6921031646868
 20
101.7658755356524
 30
0.0
 11
199.6921031646868
 21
115.7658755356524
 31
0.0
  0
INSERT
  5
1989
330
197A
100
AcDbEntity
  8
寸法線
 62
     0
370
    -2
100
AcDbBlockReference
  2
_Closed
 10
199.6921031646868
 20
98.76587553565247
 30
0.0
 41
3.0
 42
3.0
 43
3.0
 50
270.0
  0
INSERT
  5
198A
330
197A
100
AcDbEntity
  8
寸法線
 62
     0
370
    -2
100
AcDbBlockReference
  2
_Closed
 10
199.6921031646868
 20
118.7658755356524
 30
0.0
 41
3.0
 42
3.0
 43
3.0
 50
90.0
  0
MTEXT
  5
198B
330
197A
100
AcDbEntity
  8
寸法線
 62
     0
100
AcDbMText
 10
196.1921031646868
 20
108.7658755356524
 30
0.0
 40
5.0
 41
0.0
 71
     5
 72
     1
  1
35
  7
OKANO
 11
0.0000000000000001
 21
1.0
 31
0.0
 73
     1
 44
1.0
  0
POINT
  5
198C
330
197A
100
AcDbEntity
  8
Defpoints
 62
     0
100
AcDbPoint
 10
186.9365407155553
 20
98.76587553565247
 30
0.0
  0
POINT
  5
198D
330
197A
100
AcDbEntity
  8
Defpoints
 62
     0
100
AcDbPoint
 10
186.9365407155553
 20
118.7658755356524
 30
0.0
  0
POINT
  5
198E
330
197A
100
AcDbEntity
  8
Defpoints
 62
     0
100
AcDbPoint
 10
199.6921031646868
 20
118.7658755356524
 30
0.0
  0
ENDBLK
  5
1985
330
197A
100
AcDbEntity
  8
0
100
AcDbBlockEnd
  0
BLOCK
  5
19A9
330
199D
100
AcDbEntity
  8
0
100
AcDbBlockBegin
  2
*D19
 70
     1
 10
0.0
 20
0.0
 30
0.0
  3
*D19
  1

  0
LINE
  5
1A81
330
199D
100
AcDbEntity
  8
寸法線
 62
     0
370
    -2
100
AcDbLine
 10
177.4383556202869
 20
189.8398373053183
 30
0.0
 11
177.4383556202869
 21
159.8506442978256
 31
0.0
  0
LINE
  5
1A82
330
199D
100
AcDbEntity
  8
寸法線
 62
     0
370
    -2
100
AcDbLine
 10
185.4347258108237
 20
189.8398373053183
 30
0.0
 11
185.4347258108237
 21
159.8506442978256
 31
0.0
  0
LINE
  5
1A83
330
199D
100
AcDbEntity
  8
寸法線
 62
     0
370
    -2
100
AcDbLine
 10
174.4383556202869
 20
162.8506442978256
 30
0.0
 11
171.4383556202869
 21
162.8506442978256
 31
0.0
  0
LINE
  5
1A84
330
199D
100
AcDbEntity
  8
寸法線
 62
     0
370
    -2
100
AcDbLine
 10
188.4347258108237
 20
162.8506442978256
 30
0.0
 11
191.4347258108237
 21
162.8506442978256
 31
0.0
  0
LINE
  5
1A85
330
199D
100
AcDbEntity
  8
寸法線
 62
     0
370
    -2
100
AcDbLine
 10
177.4383556202869
 20
162.8506442978256
 30
0.0
 11
185.4347258108237
 21
162.8506442978256
 31
0.0
  0
INSERT
  5
1A86
330
199D
100
AcDbEntity
  8
寸法線
 62
     0
370
    -2
100
AcDbBlockReference
  2
_Closed
 10
177.4383556202869
 20
162.8506442978256
 30
0.0
 41
3.0
 42
3.0
 43
3.0
  0
INSERT
  5
1A87
330
199D
100
AcDbEntity
  8
寸法線
 62
     0
370
    -2
100
AcDbBlockReference
  2
_Closed
 10
185.4347258108237
 20
162.8506442978256
 30
0.0
 41
3.0
 42
3.0
 43
3.0
 50
180.0
  0
MTEXT
  5
1A88
330
199D
100
AcDbEntity
  8
寸法線
 62
     0
100
AcDbMText
 10
181.4365407155553
 20
166.3506442978256
 30
0.0
 40
5.0
 41
0.0
 71
     5
 72
     1
  1
8
  7
OKANO
 73
     1
 44
1.0
  0
POINT
  5
1A89
330
199D
100
AcDbEntity
  8
Defpoints
 62
     0
100
AcDbPoint
 10
177.4383556202869
 20
191.8398373053183
 30
0.0
  0
POINT
  5
1A8A
330
199D
100
AcDbEntity
  8
Defpoints
 62
     0
100
AcDbPoint
 10
185.4347258108237
 20
191.8398373053183
 30
0.0
  0
POINT
  5
1A8B
330
199D
100
AcDbEntity
  8
Defpoints
 62
     0
100
AcDbPoint
 10
185.4347258108237
 20
162.8506442978256
 30
0.0
  0
ENDBLK
  5
19AA
330
199D
100
AcDbEntity
  8
0
100
AcDbBlockEnd
  0
BLOCK
  5
19BF
330
19B6
100
AcDbEntity
  8
0
100
AcDbBlockBegin
  2
*D21
 70
     1
 10
0.0
 20
0.0
 30
0.0
  3
*D21
  1

  0
LINE
  5
19C1
330
19B6
100
AcDbEntity
  8
寸法線
 62
     0
370
    -2
100
AcDbLine
 10
196.0480256098431
 20
80.12167308676925
 30
0.0
 11
183.8508967028907
 21
103.6907996783324
 31
0.0
  0
LINE
  5
19C2
330
19B6
100
AcDbEntity
  8
寸法線
 62
     0
370
    -2
100
AcDbLine
 10
178.7952167988741
 20
113.4601446260821
 30
0.0
 11
177.4163950068696
 21
116.1245114300138
 31
0.0
  0
MTEXT
  5
19C3
330
19B6
100
AcDbEntity
  8
寸法線
 62
     0
100
AcDbMText
 10
196.8210067519973
 20
86.24427075072064
 30
0.0
 40
5.0
 41
0.0
 71
     5
 72
     1
  1
6.2
  7
OKANO
 11
0.4596072640015062
 21
-0.8881222679772474
 31
0.0
 73
     1
 44
1.0
  0
LINE
  5
19C4
330
19B6
100
AcDbEntity
  8
寸法線
 62
     0
370
    -2
100
AcDbLine
 10
180.1740385908787
 20
110.7957778221503
 30
0.0
 11
182.4720749108861
 21
106.3551664822641
 31
0.0
  0
INSERT
  5
19C5
330
19B6
100
AcDbEntity
  8
寸法線
 62
     0
370
    -2
100
AcDbBlockReference
  2
_Closed
 10
180.1740385908787
 20
110.7957778221503
 30
0.0
 41
3.0
 42
3.0
 43
3.0
 50
297.3617678708675
  0
INSERT
  5
19C6
330
19B6
100
AcDbEntity
  8
寸法線
 62
     0
370
    -2
100
AcDbBlockReference
  2
_Closed
 10
182.4720749108861
 20
106.3551664822641
 30
0.0
 41
3.0
 42
3.0
 43
3.0
 50
117.3617678708675
  0
POINT
  5
19C7
330
19B6
100
AcDbEntity
  8
Defpoints
 62
     0
100
AcDbPoint
 10
182.4720749108861
 20
106.3551664822641
 30
0.0
  0
POINT
  5
19C8
330
19B6
100
AcDbEntity
  8
Defpoints
 62
     0
100
AcDbPoint
 10
180.1740385908787
 20
110.7957778221503
 30
0.0
  0
ENDBLK
  5
19C0
330
19B6
100
AcDbEntity
  8
0
100
AcDbBlockEnd
  0
BLOCK
  5
19D4
330
19CA
100
AcDbEntity
  8
0
100
AcDbBlockBegin
  2
*D22
 70
     1
 10
0.0
 20
0.0
 30
0.0
  3
*D22
  1

  0
LINE
  5
1A6C
330
19CA
100
AcDbEntity
  8
寸法線
 62
     0
370
    -2
100
AcDbLine
 10
96.36601994504417
 20
98.16450547772992
 30
0.0
 11
98.35551856407404
 21
98.16450547772992
 31
0.0
  0
LINE
  5
1A6D
330
19CA
100
AcDbEntity
  8
寸法線
 62
     0
370
    -2
100
AcDbLine
 10
74.67888971350351
 20
120.9504460595214
 30
0.0
 11
98.35551856407404
 21
120.9504460595214
 31
0.0
  0
LINE
  5
1A6E
330
19CA
100
AcDbEntity
  8
寸法線
 62
     0
370
    -2
100
AcDbLine
 10
95.35551856407403
 20
101.1645054777299
 30
0.0
 11
95.35551856407403
 21
117.9504460595214
 31
0.0
  0
INSERT
  5
1A6F
330
19CA
100
AcDbEntity
  8
寸法線
 62
     0
370
    -2
100
AcDbBlockReference
  2
_Closed
 10
95.35551856407403
 20
98.16450547772994
 30
0.0
 41
3.0
 42
3.0
 43
3.0
 50
270.0
  0
INSERT
  5
1A70
330
19CA
100
AcDbEntity
  8
寸法線
 62
     0
370
    -2
100
AcDbBlockReference
  2
_Closed
 10
95.35551856407403
 20
120.9504460595214
 30
0.0
 41
3.0
 42
3.0
 43
3.0
 50
90.0
  0
MTEXT
  5
1A71
330
19CA
100
AcDbEntity
  8
寸法線
 62
     0
100
AcDbMText
 10
91.855518564074
 20
109.5574757686256
 30
0.0
 40
5.0
 41
0.0
 71
     5
 72
     1
  1
50
  7
OKANO
 11
0.0000000000000001
 21
1.0
 31
0.0
 73
     1
 44
1.0
  0
POINT
  5
1A72
330
19CA
100
AcDbEntity
  8
Defpoints
 62
     0
100
AcDbPoint
 10
94.36601994504417
 20
98.16450547772994
 30
0.0
  0
POINT
  5
1A73
330
19CA
100
AcDbEntity
  8
Defpoints
 62
     0
100
AcDbPoint
 10
72.67888971350351
 20
120.9504460595214
 30
0.0
  0
POINT
  5
1A74
330
19CA
100
AcDbEntity
  8
Defpoints
 62
     0
100
AcDbPoint
 10
95.35551856407403
 20
120.9504460595214
 30
0.0
  0
ENDBLK
  5
19D5
330
19CA
100
AcDbEntity
  8
0
100
AcDbBlockEnd
  0
ENDSEC
  0
SECTION
  2
ENTITIES
  0
ARC
  5
1494
330
1F
100
AcDbEntity
  8
太線
100
AcDbCircle
 10
72.67337072216138
 20
191.8398373053183
 30
0.0
 40
11.27981476791637
100
AcDbArc
 50
359.9688776487059
 51
180.031122351294
  0
ARC
  5
1495
330
1F
100
AcDbEntity
  8
太線
100
AcDbCircle
 10
72.67337072216138
 20
191.8398373053183
 30
0.0
 40
10.27981476791637
100
AcDbArc
 50
359.9658501277128
 51
180.0341498722613
  0
LINE
  5
1496
330
1F
100
AcDbEntity
  8
太線
100
AcDbLine
 10
44.29233700816597
 20
181.3337102512264
 30
0.0
 11
44.29233700816597
 21
181.8337102512264
 31
0.0
  0
LINE
  5
14A7
330
1F
100
AcDbEntity
  8
構築線
100
AcDbLine
 10
41.58608405773212
 20
192.974885999951
 30
0.0
 11
41.58608405773212
 21
192.974885999951
 31
0.0
  0
LINE
  5
14AB
330
1F
100
AcDbEntity
  8
太線
100
AcDbLine
 10
101.2923370081659
 20
181.8337102512264
 30
0.0
 11
101.2923370081659
 21
181.3337102512264
 31
0.0
  0
LINE
  5
14AC
330
1F
100
AcDbEntity
  8
太線
100
AcDbLine
 10
101.2923370081659
 20
181.3337102512264
 30
0.0
 11
83.45318366413069
 21
181.3337102512264
 31
0.0
  0
LINE
  5
14AD
330
1F
100
AcDbEntity
  8
太線
100
AcDbLine
 10
82.95318366413068
 20
181.8337102512263
 30
0.0
 11
82.95318366413068
 21
186.0874915364566
 31
0.0
  0
LINE
  5
14AE
330
1F
100
AcDbEntity
  8
太線
100
AcDbLine
 10
82.95318366413068
 20
191.8459643594156
 30
0.0
 11
82.95318366413068
 21
186.0874915364566
 31
0.0
  0
LINE
  5
14B1
330
1F
100
AcDbEntity
  8
太線
100
AcDbLine
 10
44.29233700816597
 20
181.3337102512264
 30
0.0
 11
61.89355778019207
 21
181.3337102512264
 31
0.0
  0
LINE
  5
14B2
330
1F
100
AcDbEntity
  8
太線
100
AcDbLine
 10
62.39355778019207
 20
181.8337102512264
 30
0.0
 11
62.39355778019207
 21
191.833710251225
 31
0.0
  0
ARC
  5
14B9
330
1F
100
AcDbEntity
  8
太線
100
AcDbCircle
 10
61.89355778019207
 20
181.8337102512264
 30
0.0
 40
0.5
100
AcDbArc
 50
270.0
 51
0.0
  0
ARC
  5
14BA
330
1F
100
AcDbEntity
  8
太線
100
AcDbCircle
 10
83.45318366413069
 20
181.8337102512263
 30
0.0
 40
0.5
100
AcDbArc
 50
180.0
 51
270.0
  0
CIRCLE
  5
14C6
330
1F
100
AcDbEntity
  8
太線
100
AcDbCircle
 10
138.4365407155553
 20
191.9350803091488
 30
0.0
 40
2.5
  0
ARC
  5
14CB
330
1F
100
AcDbEntity
  8
太線
100
AcDbCircle
 10
179.9365407155553
 20
191.9350803091488
 30
0.0
 40
2.5
100
AcDbArc
 50
90.0
 51
270.0
  0
ARC
  5
14CD
330
1F
100
AcDbEntity
  8
太線
100
AcDbCircle
 10
182.9365407155553
 20
191.9350803091488
 30
0.0
 40
2.5
100
AcDbArc
 50
270.0
 51
90.0
  0
LINE
  5
14CE
330
1F
100
AcDbEntity
  8
太線
100
AcDbLine
 10
179.9365407155553
 20
194.4350803091489
 30
0.0
 11
182.9365407155553
 21
194.4350803091489
 31
0.0
  0
LINE
  5
14CF
330
1F
100
AcDbEntity
  8
太線
100
AcDbLine
 10
179.9365407155553
 20
189.4350803091489
 30
0.0
 11
182.9365407155553
 21
189.4350803091489
 31
0.0
  0
LINE
  5
14D0
330
1F
100
AcDbEntity
  8
太線
100
AcDbLine
 10
132.9365407155553
 20
201.9350803091489
 30
0.0
 11
186.9365407155553
 21
201.9350803091488
 31
0.0
  0
LINE
  5
14D1
330
1F
100
AcDbEntity
  8
太線
100
AcDbLine
 10
188.4365407155553
 20
200.4350803091488
 30
0.0
 11
188.4365407155553
 21
183.4350803091489
 31
0.0
  0
LINE
  5
14D2
330
1F
100
AcDbEntity
  8
太線
100
AcDbLine
 10
186.9365407155553
 20
181.9350803091489
 30
0.0
 11
132.9365407155553
 21
181.9350803091489
 31
0.0
  0
LINE
  5
14D3
330
1F
100
AcDbEntity
  8
太線
100
AcDbLine
 10
131.4365407155553
 20
183.4350803091489
 30
0.0
 11
131.4365407155553
 21
200.4350803091489
 31
0.0
  0
LINE
  5
14DA
330
1F
100
AcDbEntity
  8
太線
100
AcDbLine
 10
148.537761325704
 20
201.9350803091489
 30
0.0
 11
148.537761325704
 21
198.4350803091489
 31
0.0
  0
LINE
  5
14DB
330
1F
100
AcDbEntity
  8
太線
100
AcDbLine
 10
148.537761325704
 20
195.4350803091489
 30
0.0
 11
148.537761325704
 21
188.4350803091489
 31
0.0
  0
LINE
  5
14DD
330
1F
100
AcDbEntity
  8
太線
100
AcDbLine
 10
148.537761325704
 20
185.4350803091488
 30
0.0
 11
148.537761325704
 21
181.9350803091489
 31
0.0
  0
LINE
  5
14DE
330
1F
100
AcDbEntity
  8
太線
100
AcDbLine
 10
171.0973875333974
 20
201.9350803091489
 30
0.0
 11
171.0973875333974
 21
198.4350803091489
 31
0.0
  0
LINE
  5
14DF
330
1F
100
AcDbEntity
  8
太線
100
AcDbLine
 10
171.0973875333974
 20
195.4350803091489
 30
0.0
 11
171.0973875333974
 21
188.4350803091489
 31
0.0
  0
LINE
  5
14E0
330
1F
100
AcDbEntity
  8
太線
100
AcDbLine
 10
171.0973875333974
 20
185.4350803091488
 30
0.0
 11
171.0973875333974
 21
181.9350803091489
 31
0.0
  0
LINE
  5
14E1
330
1F
100
AcDbEntity
  8
太線
100
AcDbLine
 10
148.537761325704
 20
198.4350803091489
 30
0.0
 11
171.0973875333974
 21
198.4350803091489
 31
0.0
  0
LINE
  5
14E2
330
1F
100
AcDbEntity
  8
太線
100
AcDbLine
 10
148.537761325704
 20
195.4350803091489
 30
0.0
 11
171.0973875333974
 21
195.4350803091489
 31
0.0
  0
LINE
  5
14E3
330
1F
100
AcDbEntity
  8
太線
100
AcDbLine
 10
148.537761325704
 20
188.4350803091489
 30
0.0
 11
171.0973875333974
 21
188.4350803091489
 31
0.0
  0
LINE
  5
14E4
330
1F
100
AcDbEntity
  8
太線
100
AcDbLine
 10
148.537761325704
 20
185.4350803091488
 30
0.0
 11
171.0973875333974
 21
185.4350803091488
 31
0.0
  0
ARC
  5
14EA
330
1F
100
AcDbEntity
  8
太線
100
AcDbCircle
 10
132.9365407155553
 20
200.4350803091489
 30
0.0
 40
1.5
100
AcDbArc
 50
90.0
 51
180.0
  0
ARC
  5
14EB
330
1F
100
AcDbEntity
  8
太線
100
AcDbCircle
 10
132.9365407155553
 20
183.4350803091489
 30
0.0
 40
1.5
100
AcDbArc
 50
180.0
 51
270.0
  0
ARC
  5
14EC
330
1F
100
AcDbEntity
  8
太線
100
AcDbCircle
 10
186.9365407155553
 20
200.4350803091488
 30
0.0
 40
1.5
100
AcDbArc
 50
0.0
 51
89.99999999999998
  0
ARC
  5
14ED
330
1F
100
AcDbEntity
  8
太線
100
AcDbCircle
 10
186.9365407155553
 20
183.4350803091489
 30
0.0
 40
1.5
100
AcDbArc
 50
270.0
 51
0.0
  0
CIRCLE
  5
1537
330
1F
100
AcDbEntity
  8
想像線
100
AcDbCircle
 10
72.67337072216138
 20
191.8337102512264
 30
0.0
 40
10.24261987670274
  0
ARC
  5
153D
330
1F
100
AcDbEntity
  8
太線
100
AcDbCircle
 10
72.67337072216138
 20
191.8398373053183
 30
0.0
 40
12.27981476791637
100
AcDbArc
 50
359.9688776487059
 51
180.031122351294
  0
LINE
  5
153E
330
1F
100
AcDbEntity
  8
太線
100
AcDbLine
 10
84.95318366413069
 20
191.8465339149207
 30
0.0
 11
84.95318381749973
 21
182.8337102597347
 31
0.0
  0
LINE
  5
1540
330
1F
100
AcDbEntity
  8
太線
100
AcDbLine
 10
84.45318381749974
 20
182.3337102512263
 30
0.0
 11
83.95318382600811
 21
182.3337102512264
 31
0.0
  0
LINE
  5
1541
330
1F
100
AcDbEntity
  8
太線
100
AcDbLine
 10
83.95318382600811
 20
182.3337102512264
 30
0.0
 11
83.95318382600811
 21
191.8337102512236
 31
0.0
  0
LINE
  5
1542
330
1F
100
AcDbEntity
  8
太線
100
AcDbLine
 10
83.95318382600811
 20
191.8337102512236
 30
0.0
 11
83.95318382600811
 21
191.8459643594142
 31
0.0
  0
LINE
  5
1543
330
1F
100
AcDbEntity
  8
太線
100
AcDbLine
 10
61.39355761831464
 20
191.8337102512236
 30
0.0
 11
61.39355761831464
 21
182.3337102512264
 31
0.0
  0
ARC
  5
1547
330
1F
100
AcDbEntity
  8
太線
100
AcDbCircle
 10
84.45318381749974
 20
182.8337102512263
 30
0.0
 40
0.5
100
AcDbArc
 50
270.0
 51
0.00000097498844
  0
LINE
  5
1548
330
1F
100
AcDbEntity
  8
太線
100
AcDbLine
 10
84.4531838174997
 20
182.3337102512263
 30
0.0
 11
100.7923370081659
 21
182.3337102512264
 31
0.0
  0
LINE
  5
1549
330
1F
100
AcDbEntity
  8
太線
100
AcDbLine
 10
60.89355762607964
 20
182.3337102512264
 30
0.0
 11
61.39355761831464
 21
182.3337102512264
 31
0.0
  0
LINE
  5
154A
330
1F
100
AcDbEntity
  8
太線
100
AcDbLine
 10
60.39355776584097
 20
191.8331670637493
 30
0.0
 11
60.39355762607964
 21
182.8337102589913
 31
0.0
  0
ARC
  5
154B
330
1F
100
AcDbEntity
  8
太線
100
AcDbCircle
 10
60.89355762607964
 20
182.8337102512264
 30
0.0
 40
0.5
100
AcDbArc
 50
179.9999991101979
 51
270.0
  0
LINE
  5
154C
330
1F
100
AcDbEntity
  8
太線
100
AcDbLine
 10
44.79233700816597
 20
182.3337102512264
 30
0.0
 11
61.39355761831464
 21
182.3337102512264
 31
0.0
  0
ARC
  5
154D
330
1F
100
AcDbEntity
  8
太線
100
AcDbCircle
 10
170.4723872703466
 20
196.9350803091488
 30
0.0
 40
1.625000101173475
100
AcDbArc
 50
292.6198735094818
 51
67.38012649051976
  0
ARC
  5
154E
330
1F
100
AcDbEntity
  8
太線
100
AcDbCircle
 10
149.162761325704
 20
196.9350803091488
 30
0.0
 40
1.625000000000024
100
AcDbArc
 50
112.6198649480398
 51
247.3801350519593
  0
ARC
  5
154F
330
1F
100
AcDbEntity
  8
太線
100
AcDbCircle
 10
149.1627613257039
 20
186.9350803091489
 30
0.0
 40
1.62499999999999
100
AcDbArc
 50
112.6198649480396
 51
247.3801350519603
  0
ARC
  5
1550
330
1F
100
AcDbEntity
  8
太線
100
AcDbCircle
 10
170.4723873209333
 20
186.9350802754244
 30
0.0
 40
1.625000050586694
100
AcDbArc
 50
292.6198723203912
 51
67.38013386287057
  0
ARC
  5
15D8
330
1F
100
AcDbEntity
  8
太線
100
AcDbCircle
 10
44.79233700816597
 20
181.8337102512264
 30
0.0
 40
0.5
100
AcDbArc
 50
90.0
 51
180.0
  0
ARC
  5
15D9
330
1F
100
AcDbEntity
  8
太線
100
AcDbCircle
 10
100.7923370081659
 20
181.8337102512264
 30
0.0
 40
0.5
100
AcDbArc
 50
0.0
 51
90.0000000000001
  0
DIMENSION
  5
15DB
330
1F
100
AcDbEntity
  8
寸法線
100
AcDbDimension
  2
*D1
 10
188.5599099262025
 20
213.7226365200123
 30
0.0
 11
159.8571486204868
 21
217.2226365200123
 31
0.0
 70
    32
  1
88
 71
     5
 42
57.40552261143125
  3
sunpo
100
AcDbAlignedDimension
 13
131.1543873147712
 23
203.0539374529959
 33
0.0
 14
188.5599099262025
 24
203.0539374529959
 34
0.0
100
AcDbRotatedDimension
1001
ACAD
1000
DSTYLE
1002
{
1070
    40
1040
1.0
1002
}
  0
DIMENSION
  5
15E8
330
1F
100
AcDbEntity
  8
寸法線
100
AcDbDimension
  2
*D2
 10
181.3508444736498
 20
206.2545470882807
 30
0.0
 11
160.2576522567398
 21
209.7550392142649
 31
0.0
 70
    32
  1
72
 71
     5
 42
42.18638443382019
  3
sunpo
100
AcDbAlignedDimension
 13
139.1644600398296
 23
203.3206547812361
 33
0.0
 14
181.3508444736498
 24
203.3206547812361
 34
0.0
100
AcDbRotatedDimension
1001
ACAD
1000
DSTYLE
1002
{
1070
    40
1040
1.0
1002
}
  0
DIMENSION
  5
15F5
330
1F
100
AcDbEntity
  8
寸法線
100
AcDbDimension
  2
*D3
 10
125.8143382653272
 20
181.9539207564523
 30
0.0
 11
122.3143382653272
 21
191.9558260787677
 31
0.0
 70
    32
  1
35
 71
     5
 42
20.00381064463078
  3
sunpo
100
AcDbAlignedDimension
 13
130.3533800422653
 23
201.9577314010831
 33
0.0
 14
130.3533800422653
 24
181.9539207564523
 34
0.0
 50
90.0
100
AcDbRotatedDimension
1001
ACAD
1000
DSTYLE
1002
{
1070
    40
1040
1.0
1002
}
  0
DIMENSION
  5
1617
330
1F
100
AcDbEntity
  8
寸法線
100
AcDbDimension
  2
*D4
 10
65.81823387337812
 20
184.2232989139148
 30
0.0
 11
85.52407601260835
 21
211.3297941006753
 31
0.0
 70
    35
  1
48.5
 71
     5
 42
20.48523975340543
  3
sunpo
100
AcDbDiametricDimension
 15
79.52850757094465
 25
199.4441215885378
 35
0.0
 40
0.0
1001
ACAD
1000
DSTYLE
1002
{
1070
    40
1040
1.0
1070
   288
1070
     1
1002
}
  0
LINE
  5
1640
330
1F
100
AcDbEntity
  8
中心線
100
AcDbLine
 10
94.25469770428797
 20
185.894369536579
 30
0.0
 11
94.25469770428797
 21
178.4262801048474
 31
0.0
  0
LINE
  5
1641
330
1F
100
AcDbEntity
  8
中心線
100
AcDbLine
 10
51.53430870516626
 20
186.1610868648192
 30
0.0
 11
51.53430870516626
 21
177.8928450242663
 31
0.0
  0
DIMENSION
  5
16B9
330
1F
100
AcDbEntity
  8
寸法線
100
AcDbDimension
  2
*D5
 10
106.7554580806268
 20
182.2151830890933
 30
0.0
 11
103.2554580806268
 21
192.1302465985544
 31
0.0
 70
    32
  1
1.4
 71
     5
 42
0.9520169172258761
  3
sunpo
100
AcDbAlignedDimension
 13
101.7996828263937
 23
181.2631661718674
 33
0.0
 14
101.7996828263937
 24
182.2151830890933
 34
0.0
 50
90.0
100
AcDbRotatedDimension
1001
ACAD
1000
DSTYLE
1002
{
1070
    40
1040
1.0
1002
}
  0
LINE
  5
16D3
330
1F
100
AcDbEntity
  8
中心線
100
AcDbLine
 10
134.0491459746001
 20
192.0302406887635
 30
0.0
 11
144.3419092456855
 21
192.0302406887635
 31
0.0
  0
LINE
  5
16D4
330
1F
100
AcDbEntity
  8
中心線
100
AcDbLine
 10
138.6237076171064
 20
195.8383070853651
 30
0.0
 11
138.6237076171064
 21
185.746931155576
 31
0.0
  0
LINE
  5
16D7
330
1F
100
AcDbEntity
  8
中心線
100
AcDbLine
 10
159.7810554259749
 20
194.5054838253495
 30
0.0
 11
159.7810554259749
 21
190.1262072784124
 31
0.0
  0
LINE
  5
16D8
330
1F
100
AcDbEntity
  8
中心線
100
AcDbLine
 10
156.7313473812681
 20
192.0302406887635
 30
0.0
 11
163.7837974999985
 21
192.0302406887635
 31
0.0
  0
LINE
  5
16D9
330
1F
100
AcDbEntity
  8
中心線
100
AcDbLine
 10
179.9853700546339
 20
191.8398373053183
 30
0.0
 11
183.7975044736866
 21
191.8398373053183
 31
0.0
  0
LINE
  5
16DA
330
1F
100
AcDbEntity
  8
中心線
100
AcDbLine
 10
181.5102236524335
 20
193.1726605653339
 30
0.0
 11
181.5102236524335
 21
190.3166106618576
 31
0.0
  0
DIMENSION
  5
180A
330
1F
100
AcDbEntity
  8
寸法線
100
AcDbDimension
  2
*D6
 10
34.649228023904
 20
204.3505790386821
 30
0.0
 11
31.14922802390397
 21
192.8857815628287
 31
0.0
 70
    32
  1
50
 71
     5
 42
22.92959495170669
  3
sunpo
100
AcDbAlignedDimension
 13
62.30445040508003
 23
181.4209840869754
 33
0.0
 14
62.30445040508003
 24
204.3505790386821
 34
0.0
 50
90.0
100
AcDbRotatedDimension
1001
ACAD
1000
DSTYLE
1002
{
1070
    40
1040
1.0
1002
}
  0
DIMENSION
  5
1820
330
1F
100
AcDbEntity
  8
寸法線
100
AcDbDimension
  2
*D7
 10
137.3908716783691
 20
194.2058899147014
 30
0.0
 11
149.4704839038716
 21
167.9734028680968
 31
0.0
 70
   163
  1
6.2
 71
     5
 42
4.999999999999928
  3
sunpo
100
AcDbDiametricDimension
 15
139.4822097527414
 25
189.6642707035962
 35
0.0
 40
0.0
1001
ACAD
1000
DSTYLE
1002
{
1070
    40
1040
1.0
1070
   288
1070
     1
1002
}
  0
XLINE
  5
185F
330
1F
100
AcDbEntity
  8
構築線
100
AcDbXline
 10
72.67888971350351
 20
169.5211967238108
 30
0.0
 11
0.0
 21
-1.0
 31
0.0
  0
XLINE
  5
1860
330
1F
100
AcDbEntity
  8
構築線
100
AcDbXline
 10
72.67888971350351
 20
169.5273237779028
 30
0.0
 11
1.0
 21
0.0
 31
0.0
  0
XLINE
  5
1861
330
1F
100
AcDbEntity
  8
構築線
100
AcDbXline
 10
159.8230934208928
 20
170.3199808030865
 30
0.0
 11
0.0
 21
-1.0
 31
0.0
  0
XLINE
  5
1862
330
1F
100
AcDbEntity
  8
構築線
100
AcDbXline
 10
94.37153893638628
 20
108.6706325318219
 30
0.0
 11
1.0
 21
0.0
 31
0.0
  0
LINE
  5
1865
330
1F
100
AcDbEntity
  8
太線
100
AcDbLine
 10
148.5377613257039
 20
102.2658755356524
 30
0.0
 11
171.0973875333974
 21
102.2658755356524
 31
0.0
  0
LINE
  5
1866
330
1F
100
AcDbEntity
  8
太線
100
AcDbLine
 10
148.5377613257039
 20
105.2658755356524
 30
0.0
 11
171.0973875333974
 21
105.2658755356524
 31
0.0
  0
LINE
  5
1867
330
1F
100
AcDbEntity
  8
太線
100
AcDbLine
 10
148.5377613257039
 20
112.2658755356524
 30
0.0
 11
171.0973875333974
 21
112.2658755356524
 31
0.0
  0
LINE
  5
1868
330
1F
100
AcDbEntity
  8
太線
100
AcDbLine
 10
148.5377613257039
 20
115.2658755356524
 30
0.0
 11
171.0973875333974
 21
115.2658755356524
 31
0.0
  0
LINE
  5
1869
330
1F
100
AcDbEntity
  8
太線
100
AcDbLine
 10
186.9365407155553
 20
98.76587553565247
 30
0.0
 11
148.5377613257039
 21
98.76587553565245
 31
0.0
  0
LINE
  5
186D
330
1F
100
AcDbEntity
  8
太線
100
AcDbLine
 10
148.5377613257039
 20
102.2658755356524
 30
0.0
 11
148.5377613257039
 21
98.76587553565244
 31
0.0
  0
ARC
  5
1870
330
1F
100
AcDbEntity
  8
太線
100
AcDbCircle
 10
149.1627613257039
 20
103.7658755356524
 30
0.0
 40
1.62499999999999
100
AcDbArc
 50
112.6198649480396
 51
247.3801350519603
  0
ARC
  5
1871
330
1F
100
AcDbEntity
  8
太線
100
AcDbCircle
 10
149.162761325704
 20
113.7658755356524
 30
0.0
 40
1.625000000000024
100
AcDbArc
 50
112.6198649480398
 51
247.3801350519593
  0
LINE
  5
1876
330
1F
100
AcDbEntity
  8
太線
100
AcDbLine
 10
148.5377613257039
 20
112.2658755356524
 30
0.0
 11
148.5377613257039
 21
105.2658755356524
 31
0.0
  0
LINE
  5
1877
330
1F
100
AcDbEntity
  8
中心線
100
AcDbLine
 10
159.7810554259749
 20
111.3362790518531
 30
0.0
 11
159.7810554259749
 21
106.9570025049159
 31
0.0
  0
LINE
  5
1878
330
1F
100
AcDbEntity
  8
中心線
100
AcDbLine
 10
156.7313473812681
 20
108.8610359152671
 30
0.0
 11
163.7837974999985
 21
108.8610359152671
 31
0.0
  0
LINE
  5
1879
330
1F
100
AcDbEntity
  8
太線
100
AcDbLine
 10
148.5377613257039
 20
118.7658755356524
 30
0.0
 11
148.5377613257039
 21
115.2658755356524
 31
0.0
  0
LINE
  5
187A
330
1F
100
AcDbEntity
  8
太線
100
AcDbLine
 10
171.0973875333974
 20
102.2658755356524
 30
0.0
 11
171.0973875333974
 21
98.76587553565244
 31
0.0
  0
LINE
  5
187B
330
1F
100
AcDbEntity
  8
太線
100
AcDbLine
 10
188.4365407155553
 20
117.2658755356524
 30
0.0
 11
188.4365407155553
 21
100.2658755356524
 31
0.0
  0
ARC
  5
187C
330
1F
100
AcDbEntity
  8
太線
100
AcDbCircle
 10
186.9365407155553
 20
100.2658755356524
 30
0.0
 40
1.5
100
AcDbArc
 50
270.0
 51
0.0
  0
ARC
  5
1880
330
1F
100
AcDbEntity
  8
太線
100
AcDbCircle
 10
170.4723872703466
 20
113.7658755356523
 30
0.0
 40
1.625000101173475
100
AcDbArc
 50
292.6198735094818
 51
67.38012649051976
  0
LINE
  5
1881
330
1F
100
AcDbEntity
  8
太線
100
AcDbLine
 10
171.0973875333974
 20
112.2658755356524
 30
0.0
 11
171.0973875333974
 21
105.2658755356524
 31
0.0
  0
ARC
  5
1882
330
1F
100
AcDbEntity
  8
太線
100
AcDbCircle
 10
170.4723873209333
 20
103.7658755019279
 30
0.0
 40
1.625000050586694
100
AcDbArc
 50
292.6198723203912
 51
67.38013386287057
  0
LINE
  5
1884
330
1F
100
AcDbEntity
  8
太線
100
AcDbLine
 10
171.0973875333974
 20
118.7658755356524
 30
0.0
 11
171.0973875333974
 21
115.2658755356524
 31
0.0
  0
ARC
  5
1887
330
1F
100
AcDbEntity
  8
太線
100
AcDbCircle
 10
186.9365407155553
 20
117.2658755356524
 30
0.0
 40
1.5
100
AcDbArc
 50
0.0
 51
89.99999999999998
  0
DIMENSION
  5
1888
330
1F
100
AcDbEntity
  8
寸法線
100
AcDbDimension
  2
*D11
 10
65.81823387337812
 20
101.0540941404183
 30
0.0
 11
85.5240760126083
 21
128.1605893271789
 31
0.0
 70
    35
  1
48.5
 71
     5
 42
20.48523975340543
  3
sunpo
100
AcDbDiametricDimension
 15
79.52850757094461
 25
116.2749168150414
 35
0.0
 40
0.0
1001
ACAD
1000
DSTYLE
1002
{
1070
    40
1040
1.0
1070
   288
1070
     1
1002
}
  0
ARC
  5
1889
330
1F
100
AcDbEntity
  8
太線
100
AcDbCircle
 10
72.6733707221614
 20
108.6706325318219
 30
0.0
 40
12.27981476791637
100
AcDbArc
 50
359.9688776487059
 51
180.031122351294
  0
CIRCLE
  5
188A
330
1F
100
AcDbEntity
  8
想像線
100
AcDbCircle
 10
72.6733707221614
 20
108.6645054777299
 30
0.0
 40
10.24261987670274
  0
ARC
  5
188B
330
1F
100
AcDbEntity
  8
太線
100
AcDbCircle
 10
72.6733707221614
 20
108.6706325318219
 30
0.0
 40
10.27981476791637
100
AcDbArc
 50
359.9658501277128
 51
180.0341498722613
  0
ARC
  5
188C
330
1F
100
AcDbEntity
  8
太線
100
AcDbCircle
 10
72.6733707221614
 20
108.6706325318219
 30
0.0
 40
11.27981476791637
100
AcDbArc
 50
359.9688776487059
 51
180.031122351294
  0
LINE
  5
188E
330
1F
100
AcDbEntity
  8
構築線
100
AcDbLine
 10
128.7247687737793
 20
192.974885999951
 30
0.0
 11
128.7247687737793
 21
192.974885999951
 31
0.0
  0
LINE
  5
1895
330
1F
100
AcDbEntity
  8
太線
100
AcDbLine
 10
60.39355776584097
 20
108.6639622902528
 30
0.0
 11
60.39355767266954
 21
102.6645054854949
 31
0.0
  0
LINE
  5
1896
330
1F
100
AcDbEntity
  8
太線
100
AcDbLine
 10
61.39355761831462
 20
108.6645054777272
 30
0.0
 11
61.39355761831462
 21
102.1645054777299
 31
0.0
  0
LINE
  5
1897
330
1F
100
AcDbEntity
  8
太線
100
AcDbLine
 10
62.39355778019206
 20
102.1473184757213
 30
0.0
 11
62.39355778019206
 21
108.6645054777285
 31
0.0
  0
DIMENSION
  5
189A
330
1F
100
AcDbEntity
  8
寸法線
100
AcDbDimension
  2
*D12
 10
106.7554580806269
 20
99.04597831559691
 30
0.0
 11
103.2554580806268
 21
108.961041825058
 31
0.0
 70
    32
  1
1.4
 71
     5
 42
0.9520169172258761
  3
sunpo
100
AcDbAlignedDimension
 13
101.7996828263938
 23
98.09396139837103
 33
0.0
 14
101.7996828263938
 24
99.04597831559691
 34
0.0
 50
90.0
100
AcDbRotatedDimension
1001
ACAD
1000
DSTYLE
1002
{
1070
    40
1040
1.0
1002
}
  0
LINE
  5
189B
330
1F
100
AcDbEntity
  8
太線
100
AcDbLine
 10
84.45318381749974
 20
99.16450547772994
 30
0.0
 11
100.7923370081659
 21
99.16450547772996
 31
0.0
  0
LINE
  5
189C
330
1F
100
AcDbEntity
  8
太線
100
AcDbLine
 10
101.2923370081659
 20
98.16450547772996
 30
0.0
 11
83.45318366413067
 21
98.16450547772994
 31
0.0
  0
ARC
  5
189D
330
1F
100
AcDbEntity
  8
太線
100
AcDbCircle
 10
84.45318381749974
 20
99.66450547772993
 30
0.0
 40
0.5
100
AcDbArc
 50
270.0
 51
0.00000097498844
  0
LINE
  5
189E
330
1F
100
AcDbEntity
  8
太線
100
AcDbLine
 10
83.95318382600811
 20
99.16450547772996
 30
0.0
 11
83.95318382600811
 21
108.6645054777272
 31
0.0
  0
LINE
  5
189F
330
1F
100
AcDbEntity
  8
太線
100
AcDbLine
 10
82.95318366413068
 20
98.66450547772993
 30
0.0
 11
82.95318366413068
 21
102.9182867629602
 31
0.0
  0
LINE
  5
18A0
330
1F
100
AcDbEntity
  8
太線
100
AcDbLine
 10
84.45318381749974
 20
99.16450547772994
 30
0.0
 11
83.95318382600811
 21
99.16450547772996
 31
0.0
  0
ARC
  5
18A1
330
1F
100
AcDbEntity
  8
太線
100
AcDbCircle
 10
83.45318366413067
 20
98.66450547772993
 30
0.0
 40
0.5
100
AcDbArc
 50
180.0
 51
270.0
  0
LINE
  5
18A2
330
1F
100
AcDbEntity
  8
太線
100
AcDbLine
 10
84.95318366413068
 20
108.6773291414242
 30
0.0
 11
84.95318381749973
 21
99.66450548623832
 31
0.0
  0
LINE
  5
18A3
330
1F
100
AcDbEntity
  8
太線
100
AcDbLine
 10
82.95318366413068
 20
108.6767595859191
 30
0.0
 11
82.95318366413068
 21
102.9182867629602
 31
0.0
  0
LINE
  5
18A4
330
1F
100
AcDbEntity
  8
太線
100
AcDbLine
 10
83.95318382600811
 20
108.6645054777272
 30
0.0
 11
83.95318382600811
 21
108.6767595859178
 31
0.0
  0
LINE
  5
18A5
330
1F
100
AcDbEntity
  8
中心線
100
AcDbLine
 10
94.25469770428799
 20
102.7251647630826
 30
0.0
 11
94.25469770428799
 21
95.25707533135099
 31
0.0
  0
ARC
  5
18A6
330
1F
100
AcDbEntity
  8
太線
100
AcDbCircle
 10
100.7923370081659
 20
98.66450547772997
 30
0.0
 40
0.5
100
AcDbArc
 50
0.0
 51
90.0000000000001
  0
LINE
  5
18A7
330
1F
100
AcDbEntity
  8
太線
100
AcDbLine
 10
101.2923370081659
 20
98.66450547772997
 30
0.0
 11
101.2923370081659
 21
98.16450547772996
 31
0.0
  0
LINE
  5
1943
330
1F
100
AcDbEntity
  8
太線
100
AcDbLine
 10
60.89355767266955
 20
102.1645054777299
 30
0.0
 11
61.39571526443273
 21
102.1645054777299
 31
0.0
  0
LINE
  5
1944
330
1F
100
AcDbEntity
  8
太線
100
AcDbLine
 10
61.39571526443273
 20
102.1645054777299
 30
0.0
 11
61.14463644137368
 21
100.1645054777299
 31
0.0
  0
LINE
  5
1946
330
1F
100
AcDbEntity
  8
太線
100
AcDbLine
 10
62.19958760815853
 20
100.6022246309253
 30
0.0
 11
62.39355778019206
 21
102.1473184757213
 31
0.0
  0
ARC
  5
1947
330
1F
100
AcDbEntity
  8
太線
100
AcDbCircle
 10
60.89355767266955
 20
102.6645054777299
 30
0.0
 40
0.5
100
AcDbArc
 50
179.9999991101981
 51
270.0
  0
LINE
  5
1949
330
1F
100
AcDbEntity
  8
太線
100
AcDbLine
 10
148.5377613257039
 20
118.7658755356524
 30
0.0
 11
186.9365407155553
 21
118.7658755356524
 31
0.0
  0
LINE
  5
194B
330
1F
100
AcDbEntity
  8
太線
100
AcDbLine
 10
61.70348167580005
 20
100.1645054777299
 30
0.0
 11
61.14463644137368
 21
100.1645054777299
 31
0.0
  0
ARC
  5
194C
330
1F
100
AcDbEntity
  8
太線
100
AcDbCircle
 10
61.70348167580005
 20
100.6645054777299
 30
0.0
 40
0.5
100
AcDbArc
 50
270.0
 51
352.844555147004
  0
DIMENSION
  5
194D
330
1F
100
AcDbEntity
  8
寸法線
100
AcDbDimension
  2
*D15
 10
181.5102236524335
 20
85.21410048655127
 30
0.0
 11
170.6666585366631
 21
88.71410048655127
 31
0.0
 70
    32
  1
37
 71
     5
 42
21.68713023154066
  3
sunpo
100
AcDbAlignedDimension
 13
159.8230934208928
 23
108.6706325318219
 33
0.0
 14
181.5102236524335
 24
108.6706325318219
 34
0.0
100
AcDbRotatedDimension
1001
ACAD
1000
DSTYLE
1002
{
1070
    40
1040
1.0
1002
}
  0
DIMENSION
  5
1963
330
1F
100
AcDbEntity
  8
寸法線
100
AcDbDimension
  2
*D16
 10
188.4365407155553
 20
126.5741743120019
 30
0.0
 11
168.4871510206296
 21
130.0746664379861
 31
0.0
 70
    32
  1
72
 71
     5
 42
39.89877938985134
  3
sunpo
100
AcDbAlignedDimension
 13
148.5377613257039
 23
118.7658755356524
 33
0.0
 14
188.4365407155553
 24
117.2658755356524
 34
0.0
100
AcDbRotatedDimension
1001
ACAD
1000
DSTYLE
1002
{
1070
    40
1040
1.0
1002
}
  0
DIMENSION
  5
1979
330
1F
100
AcDbEntity
  8
寸法線
100
AcDbDimension
  2
*D17
 10
199.6921031646868
 20
118.7658755356524
 30
0.0
 11
196.1921031646868
 21
108.7658755356524
 31
0.0
 70
    32
  1
35
 71
     5
 42
19.99999999999994
  3
sunpo
100
AcDbAlignedDimension
 13
186.9365407155553
 23
98.76587553565247
 33
0.0
 14
186.9365407155553
 24
118.7658755356524
 34
0.0
 50
90.0
100
AcDbRotatedDimension
1001
ACAD
1000
DSTYLE
1002
{
1070
    40
1040
1.0
1002
}
  0
CIRCLE
  5
1991
330
1F
100
AcDbEntity
  8
太線
100
AcDbCircle
 10
181.3230567508824
 20
108.5754721522072
 30
0.0
 40
2.5
  0
DIMENSION
  5
199C
330
1F
100
AcDbEntity
  8
寸法線
100
AcDbDimension
  2
*D19
 10
185.4347258108237
 20
162.8506442978256
 30
0.0
 11
181.4365407155553
 21
166.3506442978256
 31
0.0
 70
    32
 71
     5
 42
7.996370190536822
  3
sunpo
100
AcDbAlignedDimension
 13
177.4383556202869
 23
191.8398373053183
 33
0.0
 14
185.4347258108237
 24
191.8398373053183
 34
0.0
100
AcDbRotatedDimension
1001
ACAD
1000
DSTYLE
1002
{
1070
    40
1040
1.0
1002
}
  0
DIMENSION
  5
19B5
330
1F
100
AcDbEntity
  8
寸法線
100
AcDbDimension
  2
*D21
 10
180.1740385908787
 20
110.7957778221503
 30
0.0
 11
193.7121417460316
 21
84.63541914203821
 31
0.0
 70
   163
  1
6.2
 71
     5
 42
5.0
  3
sunpo
100
AcDbDiametricDimension
 15
182.4720749108861
 25
106.3551664822641
 35
0.0
 40
0.0
1001
ACAD
1000
DSTYLE
1002
{
1070
    40
1040
1.0
1070
   288
1070
     1
1002
}
  0
DIMENSION
  5
19C9
330
1F
100
AcDbEntity
  8
寸法線
100
AcDbDimension
  2
*D22
 10
95.35551856407403
 20
120.9504460595214
 30
0.0
 11
91.855518564074
 21
109.5574757686256
 31
0.0
 70
    32
  1
50
 71
     5
 42
22.78594058179149
  3
sunpo
100
AcDbAlignedDimension
 13
94.36601994504417
 23
98.16450547772994
 33
0.0
 14
72.67888971350351
 24
120.9504460595214
 34
0.0
 50
90.0
100
AcDbRotatedDimension
1001
ACAD
1000
DSTYLE
1002
{
1070
    40
1040
1.0
1002
}
  0
TEXT
  5
19E0
330
1F
100
AcDbEntity
  8
文字
100
AcDbText
 10
37.5992496904456
 20
221.336108082378
 30
0.0
 40
5.0
  1
23-1Ｓ（鉄）　両サドル
 51
15.0
  7
OKANO
100
AcDbText
  0
TEXT
  5
19E3
330
1F
100
AcDbEntity
  8
文字
100
AcDbText
 10
37.74611592275459
 20
141.1745901403685
 30
0.0
 40
5.0
  1
23-1Ｈ（鉄）　片サドル
 51
15.0
  7
OKANO
100
AcDbText
  0
XLINE
  5
19EB
330
1F
100
AcDbEntity
  8
構築線
100
AcDbXline
 10
296.5765377305367
 20
169.3695559346805
 30
0.0
 11
0.0
 21
-1.0
 31
0.0
  0
XLINE
  5
1A80
330
1F
100
AcDbEntity
  8
構築線
100
AcDbXline
 10
260.2747932549002
 20
191.8398373053183
 30
0.0
 11
1.0
 21
0.0
 31
0.0
  0
VIEWPORT
  5
2E
330
1B
100
AcDbEntity
 67
     1
  8
0
100
AcDbViewport
 10
181.5872303816033
 20
97.72226491167305
 30
0.0
 40
440.5165192783848
 41
223.7396862931311
 68
     2
 69
     1
 12
181.5872303816033
 22
97.72226491167305
 13
0.0
 23
0.0
 14
10.0
 24
10.0
 15
10.0
 25
10.0
 16
0.0
 26
0.0
 36
1.0
 17
0.0
 27
0.0
 37
0.0
 42
50.0
 43
0.0
 44
0.0
 45
223.7396862931311
 50
0.0
 51
0.0
 72
   100
 90
    32800
  1

281
     0
 71
     1
 74
     0
110
0.0
120
0.0
130
0.0
111
1.0
121
0.0
131
0.0
112
0.0
122
1.0
132
0.0
 79
     0
146
0.0
  0
VIEWPORT
  5
30
330
1B
100
AcDbEntity
 67
     1
  8
70-0-CON
100
AcDbViewport
 10
141.8594093064315
 20
100.3480256368386
 30
0.0
 40
261.6199023344245
 41
192.6196987113174
 68
     1
 69
     2
 12
120.3996872868462
 22
157.0518128376688
 13
0.0
 23
0.0
 14
5.0
 24
5.0
 15
10.0
 25
10.0
 16
0.0
 26
0.0
 36
1.0
 17
0.0
 27
0.0
 37
0.0
 42
50.0
 43
0.0
 44
0.0
 45
178.2718071237813
 50
0.0
 51
0.0
 72
   100
 90
    32864
  1

281
     0
 71
     1
 74
     0
110
0.0
120
0.0
130
0.0
111
1.0
121
0.0
131
0.0
112
0.0
122
1.0
132
0.0
 79
     0
146
0.0
  0
LWPOLYLINE
  5
45
330
1B
100
AcDbEntity
 67
     1
  8
50-0-CON
100
AcDbPolyline
 90
        4
 70
     1
 43
0.0
 10
11.04945813921926
 20
4.038176281179858
 10
272.2125713060605
 20
4.033520706629644
 10
273.4987754093466
 20
195.9297862125246
 10
11.04945813921926
 20
196.6578749924973
  0
LINE
  5
4A
330
1B
100
AcDbEntity
 67
     1
  8
50-0-CON
100
AcDbLine
 10
10.38768783662635
 20
100.3480256368386
 30
0.0
 11
-4.391850629656119
 21
100.3480256368386
 31
0.0
  0
LINE
  5
4B
330
1B
100
AcDbEntity
 67
     1
  8
50-0-CON
100
AcDbLine
 10
141.8594093064315
 20
197.098652626247
 30
0.0
 11
141.8594093064315
 21
202.387980773708
 31
0.0
  0
LINE
  5
4C
330
1B
100
AcDbEntity
 67
     1
  8
50-0-CON
100
AcDbLine
 10
272.4487699456857
 20
100.7888032705883
 30
0.0
 11
278.8458837249377
 21
100.7888032705883
 31
0.0
  0
LINE
  5
4D
330
1B
100
AcDbEntity
 67
     1
  8
50-0-CON
100
AcDbLine
 10
140.9770484758805
 20
4.038176281179858
 30
0.0
 11
140.9770484758805
 21
-3.455038652015446
 31
0.0
  0
ENDSEC
  0
SECTION
  2
OBJECTS
  0
DICTIONARY
  5
C
330
0
100
AcDbDictionary
281
     1
  3
ACAD_GROUP
350
D
  3
ACAD_LAYOUT
350
1A
  3
ACAD_MLINESTYLE
350
17
  3
ACAD_PLOTSETTINGS
350
19
  3
ACAD_PLOTSTYLENAME
350
E
  3
AcadDim
350
11BC
  3
AcDbVariableDictionary
350
6AD
  3
DWGPROPS
350
30F
  0
DICTIONARY
  5
D
102
{ACAD_REACTORS
330
C
102
}
330
C
100
AcDbDictionary
281
     1
  0
DICTIONARY
  5
1A
102
{ACAD_REACTORS
330
C
102
}
330
C
100
AcDbDictionary
281
     1
  3
A4
350
1E
  3
Model
350
22
  0
DICTIONARY
  5
17
102
{ACAD_REACTORS
330
C
102
}
330
C
100
AcDbDictionary
281
     1
  3
Standard
350
18
  0
DICTIONARY
  5
19
102
{ACAD_REACTORS
330
C
102
}
330
C
100
AcDbDictionary
281
     1
  0
ACDBDICTIONARYWDFLT
  5
E
102
{ACAD_REACTORS
330
C
102
}
330
C
100
AcDbDictionary
281
     1
  3
Normal
350
F
100
AcDbDictionaryWithDefault
340
F
  0
XRECORD
  5
11BC
102
{ACAD_REACTORS
330
C
102
}
330
C
100
AcDbXrecord
280
     1
 90
   990106
  3

 60
     0
 61
     0
 62
     1
 63
     3
 64
     0
 65
     0
 66
     0
 67
     3
 68
     1
 69
     0
 70
     0
 71
     0
 72
     0
 40
0.2090598027293709
170
     0
  0
DICTIONARY
  5
6AD
102
{ACAD_REACTORS
330
C
102
}
330
C
100
AcDbDictionary
281
     1
  3
SORTENTS
350
6AE
  0
XRECORD
  5
30F
102
{ACAD_REACTORS
330
C
102
}
330
C
100
AcDbXrecord
280
     1
  1
DWGPROPS COOKIE
  2

  3

  4

  6

  7

  8

  9

300
=
301
=
302
=
303
=
304
=
305
=
306
=
307
=
308
=
309
=
 40
0.3303803125
 41
2452362.482225463
 42
2452370.969861285
  1

 90
        0
  0
LAYOUT
  5
1E
102
{ACAD_REACTORS
330
1A
102
}
330
1A
100
AcDbPlotSettings
  1

  2
EPSON PM-920C
  4
A4
  6

 40
3.757083177566528
 41
14.7637300491333
 42
3.757080078125
 43
3.757080078125
 44
209.9733276367187
 45
296.9683227539062
 46
0.0
 47
0.0
 48
0.0
 49
0.0
140
0.0
141
0.0
142
1.0
143
1.0
 70
   688
 72
     1
 73
     1
 74
     5
  7
joint.ctb
 75
    16
147
1.0
148
0.0
149
0.0
100
AcDbLayout
  1
A4
 70
     1
 71
     1
 10
-3.757080078125
 20
-3.757083177566528
 11
293.2112426757812
 21
206.2162444591522
 12
0.0
 22
0.0
 32
0.0
 14
-4.391850629656119
 24
-3.455038652015446
 34
0.0
 15
278.8458837249377
 25
202.387980773708
 35
0.0
146
0.0
 13
0.0
 23
0.0
 33
0.0
 16
1.0
 26
0.0
 36
0.0
 17
0.0
 27
1.0
 37
0.0
 76
     0
330
1B
331
30
  0
LAYOUT
  5
22
102
{ACAD_REACTORS
330
1A
102
}
330
1A
100
AcDbPlotSettings
  1

  2
EPSON PM-920C
  4
A4
  6

 40
3.757083177566528
 41
14.7637300491333
 42
3.757080078125
 43
3.757080078125
 44
209.9733276367187
 45
296.9683227539062
 46
0.0
 47
0.0
 48
0.0
 49
0.0
140
0.0
141
0.0
142
1.0
143
1.0
 70
 11952
 72
     1
 73
     1
 74
     0
  7

 75
     0
147
1.0
148
-45.64199848979289
149
-84.48806419330498
100
AcDbLayout
  1
Model
 70
     1
 71
     0
 10
0.0
 20
0.0
 11
12.0
 21
9.0
 12
0.0
 22
0.0
 32
0.0
 14
0.0
 24
0.0
 34
0.0
 15
0.0
 25
0.0
 35
0.0
146
0.0
 13
0.0
 23
0.0
 33
0.0
 16
1.0
 26
0.0
 36
0.0
 17
0.0
 27
1.0
 37
0.0
 76
     0
330
1F
  0
MLINESTYLE
  5
18
102
{ACAD_REACTORS
330
17
102
}
330
17
100
AcDbMlineStyle
  2
STANDARD
 70
     0
  3

 62
   256
 51
90.0
 52
90.0
 71
     2
 49
0.5
 62
   256
  6
BYLAYER
 49
-0.5
 62
   256
  6
BYLAYER
  0
ACDBPLACEHOLDER
  5
F
102
{ACAD_REACTORS
330
E
102
}
330
E
  0
DICTIONARYVAR
  5
6AE
102
{ACAD_REACTORS
330
6AD
102
}
330
6AD
100
DictionaryVariables
280
     0
  1
96
  0
ENDSEC
  0
EOF
