  0
SECTION
  2
HEADER
  9
$ACADVER
  1
AC1015
  9
$ACADMAINTVER
 70
     6
  9
$DWGCODEPAGE
  3
ANSI_932
  9
$INSBASE
 10
0.0
 20
0.0
 30
0.0
  9
$EXTMIN
 10
64.02644287104158
 20
6.542989641787102
 30
0.0
  9
$EXTMAX
 10
702.7445966699302
 20
536.4273991820348
 30
0.0
  9
$LIMMIN
 10
0.0
 20
0.0
  9
$LIMMAX
 10
420.0
 20
297.0
  9
$ORTHOMODE
 70
     0
  9
$REGENMODE
 70
     1
  9
$FILLMODE
 70
     1
  9
$QTEXTMODE
 70
     0
  9
$MIRRTEXT
 70
     1
  9
$LTSCALE
 40
1.0
  9
$ATTMODE
 70
     1
  9
$TEXTSIZE
 40
5.0
  9
$TRACEWID
 40
1.0
  9
$TEXTSTYLE
  7
OKANO
  9
$CLAYER
  8
太線
  9
$CELTYPE
  6
ByLayer
  9
$CECOLOR
 62
   256
  9
$CELTSCALE
 40
1.0
  9
$DISPSILH
 70
     0
  9
$DIMSCALE
 40
0.0
  9
$DIMASZ
 40
3.0
  9
$DIMEXO
 40
2.0
  9
$DIMDLI
 40
8.0
  9
$DIMRND
 40
0.0
  9
$DIMDLE
 40
0.0
  9
$DIMEXE
 40
3.0
  9
$DIMTP
 40
0.0
  9
$DIMTM
 40
0.0
  9
$DIMTXT
 40
5.0
  9
$DIMCEN
 40
2.5
  9
$DIMTSZ
 40
0.0
  9
$DIMTOL
 70
     0
  9
$DIMLIM
 70
     0
  9
$DIMTIH
 70
     0
  9
$DIMTOH
 70
     0
  9
$DIMSE1
 70
     0
  9
$DIMSE2
 70
     0
  9
$DIMTAD
 70
     1
  9
$DIMZIN
 70
     8
  9
$DIMBLK
  1
Closed
  9
$DIMASO
 70
     1
  9
$DIMSHO
 70
     1
  9
$DIMPOST
  1

  9
$DIMAPOST
  1

  9
$DIMALT
 70
     0
  9
$DIMALTD
 70
     3
  9
$DIMALTF
 40
0.03937007874016
  9
$DIMLFAC
 40
1.0
  9
$DIMTOFL
 70
     1
  9
$DIMTVP
 40
0.0
  9
$DIMTIX
 70
     0
  9
$DIMSOXD
 70
     0
  9
$DIMSAH
 70
     0
  9
$DIMBLK1
  1

  9
$DIMBLK2
  1

  9
$DIMSTYLE
  2
sunpo
  9
$DIMCLRD
 70
     0
  9
$DIMCLRE
 70
     0
  9
$DIMCLRT
 70
     0
  9
$DIMTFAC
 40
1.0
  9
$DIMGAP
 40
1.0
  9
$DIMJUST
 70
     0
  9
$DIMSD1
 70
     0
  9
$DIMSD2
 70
     0
  9
$DIMTOLJ
 70
     0
  9
$DIMTZIN
 70
     8
  9
$DIMALTZ
 70
     0
  9
$DIMALTTZ
 70
     0
  9
$DIMUPT
 70
     0
  9
$DIMDEC
 70
     2
  9
$DIMTDEC
 70
     2
  9
$DIMALTU
 70
     2
  9
$DIMALTTD
 70
     3
  9
$DIMTXSTY
  7
OKANO
  9
$DIMAUNIT
 70
     0
  9
$DIMADEC
 70
     0
  9
$DIMALTRND
 40
0.0
  9
$DIMAZIN
 70
     0
  9
$DIMDSEP
 70
    46
  9
$DIMATFIT
 70
     3
  9
$DIMFRAC
 70
     0
  9
$DIMLDRBLK
  1
Closed
  9
$DIMLUNIT
 70
     2
  9
$DIMLWD
 70
    -2
  9
$DIMLWE
 70
    -2
  9
$DIMTMOVE
 70
     0
  9
$LUNITS
 70
     2
  9
$LUPREC
 70
     2
  9
$SKETCHINC
 40
1.0
  9
$FILLETRAD
 40
1.0
  9
$AUNITS
 70
     0
  9
$AUPREC
 70
     0
  9
$MENU
  1
.
  9
$ELEVATION
 40
0.0
  9
$PELEVATION
 40
0.0
  9
$THICKNESS
 40
0.0
  9
$LIMCHECK
 70
     0
  9
$CHAMFERA
 40
10.0
  9
$CHAMFERB
 40
10.0
  9
$CHAMFERC
 40
20.0
  9
$CHAMFERD
 40
0.0
  9
$SKPOLY
 70
     0
  9
$TDCREATE
 40
2452362.482225463
  9
$TDUCREATE
 40
2452362.107225463
  9
$TDUPDATE
 40
2456449.541454571
  9
$TDUUPDATE
 40
2456449.166454572
  9
$TDINDWG
 40
3.5565893287
  9
$TDUSRTIMER
 40
3.5565893287
  9
$USRTIMER
 70
     1
  9
$ANGBASE
 50
0.0
  9
$ANGDIR
 70
     0
  9
$PDMODE
 70
     0
  9
$PDSIZE
 40
0.0
  9
$PLINEWID
 40
0.0
  9
$SPLFRAME
 70
     0
  9
$SPLINETYPE
 70
     6
  9
$SPLINESEGS
 70
     8
  9
$HANDSEED
  5
5505
  9
$SURFTAB1
 70
     6
  9
$SURFTAB2
 70
     6
  9
$SURFTYPE
 70
     6
  9
$SURFU
 70
     6
  9
$SURFV
 70
     6
  9
$UCSBASE
  2

  9
$UCSNAME
  2

  9
$UCSORG
 10
0.0
 20
0.0
 30
0.0
  9
$UCSXDIR
 10
1.0
 20
0.0
 30
0.0
  9
$UCSYDIR
 10
0.0
 20
1.0
 30
0.0
  9
$UCSORTHOREF
  2

  9
$UCSORTHOVIEW
 70
     0
  9
$UCSORGTOP
 10
0.0
 20
0.0
 30
0.0
  9
$UCSORGBOTTOM
 10
0.0
 20
0.0
 30
0.0
  9
$UCSORGLEFT
 10
0.0
 20
0.0
 30
0.0
  9
$UCSORGRIGHT
 10
0.0
 20
0.0
 30
0.0
  9
$UCSORGFRONT
 10
0.0
 20
0.0
 30
0.0
  9
$UCSORGBACK
 10
0.0
 20
0.0
 30
0.0
  9
$PUCSBASE
  2

  9
$PUCSNAME
  2

  9
$PUCSORG
 10
0.0
 20
0.0
 30
0.0
  9
$PUCSXDIR
 10
1.0
 20
0.0
 30
0.0
  9
$PUCSYDIR
 10
0.0
 20
1.0
 30
0.0
  9
$PUCSORTHOREF
  2

  9
$PUCSORTHOVIEW
 70
     0
  9
$PUCSORGTOP
 10
0.0
 20
0.0
 30
0.0
  9
$PUCSORGBOTTOM
 10
0.0
 20
0.0
 30
0.0
  9
$PUCSORGLEFT
 10
0.0
 20
0.0
 30
0.0
  9
$PUCSORGRIGHT
 10
0.0
 20
0.0
 30
0.0
  9
$PUCSORGFRONT
 10
0.0
 20
0.0
 30
0.0
  9
$PUCSORGBACK
 10
0.0
 20
0.0
 30
0.0
  9
$USERI1
 70
     0
  9
$USERI2
 70
     0
  9
$USERI3
 70
     0
  9
$USERI4
 70
     0
  9
$USERI5
 70
     0
  9
$USERR1
 40
0.0
  9
$USERR2
 40
0.0
  9
$USERR3
 40
0.0
  9
$USERR4
 40
0.0
  9
$USERR5
 40
0.0
  9
$WORLDVIEW
 70
     1
  9
$SHADEDGE
 70
     3
  9
$SHADEDIF
 70
    70
  9
$TILEMODE
 70
     0
  9
$MAXACTVP
 70
    64
  9
$PINSBASE
 10
0.0
 20
0.0
 30
0.0
  9
$PLIMCHECK
 70
     0
  9
$PEXTMIN
 10
-4.41382938596746
 20
-3.468932611831576
 30
-0.0015258207003583
  9
$PEXTMAX
 10
278.855004473357
 20
202.394257080618
 30
0.0000000349246037
  9
$PLIMMIN
 10
-20.0
 20
-7.5
  9
$PLIMMAX
 10
277.0
 20
202.4999999999999
  9
$UNITMODE
 70
     0
  9
$VISRETAIN
 70
     1
  9
$PLINEGEN
 70
     0
  9
$PSLTSCALE
 70
     1
  9
$TREEDEPTH
 70
  3020
  9
$CMLSTYLE
  2
Standard
  9
$CMLJUST
 70
     0
  9
$CMLSCALE
 40
20.0
  9
$PROXYGRAPHICS
 70
     1
  9
$MEASUREMENT
 70
     1
  9
$CELWEIGHT
370
    -1
  9
$ENDCAPS
280
     0
  9
$JOINSTYLE
280
     0
  9
$LWDISPLAY
290
     0
  9
$INSUNITS
 70
     4
  9
$HYPERLINKBASE
  1

  9
$STYLESHEET
  1

  9
$XEDIT
290
     1
  9
$CEPSNTYPE
380
     0
  9
$PSTYLEMODE
290
     1
  9
$FINGERPRINTGUID
  2
{FF7F33C3-4233-11D6-AEE0-0000F45FD7F4}
  9
$VERSIONGUID
  2
{47C31D6C-0BE4-40EC-8786-EDBD7C77E3B2}
  9
$EXTNAMES
290
     1
  9
$PSVPSCALE
 40
0.0
  9
$OLESTARTUP
290
     0
  0
ENDSEC
  0
SECTION
  2
CLASSES
  0
CLASS
  1
ACDBDICTIONARYWDFLT
  2
AcDbDictionaryWithDefault
  3
AutoCAD 2000
 90
        0
280
     0
281
     0
  0
CLASS
  1
ACDBPLACEHOLDER
  2
AcDbPlaceHolder
  3
AutoCAD 2000
 90
        0
280
     0
281
     0
  0
CLASS
  1
LAYOUT
  2
AcDbLayout
  3
AutoCAD 2000
 90
        0
280
     0
281
     0
  0
CLASS
  1
DICTIONARYVAR
  2
AcDbDictionaryVar
  3
AutoCAD 2000
 90
        0
280
     0
281
     0
  0
ENDSEC
  0
SECTION
  2
TABLES
  0
TABLE
  2
VPORT
  5
8
330
0
100
AcDbSymbolTable
 70
     2
  0
VPORT
  5
5504
330
8
100
AcDbSymbolTableRecord
100
AcDbViewportTableRecord
  2
*Active
 70
     0
 10
0.0
 20
0.0
 11
1.0
 21
1.0
 12
293.657603896294
 22
357.8608484400879
 13
0.0
 23
0.0
 14
5.0
 24
5.0
 15
10.0
 25
10.0
 16
0.0
 26
0.0
 36
1.0
 17
0.0
 27
0.0
 37
0.0
 40
561.2869507457917
 41
2.08724832214765
 42
50.0
 43
0.0
 44
0.0
 50
0.0
 51
0.0
 71
     0
 72
   100
 73
     1
 74
     3
 75
     0
 76
     0
 77
     0
 78
     0
281
     0
 65
     1
110
0.0
120
0.0
130
0.0
111
1.0
121
0.0
131
0.0
112
0.0
122
1.0
132
0.0
 79
     0
146
0.0
  0
ENDTAB
  0
TABLE
  2
LTYPE
  5
5
330
0
100
AcDbSymbolTable
 70
     5
  0
LTYPE
  5
14
330
5
100
AcDbSymbolTableRecord
100
AcDbLinetypeTableRecord
  2
ByBlock
 70
     0
  3

 72
    65
 73
     0
 40
0.0
  0
LTYPE
  5
15
330
5
100
AcDbSymbolTableRecord
100
AcDbLinetypeTableRecord
  2
ByLayer
 70
     0
  3

 72
    65
 73
     0
 40
0.0
  0
LTYPE
  5
16
330
5
100
AcDbSymbolTableRecord
100
AcDbLinetypeTableRecord
  2
Continuous
 70
     0
  3
Solid line
 72
    65
 73
     0
 40
0.0
  0
LTYPE
  5
33
330
5
100
AcDbSymbolTableRecord
100
AcDbLinetypeTableRecord
  2
DASHED2
 70
     0
  3
Dashed (.5x) _ _ _ _ _ _ _ _ _ _ _ _ _ _ _ _ _
 72
    65
 73
     2
 40
9.524999999999998
 49
6.349999999999999
 74
     0
 49
-3.174999999999999
 74
     0
  0
LTYPE
  5
34
330
5
100
AcDbSymbolTableRecord
100
AcDbLinetypeTableRecord
  2
CENTER2
 70
     0
  3
Center (.5x) ___ _ ___ _ ___ _ ___ _ ___ _ ___
 72
    65
 73
     4
 40
28.57499999999999
 49
19.05
 74
     0
 49
-3.174999999999999
 74
     0
 49
3.174999999999999
 74
     0
 49
-3.174999999999999
 74
     0
  0
LTYPE
  5
35
330
5
100
AcDbSymbolTableRecord
100
AcDbLinetypeTableRecord
  2
PHANTOM2
 70
     0
  3
Phantom (.5x) ___ _ _ ___ _ _ ___ _ _ ___ _ _
 72
    65
 73
     6
 40
31.75
 49
15.875
 74
     0
 49
-3.174999999999999
 74
     0
 49
3.174999999999999
 74
     0
 49
-3.174999999999999
 74
     0
 49
3.174999999999999
 74
     0
 49
-3.174999999999999
 74
     0
  0
LTYPE
  5
36
330
5
100
AcDbSymbolTableRecord
100
AcDbLinetypeTableRecord
  2
HIDDEN2
 70
     0
  3
Hidden (.5x) _ _ _ _ _ _ _ _ _ _ _ _ _ _ _ _ _
 72
    65
 73
     2
 40
4.762499999999999
 49
3.174999999999999
 74
     0
 49
-1.587499999999999
 74
     0
  0
ENDTAB
  0
TABLE
  2
LAYER
  5
2
330
0
100
AcDbSymbolTable
 70
    13
  0
LAYER
  5
10
330
2
100
AcDbSymbolTableRecord
100
AcDbLayerTableRecord
  2
0
 70
     0
 62
     7
  6
Continuous
370
    -3
390
F
  0
LAYER
  5
40
330
2
100
AcDbSymbolTableRecord
100
AcDbLayerTableRecord
  2
50-0-CON
 70
     0
 62
     4
  6
Continuous
370
    50
390
F
  0
LAYER
  5
41
330
2
100
AcDbSymbolTableRecord
100
AcDbLayerTableRecord
  2
70-0-CON
 70
     0
 62
   202
  6
Continuous
370
    70
390
F
  0
LAYER
  5
4E
330
2
100
AcDbSymbolTableRecord
100
AcDbLayerTableRecord
  2
極太線
 70
     0
 62
     7
  6
Continuous
370
    70
390
F
  0
LAYER
  5
4F
330
2
100
AcDbSymbolTableRecord
100
AcDbLayerTableRecord
  2
細線
 70
     0
 62
     8
  6
Continuous
370
    18
390
F
  0
LAYER
  5
AB
330
2
100
AcDbSymbolTableRecord
100
AcDbLayerTableRecord
  2
構築線
 70
     0
 62
    -2
  6
Continuous
370
    18
390
F
  0
LAYER
  5
B8
330
2
100
AcDbSymbolTableRecord
100
AcDbLayerTableRecord
  2
太線
 70
     0
 62
     7
  6
Continuous
370
    35
390
F
  0
LAYER
  5
B9
330
2
100
AcDbSymbolTableRecord
100
AcDbLayerTableRecord
  2
寸法線
 70
     0
 62
     5
  6
Continuous
370
    18
390
F
  0
LAYER
  5
BA
330
2
100
AcDbSymbolTableRecord
100
AcDbLayerTableRecord
  2
破線
 70
     0
 62
     8
  6
HIDDEN2
370
    18
390
F
  0
LAYER
  5
BB
330
2
100
AcDbSymbolTableRecord
100
AcDbLayerTableRecord
  2
中心線
 70
     0
 62
     1
  6
CENTER2
370
    18
390
F
  0
LAYER
  5
BC
330
2
100
AcDbSymbolTableRecord
100
AcDbLayerTableRecord
  2
想像線
 70
     0
 62
     8
  6
PHANTOM2
370
    18
390
F
  0
LAYER
  5
BD
330
2
100
AcDbSymbolTableRecord
100
AcDbLayerTableRecord
  2
文字
 70
     0
 62
     7
  6
Continuous
370
    18
390
F
  0
LAYER
  5
180
330
2
100
AcDbSymbolTableRecord
100
AcDbLayerTableRecord
  2
Defpoints
 70
     0
 62
     7
  6
Continuous
290
     0
370
    -3
390
F
  0
ENDTAB
  0
TABLE
  2
STYLE
  5
3
330
0
100
AcDbSymbolTable
 70
     3
  0
STYLE
  5
11
330
3
100
AcDbSymbolTableRecord
100
AcDbTextStyleTableRecord
  2
Standard
 70
     0
 40
0.0
 41
1.0
 50
0.0
 71
     0
 42
3.0
  3
txt
  4

  0
STYLE
  5
32
330
3
100
AcDbSymbolTableRecord
100
AcDbTextStyleTableRecord
  2

 70
     1
 40
0.0
 41
1.0
 50
0.0
 71
     0
 42
2.5
  3
ltypeshp.shx
  4

  0
STYLE
  5
50
330
3
100
AcDbSymbolTableRecord
100
AcDbTextStyleTableRecord
  2
OKANO
 70
     0
 40
0.0
 41
1.0
 50
15.0
 71
     0
 42
5.0
  3
isocp.shx
  4
bigfont.shx
  0
ENDTAB
  0
TABLE
  2
VIEW
  5
6
330
0
100
AcDbSymbolTable
 70
     0
  0
ENDTAB
  0
TABLE
  2
UCS
  5
7
330
0
100
AcDbSymbolTable
 70
     0
  0
ENDTAB
  0
TABLE
  2
APPID
  5
9
330
0
100
AcDbSymbolTable
 70
     1
  0
APPID
  5
12
330
9
100
AcDbSymbolTableRecord
100
AcDbRegAppTableRecord
  2
ACAD
 70
     0
  0
ENDTAB
  0
TABLE
  2
DIMSTYLE
  5
A
330
0
100
AcDbSymbolTable
 70
     2
100
AcDbDimStyleTable
 71
     2
340
A2
340
27
  0
DIMSTYLE
105
27
330
A
100
AcDbSymbolTableRecord
100
AcDbDimStyleTableRecord
  2
ISO-25
 70
     0
 41
2.5
 42
0.625
 43
3.75
 44
1.25
 73
     0
 74
     0
 77
     1
 78
     8
140
2.5
141
2.5
143
0.03937007874016
147
0.625
171
     3
172
     1
271
     2
272
     2
274
     3
283
     0
284
     8
340
11
  0
DIMSTYLE
105
A2
102
{ACAD_REACTORS
330
4A37
330
4A46
330
4A68
330
4A7E
330
4A8B
330
4A99
330
4D8A
330
4D8B
330
4D93
330
4E4A
330
4E4B
330
4E4C
330
4E4D
330
4E52
330
4E5F
330
4E60
330
4FF7
330
4FF8
330
4FF9
330
4FFA
330
5007
330
5008
330
5009
330
500A
330
5127
330
5126
330
5125
330
5124
330
5123
330
5122
330
511F
330
511E
330
5116
330
510A
330
5109
330
5108
330
5107
330
5102
330
50F5
330
50F4
330
5344
330
5345
330
5350
330
5351
330
5352
330
5357
330
5358
330
5359
330
535B
330
536B
330
536C
330
54E9
102
}
330
A
100
AcDbSymbolTableRecord
100
AcDbDimStyleTableRecord
  2
sunpo
 70
     0
 40
0.0
 41
3.0
 42
2.0
 43
8.0
 44
3.0
 73
     0
 74
     0
 77
     1
 78
     8
140
5.0
141
2.5
143
0.03937007874016
147
1.0
171
     3
172
     1
271
     2
272
     2
274
     3
283
     0
284
     8
340
50
341
9B
342
9B
  0
ENDTAB
  0
TABLE
  2
BLOCK_RECORD
  5
1
330
0
100
AcDbSymbolTable
 70
    73
  0
BLOCK_RECORD
  5
1F
330
1
100
AcDbSymbolTableRecord
100
AcDbBlockTableRecord
  2
*Model_Space
340
22
  0
BLOCK_RECORD
  5
1B
330
1
100
AcDbSymbolTableRecord
100
AcDbBlockTableRecord
  2
*Paper_Space
340
1E
  0
BLOCK_RECORD
  5
9B
330
1
100
AcDbSymbolTableRecord
100
AcDbBlockTableRecord
  2
_Closed
340
0
102
{BLKREFS
331
4D11
331
4D12
331
4D1A
331
4D1B
331
4D23
331
4D24
331
4D2C
331
4D2D
331
4D35
331
4D36
331
4D40
331
4D41
331
4EF8
331
4EF9
331
4F01
331
4F02
331
4F0A
331
4F0B
331
4F13
331
4F14
331
4F1C
331
4F1D
331
4F25
331
4F26
331
4F2E
331
4F34
331
4F35
331
4F3D
331
4F3E
331
4F46
331
4F47
331
4F5E
331
4F5F
331
4F6A
331
4F6B
331
4F76
331
4F77
331
4F82
331
4F83
331
4F8E
331
4F8F
331
4F9A
331
4F9B
331
4FA6
331
4FA7
331
4FB1
331
5205
331
5206
331
520E
331
520F
331
5217
331
5218
331
5220
331
5221
331
5229
331
522A
331
5232
331
5233
331
523B
331
523C
331
5244
331
5245
331
524D
331
524E
331
5256
331
5257
331
525F
331
5260
331
5268
331
526E
331
526F
331
5277
331
5278
331
5280
331
5281
331
5302
331
52F6
331
52F7
331
52C6
331
52C7
331
52D2
331
52D3
331
52DE
331
52DF
331
52EA
331
52EB
331
52A2
331
52A3
331
52AE
331
52AF
331
52BA
331
52BB
331
5296
331
5297
331
528A
331
528B
331
5401
331
5407
331
5408
331
5410
331
5411
331
5419
331
541A
331
5422
331
5423
331
542B
331
542C
331
5434
331
5435
331
543D
331
543E
331
5446
331
5447
331
5460
331
5466
331
5467
331
546F
331
5470
331
5478
331
5479
331
5481
331
5482
331
548A
331
548B
331
5493
331
5494
331
549C
331
549D
331
54A7
331
54A8
331
54BD
331
54BE
331
54C6
331
54C7
331
54E3
331
54E4
331
54F0
331
54F1
331
54FD
331
54FE
102
}
  0
BLOCK_RECORD
  5
1510
330
1
100
AcDbSymbolTableRecord
100
AcDbBlockTableRecord
  2
A$C10A573AC
340
0
  0
BLOCK_RECORD
  5
4A38
330
1
100
AcDbSymbolTableRecord
100
AcDbBlockTableRecord
  2
*D2
340
0
  0
BLOCK_RECORD
  5
4A47
330
1
100
AcDbSymbolTableRecord
100
AcDbBlockTableRecord
  2
*D3
340
0
  0
BLOCK_RECORD
  5
4A69
330
1
100
AcDbSymbolTableRecord
100
AcDbBlockTableRecord
  2
*D4
340
0
  0
BLOCK_RECORD
  5
4A7F
330
1
100
AcDbSymbolTableRecord
100
AcDbBlockTableRecord
  2
*D5
340
0
  0
BLOCK_RECORD
  5
4A8C
330
1
100
AcDbSymbolTableRecord
100
AcDbBlockTableRecord
  2
*D6
340
0
  0
BLOCK_RECORD
  5
4A9A
330
1
100
AcDbSymbolTableRecord
100
AcDbBlockTableRecord
  2
*D7
340
0
  0
BLOCK_RECORD
  5
4D9F
330
1
100
AcDbSymbolTableRecord
100
AcDbBlockTableRecord
  2
*D8
340
0
  0
BLOCK_RECORD
  5
4DAB
330
1
100
AcDbSymbolTableRecord
100
AcDbBlockTableRecord
  2
*D9
340
0
  0
BLOCK_RECORD
  5
4DB7
330
1
100
AcDbSymbolTableRecord
100
AcDbBlockTableRecord
  2
*D10
340
0
  0
BLOCK_RECORD
  5
4E61
330
1
100
AcDbSymbolTableRecord
100
AcDbBlockTableRecord
  2
*D11
340
0
  0
BLOCK_RECORD
  5
4E6D
330
1
100
AcDbSymbolTableRecord
100
AcDbBlockTableRecord
  2
*D12
340
0
  0
BLOCK_RECORD
  5
4E79
330
1
100
AcDbSymbolTableRecord
100
AcDbBlockTableRecord
  2
*D13
340
0
  0
BLOCK_RECORD
  5
4E85
330
1
100
AcDbSymbolTableRecord
100
AcDbBlockTableRecord
  2
*D14
340
0
  0
BLOCK_RECORD
  5
4E8E
330
1
100
AcDbSymbolTableRecord
100
AcDbBlockTableRecord
  2
*D15
340
0
  0
BLOCK_RECORD
  5
4E9A
330
1
100
AcDbSymbolTableRecord
100
AcDbBlockTableRecord
  2
*D16
340
0
  0
BLOCK_RECORD
  5
4EA6
330
1
100
AcDbSymbolTableRecord
100
AcDbBlockTableRecord
  2
*D17
340
0
  0
BLOCK_RECORD
  5
500C
330
1
100
AcDbSymbolTableRecord
100
AcDbBlockTableRecord
  2
*D26
340
0
  0
BLOCK_RECORD
  5
5018
330
1
100
AcDbSymbolTableRecord
100
AcDbBlockTableRecord
  2
*D27
340
0
  0
BLOCK_RECORD
  5
5024
330
1
100
AcDbSymbolTableRecord
100
AcDbBlockTableRecord
  2
*D28
340
0
  0
BLOCK_RECORD
  5
5030
330
1
100
AcDbSymbolTableRecord
100
AcDbBlockTableRecord
  2
*D29
340
0
  0
BLOCK_RECORD
  5
503C
330
1
100
AcDbSymbolTableRecord
100
AcDbBlockTableRecord
  2
*D30
340
0
  0
BLOCK_RECORD
  5
5048
330
1
100
AcDbSymbolTableRecord
100
AcDbBlockTableRecord
  2
*D31
340
0
  0
BLOCK_RECORD
  5
5054
330
1
100
AcDbSymbolTableRecord
100
AcDbBlockTableRecord
  2
*D32
340
0
  0
BLOCK_RECORD
  5
5060
330
1
100
AcDbSymbolTableRecord
100
AcDbBlockTableRecord
  2
*D33
340
0
  0
BLOCK_RECORD
  5
5138
330
1
100
AcDbSymbolTableRecord
100
AcDbBlockTableRecord
  2
*D34
340
0
  0
BLOCK_RECORD
  5
5146
330
1
100
AcDbSymbolTableRecord
100
AcDbBlockTableRecord
  2
*D35
340
0
  0
BLOCK_RECORD
  5
5152
330
1
100
AcDbSymbolTableRecord
100
AcDbBlockTableRecord
  2
*D36
340
0
  0
BLOCK_RECORD
  5
515E
330
1
100
AcDbSymbolTableRecord
100
AcDbBlockTableRecord
  2
*D37
340
0
  0
BLOCK_RECORD
  5
516A
330
1
100
AcDbSymbolTableRecord
100
AcDbBlockTableRecord
  2
*D38
340
0
  0
BLOCK_RECORD
  5
5176
330
1
100
AcDbSymbolTableRecord
100
AcDbBlockTableRecord
  2
*D39
340
0
  0
BLOCK_RECORD
  5
5182
330
1
100
AcDbSymbolTableRecord
100
AcDbBlockTableRecord
  2
*D40
340
0
  0
BLOCK_RECORD
  5
518E
330
1
100
AcDbSymbolTableRecord
100
AcDbBlockTableRecord
  2
*D41
340
0
  0
BLOCK_RECORD
  5
519A
330
1
100
AcDbSymbolTableRecord
100
AcDbBlockTableRecord
  2
*D42
340
0
  0
BLOCK_RECORD
  5
51A6
330
1
100
AcDbSymbolTableRecord
100
AcDbBlockTableRecord
  2
*D43
340
0
  0
BLOCK_RECORD
  5
51B2
330
1
100
AcDbSymbolTableRecord
100
AcDbBlockTableRecord
  2
*D44
340
0
  0
BLOCK_RECORD
  5
51BE
330
1
100
AcDbSymbolTableRecord
100
AcDbBlockTableRecord
  2
*D45
340
0
  0
BLOCK_RECORD
  5
51CA
330
1
100
AcDbSymbolTableRecord
100
AcDbBlockTableRecord
  2
*D46
340
0
  0
BLOCK_RECORD
  5
51D3
330
1
100
AcDbSymbolTableRecord
100
AcDbBlockTableRecord
  2
*D47
340
0
  0
BLOCK_RECORD
  5
51DF
330
1
100
AcDbSymbolTableRecord
100
AcDbBlockTableRecord
  2
*D48
340
0
  0
BLOCK_RECORD
  5
51EB
330
1
100
AcDbSymbolTableRecord
100
AcDbBlockTableRecord
  2
*D49
340
0
  0
BLOCK_RECORD
  5
537D
330
1
100
AcDbSymbolTableRecord
100
AcDbBlockTableRecord
  2
*D61
340
0
  0
BLOCK_RECORD
  5
5386
330
1
100
AcDbSymbolTableRecord
100
AcDbBlockTableRecord
  2
*D62
340
0
  0
BLOCK_RECORD
  5
5392
330
1
100
AcDbSymbolTableRecord
100
AcDbBlockTableRecord
  2
*D63
340
0
  0
BLOCK_RECORD
  5
539E
330
1
100
AcDbSymbolTableRecord
100
AcDbBlockTableRecord
  2
*D64
340
0
  0
BLOCK_RECORD
  5
53AA
330
1
100
AcDbSymbolTableRecord
100
AcDbBlockTableRecord
  2
*D65
340
0
  0
BLOCK_RECORD
  5
53B6
330
1
100
AcDbSymbolTableRecord
100
AcDbBlockTableRecord
  2
*D66
340
0
  0
BLOCK_RECORD
  5
53C2
330
1
100
AcDbSymbolTableRecord
100
AcDbBlockTableRecord
  2
*D67
340
0
  0
BLOCK_RECORD
  5
53CE
330
1
100
AcDbSymbolTableRecord
100
AcDbBlockTableRecord
  2
*D68
340
0
  0
BLOCK_RECORD
  5
53DA
330
1
100
AcDbSymbolTableRecord
100
AcDbBlockTableRecord
  2
*D69
340
0
  0
BLOCK_RECORD
  5
53E6
330
1
100
AcDbSymbolTableRecord
100
AcDbBlockTableRecord
  2
*D70
340
0
  0
BLOCK_RECORD
  5
53F2
330
1
100
AcDbSymbolTableRecord
100
AcDbBlockTableRecord
  2
*D71
340
0
  0
BLOCK_RECORD
  5
54EA
330
1
100
AcDbSymbolTableRecord
100
AcDbBlockTableRecord
  2
*D72
340
0
  0
ENDTAB
  0
ENDSEC
  0
SECTION
  2
BLOCKS
  0
BLOCK
  5
20
330
1F
100
AcDbEntity
  8
0
100
AcDbBlockBegin
  2
*Model_Space
 70
     0
 10
0.0
 20
0.0
 30
0.0
  3
*Model_Space
  1

  0
ENDBLK
  5
21
330
1F
100
AcDbEntity
  8
0
100
AcDbBlockEnd
  0
BLOCK
  5
1C
330
1B
100
AcDbEntity
 67
     1
  8
0
100
AcDbBlockBegin
  2
*Paper_Space
 70
     0
 10
0.0
 20
0.0
 30
0.0
  3
*Paper_Space
  1

  0
ENDBLK
  5
1D
330
1B
100
AcDbEntity
 67
     1
  8
0
100
AcDbBlockEnd
  0
BLOCK
  5
A0
330
9B
100
AcDbEntity
  8
0
100
AcDbBlockBegin
  2
_Closed
 70
     0
 10
0.0
 20
0.0
 30
0.0
  3
_Closed
  1

  0
LINE
  5
9C
330
9B
100
AcDbEntity
  8
0
 62
     0
370
    -2
100
AcDbLine
 10
-1.0
 20
0.1666666666666666
 30
0.0
 11
0.0
 21
0.0
 31
0.0
  0
LINE
  5
9D
330
9B
100
AcDbEntity
  8
0
 62
     0
370
    -2
100
AcDbLine
 10
0.0
 20
0.0
 30
0.0
 11
-1.0
 21
-0.1666666666666666
 31
0.0
  0
LINE
  5
9E
330
9B
100
AcDbEntity
  8
0
 62
     0
370
    -2
100
AcDbLine
 10
-1.0
 20
0.1666666666666666
 30
0.0
 11
-1.0
 21
-0.1666666666666666
 31
0.0
  0
LINE
  5
9F
330
9B
100
AcDbEntity
  8
0
 62
     0
370
    -2
100
AcDbLine
 10
0.0
 20
0.0
 30
0.0
 11
-1.0
 21
0.0
 31
0.0
  0
ENDBLK
  5
A1
330
9B
100
AcDbEntity
  8
0
100
AcDbBlockEnd
  0
BLOCK
  5
155B
330
1510
100
AcDbEntity
  8
0
100
AcDbBlockBegin
  2
A$C10A573AC
 70
     0
 10
0.0
 20
0.0
 30
0.0
  3
A$C10A573AC
  1

  0
TEXT
  5
1511
330
1510
100
AcDbEntity
  8
文字
100
AcDbText
 10
0.9844302777919438
 20
5.224957122252135
 30
0.0
 40
3.0
  1
Materal : Steel.
 51
15.0
  7
OKANO
100
AcDbText
  0
TEXT
  5
1512
330
1510
100
AcDbEntity
  8
文字
100
AcDbText
 10
-0.1141909619694843
 20
0.7500001922403499
 30
0.0
 40
3.0
  1
Surface treatment : Electro galvanized.
 51
15.0
  7
OKANO
100
AcDbText
  0
TEXT
  5
1513
330
1510
100
AcDbEntity
  8
文字
100
AcDbText
 10
-0.4901926332574931
 20
9.159967445193728
 30
0.0
 40
3.0
  1
5 TORGUE SCREW  M5-6
 51
15.0
  7
OKANO
100
AcDbText
  0
TEXT
  5
1514
330
1510
100
AcDbEntity
  8
文字
100
AcDbText
 10
1.364713526390005
 20
78.88822913323082
 30
0.0
 40
3.0
  1
Special standard,
 51
15.0
  7
OKANO
100
AcDbText
  0
TEXT
  5
1515
330
1510
100
AcDbEntity
  8
文字
100
AcDbText
 10
92.88160823408942
 20
89.92753849837379
 30
0.0
 40
3.0
  1
Screw Type
 51
15.0
  7
OKANO
100
AcDbText
  0
LINE
  5
1516
330
1510
100
AcDbEntity
  8
太線
100
AcDbLine
 10
113.9464587597784
 20
81.93930390144641
 30
0.0
 11
112.4464587597784
 21
81.93930390144641
 31
0.0
  0
LINE
  5
1517
330
1510
100
AcDbEntity
  8
太線
100
AcDbLine
 10
112.4464587597784
 20
76.9393039014464
 30
0.0
 11
121.4644995438761
 21
76.9393039014464
 31
0.0
  0
TEXT
  5
1518
330
1510
100
AcDbEntity
  8
文字
100
AcDbText
 10
93.46068240437217
 20
77.96976862235396
 30
0.0
 40
2.0
  1
17-30
 51
15.0
  7
OKANO
100
AcDbText
  0
LINE
  5
1519
330
1510
100
AcDbEntity
  8
太線
100
AcDbLine
 10
111.9464587597784
 20
81.43930390144641
 30
0.0
 11
111.9464587597784
 21
77.4393039014464
 31
0.0
  0
LINE
  5
151A
330
1510
100
AcDbEntity
  8
太線
100
AcDbLine
 10
91.94645875977846
 20
81.43930390144641
 30
0.0
 11
91.94645875977846
 21
77.43930390144639
 31
0.0
  0
LINE
  5
151B
330
1510
100
AcDbEntity
  8
太線
100
AcDbLine
 10
101.9644995438761
 20
77.4393039014464
 30
0.0
 11
101.9644995438761
 21
81.43930390144641
 31
0.0
  0
LINE
  5
151C
330
1510
100
AcDbEntity
  8
太線
100
AcDbLine
 10
92.44645875977846
 20
76.9393039014464
 30
0.0
 11
101.4644995438761
 21
76.9393039014464
 31
0.0
  0
ARC
  5
151D
330
1510
100
AcDbEntity
  8
太線
100
AcDbCircle
 10
92.44645875977846
 20
77.43930390144639
 30
0.0
 40
0.5
100
AcDbArc
 50
180.0
 51
270.0
  0
ARC
  5
151E
330
1510
100
AcDbEntity
  8
太線
100
AcDbCircle
 10
101.4644995438761
 20
77.4393039014464
 30
0.0
 40
0.5
100
AcDbArc
 50
270.0
 51
0.0
  0
ARC
  5
151F
330
1510
100
AcDbEntity
  8
太線
100
AcDbCircle
 10
112.4464587597784
 20
77.4393039014464
 30
0.0
 40
0.5
100
AcDbArc
 50
180.0
 51
270.0
  0
LINE
  5
1520
330
1510
100
AcDbEntity
  8
想像線
100
AcDbLine
 10
93.94645875977847
 20
81.93930390144641
 30
0.0
 11
99.96449954387617
 21
81.93930390144641
 31
0.0
  0
LINE
  5
1521
330
1510
100
AcDbEntity
  8
極太線
100
AcDbLine
 10
96.38762957111168
 20
85.43930390144641
 30
0.0
 11
97.50528794844525
 21
85.43930390144641
 31
0.0
  0
CIRCLE
  5
1522
330
1510
100
AcDbEntity
  8
太線
100
AcDbCircle
 10
96.94645875977847
 20
85.43930390144641
 30
0.0
 40
0.5588291886667776
  0
LINE
  5
1523
330
1510
100
AcDbEntity
  8
太線
100
AcDbLine
 10
99.46449954387617
 20
86.93930390144641
 30
0.0
 11
94.44645875977846
 21
86.93930390144641
 31
0.0
  0
LINE
  5
1524
330
1510
100
AcDbEntity
  8
太線
100
AcDbLine
 10
93.94645875977847
 20
86.43930390144641
 30
0.0
 11
93.94645875977847
 21
81.93930390144641
 31
0.0
  0
ARC
  5
1525
330
1510
100
AcDbEntity
  8
太線
100
AcDbCircle
 10
92.44645875977846
 20
81.43930390144641
 30
0.0
 40
0.5
100
AcDbArc
 50
90.0
 51
180.0
  0
LINE
  5
1526
330
1510
100
AcDbEntity
  8
太線
100
AcDbLine
 10
93.94645875977847
 20
81.93930390144641
 30
0.0
 11
92.44645875977846
 21
81.93930390144641
 31
0.0
  0
ARC
  5
1527
330
1510
100
AcDbEntity
  8
太線
100
AcDbCircle
 10
94.44645875977846
 20
86.43930390144641
 30
0.0
 40
0.5
100
AcDbArc
 50
90.0
 51
180.0
  0
LINE
  5
1528
330
1510
100
AcDbEntity
  8
太線
100
AcDbLine
 10
99.96449954387617
 20
81.93930390144641
 30
0.0
 11
99.96449954387617
 21
86.43930390144641
 31
0.0
  0
LINE
  5
1529
330
1510
100
AcDbEntity
  8
太線
100
AcDbLine
 10
101.4644995438761
 20
81.93930390144641
 30
0.0
 11
99.96449954387617
 21
81.93930390144641
 31
0.0
  0
ARC
  5
152A
330
1510
100
AcDbEntity
  8
太線
100
AcDbCircle
 10
101.4644995438761
 20
81.43930390144641
 30
0.0
 40
0.5
100
AcDbArc
 50
0.0
 51
90.0
  0
ARC
  5
152B
330
1510
100
AcDbEntity
  8
太線
100
AcDbCircle
 10
99.46449954387617
 20
86.43930390144641
 30
0.0
 40
0.5
100
AcDbArc
 50
0.0
 51
90.0
  0
LINE
  5
152C
330
1510
100
AcDbEntity
  8
極太線
100
AcDbLine
 10
96.94645875977847
 20
85.99813309011318
 30
0.0
 11
96.94645875977847
 21
84.88047471277964
 31
0.0
  0
ARC
  5
152D
330
1510
100
AcDbEntity
  8
太線
100
AcDbCircle
 10
112.4464587597784
 20
81.43930390144641
 30
0.0
 40
0.5
100
AcDbArc
 50
90.0
 51
180.0
  0
TEXT
  5
152E
330
1510
100
AcDbEntity
  8
文字
100
AcDbText
 10
134.3819212586066
 20
78.16263579228063
 30
0.0
 40
2.0
  1
101
 51
15.0
  7
OKANO
100
AcDbText
  0
TEXT
  5
152F
330
1510
100
AcDbEntity
  8
文字
100
AcDbText
 10
113.3422276612066
 20
77.96976862235396
 30
0.0
 40
2.0
  1
38-83
 51
15.0
  7
OKANO
100
AcDbText
  0
LINE
  5
1530
330
1510
100
AcDbEntity
  8
太線
100
AcDbLine
 10
141.9825403279738
 20
77.4393039014464
 30
0.0
 11
141.9825403279738
 21
81.43930390144641
 31
0.0
  0
LINE
  5
1531
330
1510
100
AcDbEntity
  8
太線
100
AcDbLine
 10
131.9644995438761
 20
81.43930390144641
 30
0.0
 11
131.9644995438761
 21
77.4393039014464
 31
0.0
  0
LINE
  5
1532
330
1510
100
AcDbEntity
  8
太線
100
AcDbLine
 10
121.9644995438761
 20
77.4393039014464
 30
0.0
 11
121.9644995438761
 21
81.43930390144641
 31
0.0
  0
ARC
  5
1533
330
1510
100
AcDbEntity
  8
太線
100
AcDbCircle
 10
121.4644995438761
 20
77.4393039014464
 30
0.0
 40
0.5
100
AcDbArc
 50
270.0
 51
0.0
  0
LINE
  5
1534
330
1510
100
AcDbEntity
  8
太線
100
AcDbLine
 10
132.4644995438761
 20
76.9393039014464
 30
0.0
 11
141.4825403279738
 21
76.9393039014464
 31
0.0
  0
ARC
  5
1535
330
1510
100
AcDbEntity
  8
太線
100
AcDbCircle
 10
132.4644995438761
 20
77.4393039014464
 30
0.0
 40
0.5
100
AcDbArc
 50
180.0
 51
270.0
  0
ARC
  5
1536
330
1510
100
AcDbEntity
  8
太線
100
AcDbCircle
 10
141.4825403279738
 20
77.4393039014464
 30
0.0
 40
0.5
100
AcDbArc
 50
270.0
 51
0.0
  0
ARC
  5
1537
330
1510
100
AcDbEntity
  8
太線
100
AcDbCircle
 10
121.4644995438761
 20
81.43930390144641
 30
0.0
 40
0.5
100
AcDbArc
 50
0.0
 51
90.0
  0
LINE
  5
1538
330
1510
100
AcDbEntity
  8
太線
100
AcDbLine
 10
119.9644995438761
 20
81.93930390144641
 30
0.0
 11
119.9644995438761
 21
86.43930390144641
 31
0.0
  0
LINE
  5
1539
330
1510
100
AcDbEntity
  8
太線
100
AcDbLine
 10
113.9464587597784
 20
86.43930390144641
 30
0.0
 11
113.9464587597784
 21
81.93930390144641
 31
0.0
  0
LINE
  5
153A
330
1510
100
AcDbEntity
  8
想像線
100
AcDbLine
 10
113.9464587597784
 20
81.93930390144641
 30
0.0
 11
119.9644995438761
 21
81.93930390144641
 31
0.0
  0
LINE
  5
153B
330
1510
100
AcDbEntity
  8
太線
100
AcDbLine
 10
121.4644995438761
 20
81.93930390144641
 30
0.0
 11
119.9644995438761
 21
81.93930390144641
 31
0.0
  0
LINE
  5
153C
330
1510
100
AcDbEntity
  8
太線
100
AcDbLine
 10
119.4644995438761
 20
86.93930390144641
 30
0.0
 11
114.4464587597784
 21
86.93930390144641
 31
0.0
  0
ARC
  5
153D
330
1510
100
AcDbEntity
  8
太線
100
AcDbCircle
 10
114.4464587597784
 20
86.43930390144641
 30
0.0
 40
0.5
100
AcDbArc
 50
90.0
 51
180.0
  0
CIRCLE
  5
153E
330
1510
100
AcDbEntity
  8
太線
100
AcDbCircle
 10
115.4464587597784
 20
85.43930390144641
 30
0.0
 40
0.5588291886667776
  0
LINE
  5
153F
330
1510
100
AcDbEntity
  8
極太線
100
AcDbLine
 10
115.4464587597784
 20
85.99813309011318
 30
0.0
 11
115.4464587597784
 21
84.88047471277964
 31
0.0
  0
LINE
  5
1540
330
1510
100
AcDbEntity
  8
極太線
100
AcDbLine
 10
114.8876295711116
 20
85.43930390144641
 30
0.0
 11
116.0052879484452
 21
85.43930390144641
 31
0.0
  0
ARC
  5
1541
330
1510
100
AcDbEntity
  8
太線
100
AcDbCircle
 10
119.4644995438761
 20
86.43930390144641
 30
0.0
 40
0.5
100
AcDbArc
 50
0.0
 51
90.0
  0
LINE
  5
1542
330
1510
100
AcDbEntity
  8
極太線
100
AcDbLine
 10
117.9056703552094
 20
85.43930390144641
 30
0.0
 11
119.0233287325429
 21
85.43930390144641
 31
0.0
  0
LINE
  5
1543
330
1510
100
AcDbEntity
  8
極太線
100
AcDbLine
 10
118.4644995438761
 20
85.99813309011318
 30
0.0
 11
118.4644995438761
 21
84.88047471277964
 31
0.0
  0
CIRCLE
  5
1544
330
1510
100
AcDbEntity
  8
太線
100
AcDbCircle
 10
118.4644995438761
 20
85.43930390144641
 30
0.0
 40
0.5588291886667776
  0
LINE
  5
1545
330
1510
100
AcDbEntity
  8
想像線
100
AcDbLine
 10
133.9644995438761
 20
81.93930390144641
 30
0.0
 11
139.9825403279738
 21
81.93930390144641
 31
0.0
  0
LINE
  5
1546
330
1510
100
AcDbEntity
  8
極太線
100
AcDbLine
 10
137.9237111393071
 20
85.43930390144641
 30
0.0
 11
139.0413695166406
 21
85.43930390144641
 31
0.0
  0
CIRCLE
  5
1547
330
1510
100
AcDbEntity
  8
太線
100
AcDbCircle
 10
138.4825403279738
 20
85.43930390144641
 30
0.0
 40
0.5588291886667776
  0
CIRCLE
  5
1548
330
1510
100
AcDbEntity
  8
太線
100
AcDbCircle
 10
138.4825403279738
 20
83.26342923362075
 30
0.0
 40
0.5588291886667776
  0
LINE
  5
1549
330
1510
100
AcDbEntity
  8
極太線
100
AcDbLine
 10
137.9237111393071
 20
83.26342923362075
 30
0.0
 11
139.0413695166406
 21
83.26342923362075
 31
0.0
  0
LINE
  5
154A
330
1510
100
AcDbEntity
  8
太線
100
AcDbLine
 10
139.4825403279738
 20
86.93930390144641
 30
0.0
 11
134.4644995438761
 21
86.93930390144641
 31
0.0
  0
LINE
  5
154B
330
1510
100
AcDbEntity
  8
太線
100
AcDbLine
 10
133.9644995438761
 20
86.43930390144641
 30
0.0
 11
133.9644995438761
 21
81.93930390144641
 31
0.0
  0
ARC
  5
154C
330
1510
100
AcDbEntity
  8
太線
100
AcDbCircle
 10
132.4644995438761
 20
81.43930390144641
 30
0.0
 40
0.5
100
AcDbArc
 50
90.0
 51
180.0
  0
LINE
  5
154D
330
1510
100
AcDbEntity
  8
太線
100
AcDbLine
 10
133.9644995438761
 20
81.93930390144641
 30
0.0
 11
132.4644995438761
 21
81.93930390144641
 31
0.0
  0
LINE
  5
154E
330
1510
100
AcDbEntity
  8
極太線
100
AcDbLine
 10
134.9056703552093
 20
83.26342923362075
 30
0.0
 11
136.0233287325429
 21
83.26342923362075
 31
0.0
  0
LINE
  5
154F
330
1510
100
AcDbEntity
  8
極太線
100
AcDbLine
 10
135.4644995438761
 20
83.82225842228752
 30
0.0
 11
135.4644995438761
 21
82.70460004495395
 31
0.0
  0
CIRCLE
  5
1550
330
1510
100
AcDbEntity
  8
太線
100
AcDbCircle
 10
135.4644995438761
 20
83.26342923362075
 30
0.0
 40
0.5588291886667776
  0
ARC
  5
1551
330
1510
100
AcDbEntity
  8
太線
100
AcDbCircle
 10
134.4644995438761
 20
86.43930390144641
 30
0.0
 40
0.5
100
AcDbArc
 50
90.0
 51
180.0
  0
CIRCLE
  5
1552
330
1510
100
AcDbEntity
  8
太線
100
AcDbCircle
 10
135.4644995438761
 20
85.43930390144641
 30
0.0
 40
0.5588291886667776
  0
LINE
  5
1553
330
1510
100
AcDbEntity
  8
極太線
100
AcDbLine
 10
135.4644995438761
 20
85.99813309011318
 30
0.0
 11
135.4644995438761
 21
84.88047471277964
 31
0.0
  0
LINE
  5
1554
330
1510
100
AcDbEntity
  8
極太線
100
AcDbLine
 10
134.9056703552093
 20
85.43930390144641
 30
0.0
 11
136.0233287325429
 21
85.43930390144641
 31
0.0
  0
LINE
  5
1555
330
1510
100
AcDbEntity
  8
太線
100
AcDbLine
 10
139.9825403279738
 20
81.93930390144641
 30
0.0
 11
139.9825403279738
 21
86.43930390144641
 31
0.0
  0
ARC
  5
1556
330
1510
100
AcDbEntity
  8
太線
100
AcDbCircle
 10
141.4825403279738
 20
81.43930390144641
 30
0.0
 40
0.5
100
AcDbArc
 50
0.0
 51
90.0
  0
LINE
  5
1557
330
1510
100
AcDbEntity
  8
極太線
100
AcDbLine
 10
138.4825403279738
 20
83.82225842228752
 30
0.0
 11
138.4825403279738
 21
82.70460004495395
 31
0.0
  0
LINE
  5
1558
330
1510
100
AcDbEntity
  8
太線
100
AcDbLine
 10
141.4825403279738
 20
81.93930390144641
 30
0.0
 11
139.9825403279738
 21
81.93930390144641
 31
0.0
  0
ARC
  5
1559
330
1510
100
AcDbEntity
  8
太線
100
AcDbCircle
 10
139.4825403279738
 20
86.43930390144641
 30
0.0
 40
0.5
100
AcDbArc
 50
0.0
 51
90.0
  0
LINE
  5
155A
330
1510
100
AcDbEntity
  8
極太線
100
AcDbLine
 10
138.4825403279738
 20
85.99813309011318
 30
0.0
 11
138.4825403279738
 21
84.88047471277964
 31
0.0
  0
ENDBLK
  5
155C
330
1510
100
AcDbEntity
  8
0
100
AcDbBlockEnd
  0
BLOCK
  5
4A44
330
4A38
100
AcDbEntity
  8
0
100
AcDbBlockBegin
  2
*D2
 70
     1
 10
0.0
 20
0.0
 30
0.0
  3
*D2
  1

  0
LINE
  5
4D3B
330
4A38
100
AcDbEntity
  8
寸法線
 62
     0
370
    -2
100
AcDbLine
 10
410.9269513924338
 20
206.9286019338853
 30
0.0
 11
434.4955710108679
 21
206.9286019338853
 31
0.0
  0
LINE
  5
4D3C
330
4A38
100
AcDbEntity
  8
寸法線
 62
     0
370
    -2
100
AcDbLine
 10
410.9269513924338
 20
210.4286019338853
 30
0.0
 11
434.4955710108679
 21
210.4286019338853
 31
0.0
  0
LINE
  5
4D3D
330
4A38
100
AcDbEntity
  8
寸法線
 62
     0
370
    -2
100
AcDbLine
 10
431.4955710108679
 20
203.9286019338853
 30
0.0
 11
431.4955710108679
 21
200.9286019338853
 31
0.0
  0
LINE
  5
4D3E
330
4A38
100
AcDbEntity
  8
寸法線
 62
     0
370
    -2
100
AcDbLine
 10
431.4955710108679
 20
213.4286019338853
 30
0.0
 11
431.4955710108679
 21
221.6343732998254
 31
0.0
  0
LINE
  5
4D3F
330
4A38
100
AcDbEntity
  8
寸法線
 62
     0
370
    -2
100
AcDbLine
 10
431.4955710108679
 20
206.9286019338853
 30
0.0
 11
431.4955710108679
 21
210.4286019338853
 31
0.0
  0
INSERT
  5
4D40
330
4A38
100
AcDbEntity
  8
寸法線
 62
     0
370
    -2
100
AcDbBlockReference
  2
_Closed
 10
431.4955710108679
 20
206.9286019338853
 30
0.0
 41
3.0
 42
3.0
 43
3.0
 50
90.0
  0
INSERT
  5
4D41
330
4A38
100
AcDbEntity
  8
寸法線
 62
     0
370
    -2
100
AcDbBlockReference
  2
_Closed
 10
431.4955710108679
 20
210.4286019338853
 30
0.0
 41
3.0
 42
3.0
 43
3.0
 50
270.0
  0
MTEXT
  5
4D42
330
4A38
100
AcDbEntity
  8
寸法線
 62
     0
100
AcDbMText
 10
427.9955710108678
 20
219.0314876168554
 30
0.0
 40
5.0
 41
0.0
 71
     5
 72
     1
  1
3
  7
OKANO
 11
0.0000000000000001
 21
1.0
 31
0.0
 73
     1
 44
1.0
  0
POINT
  5
4D43
330
4A38
100
AcDbEntity
  8
Defpoints
 62
     0
100
AcDbPoint
 10
408.9269513924339
 20
206.9286019338853
 30
0.0
  0
POINT
  5
4D44
330
4A38
100
AcDbEntity
  8
Defpoints
 62
     0
100
AcDbPoint
 10
408.9269513924339
 20
210.4286019338853
 30
0.0
  0
POINT
  5
4D45
330
4A38
100
AcDbEntity
  8
Defpoints
 62
     0
100
AcDbPoint
 10
431.4955710108679
 20
210.4286019338853
 30
0.0
  0
ENDBLK
  5
4A45
330
4A38
100
AcDbEntity
  8
0
100
AcDbBlockEnd
  0
BLOCK
  5
4A51
330
4A47
100
AcDbEntity
  8
0
100
AcDbBlockBegin
  2
*D3
 70
     1
 10
0.0
 20
0.0
 30
0.0
  3
*D3
  1

  0
LINE
  5
4D32
330
4A47
100
AcDbEntity
  8
寸法線
 62
     0
370
    -2
100
AcDbLine
 10
322.9269513924339
 20
204.9286019338853
 30
0.0
 11
322.9269513924339
 21
188.4599889956403
 31
0.0
  0
LINE
  5
4D33
330
4A47
100
AcDbEntity
  8
寸法線
 62
     0
370
    -2
100
AcDbLine
 10
408.9269513924339
 20
204.9286019338853
 30
0.0
 11
408.9269513924339
 21
188.4599889956403
 31
0.0
  0
LINE
  5
4D34
330
4A47
100
AcDbEntity
  8
寸法線
 62
     0
370
    -2
100
AcDbLine
 10
325.9269513924339
 20
191.4599889956402
 30
0.0
 11
405.9269513924339
 21
191.4599889956402
 31
0.0
  0
INSERT
  5
4D35
330
4A47
100
AcDbEntity
  8
寸法線
 62
     0
370
    -2
100
AcDbBlockReference
  2
_Closed
 10
322.9269513924339
 20
191.4599889956402
 30
0.0
 41
3.0
 42
3.0
 43
3.0
 50
180.0
  0
INSERT
  5
4D36
330
4A47
100
AcDbEntity
  8
寸法線
 62
     0
370
    -2
100
AcDbBlockReference
  2
_Closed
 10
408.9269513924339
 20
191.4599889956402
 30
0.0
 41
3.0
 42
3.0
 43
3.0
  0
MTEXT
  5
4D37
330
4A47
100
AcDbEntity
  8
寸法線
 62
     0
100
AcDbMText
 10
365.9269513924339
 20
194.9599889956402
 30
0.0
 40
5.0
 41
0.0
 71
     5
 72
     1
  1
86
  7
OKANO
 73
     1
 44
1.0
  0
POINT
  5
4D38
330
4A47
100
AcDbEntity
  8
Defpoints
 62
     0
100
AcDbPoint
 10
322.9269513924339
 20
206.9286019338853
 30
0.0
  0
POINT
  5
4D39
330
4A47
100
AcDbEntity
  8
Defpoints
 62
     0
100
AcDbPoint
 10
408.9269513924339
 20
206.9286019338853
 30
0.0
  0
POINT
  5
4D3A
330
4A47
100
AcDbEntity
  8
Defpoints
 62
     0
100
AcDbPoint
 10
408.9269513924339
 20
191.4599889956402
 30
0.0
  0
ENDBLK
  5
4A52
330
4A47
100
AcDbEntity
  8
0
100
AcDbBlockEnd
  0
BLOCK
  5
4A73
330
4A69
100
AcDbEntity
  8
0
100
AcDbBlockBegin
  2
*D4
 70
     1
 10
0.0
 20
0.0
 30
0.0
  3
*D4
  1

  0
LINE
  5
4D29
330
4A69
100
AcDbEntity
  8
寸法線
 62
     0
370
    -2
100
AcDbLine
 10
336.9269513924339
 20
253.7703337123685
 30
0.0
 11
336.9269513924339
 21
268.0470411596242
 31
0.0
  0
LINE
  5
4D2A
330
4A69
100
AcDbEntity
  8
寸法線
 62
     0
370
    -2
100
AcDbLine
 10
394.9269513924339
 20
253.7703337123685
 30
0.0
 11
394.9269513924339
 21
268.0470411596242
 31
0.0
  0
LINE
  5
4D2B
330
4A69
100
AcDbEntity
  8
寸法線
 62
     0
370
    -2
100
AcDbLine
 10
339.9269513924339
 20
265.0470411596243
 30
0.0
 11
391.9269513924339
 21
265.0470411596243
 31
0.0
  0
INSERT
  5
4D2C
330
4A69
100
AcDbEntity
  8
寸法線
 62
     0
370
    -2
100
AcDbBlockReference
  2
_Closed
 10
336.9269513924339
 20
265.0470411596243
 30
0.0
 41
3.0
 42
3.0
 43
3.0
 50
180.0
  0
INSERT
  5
4D2D
330
4A69
100
AcDbEntity
  8
寸法線
 62
     0
370
    -2
100
AcDbBlockReference
  2
_Closed
 10
394.9269513924339
 20
265.0470411596243
 30
0.0
 41
3.0
 42
3.0
 43
3.0
  0
MTEXT
  5
4D2E
330
4A69
100
AcDbEntity
  8
寸法線
 62
     0
100
AcDbMText
 10
365.9269513924339
 20
268.5470411596243
 30
0.0
 40
5.0
 41
0.0
 71
     5
 72
     1
  1
60
  7
OKANO
 73
     1
 44
1.0
  0
POINT
  5
4D2F
330
4A69
100
AcDbEntity
  8
Defpoints
 62
     0
100
AcDbPoint
 10
336.9269513924339
 20
251.7703337123684
 30
0.0
  0
POINT
  5
4D30
330
4A69
100
AcDbEntity
  8
Defpoints
 62
     0
100
AcDbPoint
 10
394.9269513924339
 20
251.7703337123684
 30
0.0
  0
POINT
  5
4D31
330
4A69
100
AcDbEntity
  8
Defpoints
 62
     0
100
AcDbPoint
 10
394.9269513924339
 20
265.0470411596243
 30
0.0
  0
ENDBLK
  5
4A74
330
4A69
100
AcDbEntity
  8
0
100
AcDbBlockEnd
  0
BLOCK
  5
4A89
330
4A7F
100
AcDbEntity
  8
0
100
AcDbBlockBegin
  2
*D5
 70
     1
 10
0.0
 20
0.0
 30
0.0
  3
*D5
  1

  0
LINE
  5
4D20
330
4A7F
100
AcDbEntity
  8
寸法線
 62
     0
370
    -2
100
AcDbLine
 10
343.9269513924339
 20
239.7703337123684
 30
0.0
 11
343.9269513924339
 21
221.1189265927587
 31
0.0
  0
LINE
  5
4D21
330
4A7F
100
AcDbEntity
  8
寸法線
 62
     0
370
    -2
100
AcDbLine
 10
329.9269513924339
 20
239.7703337123684
 30
0.0
 11
329.9269513924339
 21
221.1189265927587
 31
0.0
  0
LINE
  5
4D22
330
4A7F
100
AcDbEntity
  8
寸法線
 62
     0
370
    -2
100
AcDbLine
 10
340.9269513924339
 20
224.1189265927587
 30
0.0
 11
332.9269513924339
 21
224.1189265927587
 31
0.0
  0
INSERT
  5
4D23
330
4A7F
100
AcDbEntity
  8
寸法線
 62
     0
370
    -2
100
AcDbBlockReference
  2
_Closed
 10
343.9269513924339
 20
224.1189265927587
 30
0.0
 41
3.0
 42
3.0
 43
3.0
  0
INSERT
  5
4D24
330
4A7F
100
AcDbEntity
  8
寸法線
 62
     0
370
    -2
100
AcDbBlockReference
  2
_Closed
 10
329.9269513924339
 20
224.1189265927587
 30
0.0
 41
3.0
 42
3.0
 43
3.0
 50
180.0
  0
MTEXT
  5
4D25
330
4A7F
100
AcDbEntity
  8
寸法線
 62
     0
100
AcDbMText
 10
336.9269513924339
 20
227.6189265927587
 30
0.0
 40
5.0
 41
0.0
 71
     5
 72
     1
  1
14
  7
OKANO
 73
     1
 44
1.0
  0
POINT
  5
4D26
330
4A7F
100
AcDbEntity
  8
Defpoints
 62
     0
100
AcDbPoint
 10
343.9269513924339
 20
241.7703337123684
 30
0.0
  0
POINT
  5
4D27
330
4A7F
100
AcDbEntity
  8
Defpoints
 62
     0
100
AcDbPoint
 10
329.9269513924339
 20
241.7703337123684
 30
0.0
  0
POINT
  5
4D28
330
4A7F
100
AcDbEntity
  8
Defpoints
 62
     0
100
AcDbPoint
 10
329.9269513924339
 20
224.1189265927587
 30
0.0
  0
ENDBLK
  5
4A8A
330
4A7F
100
AcDbEntity
  8
0
100
AcDbBlockEnd
  0
BLOCK
  5
4A96
330
4A8C
100
AcDbEntity
  8
0
100
AcDbBlockBegin
  2
*D6
 70
     1
 10
0.0
 20
0.0
 30
0.0
  3
*D6
  1

  0
LINE
  5
4D17
330
4A8C
100
AcDbEntity
  8
寸法線
 62
     0
370
    -2
100
AcDbLine
 10
396.9269513924339
 20
237.2703337123684
 30
0.0
 11
432.9005370148642
 21
237.2703337123684
 31
0.0
  0
LINE
  5
4D18
330
4A8C
100
AcDbEntity
  8
寸法線
 62
     0
370
    -2
100
AcDbLine
 10
396.9269513924339
 20
246.2703337123684
 30
0.0
 11
432.9005370148642
 21
246.2703337123684
 31
0.0
  0
LINE
  5
4D19
330
4A8C
100
AcDbEntity
  8
寸法線
 62
     0
370
    -2
100
AcDbLine
 10
429.9005370148643
 20
240.2703337123684
 30
0.0
 11
429.9005370148643
 21
243.2703337123685
 31
0.0
  0
INSERT
  5
4D1A
330
4A8C
100
AcDbEntity
  8
寸法線
 62
     0
370
    -2
100
AcDbBlockReference
  2
_Closed
 10
429.9005370148643
 20
237.2703337123684
 30
0.0
 41
3.0
 42
3.0
 43
3.0
 50
270.0
  0
INSERT
  5
4D1B
330
4A8C
100
AcDbEntity
  8
寸法線
 62
     0
370
    -2
100
AcDbBlockReference
  2
_Closed
 10
429.9005370148643
 20
246.2703337123684
 30
0.0
 41
3.0
 42
3.0
 43
3.0
 50
90.0
  0
MTEXT
  5
4D1C
330
4A8C
100
AcDbEntity
  8
寸法線
 62
     0
100
AcDbMText
 10
426.4005370148642
 20
241.7703337123685
 30
0.0
 40
5.0
 41
0.0
 71
     5
 72
     1
  1
9
  7
OKANO
 11
0.0000000000000001
 21
1.0
 31
0.0
 73
     1
 44
1.0
  0
POINT
  5
4D1D
330
4A8C
100
AcDbEntity
  8
Defpoints
 62
     0
100
AcDbPoint
 10
394.9269513924339
 20
237.2703337123684
 30
0.0
  0
POINT
  5
4D1E
330
4A8C
100
AcDbEntity
  8
Defpoints
 62
     0
100
AcDbPoint
 10
394.9269513924339
 20
246.2703337123684
 30
0.0
  0
POINT
  5
4D1F
330
4A8C
100
AcDbEntity
  8
Defpoints
 62
     0
100
AcDbPoint
 10
429.9005370148643
 20
246.2703337123684
 30
0.0
  0
ENDBLK
  5
4A97
330
4A8C
100
AcDbEntity
  8
0
100
AcDbBlockEnd
  0
BLOCK
  5
4AA4
330
4A9A
100
AcDbEntity
  8
0
100
AcDbBlockBegin
  2
*D7
 70
     1
 10
0.0
 20
0.0
 30
0.0
  3
*D7
  1

  0
LINE
  5
4D0E
330
4A9A
100
AcDbEntity
  8
寸法線
 62
     0
370
    -2
100
AcDbLine
 10
330.9269513924339
 20
251.7703337123684
 30
0.0
 11
305.8114766094458
 21
251.7703337123684
 31
0.0
  0
LINE
  5
4D0F
330
4A9A
100
AcDbEntity
  8
寸法線
 62
     0
370
    -2
100
AcDbLine
 10
330.9269513924339
 20
231.7703337123684
 30
0.0
 11
305.8114766094458
 21
231.7703337123685
 31
0.0
  0
LINE
  5
4D10
330
4A9A
100
AcDbEntity
  8
寸法線
 62
     0
370
    -2
100
AcDbLine
 10
308.8114766094459
 20
248.7703337123685
 30
0.0
 11
308.8114766094459
 21
234.7703337123685
 31
0.0
  0
INSERT
  5
4D11
330
4A9A
100
AcDbEntity
  8
寸法線
 62
     0
370
    -2
100
AcDbBlockReference
  2
_Closed
 10
308.8114766094459
 20
251.7703337123684
 30
0.0
 41
3.0
 42
3.0
 43
3.0
 50
90.0
  0
INSERT
  5
4D12
330
4A9A
100
AcDbEntity
  8
寸法線
 62
     0
370
    -2
100
AcDbBlockReference
  2
_Closed
 10
308.8114766094459
 20
231.7703337123685
 30
0.0
 41
3.0
 42
3.0
 43
3.0
 50
270.0
  0
MTEXT
  5
4D13
330
4A9A
100
AcDbEntity
  8
寸法線
 62
     0
100
AcDbMText
 10
305.3109844834616
 20
241.7703337123685
 30
0.0
 40
5.0
 41
0.0
 71
     5
 72
     1
  1
20
  7
OKANO
 11
0.0000000000000001
 21
1.0
 31
0.0
 73
     1
 44
1.0
  0
POINT
  5
4D14
330
4A9A
100
AcDbEntity
  8
Defpoints
 62
     0
100
AcDbPoint
 10
332.9269513924339
 20
251.7703337123684
 30
0.0
  0
POINT
  5
4D15
330
4A9A
100
AcDbEntity
  8
Defpoints
 62
     0
100
AcDbPoint
 10
332.9269513924339
 20
231.7703337123684
 30
0.0
  0
POINT
  5
4D16
330
4A9A
100
AcDbEntity
  8
Defpoints
 62
     0
100
AcDbPoint
 10
308.8114766094459
 20
231.7703337123685
 30
0.0
  0
ENDBLK
  5
4AA5
330
4A9A
100
AcDbEntity
  8
0
100
AcDbBlockEnd
  0
BLOCK
  5
4DA9
330
4D9F
100
AcDbEntity
  8
0
100
AcDbBlockBegin
  2
*D8
 70
     1
 10
0.0
 20
0.0
 30
0.0
  3
*D8
  1

  0
LINE
  5
4F07
330
4D9F
100
AcDbEntity
  8
寸法線
 62
     0
370
    -2
100
AcDbLine
 10
532.0190453160296
 20
240.9928472483209
 30
0.0
 11
546.8844247793287
 21
240.9928472483209
 31
0.0
  0
LINE
  5
4F08
330
4D9F
100
AcDbEntity
  8
寸法線
 62
     0
370
    -2
100
AcDbLine
 10
522.0190453160296
 20
261.6325066015328
 30
0.0
 11
546.8844247793287
 21
261.6325066015328
 31
0.0
  0
LINE
  5
4F09
330
4D9F
100
AcDbEntity
  8
寸法線
 62
     0
370
    -2
100
AcDbLine
 10
543.8844247793286
 20
243.9928472483209
 30
0.0
 11
543.8844247793288
 21
258.6325066015329
 31
0.0
  0
INSERT
  5
4F0A
330
4D9F
100
AcDbEntity
  8
寸法線
 62
     0
370
    -2
100
AcDbBlockReference
  2
_Closed
 10
543.8844247793286
 20
240.9928472483209
 30
0.0
 41
3.0
 42
3.0
 43
3.0
 50
270.0
  0
INSERT
  5
4F0B
330
4D9F
100
AcDbEntity
  8
寸法線
 62
     0
370
    -2
100
AcDbBlockReference
  2
_Closed
 10
543.8844247793288
 20
261.6325066015328
 30
0.0
 41
3.0
 42
3.0
 43
3.0
 50
90.0
  0
MTEXT
  5
4F0C
330
4D9F
100
AcDbEntity
  8
寸法線
 62
     0
100
AcDbMText
 10
540.3839326533444
 20
251.3126769249269
 30
0.0
 40
5.0
 41
0.0
 71
     5
 72
     1
  1
20
  7
OKANO
 11
0.0000000000000001
 21
1.0
 31
0.0
 73
     1
 44
1.0
  0
POINT
  5
4F0D
330
4D9F
100
AcDbEntity
  8
Defpoints
 62
     0
100
AcDbPoint
 10
530.0190453160296
 20
240.9928472483209
 30
0.0
  0
POINT
  5
4F0E
330
4D9F
100
AcDbEntity
  8
Defpoints
 62
     0
100
AcDbPoint
 10
520.0190453160296
 20
261.6325066015328
 30
0.0
  0
POINT
  5
4F0F
330
4D9F
100
AcDbEntity
  8
Defpoints
 62
     0
100
AcDbPoint
 10
543.8844247793288
 20
261.6325066015328
 30
0.0
  0
ENDBLK
  5
4DAA
330
4D9F
100
AcDbEntity
  8
0
100
AcDbBlockEnd
  0
BLOCK
  5
4DB5
330
4DAB
100
AcDbEntity
  8
0
100
AcDbBlockBegin
  2
*D9
 70
     1
 10
0.0
 20
0.0
 30
0.0
  3
*D9
  1

  0
LINE
  5
4EFE
330
4DAB
100
AcDbEntity
  8
寸法線
 62
     0
370
    -2
100
AcDbLine
 10
522.0190453160296
 20
221.6325066015319
 30
0.0
 11
546.8844247793287
 21
221.6325066015319
 31
0.0
  0
LINE
  5
4EFF
330
4DAB
100
AcDbEntity
  8
寸法線
 62
     0
370
    -2
100
AcDbLine
 10
532.0190453160296
 20
240.9928472483209
 30
0.0
 11
546.8844247793287
 21
240.9928472483209
 31
0.0
  0
LINE
  5
4F00
330
4DAB
100
AcDbEntity
  8
寸法線
 62
     0
370
    -2
100
AcDbLine
 10
543.8844247793288
 20
224.632506601532
 30
0.0
 11
543.8844247793288
 21
237.9928472483209
 31
0.0
  0
INSERT
  5
4F01
330
4DAB
100
AcDbEntity
  8
寸法線
 62
     0
370
    -2
100
AcDbBlockReference
  2
_Closed
 10
543.8844247793288
 20
221.6325066015319
 30
0.0
 41
3.0
 42
3.0
 43
3.0
 50
270.0
  0
INSERT
  5
4F02
330
4DAB
100
AcDbEntity
  8
寸法線
 62
     0
370
    -2
100
AcDbBlockReference
  2
_Closed
 10
543.8844247793288
 20
240.9928472483209
 30
0.0
 41
3.0
 42
3.0
 43
3.0
 50
90.0
  0
MTEXT
  5
4F03
330
4DAB
100
AcDbEntity
  8
寸法線
 62
     0
100
AcDbMText
 10
540.3839326533446
 20
231.3126769249265
 30
0.0
 40
5.0
 41
0.0
 71
     5
 72
     1
  1
20
  7
OKANO
 11
0.0000000000000001
 21
1.0
 31
0.0
 73
     1
 44
1.0
  0
POINT
  5
4F04
330
4DAB
100
AcDbEntity
  8
Defpoints
 62
     0
100
AcDbPoint
 10
520.0190453160296
 20
221.6325066015319
 30
0.0
  0
POINT
  5
4F05
330
4DAB
100
AcDbEntity
  8
Defpoints
 62
     0
100
AcDbPoint
 10
530.0190453160296
 20
240.9928472483209
 30
0.0
  0
POINT
  5
4F06
330
4DAB
100
AcDbEntity
  8
Defpoints
 62
     0
100
AcDbPoint
 10
543.8844247793288
 20
240.9928472483209
 30
0.0
  0
ENDBLK
  5
4DB6
330
4DAB
100
AcDbEntity
  8
0
100
AcDbBlockEnd
  0
BLOCK
  5
4DC1
330
4DB7
100
AcDbEntity
  8
0
100
AcDbBlockBegin
  2
*D10
 70
     1
 10
0.0
 20
0.0
 30
0.0
  3
*D10
  1

  0
LINE
  5
4EF5
330
4DB7
100
AcDbEntity
  8
寸法線
 62
     0
370
    -2
100
AcDbLine
 10
464.0190453160295
 20
239.6325066015319
 30
0.0
 11
464.0190453160295
 21
220.9810994819229
 31
0.0
  0
LINE
  5
4EF6
330
4DB7
100
AcDbEntity
  8
寸法線
 62
     0
370
    -2
100
AcDbLine
 10
450.0190453160294
 20
239.6325066015319
 30
0.0
 11
450.0190453160294
 21
220.9810994819229
 31
0.0
  0
LINE
  5
4EF7
330
4DB7
100
AcDbEntity
  8
寸法線
 62
     0
370
    -2
100
AcDbLine
 10
461.0190453160295
 20
223.9810994819229
 30
0.0
 11
453.0190453160295
 21
223.9810994819229
 31
0.0
  0
INSERT
  5
4EF8
330
4DB7
100
AcDbEntity
  8
寸法線
 62
     0
370
    -2
100
AcDbBlockReference
  2
_Closed
 10
464.0190453160295
 20
223.9810994819229
 30
0.0
 41
3.0
 42
3.0
 43
3.0
  0
INSERT
  5
4EF9
330
4DB7
100
AcDbEntity
  8
寸法線
 62
     0
370
    -2
100
AcDbBlockReference
  2
_Closed
 10
450.0190453160294
 20
223.9810994819229
 30
0.0
 41
3.0
 42
3.0
 43
3.0
 50
180.0
  0
MTEXT
  5
4EFA
330
4DB7
100
AcDbEntity
  8
寸法線
 62
     0
100
AcDbMText
 10
457.0190453160295
 20
227.4810994819229
 30
0.0
 40
5.0
 41
0.0
 71
     5
 72
     1
  1
14
  7
OKANO
 73
     1
 44
1.0
  0
POINT
  5
4EFB
330
4DB7
100
AcDbEntity
  8
Defpoints
 62
     0
100
AcDbPoint
 10
464.0190453160295
 20
241.6325066015319
 30
0.0
  0
POINT
  5
4EFC
330
4DB7
100
AcDbEntity
  8
Defpoints
 62
     0
100
AcDbPoint
 10
450.0190453160294
 20
241.6325066015319
 30
0.0
  0
POINT
  5
4EFD
330
4DB7
100
AcDbEntity
  8
Defpoints
 62
     0
100
AcDbPoint
 10
450.0190453160294
 20
223.9810994819229
 30
0.0
  0
ENDBLK
  5
4DC2
330
4DB7
100
AcDbEntity
  8
0
100
AcDbBlockEnd
  0
BLOCK
  5
4E6B
330
4E61
100
AcDbEntity
  8
0
100
AcDbBlockBegin
  2
*D11
 70
     1
 10
0.0
 20
0.0
 30
0.0
  3
*D11
  1

  0
LINE
  5
4F43
330
4E61
100
AcDbEntity
  8
寸法線
 62
     0
370
    -2
100
AcDbLine
 10
650.5975029393995
 20
237.2703337123693
 30
0.0
 11
628.7799609810429
 21
237.2703337123693
 31
0.0
  0
LINE
  5
4F44
330
4E61
100
AcDbEntity
  8
寸法線
 62
     0
370
    -2
100
AcDbLine
 10
650.5975029393995
 20
246.2703337123684
 30
0.0
 11
628.7799609810429
 21
246.2703337123684
 31
0.0
  0
LINE
  5
4F45
330
4E61
100
AcDbEntity
  8
寸法線
 62
     0
370
    -2
100
AcDbLine
 10
631.7799609810428
 20
240.2703337123694
 30
0.0
 11
631.7799609810428
 21
243.2703337123685
 31
0.0
  0
INSERT
  5
4F46
330
4E61
100
AcDbEntity
  8
寸法線
 62
     0
370
    -2
100
AcDbBlockReference
  2
_Closed
 10
631.7799609810428
 20
237.2703337123693
 30
0.0
 41
3.0
 42
3.0
 43
3.0
 50
270.0
  0
INSERT
  5
4F47
330
4E61
100
AcDbEntity
  8
寸法線
 62
     0
370
    -2
100
AcDbBlockReference
  2
_Closed
 10
631.7799609810428
 20
246.2703337123684
 30
0.0
 41
3.0
 42
3.0
 43
3.0
 50
90.0
  0
MTEXT
  5
4F48
330
4E61
100
AcDbEntity
  8
寸法線
 62
     0
100
AcDbMText
 10
628.2799609810429
 20
241.770333712369
 30
0.0
 40
5.0
 41
0.0
 71
     5
 72
     1
  1
9
  7
OKANO
 11
0.0000000000000001
 21
1.0
 31
0.0
 73
     1
 44
1.0
  0
POINT
  5
4F49
330
4E61
100
AcDbEntity
  8
Defpoints
 62
     0
100
AcDbPoint
 10
652.5975029393995
 20
237.2703337123693
 30
0.0
  0
POINT
  5
4F4A
330
4E61
100
AcDbEntity
  8
Defpoints
 62
     0
100
AcDbPoint
 10
652.5975029393995
 20
246.2703337123684
 30
0.0
  0
POINT
  5
4F4B
330
4E61
100
AcDbEntity
  8
Defpoints
 62
     0
100
AcDbPoint
 10
631.7799609810428
 20
246.2703337123684
 30
0.0
  0
ENDBLK
  5
4E6C
330
4E61
100
AcDbEntity
  8
0
100
AcDbBlockEnd
  0
BLOCK
  5
4E77
330
4E6D
100
AcDbEntity
  8
0
100
AcDbBlockBegin
  2
*D12
 70
     1
 10
0.0
 20
0.0
 30
0.0
  3
*D12
  1

  0
LINE
  5
4F3A
330
4E6D
100
AcDbEntity
  8
寸法線
 62
     0
370
    -2
100
AcDbLine
 10
577.0975029393996
 20
241.7703337123684
 30
0.0
 11
559.9269513924338
 21
241.7703337123685
 31
0.0
  0
LINE
  5
4F3B
330
4E6D
100
AcDbEntity
  8
寸法線
 62
     0
370
    -2
100
AcDbLine
 10
587.0975029393996
 20
281.7703337123694
 30
0.0
 11
559.9269513924339
 21
281.7703337123694
 31
0.0
  0
LINE
  5
4F3C
330
4E6D
100
AcDbEntity
  8
寸法線
 62
     0
370
    -2
100
AcDbLine
 10
562.9269513924338
 20
244.7703337123685
 30
0.0
 11
562.9269513924339
 21
278.7703337123693
 31
0.0
  0
INSERT
  5
4F3D
330
4E6D
100
AcDbEntity
  8
寸法線
 62
     0
370
    -2
100
AcDbBlockReference
  2
_Closed
 10
562.9269513924338
 20
241.7703337123685
 30
0.0
 41
3.0
 42
3.0
 43
3.0
 50
270.0
  0
INSERT
  5
4F3E
330
4E6D
100
AcDbEntity
  8
寸法線
 62
     0
370
    -2
100
AcDbBlockReference
  2
_Closed
 10
562.9269513924339
 20
281.7703337123694
 30
0.0
 41
3.0
 42
3.0
 43
3.0
 50
90.0
  0
MTEXT
  5
4F3F
330
4E6D
100
AcDbEntity
  8
寸法線
 62
     0
100
AcDbMText
 10
559.4269513924338
 20
261.7703337123689
 30
0.0
 40
5.0
 41
0.0
 71
     5
 72
     1
  1
40
  7
OKANO
 11
0.0000000000000001
 21
1.0
 31
0.0
 73
     1
 44
1.0
  0
POINT
  5
4F40
330
4E6D
100
AcDbEntity
  8
Defpoints
 62
     0
100
AcDbPoint
 10
579.0975029393996
 20
241.7703337123684
 30
0.0
  0
POINT
  5
4F41
330
4E6D
100
AcDbEntity
  8
Defpoints
 62
     0
100
AcDbPoint
 10
589.0975029393996
 20
281.7703337123694
 30
0.0
  0
POINT
  5
4F42
330
4E6D
100
AcDbEntity
  8
Defpoints
 62
     0
100
AcDbPoint
 10
562.9269513924339
 20
281.7703337123694
 30
0.0
  0
ENDBLK
  5
4E78
330
4E6D
100
AcDbEntity
  8
0
100
AcDbBlockEnd
  0
BLOCK
  5
4E83
330
4E79
100
AcDbEntity
  8
0
100
AcDbBlockBegin
  2
*D13
 70
     1
 10
0.0
 20
0.0
 30
0.0
  3
*D13
  1

  0
LINE
  5
4F31
330
4E79
100
AcDbEntity
  8
寸法線
 62
     0
370
    -2
100
AcDbLine
 10
587.0975029393996
 20
201.7703337123684
 30
0.0
 11
559.9269513924339
 21
201.7703337123684
 31
0.0
  0
LINE
  5
4F32
330
4E79
100
AcDbEntity
  8
寸法線
 62
     0
370
    -2
100
AcDbLine
 10
577.0975029393996
 20
241.7703337123684
 30
0.0
 11
559.9269513924339
 21
241.7703337123685
 31
0.0
  0
LINE
  5
4F33
330
4E79
100
AcDbEntity
  8
寸法線
 62
     0
370
    -2
100
AcDbLine
 10
562.9269513924339
 20
204.7703337123685
 30
0.0
 11
562.9269513924339
 21
238.7703337123685
 31
0.0
  0
INSERT
  5
4F34
330
4E79
100
AcDbEntity
  8
寸法線
 62
     0
370
    -2
100
AcDbBlockReference
  2
_Closed
 10
562.9269513924339
 20
201.7703337123684
 30
0.0
 41
3.0
 42
3.0
 43
3.0
 50
270.0
  0
INSERT
  5
4F35
330
4E79
100
AcDbEntity
  8
寸法線
 62
     0
370
    -2
100
AcDbBlockReference
  2
_Closed
 10
562.9269513924339
 20
241.7703337123685
 30
0.0
 41
3.0
 42
3.0
 43
3.0
 50
90.0
  0
MTEXT
  5
4F36
330
4E79
100
AcDbEntity
  8
寸法線
 62
     0
100
AcDbMText
 10
559.4269513924339
 20
221.7703337123686
 30
0.0
 40
5.0
 41
0.0
 71
     5
 72
     1
  1
40
  7
OKANO
 11
0.0000000000000001
 21
1.0
 31
0.0
 73
     1
 44
1.0
  0
POINT
  5
4F37
330
4E79
100
AcDbEntity
  8
Defpoints
 62
     0
100
AcDbPoint
 10
589.0975029393996
 20
201.7703337123684
 30
0.0
  0
POINT
  5
4F38
330
4E79
100
AcDbEntity
  8
Defpoints
 62
     0
100
AcDbPoint
 10
579.0975029393996
 20
241.7703337123684
 30
0.0
  0
POINT
  5
4F39
330
4E79
100
AcDbEntity
  8
Defpoints
 62
     0
100
AcDbPoint
 10
562.9269513924339
 20
241.7703337123685
 30
0.0
  0
ENDBLK
  5
4E84
330
4E79
100
AcDbEntity
  8
0
100
AcDbBlockEnd
  0
BLOCK
  5
4E8C
330
4E85
100
AcDbEntity
  8
0
100
AcDbBlockBegin
  2
*D14
 70
     1
 10
0.0
 20
0.0
 30
0.0
  3
*D14
  1

  0
LINE
  5
4F2B
330
4E85
100
AcDbEntity
  8
寸法線
 62
     0
370
    -2
100
AcDbLine
 10
689.0193441443166
 20
300.3512916389333
 30
0.0
 11
665.0391537378061
 21
280.1467040123594
 31
0.0
  0
MTEXT
  5
4F2C
330
4E85
100
AcDbEntity
  8
寸法線
 62
     0
100
AcDbMText
 10
682.312326475938
 20
299.2769767373652
 30
0.0
 40
5.0
 41
0.0
 71
     5
 72
     1
  1
R10
  7
OKANO
 11
0.7647423691081621
 21
0.6443361769222927
 31
0.0
 73
     1
 44
1.0
  0
LINE
  5
4F2D
330
4E85
100
AcDbEntity
  8
寸法線
 62
     0
370
    -2
100
AcDbLine
 10
655.0975029393998
 20
271.7703337123694
 30
0.0
 11
662.7449266304818
 21
278.2136954815925
 31
0.0
  0
INSERT
  5
4F2E
330
4E85
100
AcDbEntity
  8
寸法線
 62
     0
370
    -2
100
AcDbBlockReference
  2
_Closed
 10
662.7449266304818
 20
278.2136954815925
 30
0.0
 41
3.0
 42
3.0
 43
3.0
 50
220.1159225254956
  0
POINT
  5
4F2F
330
4E85
100
AcDbEntity
  8
Defpoints
 62
     0
100
AcDbPoint
 10
662.7449266304818
 20
278.2136954815925
 30
0.0
  0
POINT
  5
4F30
330
4E85
100
AcDbEntity
  8
Defpoints
 62
     0
100
AcDbPoint
 10
655.0975029393998
 20
271.7703337123694
 30
0.0
  0
ENDBLK
  5
4E8D
330
4E85
100
AcDbEntity
  8
0
100
AcDbBlockEnd
  0
BLOCK
  5
4E98
330
4E8E
100
AcDbEntity
  8
0
100
AcDbBlockBegin
  2
*D15
 70
     1
 10
0.0
 20
0.0
 30
0.0
  3
*D15
  1

  0
LINE
  5
4F22
330
4E8E
100
AcDbEntity
  8
寸法線
 62
     0
370
    -2
100
AcDbLine
 10
579.0975029393996
 20
283.7703337123694
 30
0.0
 11
579.0975029393996
 21
296.0123046129333
 31
0.0
  0
LINE
  5
4F23
330
4E8E
100
AcDbEntity
  8
寸法線
 62
     0
370
    -2
100
AcDbLine
 10
665.0975029393995
 20
283.7703337123694
 30
0.0
 11
665.0975029393995
 21
296.0123046129333
 31
0.0
  0
LINE
  5
4F24
330
4E8E
100
AcDbEntity
  8
寸法線
 62
     0
370
    -2
100
AcDbLine
 10
582.0975029393996
 20
293.0123046129333
 30
0.0
 11
662.0975029393995
 21
293.0123046129333
 31
0.0
  0
INSERT
  5
4F25
330
4E8E
100
AcDbEntity
  8
寸法線
 62
     0
370
    -2
100
AcDbBlockReference
  2
_Closed
 10
579.0975029393996
 20
293.0123046129333
 30
0.0
 41
3.0
 42
3.0
 43
3.0
 50
180.0
  0
INSERT
  5
4F26
330
4E8E
100
AcDbEntity
  8
寸法線
 62
     0
370
    -2
100
AcDbBlockReference
  2
_Closed
 10
665.0975029393995
 20
293.0123046129333
 30
0.0
 41
3.0
 42
3.0
 43
3.0
  0
MTEXT
  5
4F27
330
4E8E
100
AcDbEntity
  8
寸法線
 62
     0
100
AcDbMText
 10
622.0975029393996
 20
296.5123046129333
 30
0.0
 40
5.0
 41
0.0
 71
     5
 72
     1
  1
86
  7
OKANO
 73
     1
 44
1.0
  0
POINT
  5
4F28
330
4E8E
100
AcDbEntity
  8
Defpoints
 62
     0
100
AcDbPoint
 10
579.0975029393996
 20
281.7703337123694
 30
0.0
  0
POINT
  5
4F29
330
4E8E
100
AcDbEntity
  8
Defpoints
 62
     0
100
AcDbPoint
 10
665.0975029393995
 20
281.7703337123694
 30
0.0
  0
POINT
  5
4F2A
330
4E8E
100
AcDbEntity
  8
Defpoints
 62
     0
100
AcDbPoint
 10
665.0975029393995
 20
293.0123046129333
 30
0.0
  0
ENDBLK
  5
4E99
330
4E8E
100
AcDbEntity
  8
0
100
AcDbBlockEnd
  0
BLOCK
  5
4EA4
330
4E9A
100
AcDbEntity
  8
0
100
AcDbBlockBegin
  2
*D16
 70
     1
 10
0.0
 20
0.0
 30
0.0
  3
*D16
  1

  0
LINE
  5
4F19
330
4E9A
100
AcDbEntity
  8
寸法線
 62
     0
370
    -2
100
AcDbLine
 10
592.0975029393996
 20
253.7703337123693
 30
0.0
 11
592.0975029393996
 21
268.0470411596242
 31
0.0
  0
LINE
  5
4F1A
330
4E9A
100
AcDbEntity
  8
寸法線
 62
     0
370
    -2
100
AcDbLine
 10
650.0975029393995
 20
253.7703337123693
 30
0.0
 11
650.0975029393995
 21
268.0470411596242
 31
0.0
  0
LINE
  5
4F1B
330
4E9A
100
AcDbEntity
  8
寸法線
 62
     0
370
    -2
100
AcDbLine
 10
595.0975029393996
 20
265.0470411596243
 30
0.0
 11
647.0975029393995
 21
265.0470411596243
 31
0.0
  0
INSERT
  5
4F1C
330
4E9A
100
AcDbEntity
  8
寸法線
 62
     0
370
    -2
100
AcDbBlockReference
  2
_Closed
 10
592.0975029393996
 20
265.0470411596243
 30
0.0
 41
3.0
 42
3.0
 43
3.0
 50
180.0
  0
INSERT
  5
4F1D
330
4E9A
100
AcDbEntity
  8
寸法線
 62
     0
370
    -2
100
AcDbBlockReference
  2
_Closed
 10
650.0975029393995
 20
265.0470411596243
 30
0.0
 41
3.0
 42
3.0
 43
3.0
  0
MTEXT
  5
4F1E
330
4E9A
100
AcDbEntity
  8
寸法線
 62
     0
100
AcDbMText
 10
621.0975029393996
 20
268.5470411596243
 30
0.0
 40
5.0
 41
0.0
 71
     5
 72
     1
  1
60
  7
OKANO
 73
     1
 44
1.0
  0
POINT
  5
4F1F
330
4E9A
100
AcDbEntity
  8
Defpoints
 62
     0
100
AcDbPoint
 10
592.0975029393996
 20
251.7703337123693
 30
0.0
  0
POINT
  5
4F20
330
4E9A
100
AcDbEntity
  8
Defpoints
 62
     0
100
AcDbPoint
 10
650.0975029393995
 20
251.7703337123693
 30
0.0
  0
POINT
  5
4F21
330
4E9A
100
AcDbEntity
  8
Defpoints
 62
     0
100
AcDbPoint
 10
650.0975029393995
 20
265.0470411596243
 30
0.0
  0
ENDBLK
  5
4EA5
330
4E9A
100
AcDbEntity
  8
0
100
AcDbBlockEnd
  0
BLOCK
  5
4EB0
330
4EA6
100
AcDbEntity
  8
0
100
AcDbBlockBegin
  2
*D17
 70
     1
 10
0.0
 20
0.0
 30
0.0
  3
*D17
  1

  0
LINE
  5
4F10
330
4EA6
100
AcDbEntity
  8
寸法線
 62
     0
370
    -2
100
AcDbLine
 10
599.0975029393996
 20
239.7703337123684
 30
0.0
 11
599.0975029393996
 21
221.1189265927594
 31
0.0
  0
LINE
  5
4F11
330
4EA6
100
AcDbEntity
  8
寸法線
 62
     0
370
    -2
100
AcDbLine
 10
585.0975029393996
 20
239.7703337123684
 30
0.0
 11
585.0975029393996
 21
221.1189265927594
 31
0.0
  0
LINE
  5
4F12
330
4EA6
100
AcDbEntity
  8
寸法線
 62
     0
370
    -2
100
AcDbLine
 10
596.0975029393996
 20
224.1189265927594
 30
0.0
 11
588.0975029393996
 21
224.1189265927594
 31
0.0
  0
INSERT
  5
4F13
330
4EA6
100
AcDbEntity
  8
寸法線
 62
     0
370
    -2
100
AcDbBlockReference
  2
_Closed
 10
599.0975029393996
 20
224.1189265927594
 30
0.0
 41
3.0
 42
3.0
 43
3.0
  0
INSERT
  5
4F14
330
4EA6
100
AcDbEntity
  8
寸法線
 62
     0
370
    -2
100
AcDbBlockReference
  2
_Closed
 10
585.0975029393996
 20
224.1189265927594
 30
0.0
 41
3.0
 42
3.0
 43
3.0
 50
180.0
  0
MTEXT
  5
4F15
330
4EA6
100
AcDbEntity
  8
寸法線
 62
     0
100
AcDbMText
 10
592.0975029393996
 20
227.6189265927594
 30
0.0
 40
5.0
 41
0.0
 71
     5
 72
     1
  1
14
  7
OKANO
 73
     1
 44
1.0
  0
POINT
  5
4F16
330
4EA6
100
AcDbEntity
  8
Defpoints
 62
     0
100
AcDbPoint
 10
599.0975029393996
 20
241.7703337123684
 30
0.0
  0
POINT
  5
4F17
330
4EA6
100
AcDbEntity
  8
Defpoints
 62
     0
100
AcDbPoint
 10
585.0975029393996
 20
241.7703337123684
 30
0.0
  0
POINT
  5
4F18
330
4EA6
100
AcDbEntity
  8
Defpoints
 62
     0
100
AcDbPoint
 10
585.0975029393996
 20
224.1189265927594
 30
0.0
  0
ENDBLK
  5
4EB1
330
4EA6
100
AcDbEntity
  8
0
100
AcDbBlockEnd
  0
BLOCK
  5
5016
330
500C
100
AcDbEntity
  8
0
100
AcDbBlockBegin
  2
*D26
 70
     1
 10
0.0
 20
0.0
 30
0.0
  3
*D26
  1

  0
LINE
  5
5499
330
500C
100
AcDbEntity
  8
寸法線
 62
     0
370
    -2
100
AcDbLine
 10
138.3006196862847
 20
250.9914075325992
 30
0.0
 11
113.1851449032967
 21
250.9914075325992
 31
0.0
  0
LINE
  5
549A
330
500C
100
AcDbEntity
  8
寸法線
 62
     0
370
    -2
100
AcDbLine
 10
138.3006196862847
 20
230.9914075325993
 30
0.0
 11
113.1851449032967
 21
230.9914075325993
 31
0.0
  0
LINE
  5
549B
330
500C
100
AcDbEntity
  8
寸法線
 62
     0
370
    -2
100
AcDbLine
 10
116.1851449032967
 20
247.9914075325992
 30
0.0
 11
116.1851449032967
 21
233.9914075325992
 31
0.0
  0
INSERT
  5
549C
330
500C
100
AcDbEntity
  8
寸法線
 62
     0
370
    -2
100
AcDbBlockReference
  2
_Closed
 10
116.1851449032967
 20
250.9914075325992
 30
0.0
 41
3.0
 42
3.0
 43
3.0
 50
90.0
  0
INSERT
  5
549D
330
500C
100
AcDbEntity
  8
寸法線
 62
     0
370
    -2
100
AcDbBlockReference
  2
_Closed
 10
116.1851449032967
 20
230.9914075325993
 30
0.0
 41
3.0
 42
3.0
 43
3.0
 50
270.0
  0
MTEXT
  5
549E
330
500C
100
AcDbEntity
  8
寸法線
 62
     0
100
AcDbMText
 10
112.6846527773124
 20
240.9914075325993
 30
0.0
 40
5.0
 41
0.0
 71
     5
 72
     1
  1
20
  7
OKANO
 11
0.0000000000000001
 21
1.0
 31
0.0
 73
     1
 44
1.0
  0
POINT
  5
549F
330
500C
100
AcDbEntity
  8
Defpoints
 62
     0
100
AcDbPoint
 10
140.3006196862848
 20
250.9914075325992
 30
0.0
  0
POINT
  5
54A0
330
500C
100
AcDbEntity
  8
Defpoints
 62
     0
100
AcDbPoint
 10
140.3006196862848
 20
230.9914075325993
 30
0.0
  0
POINT
  5
54A1
330
500C
100
AcDbEntity
  8
Defpoints
 62
     0
100
AcDbPoint
 10
116.1851449032967
 20
230.9914075325993
 30
0.0
  0
ENDBLK
  5
5017
330
500C
100
AcDbEntity
  8
0
100
AcDbBlockEnd
  0
BLOCK
  5
5022
330
5018
100
AcDbEntity
  8
0
100
AcDbBlockBegin
  2
*D27
 70
     1
 10
0.0
 20
0.0
 30
0.0
  3
*D27
  1

  0
LINE
  5
5490
330
5018
100
AcDbEntity
  8
寸法線
 62
     0
370
    -2
100
AcDbLine
 10
204.3006196862847
 20
236.4914075325992
 30
0.0
 11
240.2742053087151
 21
236.4914075325992
 31
0.0
  0
LINE
  5
5491
330
5018
100
AcDbEntity
  8
寸法線
 62
     0
370
    -2
100
AcDbLine
 10
204.3006196862847
 20
245.4914075325993
 30
0.0
 11
240.2742053087151
 21
245.4914075325993
 31
0.0
  0
LINE
  5
5492
330
5018
100
AcDbEntity
  8
寸法線
 62
     0
370
    -2
100
AcDbLine
 10
237.2742053087151
 20
239.4914075325992
 30
0.0
 11
237.2742053087151
 21
242.4914075325992
 31
0.0
  0
INSERT
  5
5493
330
5018
100
AcDbEntity
  8
寸法線
 62
     0
370
    -2
100
AcDbBlockReference
  2
_Closed
 10
237.2742053087151
 20
236.4914075325992
 30
0.0
 41
3.0
 42
3.0
 43
3.0
 50
270.0
  0
INSERT
  5
5494
330
5018
100
AcDbEntity
  8
寸法線
 62
     0
370
    -2
100
AcDbBlockReference
  2
_Closed
 10
237.2742053087151
 20
245.4914075325993
 30
0.0
 41
3.0
 42
3.0
 43
3.0
 50
90.0
  0
MTEXT
  5
5495
330
5018
100
AcDbEntity
  8
寸法線
 62
     0
100
AcDbMText
 10
233.7742053087151
 20
240.9914075325993
 30
0.0
 40
5.0
 41
0.0
 71
     5
 72
     1
  1
9
  7
OKANO
 11
0.0000000000000001
 21
1.0
 31
0.0
 73
     1
 44
1.0
  0
POINT
  5
5496
330
5018
100
AcDbEntity
  8
Defpoints
 62
     0
100
AcDbPoint
 10
202.3006196862847
 20
236.4914075325992
 30
0.0
  0
POINT
  5
5497
330
5018
100
AcDbEntity
  8
Defpoints
 62
     0
100
AcDbPoint
 10
202.3006196862847
 20
245.4914075325993
 30
0.0
  0
POINT
  5
5498
330
5018
100
AcDbEntity
  8
Defpoints
 62
     0
100
AcDbPoint
 10
237.2742053087151
 20
245.4914075325993
 30
0.0
  0
ENDBLK
  5
5023
330
5018
100
AcDbEntity
  8
0
100
AcDbBlockEnd
  0
BLOCK
  5
502E
330
5024
100
AcDbEntity
  8
0
100
AcDbBlockBegin
  2
*D28
 70
     1
 10
0.0
 20
0.0
 30
0.0
  3
*D28
  1

  0
LINE
  5
5487
330
5024
100
AcDbEntity
  8
寸法線
 62
     0
370
    -2
100
AcDbLine
 10
151.3006196862847
 20
238.9914075325993
 30
0.0
 11
151.3006196862847
 21
220.3400004129895
 31
0.0
  0
LINE
  5
5488
330
5024
100
AcDbEntity
  8
寸法線
 62
     0
370
    -2
100
AcDbLine
 10
137.3006196862847
 20
238.9914075325993
 30
0.0
 11
137.3006196862847
 21
220.3400004129895
 31
0.0
  0
LINE
  5
5489
330
5024
100
AcDbEntity
  8
寸法線
 62
     0
370
    -2
100
AcDbLine
 10
148.3006196862847
 20
223.3400004129895
 30
0.0
 11
140.3006196862848
 21
223.3400004129895
 31
0.0
  0
INSERT
  5
548A
330
5024
100
AcDbEntity
  8
寸法線
 62
     0
370
    -2
100
AcDbBlockReference
  2
_Closed
 10
151.3006196862847
 20
223.3400004129895
 30
0.0
 41
3.0
 42
3.0
 43
3.0
  0
INSERT
  5
548B
330
5024
100
AcDbEntity
  8
寸法線
 62
     0
370
    -2
100
AcDbBlockReference
  2
_Closed
 10
137.3006196862847
 20
223.3400004129895
 30
0.0
 41
3.0
 42
3.0
 43
3.0
 50
180.0
  0
MTEXT
  5
548C
330
5024
100
AcDbEntity
  8
寸法線
 62
     0
100
AcDbMText
 10
144.3006196862848
 20
226.8400004129895
 30
0.0
 40
5.0
 41
0.0
 71
     5
 72
     1
  1
14
  7
OKANO
 73
     1
 44
1.0
  0
POINT
  5
548D
330
5024
100
AcDbEntity
  8
Defpoints
 62
     0
100
AcDbPoint
 10
151.3006196862847
 20
240.9914075325992
 30
0.0
  0
POINT
  5
548E
330
5024
100
AcDbEntity
  8
Defpoints
 62
     0
100
AcDbPoint
 10
137.3006196862847
 20
240.9914075325992
 30
0.0
  0
POINT
  5
548F
330
5024
100
AcDbEntity
  8
Defpoints
 62
     0
100
AcDbPoint
 10
137.3006196862847
 20
223.3400004129895
 30
0.0
  0
ENDBLK
  5
502F
330
5024
100
AcDbEntity
  8
0
100
AcDbBlockEnd
  0
BLOCK
  5
503A
330
5030
100
AcDbEntity
  8
0
100
AcDbBlockBegin
  2
*D29
 70
     1
 10
0.0
 20
0.0
 30
0.0
  3
*D29
  1

  0
LINE
  5
547E
330
5030
100
AcDbEntity
  8
寸法線
 62
     0
370
    -2
100
AcDbLine
 10
144.3006196862848
 20
252.9914075325992
 30
0.0
 11
144.3006196862848
 21
267.2681149798551
 31
0.0
  0
LINE
  5
547F
330
5030
100
AcDbEntity
  8
寸法線
 62
     0
370
    -2
100
AcDbLine
 10
202.3006196862847
 20
252.9914075325992
 30
0.0
 11
202.3006196862847
 21
267.2681149798551
 31
0.0
  0
LINE
  5
5480
330
5030
100
AcDbEntity
  8
寸法線
 62
     0
370
    -2
100
AcDbLine
 10
147.3006196862847
 20
264.2681149798551
 30
0.0
 11
199.3006196862847
 21
264.2681149798551
 31
0.0
  0
INSERT
  5
5481
330
5030
100
AcDbEntity
  8
寸法線
 62
     0
370
    -2
100
AcDbBlockReference
  2
_Closed
 10
144.3006196862848
 20
264.2681149798551
 30
0.0
 41
3.0
 42
3.0
 43
3.0
 50
180.0
  0
INSERT
  5
5482
330
5030
100
AcDbEntity
  8
寸法線
 62
     0
370
    -2
100
AcDbBlockReference
  2
_Closed
 10
202.3006196862847
 20
264.2681149798551
 30
0.0
 41
3.0
 42
3.0
 43
3.0
  0
MTEXT
  5
5483
330
5030
100
AcDbEntity
  8
寸法線
 62
     0
100
AcDbMText
 10
173.3006196862847
 20
270.2681149798551
 30
0.0
 40
10.0
 41
0.0
 71
     5
 72
     1
  1
60
  7
OKANO
 73
     1
 44
1.0
  0
POINT
  5
5484
330
5030
100
AcDbEntity
  8
Defpoints
 62
     0
100
AcDbPoint
 10
144.3006196862848
 20
250.9914075325992
 30
0.0
  0
POINT
  5
5485
330
5030
100
AcDbEntity
  8
Defpoints
 62
     0
100
AcDbPoint
 10
202.3006196862847
 20
250.9914075325992
 30
0.0
  0
POINT
  5
5486
330
5030
100
AcDbEntity
  8
Defpoints
 62
     0
100
AcDbPoint
 10
202.3006196862847
 20
264.2681149798551
 30
0.0
  0
ENDBLK
  5
503B
330
5030
100
AcDbEntity
  8
0
100
AcDbBlockEnd
  0
BLOCK
  5
5046
330
503C
100
AcDbEntity
  8
0
100
AcDbBlockBegin
  2
*D30
 70
     1
 10
0.0
 20
0.0
 30
0.0
  3
*D30
  1

  0
LINE
  5
5475
330
503C
100
AcDbEntity
  8
寸法線
 62
     0
370
    -2
100
AcDbLine
 10
218.3006196862848
 20
200.6496757541161
 30
0.0
 11
237.8804610142247
 21
200.6496757541161
 31
0.0
  0
LINE
  5
5476
330
503C
100
AcDbEntity
  8
寸法線
 62
     0
370
    -2
100
AcDbLine
 10
218.3006196862848
 20
210.6496757541161
 30
0.0
 11
237.8804610142247
 21
210.6496757541161
 31
0.0
  0
LINE
  5
5477
330
503C
100
AcDbEntity
  8
寸法線
 62
     0
370
    -2
100
AcDbLine
 10
234.8804610142246
 20
203.6496757541161
 30
0.0
 11
234.8804610142246
 21
207.6496757541161
 31
0.0
  0
INSERT
  5
5478
330
503C
100
AcDbEntity
  8
寸法線
 62
     0
370
    -2
100
AcDbBlockReference
  2
_Closed
 10
234.8804610142246
 20
200.6496757541161
 30
0.0
 41
3.0
 42
3.0
 43
3.0
 50
270.0
  0
INSERT
  5
5479
330
503C
100
AcDbEntity
  8
寸法線
 62
     0
370
    -2
100
AcDbBlockReference
  2
_Closed
 10
234.8804610142246
 20
210.6496757541161
 30
0.0
 41
3.0
 42
3.0
 43
3.0
 50
90.0
  0
MTEXT
  5
547A
330
503C
100
AcDbEntity
  8
寸法線
 62
     0
100
AcDbMText
 10
231.3804610142246
 20
205.6496757541162
 30
0.0
 40
5.0
 41
0.0
 71
     5
 72
     1
  1
10
  7
OKANO
 11
0.0000000000000001
 21
1.0
 31
0.0
 73
     1
 44
1.0
  0
POINT
  5
547B
330
503C
100
AcDbEntity
  8
Defpoints
 62
     0
100
AcDbPoint
 10
216.3006196862848
 20
200.6496757541161
 30
0.0
  0
POINT
  5
547C
330
503C
100
AcDbEntity
  8
Defpoints
 62
     0
100
AcDbPoint
 10
216.3006196862848
 20
210.6496757541161
 30
0.0
  0
POINT
  5
547D
330
503C
100
AcDbEntity
  8
Defpoints
 62
     0
100
AcDbPoint
 10
234.8804610142246
 20
210.6496757541161
 30
0.0
  0
ENDBLK
  5
5047
330
503C
100
AcDbEntity
  8
0
100
AcDbBlockEnd
  0
BLOCK
  5
5052
330
5048
100
AcDbEntity
  8
0
100
AcDbBlockBegin
  2
*D31
 70
     1
 10
0.0
 20
0.0
 30
0.0
  3
*D31
  1

  0
LINE
  5
546C
330
5048
100
AcDbEntity
  8
寸法線
 62
     0
370
    -2
100
AcDbLine
 10
131.3006196862847
 20
199.6496757541162
 30
0.0
 11
131.3006196862847
 21
160.6304925160084
 31
0.0
  0
LINE
  5
546D
330
5048
100
AcDbEntity
  8
寸法線
 62
     0
370
    -2
100
AcDbLine
 10
217.3006196862848
 20
199.6496757541161
 30
0.0
 11
217.3006196862848
 21
160.6304925160084
 31
0.0
  0
LINE
  5
546E
330
5048
100
AcDbEntity
  8
寸法線
 62
     0
370
    -2
100
AcDbLine
 10
134.3006196862847
 20
163.6304925160084
 30
0.0
 11
214.3006196862848
 21
163.6304925160084
 31
0.0
  0
INSERT
  5
546F
330
5048
100
AcDbEntity
  8
寸法線
 62
     0
370
    -2
100
AcDbBlockReference
  2
_Closed
 10
131.3006196862847
 20
163.6304925160084
 30
0.0
 41
3.0
 42
3.0
 43
3.0
 50
180.0
  0
INSERT
  5
5470
330
5048
100
AcDbEntity
  8
寸法線
 62
     0
370
    -2
100
AcDbBlockReference
  2
_Closed
 10
217.3006196862848
 20
163.6304925160084
 30
0.0
 41
3.0
 42
3.0
 43
3.0
  0
MTEXT
  5
5471
330
5048
100
AcDbEntity
  8
寸法線
 62
     0
100
AcDbMText
 10
174.3006196862848
 20
169.6304925160084
 30
0.0
 40
10.0
 41
0.0
 71
     5
 72
     1
  1
86
  7
OKANO
 73
     1
 44
1.0
  0
POINT
  5
5472
330
5048
100
AcDbEntity
  8
Defpoints
 62
     0
100
AcDbPoint
 10
131.3006196862847
 20
201.6496757541162
 30
0.0
  0
POINT
  5
5473
330
5048
100
AcDbEntity
  8
Defpoints
 62
     0
100
AcDbPoint
 10
217.3006196862848
 20
201.6496757541161
 30
0.0
  0
POINT
  5
5474
330
5048
100
AcDbEntity
  8
Defpoints
 62
     0
100
AcDbPoint
 10
217.3006196862848
 20
163.6304925160084
 30
0.0
  0
ENDBLK
  5
5053
330
5048
100
AcDbEntity
  8
0
100
AcDbBlockEnd
  0
BLOCK
  5
505E
330
5054
100
AcDbEntity
  8
0
100
AcDbBlockBegin
  2
*D32
 70
     1
 10
0.0
 20
0.0
 30
0.0
  3
*D32
  1

  0
LINE
  5
5463
330
5054
100
AcDbEntity
  8
寸法線
 62
     0
370
    -2
100
AcDbLine
 10
199.3006196862847
 20
189.307943975633
 30
0.0
 11
252.316910708348
 21
189.307943975633
 31
0.0
  0
LINE
  5
5464
330
5054
100
AcDbEntity
  8
寸法線
 62
     0
370
    -2
100
AcDbLine
 10
199.3006196862847
 20
210.6496757541161
 30
0.0
 11
252.3169107083481
 21
210.6496757541161
 31
0.0
  0
LINE
  5
5465
330
5054
100
AcDbEntity
  8
寸法線
 62
     0
370
    -2
100
AcDbLine
 10
249.3169107083481
 20
192.307943975633
 30
0.0
 11
249.3169107083481
 21
207.6496757541161
 31
0.0
  0
INSERT
  5
5466
330
5054
100
AcDbEntity
  8
寸法線
 62
     0
370
    -2
100
AcDbBlockReference
  2
_Closed
 10
249.3169107083481
 20
189.307943975633
 30
0.0
 41
3.0
 42
3.0
 43
3.0
 50
270.0
  0
INSERT
  5
5467
330
5054
100
AcDbEntity
  8
寸法線
 62
     0
370
    -2
100
AcDbBlockReference
  2
_Closed
 10
249.3169107083481
 20
210.6496757541161
 30
0.0
 41
3.0
 42
3.0
 43
3.0
 50
90.0
  0
MTEXT
  5
5468
330
5054
100
AcDbEntity
  8
寸法線
 62
     0
100
AcDbMText
 10
245.8164185823638
 20
199.9788098648746
 30
0.0
 40
5.0
 41
0.0
 71
     5
 72
     1
  1
21
  7
OKANO
 11
0.0000000000000001
 21
1.0
 31
0.0
 73
     1
 44
1.0
  0
POINT
  5
5469
330
5054
100
AcDbEntity
  8
Defpoints
 62
     0
100
AcDbPoint
 10
197.3006196862847
 20
189.307943975633
 30
0.0
  0
POINT
  5
546A
330
5054
100
AcDbEntity
  8
Defpoints
 62
     0
100
AcDbPoint
 10
197.3006196862847
 20
210.6496757541161
 30
0.0
  0
POINT
  5
546B
330
5054
100
AcDbEntity
  8
Defpoints
 62
     0
100
AcDbPoint
 10
249.3169107083481
 20
210.6496757541161
 30
0.0
  0
ENDBLK
  5
505F
330
5054
100
AcDbEntity
  8
0
100
AcDbBlockEnd
  0
BLOCK
  5
5066
330
5060
100
AcDbEntity
  8
0
100
AcDbBlockBegin
  2
*D33
 70
     1
 10
0.0
 20
0.0
 30
0.0
  3
*D33
  1

  0
LINE
  5
545E
330
5060
100
AcDbEntity
  8
寸法線
 62
     0
370
    -2
100
AcDbLine
 10
174.2081785841314
 20
177.4608546076322
 30
0.0
 11
180.5272557439632
 21
197.0475187918466
 31
0.0
  0
MTEXT
  5
545F
330
5060
100
AcDbEntity
  8
寸法線
 62
     0
100
AcDbMText
 10
173.0192452213876
 20
185.1764732599264
 30
0.0
 40
5.0
 41
0.0
 71
     5
 72
     1
  1
24.5
  7
OKANO
 11
0.3070379164840022
 21
0.9516972826698431
 31
0.0
 73
     1
 44
1.0
  0
INSERT
  5
5460
330
5060
100
AcDbEntity
  8
寸法線
 62
     0
370
    -2
100
AcDbBlockReference
  2
_Closed
 10
181.4483694934152
 20
199.9026106398561
 30
0.0
 41
3.0
 42
3.0
 43
3.0
 50
72.11918806274337
  0
POINT
  5
5461
330
5060
100
AcDbEntity
  8
Defpoints
 62
     0
100
AcDbPoint
 10
181.4483694934152
 20
199.9026106398561
 30
0.0
  0
POINT
  5
5462
330
5060
100
AcDbEntity
  8
Defpoints
 62
     0
100
AcDbPoint
 10
174.3006196862847
 20
177.7473858176332
 30
0.0
  0
ENDBLK
  5
5067
330
5060
100
AcDbEntity
  8
0
100
AcDbBlockEnd
  0
BLOCK
  5
5144
330
5138
100
AcDbEntity
  8
0
100
AcDbBlockBegin
  2
*D34
 70
     1
 10
0.0
 20
0.0
 30
0.0
  3
*D34
  1

  0
LINE
  5
54DE
330
5138
100
AcDbEntity
  8
寸法線
 62
     0
370
    -2
100
AcDbLine
 10
410.9269513924338
 20
385.666371707148
 30
0.0
 11
434.4955710108679
 21
385.666371707148
 31
0.0
  0
LINE
  5
54DF
330
5138
100
AcDbEntity
  8
寸法線
 62
     0
370
    -2
100
AcDbLine
 10
410.9269513924338
 20
389.166371707148
 30
0.0
 11
434.4955710108679
 21
389.166371707148
 31
0.0
  0
LINE
  5
54E0
330
5138
100
AcDbEntity
  8
寸法線
 62
     0
370
    -2
100
AcDbLine
 10
431.4955710108678
 20
382.666371707148
 30
0.0
 11
431.4955710108678
 21
379.666371707148
 31
0.0
  0
LINE
  5
54E1
330
5138
100
AcDbEntity
  8
寸法線
 62
     0
370
    -2
100
AcDbLine
 10
431.4955710108679
 20
392.166371707148
 30
0.0
 11
431.4955710108679
 21
405.1221430730881
 31
0.0
  0
LINE
  5
54E2
330
5138
100
AcDbEntity
  8
寸法線
 62
     0
370
    -2
100
AcDbLine
 10
431.4955710108679
 20
385.666371707148
 30
0.0
 11
431.4955710108679
 21
389.166371707148
 31
0.0
  0
INSERT
  5
54E3
330
5138
100
AcDbEntity
  8
寸法線
 62
     0
370
    -2
100
AcDbBlockReference
  2
_Closed
 10
431.4955710108679
 20
385.666371707148
 30
0.0
 41
3.0
 42
3.0
 43
3.0
 50
90.0
  0
INSERT
  5
54E4
330
5138
100
AcDbEntity
  8
寸法線
 62
     0
370
    -2
100
AcDbBlockReference
  2
_Closed
 10
431.4955710108679
 20
389.166371707148
 30
0.0
 41
3.0
 42
3.0
 43
3.0
 50
270.0
  0
MTEXT
  5
54E5
330
5138
100
AcDbEntity
  8
寸法線
 62
     0
100
AcDbMText
 10
427.9950788848835
 20
400.1442573901182
 30
0.0
 40
5.0
 41
0.0
 71
     5
 72
     1
  1
2.5
  7
OKANO
 11
0.0000000000000001
 21
1.0
 31
0.0
 73
     1
 44
1.0
  0
POINT
  5
54E6
330
5138
100
AcDbEntity
  8
Defpoints
 62
     0
100
AcDbPoint
 10
408.9269513924339
 20
385.666371707148
 30
0.0
  0
POINT
  5
54E7
330
5138
100
AcDbEntity
  8
Defpoints
 62
     0
100
AcDbPoint
 10
408.9269513924339
 20
389.166371707148
 30
0.0
  0
POINT
  5
54E8
330
5138
100
AcDbEntity
  8
Defpoints
 62
     0
100
AcDbPoint
 10
431.4955710108679
 20
389.166371707148
 30
0.0
  0
ENDBLK
  5
5145
330
5138
100
AcDbEntity
  8
0
100
AcDbBlockEnd
  0
BLOCK
  5
5150
330
5146
100
AcDbEntity
  8
0
100
AcDbBlockBegin
  2
*D35
 70
     1
 10
0.0
 20
0.0
 30
0.0
  3
*D35
  1

  0
LINE
  5
5202
330
5146
100
AcDbEntity
  8
寸法線
 62
     0
370
    -2
100
AcDbLine
 10
322.9269513924339
 20
383.6663717071481
 30
0.0
 11
322.9269513924339
 21
367.1977587689029
 31
0.0
  0
LINE
  5
5203
330
5146
100
AcDbEntity
  8
寸法線
 62
     0
370
    -2
100
AcDbLine
 10
408.9269513924339
 20
383.6663717071481
 30
0.0
 11
408.9269513924339
 21
367.1977587689029
 31
0.0
  0
LINE
  5
5204
330
5146
100
AcDbEntity
  8
寸法線
 62
     0
370
    -2
100
AcDbLine
 10
325.9269513924339
 20
370.1977587689029
 30
0.0
 11
405.9269513924339
 21
370.1977587689029
 31
0.0
  0
INSERT
  5
5205
330
5146
100
AcDbEntity
  8
寸法線
 62
     0
370
    -2
100
AcDbBlockReference
  2
_Closed
 10
322.9269513924339
 20
370.1977587689029
 30
0.0
 41
3.0
 42
3.0
 43
3.0
 50
180.0
  0
INSERT
  5
5206
330
5146
100
AcDbEntity
  8
寸法線
 62
     0
370
    -2
100
AcDbBlockReference
  2
_Closed
 10
408.9269513924339
 20
370.1977587689029
 30
0.0
 41
3.0
 42
3.0
 43
3.0
  0
MTEXT
  5
5207
330
5146
100
AcDbEntity
  8
寸法線
 62
     0
100
AcDbMText
 10
365.9269513924339
 20
373.6977587689029
 30
0.0
 40
5.0
 41
0.0
 71
     5
 72
     1
  1
86
  7
OKANO
 73
     1
 44
1.0
  0
POINT
  5
5208
330
5146
100
AcDbEntity
  8
Defpoints
 62
     0
100
AcDbPoint
 10
322.9269513924339
 20
385.666371707148
 30
0.0
  0
POINT
  5
5209
330
5146
100
AcDbEntity
  8
Defpoints
 62
     0
100
AcDbPoint
 10
408.9269513924339
 20
385.666371707148
 30
0.0
  0
POINT
  5
520A
330
5146
100
AcDbEntity
  8
Defpoints
 62
     0
100
AcDbPoint
 10
408.9269513924339
 20
370.1977587689029
 30
0.0
  0
ENDBLK
  5
5151
330
5146
100
AcDbEntity
  8
0
100
AcDbBlockEnd
  0
BLOCK
  5
515C
330
5152
100
AcDbEntity
  8
0
100
AcDbBlockBegin
  2
*D36
 70
     1
 10
0.0
 20
0.0
 30
0.0
  3
*D36
  1

  0
LINE
  5
520B
330
5152
100
AcDbEntity
  8
寸法線
 62
     0
370
    -2
100
AcDbLine
 10
336.9269513924339
 20
432.5081034856311
 30
0.0
 11
336.9269513924339
 21
446.784810932887
 31
0.0
  0
LINE
  5
520C
330
5152
100
AcDbEntity
  8
寸法線
 62
     0
370
    -2
100
AcDbLine
 10
394.9269513924339
 20
432.5081034856311
 30
0.0
 11
394.9269513924339
 21
446.784810932887
 31
0.0
  0
LINE
  5
520D
330
5152
100
AcDbEntity
  8
寸法線
 62
     0
370
    -2
100
AcDbLine
 10
339.9269513924339
 20
443.784810932887
 30
0.0
 11
391.9269513924339
 21
443.784810932887
 31
0.0
  0
INSERT
  5
520E
330
5152
100
AcDbEntity
  8
寸法線
 62
     0
370
    -2
100
AcDbBlockReference
  2
_Closed
 10
336.9269513924339
 20
443.784810932887
 30
0.0
 41
3.0
 42
3.0
 43
3.0
 50
180.0
  0
INSERT
  5
520F
330
5152
100
AcDbEntity
  8
寸法線
 62
     0
370
    -2
100
AcDbBlockReference
  2
_Closed
 10
394.9269513924339
 20
443.784810932887
 30
0.0
 41
3.0
 42
3.0
 43
3.0
  0
MTEXT
  5
5210
330
5152
100
AcDbEntity
  8
寸法線
 62
     0
100
AcDbMText
 10
365.9269513924339
 20
447.284810932887
 30
0.0
 40
5.0
 41
0.0
 71
     5
 72
     1
  1
60
  7
OKANO
 73
     1
 44
1.0
  0
POINT
  5
5211
330
5152
100
AcDbEntity
  8
Defpoints
 62
     0
100
AcDbPoint
 10
336.9269513924339
 20
430.5081034856311
 30
0.0
  0
POINT
  5
5212
330
5152
100
AcDbEntity
  8
Defpoints
 62
     0
100
AcDbPoint
 10
394.9269513924339
 20
430.5081034856311
 30
0.0
  0
POINT
  5
5213
330
5152
100
AcDbEntity
  8
Defpoints
 62
     0
100
AcDbPoint
 10
394.9269513924339
 20
443.784810932887
 30
0.0
  0
ENDBLK
  5
515D
330
5152
100
AcDbEntity
  8
0
100
AcDbBlockEnd
  0
BLOCK
  5
5168
330
515E
100
AcDbEntity
  8
0
100
AcDbBlockBegin
  2
*D37
 70
     1
 10
0.0
 20
0.0
 30
0.0
  3
*D37
  1

  0
LINE
  5
5214
330
515E
100
AcDbEntity
  8
寸法線
 62
     0
370
    -2
100
AcDbLine
 10
343.9269513924339
 20
418.5081034856311
 30
0.0
 11
343.9269513924339
 21
399.8566963660214
 31
0.0
  0
LINE
  5
5215
330
515E
100
AcDbEntity
  8
寸法線
 62
     0
370
    -2
100
AcDbLine
 10
329.9269513924339
 20
418.5081034856311
 30
0.0
 11
329.9269513924339
 21
399.8566963660214
 31
0.0
  0
LINE
  5
5216
330
515E
100
AcDbEntity
  8
寸法線
 62
     0
370
    -2
100
AcDbLine
 10
340.9269513924339
 20
402.8566963660214
 30
0.0
 11
332.9269513924339
 21
402.8566963660214
 31
0.0
  0
INSERT
  5
5217
330
515E
100
AcDbEntity
  8
寸法線
 62
     0
370
    -2
100
AcDbBlockReference
  2
_Closed
 10
343.9269513924339
 20
402.8566963660214
 30
0.0
 41
3.0
 42
3.0
 43
3.0
  0
INSERT
  5
5218
330
515E
100
AcDbEntity
  8
寸法線
 62
     0
370
    -2
100
AcDbBlockReference
  2
_Closed
 10
329.9269513924339
 20
402.8566963660214
 30
0.0
 41
3.0
 42
3.0
 43
3.0
 50
180.0
  0
MTEXT
  5
5219
330
515E
100
AcDbEntity
  8
寸法線
 62
     0
100
AcDbMText
 10
336.9269513924339
 20
406.3566963660214
 30
0.0
 40
5.0
 41
0.0
 71
     5
 72
     1
  1
14
  7
OKANO
 73
     1
 44
1.0
  0
POINT
  5
521A
330
515E
100
AcDbEntity
  8
Defpoints
 62
     0
100
AcDbPoint
 10
343.9269513924339
 20
420.5081034856311
 30
0.0
  0
POINT
  5
521B
330
515E
100
AcDbEntity
  8
Defpoints
 62
     0
100
AcDbPoint
 10
329.9269513924339
 20
420.5081034856311
 30
0.0
  0
POINT
  5
521C
330
515E
100
AcDbEntity
  8
Defpoints
 62
     0
100
AcDbPoint
 10
329.9269513924339
 20
402.8566963660214
 30
0.0
  0
ENDBLK
  5
5169
330
515E
100
AcDbEntity
  8
0
100
AcDbBlockEnd
  0
BLOCK
  5
5174
330
516A
100
AcDbEntity
  8
0
100
AcDbBlockBegin
  2
*D38
 70
     1
 10
0.0
 20
0.0
 30
0.0
  3
*D38
  1

  0
LINE
  5
521D
330
516A
100
AcDbEntity
  8
寸法線
 62
     0
370
    -2
100
AcDbLine
 10
396.9269513924339
 20
416.0081034856311
 30
0.0
 11
432.9005370148642
 21
416.0081034856311
 31
0.0
  0
LINE
  5
521E
330
516A
100
AcDbEntity
  8
寸法線
 62
     0
370
    -2
100
AcDbLine
 10
396.9269513924339
 20
425.0081034856312
 30
0.0
 11
432.9005370148642
 21
425.0081034856312
 31
0.0
  0
LINE
  5
521F
330
516A
100
AcDbEntity
  8
寸法線
 62
     0
370
    -2
100
AcDbLine
 10
429.9005370148643
 20
419.0081034856311
 30
0.0
 11
429.9005370148643
 21
422.0081034856312
 31
0.0
  0
INSERT
  5
5220
330
516A
100
AcDbEntity
  8
寸法線
 62
     0
370
    -2
100
AcDbBlockReference
  2
_Closed
 10
429.9005370148643
 20
416.0081034856311
 30
0.0
 41
3.0
 42
3.0
 43
3.0
 50
270.0
  0
INSERT
  5
5221
330
516A
100
AcDbEntity
  8
寸法線
 62
     0
370
    -2
100
AcDbBlockReference
  2
_Closed
 10
429.9005370148643
 20
425.0081034856312
 30
0.0
 41
3.0
 42
3.0
 43
3.0
 50
90.0
  0
MTEXT
  5
5222
330
516A
100
AcDbEntity
  8
寸法線
 62
     0
100
AcDbMText
 10
426.4005370148642
 20
420.5081034856313
 30
0.0
 40
5.0
 41
0.0
 71
     5
 72
     1
  1
9
  7
OKANO
 11
0.0000000000000001
 21
1.0
 31
0.0
 73
     1
 44
1.0
  0
POINT
  5
5223
330
516A
100
AcDbEntity
  8
Defpoints
 62
     0
100
AcDbPoint
 10
394.9269513924339
 20
416.0081034856311
 30
0.0
  0
POINT
  5
5224
330
516A
100
AcDbEntity
  8
Defpoints
 62
     0
100
AcDbPoint
 10
394.9269513924339
 20
425.0081034856312
 30
0.0
  0
POINT
  5
5225
330
516A
100
AcDbEntity
  8
Defpoints
 62
     0
100
AcDbPoint
 10
429.9005370148643
 20
425.0081034856312
 30
0.0
  0
ENDBLK
  5
5175
330
516A
100
AcDbEntity
  8
0
100
AcDbBlockEnd
  0
BLOCK
  5
5180
330
5176
100
AcDbEntity
  8
0
100
AcDbBlockBegin
  2
*D39
 70
     1
 10
0.0
 20
0.0
 30
0.0
  3
*D39
  1

  0
LINE
  5
5226
330
5176
100
AcDbEntity
  8
寸法線
 62
     0
370
    -2
100
AcDbLine
 10
330.9269513924339
 20
430.5081034856311
 30
0.0
 11
305.8114766094458
 21
430.5081034856311
 31
0.0
  0
LINE
  5
5227
330
5176
100
AcDbEntity
  8
寸法線
 62
     0
370
    -2
100
AcDbLine
 10
330.9269513924339
 20
410.5081034856311
 30
0.0
 11
305.8114766094458
 21
410.5081034856311
 31
0.0
  0
LINE
  5
5228
330
5176
100
AcDbEntity
  8
寸法線
 62
     0
370
    -2
100
AcDbLine
 10
308.8114766094459
 20
427.5081034856311
 30
0.0
 11
308.8114766094459
 21
413.5081034856312
 31
0.0
  0
INSERT
  5
5229
330
5176
100
AcDbEntity
  8
寸法線
 62
     0
370
    -2
100
AcDbBlockReference
  2
_Closed
 10
308.8114766094459
 20
430.5081034856311
 30
0.0
 41
3.0
 42
3.0
 43
3.0
 50
90.0
  0
INSERT
  5
522A
330
5176
100
AcDbEntity
  8
寸法線
 62
     0
370
    -2
100
AcDbBlockReference
  2
_Closed
 10
308.8114766094459
 20
410.5081034856311
 30
0.0
 41
3.0
 42
3.0
 43
3.0
 50
270.0
  0
MTEXT
  5
522B
330
5176
100
AcDbEntity
  8
寸法線
 62
     0
100
AcDbMText
 10
305.3109844834615
 20
420.5081034856312
 30
0.0
 40
5.0
 41
0.0
 71
     5
 72
     1
  1
20
  7
OKANO
 11
0.0000000000000001
 21
1.0
 31
0.0
 73
     1
 44
1.0
  0
POINT
  5
522C
330
5176
100
AcDbEntity
  8
Defpoints
 62
     0
100
AcDbPoint
 10
332.9269513924339
 20
430.5081034856311
 30
0.0
  0
POINT
  5
522D
330
5176
100
AcDbEntity
  8
Defpoints
 62
     0
100
AcDbPoint
 10
332.9269513924339
 20
410.5081034856311
 30
0.0
  0
POINT
  5
522E
330
5176
100
AcDbEntity
  8
Defpoints
 62
     0
100
AcDbPoint
 10
308.8114766094459
 20
410.5081034856311
 30
0.0
  0
ENDBLK
  5
5181
330
5176
100
AcDbEntity
  8
0
100
AcDbBlockEnd
  0
BLOCK
  5
518C
330
5182
100
AcDbEntity
  8
0
100
AcDbBlockBegin
  2
*D40
 70
     1
 10
0.0
 20
0.0
 30
0.0
  3
*D40
  1

  0
LINE
  5
522F
330
5182
100
AcDbEntity
  8
寸法線
 62
     0
370
    -2
100
AcDbLine
 10
532.0190453160296
 20
419.7306170215836
 30
0.0
 11
546.8844247793287
 21
419.7306170215836
 31
0.0
  0
LINE
  5
5230
330
5182
100
AcDbEntity
  8
寸法線
 62
     0
370
    -2
100
AcDbLine
 10
522.0190453160296
 20
440.3702763747956
 30
0.0
 11
546.8844247793287
 21
440.3702763747956
 31
0.0
  0
LINE
  5
5231
330
5182
100
AcDbEntity
  8
寸法線
 62
     0
370
    -2
100
AcDbLine
 10
543.8844247793288
 20
422.7306170215836
 30
0.0
 11
543.8844247793288
 21
437.3702763747956
 31
0.0
  0
INSERT
  5
5232
330
5182
100
AcDbEntity
  8
寸法線
 62
     0
370
    -2
100
AcDbBlockReference
  2
_Closed
 10
543.8844247793288
 20
419.7306170215836
 30
0.0
 41
3.0
 42
3.0
 43
3.0
 50
270.0
  0
INSERT
  5
5233
330
5182
100
AcDbEntity
  8
寸法線
 62
     0
370
    -2
100
AcDbBlockReference
  2
_Closed
 10
543.8844247793288
 20
440.3702763747956
 30
0.0
 41
3.0
 42
3.0
 43
3.0
 50
90.0
  0
MTEXT
  5
5234
330
5182
100
AcDbEntity
  8
寸法線
 62
     0
100
AcDbMText
 10
540.3839326533444
 20
430.0504466981896
 30
0.0
 40
5.0
 41
0.0
 71
     5
 72
     1
  1
20
  7
OKANO
 11
0.0000000000000001
 21
1.0
 31
0.0
 73
     1
 44
1.0
  0
POINT
  5
5235
330
5182
100
AcDbEntity
  8
Defpoints
 62
     0
100
AcDbPoint
 10
530.0190453160296
 20
419.7306170215836
 30
0.0
  0
POINT
  5
5236
330
5182
100
AcDbEntity
  8
Defpoints
 62
     0
100
AcDbPoint
 10
520.0190453160296
 20
440.3702763747956
 30
0.0
  0
POINT
  5
5237
330
5182
100
AcDbEntity
  8
Defpoints
 62
     0
100
AcDbPoint
 10
543.8844247793288
 20
440.3702763747956
 30
0.0
  0
ENDBLK
  5
518D
330
5182
100
AcDbEntity
  8
0
100
AcDbBlockEnd
  0
BLOCK
  5
5198
330
518E
100
AcDbEntity
  8
0
100
AcDbBlockBegin
  2
*D41
 70
     1
 10
0.0
 20
0.0
 30
0.0
  3
*D41
  1

  0
LINE
  5
5238
330
518E
100
AcDbEntity
  8
寸法線
 62
     0
370
    -2
100
AcDbLine
 10
522.0190453160296
 20
400.3702763747947
 30
0.0
 11
546.8844247793287
 21
400.3702763747947
 31
0.0
  0
LINE
  5
5239
330
518E
100
AcDbEntity
  8
寸法線
 62
     0
370
    -2
100
AcDbLine
 10
532.0190453160296
 20
419.7306170215836
 30
0.0
 11
546.8844247793287
 21
419.7306170215836
 31
0.0
  0
LINE
  5
523A
330
518E
100
AcDbEntity
  8
寸法線
 62
     0
370
    -2
100
AcDbLine
 10
543.8844247793288
 20
403.3702763747946
 30
0.0
 11
543.8844247793288
 21
416.7306170215836
 31
0.0
  0
INSERT
  5
523B
330
518E
100
AcDbEntity
  8
寸法線
 62
     0
370
    -2
100
AcDbBlockReference
  2
_Closed
 10
543.8844247793288
 20
400.3702763747947
 30
0.0
 41
3.0
 42
3.0
 43
3.0
 50
270.0
  0
INSERT
  5
523C
330
518E
100
AcDbEntity
  8
寸法線
 62
     0
370
    -2
100
AcDbBlockReference
  2
_Closed
 10
543.8844247793288
 20
419.7306170215836
 30
0.0
 41
3.0
 42
3.0
 43
3.0
 50
90.0
  0
MTEXT
  5
523D
330
518E
100
AcDbEntity
  8
寸法線
 62
     0
100
AcDbMText
 10
540.3839326533444
 20
410.0504466981892
 30
0.0
 40
5.0
 41
0.0
 71
     5
 72
     1
  1
20
  7
OKANO
 11
0.0000000000000001
 21
1.0
 31
0.0
 73
     1
 44
1.0
  0
POINT
  5
523E
330
518E
100
AcDbEntity
  8
Defpoints
 62
     0
100
AcDbPoint
 10
520.0190453160296
 20
400.3702763747947
 30
0.0
  0
POINT
  5
523F
330
518E
100
AcDbEntity
  8
Defpoints
 62
     0
100
AcDbPoint
 10
530.0190453160296
 20
419.7306170215836
 30
0.0
  0
POINT
  5
5240
330
518E
100
AcDbEntity
  8
Defpoints
 62
     0
100
AcDbPoint
 10
543.8844247793288
 20
419.7306170215836
 30
0.0
  0
ENDBLK
  5
5199
330
518E
100
AcDbEntity
  8
0
100
AcDbBlockEnd
  0
BLOCK
  5
51A4
330
519A
100
AcDbEntity
  8
0
100
AcDbBlockBegin
  2
*D42
 70
     1
 10
0.0
 20
0.0
 30
0.0
  3
*D42
  1

  0
LINE
  5
5241
330
519A
100
AcDbEntity
  8
寸法線
 62
     0
370
    -2
100
AcDbLine
 10
464.0190453160295
 20
418.3702763747946
 30
0.0
 11
464.0190453160295
 21
399.7188692551856
 31
0.0
  0
LINE
  5
5242
330
519A
100
AcDbEntity
  8
寸法線
 62
     0
370
    -2
100
AcDbLine
 10
450.0190453160294
 20
418.3702763747946
 30
0.0
 11
450.0190453160294
 21
399.7188692551856
 31
0.0
  0
LINE
  5
5243
330
519A
100
AcDbEntity
  8
寸法線
 62
     0
370
    -2
100
AcDbLine
 10
461.0190453160295
 20
402.7188692551856
 30
0.0
 11
453.0190453160295
 21
402.7188692551856
 31
0.0
  0
INSERT
  5
5244
330
519A
100
AcDbEntity
  8
寸法線
 62
     0
370
    -2
100
AcDbBlockReference
  2
_Closed
 10
464.0190453160295
 20
402.7188692551856
 30
0.0
 41
3.0
 42
3.0
 43
3.0
  0
INSERT
  5
5245
330
519A
100
AcDbEntity
  8
寸法線
 62
     0
370
    -2
100
AcDbBlockReference
  2
_Closed
 10
450.0190453160294
 20
402.7188692551856
 30
0.0
 41
3.0
 42
3.0
 43
3.0
 50
180.0
  0
MTEXT
  5
5246
330
519A
100
AcDbEntity
  8
寸法線
 62
     0
100
AcDbMText
 10
457.0190453160295
 20
406.2188692551855
 30
0.0
 40
5.0
 41
0.0
 71
     5
 72
     1
  1
14
  7
OKANO
 73
     1
 44
1.0
  0
POINT
  5
5247
330
519A
100
AcDbEntity
  8
Defpoints
 62
     0
100
AcDbPoint
 10
464.0190453160295
 20
420.3702763747946
 30
0.0
  0
POINT
  5
5248
330
519A
100
AcDbEntity
  8
Defpoints
 62
     0
100
AcDbPoint
 10
450.0190453160294
 20
420.3702763747946
 30
0.0
  0
POINT
  5
5249
330
519A
100
AcDbEntity
  8
Defpoints
 62
     0
100
AcDbPoint
 10
450.0190453160294
 20
402.7188692551856
 30
0.0
  0
ENDBLK
  5
51A5
330
519A
100
AcDbEntity
  8
0
100
AcDbBlockEnd
  0
BLOCK
  5
51B0
330
51A6
100
AcDbEntity
  8
0
100
AcDbBlockBegin
  2
*D43
 70
     1
 10
0.0
 20
0.0
 30
0.0
  3
*D43
  1

  0
LINE
  5
524A
330
51A6
100
AcDbEntity
  8
寸法線
 62
     0
370
    -2
100
AcDbLine
 10
650.5975029393995
 20
416.0081034856321
 30
0.0
 11
628.7799609810429
 21
416.0081034856321
 31
0.0
  0
LINE
  5
524B
330
51A6
100
AcDbEntity
  8
寸法線
 62
     0
370
    -2
100
AcDbLine
 10
650.5975029393995
 20
425.0081034856312
 30
0.0
 11
628.7799609810429
 21
425.0081034856312
 31
0.0
  0
LINE
  5
524C
330
51A6
100
AcDbEntity
  8
寸法線
 62
     0
370
    -2
100
AcDbLine
 10
631.7799609810428
 20
419.0081034856321
 30
0.0
 11
631.7799609810428
 21
422.0081034856312
 31
0.0
  0
INSERT
  5
524D
330
51A6
100
AcDbEntity
  8
寸法線
 62
     0
370
    -2
100
AcDbBlockReference
  2
_Closed
 10
631.7799609810428
 20
416.0081034856321
 30
0.0
 41
3.0
 42
3.0
 43
3.0
 50
270.0
  0
INSERT
  5
524E
330
51A6
100
AcDbEntity
  8
寸法線
 62
     0
370
    -2
100
AcDbBlockReference
  2
_Closed
 10
631.7799609810428
 20
425.0081034856312
 30
0.0
 41
3.0
 42
3.0
 43
3.0
 50
90.0
  0
MTEXT
  5
524F
330
51A6
100
AcDbEntity
  8
寸法線
 62
     0
100
AcDbMText
 10
628.2799609810427
 20
420.5081034856317
 30
0.0
 40
5.0
 41
0.0
 71
     5
 72
     1
  1
9
  7
OKANO
 11
0.0000000000000001
 21
1.0
 31
0.0
 73
     1
 44
1.0
  0
POINT
  5
5250
330
51A6
100
AcDbEntity
  8
Defpoints
 62
     0
100
AcDbPoint
 10
652.5975029393995
 20
416.0081034856321
 30
0.0
  0
POINT
  5
5251
330
51A6
100
AcDbEntity
  8
Defpoints
 62
     0
100
AcDbPoint
 10
652.5975029393995
 20
425.0081034856312
 30
0.0
  0
POINT
  5
5252
330
51A6
100
AcDbEntity
  8
Defpoints
 62
     0
100
AcDbPoint
 10
631.7799609810428
 20
425.0081034856312
 30
0.0
  0
ENDBLK
  5
51B1
330
51A6
100
AcDbEntity
  8
0
100
AcDbBlockEnd
  0
BLOCK
  5
51BC
330
51B2
100
AcDbEntity
  8
0
100
AcDbBlockBegin
  2
*D44
 70
     1
 10
0.0
 20
0.0
 30
0.0
  3
*D44
  1

  0
LINE
  5
5253
330
51B2
100
AcDbEntity
  8
寸法線
 62
     0
370
    -2
100
AcDbLine
 10
577.0975029393996
 20
420.5081034856311
 30
0.0
 11
559.9269513924339
 21
420.5081034856311
 31
0.0
  0
LINE
  5
5254
330
51B2
100
AcDbEntity
  8
寸法線
 62
     0
370
    -2
100
AcDbLine
 10
587.0975029393996
 20
460.508103485632
 30
0.0
 11
559.9269513924339
 21
460.508103485632
 31
0.0
  0
LINE
  5
5255
330
51B2
100
AcDbEntity
  8
寸法線
 62
     0
370
    -2
100
AcDbLine
 10
562.9269513924339
 20
423.5081034856311
 30
0.0
 11
562.9269513924339
 21
457.5081034856321
 31
0.0
  0
INSERT
  5
5256
330
51B2
100
AcDbEntity
  8
寸法線
 62
     0
370
    -2
100
AcDbBlockReference
  2
_Closed
 10
562.9269513924339
 20
420.5081034856311
 30
0.0
 41
3.0
 42
3.0
 43
3.0
 50
270.0
  0
INSERT
  5
5257
330
51B2
100
AcDbEntity
  8
寸法線
 62
     0
370
    -2
100
AcDbBlockReference
  2
_Closed
 10
562.9269513924339
 20
460.508103485632
 30
0.0
 41
3.0
 42
3.0
 43
3.0
 50
90.0
  0
MTEXT
  5
5258
330
51B2
100
AcDbEntity
  8
寸法線
 62
     0
100
AcDbMText
 10
559.4269513924338
 20
440.5081034856316
 30
0.0
 40
5.0
 41
0.0
 71
     5
 72
     1
  1
40
  7
OKANO
 11
0.0000000000000001
 21
1.0
 31
0.0
 73
     1
 44
1.0
  0
POINT
  5
5259
330
51B2
100
AcDbEntity
  8
Defpoints
 62
     0
100
AcDbPoint
 10
579.0975029393996
 20
420.5081034856311
 30
0.0
  0
POINT
  5
525A
330
51B2
100
AcDbEntity
  8
Defpoints
 62
     0
100
AcDbPoint
 10
589.0975029393996
 20
460.508103485632
 30
0.0
  0
POINT
  5
525B
330
51B2
100
AcDbEntity
  8
Defpoints
 62
     0
100
AcDbPoint
 10
562.9269513924339
 20
460.508103485632
 30
0.0
  0
ENDBLK
  5
51BD
330
51B2
100
AcDbEntity
  8
0
100
AcDbBlockEnd
  0
BLOCK
  5
51C8
330
51BE
100
AcDbEntity
  8
0
100
AcDbBlockBegin
  2
*D45
 70
     1
 10
0.0
 20
0.0
 30
0.0
  3
*D45
  1

  0
LINE
  5
525C
330
51BE
100
AcDbEntity
  8
寸法線
 62
     0
370
    -2
100
AcDbLine
 10
587.0975029393996
 20
380.5081034856311
 30
0.0
 11
559.9269513924339
 21
380.5081034856311
 31
0.0
  0
LINE
  5
525D
330
51BE
100
AcDbEntity
  8
寸法線
 62
     0
370
    -2
100
AcDbLine
 10
577.0975029393996
 20
420.5081034856311
 30
0.0
 11
559.9269513924339
 21
420.5081034856311
 31
0.0
  0
LINE
  5
525E
330
51BE
100
AcDbEntity
  8
寸法線
 62
     0
370
    -2
100
AcDbLine
 10
562.9269513924339
 20
383.5081034856311
 30
0.0
 11
562.9269513924339
 21
417.5081034856312
 31
0.0
  0
INSERT
  5
525F
330
51BE
100
AcDbEntity
  8
寸法線
 62
     0
370
    -2
100
AcDbBlockReference
  2
_Closed
 10
562.9269513924339
 20
380.5081034856311
 30
0.0
 41
3.0
 42
3.0
 43
3.0
 50
270.0
  0
INSERT
  5
5260
330
51BE
100
AcDbEntity
  8
寸法線
 62
     0
370
    -2
100
AcDbBlockReference
  2
_Closed
 10
562.9269513924339
 20
420.5081034856311
 30
0.0
 41
3.0
 42
3.0
 43
3.0
 50
90.0
  0
MTEXT
  5
5261
330
51BE
100
AcDbEntity
  8
寸法線
 62
     0
100
AcDbMText
 10
559.4269513924338
 20
400.5081034856312
 30
0.0
 40
5.0
 41
0.0
 71
     5
 72
     1
  1
40
  7
OKANO
 11
0.0000000000000001
 21
1.0
 31
0.0
 73
     1
 44
1.0
  0
POINT
  5
5262
330
51BE
100
AcDbEntity
  8
Defpoints
 62
     0
100
AcDbPoint
 10
589.0975029393996
 20
380.5081034856311
 30
0.0
  0
POINT
  5
5263
330
51BE
100
AcDbEntity
  8
Defpoints
 62
     0
100
AcDbPoint
 10
579.0975029393996
 20
420.5081034856311
 30
0.0
  0
POINT
  5
5264
330
51BE
100
AcDbEntity
  8
Defpoints
 62
     0
100
AcDbPoint
 10
562.9269513924339
 20
420.5081034856311
 30
0.0
  0
ENDBLK
  5
51C9
330
51BE
100
AcDbEntity
  8
0
100
AcDbBlockEnd
  0
BLOCK
  5
51D1
330
51CA
100
AcDbEntity
  8
0
100
AcDbBlockBegin
  2
*D46
 70
     1
 10
0.0
 20
0.0
 30
0.0
  3
*D46
  1

  0
LINE
  5
5265
330
51CA
100
AcDbEntity
  8
寸法線
 62
     0
370
    -2
100
AcDbLine
 10
689.0193441443165
 20
479.0890614121959
 30
0.0
 11
665.0391537378063
 21
458.8844737856222
 31
0.0
  0
MTEXT
  5
5266
330
51CA
100
AcDbEntity
  8
寸法線
 62
     0
100
AcDbMText
 10
682.3123264759378
 20
478.0147465106278
 30
0.0
 40
5.0
 41
0.0
 71
     5
 72
     1
  1
R10
  7
OKANO
 11
0.7647423691081621
 21
0.6443361769222927
 31
0.0
 73
     1
 44
1.0
  0
LINE
  5
5267
330
51CA
100
AcDbEntity
  8
寸法線
 62
     0
370
    -2
100
AcDbLine
 10
655.0975029394
 20
450.5081034856321
 30
0.0
 11
662.7449266304819
 21
456.9514652548553
 31
0.0
  0
INSERT
  5
5268
330
51CA
100
AcDbEntity
  8
寸法線
 62
     0
370
    -2
100
AcDbBlockReference
  2
_Closed
 10
662.7449266304819
 20
456.9514652548553
 30
0.0
 41
3.0
 42
3.0
 43
3.0
 50
220.1159225254956
  0
POINT
  5
5269
330
51CA
100
AcDbEntity
  8
Defpoints
 62
     0
100
AcDbPoint
 10
662.7449266304819
 20
456.9514652548553
 30
0.0
  0
POINT
  5
526A
330
51CA
100
AcDbEntity
  8
Defpoints
 62
     0
100
AcDbPoint
 10
655.0975029394
 20
450.5081034856321
 30
0.0
  0
ENDBLK
  5
51D2
330
51CA
100
AcDbEntity
  8
0
100
AcDbBlockEnd
  0
BLOCK
  5
51DD
330
51D3
100
AcDbEntity
  8
0
100
AcDbBlockBegin
  2
*D47
 70
     1
 10
0.0
 20
0.0
 30
0.0
  3
*D47
  1

  0
LINE
  5
526B
330
51D3
100
AcDbEntity
  8
寸法線
 62
     0
370
    -2
100
AcDbLine
 10
579.0975029393996
 20
462.5081034856321
 30
0.0
 11
579.0975029393996
 21
474.750074386196
 31
0.0
  0
LINE
  5
526C
330
51D3
100
AcDbEntity
  8
寸法線
 62
     0
370
    -2
100
AcDbLine
 10
665.0975029393995
 20
462.5081034856321
 30
0.0
 11
665.0975029393995
 21
474.750074386196
 31
0.0
  0
LINE
  5
526D
330
51D3
100
AcDbEntity
  8
寸法線
 62
     0
370
    -2
100
AcDbLine
 10
582.0975029393996
 20
471.750074386196
 30
0.0
 11
662.0975029393995
 21
471.750074386196
 31
0.0
  0
INSERT
  5
526E
330
51D3
100
AcDbEntity
  8
寸法線
 62
     0
370
    -2
100
AcDbBlockReference
  2
_Closed
 10
579.0975029393996
 20
471.750074386196
 30
0.0
 41
3.0
 42
3.0
 43
3.0
 50
180.0
  0
INSERT
  5
526F
330
51D3
100
AcDbEntity
  8
寸法線
 62
     0
370
    -2
100
AcDbBlockReference
  2
_Closed
 10
665.0975029393995
 20
471.750074386196
 30
0.0
 41
3.0
 42
3.0
 43
3.0
  0
MTEXT
  5
5270
330
51D3
100
AcDbEntity
  8
寸法線
 62
     0
100
AcDbMText
 10
622.0975029393996
 20
475.250074386196
 30
0.0
 40
5.0
 41
0.0
 71
     5
 72
     1
  1
86
  7
OKANO
 73
     1
 44
1.0
  0
POINT
  5
5271
330
51D3
100
AcDbEntity
  8
Defpoints
 62
     0
100
AcDbPoint
 10
579.0975029393996
 20
460.508103485632
 30
0.0
  0
POINT
  5
5272
330
51D3
100
AcDbEntity
  8
Defpoints
 62
     0
100
AcDbPoint
 10
665.0975029393995
 20
460.508103485632
 30
0.0
  0
POINT
  5
5273
330
51D3
100
AcDbEntity
  8
Defpoints
 62
     0
100
AcDbPoint
 10
665.0975029393995
 20
471.750074386196
 30
0.0
  0
ENDBLK
  5
51DE
330
51D3
100
AcDbEntity
  8
0
100
AcDbBlockEnd
  0
BLOCK
  5
51E9
330
51DF
100
AcDbEntity
  8
0
100
AcDbBlockBegin
  2
*D48
 70
     1
 10
0.0
 20
0.0
 30
0.0
  3
*D48
  1

  0
LINE
  5
5274
330
51DF
100
AcDbEntity
  8
寸法線
 62
     0
370
    -2
100
AcDbLine
 10
592.0975029393996
 20
432.5081034856321
 30
0.0
 11
592.0975029393996
 21
446.784810932887
 31
0.0
  0
LINE
  5
5275
330
51DF
100
AcDbEntity
  8
寸法線
 62
     0
370
    -2
100
AcDbLine
 10
650.0975029393995
 20
432.5081034856321
 30
0.0
 11
650.0975029393995
 21
446.784810932887
 31
0.0
  0
LINE
  5
5276
330
51DF
100
AcDbEntity
  8
寸法線
 62
     0
370
    -2
100
AcDbLine
 10
595.0975029393996
 20
443.784810932887
 30
0.0
 11
647.0975029393995
 21
443.784810932887
 31
0.0
  0
INSERT
  5
5277
330
51DF
100
AcDbEntity
  8
寸法線
 62
     0
370
    -2
100
AcDbBlockReference
  2
_Closed
 10
592.0975029393996
 20
443.784810932887
 30
0.0
 41
3.0
 42
3.0
 43
3.0
 50
180.0
  0
INSERT
  5
5278
330
51DF
100
AcDbEntity
  8
寸法線
 62
     0
370
    -2
100
AcDbBlockReference
  2
_Closed
 10
650.0975029393995
 20
443.784810932887
 30
0.0
 41
3.0
 42
3.0
 43
3.0
  0
MTEXT
  5
5279
330
51DF
100
AcDbEntity
  8
寸法線
 62
     0
100
AcDbMText
 10
621.0975029393996
 20
447.284810932887
 30
0.0
 40
5.0
 41
0.0
 71
     5
 72
     1
  1
60
  7
OKANO
 73
     1
 44
1.0
  0
POINT
  5
527A
330
51DF
100
AcDbEntity
  8
Defpoints
 62
     0
100
AcDbPoint
 10
592.0975029393996
 20
430.508103485632
 30
0.0
  0
POINT
  5
527B
330
51DF
100
AcDbEntity
  8
Defpoints
 62
     0
100
AcDbPoint
 10
650.0975029393995
 20
430.508103485632
 30
0.0
  0
POINT
  5
527C
330
51DF
100
AcDbEntity
  8
Defpoints
 62
     0
100
AcDbPoint
 10
650.0975029393995
 20
443.784810932887
 30
0.0
  0
ENDBLK
  5
51EA
330
51DF
100
AcDbEntity
  8
0
100
AcDbBlockEnd
  0
BLOCK
  5
51F5
330
51EB
100
AcDbEntity
  8
0
100
AcDbBlockBegin
  2
*D49
 70
     1
 10
0.0
 20
0.0
 30
0.0
  3
*D49
  1

  0
LINE
  5
527D
330
51EB
100
AcDbEntity
  8
寸法線
 62
     0
370
    -2
100
AcDbLine
 10
599.0975029393996
 20
418.5081034856311
 30
0.0
 11
599.0975029393996
 21
399.8566963660221
 31
0.0
  0
LINE
  5
527E
330
51EB
100
AcDbEntity
  8
寸法線
 62
     0
370
    -2
100
AcDbLine
 10
585.0975029393996
 20
418.5081034856311
 30
0.0
 11
585.0975029393996
 21
399.8566963660221
 31
0.0
  0
LINE
  5
527F
330
51EB
100
AcDbEntity
  8
寸法線
 62
     0
370
    -2
100
AcDbLine
 10
596.0975029393996
 20
402.8566963660221
 30
0.0
 11
588.0975029393996
 21
402.8566963660221
 31
0.0
  0
INSERT
  5
5280
330
51EB
100
AcDbEntity
  8
寸法線
 62
     0
370
    -2
100
AcDbBlockReference
  2
_Closed
 10
599.0975029393996
 20
402.8566963660221
 30
0.0
 41
3.0
 42
3.0
 43
3.0
  0
INSERT
  5
5281
330
51EB
100
AcDbEntity
  8
寸法線
 62
     0
370
    -2
100
AcDbBlockReference
  2
_Closed
 10
585.0975029393996
 20
402.8566963660221
 30
0.0
 41
3.0
 42
3.0
 43
3.0
 50
180.0
  0
MTEXT
  5
5282
330
51EB
100
AcDbEntity
  8
寸法線
 62
     0
100
AcDbMText
 10
592.0975029393996
 20
406.356696366022
 30
0.0
 40
5.0
 41
0.0
 71
     5
 72
     1
  1
14
  7
OKANO
 73
     1
 44
1.0
  0
POINT
  5
5283
330
51EB
100
AcDbEntity
  8
Defpoints
 62
     0
100
AcDbPoint
 10
599.0975029393996
 20
420.5081034856311
 30
0.0
  0
POINT
  5
5284
330
51EB
100
AcDbEntity
  8
Defpoints
 62
     0
100
AcDbPoint
 10
585.0975029393996
 20
420.5081034856311
 30
0.0
  0
POINT
  5
5285
330
51EB
100
AcDbEntity
  8
Defpoints
 62
     0
100
AcDbPoint
 10
585.0975029393996
 20
402.8566963660221
 30
0.0
  0
ENDBLK
  5
51F6
330
51EB
100
AcDbEntity
  8
0
100
AcDbBlockEnd
  0
BLOCK
  5
5384
330
537D
100
AcDbEntity
  8
0
100
AcDbBlockBegin
  2
*D61
 70
     1
 10
0.0
 20
0.0
 30
0.0
  3
*D61
  1

  0
LINE
  5
53FE
330
537D
100
AcDbEntity
  8
寸法線
 62
     0
370
    -2
100
AcDbLine
 10
230.2219604216364
 20
442.2091946707174
 30
0.0
 11
192.6059429052768
 21
481.0092316522885
 31
0.0
  0
MTEXT
  5
53FF
330
537D
100
AcDbEntity
  8
寸法線
 62
     0
100
AcDbMText
 10
227.7911478171659
 20
449.7454789163763
 30
0.0
 40
5.0
 41
0.0
 71
     5
 72
     1
  1
24.3
  7
OKANO
 11
0.6960670498620249
 21
-0.7179767838143359
 31
0.0
 73
     1
 44
1.0
  0
LINE
  5
5400
330
537D
100
AcDbEntity
  8
寸法線
 62
     0
370
    -2
100
AcDbLine
 10
174.3135114170558
 20
499.8774443203934
 30
0.0
 11
190.5177417556907
 21
483.1631620037315
 31
0.0
  0
INSERT
  5
5401
330
537D
100
AcDbEntity
  8
寸法線
 62
     0
370
    -2
100
AcDbBlockReference
  2
_Closed
 10
190.5177417556907
 20
483.1631620037315
 30
0.0
 41
3.0
 42
3.0
 43
3.0
 50
134.1123083940281
  0
POINT
  5
5402
330
537D
100
AcDbEntity
  8
Defpoints
 62
     0
100
AcDbPoint
 10
190.5177417556907
 20
483.1631620037315
 30
0.0
  0
POINT
  5
5403
330
537D
100
AcDbEntity
  8
Defpoints
 62
     0
100
AcDbPoint
 10
174.3135114170558
 20
499.8774443203934
 30
0.0
  0
ENDBLK
  5
5385
330
537D
100
AcDbEntity
  8
0
100
AcDbBlockEnd
  0
BLOCK
  5
5390
330
5386
100
AcDbEntity
  8
0
100
AcDbBlockBegin
  2
*D62
 70
     1
 10
0.0
 20
0.0
 30
0.0
  3
*D62
  1

  0
LINE
  5
5404
330
5386
100
AcDbEntity
  8
寸法線
 62
     0
370
    -2
100
AcDbLine
 10
131.3135114170563
 20
407.4281057275818
 30
0.0
 11
131.3135114170563
 21
390.3490129999861
 31
0.0
  0
LINE
  5
5405
330
5386
100
AcDbEntity
  8
寸法線
 62
     0
370
    -2
100
AcDbLine
 10
217.3135114170563
 20
407.4281057275818
 30
0.0
 11
217.3135114170563
 21
390.3490129999861
 31
0.0
  0
LINE
  5
5406
330
5386
100
AcDbEntity
  8
寸法線
 62
     0
370
    -2
100
AcDbLine
 10
134.3135114170563
 20
393.3490129999861
 30
0.0
 11
214.3135114170563
 21
393.3490129999861
 31
0.0
  0
INSERT
  5
5407
330
5386
100
AcDbEntity
  8
寸法線
 62
     0
370
    -2
100
AcDbBlockReference
  2
_Closed
 10
131.3135114170563
 20
393.3490129999861
 30
0.0
 41
3.0
 42
3.0
 43
3.0
 50
180.0
  0
INSERT
  5
5408
330
5386
100
AcDbEntity
  8
寸法線
 62
     0
370
    -2
100
AcDbBlockReference
  2
_Closed
 10
217.3135114170563
 20
393.3490129999861
 30
0.0
 41
3.0
 42
3.0
 43
3.0
  0
MTEXT
  5
5409
330
5386
100
AcDbEntity
  8
寸法線
 62
     0
100
AcDbMText
 10
174.3135114170563
 20
396.8490129999861
 30
0.0
 40
5.0
 41
0.0
 71
     5
 72
     1
  1
86
  7
OKANO
 73
     1
 44
1.0
  0
POINT
  5
540A
330
5386
100
AcDbEntity
  8
Defpoints
 62
     0
100
AcDbPoint
 10
131.3135114170563
 20
409.4281057275818
 30
0.0
  0
POINT
  5
540B
330
5386
100
AcDbEntity
  8
Defpoints
 62
     0
100
AcDbPoint
 10
217.3135114170563
 20
409.4281057275818
 30
0.0
  0
POINT
  5
540C
330
5386
100
AcDbEntity
  8
Defpoints
 62
     0
100
AcDbPoint
 10
217.3135114170563
 20
393.3490129999861
 30
0.0
  0
ENDBLK
  5
5391
330
5386
100
AcDbEntity
  8
0
100
AcDbBlockEnd
  0
BLOCK
  5
539C
330
5392
100
AcDbEntity
  8
0
100
AcDbBlockBegin
  2
*D63
 70
     1
 10
0.0
 20
0.0
 30
0.0
  3
*D63
  1

  0
LINE
  5
540D
330
5392
100
AcDbEntity
  8
寸法線
 62
     0
370
    -2
100
AcDbLine
 10
145.3135114170563
 20
433.9281057275818
 30
0.0
 11
145.3135114170563
 21
448.2048131748377
 31
0.0
  0
LINE
  5
540E
330
5392
100
AcDbEntity
  8
寸法線
 62
     0
370
    -2
100
AcDbLine
 10
203.29881668255
 20
425.1545236410285
 30
0.0
 11
203.29881668255
 21
448.2048131748377
 31
0.0
  0
LINE
  5
540F
330
5392
100
AcDbEntity
  8
寸法線
 62
     0
370
    -2
100
AcDbLine
 10
148.3135114170563
 20
445.2048131748377
 30
0.0
 11
200.29881668255
 21
445.2048131748377
 31
0.0
  0
INSERT
  5
5410
330
5392
100
AcDbEntity
  8
寸法線
 62
     0
370
    -2
100
AcDbBlockReference
  2
_Closed
 10
145.3135114170563
 20
445.2048131748377
 30
0.0
 41
3.0
 42
3.0
 43
3.0
 50
180.0
  0
INSERT
  5
5411
330
5392
100
AcDbEntity
  8
寸法線
 62
     0
370
    -2
100
AcDbBlockReference
  2
_Closed
 10
203.29881668255
 20
445.2048131748377
 30
0.0
 41
3.0
 42
3.0
 43
3.0
  0
MTEXT
  5
5412
330
5392
100
AcDbEntity
  8
寸法線
 62
     0
100
AcDbMText
 10
174.3061640498032
 20
451.2048131748376
 30
0.0
 40
10.0
 41
0.0
 71
     5
 72
     1
  1
60
  7
OKANO
 73
     1
 44
1.0
  0
POINT
  5
5413
330
5392
100
AcDbEntity
  8
Defpoints
 62
     0
100
AcDbPoint
 10
145.3135114170563
 20
431.9281057275818
 30
0.0
  0
POINT
  5
5414
330
5392
100
AcDbEntity
  8
Defpoints
 62
     0
100
AcDbPoint
 10
203.29881668255
 20
423.1545236410284
 30
0.0
  0
POINT
  5
5415
330
5392
100
AcDbEntity
  8
Defpoints
 62
     0
100
AcDbPoint
 10
203.29881668255
 20
445.2048131748377
 30
0.0
  0
ENDBLK
  5
539D
330
5392
100
AcDbEntity
  8
0
100
AcDbBlockEnd
  0
BLOCK
  5
53A8
330
539E
100
AcDbEntity
  8
0
100
AcDbBlockBegin
  2
*D64
 70
     1
 10
0.0
 20
0.0
 30
0.0
  3
*D64
  1

  0
LINE
  5
5416
330
539E
100
AcDbEntity
  8
寸法線
 62
     0
370
    -2
100
AcDbLine
 10
152.3135114170563
 20
419.9281057275818
 30
0.0
 11
152.3135114170563
 21
401.2766986079721
 31
0.0
  0
LINE
  5
5417
330
539E
100
AcDbEntity
  8
寸法線
 62
     0
370
    -2
100
AcDbLine
 10
138.3135114170563
 20
419.9281057275818
 30
0.0
 11
138.3135114170563
 21
401.2766986079721
 31
0.0
  0
LINE
  5
5418
330
539E
100
AcDbEntity
  8
寸法線
 62
     0
370
    -2
100
AcDbLine
 10
149.3135114170563
 20
404.2766986079721
 30
0.0
 11
141.3135114170563
 21
404.2766986079721
 31
0.0
  0
INSERT
  5
5419
330
539E
100
AcDbEntity
  8
寸法線
 62
     0
370
    -2
100
AcDbBlockReference
  2
_Closed
 10
152.3135114170563
 20
404.2766986079721
 30
0.0
 41
3.0
 42
3.0
 43
3.0
  0
INSERT
  5
541A
330
539E
100
AcDbEntity
  8
寸法線
 62
     0
370
    -2
100
AcDbBlockReference
  2
_Closed
 10
138.3135114170563
 20
404.2766986079721
 30
0.0
 41
3.0
 42
3.0
 43
3.0
 50
180.0
  0
MTEXT
  5
541B
330
539E
100
AcDbEntity
  8
寸法線
 62
     0
100
AcDbMText
 10
145.3135114170563
 20
407.7766986079721
 30
0.0
 40
5.0
 41
0.0
 71
     5
 72
     1
  1
14
  7
OKANO
 73
     1
 44
1.0
  0
POINT
  5
541C
330
539E
100
AcDbEntity
  8
Defpoints
 62
     0
100
AcDbPoint
 10
152.3135114170563
 20
421.9281057275818
 30
0.0
  0
POINT
  5
541D
330
539E
100
AcDbEntity
  8
Defpoints
 62
     0
100
AcDbPoint
 10
138.3135114170563
 20
421.9281057275818
 30
0.0
  0
POINT
  5
541E
330
539E
100
AcDbEntity
  8
Defpoints
 62
     0
100
AcDbPoint
 10
138.3135114170563
 20
404.2766986079721
 30
0.0
  0
ENDBLK
  5
53A9
330
539E
100
AcDbEntity
  8
0
100
AcDbBlockEnd
  0
BLOCK
  5
53B4
330
53AA
100
AcDbEntity
  8
0
100
AcDbBlockBegin
  2
*D65
 70
     1
 10
0.0
 20
0.0
 30
0.0
  3
*D65
  1

  0
LINE
  5
541F
330
53AA
100
AcDbEntity
  8
寸法線
 62
     0
370
    -2
100
AcDbLine
 10
205.3135114170563
 20
417.4281057275818
 30
0.0
 11
241.2870970394867
 21
417.4281057275818
 31
0.0
  0
LINE
  5
5420
330
53AA
100
AcDbEntity
  8
寸法線
 62
     0
370
    -2
100
AcDbLine
 10
205.3135114170563
 20
426.4281057275818
 30
0.0
 11
241.2870970394867
 21
426.4281057275818
 31
0.0
  0
LINE
  5
5421
330
53AA
100
AcDbEntity
  8
寸法線
 62
     0
370
    -2
100
AcDbLine
 10
238.2870970394867
 20
420.4281057275818
 30
0.0
 11
238.2870970394867
 21
423.4281057275818
 31
0.0
  0
INSERT
  5
5422
330
53AA
100
AcDbEntity
  8
寸法線
 62
     0
370
    -2
100
AcDbBlockReference
  2
_Closed
 10
238.2870970394867
 20
417.4281057275818
 30
0.0
 41
3.0
 42
3.0
 43
3.0
 50
270.0
  0
INSERT
  5
5423
330
53AA
100
AcDbEntity
  8
寸法線
 62
     0
370
    -2
100
AcDbBlockReference
  2
_Closed
 10
238.2870970394867
 20
426.4281057275818
 30
0.0
 41
3.0
 42
3.0
 43
3.0
 50
90.0
  0
MTEXT
  5
5424
330
53AA
100
AcDbEntity
  8
寸法線
 62
     0
100
AcDbMText
 10
234.7870970394867
 20
421.9281057275819
 30
0.0
 40
5.0
 41
0.0
 71
     5
 72
     1
  1
9
  7
OKANO
 11
0.0000000000000001
 21
1.0
 31
0.0
 73
     1
 44
1.0
  0
POINT
  5
5425
330
53AA
100
AcDbEntity
  8
Defpoints
 62
     0
100
AcDbPoint
 10
203.3135114170563
 20
417.4281057275818
 30
0.0
  0
POINT
  5
5426
330
53AA
100
AcDbEntity
  8
Defpoints
 62
     0
100
AcDbPoint
 10
203.3135114170563
 20
426.4281057275818
 30
0.0
  0
POINT
  5
5427
330
53AA
100
AcDbEntity
  8
Defpoints
 62
     0
100
AcDbPoint
 10
238.2870970394867
 20
426.4281057275818
 30
0.0
  0
ENDBLK
  5
53B5
330
53AA
100
AcDbEntity
  8
0
100
AcDbBlockEnd
  0
BLOCK
  5
53C0
330
53B6
100
AcDbEntity
  8
0
100
AcDbBlockBegin
  2
*D66
 70
     1
 10
0.0
 20
0.0
 30
0.0
  3
*D66
  1

  0
LINE
  5
5428
330
53B6
100
AcDbEntity
  8
寸法線
 62
     0
370
    -2
100
AcDbLine
 10
129.3135114170563
 20
409.4281057275818
 30
0.0
 11
107.3930470897587
 21
409.4281057275819
 31
0.0
  0
LINE
  5
5429
330
53B6
100
AcDbEntity
  8
寸法線
 62
     0
370
    -2
100
AcDbLine
 10
129.3135114170563
 20
434.4281057275818
 30
0.0
 11
107.3930470897587
 21
434.4281057275819
 31
0.0
  0
LINE
  5
542A
330
53B6
100
AcDbEntity
  8
寸法線
 62
     0
370
    -2
100
AcDbLine
 10
110.3930470897587
 20
412.4281057275819
 30
0.0
 11
110.3930470897587
 21
431.4281057275819
 31
0.0
  0
INSERT
  5
542B
330
53B6
100
AcDbEntity
  8
寸法線
 62
     0
370
    -2
100
AcDbBlockReference
  2
_Closed
 10
110.3930470897587
 20
409.4281057275819
 30
0.0
 41
3.0
 42
3.0
 43
3.0
 50
270.0
  0
INSERT
  5
542C
330
53B6
100
AcDbEntity
  8
寸法線
 62
     0
370
    -2
100
AcDbBlockReference
  2
_Closed
 10
110.3930470897587
 20
434.4281057275819
 30
0.0
 41
3.0
 42
3.0
 43
3.0
 50
90.0
  0
MTEXT
  5
542D
330
53B6
100
AcDbEntity
  8
寸法線
 62
     0
100
AcDbMText
 10
106.8925549637744
 20
421.9281057275819
 30
0.0
 40
5.0
 41
0.0
 71
     5
 72
     1
  1
25
  7
OKANO
 11
0.0000000000000001
 21
1.0
 31
0.0
 73
     1
 44
1.0
  0
POINT
  5
542E
330
53B6
100
AcDbEntity
  8
Defpoints
 62
     0
100
AcDbPoint
 10
131.3135114170563
 20
409.4281057275818
 30
0.0
  0
POINT
  5
542F
330
53B6
100
AcDbEntity
  8
Defpoints
 62
     0
100
AcDbPoint
 10
131.3135114170563
 20
434.4281057275818
 30
0.0
  0
POINT
  5
5430
330
53B6
100
AcDbEntity
  8
Defpoints
 62
     0
100
AcDbPoint
 10
110.3930470897587
 20
434.4281057275819
 30
0.0
  0
ENDBLK
  5
53C1
330
53B6
100
AcDbEntity
  8
0
100
AcDbBlockEnd
  0
BLOCK
  5
53CC
330
53C2
100
AcDbEntity
  8
0
100
AcDbBlockBegin
  2
*D67
 70
     1
 10
0.0
 20
0.0
 30
0.0
  3
*D67
  1

  0
LINE
  5
5431
330
53C2
100
AcDbEntity
  8
寸法線
 62
     0
370
    -2
100
AcDbLine
 10
151.8135114170563
 20
490.3168861623931
 30
0.0
 11
151.8135114170563
 21
516.2053832300751
 31
0.0
  0
LINE
  5
5432
330
53C2
100
AcDbEntity
  8
寸法線
 62
     0
370
    -2
100
AcDbLine
 10
197.3135114170563
 20
490.3168861623931
 30
0.0
 11
197.3135114170563
 21
516.2053832300751
 31
0.0
  0
LINE
  5
5433
330
53C2
100
AcDbEntity
  8
寸法線
 62
     0
370
    -2
100
AcDbLine
 10
154.8135114170563
 20
513.205383230075
 30
0.0
 11
194.3135114170563
 21
513.205383230075
 31
0.0
  0
INSERT
  5
5434
330
53C2
100
AcDbEntity
  8
寸法線
 62
     0
370
    -2
100
AcDbBlockReference
  2
_Closed
 10
151.8135114170563
 20
513.205383230075
 30
0.0
 41
3.0
 42
3.0
 43
3.0
 50
180.0
  0
INSERT
  5
5435
330
53C2
100
AcDbEntity
  8
寸法線
 62
     0
370
    -2
100
AcDbBlockReference
  2
_Closed
 10
197.3135114170563
 20
513.205383230075
 30
0.0
 41
3.0
 42
3.0
 43
3.0
  0
MTEXT
  5
5436
330
53C2
100
AcDbEntity
  8
寸法線
 62
     0
100
AcDbMText
 10
174.5635114170563
 20
516.7053832300751
 30
0.0
 40
5.0
 41
0.0
 71
     5
 72
     1
  1
48.89
  7
OKANO
 73
     1
 44
1.0
  0
POINT
  5
5437
330
53C2
100
AcDbEntity
  8
Defpoints
 62
     0
100
AcDbPoint
 10
151.8135114170563
 20
488.3168861623931
 30
0.0
  0
POINT
  5
5438
330
53C2
100
AcDbEntity
  8
Defpoints
 62
     0
100
AcDbPoint
 10
197.3135114170563
 20
488.3168861623931
 30
0.0
  0
POINT
  5
5439
330
53C2
100
AcDbEntity
  8
Defpoints
 62
     0
100
AcDbPoint
 10
197.3135114170563
 20
513.205383230075
 30
0.0
  0
ENDBLK
  5
53CD
330
53C2
100
AcDbEntity
  8
0
100
AcDbBlockEnd
  0
BLOCK
  5
53D8
330
53CE
100
AcDbEntity
  8
0
100
AcDbBlockBegin
  2
*D68
 70
     1
 10
0.0
 20
0.0
 30
0.0
  3
*D68
  1

  0
LINE
  5
543A
330
53CE
100
AcDbEntity
  8
寸法線
 62
     0
370
    -2
100
AcDbLine
 10
154.1071310063027
 20
490.3168861623931
 30
0.0
 11
154.1071310063027
 21
508.4086836048097
 31
0.0
  0
LINE
  5
543B
330
53CE
100
AcDbEntity
  8
寸法線
 62
     0
370
    -2
100
AcDbLine
 10
194.5198918278099
 20
490.3168861623931
 30
0.0
 11
194.5198918278099
 21
508.4086836048097
 31
0.0
  0
LINE
  5
543C
330
53CE
100
AcDbEntity
  8
寸法線
 62
     0
370
    -2
100
AcDbLine
 10
157.1071310063027
 20
505.4086836048098
 30
0.0
 11
191.5198918278099
 21
505.4086836048098
 31
0.0
  0
INSERT
  5
543D
330
53CE
100
AcDbEntity
  8
寸法線
 62
     0
370
    -2
100
AcDbBlockReference
  2
_Closed
 10
154.1071310063027
 20
505.4086836048098
 30
0.0
 41
3.0
 42
3.0
 43
3.0
 50
180.0
  0
INSERT
  5
543E
330
53CE
100
AcDbEntity
  8
寸法線
 62
     0
370
    -2
100
AcDbBlockReference
  2
_Closed
 10
194.5198918278099
 20
505.4086836048098
 30
0.0
 41
3.0
 42
3.0
 43
3.0
  0
MTEXT
  5
543F
330
53CE
100
AcDbEntity
  8
寸法線
 62
     0
100
AcDbMText
 10
174.3135114170563
 20
508.9086836048097
 30
0.0
 40
5.0
 41
0.0
 71
     5
 72
     1
  1
40.89
  7
OKANO
 73
     1
 44
1.0
  0
POINT
  5
5440
330
53CE
100
AcDbEntity
  8
Defpoints
 62
     0
100
AcDbPoint
 10
154.1071310063027
 20
488.3168861623931
 30
0.0
  0
POINT
  5
5441
330
53CE
100
AcDbEntity
  8
Defpoints
 62
     0
100
AcDbPoint
 10
194.5198918278099
 20
488.3168861623931
 30
0.0
  0
POINT
  5
5442
330
53CE
100
AcDbEntity
  8
Defpoints
 62
     0
100
AcDbPoint
 10
194.5198918278099
 20
505.4086836048098
 30
0.0
  0
ENDBLK
  5
53D9
330
53CE
100
AcDbEntity
  8
0
100
AcDbBlockEnd
  0
BLOCK
  5
53E4
330
53DA
100
AcDbEntity
  8
0
100
AcDbBlockBegin
  2
*D69
 70
     1
 10
0.0
 20
0.0
 30
0.0
  3
*D69
  1

  0
LINE
  5
5443
330
53DA
100
AcDbEntity
  8
寸法線
 62
     0
370
    -2
100
AcDbLine
 10
199.3135114170563
 20
488.3168861623931
 30
0.0
 11
232.1966589258936
 21
488.3168861623931
 31
0.0
  0
LINE
  5
5444
330
53DA
100
AcDbEntity
  8
寸法線
 62
     0
370
    -2
100
AcDbLine
 10
218.3135114170563
 20
466.97515438391
 30
0.0
 11
232.1966589258936
 21
466.97515438391
 31
0.0
  0
LINE
  5
5445
330
53DA
100
AcDbEntity
  8
寸法線
 62
     0
370
    -2
100
AcDbLine
 10
229.1966589258936
 20
485.3168861623931
 30
0.0
 11
229.1966589258936
 21
469.9751543839099
 31
0.0
  0
INSERT
  5
5446
330
53DA
100
AcDbEntity
  8
寸法線
 62
     0
370
    -2
100
AcDbBlockReference
  2
_Closed
 10
229.1966589258936
 20
488.3168861623931
 30
0.0
 41
3.0
 42
3.0
 43
3.0
 50
90.0
  0
INSERT
  5
5447
330
53DA
100
AcDbEntity
  8
寸法線
 62
     0
370
    -2
100
AcDbBlockReference
  2
_Closed
 10
229.1966589258936
 20
466.97515438391
 30
0.0
 41
3.0
 42
3.0
 43
3.0
 50
270.0
  0
MTEXT
  5
5448
330
53DA
100
AcDbEntity
  8
寸法線
 62
     0
100
AcDbMText
 10
225.6961667999092
 20
477.6460202731516
 30
0.0
 40
5.0
 41
0.0
 71
     5
 72
     1
  1
21
  7
OKANO
 11
0.0000000000000001
 21
1.0
 31
0.0
 73
     1
 44
1.0
  0
POINT
  5
5449
330
53DA
100
AcDbEntity
  8
Defpoints
 62
     0
100
AcDbPoint
 10
197.3135114170563
 20
488.3168861623931
 30
0.0
  0
POINT
  5
544A
330
53DA
100
AcDbEntity
  8
Defpoints
 62
     0
100
AcDbPoint
 10
216.3135114170563
 20
466.97515438391
 30
0.0
  0
POINT
  5
544B
330
53DA
100
AcDbEntity
  8
Defpoints
 62
     0
100
AcDbPoint
 10
229.1966589258936
 20
466.97515438391
 30
0.0
  0
ENDBLK
  5
53E5
330
53DA
100
AcDbEntity
  8
0
100
AcDbBlockEnd
  0
BLOCK
  5
53F0
330
53E6
100
AcDbEntity
  8
0
100
AcDbBlockBegin
  2
*D70
 70
     1
 10
0.0
 20
0.0
 30
0.0
  3
*D70
  1

  0
LINE
  5
54C3
330
53E6
100
AcDbEntity
  8
寸法線
 62
     0
370
    -2
100
AcDbLine
 10
101.3710052003703
 20
487.97515438391
 30
0.0
 11
121.2104354120927
 21
487.97515438391
 31
0.0
  0
LINE
  5
54C4
330
53E6
100
AcDbEntity
  8
寸法線
 62
     0
370
    -2
100
AcDbLine
 10
100.8710052003702
 20
466.9751543839099
 30
0.0
 11
121.2104354120926
 21
466.9751543839099
 31
0.0
  0
LINE
  5
54C5
330
53E6
100
AcDbEntity
  8
寸法線
 62
     0
370
    -2
100
AcDbLine
 10
118.2104354120927
 20
484.97515438391
 30
0.0
 11
118.2104354120926
 21
469.9751543839099
 31
0.0
  0
INSERT
  5
54C6
330
53E6
100
AcDbEntity
  8
寸法線
 62
     0
370
    -2
100
AcDbBlockReference
  2
_Closed
 10
118.2104354120927
 20
487.97515438391
 30
0.0
 41
3.0
 42
3.0
 43
3.0
 50
90.0
  0
INSERT
  5
54C7
330
53E6
100
AcDbEntity
  8
寸法線
 62
     0
370
    -2
100
AcDbBlockReference
  2
_Closed
 10
118.2104354120926
 20
466.9751543839099
 30
0.0
 41
3.0
 42
3.0
 43
3.0
 50
270.0
  0
MTEXT
  5
54C8
330
53E6
100
AcDbEntity
  8
寸法線
 62
     0
100
AcDbMText
 10
114.7099432861083
 20
477.47515438391
 30
0.0
 40
5.0
 41
0.0
 71
     5
 72
     1
  1
21
  7
OKANO
 11
0.0000000000000001
 21
1.0
 31
0.0
 73
     1
 44
1.0
  0
POINT
  5
54C9
330
53E6
100
AcDbEntity
  8
Defpoints
 62
     0
100
AcDbPoint
 10
99.37100520037029
 20
487.97515438391
 30
0.0
  0
POINT
  5
54CA
330
53E6
100
AcDbEntity
  8
Defpoints
 62
     0
100
AcDbPoint
 10
98.8710052003703
 20
466.9751543839099
 30
0.0
  0
POINT
  5
54CB
330
53E6
100
AcDbEntity
  8
Defpoints
 62
     0
100
AcDbPoint
 10
118.2104354120926
 20
466.9751543839099
 30
0.0
  0
ENDBLK
  5
53F1
330
53E6
100
AcDbEntity
  8
0
100
AcDbBlockEnd
  0
BLOCK
  5
53FC
330
53F2
100
AcDbEntity
  8
0
100
AcDbBlockBegin
  2
*D71
 70
     1
 10
0.0
 20
0.0
 30
0.0
  3
*D71
  1

  0
LINE
  5
54BA
330
53F2
100
AcDbEntity
  8
寸法線
 62
     0
370
    -2
100
AcDbLine
 10
75.37100520037029
 20
488.9751543839099
 30
0.0
 11
75.37100520037029
 21
502.1103379425013
 31
0.0
  0
LINE
  5
54BB
330
53F2
100
AcDbEntity
  8
寸法線
 62
     0
370
    -2
100
AcDbLine
 10
100.3710052003703
 20
488.97515438391
 30
0.0
 11
100.3710052003703
 21
502.1103379425013
 31
0.0
  0
LINE
  5
54BC
330
53F2
100
AcDbEntity
  8
寸法線
 62
     0
370
    -2
100
AcDbLine
 10
78.37100520037029
 20
499.1103379425013
 30
0.0
 11
97.3710052003703
 21
499.1103379425013
 31
0.0
  0
INSERT
  5
54BD
330
53F2
100
AcDbEntity
  8
寸法線
 62
     0
370
    -2
100
AcDbBlockReference
  2
_Closed
 10
75.37100520037029
 20
499.1103379425013
 30
0.0
 41
3.0
 42
3.0
 43
3.0
 50
180.0
  0
INSERT
  5
54BE
330
53F2
100
AcDbEntity
  8
寸法線
 62
     0
370
    -2
100
AcDbBlockReference
  2
_Closed
 10
100.3710052003703
 20
499.1103379425013
 30
0.0
 41
3.0
 42
3.0
 43
3.0
  0
MTEXT
  5
54BF
330
53F2
100
AcDbEntity
  8
寸法線
 62
     0
100
AcDbMText
 10
87.87100520037029
 20
502.6108300684856
 30
0.0
 40
5.0
 41
0.0
 71
     5
 72
     1
  1
25
  7
OKANO
 73
     1
 44
1.0
  0
POINT
  5
54C0
330
53F2
100
AcDbEntity
  8
Defpoints
 62
     0
100
AcDbPoint
 10
75.37100520037029
 20
486.9751543839099
 30
0.0
  0
POINT
  5
54C1
330
53F2
100
AcDbEntity
  8
Defpoints
 62
     0
100
AcDbPoint
 10
100.3710052003703
 20
486.9751543839099
 30
0.0
  0
POINT
  5
54C2
330
53F2
100
AcDbEntity
  8
Defpoints
 62
     0
100
AcDbPoint
 10
100.3710052003703
 20
499.1103379425013
 30
0.0
  0
ENDBLK
  5
53FD
330
53F2
100
AcDbEntity
  8
0
100
AcDbBlockEnd
  0
BLOCK
  5
54F6
330
54EA
100
AcDbEntity
  8
0
100
AcDbBlockBegin
  2
*D72
 70
     1
 10
0.0
 20
0.0
 30
0.0
  3
*D72
  1

  0
LINE
  5
54F8
330
54EA
100
AcDbEntity
  8
寸法線
 62
     0
370
    -2
100
AcDbLine
 10
75.37100520037026
 20
465.9751543839099
 30
0.0
 11
75.37100520037026
 21
452.1051523867629
 31
0.0
  0
LINE
  5
54F9
330
54EA
100
AcDbEntity
  8
寸法線
 62
     0
370
    -2
100
AcDbLine
 10
76.87100520037029
 20
464.97515438391
 30
0.0
 11
76.87100520037029
 21
452.1051523867629
 31
0.0
  0
LINE
  5
54FA
330
54EA
100
AcDbEntity
  8
寸法線
 62
     0
370
    -2
100
AcDbLine
 10
72.37100520037026
 20
455.1051523867629
 30
0.0
 11
69.37100520037026
 21
455.1051523867629
 31
0.0
  0
LINE
  5
54FB
330
54EA
100
AcDbEntity
  8
寸法線
 62
     0
370
    -2
100
AcDbLine
 10
79.87100520037029
 20
455.1051523867629
 30
0.0
 11
90.88895439280141
 21
455.1051523867629
 31
0.0
  0
LINE
  5
54FC
330
54EA
100
AcDbEntity
  8
寸法線
 62
     0
370
    -2
100
AcDbLine
 10
75.37100520037026
 20
455.1051523867629
 30
0.0
 11
76.87100520037029
 21
455.1051523867629
 31
0.0
  0
INSERT
  5
54FD
330
54EA
100
AcDbEntity
  8
寸法線
 62
     0
370
    -2
100
AcDbBlockReference
  2
_Closed
 10
75.37100520037026
 20
455.1051523867629
 30
0.0
 41
3.0
 42
3.0
 43
3.0
  0
INSERT
  5
54FE
330
54EA
100
AcDbEntity
  8
寸法線
 62
     0
370
    -2
100
AcDbBlockReference
  2
_Closed
 10
76.87100520037029
 20
455.1051523867629
 30
0.0
 41
3.0
 42
3.0
 43
3.0
 50
180.0
  0
MTEXT
  5
54FF
330
54EA
100
AcDbEntity
  8
寸法線
 62
     0
100
AcDbMText
 10
86.87997979658586
 20
458.6051523867629
 30
0.0
 40
5.0
 41
0.0
 71
     5
 72
     1
  1
1.5
  7
OKANO
 73
     1
 44
1.0
  0
POINT
  5
5500
330
54EA
100
AcDbEntity
  8
Defpoints
 62
     0
100
AcDbPoint
 10
75.37100520037026
 20
467.97515438391
 30
0.0
  0
POINT
  5
5501
330
54EA
100
AcDbEntity
  8
Defpoints
 62
     0
100
AcDbPoint
 10
76.87100520037029
 20
466.9751543839099
 30
0.0
  0
POINT
  5
5502
330
54EA
100
AcDbEntity
  8
Defpoints
 62
     0
100
AcDbPoint
 10
76.87100520037029
 20
455.1051523867629
 30
0.0
  0
ENDBLK
  5
54F7
330
54EA
100
AcDbEntity
  8
0
100
AcDbBlockEnd
  0
ENDSEC
  0
SECTION
  2
ENTITIES
  0
TEXT
  5
497A
330
1F
100
AcDbEntity
  8
文字
100
AcDbText
 10
551.2641643210042
 20
22.39563037806796
 30
0.0
 40
3.12
  1
DRAWN
 51
15.0
  7
OKANO
100
AcDbText
  0
TEXT
  5
497B
330
1F
100
AcDbEntity
  8
文字
100
AcDbText
 10
549.5968247804726
 20
30.7245706741818
 30
0.0
 40
3.12
  1
FILM NAME
 51
15.0
  7
OKANO
100
AcDbText
  0
TEXT
  5
497C
330
1F
100
AcDbEntity
  8
文字
100
AcDbText
 10
552.2645677604349
 20
13.06721746124922
 30
0.0
 40
3.12
  1
APPR
 51
15.0
  7
OKANO
100
AcDbText
  0
TEXT
  5
497D
330
1F
100
AcDbEntity
  8
文字
100
AcDbText
 10
551.9310989976641
 20
8.736168415200651
 30
0.0
 40
3.12
  1
ISSUED
 51
15.0
  7
OKANO
100
AcDbText
  0
TEXT
  5
497E
330
1F
100
AcDbEntity
  8
文字
100
AcDbText
 10
551.9310989976641
 20
17.73142430328121
 30
0.0
 40
3.12
  1
CHECK
 51
15.0
  7
OKANO
100
AcDbText
  0
LWPOLYLINE
  5
497F
330
1F
100
AcDbEntity
  8
太線
100
AcDbPolyline
 90
        4
 70
     1
 43
0.0
 10
546.8970003617892
 20
39.3029896417871
 10
687.2970003617893
 20
39.3029896417871
 10
687.2970003617893
 20
6.542989641787102
 10
546.8970003617892
 20
6.542989641787102
  0
LINE
  5
4980
330
1F
100
AcDbEntity
  8
太線
100
AcDbLine
 10
546.8970003617893
 20
28.3829896417871
 30
0.0
 11
687.2970003617893
 21
28.3829896417871
 31
0.0
  0
LINE
  5
4981
330
1F
100
AcDbEntity
  8
太線
100
AcDbLine
 10
578.0970003617892
 20
39.3029896417871
 30
0.0
 11
578.0970003617892
 21
6.542989641787102
 31
0.0
  0
TEXT
  5
4982
330
1F
100
AcDbEntity
  8
文字
100
AcDbText
 10
592.2807039132232
 20
10.40195662787243
 30
0.0
 40
6.24
  1
joint kogyo T.okano
 51
15.0
  7
OKANO
100
AcDbText
  0
TEXT
  5
4983
330
1F
100
AcDbEntity
  8
文字
100
AcDbText
 10
582.5458969978873
 20
29.58003958734656
 30
0.0
 40
6.24
  1
F-999-20101201　Auto CAD
 51
15.0
  7
OKANO
100
AcDbText
  0
TEXT
  5
49ED
330
1F
100
AcDbEntity
  8
文字
100
AcDbText
 10
585.1306625373804
 20
18.6333035883814
 30
0.0
 40
5.0
  1
28-UZ U字ﾎﾞﾙﾄ用座金
 51
15.0
  7
OKANO
100
AcDbText
  0
TEXT
  5
49EE
330
1F
100
AcDbEntity
  8
文字
100
AcDbText
 10
336.65336429791
 20
162.6378810227605
 30
0.0
 40
7.0
  1
電気鍍金仕上げ
 51
15.0
  7
OKANO
100
AcDbText
  0
ARC
  5
4A1C
330
1F
100
AcDbEntity
  8
太線
100
AcDbCircle
 10
334.4269513924339
 20
241.7703337123684
 30
0.0
 40
4.5
100
AcDbArc
 50
90.0
 51
270.0
  0
ARC
  5
4A1D
330
1F
100
AcDbEntity
  8
太線
100
AcDbCircle
 10
339.4269513924339
 20
241.7703337123684
 30
0.0
 40
4.5
100
AcDbArc
 50
270.0
 51
90.0
  0
ARC
  5
4A24
330
1F
100
AcDbEntity
  8
太線
100
AcDbCircle
 10
332.9269513924339
 20
241.7703337123684
 30
0.0
 40
10.0
100
AcDbArc
 50
90.0
 51
270.0
  0
ARC
  5
4A26
330
1F
100
AcDbEntity
  8
太線
100
AcDbCircle
 10
398.9269513924339
 20
241.7703337123684
 30
0.0
 40
10.0
100
AcDbArc
 50
270.0
 51
90.0
  0
LINE
  5
4A27
330
1F
100
AcDbEntity
  8
太線
100
AcDbLine
 10
332.9269513924339
 20
251.7703337123684
 30
0.0
 11
398.9269513924339
 21
251.7703337123684
 31
0.0
  0
LINE
  5
4A28
330
1F
100
AcDbEntity
  8
太線
100
AcDbLine
 10
332.9269513924339
 20
231.7703337123684
 30
0.0
 11
398.9269513924339
 21
231.7703337123684
 31
0.0
  0
LINE
  5
4A29
330
1F
100
AcDbEntity
  8
太線
100
AcDbLine
 10
322.9269513924339
 20
206.9286019338853
 30
0.0
 11
322.9269513924339
 21
210.4286019338853
 31
0.0
  0
LINE
  5
4A2A
330
1F
100
AcDbEntity
  8
太線
100
AcDbLine
 10
322.9269513924339
 20
210.4286019338853
 30
0.0
 11
408.9269513924339
 21
210.4286019338853
 31
0.0
  0
LINE
  5
4A2B
330
1F
100
AcDbEntity
  8
太線
100
AcDbLine
 10
408.9269513924339
 20
210.4286019338853
 30
0.0
 11
408.9269513924339
 21
206.9286019338853
 31
0.0
  0
LINE
  5
4A2C
330
1F
100
AcDbEntity
  8
太線
100
AcDbLine
 10
408.9269513924339
 20
206.9286019338853
 30
0.0
 11
322.9269513924339
 21
206.9286019338853
 31
0.0
  0
LINE
  5
4A2D
330
1F
100
AcDbEntity
  8
太線
100
AcDbLine
 10
334.4269513924339
 20
246.2703337123684
 30
0.0
 11
339.4269513924339
 21
246.2703337123684
 31
0.0
  0
LINE
  5
4A2E
330
1F
100
AcDbEntity
  8
太線
100
AcDbLine
 10
339.4269513924339
 20
237.2703337123684
 30
0.0
 11
334.4269513924339
 21
237.2703337123684
 31
0.0
  0
ARC
  5
4A2F
330
1F
100
AcDbEntity
  8
太線
100
AcDbCircle
 10
397.4269513924339
 20
241.7703337123684
 30
0.0
 40
4.5
100
AcDbArc
 50
270.0
 51
90.0
  0
ARC
  5
4A30
330
1F
100
AcDbEntity
  8
太線
100
AcDbCircle
 10
392.4269513924339
 20
241.7703337123684
 30
0.0
 40
4.5
100
AcDbArc
 50
90.0
 51
270.0
  0
LINE
  5
4A31
330
1F
100
AcDbEntity
  8
太線
100
AcDbLine
 10
397.4269513924339
 20
237.2703337123684
 30
0.0
 11
392.4269513924339
 21
237.2703337123684
 31
0.0
  0
LINE
  5
4A32
330
1F
100
AcDbEntity
  8
太線
100
AcDbLine
 10
392.4269513924339
 20
246.2703337123684
 30
0.0
 11
397.4269513924339
 21
246.2703337123684
 31
0.0
  0
DIMENSION
  5
4A37
330
1F
100
AcDbEntity
  8
寸法線
100
AcDbDimension
  2
*D2
 10
431.4955710108679
 20
210.4286019338853
 30
0.0
 11
427.9955710108678
 21
219.0314876168554
 31
0.0
 70
    32
  1
3
 71
     5
 42
3.5
  3
sunpo
100
AcDbAlignedDimension
 13
408.9269513924339
 23
206.9286019338853
 33
0.0
 14
408.9269513924339
 24
210.4286019338853
 34
0.0
 50
90.0
100
AcDbRotatedDimension
1001
ACAD
1000
DSTYLE
1002
{
1070
    40
1040
1.0
1002
}
  0
DIMENSION
  5
4A46
330
1F
100
AcDbEntity
  8
寸法線
100
AcDbDimension
  2
*D3
 10
408.9269513924339
 20
191.4599889956402
 30
0.0
 11
365.9269513924339
 21
194.9599889956402
 31
0.0
 70
    32
 71
     5
 42
86.0
  3
sunpo
100
AcDbAlignedDimension
 13
322.9269513924339
 23
206.9286019338853
 33
0.0
 14
408.9269513924339
 24
206.9286019338853
 34
0.0
100
AcDbRotatedDimension
1001
ACAD
1000
DSTYLE
1002
{
1070
    40
1040
1.0
1002
}
  0
DIMENSION
  5
4A68
330
1F
100
AcDbEntity
  8
寸法線
100
AcDbDimension
  2
*D4
 10
394.9269513924339
 20
265.0470411596243
 30
0.0
 11
365.9269513924339
 21
268.5470411596243
 31
0.0
 70
    32
  1
60
 71
     5
 42
58.0
  3
sunpo
100
AcDbAlignedDimension
 13
336.9269513924339
 23
251.7703337123684
 33
0.0
 14
394.9269513924339
 24
251.7703337123684
 34
0.0
100
AcDbRotatedDimension
1001
ACAD
1000
DSTYLE
1002
{
1070
    40
1040
1.0
1002
}
  0
DIMENSION
  5
4A7E
330
1F
100
AcDbEntity
  8
寸法線
100
AcDbDimension
  2
*D5
 10
329.9269513924339
 20
224.1189265927587
 30
0.0
 11
336.9269513924339
 21
227.6189265927587
 31
0.0
 70
    32
 71
     5
 42
14.0
  3
sunpo
100
AcDbAlignedDimension
 13
343.9269513924339
 23
241.7703337123684
 33
0.0
 14
329.9269513924339
 24
241.7703337123684
 34
0.0
100
AcDbRotatedDimension
1001
ACAD
1000
DSTYLE
1002
{
1070
    40
1040
1.0
1002
}
  0
DIMENSION
  5
4A8B
330
1F
100
AcDbEntity
  8
寸法線
100
AcDbDimension
  2
*D6
 10
429.9005370148643
 20
246.2703337123684
 30
0.0
 11
426.4005370148642
 21
241.7703337123685
 31
0.0
 70
    32
 71
     5
 42
9.0
  3
sunpo
100
AcDbAlignedDimension
 13
394.9269513924339
 23
237.2703337123684
 33
0.0
 14
394.9269513924339
 24
246.2703337123684
 34
0.0
 50
90.0
100
AcDbRotatedDimension
1001
ACAD
1000
DSTYLE
1002
{
1070
    40
1040
1.0
1002
}
  0
DIMENSION
  5
4A99
330
1F
100
AcDbEntity
  8
寸法線
100
AcDbDimension
  2
*D7
 10
308.8114766094459
 20
231.7703337123685
 30
0.0
 11
305.3109844834616
 21
241.7703337123685
 31
0.0
 70
    32
 71
     5
 42
20.0
  3
sunpo
100
AcDbAlignedDimension
 13
332.9269513924339
 23
251.7703337123684
 33
0.0
 14
332.9269513924339
 24
231.7703337123684
 34
0.0
 50
90.0
100
AcDbRotatedDimension
1001
ACAD
1000
DSTYLE
1002
{
1070
    40
1040
1.0
1002
}
  0
TEXT
  5
4B11
330
1F
100
AcDbEntity
  8
文字
100
AcDbText
 10
356.2372617775642
 20
238.1909843391034
 30
0.0
 40
6.24
  1
座金
 51
15.0
  7
OKANO
100
AcDbText
  0
TEXT
  5
4C31
330
1F
100
AcDbEntity
  8
文字
100
AcDbText
 10
338.4984284976412
 20
287.0627369208675
 30
0.0
 40
10.0
  1
28-UZ-20
 51
15.0
  7
OKANO
100
AcDbText
  0
TEXT
  5
4CF3
330
1F
100
AcDbEntity
  8
文字
100
AcDbText
 10
279.3794333370078
 20
517.6963213188482
 30
0.0
 40
10.0
  1
台座・座金　ステンレス製生地　(SUS304)
 51
15.0
  7
OKANO
100
AcDbText
  0
DIMENSION
  5
4D8A
330
1F
100
AcDbEntity
  8
寸法線
100
AcDbDimension
  2
*D8
 10
543.8844247793288
 20
261.6325066015328
 30
0.0
 11
540.3839326533444
 21
251.3126769249269
 31
0.0
 70
    32
  1
20
 71
     5
 42
20.63965935321198
  3
sunpo
100
AcDbAlignedDimension
 13
530.0190453160296
 23
240.9928472483209
 33
0.0
 14
520.0190453160296
 24
261.6325066015328
 34
0.0
 50
90.0
100
AcDbRotatedDimension
1001
ACAD
1000
DSTYLE
1002
{
1070
    40
1040
1.0
1070
   279
1070
     1
1002
}
  0
DIMENSION
  5
4D8B
330
1F
100
AcDbEntity
  8
寸法線
100
AcDbDimension
  2
*D9
 10
543.8844247793288
 20
240.9928472483209
 30
0.0
 11
540.3839326533446
 21
231.3126769249265
 31
0.0
 70
    32
  1
20
 71
     5
 42
19.36034064678892
  3
sunpo
100
AcDbAlignedDimension
 13
520.0190453160296
 23
221.6325066015319
 33
0.0
 14
530.0190453160296
 24
240.9928472483209
 34
0.0
 50
90.0
100
AcDbRotatedDimension
1001
ACAD
1000
DSTYLE
1002
{
1070
    40
1040
1.0
1002
}
  0
LINE
  5
4D8C
330
1F
100
AcDbEntity
  8
太線
100
AcDbLine
 10
530.0190453160296
 20
231.6325066015319
 30
0.0
 11
530.0190453160296
 21
240.9928472483209
 31
0.0
  0
ARC
  5
4D8D
330
1F
100
AcDbEntity
  8
太線
100
AcDbCircle
 10
520.0190453160296
 20
231.6325066015319
 30
0.0
 40
10.0
100
AcDbArc
 50
270.0
 51
0.0
  0
LINE
  5
4D8E
330
1F
100
AcDbEntity
  8
太線
100
AcDbLine
 10
454.0190453160295
 20
221.6325066015319
 30
0.0
 11
520.0190453160296
 21
221.6325066015319
 31
0.0
  0
ARC
  5
4D8F
330
1F
100
AcDbEntity
  8
太線
100
AcDbCircle
 10
454.0190453160295
 20
231.6325066015319
 30
0.0
 40
10.0
100
AcDbArc
 50
180.0
 51
270.0
  0
LINE
  5
4D90
330
1F
100
AcDbEntity
  8
太線
100
AcDbLine
 10
444.0190453160295
 20
241.6325066015319
 30
0.0
 11
444.0190453160295
 21
231.6325066015319
 31
0.0
  0
LINE
  5
4D91
330
1F
100
AcDbEntity
  8
太線
100
AcDbLine
 10
530.0190453160296
 20
251.6325066015328
 30
0.0
 11
530.0190453160296
 21
240.9928472483209
 31
0.0
  0
LINE
  5
4D92
330
1F
100
AcDbEntity
  8
太線
100
AcDbLine
 10
444.0190453160295
 20
241.6325066015319
 30
0.0
 11
444.0190453160295
 21
251.6325066015328
 31
0.0
  0
DIMENSION
  5
4D93
330
1F
100
AcDbEntity
  8
寸法線
100
AcDbDimension
  2
*D10
 10
450.0190453160294
 20
223.9810994819229
 30
0.0
 11
457.0190453160295
 21
227.4810994819229
 31
0.0
 70
    32
 71
     5
 42
14.0
  3
sunpo
100
AcDbAlignedDimension
 13
464.0190453160295
 23
241.6325066015319
 33
0.0
 14
450.0190453160294
 24
241.6325066015319
 34
0.0
100
AcDbRotatedDimension
1001
ACAD
1000
DSTYLE
1002
{
1070
    40
1040
1.0
1002
}
  0
LINE
  5
4D94
330
1F
100
AcDbEntity
  8
太線
100
AcDbLine
 10
512.5190453160296
 20
246.1325066015319
 30
0.0
 11
517.5190453160296
 21
246.1325066015319
 31
0.0
  0
LINE
  5
4D95
330
1F
100
AcDbEntity
  8
太線
100
AcDbLine
 10
517.5190453160296
 20
237.1325066015328
 30
0.0
 11
512.5190453160296
 21
237.1325066015328
 31
0.0
  0
ARC
  5
4D96
330
1F
100
AcDbEntity
  8
太線
100
AcDbCircle
 10
512.5190453160296
 20
241.6325066015319
 30
0.0
 40
4.5
100
AcDbArc
 50
90.0
 51
270.0
  0
ARC
  5
4D97
330
1F
100
AcDbEntity
  8
太線
100
AcDbCircle
 10
517.5190453160296
 20
241.6325066015319
 30
0.0
 40
4.5
100
AcDbArc
 50
270.0
 51
90.0
  0
LINE
  5
4D98
330
1F
100
AcDbEntity
  8
太線
100
AcDbLine
 10
459.5190453160296
 20
237.1325066015328
 30
0.0
 11
454.5190453160294
 21
237.1325066015328
 31
0.0
  0
LINE
  5
4D99
330
1F
100
AcDbEntity
  8
太線
100
AcDbLine
 10
454.5190453160294
 20
246.1325066015319
 30
0.0
 11
459.5190453160296
 21
246.1325066015319
 31
0.0
  0
ARC
  5
4D9A
330
1F
100
AcDbEntity
  8
太線
100
AcDbCircle
 10
459.5190453160296
 20
241.6325066015319
 30
0.0
 40
4.5
100
AcDbArc
 50
270.0
 51
90.0
  0
ARC
  5
4D9B
330
1F
100
AcDbEntity
  8
太線
100
AcDbCircle
 10
454.5190453160294
 20
241.6325066015319
 30
0.0
 40
4.5
100
AcDbArc
 50
90.0
 51
270.0
  0
LINE
  5
4D9C
330
1F
100
AcDbEntity
  8
太線
100
AcDbLine
 10
454.0190453160295
 20
261.6325066015328
 30
0.0
 11
520.0190453160296
 21
261.6325066015328
 31
0.0
  0
ARC
  5
4D9D
330
1F
100
AcDbEntity
  8
太線
100
AcDbCircle
 10
454.0190453160295
 20
251.6325066015328
 30
0.0
 40
10.0
100
AcDbArc
 50
90.0
 51
180.0
  0
ARC
  5
4D9E
330
1F
100
AcDbEntity
  8
太線
100
AcDbCircle
 10
520.0190453160296
 20
251.6325066015328
 30
0.0
 40
10.0
100
AcDbArc
 50
0.0
 51
90.0
  0
DIMENSION
  5
4E4A
330
1F
100
AcDbEntity
  8
寸法線
100
AcDbDimension
  2
*D11
 10
631.7799609810428
 20
246.2703337123684
 30
0.0
 11
628.2799609810429
 21
241.770333712369
 31
0.0
 70
    32
 71
     5
 42
8.99999999999909
  3
sunpo
100
AcDbAlignedDimension
 13
652.5975029393995
 23
237.2703337123693
 33
0.0
 14
652.5975029393995
 24
246.2703337123684
 34
0.0
 50
90.0
100
AcDbRotatedDimension
1001
ACAD
1000
DSTYLE
1002
{
1070
    40
1040
1.0
1002
}
  0
DIMENSION
  5
4E4B
330
1F
100
AcDbEntity
  8
寸法線
100
AcDbDimension
  2
*D12
 10
562.9269513924339
 20
281.7703337123694
 30
0.0
 11
559.4269513924338
 21
261.7703337123689
 31
0.0
 70
    32
 71
     5
 42
40.00000000000087
  3
sunpo
100
AcDbAlignedDimension
 13
579.0975029393996
 23
241.7703337123684
 33
0.0
 14
589.0975029393996
 24
281.7703337123694
 34
0.0
 50
90.0
100
AcDbRotatedDimension
1001
ACAD
1000
DSTYLE
1002
{
1070
    40
1040
1.0
1070
   279
1070
     1
1002
}
  0
DIMENSION
  5
4E4C
330
1F
100
AcDbEntity
  8
寸法線
100
AcDbDimension
  2
*D13
 10
562.9269513924339
 20
241.7703337123685
 30
0.0
 11
559.4269513924339
 21
221.7703337123686
 31
0.0
 70
    32
 71
     5
 42
40.0
  3
sunpo
100
AcDbAlignedDimension
 13
589.0975029393996
 23
201.7703337123684
 33
0.0
 14
579.0975029393996
 24
241.7703337123684
 34
0.0
 50
90.0
100
AcDbRotatedDimension
1001
ACAD
1000
DSTYLE
1002
{
1070
    40
1040
1.0
1002
}
  0
DIMENSION
  5
4E4D
330
1F
100
AcDbEntity
  8
寸法線
100
AcDbDimension
  2
*D14
 10
655.0975029393998
 20
271.7703337123694
 30
0.0
 11
684.5675030951659
 21
296.6003784454866
 31
0.0
 70
   164
 71
     5
 42
10.00000000000034
  3
sunpo
100
AcDbRadialDimension
 15
662.7449266304818
 25
278.2136954815925
 35
0.0
 40
0.0
1001
ACAD
1000
DSTYLE
1002
{
1070
    40
1040
1.0
1070
   288
1070
     1
1002
}
  0
ARC
  5
4E4E
330
1F
100
AcDbEntity
  8
太線
100
AcDbCircle
 10
655.0975029393995
 20
211.7703337123685
 30
0.0
 40
10.0
100
AcDbArc
 50
270.0
 51
0.0
  0
ARC
  5
4E4F
330
1F
100
AcDbEntity
  8
太線
100
AcDbCircle
 10
589.0975029393996
 20
211.7703337123685
 30
0.0
 40
10.0
100
AcDbArc
 50
180.0
 51
270.0
  0
ARC
  5
4E50
330
1F
100
AcDbEntity
  8
太線
100
AcDbCircle
 10
655.0975029393995
 20
271.7703337123694
 30
0.0
 40
10.0
100
AcDbArc
 50
0.0
 51
90.0
  0
ARC
  5
4E51
330
1F
100
AcDbEntity
  8
太線
100
AcDbCircle
 10
589.0975029393996
 20
271.7703337123694
 30
0.0
 40
10.0
100
AcDbArc
 50
90.0
 51
180.0
  0
DIMENSION
  5
4E52
330
1F
100
AcDbEntity
  8
寸法線
100
AcDbDimension
  2
*D15
 10
665.0975029393995
 20
293.0123046129333
 30
0.0
 11
622.0975029393996
 21
296.5123046129333
 31
0.0
 70
    32
 71
     5
 42
85.99999999999988
  3
sunpo
100
AcDbAlignedDimension
 13
579.0975029393996
 23
281.7703337123694
 33
0.0
 14
665.0975029393995
 24
281.7703337123694
 34
0.0
100
AcDbRotatedDimension
1001
ACAD
1000
DSTYLE
1002
{
1070
    40
1040
1.0
1002
}
  0
LINE
  5
4E53
330
1F
100
AcDbEntity
  8
太線
100
AcDbLine
 10
655.0975029393995
 20
201.7703337123684
 30
0.0
 11
589.0975029393996
 21
201.7703337123684
 31
0.0
  0
LINE
  5
4E54
330
1F
100
AcDbEntity
  8
太線
100
AcDbLine
 10
665.0975029393995
 20
271.7703337123694
 30
0.0
 11
665.0975029393995
 21
211.7703337123685
 31
0.0
  0
LINE
  5
4E55
330
1F
100
AcDbEntity
  8
太線
100
AcDbLine
 10
589.0975029393996
 20
281.7703337123694
 30
0.0
 11
655.0975029393995
 21
281.7703337123694
 31
0.0
  0
LINE
  5
4E56
330
1F
100
AcDbEntity
  8
太線
100
AcDbLine
 10
579.0975029393996
 20
211.7703337123685
 30
0.0
 11
579.0975029393996
 21
271.7703337123694
 31
0.0
  0
ARC
  5
4E57
330
1F
100
AcDbEntity
  8
太線
100
AcDbCircle
 10
589.5975029393996
 20
241.7703337123684
 30
0.0
 40
4.5
100
AcDbArc
 50
90.0
 51
270.0
  0
ARC
  5
4E58
330
1F
100
AcDbEntity
  8
太線
100
AcDbCircle
 10
594.5975029393996
 20
241.7703337123684
 30
0.0
 40
4.5
100
AcDbArc
 50
270.0
 51
90.0
  0
LINE
  5
4E59
330
1F
100
AcDbEntity
  8
太線
100
AcDbLine
 10
589.5975029393996
 20
246.2703337123684
 30
0.0
 11
594.5975029393996
 21
246.2703337123684
 31
0.0
  0
LINE
  5
4E5A
330
1F
100
AcDbEntity
  8
太線
100
AcDbLine
 10
594.5975029393996
 20
237.2703337123693
 30
0.0
 11
589.5975029393996
 21
237.2703337123693
 31
0.0
  0
ARC
  5
4E5B
330
1F
100
AcDbEntity
  8
太線
100
AcDbCircle
 10
652.5975029393995
 20
241.7703337123684
 30
0.0
 40
4.5
100
AcDbArc
 50
270.0
 51
90.0
  0
ARC
  5
4E5C
330
1F
100
AcDbEntity
  8
太線
100
AcDbCircle
 10
647.5975029393995
 20
241.7703337123684
 30
0.0
 40
4.5
100
AcDbArc
 50
90.0
 51
270.0
  0
LINE
  5
4E5D
330
1F
100
AcDbEntity
  8
太線
100
AcDbLine
 10
652.5975029393995
 20
237.2703337123693
 30
0.0
 11
647.5975029393995
 21
237.2703337123693
 31
0.0
  0
LINE
  5
4E5E
330
1F
100
AcDbEntity
  8
太線
100
AcDbLine
 10
647.5975029393995
 20
246.2703337123684
 30
0.0
 11
652.5975029393995
 21
246.2703337123684
 31
0.0
  0
DIMENSION
  5
4E5F
330
1F
100
AcDbEntity
  8
寸法線
100
AcDbDimension
  2
*D16
 10
650.0975029393995
 20
265.0470411596243
 30
0.0
 11
621.0975029393996
 21
268.5470411596243
 31
0.0
 70
    32
  1
60
 71
     5
 42
57.99999999999989
  3
sunpo
100
AcDbAlignedDimension
 13
592.0975029393996
 23
251.7703337123693
 33
0.0
 14
650.0975029393995
 24
251.7703337123693
 34
0.0
100
AcDbRotatedDimension
1001
ACAD
1000
DSTYLE
1002
{
1070
    40
1040
1.0
1002
}
  0
DIMENSION
  5
4E60
330
1F
100
AcDbEntity
  8
寸法線
100
AcDbDimension
  2
*D17
 10
585.0975029393996
 20
224.1189265927594
 30
0.0
 11
592.0975029393996
 21
227.6189265927594
 31
0.0
 70
    32
 71
     5
 42
14.0
  3
sunpo
100
AcDbAlignedDimension
 13
599.0975029393996
 23
241.7703337123684
 33
0.0
 14
585.0975029393996
 24
241.7703337123684
 34
0.0
100
AcDbRotatedDimension
1001
ACAD
1000
DSTYLE
1002
{
1070
    40
1040
1.0
1002
}
  0
XLINE
  5
4EEE
330
1F
100
AcDbEntity
  8
構築線
100
AcDbXline
 10
392.4269513924339
 20
241.7703337123684
 30
0.0
 11
1.0
 21
0.0
 31
0.0
  0
XLINE
  5
4EF0
330
1F
100
AcDbEntity
  8
構築線
100
AcDbXline
 10
322.9269513924339
 20
241.7703337123684
 30
0.0
 11
0.0
 21
1.0
 31
0.0
  0
XLINE
  5
4EF3
330
1F
100
AcDbEntity
  8
構築線
100
AcDbXline
 10
442.9269513924339
 20
241.7703337123684
 30
0.0
 11
0.0
 21
1.0
 31
0.0
  0
XLINE
  5
4EF4
330
1F
100
AcDbEntity
  8
構築線
100
AcDbXline
 10
562.9269513924339
 20
241.7703337123684
 30
0.0
 11
0.0
 21
1.0
 31
0.0
  0
TEXT
  5
4F4D
330
1F
100
AcDbEntity
  8
文字
100
AcDbText
 10
460.736598858075
 20
285.1979759588732
 30
0.0
 40
10.0
  1
28-UZ-40
 51
15.0
  7
OKANO
100
AcDbText
  0
TEXT
  5
4F4E
330
1F
100
AcDbEntity
  8
文字
100
AcDbText
 10
591.3728107917413
 20
306.6427335794285
 30
0.0
 40
10.0
  1
28-UZ-80
 51
15.0
  7
OKANO
100
AcDbText
  0
TEXT
  5
4F4F
330
1F
100
AcDbEntity
  8
文字
100
AcDbText
 10
461.0602951921919
 20
166.2151164550454
 30
0.0
 40
7.0
  1
溶融亜鉛鍍金仕上げ
 51
15.0
  7
OKANO
100
AcDbText
  0
TEXT
  5
4F51
330
1F
100
AcDbEntity
  8
文字
100
AcDbText
 10
584.5722134056643
 20
164.4264987389029
 30
0.0
 40
7.0
  1
溶融亜鉛鍍金仕上げ
 51
15.0
  7
OKANO
100
AcDbText
  0
XLINE
  5
4F59
330
1F
100
AcDbEntity
  8
構築線
100
AcDbXline
 10
202.9269513924339
 20
241.7703337123684
 30
0.0
 11
0.0
 21
1.0
 31
0.0
  0
TEXT
  5
4FE3
330
1F
100
AcDbEntity
  8
文字
100
AcDbText
 10
157.5321803406104
 20
287.5534993841558
 30
0.0
 40
10.0
  1
28-UY
 51
15.0
  7
OKANO
100
AcDbText
  0
LINE
  5
4FE4
330
1F
100
AcDbEntity
  8
破線
100
AcDbLine
 10
138.8006196862847
 20
210.6496757541161
 30
0.0
 11
138.8006196862847
 21
200.6496757541161
 31
0.0
  0
LINE
  5
4FE5
330
1F
100
AcDbEntity
  8
破線
100
AcDbLine
 10
151.8006196862847
 20
210.6496757541161
 30
0.0
 11
151.8006196862847
 21
200.6496757541161
 31
0.0
  0
LINE
  5
4FE6
330
1F
100
AcDbEntity
  8
破線
100
AcDbLine
 10
197.3006196862847
 20
210.6496757541161
 30
0.0
 11
197.3006196862847
 21
200.6496757541161
 31
0.0
  0
LINE
  5
4FE7
330
1F
100
AcDbEntity
  8
破線
100
AcDbLine
 10
209.8006196862848
 20
210.6496757541161
 30
0.0
 11
209.8006196862848
 21
200.6496757541161
 31
0.0
  0
LINE
  5
4FE8
330
1F
100
AcDbEntity
  8
太線
100
AcDbLine
 10
151.8006196862847
 20
200.6496757541161
 30
0.0
 11
151.8006196862847
 21
189.3079439756329
 31
0.0
  0
LINE
  5
4FE9
330
1F
100
AcDbEntity
  8
太線
100
AcDbLine
 10
197.3006196862847
 20
200.6496757541161
 30
0.0
 11
197.3006196862847
 21
189.307943975633
 31
0.0
  0
LINE
  5
4FEA
330
1F
100
AcDbEntity
  8
太線
100
AcDbLine
 10
216.3006196862848
 20
200.6496757541161
 30
0.0
 11
197.3006196862847
 21
200.6496757541161
 31
0.0
  0
LINE
  5
4FEB
330
1F
100
AcDbEntity
  8
太線
100
AcDbLine
 10
151.8006196862847
 20
200.6496757541161
 30
0.0
 11
151.8006196862847
 21
189.3079439756329
 31
0.0
  0
LINE
  5
4FEC
330
1F
100
AcDbEntity
  8
太線
100
AcDbLine
 10
132.3006196862847
 20
200.6496757541162
 30
0.0
 11
151.8006196862847
 21
200.6496757541161
 31
0.0
  0
LINE
  5
4FED
330
1F
100
AcDbEntity
  8
太線
100
AcDbLine
 10
217.3006196862847
 20
209.6496757541161
 30
0.0
 11
217.3006196862848
 21
201.6496757541161
 31
0.0
  0
LINE
  5
4FEE
330
1F
100
AcDbEntity
  8
太線
100
AcDbLine
 10
132.3006196862847
 20
210.6496757541163
 30
0.0
 11
216.3006196862848
 21
210.6496757541161
 31
0.0
  0
LINE
  5
4FEF
330
1F
100
AcDbEntity
  8
太線
100
AcDbLine
 10
131.3006196862847
 20
201.6496757541162
 30
0.0
 11
131.3006196862847
 21
209.6496757541162
 31
0.0
  0
ARC
  5
4FF0
330
1F
100
AcDbEntity
  8
太線
100
AcDbCircle
 10
174.3006196862847
 20
177.747385817633
 30
0.0
 40
23.2796974685795
100
AcDbArc
 50
29.77491573948123
 51
150.2250842605187
  0
LINE
  5
4FF1
330
1F
100
AcDbEntity
  8
太線
100
AcDbLine
 10
151.8006196862847
 20
189.307943975633
 30
0.0
 11
154.0942392755312
 21
189.307943975633
 31
0.0
  0
LINE
  5
4FF2
330
1F
100
AcDbEntity
  8
太線
100
AcDbLine
 10
194.5070000970383
 20
189.307943975633
 30
0.0
 11
197.3006196862847
 21
189.307943975633
 31
0.0
  0
ARC
  5
4FF3
330
1F
100
AcDbEntity
  8
太線
100
AcDbCircle
 10
132.3006196862847
 20
209.6496757541162
 30
0.0
 40
1.0
100
AcDbArc
 50
90.0
 51
180.0
  0
ARC
  5
4FF4
330
1F
100
AcDbEntity
  8
太線
100
AcDbCircle
 10
132.3006196862847
 20
201.6496757541162
 30
0.0
 40
1.0
100
AcDbArc
 50
180.0
 51
270.0
  0
ARC
  5
4FF5
330
1F
100
AcDbEntity
  8
太線
100
AcDbCircle
 10
216.3006196862848
 20
209.6496757541161
 30
0.0
 40
1.0
100
AcDbArc
 50
0.0
 51
90.0
  0
ARC
  5
4FF6
330
1F
100
AcDbEntity
  8
太線
100
AcDbCircle
 10
216.3006196862848
 20
201.6496757541161
 30
0.0
 40
1.0
100
AcDbArc
 50
270.0
 51
0.0
  0
DIMENSION
  5
4FF7
330
1F
100
AcDbEntity
  8
寸法線
100
AcDbDimension
  2
*D26
 10
116.1851449032967
 20
230.9914075325993
 30
0.0
 11
112.6846527773124
 21
240.9914075325993
 31
0.0
 70
    32
 71
     5
 42
20.0
  3
sunpo
100
AcDbAlignedDimension
 13
140.3006196862848
 23
250.9914075325992
 33
0.0
 14
140.3006196862848
 24
230.9914075325993
 34
0.0
 50
90.0
100
AcDbRotatedDimension
1001
ACAD
1000
DSTYLE
1002
{
1070
    40
1040
1.0
1002
}
  0
DIMENSION
  5
4FF8
330
1F
100
AcDbEntity
  8
寸法線
100
AcDbDimension
  2
*D27
 10
237.2742053087151
 20
245.4914075325993
 30
0.0
 11
233.7742053087151
 21
240.9914075325993
 31
0.0
 70
    32
 71
     5
 42
9.0
  3
sunpo
100
AcDbAlignedDimension
 13
202.3006196862847
 23
236.4914075325992
 33
0.0
 14
202.3006196862847
 24
245.4914075325993
 34
0.0
 50
90.0
100
AcDbRotatedDimension
1001
ACAD
1000
DSTYLE
1002
{
1070
    40
1040
1.0
1002
}
  0
DIMENSION
  5
4FF9
330
1F
100
AcDbEntity
  8
寸法線
100
AcDbDimension
  2
*D28
 10
137.3006196862847
 20
223.3400004129895
 30
0.0
 11
144.3006196862848
 21
226.8400004129895
 31
0.0
 70
    32
 71
     5
 42
14.0
  3
sunpo
100
AcDbAlignedDimension
 13
151.3006196862847
 23
240.9914075325992
 33
0.0
 14
137.3006196862847
 24
240.9914075325992
 34
0.0
100
AcDbRotatedDimension
1001
ACAD
1000
DSTYLE
1002
{
1070
    40
1040
1.0
1002
}
  0
DIMENSION
  5
4FFA
330
1F
100
AcDbEntity
  8
寸法線
100
AcDbDimension
  2
*D29
 10
202.3006196862847
 20
264.2681149798551
 30
0.0
 11
173.3006196862847
 21
270.2681149798551
 31
0.0
 70
    32
  1
60
 71
     5
 42
58.0
  3
sunpo
100
AcDbAlignedDimension
 13
144.3006196862848
 23
250.9914075325992
 33
0.0
 14
202.3006196862847
 24
250.9914075325992
 34
0.0
100
AcDbRotatedDimension
1001
ACAD
1000
DSTYLE
1002
{
1070
   140
1040
10.0
1070
    40
1040
1.0
1002
}
  0
LINE
  5
4FFB
330
1F
100
AcDbEntity
  8
太線
100
AcDbLine
 10
199.8006196862847
 20
245.4914075325993
 30
0.0
 11
204.8006196862847
 21
245.4914075325993
 31
0.0
  0
LINE
  5
4FFC
330
1F
100
AcDbEntity
  8
太線
100
AcDbLine
 10
204.8006196862847
 20
236.4914075325992
 30
0.0
 11
199.8006196862847
 21
236.4914075325992
 31
0.0
  0
ARC
  5
4FFD
330
1F
100
AcDbEntity
  8
太線
100
AcDbCircle
 10
199.8006196862847
 20
240.9914075325992
 30
0.0
 40
4.5
100
AcDbArc
 50
90.0
 51
270.0
  0
ARC
  5
4FFE
330
1F
100
AcDbEntity
  8
太線
100
AcDbCircle
 10
204.8006196862847
 20
240.9914075325992
 30
0.0
 40
4.5
100
AcDbArc
 50
270.0
 51
90.0
  0
LINE
  5
4FFF
330
1F
100
AcDbEntity
  8
太線
100
AcDbLine
 10
146.8006196862847
 20
236.4914075325992
 30
0.0
 11
141.8006196862847
 21
236.4914075325992
 31
0.0
  0
LINE
  5
5000
330
1F
100
AcDbEntity
  8
太線
100
AcDbLine
 10
141.8006196862847
 20
245.4914075325993
 30
0.0
 11
146.8006196862847
 21
245.4914075325993
 31
0.0
  0
LINE
  5
5001
330
1F
100
AcDbEntity
  8
太線
100
AcDbLine
 10
140.3006196862848
 20
230.9914075325993
 30
0.0
 11
206.3006196862847
 21
230.9914075325993
 31
0.0
  0
LINE
  5
5002
330
1F
100
AcDbEntity
  8
太線
100
AcDbLine
 10
140.3006196862848
 20
250.9914075325992
 30
0.0
 11
206.3006196862847
 21
250.9914075325992
 31
0.0
  0
ARC
  5
5003
330
1F
100
AcDbEntity
  8
太線
100
AcDbCircle
 10
206.3006196862847
 20
240.9914075325992
 30
0.0
 40
10.0
100
AcDbArc
 50
270.0
 51
90.0
  0
ARC
  5
5004
330
1F
100
AcDbEntity
  8
太線
100
AcDbCircle
 10
140.3006196862848
 20
240.9914075325992
 30
0.0
 40
10.0
100
AcDbArc
 50
90.0
 51
270.0
  0
ARC
  5
5005
330
1F
100
AcDbEntity
  8
太線
100
AcDbCircle
 10
146.8006196862847
 20
240.9914075325992
 30
0.0
 40
4.5
100
AcDbArc
 50
270.0
 51
90.0
  0
ARC
  5
5006
330
1F
100
AcDbEntity
  8
太線
100
AcDbCircle
 10
141.8006196862847
 20
240.9914075325992
 30
0.0
 40
4.5
100
AcDbArc
 50
90.0
 51
270.0
  0
DIMENSION
  5
5007
330
1F
100
AcDbEntity
  8
寸法線
100
AcDbDimension
  2
*D30
 10
234.8804610142246
 20
210.6496757541161
 30
0.0
 11
231.3804610142246
 21
205.6496757541162
 31
0.0
 70
    32
 71
     5
 42
10.0
  3
sunpo
100
AcDbAlignedDimension
 13
216.3006196862848
 23
200.6496757541161
 33
0.0
 14
216.3006196862848
 24
210.6496757541161
 34
0.0
 50
90.0
100
AcDbRotatedDimension
1001
ACAD
1000
DSTYLE
1002
{
1070
    40
1040
1.0
1002
}
  0
DIMENSION
  5
5008
330
1F
100
AcDbEntity
  8
寸法線
100
AcDbDimension
  2
*D31
 10
217.3006196862848
 20
163.6304925160084
 30
0.0
 11
174.3006196862848
 21
169.6304925160084
 31
0.0
 70
    32
 71
     5
 42
86.00000000000006
  3
sunpo
100
AcDbAlignedDimension
 13
131.3006196862847
 23
201.6496757541162
 33
0.0
 14
217.3006196862848
 24
201.6496757541161
 34
0.0
100
AcDbRotatedDimension
1001
ACAD
1000
DSTYLE
1002
{
1070
   140
1040
10.0
1070
    40
1040
1.0
1002
}
  0
DIMENSION
  5
5009
330
1F
100
AcDbEntity
  8
寸法線
100
AcDbDimension
  2
*D32
 10
249.3169107083481
 20
210.6496757541161
 30
0.0
 11
245.8164185823638
 21
199.9788098648746
 31
0.0
 70
    32
  1
21
 71
     5
 42
21.3417317784831
  3
sunpo
100
AcDbAlignedDimension
 13
197.3006196862847
 23
189.307943975633
 33
0.0
 14
197.3006196862847
 24
210.6496757541161
 34
0.0
 50
90.0
100
AcDbRotatedDimension
1001
ACAD
1000
DSTYLE
1002
{
1070
    40
1040
1.0
1002
}
  0
DIMENSION
  5
500A
330
1F
100
AcDbEntity
  8
寸法線
100
AcDbDimension
  2
*D33
 10
174.3006196862847
 20
177.7473858176332
 30
0.0
 11
176.350654065694
 21
184.1016894508955
 31
0.0
 70
   164
  1
24.5
 71
     5
 42
23.27969746857928
  3
sunpo
100
AcDbRadialDimension
 15
181.4483694934152
 25
199.9026106398561
 35
0.0
 40
0.0
1001
ACAD
1000
DSTYLE
1002
{
1070
    40
1040
1.0
1070
   288
1070
     1
1002
}
  0
TEXT
  5
500B
330
1F
100
AcDbEntity
  8
文字
100
AcDbText
 10
164.0970031240719
 20
217.6889767173861
 30
0.0
 40
6.24
  1
FCD-450
 51
15.0
  7
OKANO
100
AcDbText
  0
XLINE
  5
50AC
330
1F
100
AcDbEntity
  8
構築線
100
AcDbXline
 10
172.9269513924339
 20
241.7703337123684
 30
0.0
 11
0.0
 21
1.0
 31
0.0
  0
XLINE
  5
50F1
330
1F
100
AcDbEntity
  8
構築線
100
AcDbXline
 10
154.6370325538068
 20
420.5081034856311
 30
0.0
 11
1.0
 21
0.0
 31
0.0
  0
TEXT
  5
50F2
330
1F
100
AcDbEntity
  8
文字
100
AcDbText
 10
585.774116409586
 20
486.592223791061
 30
0.0
 40
10.0
  1
28Ｓ-UZ-80
 51
15.0
  7
OKANO
100
AcDbText
  0
TEXT
  5
50F3
330
1F
100
AcDbEntity
  8
文字
100
AcDbText
 10
458.8703673973563
 20
462.3503230881092
 30
0.0
 40
10.0
  1
28Ｓ-UZ-40
 51
15.0
  7
OKANO
100
AcDbText
  0
DIMENSION
  5
50F4
330
1F
100
AcDbEntity
  8
寸法線
100
AcDbDimension
  2
*D49
 10
585.0975029393996
 20
402.8566963660221
 30
0.0
 11
592.0975029393996
 21
406.356696366022
 31
0.0
 70
    32
 71
     5
 42
14.0
  3
sunpo
100
AcDbAlignedDimension
 13
599.0975029393996
 23
420.5081034856311
 33
0.0
 14
585.0975029393996
 24
420.5081034856311
 34
0.0
100
AcDbRotatedDimension
1001
ACAD
1000
DSTYLE
1002
{
1070
    40
1040
1.0
1002
}
  0
DIMENSION
  5
50F5
330
1F
100
AcDbEntity
  8
寸法線
100
AcDbDimension
  2
*D48
 10
650.0975029393995
 20
443.784810932887
 30
0.0
 11
621.0975029393996
 21
447.284810932887
 31
0.0
 70
    32
  1
60
 71
     5
 42
57.99999999999989
  3
sunpo
100
AcDbAlignedDimension
 13
592.0975029393996
 23
430.508103485632
 33
0.0
 14
650.0975029393995
 24
430.508103485632
 34
0.0
100
AcDbRotatedDimension
1001
ACAD
1000
DSTYLE
1002
{
1070
    40
1040
1.0
1002
}
  0
LINE
  5
50F6
330
1F
100
AcDbEntity
  8
太線
100
AcDbLine
 10
647.5975029393995
 20
425.0081034856312
 30
0.0
 11
652.5975029393995
 21
425.0081034856312
 31
0.0
  0
LINE
  5
50F7
330
1F
100
AcDbEntity
  8
太線
100
AcDbLine
 10
652.5975029393995
 20
416.0081034856321
 30
0.0
 11
647.5975029393995
 21
416.0081034856321
 31
0.0
  0
ARC
  5
50F8
330
1F
100
AcDbEntity
  8
太線
100
AcDbCircle
 10
647.5975029393995
 20
420.5081034856311
 30
0.0
 40
4.5
100
AcDbArc
 50
90.0
 51
270.0
  0
ARC
  5
50F9
330
1F
100
AcDbEntity
  8
太線
100
AcDbCircle
 10
652.5975029393995
 20
420.5081034856311
 30
0.0
 40
4.5
100
AcDbArc
 50
270.0
 51
90.0
  0
LINE
  5
50FA
330
1F
100
AcDbEntity
  8
太線
100
AcDbLine
 10
594.5975029393996
 20
416.0081034856321
 30
0.0
 11
589.5975029393996
 21
416.0081034856321
 31
0.0
  0
LINE
  5
50FB
330
1F
100
AcDbEntity
  8
太線
100
AcDbLine
 10
589.5975029393996
 20
425.0081034856312
 30
0.0
 11
594.5975029393996
 21
425.0081034856312
 31
0.0
  0
ARC
  5
50FC
330
1F
100
AcDbEntity
  8
太線
100
AcDbCircle
 10
594.5975029393996
 20
420.5081034856311
 30
0.0
 40
4.5
100
AcDbArc
 50
270.0
 51
90.0
  0
ARC
  5
50FD
330
1F
100
AcDbEntity
  8
太線
100
AcDbCircle
 10
589.5975029393996
 20
420.5081034856311
 30
0.0
 40
4.5
100
AcDbArc
 50
90.0
 51
270.0
  0
LINE
  5
50FE
330
1F
100
AcDbEntity
  8
太線
100
AcDbLine
 10
579.0975029393996
 20
390.5081034856312
 30
0.0
 11
579.0975029393996
 21
450.5081034856321
 31
0.0
  0
LINE
  5
50FF
330
1F
100
AcDbEntity
  8
太線
100
AcDbLine
 10
589.0975029393996
 20
460.508103485632
 30
0.0
 11
655.0975029393995
 21
460.508103485632
 31
0.0
  0
LINE
  5
5100
330
1F
100
AcDbEntity
  8
太線
100
AcDbLine
 10
665.0975029393995
 20
450.5081034856321
 30
0.0
 11
665.0975029393995
 21
390.5081034856312
 31
0.0
  0
LINE
  5
5101
330
1F
100
AcDbEntity
  8
太線
100
AcDbLine
 10
655.0975029393995
 20
380.5081034856311
 30
0.0
 11
589.0975029393996
 21
380.5081034856311
 31
0.0
  0
DIMENSION
  5
5102
330
1F
100
AcDbEntity
  8
寸法線
100
AcDbDimension
  2
*D47
 10
665.0975029393995
 20
471.750074386196
 30
0.0
 11
622.0975029393996
 21
475.250074386196
 31
0.0
 70
    32
 71
     5
 42
85.99999999999988
  3
sunpo
100
AcDbAlignedDimension
 13
579.0975029393996
 23
460.508103485632
 33
0.0
 14
665.0975029393995
 24
460.508103485632
 34
0.0
100
AcDbRotatedDimension
1001
ACAD
1000
DSTYLE
1002
{
1070
    40
1040
1.0
1002
}
  0
ARC
  5
5103
330
1F
100
AcDbEntity
  8
太線
100
AcDbCircle
 10
589.0975029393996
 20
450.5081034856321
 30
0.0
 40
10.0
100
AcDbArc
 50
90.0
 51
180.0
  0
ARC
  5
5104
330
1F
100
AcDbEntity
  8
太線
100
AcDbCircle
 10
655.0975029393995
 20
450.5081034856321
 30
0.0
 40
10.0
100
AcDbArc
 50
0.0
 51
90.0
  0
ARC
  5
5105
330
1F
100
AcDbEntity
  8
太線
100
AcDbCircle
 10
589.0975029393996
 20
390.5081034856312
 30
0.0
 40
10.0
100
AcDbArc
 50
180.0
 51
270.0
  0
ARC
  5
5106
330
1F
100
AcDbEntity
  8
太線
100
AcDbCircle
 10
655.0975029393995
 20
390.5081034856312
 30
0.0
 40
10.0
100
AcDbArc
 50
270.0
 51
0.0
  0
DIMENSION
  5
5107
330
1F
100
AcDbEntity
  8
寸法線
100
AcDbDimension
  2
*D46
 10
655.0975029394
 20
450.5081034856321
 30
0.0
 11
684.5675030951659
 21
475.3381482187492
 31
0.0
 70
   164
 71
     5
 42
10.00000000000045
  3
sunpo
100
AcDbRadialDimension
 15
662.7449266304819
 25
456.9514652548553
 35
0.0
 40
0.0
1001
ACAD
1000
DSTYLE
1002
{
1070
    40
1040
1.0
1070
   288
1070
     1
1002
}
  0
DIMENSION
  5
5108
330
1F
100
AcDbEntity
  8
寸法線
100
AcDbDimension
  2
*D45
 10
562.9269513924339
 20
420.5081034856311
 30
0.0
 11
559.4269513924338
 21
400.5081034856312
 31
0.0
 70
    32
 71
     5
 42
40.0
  3
sunpo
100
AcDbAlignedDimension
 13
589.0975029393996
 23
380.5081034856311
 33
0.0
 14
579.0975029393996
 24
420.5081034856311
 34
0.0
 50
90.0
100
AcDbRotatedDimension
1001
ACAD
1000
DSTYLE
1002
{
1070
    40
1040
1.0
1002
}
  0
DIMENSION
  5
5109
330
1F
100
AcDbEntity
  8
寸法線
100
AcDbDimension
  2
*D44
 10
562.9269513924339
 20
460.508103485632
 30
0.0
 11
559.4269513924338
 21
440.5081034856316
 31
0.0
 70
    32
 71
     5
 42
40.00000000000091
  3
sunpo
100
AcDbAlignedDimension
 13
579.0975029393996
 23
420.5081034856311
 33
0.0
 14
589.0975029393996
 24
460.508103485632
 34
0.0
 50
90.0
100
AcDbRotatedDimension
1001
ACAD
1000
DSTYLE
1002
{
1070
    40
1040
1.0
1070
   279
1070
     1
1002
}
  0
DIMENSION
  5
510A
330
1F
100
AcDbEntity
  8
寸法線
100
AcDbDimension
  2
*D43
 10
631.7799609810428
 20
425.0081034856312
 30
0.0
 11
628.2799609810427
 21
420.5081034856317
 31
0.0
 70
    32
 71
     5
 42
8.99999999999909
  3
sunpo
100
AcDbAlignedDimension
 13
652.5975029393995
 23
416.0081034856321
 33
0.0
 14
652.5975029393995
 24
425.0081034856312
 34
0.0
 50
90.0
100
AcDbRotatedDimension
1001
ACAD
1000
DSTYLE
1002
{
1070
    40
1040
1.0
1002
}
  0
ARC
  5
510B
330
1F
100
AcDbEntity
  8
太線
100
AcDbCircle
 10
520.0190453160296
 20
430.3702763747955
 30
0.0
 40
10.0
100
AcDbArc
 50
0.0
 51
90.0
  0
ARC
  5
510C
330
1F
100
AcDbEntity
  8
太線
100
AcDbCircle
 10
454.0190453160295
 20
430.3702763747955
 30
0.0
 40
10.0
100
AcDbArc
 50
90.0
 51
180.0
  0
LINE
  5
510D
330
1F
100
AcDbEntity
  8
太線
100
AcDbLine
 10
454.0190453160295
 20
440.3702763747956
 30
0.0
 11
520.0190453160296
 21
440.3702763747956
 31
0.0
  0
ARC
  5
510E
330
1F
100
AcDbEntity
  8
太線
100
AcDbCircle
 10
454.5190453160294
 20
420.3702763747946
 30
0.0
 40
4.5
100
AcDbArc
 50
90.0
 51
270.0
  0
ARC
  5
510F
330
1F
100
AcDbEntity
  8
太線
100
AcDbCircle
 10
459.5190453160296
 20
420.3702763747946
 30
0.0
 40
4.5
100
AcDbArc
 50
270.0
 51
90.0
  0
LINE
  5
5110
330
1F
100
AcDbEntity
  8
太線
100
AcDbLine
 10
454.5190453160294
 20
424.8702763747947
 30
0.0
 11
459.5190453160296
 21
424.8702763747947
 31
0.0
  0
LINE
  5
5111
330
1F
100
AcDbEntity
  8
太線
100
AcDbLine
 10
459.5190453160296
 20
415.8702763747956
 30
0.0
 11
454.5190453160294
 21
415.8702763747956
 31
0.0
  0
ARC
  5
5112
330
1F
100
AcDbEntity
  8
太線
100
AcDbCircle
 10
517.5190453160296
 20
420.3702763747946
 30
0.0
 40
4.5
100
AcDbArc
 50
270.0
 51
90.0
  0
ARC
  5
5113
330
1F
100
AcDbEntity
  8
太線
100
AcDbCircle
 10
512.5190453160296
 20
420.3702763747946
 30
0.0
 40
4.5
100
AcDbArc
 50
90.0
 51
270.0
  0
LINE
  5
5114
330
1F
100
AcDbEntity
  8
太線
100
AcDbLine
 10
517.5190453160296
 20
415.8702763747956
 30
0.0
 11
512.5190453160296
 21
415.8702763747956
 31
0.0
  0
LINE
  5
5115
330
1F
100
AcDbEntity
  8
太線
100
AcDbLine
 10
512.5190453160296
 20
424.8702763747947
 30
0.0
 11
517.5190453160296
 21
424.8702763747947
 31
0.0
  0
DIMENSION
  5
5116
330
1F
100
AcDbEntity
  8
寸法線
100
AcDbDimension
  2
*D42
 10
450.0190453160294
 20
402.7188692551856
 30
0.0
 11
457.0190453160295
 21
406.2188692551855
 31
0.0
 70
    32
 71
     5
 42
14.0
  3
sunpo
100
AcDbAlignedDimension
 13
464.0190453160295
 23
420.3702763747946
 33
0.0
 14
450.0190453160294
 24
420.3702763747946
 34
0.0
100
AcDbRotatedDimension
1001
ACAD
1000
DSTYLE
1002
{
1070
    40
1040
1.0
1002
}
  0
LINE
  5
5117
330
1F
100
AcDbEntity
  8
太線
100
AcDbLine
 10
444.0190453160295
 20
420.3702763747946
 30
0.0
 11
444.0190453160295
 21
430.3702763747955
 31
0.0
  0
LINE
  5
5118
330
1F
100
AcDbEntity
  8
太線
100
AcDbLine
 10
530.0190453160296
 20
430.3702763747955
 30
0.0
 11
530.0190453160296
 21
419.7306170215836
 31
0.0
  0
LINE
  5
5119
330
1F
100
AcDbEntity
  8
太線
100
AcDbLine
 10
444.0190453160295
 20
420.3702763747946
 30
0.0
 11
444.0190453160295
 21
410.3702763747946
 31
0.0
  0
ARC
  5
511A
330
1F
100
AcDbEntity
  8
太線
100
AcDbCircle
 10
454.0190453160295
 20
410.3702763747946
 30
0.0
 40
10.0
100
AcDbArc
 50
180.0
 51
270.0
  0
LINE
  5
511B
330
1F
100
AcDbEntity
  8
太線
100
AcDbLine
 10
454.0190453160295
 20
400.3702763747947
 30
0.0
 11
520.0190453160296
 21
400.3702763747947
 31
0.0
  0
ARC
  5
511C
330
1F
100
AcDbEntity
  8
太線
100
AcDbCircle
 10
520.0190453160296
 20
410.3702763747946
 30
0.0
 40
10.0
100
AcDbArc
 50
270.0
 51
0.0
  0
LINE
  5
511D
330
1F
100
AcDbEntity
  8
太線
100
AcDbLine
 10
530.0190453160296
 20
410.3702763747946
 30
0.0
 11
530.0190453160296
 21
419.7306170215836
 31
0.0
  0
DIMENSION
  5
511E
330
1F
100
AcDbEntity
  8
寸法線
100
AcDbDimension
  2
*D41
 10
543.8844247793288
 20
419.7306170215836
 30
0.0
 11
540.3839326533444
 21
410.0504466981892
 31
0.0
 70
    32
  1
20
 71
     5
 42
19.36034064678892
  3
sunpo
100
AcDbAlignedDimension
 13
520.0190453160296
 23
400.3702763747947
 33
0.0
 14
530.0190453160296
 24
419.7306170215836
 34
0.0
 50
90.0
100
AcDbRotatedDimension
1001
ACAD
1000
DSTYLE
1002
{
1070
    40
1040
1.0
1002
}
  0
DIMENSION
  5
511F
330
1F
100
AcDbEntity
  8
寸法線
100
AcDbDimension
  2
*D40
 10
543.8844247793288
 20
440.3702763747956
 30
0.0
 11
540.3839326533444
 21
430.0504466981896
 31
0.0
 70
    32
  1
20
 71
     5
 42
20.63965935321198
  3
sunpo
100
AcDbAlignedDimension
 13
530.0190453160296
 23
419.7306170215836
 33
0.0
 14
520.0190453160296
 24
440.3702763747956
 34
0.0
 50
90.0
100
AcDbRotatedDimension
1001
ACAD
1000
DSTYLE
1002
{
1070
    40
1040
1.0
1070
   279
1070
     1
1002
}
  0
TEXT
  5
5120
330
1F
100
AcDbEntity
  8
文字
100
AcDbText
 10
338.4984284976412
 20
462.3503230881092
 30
0.0
 40
10.0
  1
28Ｓ-UZ-20
 51
15.0
  7
OKANO
100
AcDbText
  0
TEXT
  5
5121
330
1F
100
AcDbEntity
  8
文字
100
AcDbText
 10
356.2372617775642
 20
416.9287541123662
 30
0.0
 40
6.24
  1
座金
 51
15.0
  7
OKANO
100
AcDbText
  0
DIMENSION
  5
5122
330
1F
100
AcDbEntity
  8
寸法線
100
AcDbDimension
  2
*D39
 10
308.8114766094459
 20
410.5081034856311
 30
0.0
 11
305.3109844834615
 21
420.5081034856312
 31
0.0
 70
    32
 71
     5
 42
20.0
  3
sunpo
100
AcDbAlignedDimension
 13
332.9269513924339
 23
430.5081034856311
 33
0.0
 14
332.9269513924339
 24
410.5081034856311
 34
0.0
 50
90.0
100
AcDbRotatedDimension
1001
ACAD
1000
DSTYLE
1002
{
1070
    40
1040
1.0
1002
}
  0
DIMENSION
  5
5123
330
1F
100
AcDbEntity
  8
寸法線
100
AcDbDimension
  2
*D38
 10
429.9005370148643
 20
425.0081034856312
 30
0.0
 11
426.4005370148642
 21
420.5081034856313
 31
0.0
 70
    32
 71
     5
 42
9.0
  3
sunpo
100
AcDbAlignedDimension
 13
394.9269513924339
 23
416.0081034856311
 33
0.0
 14
394.9269513924339
 24
425.0081034856312
 34
0.0
 50
90.0
100
AcDbRotatedDimension
1001
ACAD
1000
DSTYLE
1002
{
1070
    40
1040
1.0
1002
}
  0
DIMENSION
  5
5124
330
1F
100
AcDbEntity
  8
寸法線
100
AcDbDimension
  2
*D37
 10
329.9269513924339
 20
402.8566963660214
 30
0.0
 11
336.9269513924339
 21
406.3566963660214
 31
0.0
 70
    32
 71
     5
 42
14.0
  3
sunpo
100
AcDbAlignedDimension
 13
343.9269513924339
 23
420.5081034856311
 33
0.0
 14
329.9269513924339
 24
420.5081034856311
 34
0.0
100
AcDbRotatedDimension
1001
ACAD
1000
DSTYLE
1002
{
1070
    40
1040
1.0
1002
}
  0
DIMENSION
  5
5125
330
1F
100
AcDbEntity
  8
寸法線
100
AcDbDimension
  2
*D36
 10
394.9269513924339
 20
443.784810932887
 30
0.0
 11
365.9269513924339
 21
447.284810932887
 31
0.0
 70
    32
  1
60
 71
     5
 42
58.0
  3
sunpo
100
AcDbAlignedDimension
 13
336.9269513924339
 23
430.5081034856311
 33
0.0
 14
394.9269513924339
 24
430.5081034856311
 34
0.0
100
AcDbRotatedDimension
1001
ACAD
1000
DSTYLE
1002
{
1070
    40
1040
1.0
1002
}
  0
DIMENSION
  5
5126
330
1F
100
AcDbEntity
  8
寸法線
100
AcDbDimension
  2
*D35
 10
408.9269513924339
 20
370.1977587689029
 30
0.0
 11
365.9269513924339
 21
373.6977587689029
 31
0.0
 70
    32
 71
     5
 42
86.0
  3
sunpo
100
AcDbAlignedDimension
 13
322.9269513924339
 23
385.666371707148
 33
0.0
 14
408.9269513924339
 24
385.666371707148
 34
0.0
100
AcDbRotatedDimension
1001
ACAD
1000
DSTYLE
1002
{
1070
    40
1040
1.0
1002
}
  0
DIMENSION
  5
5127
330
1F
100
AcDbEntity
  8
寸法線
100
AcDbDimension
  2
*D34
 10
431.4955710108679
 20
389.166371707148
 30
0.0
 11
427.9950788848835
 21
400.1442573901182
 31
0.0
 70
    32
  1
2.5
 71
     5
 42
3.5
  3
sunpo
100
AcDbAlignedDimension
 13
408.9269513924339
 23
385.666371707148
 33
0.0
 14
408.9269513924339
 24
389.166371707148
 34
0.0
 50
90.0
100
AcDbRotatedDimension
1001
ACAD
1000
DSTYLE
1002
{
1070
    40
1040
1.0
1002
}
  0
LINE
  5
5128
330
1F
100
AcDbEntity
  8
太線
100
AcDbLine
 10
392.4269513924339
 20
425.0081034856312
 30
0.0
 11
397.4269513924339
 21
425.0081034856312
 31
0.0
  0
LINE
  5
5129
330
1F
100
AcDbEntity
  8
太線
100
AcDbLine
 10
397.4269513924339
 20
416.0081034856311
 30
0.0
 11
392.4269513924339
 21
416.0081034856311
 31
0.0
  0
ARC
  5
512A
330
1F
100
AcDbEntity
  8
太線
100
AcDbCircle
 10
392.4269513924339
 20
420.5081034856311
 30
0.0
 40
4.5
100
AcDbArc
 50
90.0
 51
270.0
  0
ARC
  5
512B
330
1F
100
AcDbEntity
  8
太線
100
AcDbCircle
 10
397.4269513924339
 20
420.5081034856311
 30
0.0
 40
4.5
100
AcDbArc
 50
270.0
 51
90.0
  0
LINE
  5
512C
330
1F
100
AcDbEntity
  8
太線
100
AcDbLine
 10
339.4269513924339
 20
416.0081034856311
 30
0.0
 11
334.4269513924339
 21
416.0081034856311
 31
0.0
  0
LINE
  5
512D
330
1F
100
AcDbEntity
  8
太線
100
AcDbLine
 10
334.4269513924339
 20
425.0081034856312
 30
0.0
 11
339.4269513924339
 21
425.0081034856312
 31
0.0
  0
LINE
  5
512E
330
1F
100
AcDbEntity
  8
太線
100
AcDbLine
 10
408.9269513924339
 20
385.666371707148
 30
0.0
 11
322.9269513924339
 21
385.666371707148
 31
0.0
  0
LINE
  5
512F
330
1F
100
AcDbEntity
  8
太線
100
AcDbLine
 10
408.9269513924339
 20
389.166371707148
 30
0.0
 11
408.9269513924339
 21
385.666371707148
 31
0.0
  0
LINE
  5
5130
330
1F
100
AcDbEntity
  8
太線
100
AcDbLine
 10
322.9269513924339
 20
389.166371707148
 30
0.0
 11
408.9269513924339
 21
389.166371707148
 31
0.0
  0
LINE
  5
5131
330
1F
100
AcDbEntity
  8
太線
100
AcDbLine
 10
322.9269513924339
 20
385.666371707148
 30
0.0
 11
322.9269513924339
 21
389.166371707148
 31
0.0
  0
LINE
  5
5132
330
1F
100
AcDbEntity
  8
太線
100
AcDbLine
 10
332.9269513924339
 20
410.5081034856311
 30
0.0
 11
398.9269513924339
 21
410.5081034856311
 31
0.0
  0
LINE
  5
5133
330
1F
100
AcDbEntity
  8
太線
100
AcDbLine
 10
332.9269513924339
 20
430.5081034856311
 30
0.0
 11
398.9269513924339
 21
430.5081034856311
 31
0.0
  0
ARC
  5
5134
330
1F
100
AcDbEntity
  8
太線
100
AcDbCircle
 10
398.9269513924339
 20
420.5081034856311
 30
0.0
 40
10.0
100
AcDbArc
 50
270.0
 51
90.0
  0
ARC
  5
5135
330
1F
100
AcDbEntity
  8
太線
100
AcDbCircle
 10
332.9269513924339
 20
420.5081034856311
 30
0.0
 40
10.0
100
AcDbArc
 50
90.0
 51
270.0
  0
ARC
  5
5136
330
1F
100
AcDbEntity
  8
太線
100
AcDbCircle
 10
339.4269513924339
 20
420.5081034856311
 30
0.0
 40
4.5
100
AcDbArc
 50
270.0
 51
90.0
  0
ARC
  5
5137
330
1F
100
AcDbEntity
  8
太線
100
AcDbCircle
 10
334.4269513924339
 20
420.5081034856311
 30
0.0
 40
4.5
100
AcDbArc
 50
90.0
 51
270.0
  0
DIMENSION
  5
5344
330
1F
100
AcDbEntity
  8
寸法線
100
AcDbDimension
  2
*D61
 10
174.3135114170558
 20
499.8774443203934
 30
0.0
 11
225.2778757387843
 21
447.3089016891772
 31
0.0
 70
   164
  1
24.3
 71
     5
 42
23.27969746857999
  3
sunpo
100
AcDbRadialDimension
 15
190.5177417556907
 25
483.1631620037315
 35
0.0
 40
0.0
1001
ACAD
1000
DSTYLE
1002
{
1070
    40
1040
1.0
1070
   288
1070
     1
1002
}
  0
DIMENSION
  5
5345
330
1F
100
AcDbEntity
  8
寸法線
100
AcDbDimension
  2
*D62
 10
217.3135114170563
 20
393.3490129999861
 30
0.0
 11
174.3135114170563
 21
396.8490129999861
 31
0.0
 70
    32
 71
     5
 42
86.0
  3
sunpo
100
AcDbAlignedDimension
 13
131.3135114170563
 23
409.4281057275818
 33
0.0
 14
217.3135114170563
 24
409.4281057275818
 34
0.0
100
AcDbRotatedDimension
1001
ACAD
1000
DSTYLE
1002
{
1070
    40
1040
1.0
1002
}
  0
ARC
  5
5346
330
1F
100
AcDbEntity
  8
太線
100
AcDbCircle
 10
142.8135114170563
 20
421.9281057275818
 30
0.0
 40
4.5
100
AcDbArc
 50
90.0
 51
270.0
  0
ARC
  5
5347
330
1F
100
AcDbEntity
  8
太線
100
AcDbCircle
 10
147.8135114170563
 20
421.9281057275818
 30
0.0
 40
4.5
100
AcDbArc
 50
270.0
 51
90.0
  0
LINE
  5
5348
330
1F
100
AcDbEntity
  8
太線
100
AcDbLine
 10
131.3135114170563
 20
434.4281057275818
 30
0.0
 11
217.3135114170563
 21
434.4281057275818
 31
0.0
  0
LINE
  5
5349
330
1F
100
AcDbEntity
  8
太線
100
AcDbLine
 10
131.3135114170563
 20
409.4281057275818
 30
0.0
 11
217.3135114170563
 21
409.4281057275818
 31
0.0
  0
LINE
  5
534A
330
1F
100
AcDbEntity
  8
太線
100
AcDbLine
 10
142.8135114170563
 20
426.4281057275818
 30
0.0
 11
147.8135114170563
 21
426.4281057275818
 31
0.0
  0
LINE
  5
534B
330
1F
100
AcDbEntity
  8
太線
100
AcDbLine
 10
147.8135114170563
 20
417.4281057275818
 30
0.0
 11
142.8135114170563
 21
417.4281057275818
 31
0.0
  0
ARC
  5
534C
330
1F
100
AcDbEntity
  8
太線
100
AcDbCircle
 10
205.8135114170563
 20
421.9281057275818
 30
0.0
 40
4.5
100
AcDbArc
 50
270.0
 51
90.0
  0
ARC
  5
534D
330
1F
100
AcDbEntity
  8
太線
100
AcDbCircle
 10
200.8135114170563
 20
421.9281057275818
 30
0.0
 40
4.5
100
AcDbArc
 50
90.0
 51
270.0
  0
LINE
  5
534E
330
1F
100
AcDbEntity
  8
太線
100
AcDbLine
 10
205.8135114170563
 20
417.4281057275818
 30
0.0
 11
200.8135114170563
 21
417.4281057275818
 31
0.0
  0
LINE
  5
534F
330
1F
100
AcDbEntity
  8
太線
100
AcDbLine
 10
200.8135114170563
 20
426.4281057275818
 30
0.0
 11
205.8135114170563
 21
426.4281057275818
 31
0.0
  0
DIMENSION
  5
5350
330
1F
100
AcDbEntity
  8
寸法線
100
AcDbDimension
  2
*D63
 10
203.29881668255
 20
445.2048131748377
 30
0.0
 11
174.3061640498032
 21
451.2048131748376
 31
0.0
 70
    32
  1
60
 71
     5
 42
57.9853052654937
  3
sunpo
100
AcDbAlignedDimension
 13
145.3135114170563
 23
431.9281057275818
 33
0.0
 14
203.29881668255
 24
423.1545236410284
 34
0.0
100
AcDbRotatedDimension
1001
ACAD
1000
DSTYLE
1002
{
1070
   140
1040
10.0
1070
    40
1040
1.0
1002
}
  0
DIMENSION
  5
5351
330
1F
100
AcDbEntity
  8
寸法線
100
AcDbDimension
  2
*D64
 10
138.3135114170563
 20
404.2766986079721
 30
0.0
 11
145.3135114170563
 21
407.7766986079721
 31
0.0
 70
    32
 71
     5
 42
14.0
  3
sunpo
100
AcDbAlignedDimension
 13
152.3135114170563
 23
421.9281057275818
 33
0.0
 14
138.3135114170563
 24
421.9281057275818
 34
0.0
100
AcDbRotatedDimension
1001
ACAD
1000
DSTYLE
1002
{
1070
    40
1040
1.0
1002
}
  0
DIMENSION
  5
5352
330
1F
100
AcDbEntity
  8
寸法線
100
AcDbDimension
  2
*D65
 10
238.2870970394867
 20
426.4281057275818
 30
0.0
 11
234.7870970394867
 21
421.9281057275819
 31
0.0
 70
    32
 71
     5
 42
9.0
  3
sunpo
100
AcDbAlignedDimension
 13
203.3135114170563
 23
417.4281057275818
 33
0.0
 14
203.3135114170563
 24
426.4281057275818
 34
0.0
 50
90.0
100
AcDbRotatedDimension
1001
ACAD
1000
DSTYLE
1002
{
1070
    40
1040
1.0
1002
}
  0
LINE
  5
5353
330
1F
100
AcDbEntity
  8
太線
100
AcDbLine
 10
217.3135114170563
 20
434.4281057275818
 30
0.0
 11
217.3135114170563
 21
409.4281057275818
 31
0.0
  0
LINE
  5
5354
330
1F
100
AcDbEntity
  8
太線
100
AcDbLine
 10
131.3135114170563
 20
434.4281057275818
 30
0.0
 11
131.3135114170563
 21
409.4281057275818
 31
0.0
  0
LINE
  5
5355
330
1F
100
AcDbEntity
  8
太線
100
AcDbLine
 10
131.3135114170563
 20
432.9281057275818
 30
0.0
 11
217.3135114170563
 21
432.9281057275818
 31
0.0
  0
LINE
  5
5356
330
1F
100
AcDbEntity
  8
太線
100
AcDbLine
 10
131.3135114170563
 20
410.9281057275818
 30
0.0
 11
217.3135114170563
 21
410.9281057275818
 31
0.0
  0
DIMENSION
  5
5357
330
1F
100
AcDbEntity
  8
寸法線
100
AcDbDimension
  2
*D66
 10
110.3930470897587
 20
434.4281057275819
 30
0.0
 11
106.8925549637744
 21
421.9281057275819
 31
0.0
 70
    32
 71
     5
 42
25.0
  3
sunpo
100
AcDbAlignedDimension
 13
131.3135114170563
 23
409.4281057275818
 33
0.0
 14
131.3135114170563
 24
434.4281057275818
 34
0.0
 50
90.0
100
AcDbRotatedDimension
1001
ACAD
1000
DSTYLE
1002
{
1070
    40
1040
1.0
1002
}
  0
DIMENSION
  5
5358
330
1F
100
AcDbEntity
  8
寸法線
100
AcDbDimension
  2
*D67
 10
197.3135114170563
 20
513.205383230075
 30
0.0
 11
174.5635114170563
 21
516.7053832300751
 31
0.0
 70
    32
  1
48.89
 71
     5
 42
45.49999999999999
  3
sunpo
100
AcDbAlignedDimension
 13
151.8135114170563
 23
488.3168861623931
 33
0.0
 14
197.3135114170563
 24
488.3168861623931
 34
0.0
100
AcDbRotatedDimension
1001
ACAD
1000
DSTYLE
1002
{
1070
    40
1040
1.0
1002
}
  0
DIMENSION
  5
5359
330
1F
100
AcDbEntity
  8
寸法線
100
AcDbDimension
  2
*D68
 10
194.5198918278099
 20
505.4086836048098
 30
0.0
 11
174.3135114170563
 21
508.9086836048097
 31
0.0
 70
    32
  1
40.89
 71
     5
 42
40.41276082150716
  3
sunpo
100
AcDbAlignedDimension
 13
154.1071310063027
 23
488.3168861623931
 33
0.0
 14
194.5198918278099
 24
488.3168861623931
 34
0.0
100
AcDbRotatedDimension
1001
ACAD
1000
DSTYLE
1002
{
1070
    40
1040
1.0
1002
}
  0
LINE
  5
535A
330
1F
100
AcDbEntity
  8
寸法線
100
AcDbLine
 10
194.5198918278099
 20
488.3168861623931
 30
0.0
 11
194.5198918278099
 21
488.3168861623931
 31
0.0
  0
DIMENSION
  5
535B
330
1F
100
AcDbEntity
  8
寸法線
100
AcDbDimension
  2
*D69
 10
229.1966589258936
 20
466.97515438391
 30
0.0
 11
225.6961667999092
 21
477.6460202731516
 31
0.0
 70
    32
  1
21
 71
     5
 42
21.3417317784831
  3
sunpo
100
AcDbAlignedDimension
 13
197.3135114170563
 23
488.3168861623931
 33
0.0
 14
216.3135114170563
 24
466.97515438391
 34
0.0
 50
270.0
100
AcDbRotatedDimension
1001
ACAD
1000
DSTYLE
1002
{
1070
    40
1040
1.0
1002
}
  0
LINE
  5
535C
330
1F
100
AcDbEntity
  8
想像線
100
AcDbLine
 10
131.3135114170563
 20
469.47515438391
 30
0.0
 11
217.3135114170563
 21
469.47515438391
 31
0.0
  0
LINE
  5
535D
330
1F
100
AcDbEntity
  8
太線
100
AcDbLine
 10
131.3135114170563
 20
466.9751543839099
 30
0.0
 11
132.3135114170563
 21
466.9751543839098
 31
0.0
  0
LINE
  5
535E
330
1F
100
AcDbEntity
  8
太線
100
AcDbLine
 10
131.3135114170563
 20
469.47515438391
 30
0.0
 11
131.3135114170563
 21
466.9751543839099
 31
0.0
  0
LINE
  5
535F
330
1F
100
AcDbEntity
  8
太線
100
AcDbLine
 10
151.8135114170563
 20
488.3168861623931
 30
0.0
 11
131.3135114170563
 21
469.47515438391
 31
0.0
  0
LINE
  5
5360
330
1F
100
AcDbEntity
  8
太線
100
AcDbLine
 10
217.3135114170563
 20
469.47515438391
 30
0.0
 11
197.3135114170563
 21
488.3168861623931
 31
0.0
  0
LINE
  5
5361
330
1F
100
AcDbEntity
  8
太線
100
AcDbLine
 10
217.3135114170563
 20
466.9751543839099
 30
0.0
 11
217.3135114170563
 21
469.47515438391
 31
0.0
  0
LINE
  5
5362
330
1F
100
AcDbEntity
  8
太線
100
AcDbLine
 10
194.5198918278099
 20
488.3168861623931
 30
0.0
 11
197.3135114170563
 21
488.3168861623931
 31
0.0
  0
LINE
  5
5363
330
1F
100
AcDbEntity
  8
太線
100
AcDbLine
 10
151.8135114170563
 20
488.3168861623931
 30
0.0
 11
154.1071310063027
 21
488.3168861623931
 31
0.0
  0
ARC
  5
5364
330
1F
100
AcDbEntity
  8
太線
100
AcDbCircle
 10
174.3135114170563
 20
499.8774443203932
 30
0.0
 40
23.2796974685795
100
AcDbArc
 50
209.7749157394808
 51
330.2250842605191
  0
LINE
  5
5365
330
1F
100
AcDbEntity
  8
太線
100
AcDbLine
 10
132.3135114170563
 20
466.9751543839098
 30
0.0
 11
216.3135114170563
 21
466.97515438391
 31
0.0
  0
LINE
  5
5366
330
1F
100
AcDbEntity
  8
破線
100
AcDbLine
 10
209.8135114170563
 20
466.97515438391
 30
0.0
 11
209.8135114170564
 21
469.47515438391
 31
0.0
  0
LINE
  5
5367
330
1F
100
AcDbEntity
  8
破線
100
AcDbLine
 10
197.3135114170563
 20
466.97515438391
 30
0.0
 11
197.3135114170564
 21
469.47515438391
 31
0.0
  0
LINE
  5
5368
330
1F
100
AcDbEntity
  8
破線
100
AcDbLine
 10
151.8135114170563
 20
466.97515438391
 30
0.0
 11
151.8135114170563
 21
469.47515438391
 31
0.0
  0
LINE
  5
5369
330
1F
100
AcDbEntity
  8
破線
100
AcDbLine
 10
138.8135114170563
 20
466.97515438391
 30
0.0
 11
138.8135114170563
 21
469.47515438391
 31
0.0
  0
DIMENSION
  5
536B
330
1F
100
AcDbEntity
  8
寸法線
100
AcDbDimension
  2
*D70
 10
118.2104354120926
 20
466.9751543839099
 30
0.0
 11
114.7099432861083
 21
477.47515438391
 31
0.0
 70
    32
 71
     5
 42
21.00000000000005
  3
sunpo
100
AcDbAlignedDimension
 13
99.37100520037029
 23
487.97515438391
 33
0.0
 14
98.8710052003703
 24
466.9751543839099
 34
0.0
 50
90.0
100
AcDbRotatedDimension
1001
ACAD
1000
DSTYLE
1002
{
1070
    40
1040
1.0
1002
}
  0
DIMENSION
  5
536C
330
1F
100
AcDbEntity
  8
寸法線
100
AcDbDimension
  2
*D71
 10
100.3710052003703
 20
499.1103379425013
 30
0.0
 11
87.87100520037029
 21
502.6108300684856
 31
0.0
 70
    32
 71
     5
 42
25.0
  3
sunpo
100
AcDbAlignedDimension
 13
75.37100520037029
 23
486.9751543839099
 33
0.0
 14
100.3710052003703
 24
486.9751543839099
 34
0.0
100
AcDbRotatedDimension
1001
ACAD
1000
DSTYLE
1002
{
1070
    40
1040
1.0
1002
}
  0
ARC
  5
536D
330
1F
100
AcDbEntity
  8
太線
100
AcDbCircle
 10
76.37100520037026
 20
467.97515438391
 30
0.0
 40
1.0
100
AcDbArc
 50
180.0
 51
270.0
  0
ARC
  5
536E
330
1F
100
AcDbEntity
  8
太線
100
AcDbCircle
 10
99.37100520037029
 20
467.97515438391
 30
0.0
 40
1.0
100
AcDbArc
 50
270.0
 51
0.0
  0
ARC
  5
536F
330
1F
100
AcDbEntity
  8
太線
100
AcDbCircle
 10
97.87100520037036
 20
485.4751543839099
 30
0.0
 40
1.0
100
AcDbArc
 50
0.0
 51
90.0
  0
ARC
  5
5370
330
1F
100
AcDbEntity
  8
太線
100
AcDbCircle
 10
99.37100520037029
 20
486.9751543839099
 30
0.0
 40
1.0
100
AcDbArc
 50
0.0
 51
90.0
  0
ARC
  5
5371
330
1F
100
AcDbEntity
  8
太線
100
AcDbCircle
 10
77.87100520037032
 20
485.4751543839099
 30
0.0
 40
1.0
100
AcDbArc
 50
90.0
 51
180.0
  0
ARC
  5
5372
330
1F
100
AcDbEntity
  8
太線
100
AcDbCircle
 10
76.37100520037029
 20
486.9751543839099
 30
0.0
 40
1.0
100
AcDbArc
 50
90.0
 51
180.0
  0
LINE
  5
5373
330
1F
100
AcDbEntity
  8
想像線
100
AcDbLine
 10
83.37100520037029
 20
487.9751543839099
 30
0.0
 11
83.37100520037029
 21
486.47515438391
 31
0.0
  0
LINE
  5
5374
330
1F
100
AcDbEntity
  8
想像線
100
AcDbLine
 10
92.3710052003703
 20
487.9751543839099
 30
0.0
 11
92.3710052003703
 21
486.47515438391
 31
0.0
  0
LINE
  5
5375
330
1F
100
AcDbEntity
  8
太線
100
AcDbLine
 10
76.87100520037029
 20
466.9751543839099
 30
0.0
 11
76.37100520037026
 21
466.97515438391
 31
0.0
  0
LINE
  5
5376
330
1F
100
AcDbEntity
  8
太線
100
AcDbLine
 10
76.87100520037032
 20
485.4751543839099
 30
0.0
 11
76.87100520037029
 21
466.9751543839099
 31
0.0
  0
LINE
  5
5377
330
1F
100
AcDbEntity
  8
太線
100
AcDbLine
 10
97.87100520037036
 20
486.47515438391
 30
0.0
 11
77.87100520037032
 21
486.47515438391
 31
0.0
  0
LINE
  5
5378
330
1F
100
AcDbEntity
  8
太線
100
AcDbLine
 10
98.8710052003703
 20
466.9751543839099
 30
0.0
 11
98.87100520037035
 21
485.4751543839099
 31
0.0
  0
LINE
  5
5379
330
1F
100
AcDbEntity
  8
太線
100
AcDbLine
 10
99.37100520037029
 20
466.97515438391
 30
0.0
 11
98.8710052003703
 21
466.9751543839099
 31
0.0
  0
LINE
  5
537A
330
1F
100
AcDbEntity
  8
太線
100
AcDbLine
 10
100.3710052003703
 20
486.9751543839099
 30
0.0
 11
100.3710052003703
 21
467.97515438391
 31
0.0
  0
LINE
  5
537B
330
1F
100
AcDbEntity
  8
太線
100
AcDbLine
 10
76.37100520037029
 20
487.9751543839099
 30
0.0
 11
99.37100520037029
 21
487.97515438391
 31
0.0
  0
LINE
  5
537C
330
1F
100
AcDbEntity
  8
太線
100
AcDbLine
 10
75.37100520037026
 20
467.97515438391
 30
0.0
 11
75.37100520037029
 21
486.9751543839099
 31
0.0
  0
TEXT
  5
54AD
330
1F
100
AcDbEntity
  8
文字
100
AcDbText
 10
95.70148576197061
 20
317.761005858857
 30
0.0
 40
10.0
  1
台座ダクタイル（FCD-450)
 51
15.0
  7
OKANO
100
AcDbText
  0
TEXT
  5
54AE
330
1F
100
AcDbEntity
  8
文字
100
AcDbText
 10
155.3665617817359
 20
366.4981855011707
 30
0.0
 40
10.0
  1
28Ｓ-UＹ
 51
15.0
  7
OKANO
100
AcDbText
  0
TEXT
  5
54AF
330
1F
100
AcDbEntity
  8
文字
100
AcDbText
 10
155.9851727609805
 20
146.349830788915
 30
0.0
 40
7.0
  1
電気鍍金仕上げ
 51
15.0
  7
OKANO
100
AcDbText
  0
XLINE
  5
54B0
330
1F
100
AcDbEntity
  8
構築線
100
AcDbXline
 10
86.20415694681287
 20
342.9393675874532
 30
0.0
 11
1.0
 21
0.0
 31
0.0
  0
XLINE
  5
54B1
330
1F
100
AcDbEntity
  8
構築線
100
AcDbXline
 10
64.02644287104158
 20
243.9798383959553
 30
0.0
 11
0.0
 21
1.0
 31
0.0
  0
XLINE
  5
54B2
330
1F
100
AcDbEntity
  8
構築線
100
AcDbXline
 10
64.02644287104158
 20
536.4273991820348
 30
0.0
 11
1.0
 21
0.0
 31
0.0
  0
XLINE
  5
54B3
330
1F
100
AcDbEntity
  8
構築線
100
AcDbXline
 10
702.7445966699302
 20
536.4273991820348
 30
0.0
 11
0.0
 21
-1.0
 31
0.0
  0
XLINE
  5
54B4
330
1F
100
AcDbEntity
  8
構築線
100
AcDbXline
 10
66.98347036144832
 20
125.8192087207357
 30
0.0
 11
1.0
 21
0.0
 31
0.0
  0
LINE
  5
54B5
330
1F
100
AcDbEntity
  8
破線
100
AcDbLine
 10
64.02644287104158
 20
536.4273991820348
 30
0.0
 11
702.7445966699302
 21
536.4273991820348
 31
0.0
  0
LINE
  5
54B6
330
1F
100
AcDbEntity
  8
破線
100
AcDbLine
 10
702.7445966699302
 20
536.4273991820348
 30
0.0
 11
702.7445966699302
 21
125.8192087207357
 31
0.0
  0
LINE
  5
54B7
330
1F
100
AcDbEntity
  8
破線
100
AcDbLine
 10
702.7445966699302
 20
125.8192087207357
 30
0.0
 11
64.02644287104158
 21
125.8192087207357
 31
0.0
  0
LINE
  5
54B8
330
1F
100
AcDbEntity
  8
破線
100
AcDbLine
 10
64.02644287104158
 20
125.8192087207357
 30
0.0
 11
64.02644287104158
 21
536.4273991820348
 31
0.0
  0
LINE
  5
54B9
330
1F
100
AcDbEntity
  8
破線
100
AcDbLine
 10
64.02644287104158
 20
342.9393675874532
 30
0.0
 11
702.7445966699302
 21
342.9393675874532
 31
0.0
  0
XLINE
  5
54CC
330
1F
100
AcDbEntity
  8
構築線
100
AcDbXline
 10
267.8141147453693
 20
421.0541571714968
 30
0.0
 11
0.0
 21
-1.0
 31
0.0
  0
XLINE
  5
54CD
330
1F
100
AcDbEntity
  8
構築線
100
AcDbXline
 10
266.7167397053172
 20
492.3272940894717
 30
0.0
 11
1.0
 21
0.0
 31
0.0
  0
XLINE
  5
54CF
330
1F
100
AcDbEntity
  8
構築線
100
AcDbXline
 10
266.7167397053172
 20
302.6311017876758
 30
0.0
 11
1.0
 21
0.0
 31
0.0
  0
XLINE
  5
54D2
330
1F
100
AcDbEntity
  8
構築線
100
AcDbXline
 10
270.0088621929007
 20
376.0972568631812
 30
0.0
 11
1.0
 21
0.0
 31
0.0
  0
XLINE
  5
54D3
330
1F
100
AcDbEntity
  8
構築線
100
AcDbXline
 10
268.9114871528486
 20
168.8569072673099
 30
0.0
 11
1.0
 21
0.0
 31
0.0
  0
LINE
  5
54D4
330
1F
100
AcDbEntity
  8
破線
100
AcDbLine
 10
267.8141147453693
 20
492.3272940894717
 30
0.0
 11
267.8141147453693
 21
376.0972568631812
 31
0.0
  0
LINE
  5
54D5
330
1F
100
AcDbEntity
  8
破線
100
AcDbLine
 10
267.8141147453693
 20
302.6311017876758
 30
0.0
 11
267.8141147453693
 21
168.8569072673099
 31
0.0
  0
DIMENSION
  5
54E9
330
1F
100
AcDbEntity
  8
寸法線
100
AcDbDimension
  2
*D72
 10
76.87100520037029
 20
455.1051523867629
 30
0.0
 11
86.87997979658586
 21
458.6051523867629
 31
0.0
 70
    32
 71
     5
 42
1.500000000000028
  3
sunpo
100
AcDbAlignedDimension
 13
75.37100520037026
 23
467.97515438391
 33
0.0
 14
76.87100520037029
 24
466.9751543839099
 34
0.0
100
AcDbRotatedDimension
1001
ACAD
1000
DSTYLE
1002
{
1070
    40
1040
1.0
1002
}
  0
TEXT
  5
5503
330
1F
100
AcDbEntity
  8
文字
100
AcDbText
 10
308.6221885820673
 20
316.7672049279778
 30
0.0
 40
10.0
  1
座金（鉄）
 51
15.0
  7
OKANO
100
AcDbText
  0
VIEWPORT
  5
2E
330
1B
100
AcDbEntity
 67
     1
  8
0
100
AcDbViewport
 10
392.062828315428
 20
180.3756431162585
 30
0.0
 40
1218.165048020342
 41
583.6224828136043
 68
     2
 69
     1
 12
392.062828315428
 22
180.3756431162585
 13
0.0
 23
0.0
 14
10.0
 24
10.0
 15
10.0
 25
10.0
 16
0.0
 26
0.0
 36
1.0
 17
0.0
 27
0.0
 37
0.0
 42
50.0
 43
0.0
 44
0.0
 45
583.6224828136043
 50
0.0
 51
0.0
 72
   100
 90
    32800
  1

281
     0
 71
     1
 74
     0
110
0.0
120
0.0
130
0.0
111
1.0
121
0.0
131
0.0
112
0.0
122
1.0
132
0.0
 79
     0
146
0.0
  0
VIEWPORT
  5
30
330
1B
100
AcDbEntity
 67
     1
  8
70-0-CON
100
AcDbViewport
 10
141.8594093064315
 20
100.3480256368386
 30
0.0
 40
261.6199023344245
 41
192.6196987113174
 68
     1
 69
     2
 12
399.8140811816753
 22
348.5704408897441
 13
0.0
 23
0.0
 14
5.0
 24
5.0
 15
10.0
 25
10.0
 16
0.0
 26
0.0
 36
1.0
 17
0.0
 27
0.0
 37
0.0
 42
50.0
 43
0.0
 44
0.0
 45
522.0145632399237
 50
0.0
 51
0.0
 72
   100
 90
    32864
  1

281
     0
 71
     1
 74
     0
110
0.0
120
0.0
130
0.0
111
1.0
121
0.0
131
0.0
112
0.0
122
1.0
132
0.0
 79
     0
146
0.0
  0
LWPOLYLINE
  5
45
330
1B
100
AcDbEntity
 67
     1
  8
50-0-CON
100
AcDbPolyline
 90
        4
 70
     1
 43
0.0
 10
11.04945813921926
 20
4.038176281179858
 10
272.2125713060605
 20
4.033520706629644
 10
273.4987754093466
 20
195.9297862125246
 10
11.04945813921926
 20
196.6578749924973
  0
LINE
  5
4A
330
1B
100
AcDbEntity
 67
     1
  8
50-0-CON
100
AcDbLine
 10
10.38768783662635
 20
100.3480256368386
 30
0.0
 11
-4.391850629656119
 21
100.3480256368386
 31
0.0
  0
LINE
  5
4B
330
1B
100
AcDbEntity
 67
     1
  8
50-0-CON
100
AcDbLine
 10
141.8594093064315
 20
197.098652626247
 30
0.0
 11
141.8594093064315
 21
202.387980773708
 31
0.0
  0
LINE
  5
4C
330
1B
100
AcDbEntity
 67
     1
  8
50-0-CON
100
AcDbLine
 10
272.4487699456857
 20
100.7888032705883
 30
0.0
 11
278.8458837249377
 21
100.7888032705883
 31
0.0
  0
LINE
  5
4D
330
1B
100
AcDbEntity
 67
     1
  8
50-0-CON
100
AcDbLine
 10
140.9770484758805
 20
4.038176281179858
 30
0.0
 11
140.9770484758805
 21
-3.455038652015446
 31
0.0
  0
ENDSEC
  0
SECTION
  2
OBJECTS
  0
DICTIONARY
  5
C
330
0
100
AcDbDictionary
281
     1
  3
ACAD_GROUP
350
D
  3
ACAD_LAYOUT
350
1A
  3
ACAD_MLINESTYLE
350
17
  3
ACAD_PLOTSETTINGS
350
19
  3
ACAD_PLOTSTYLENAME
350
E
  3
AcadDim
350
4C7D
  3
AcDbVariableDictionary
350
6AD
  3
DWGPROPS
350
4AEC
  0
DICTIONARY
  5
D
102
{ACAD_REACTORS
330
C
102
}
330
C
100
AcDbDictionary
281
     1
  0
DICTIONARY
  5
1A
102
{ACAD_REACTORS
330
C
102
}
330
C
100
AcDbDictionary
281
     1
  3
A4
350
1E
  3
Model
350
22
  0
DICTIONARY
  5
17
102
{ACAD_REACTORS
330
C
102
}
330
C
100
AcDbDictionary
281
     1
  3
Standard
350
18
  0
DICTIONARY
  5
19
102
{ACAD_REACTORS
330
C
102
}
330
C
100
AcDbDictionary
281
     1
  0
ACDBDICTIONARYWDFLT
  5
E
102
{ACAD_REACTORS
330
C
102
}
330
C
100
AcDbDictionary
281
     1
  3
Normal
350
F
100
AcDbDictionaryWithDefault
340
F
  0
XRECORD
  5
4C7D
102
{ACAD_REACTORS
330
C
102
}
330
C
100
AcDbXrecord
280
     1
 90
   990106
  3

 60
     0
 61
     0
 62
     1
 63
     3
 64
     0
 65
     0
 66
     0
 67
     3
 68
     1
 69
     0
 70
     0
 71
     0
 72
     0
 40
0.0
170
     0
  0
DICTIONARY
  5
6AD
102
{ACAD_REACTORS
330
C
102
}
330
C
100
AcDbDictionary
281
     1
  3
SORTENTS
350
6AE
  0
XRECORD
  5
4AEC
102
{ACAD_REACTORS
330
C
102
}
330
C
100
AcDbXrecord
280
     1
  1
DWGPROPS COOKIE
  2

  3

  4

  6

  7

  8

  9

300
=
301
=
302
=
303
=
304
=
305
=
306
=
307
=
308
=
309
=
 40
3.342131759259259
 41
2452362.482225463
 42
2455527.444288414
  1

 90
        0
  0
LAYOUT
  5
1E
102
{ACAD_REACTORS
330
1A
102
}
330
1A
100
AcDbPlotSettings
  1

  2
none_device
  4
ISO_A4_(210.00_x_297.00_MM)
  6

 40
7.5
 41
20.0
 42
7.5
 43
20.0
 44
210.0
 45
297.0
 46
0.0
 47
0.0
 48
0.0
 49
0.0
140
0.0
141
0.0
142
1.0
143
1.0
 70
   656
 72
     1
 73
     1
 74
     5
  7

 75
    16
147
1.0
148
0.0
149
0.0
100
AcDbLayout
  1
A4
 70
     1
 71
     1
 10
-20.0
 20
-7.5
 11
277.0
 21
202.4999999999999
 12
0.0
 22
0.0
 32
0.0
 14
-4.41382938596746
 24
-3.468932611831576
 34
-0.0015258207003583
 15
278.855004473357
 25
202.394257080618
 35
0.0000000349246037
146
0.0
 13
0.0
 23
0.0
 33
0.0
 16
1.0
 26
0.0
 36
0.0
 17
0.0
 27
1.0
 37
0.0
 76
     0
330
1B
331
30
  0
LAYOUT
  5
22
102
{ACAD_REACTORS
330
1A
102
}
330
1A
100
AcDbPlotSettings
  1

  2
EPSON PM-920C
  4
A4
  6

 40
3.757083177566528
 41
14.7637300491333
 42
3.757080078125
 43
3.757080078125
 44
209.9733276367187
 45
296.9683227539062
 46
0.0
 47
0.0
 48
0.0
 49
0.0
140
0.0
141
0.0
142
1.0
143
1.0
 70
 11952
 72
     1
 73
     1
 74
     0
  7
C:\Program Files\ACAD LT 2000\Plot Styles\JOINT.ctb
 75
     0
147
1.0
148
-45.64199848979289
149
-84.48806419330498
100
AcDbLayout
  1
Model
 70
     1
 71
     0
 10
0.0
 20
0.0
 11
12.0
 21
9.0
 12
0.0
 22
0.0
 32
0.0
 14
0.0
 24
0.0
 34
0.0
 15
0.0
 25
0.0
 35
0.0
146
0.0
 13
0.0
 23
0.0
 33
0.0
 16
1.0
 26
0.0
 36
0.0
 17
0.0
 27
1.0
 37
0.0
 76
     0
330
1F
  0
MLINESTYLE
  5
18
102
{ACAD_REACTORS
330
17
102
}
330
17
100
AcDbMlineStyle
  2
STANDARD
 70
     0
  3

 62
   256
 51
90.0
 52
90.0
 71
     2
 49
0.5
 62
   256
  6
BYLAYER
 49
-0.5
 62
   256
  6
BYLAYER
  0
ACDBPLACEHOLDER
  5
F
102
{ACAD_REACTORS
330
E
102
}
330
E
  0
DICTIONARYVAR
  5
6AE
102
{ACAD_REACTORS
330
6AD
102
}
330
6AD
100
DictionaryVariables
280
     0
  1
119
  0
ENDSEC
  0
EOF
