  0
SECTION
  2
HEADER
  9
$ACADVER
  1
AC1015
  9
$ACADMAINTVER
 70
     6
  9
$DWGCODEPAGE
  3
ANSI_932
  9
$INSBASE
 10
0.0
 20
0.0
 30
0.0
  9
$EXTMIN
 10
10.63818151067283
 20
-38.49340787712424
 30
0.0
  9
$EXTMAX
 10
348.196544768897
 20
225.1358766842938
 30
0.0
  9
$LIMMIN
 10
0.0
 20
0.0
  9
$LIMMAX
 10
420.0
 20
297.0
  9
$ORTHOMODE
 70
     0
  9
$REGENMODE
 70
     1
  9
$FILLMODE
 70
     1
  9
$QTEXTMODE
 70
     0
  9
$MIRRTEXT
 70
     1
  9
$LTSCALE
 40
1.0
  9
$ATTMODE
 70
     1
  9
$TEXTSIZE
 40
5.0
  9
$TRACEWID
 40
1.0
  9
$TEXTSTYLE
  7
OKANO
  9
$CLAYER
  8
太線
  9
$CELTYPE
  6
ByLayer
  9
$CECOLOR
 62
   256
  9
$CELTSCALE
 40
1.0
  9
$DISPSILH
 70
     0
  9
$DIMSCALE
 40
0.0
  9
$DIMASZ
 40
3.0
  9
$DIMEXO
 40
2.0
  9
$DIMDLI
 40
8.0
  9
$DIMRND
 40
0.0
  9
$DIMDLE
 40
0.0
  9
$DIMEXE
 40
3.0
  9
$DIMTP
 40
0.0
  9
$DIMTM
 40
0.0
  9
$DIMTXT
 40
5.0
  9
$DIMCEN
 40
2.5
  9
$DIMTSZ
 40
0.0
  9
$DIMTOL
 70
     0
  9
$DIMLIM
 70
     0
  9
$DIMTIH
 70
     0
  9
$DIMTOH
 70
     0
  9
$DIMSE1
 70
     0
  9
$DIMSE2
 70
     0
  9
$DIMTAD
 70
     1
  9
$DIMZIN
 70
     8
  9
$DIMBLK
  1
Closed
  9
$DIMASO
 70
     1
  9
$DIMSHO
 70
     1
  9
$DIMPOST
  1

  9
$DIMAPOST
  1

  9
$DIMALT
 70
     0
  9
$DIMALTD
 70
     3
  9
$DIMALTF
 40
0.03937007874016
  9
$DIMLFAC
 40
1.0
  9
$DIMTOFL
 70
     1
  9
$DIMTVP
 40
0.0
  9
$DIMTIX
 70
     0
  9
$DIMSOXD
 70
     0
  9
$DIMSAH
 70
     0
  9
$DIMBLK1
  1

  9
$DIMBLK2
  1

  9
$DIMSTYLE
  2
sunpo
  9
$DIMCLRD
 70
     0
  9
$DIMCLRE
 70
     0
  9
$DIMCLRT
 70
     0
  9
$DIMTFAC
 40
1.0
  9
$DIMGAP
 40
1.0
  9
$DIMJUST
 70
     0
  9
$DIMSD1
 70
     0
  9
$DIMSD2
 70
     0
  9
$DIMTOLJ
 70
     0
  9
$DIMTZIN
 70
     8
  9
$DIMALTZ
 70
     0
  9
$DIMALTTZ
 70
     0
  9
$DIMUPT
 70
     0
  9
$DIMDEC
 70
     2
  9
$DIMTDEC
 70
     2
  9
$DIMALTU
 70
     2
  9
$DIMALTTD
 70
     3
  9
$DIMTXSTY
  7
OKANO
  9
$DIMAUNIT
 70
     0
  9
$DIMADEC
 70
     0
  9
$DIMALTRND
 40
0.0
  9
$DIMAZIN
 70
     0
  9
$DIMDSEP
 70
    46
  9
$DIMATFIT
 70
     3
  9
$DIMFRAC
 70
     0
  9
$DIMLDRBLK
  1
Closed
  9
$DIMLUNIT
 70
     2
  9
$DIMLWD
 70
    -2
  9
$DIMLWE
 70
    -2
  9
$DIMTMOVE
 70
     0
  9
$LUNITS
 70
     2
  9
$LUPREC
 70
     2
  9
$SKETCHINC
 40
1.0
  9
$FILLETRAD
 40
1.0
  9
$AUNITS
 70
     0
  9
$AUPREC
 70
     0
  9
$MENU
  1
.
  9
$ELEVATION
 40
0.0
  9
$PELEVATION
 40
0.0
  9
$THICKNESS
 40
0.0
  9
$LIMCHECK
 70
     0
  9
$CHAMFERA
 40
10.0
  9
$CHAMFERB
 40
10.0
  9
$CHAMFERC
 40
20.0
  9
$CHAMFERD
 40
0.0
  9
$SKPOLY
 70
     0
  9
$TDCREATE
 40
2452362.482225463
  9
$TDUCREATE
 40
2452362.107225463
  9
$TDUPDATE
 40
2456127.581507106
  9
$TDUUPDATE
 40
2456127.206507106
  9
$TDINDWG
 40
2.2142859722
  9
$TDUSRTIMER
 40
2.2142859722
  9
$USRTIMER
 70
     1
  9
$ANGBASE
 50
0.0
  9
$ANGDIR
 70
     0
  9
$PDMODE
 70
     0
  9
$PDSIZE
 40
0.0
  9
$PLINEWID
 40
0.0
  9
$SPLFRAME
 70
     0
  9
$SPLINETYPE
 70
     6
  9
$SPLINESEGS
 70
     8
  9
$HANDSEED
  5
2F56
  9
$SURFTAB1
 70
     6
  9
$SURFTAB2
 70
     6
  9
$SURFTYPE
 70
     6
  9
$SURFU
 70
     6
  9
$SURFV
 70
     6
  9
$UCSBASE
  2

  9
$UCSNAME
  2

  9
$UCSORG
 10
0.0
 20
0.0
 30
0.0
  9
$UCSXDIR
 10
1.0
 20
0.0
 30
0.0
  9
$UCSYDIR
 10
0.0
 20
1.0
 30
0.0
  9
$UCSORTHOREF
  2

  9
$UCSORTHOVIEW
 70
     0
  9
$UCSORGTOP
 10
0.0
 20
0.0
 30
0.0
  9
$UCSORGBOTTOM
 10
0.0
 20
0.0
 30
0.0
  9
$UCSORGLEFT
 10
0.0
 20
0.0
 30
0.0
  9
$UCSORGRIGHT
 10
0.0
 20
0.0
 30
0.0
  9
$UCSORGFRONT
 10
0.0
 20
0.0
 30
0.0
  9
$UCSORGBACK
 10
0.0
 20
0.0
 30
0.0
  9
$PUCSBASE
  2

  9
$PUCSNAME
  2

  9
$PUCSORG
 10
0.0
 20
0.0
 30
0.0
  9
$PUCSXDIR
 10
1.0
 20
0.0
 30
0.0
  9
$PUCSYDIR
 10
0.0
 20
1.0
 30
0.0
  9
$PUCSORTHOREF
  2

  9
$PUCSORTHOVIEW
 70
     0
  9
$PUCSORGTOP
 10
0.0
 20
0.0
 30
0.0
  9
$PUCSORGBOTTOM
 10
0.0
 20
0.0
 30
0.0
  9
$PUCSORGLEFT
 10
0.0
 20
0.0
 30
0.0
  9
$PUCSORGRIGHT
 10
0.0
 20
0.0
 30
0.0
  9
$PUCSORGFRONT
 10
0.0
 20
0.0
 30
0.0
  9
$PUCSORGBACK
 10
0.0
 20
0.0
 30
0.0
  9
$USERI1
 70
     0
  9
$USERI2
 70
     0
  9
$USERI3
 70
     0
  9
$USERI4
 70
     0
  9
$USERI5
 70
     0
  9
$USERR1
 40
0.0
  9
$USERR2
 40
0.0
  9
$USERR3
 40
0.0
  9
$USERR4
 40
0.0
  9
$USERR5
 40
0.0
  9
$WORLDVIEW
 70
     1
  9
$SHADEDGE
 70
     3
  9
$SHADEDIF
 70
    70
  9
$TILEMODE
 70
     0
  9
$MAXACTVP
 70
    64
  9
$PINSBASE
 10
0.0
 20
0.0
 30
0.0
  9
$PLIMCHECK
 70
     0
  9
$PEXTMIN
 10
-4.391850629656119
 20
-3.455038652015446
 30
0.0
  9
$PEXTMAX
 10
278.8458837249377
 20
202.387980773708
 30
0.0
  9
$PLIMMIN
 10
-3.757080078125
 20
-3.757083177566528
  9
$PLIMMAX
 10
293.2112426757812
 20
206.2162444591522
  9
$UNITMODE
 70
     0
  9
$VISRETAIN
 70
     1
  9
$PLINEGEN
 70
     0
  9
$PSLTSCALE
 70
     1
  9
$TREEDEPTH
 70
  3020
  9
$CMLSTYLE
  2
Standard
  9
$CMLJUST
 70
     0
  9
$CMLSCALE
 40
20.0
  9
$PROXYGRAPHICS
 70
     1
  9
$MEASUREMENT
 70
     1
  9
$CELWEIGHT
370
    -1
  9
$ENDCAPS
280
     0
  9
$JOINSTYLE
280
     0
  9
$LWDISPLAY
290
     0
  9
$INSUNITS
 70
     4
  9
$HYPERLINKBASE
  1

  9
$STYLESHEET
  1

  9
$XEDIT
290
     1
  9
$CEPSNTYPE
380
     0
  9
$PSTYLEMODE
290
     1
  9
$FINGERPRINTGUID
  2
{FF7F33C3-4233-11D6-AEE0-0000F45FD7F4}
  9
$VERSIONGUID
  2
{E71873F2-B910-4250-BB7D-DA1EF67F6FD9}
  9
$EXTNAMES
290
     1
  9
$PSVPSCALE
 40
0.0
  9
$OLESTARTUP
290
     0
  0
ENDSEC
  0
SECTION
  2
CLASSES
  0
CLASS
  1
ACDBDICTIONARYWDFLT
  2
AcDbDictionaryWithDefault
  3
AutoCAD 2000
 90
        0
280
     0
281
     0
  0
CLASS
  1
ACDBPLACEHOLDER
  2
AcDbPlaceHolder
  3
AutoCAD 2000
 90
        0
280
     0
281
     0
  0
CLASS
  1
LAYOUT
  2
AcDbLayout
  3
AutoCAD 2000
 90
        0
280
     0
281
     0
  0
CLASS
  1
DICTIONARYVAR
  2
AcDbDictionaryVar
  3
AutoCAD 2000
 90
        0
280
     0
281
     0
  0
ENDSEC
  0
SECTION
  2
TABLES
  0
TABLE
  2
VPORT
  5
8
330
0
100
AcDbSymbolTable
 70
     3
  0
VPORT
  5
2F55
330
8
100
AcDbSymbolTableRecord
100
AcDbViewportTableRecord
  2
*Active
 70
     0
 10
0.0
 20
0.0
 11
1.0
 21
1.0
 12
160.0809298564091
 22
53.44755681471326
 13
0.0
 23
0.0
 14
5.0
 24
5.0
 15
10.0
 25
10.0
 16
0.0
 26
0.0
 36
1.0
 17
0.0
 27
0.0
 37
0.0
 40
295.4104135113171
 41
1.968879668049792
 42
50.0
 43
0.0
 44
0.0
 50
0.0
 51
0.0
 71
     0
 72
   100
 73
     1
 74
     3
 75
     0
 76
     0
 77
     0
 78
     0
281
     0
 65
     1
110
0.0
120
0.0
130
0.0
111
1.0
121
0.0
131
0.0
112
0.0
122
1.0
132
0.0
 79
     0
146
0.0
  0
ENDTAB
  0
TABLE
  2
LTYPE
  5
5
330
0
100
AcDbSymbolTable
 70
     5
  0
LTYPE
  5
14
330
5
100
AcDbSymbolTableRecord
100
AcDbLinetypeTableRecord
  2
ByBlock
 70
     0
  3

 72
    65
 73
     0
 40
0.0
  0
LTYPE
  5
15
330
5
100
AcDbSymbolTableRecord
100
AcDbLinetypeTableRecord
  2
ByLayer
 70
     0
  3

 72
    65
 73
     0
 40
0.0
  0
LTYPE
  5
16
330
5
100
AcDbSymbolTableRecord
100
AcDbLinetypeTableRecord
  2
Continuous
 70
     0
  3
Solid line
 72
    65
 73
     0
 40
0.0
  0
LTYPE
  5
33
330
5
100
AcDbSymbolTableRecord
100
AcDbLinetypeTableRecord
  2
DASHED2
 70
     0
  3
Dashed (.5x) _ _ _ _ _ _ _ _ _ _ _ _ _ _ _ _ _
 72
    65
 73
     2
 40
9.524999999999998
 49
6.349999999999999
 74
     0
 49
-3.174999999999999
 74
     0
  0
LTYPE
  5
34
330
5
100
AcDbSymbolTableRecord
100
AcDbLinetypeTableRecord
  2
CENTER2
 70
     0
  3
Center (.5x) ___ _ ___ _ ___ _ ___ _ ___ _ ___
 72
    65
 73
     4
 40
28.57499999999999
 49
19.05
 74
     0
 49
-3.174999999999999
 74
     0
 49
3.174999999999999
 74
     0
 49
-3.174999999999999
 74
     0
  0
LTYPE
  5
35
330
5
100
AcDbSymbolTableRecord
100
AcDbLinetypeTableRecord
  2
PHANTOM2
 70
     0
  3
Phantom (.5x) ___ _ _ ___ _ _ ___ _ _ ___ _ _
 72
    65
 73
     6
 40
31.75
 49
15.875
 74
     0
 49
-3.174999999999999
 74
     0
 49
3.174999999999999
 74
     0
 49
-3.174999999999999
 74
     0
 49
3.174999999999999
 74
     0
 49
-3.174999999999999
 74
     0
  0
LTYPE
  5
36
330
5
100
AcDbSymbolTableRecord
100
AcDbLinetypeTableRecord
  2
HIDDEN2
 70
     0
  3
Hidden (.5x) _ _ _ _ _ _ _ _ _ _ _ _ _ _ _ _ _
 72
    65
 73
     2
 40
4.762499999999999
 49
3.174999999999999
 74
     0
 49
-1.587499999999999
 74
     0
  0
ENDTAB
  0
TABLE
  2
LAYER
  5
2
330
0
100
AcDbSymbolTable
 70
    13
  0
LAYER
  5
10
330
2
100
AcDbSymbolTableRecord
100
AcDbLayerTableRecord
  2
0
 70
     0
 62
     7
  6
Continuous
370
    -3
390
F
  0
LAYER
  5
40
330
2
100
AcDbSymbolTableRecord
100
AcDbLayerTableRecord
  2
50-0-CON
 70
     0
 62
     4
  6
Continuous
370
    50
390
F
  0
LAYER
  5
41
330
2
100
AcDbSymbolTableRecord
100
AcDbLayerTableRecord
  2
70-0-CON
 70
     0
 62
   202
  6
Continuous
370
    70
390
F
  0
LAYER
  5
4E
330
2
100
AcDbSymbolTableRecord
100
AcDbLayerTableRecord
  2
極太線
 70
     0
 62
     7
  6
Continuous
370
    70
390
F
  0
LAYER
  5
4F
330
2
100
AcDbSymbolTableRecord
100
AcDbLayerTableRecord
  2
細線
 70
     0
 62
     8
  6
Continuous
370
    18
390
F
  0
LAYER
  5
AB
330
2
100
AcDbSymbolTableRecord
100
AcDbLayerTableRecord
  2
構築線
 70
     0
 62
    -2
  6
Continuous
370
    18
390
F
  0
LAYER
  5
B8
330
2
100
AcDbSymbolTableRecord
100
AcDbLayerTableRecord
  2
太線
 70
     0
 62
     7
  6
Continuous
370
    35
390
F
  0
LAYER
  5
B9
330
2
100
AcDbSymbolTableRecord
100
AcDbLayerTableRecord
  2
寸法線
 70
     0
 62
     5
  6
Continuous
370
    18
390
F
  0
LAYER
  5
BA
330
2
100
AcDbSymbolTableRecord
100
AcDbLayerTableRecord
  2
破線
 70
     0
 62
     8
  6
HIDDEN2
370
    18
390
F
  0
LAYER
  5
BB
330
2
100
AcDbSymbolTableRecord
100
AcDbLayerTableRecord
  2
中心線
 70
     0
 62
     1
  6
CENTER2
370
    18
390
F
  0
LAYER
  5
BC
330
2
100
AcDbSymbolTableRecord
100
AcDbLayerTableRecord
  2
想像線
 70
     0
 62
     8
  6
PHANTOM2
370
    18
390
F
  0
LAYER
  5
BD
330
2
100
AcDbSymbolTableRecord
100
AcDbLayerTableRecord
  2
文字
 70
     0
 62
     7
  6
Continuous
370
    18
390
F
  0
LAYER
  5
180
330
2
100
AcDbSymbolTableRecord
100
AcDbLayerTableRecord
  2
Defpoints
 70
     0
 62
     7
  6
Continuous
290
     0
370
    -3
390
F
  0
ENDTAB
  0
TABLE
  2
STYLE
  5
3
330
0
100
AcDbSymbolTable
 70
     3
  0
STYLE
  5
11
330
3
100
AcDbSymbolTableRecord
100
AcDbTextStyleTableRecord
  2
Standard
 70
     0
 40
0.0
 41
1.0
 50
0.0
 71
     0
 42
3.0
  3
txt
  4

  0
STYLE
  5
32
330
3
100
AcDbSymbolTableRecord
100
AcDbTextStyleTableRecord
  2

 70
     1
 40
0.0
 41
1.0
 50
0.0
 71
     0
 42
2.5
  3
ltypeshp.shx
  4

  0
STYLE
  5
50
330
3
100
AcDbSymbolTableRecord
100
AcDbTextStyleTableRecord
  2
OKANO
 70
     0
 40
0.0
 41
1.0
 50
15.0
 71
     0
 42
5.0
  3
isocp.shx
  4
bigfont.shx
  0
ENDTAB
  0
TABLE
  2
VIEW
  5
6
330
0
100
AcDbSymbolTable
 70
     0
  0
ENDTAB
  0
TABLE
  2
UCS
  5
7
330
0
100
AcDbSymbolTable
 70
     0
  0
ENDTAB
  0
TABLE
  2
APPID
  5
9
330
0
100
AcDbSymbolTable
 70
     1
  0
APPID
  5
12
330
9
100
AcDbSymbolTableRecord
100
AcDbRegAppTableRecord
  2
ACAD
 70
     0
  0
ENDTAB
  0
TABLE
  2
DIMSTYLE
  5
A
330
0
100
AcDbSymbolTable
 70
     2
100
AcDbDimStyleTable
 71
     2
340
A2
340
27
  0
DIMSTYLE
105
27
330
A
100
AcDbSymbolTableRecord
100
AcDbDimStyleTableRecord
  2
ISO-25
 70
     0
 41
2.5
 42
0.625
 43
3.75
 44
1.25
 73
     0
 74
     0
 77
     1
 78
     8
140
2.5
141
2.5
143
0.03937007874016
147
0.625
171
     3
172
     1
271
     2
272
     2
274
     3
283
     0
284
     8
340
11
  0
DIMSTYLE
105
A2
102
{ACAD_REACTORS
330
2C5F
330
2C6C
330
2C7B
330
2C88
330
2C97
330
2CCC
330
2CE2
330
2E89
330
2EA6
330
2EE8
330
2EF5
330
2F02
102
}
330
A
100
AcDbSymbolTableRecord
100
AcDbDimStyleTableRecord
  2
sunpo
 70
     0
 40
0.0
 41
3.0
 42
2.0
 43
8.0
 44
3.0
 73
     0
 74
     0
 77
     1
 78
     8
140
5.0
141
2.5
143
0.03937007874016
147
1.0
171
     3
172
     1
271
     2
272
     2
274
     3
283
     0
284
     8
340
50
341
9B
342
9B
  0
ENDTAB
  0
TABLE
  2
BLOCK_RECORD
  5
1
330
0
100
AcDbSymbolTable
 70
    14
  0
BLOCK_RECORD
  5
1F
330
1
100
AcDbSymbolTableRecord
100
AcDbBlockTableRecord
  2
*Model_Space
340
22
  0
BLOCK_RECORD
  5
1B
330
1
100
AcDbSymbolTableRecord
100
AcDbBlockTableRecord
  2
*Paper_Space
340
1E
  0
BLOCK_RECORD
  5
9B
330
1
100
AcDbSymbolTableRecord
100
AcDbBlockTableRecord
  2
_Closed
340
0
102
{BLKREFS
331
2C64
331
2C65
331
2CB0
331
2CB1
331
2CBB
331
2CBC
331
2CC6
331
2CC7
331
2CDC
331
2CDD
331
2CF6
331
2CF7
331
2EB1
331
2EB2
331
2ECB
331
2ECC
331
2EDA
331
2EDB
331
2EED
331
2EEE
331
2F12
331
2F13
331
2F1B
331
2F1C
102
}
  0
BLOCK_RECORD
  5
1510
330
1
100
AcDbSymbolTableRecord
100
AcDbBlockTableRecord
  2
A$C10A573AC
340
0
  0
BLOCK_RECORD
  5
2C60
330
1
100
AcDbSymbolTableRecord
100
AcDbBlockTableRecord
  2
*D2
340
0
  0
BLOCK_RECORD
  5
2C6D
330
1
100
AcDbSymbolTableRecord
100
AcDbBlockTableRecord
  2
*D3
340
0
  0
BLOCK_RECORD
  5
2C7C
330
1
100
AcDbSymbolTableRecord
100
AcDbBlockTableRecord
  2
*D4
340
0
  0
BLOCK_RECORD
  5
2C89
330
1
100
AcDbSymbolTableRecord
100
AcDbBlockTableRecord
  2
*D5
340
0
  0
BLOCK_RECORD
  5
2C98
330
1
100
AcDbSymbolTableRecord
100
AcDbBlockTableRecord
  2
*D6
340
0
  0
BLOCK_RECORD
  5
2CCD
330
1
100
AcDbSymbolTableRecord
100
AcDbBlockTableRecord
  2
*D7
340
0
  0
BLOCK_RECORD
  5
2CE3
330
1
100
AcDbSymbolTableRecord
100
AcDbBlockTableRecord
  2
*D8
340
0
  0
BLOCK_RECORD
  5
2E8A
330
1
100
AcDbSymbolTableRecord
100
AcDbBlockTableRecord
  2
*D9
340
0
  0
BLOCK_RECORD
  5
2EA7
330
1
100
AcDbSymbolTableRecord
100
AcDbBlockTableRecord
  2
*D10
340
0
  0
BLOCK_RECORD
  5
2EE9
330
1
100
AcDbSymbolTableRecord
100
AcDbBlockTableRecord
  2
*D11
340
0
  0
BLOCK_RECORD
  5
2EF6
330
1
100
AcDbSymbolTableRecord
100
AcDbBlockTableRecord
  2
*D12
340
0
  0
BLOCK_RECORD
  5
2F03
330
1
100
AcDbSymbolTableRecord
100
AcDbBlockTableRecord
  2
*D13
340
0
  0
ENDTAB
  0
ENDSEC
  0
SECTION
  2
BLOCKS
  0
BLOCK
  5
20
330
1F
100
AcDbEntity
  8
0
100
AcDbBlockBegin
  2
*Model_Space
 70
     0
 10
0.0
 20
0.0
 30
0.0
  3
*Model_Space
  1

  0
ENDBLK
  5
21
330
1F
100
AcDbEntity
  8
0
100
AcDbBlockEnd
  0
BLOCK
  5
1C
330
1B
100
AcDbEntity
 67
     1
  8
0
100
AcDbBlockBegin
  2
*Paper_Space
 70
     0
 10
0.0
 20
0.0
 30
0.0
  3
*Paper_Space
  1

  0
ENDBLK
  5
1D
330
1B
100
AcDbEntity
 67
     1
  8
0
100
AcDbBlockEnd
  0
BLOCK
  5
A0
330
9B
100
AcDbEntity
  8
0
100
AcDbBlockBegin
  2
_Closed
 70
     0
 10
0.0
 20
0.0
 30
0.0
  3
_Closed
  1

  0
LINE
  5
9C
330
9B
100
AcDbEntity
  8
0
 62
     0
370
    -2
100
AcDbLine
 10
-1.0
 20
0.1666666666666666
 30
0.0
 11
0.0
 21
0.0
 31
0.0
  0
LINE
  5
9D
330
9B
100
AcDbEntity
  8
0
 62
     0
370
    -2
100
AcDbLine
 10
0.0
 20
0.0
 30
0.0
 11
-1.0
 21
-0.1666666666666666
 31
0.0
  0
LINE
  5
9E
330
9B
100
AcDbEntity
  8
0
 62
     0
370
    -2
100
AcDbLine
 10
-1.0
 20
0.1666666666666666
 30
0.0
 11
-1.0
 21
-0.1666666666666666
 31
0.0
  0
LINE
  5
9F
330
9B
100
AcDbEntity
  8
0
 62
     0
370
    -2
100
AcDbLine
 10
0.0
 20
0.0
 30
0.0
 11
-1.0
 21
0.0
 31
0.0
  0
ENDBLK
  5
A1
330
9B
100
AcDbEntity
  8
0
100
AcDbBlockEnd
  0
BLOCK
  5
155B
330
1510
100
AcDbEntity
  8
0
100
AcDbBlockBegin
  2
A$C10A573AC
 70
     0
 10
0.0
 20
0.0
 30
0.0
  3
A$C10A573AC
  1

  0
TEXT
  5
1511
330
1510
100
AcDbEntity
  8
文字
100
AcDbText
 10
0.9844302777919438
 20
5.224957122252135
 30
0.0
 40
3.0
  1
Materal : Steel.
 51
15.0
  7
OKANO
100
AcDbText
  0
TEXT
  5
1512
330
1510
100
AcDbEntity
  8
文字
100
AcDbText
 10
-0.1141909619694843
 20
0.7500001922403499
 30
0.0
 40
3.0
  1
Surface treatment : Electro galvanized.
 51
15.0
  7
OKANO
100
AcDbText
  0
TEXT
  5
1513
330
1510
100
AcDbEntity
  8
文字
100
AcDbText
 10
-0.4901926332574931
 20
9.159967445193728
 30
0.0
 40
3.0
  1
5 TORGUE SCREW  M5-6
 51
15.0
  7
OKANO
100
AcDbText
  0
TEXT
  5
1514
330
1510
100
AcDbEntity
  8
文字
100
AcDbText
 10
1.364713526390005
 20
78.88822913323082
 30
0.0
 40
3.0
  1
Special standard,
 51
15.0
  7
OKANO
100
AcDbText
  0
TEXT
  5
1515
330
1510
100
AcDbEntity
  8
文字
100
AcDbText
 10
92.88160823408942
 20
89.92753849837379
 30
0.0
 40
3.0
  1
Screw Type
 51
15.0
  7
OKANO
100
AcDbText
  0
LINE
  5
1516
330
1510
100
AcDbEntity
  8
太線
100
AcDbLine
 10
113.9464587597784
 20
81.93930390144641
 30
0.0
 11
112.4464587597784
 21
81.93930390144641
 31
0.0
  0
LINE
  5
1517
330
1510
100
AcDbEntity
  8
太線
100
AcDbLine
 10
112.4464587597784
 20
76.9393039014464
 30
0.0
 11
121.4644995438761
 21
76.9393039014464
 31
0.0
  0
TEXT
  5
1518
330
1510
100
AcDbEntity
  8
文字
100
AcDbText
 10
93.46068240437217
 20
77.96976862235396
 30
0.0
 40
2.0
  1
17-30
 51
15.0
  7
OKANO
100
AcDbText
  0
LINE
  5
1519
330
1510
100
AcDbEntity
  8
太線
100
AcDbLine
 10
111.9464587597784
 20
81.43930390144641
 30
0.0
 11
111.9464587597784
 21
77.4393039014464
 31
0.0
  0
LINE
  5
151A
330
1510
100
AcDbEntity
  8
太線
100
AcDbLine
 10
91.94645875977846
 20
81.43930390144641
 30
0.0
 11
91.94645875977846
 21
77.43930390144639
 31
0.0
  0
LINE
  5
151B
330
1510
100
AcDbEntity
  8
太線
100
AcDbLine
 10
101.9644995438761
 20
77.4393039014464
 30
0.0
 11
101.9644995438761
 21
81.43930390144641
 31
0.0
  0
LINE
  5
151C
330
1510
100
AcDbEntity
  8
太線
100
AcDbLine
 10
92.44645875977846
 20
76.9393039014464
 30
0.0
 11
101.4644995438761
 21
76.9393039014464
 31
0.0
  0
ARC
  5
151D
330
1510
100
AcDbEntity
  8
太線
100
AcDbCircle
 10
92.44645875977846
 20
77.43930390144639
 30
0.0
 40
0.5
100
AcDbArc
 50
180.0
 51
270.0
  0
ARC
  5
151E
330
1510
100
AcDbEntity
  8
太線
100
AcDbCircle
 10
101.4644995438761
 20
77.4393039014464
 30
0.0
 40
0.5
100
AcDbArc
 50
270.0
 51
0.0
  0
ARC
  5
151F
330
1510
100
AcDbEntity
  8
太線
100
AcDbCircle
 10
112.4464587597784
 20
77.4393039014464
 30
0.0
 40
0.5
100
AcDbArc
 50
180.0
 51
270.0
  0
LINE
  5
1520
330
1510
100
AcDbEntity
  8
想像線
100
AcDbLine
 10
93.94645875977847
 20
81.93930390144641
 30
0.0
 11
99.96449954387617
 21
81.93930390144641
 31
0.0
  0
LINE
  5
1521
330
1510
100
AcDbEntity
  8
極太線
100
AcDbLine
 10
96.38762957111168
 20
85.43930390144641
 30
0.0
 11
97.50528794844525
 21
85.43930390144641
 31
0.0
  0
CIRCLE
  5
1522
330
1510
100
AcDbEntity
  8
太線
100
AcDbCircle
 10
96.94645875977847
 20
85.43930390144641
 30
0.0
 40
0.5588291886667776
  0
LINE
  5
1523
330
1510
100
AcDbEntity
  8
太線
100
AcDbLine
 10
99.46449954387617
 20
86.93930390144641
 30
0.0
 11
94.44645875977846
 21
86.93930390144641
 31
0.0
  0
LINE
  5
1524
330
1510
100
AcDbEntity
  8
太線
100
AcDbLine
 10
93.94645875977847
 20
86.43930390144641
 30
0.0
 11
93.94645875977847
 21
81.93930390144641
 31
0.0
  0
ARC
  5
1525
330
1510
100
AcDbEntity
  8
太線
100
AcDbCircle
 10
92.44645875977846
 20
81.43930390144641
 30
0.0
 40
0.5
100
AcDbArc
 50
90.0
 51
180.0
  0
LINE
  5
1526
330
1510
100
AcDbEntity
  8
太線
100
AcDbLine
 10
93.94645875977847
 20
81.93930390144641
 30
0.0
 11
92.44645875977846
 21
81.93930390144641
 31
0.0
  0
ARC
  5
1527
330
1510
100
AcDbEntity
  8
太線
100
AcDbCircle
 10
94.44645875977846
 20
86.43930390144641
 30
0.0
 40
0.5
100
AcDbArc
 50
90.0
 51
180.0
  0
LINE
  5
1528
330
1510
100
AcDbEntity
  8
太線
100
AcDbLine
 10
99.96449954387617
 20
81.93930390144641
 30
0.0
 11
99.96449954387617
 21
86.43930390144641
 31
0.0
  0
LINE
  5
1529
330
1510
100
AcDbEntity
  8
太線
100
AcDbLine
 10
101.4644995438761
 20
81.93930390144641
 30
0.0
 11
99.96449954387617
 21
81.93930390144641
 31
0.0
  0
ARC
  5
152A
330
1510
100
AcDbEntity
  8
太線
100
AcDbCircle
 10
101.4644995438761
 20
81.43930390144641
 30
0.0
 40
0.5
100
AcDbArc
 50
0.0
 51
90.0
  0
ARC
  5
152B
330
1510
100
AcDbEntity
  8
太線
100
AcDbCircle
 10
99.46449954387617
 20
86.43930390144641
 30
0.0
 40
0.5
100
AcDbArc
 50
0.0
 51
90.0
  0
LINE
  5
152C
330
1510
100
AcDbEntity
  8
極太線
100
AcDbLine
 10
96.94645875977847
 20
85.99813309011318
 30
0.0
 11
96.94645875977847
 21
84.88047471277964
 31
0.0
  0
ARC
  5
152D
330
1510
100
AcDbEntity
  8
太線
100
AcDbCircle
 10
112.4464587597784
 20
81.43930390144641
 30
0.0
 40
0.5
100
AcDbArc
 50
90.0
 51
180.0
  0
TEXT
  5
152E
330
1510
100
AcDbEntity
  8
文字
100
AcDbText
 10
134.3819212586066
 20
78.16263579228063
 30
0.0
 40
2.0
  1
101
 51
15.0
  7
OKANO
100
AcDbText
  0
TEXT
  5
152F
330
1510
100
AcDbEntity
  8
文字
100
AcDbText
 10
113.3422276612066
 20
77.96976862235396
 30
0.0
 40
2.0
  1
38-83
 51
15.0
  7
OKANO
100
AcDbText
  0
LINE
  5
1530
330
1510
100
AcDbEntity
  8
太線
100
AcDbLine
 10
141.9825403279738
 20
77.4393039014464
 30
0.0
 11
141.9825403279738
 21
81.43930390144641
 31
0.0
  0
LINE
  5
1531
330
1510
100
AcDbEntity
  8
太線
100
AcDbLine
 10
131.9644995438761
 20
81.43930390144641
 30
0.0
 11
131.9644995438761
 21
77.4393039014464
 31
0.0
  0
LINE
  5
1532
330
1510
100
AcDbEntity
  8
太線
100
AcDbLine
 10
121.9644995438761
 20
77.4393039014464
 30
0.0
 11
121.9644995438761
 21
81.43930390144641
 31
0.0
  0
ARC
  5
1533
330
1510
100
AcDbEntity
  8
太線
100
AcDbCircle
 10
121.4644995438761
 20
77.4393039014464
 30
0.0
 40
0.5
100
AcDbArc
 50
270.0
 51
0.0
  0
LINE
  5
1534
330
1510
100
AcDbEntity
  8
太線
100
AcDbLine
 10
132.4644995438761
 20
76.9393039014464
 30
0.0
 11
141.4825403279738
 21
76.9393039014464
 31
0.0
  0
ARC
  5
1535
330
1510
100
AcDbEntity
  8
太線
100
AcDbCircle
 10
132.4644995438761
 20
77.4393039014464
 30
0.0
 40
0.5
100
AcDbArc
 50
180.0
 51
270.0
  0
ARC
  5
1536
330
1510
100
AcDbEntity
  8
太線
100
AcDbCircle
 10
141.4825403279738
 20
77.4393039014464
 30
0.0
 40
0.5
100
AcDbArc
 50
270.0
 51
0.0
  0
ARC
  5
1537
330
1510
100
AcDbEntity
  8
太線
100
AcDbCircle
 10
121.4644995438761
 20
81.43930390144641
 30
0.0
 40
0.5
100
AcDbArc
 50
0.0
 51
90.0
  0
LINE
  5
1538
330
1510
100
AcDbEntity
  8
太線
100
AcDbLine
 10
119.9644995438761
 20
81.93930390144641
 30
0.0
 11
119.9644995438761
 21
86.43930390144641
 31
0.0
  0
LINE
  5
1539
330
1510
100
AcDbEntity
  8
太線
100
AcDbLine
 10
113.9464587597784
 20
86.43930390144641
 30
0.0
 11
113.9464587597784
 21
81.93930390144641
 31
0.0
  0
LINE
  5
153A
330
1510
100
AcDbEntity
  8
想像線
100
AcDbLine
 10
113.9464587597784
 20
81.93930390144641
 30
0.0
 11
119.9644995438761
 21
81.93930390144641
 31
0.0
  0
LINE
  5
153B
330
1510
100
AcDbEntity
  8
太線
100
AcDbLine
 10
121.4644995438761
 20
81.93930390144641
 30
0.0
 11
119.9644995438761
 21
81.93930390144641
 31
0.0
  0
LINE
  5
153C
330
1510
100
AcDbEntity
  8
太線
100
AcDbLine
 10
119.4644995438761
 20
86.93930390144641
 30
0.0
 11
114.4464587597784
 21
86.93930390144641
 31
0.0
  0
ARC
  5
153D
330
1510
100
AcDbEntity
  8
太線
100
AcDbCircle
 10
114.4464587597784
 20
86.43930390144641
 30
0.0
 40
0.5
100
AcDbArc
 50
90.0
 51
180.0
  0
CIRCLE
  5
153E
330
1510
100
AcDbEntity
  8
太線
100
AcDbCircle
 10
115.4464587597784
 20
85.43930390144641
 30
0.0
 40
0.5588291886667776
  0
LINE
  5
153F
330
1510
100
AcDbEntity
  8
極太線
100
AcDbLine
 10
115.4464587597784
 20
85.99813309011318
 30
0.0
 11
115.4464587597784
 21
84.88047471277964
 31
0.0
  0
LINE
  5
1540
330
1510
100
AcDbEntity
  8
極太線
100
AcDbLine
 10
114.8876295711116
 20
85.43930390144641
 30
0.0
 11
116.0052879484452
 21
85.43930390144641
 31
0.0
  0
ARC
  5
1541
330
1510
100
AcDbEntity
  8
太線
100
AcDbCircle
 10
119.4644995438761
 20
86.43930390144641
 30
0.0
 40
0.5
100
AcDbArc
 50
0.0
 51
90.0
  0
LINE
  5
1542
330
1510
100
AcDbEntity
  8
極太線
100
AcDbLine
 10
117.9056703552094
 20
85.43930390144641
 30
0.0
 11
119.0233287325429
 21
85.43930390144641
 31
0.0
  0
LINE
  5
1543
330
1510
100
AcDbEntity
  8
極太線
100
AcDbLine
 10
118.4644995438761
 20
85.99813309011318
 30
0.0
 11
118.4644995438761
 21
84.88047471277964
 31
0.0
  0
CIRCLE
  5
1544
330
1510
100
AcDbEntity
  8
太線
100
AcDbCircle
 10
118.4644995438761
 20
85.43930390144641
 30
0.0
 40
0.5588291886667776
  0
LINE
  5
1545
330
1510
100
AcDbEntity
  8
想像線
100
AcDbLine
 10
133.9644995438761
 20
81.93930390144641
 30
0.0
 11
139.9825403279738
 21
81.93930390144641
 31
0.0
  0
LINE
  5
1546
330
1510
100
AcDbEntity
  8
極太線
100
AcDbLine
 10
137.9237111393071
 20
85.43930390144641
 30
0.0
 11
139.0413695166406
 21
85.43930390144641
 31
0.0
  0
CIRCLE
  5
1547
330
1510
100
AcDbEntity
  8
太線
100
AcDbCircle
 10
138.4825403279738
 20
85.43930390144641
 30
0.0
 40
0.5588291886667776
  0
CIRCLE
  5
1548
330
1510
100
AcDbEntity
  8
太線
100
AcDbCircle
 10
138.4825403279738
 20
83.26342923362075
 30
0.0
 40
0.5588291886667776
  0
LINE
  5
1549
330
1510
100
AcDbEntity
  8
極太線
100
AcDbLine
 10
137.9237111393071
 20
83.26342923362075
 30
0.0
 11
139.0413695166406
 21
83.26342923362075
 31
0.0
  0
LINE
  5
154A
330
1510
100
AcDbEntity
  8
太線
100
AcDbLine
 10
139.4825403279738
 20
86.93930390144641
 30
0.0
 11
134.4644995438761
 21
86.93930390144641
 31
0.0
  0
LINE
  5
154B
330
1510
100
AcDbEntity
  8
太線
100
AcDbLine
 10
133.9644995438761
 20
86.43930390144641
 30
0.0
 11
133.9644995438761
 21
81.93930390144641
 31
0.0
  0
ARC
  5
154C
330
1510
100
AcDbEntity
  8
太線
100
AcDbCircle
 10
132.4644995438761
 20
81.43930390144641
 30
0.0
 40
0.5
100
AcDbArc
 50
90.0
 51
180.0
  0
LINE
  5
154D
330
1510
100
AcDbEntity
  8
太線
100
AcDbLine
 10
133.9644995438761
 20
81.93930390144641
 30
0.0
 11
132.4644995438761
 21
81.93930390144641
 31
0.0
  0
LINE
  5
154E
330
1510
100
AcDbEntity
  8
極太線
100
AcDbLine
 10
134.9056703552093
 20
83.26342923362075
 30
0.0
 11
136.0233287325429
 21
83.26342923362075
 31
0.0
  0
LINE
  5
154F
330
1510
100
AcDbEntity
  8
極太線
100
AcDbLine
 10
135.4644995438761
 20
83.82225842228752
 30
0.0
 11
135.4644995438761
 21
82.70460004495395
 31
0.0
  0
CIRCLE
  5
1550
330
1510
100
AcDbEntity
  8
太線
100
AcDbCircle
 10
135.4644995438761
 20
83.26342923362075
 30
0.0
 40
0.5588291886667776
  0
ARC
  5
1551
330
1510
100
AcDbEntity
  8
太線
100
AcDbCircle
 10
134.4644995438761
 20
86.43930390144641
 30
0.0
 40
0.5
100
AcDbArc
 50
90.0
 51
180.0
  0
CIRCLE
  5
1552
330
1510
100
AcDbEntity
  8
太線
100
AcDbCircle
 10
135.4644995438761
 20
85.43930390144641
 30
0.0
 40
0.5588291886667776
  0
LINE
  5
1553
330
1510
100
AcDbEntity
  8
極太線
100
AcDbLine
 10
135.4644995438761
 20
85.99813309011318
 30
0.0
 11
135.4644995438761
 21
84.88047471277964
 31
0.0
  0
LINE
  5
1554
330
1510
100
AcDbEntity
  8
極太線
100
AcDbLine
 10
134.9056703552093
 20
85.43930390144641
 30
0.0
 11
136.0233287325429
 21
85.43930390144641
 31
0.0
  0
LINE
  5
1555
330
1510
100
AcDbEntity
  8
太線
100
AcDbLine
 10
139.9825403279738
 20
81.93930390144641
 30
0.0
 11
139.9825403279738
 21
86.43930390144641
 31
0.0
  0
ARC
  5
1556
330
1510
100
AcDbEntity
  8
太線
100
AcDbCircle
 10
141.4825403279738
 20
81.43930390144641
 30
0.0
 40
0.5
100
AcDbArc
 50
0.0
 51
90.0
  0
LINE
  5
1557
330
1510
100
AcDbEntity
  8
極太線
100
AcDbLine
 10
138.4825403279738
 20
83.82225842228752
 30
0.0
 11
138.4825403279738
 21
82.70460004495395
 31
0.0
  0
LINE
  5
1558
330
1510
100
AcDbEntity
  8
太線
100
AcDbLine
 10
141.4825403279738
 20
81.93930390144641
 30
0.0
 11
139.9825403279738
 21
81.93930390144641
 31
0.0
  0
ARC
  5
1559
330
1510
100
AcDbEntity
  8
太線
100
AcDbCircle
 10
139.4825403279738
 20
86.43930390144641
 30
0.0
 40
0.5
100
AcDbArc
 50
0.0
 51
90.0
  0
LINE
  5
155A
330
1510
100
AcDbEntity
  8
極太線
100
AcDbLine
 10
138.4825403279738
 20
85.99813309011318
 30
0.0
 11
138.4825403279738
 21
84.88047471277964
 31
0.0
  0
ENDBLK
  5
155C
330
1510
100
AcDbEntity
  8
0
100
AcDbBlockEnd
  0
BLOCK
  5
2C6A
330
2C60
100
AcDbEntity
  8
0
100
AcDbBlockBegin
  2
*D2
 70
     1
 10
0.0
 20
0.0
 30
0.0
  3
*D2
  1

  0
LINE
  5
2C61
330
2C60
100
AcDbEntity
  8
寸法線
 62
     0
370
    -2
100
AcDbLine
 10
220.6414745488584
 20
150.4711488256961
 30
0.0
 11
201.1056801283371
 21
150.4711488256961
 31
0.0
  0
LINE
  5
2C62
330
2C60
100
AcDbEntity
  8
寸法線
 62
     0
370
    -2
100
AcDbLine
 10
215.6414745488584
 20
115.4711488256961
 30
0.0
 11
201.1056801283371
 21
115.4711488256961
 31
0.0
  0
LINE
  5
2C63
330
2C60
100
AcDbEntity
  8
寸法線
 62
     0
370
    -2
100
AcDbLine
 10
204.105680128337
 20
147.4711488256961
 30
0.0
 11
204.105680128337
 21
118.4711488256961
 31
0.0
  0
INSERT
  5
2C64
330
2C60
100
AcDbEntity
  8
寸法線
 62
     0
370
    -2
100
AcDbBlockReference
  2
_Closed
 10
204.105680128337
 20
150.4711488256961
 30
0.0
 41
3.0
 42
3.0
 43
3.0
 50
90.0
  0
INSERT
  5
2C65
330
2C60
100
AcDbEntity
  8
寸法線
 62
     0
370
    -2
100
AcDbBlockReference
  2
_Closed
 10
204.105680128337
 20
115.4711488256961
 30
0.0
 41
3.0
 42
3.0
 43
3.0
 50
270.0
  0
MTEXT
  5
2C66
330
2C60
100
AcDbEntity
  8
寸法線
 62
     0
100
AcDbMText
 10
200.605680128337
 20
132.9711488256962
 30
0.0
 40
5.0
 41
0.0
 71
     5
 72
     1
  1
35
  7
OKANO
 11
0.0000000000000001
 21
1.0
 31
0.0
 73
     1
 44
1.0
  0
POINT
  5
2C67
330
2C60
100
AcDbEntity
  8
Defpoints
 62
     0
100
AcDbPoint
 10
222.6414745488584
 20
150.4711488256961
 30
0.0
  0
POINT
  5
2C68
330
2C60
100
AcDbEntity
  8
Defpoints
 62
     0
100
AcDbPoint
 10
217.6414745488584
 20
115.4711488256961
 30
0.0
  0
POINT
  5
2C69
330
2C60
100
AcDbEntity
  8
Defpoints
 62
     0
100
AcDbPoint
 10
204.105680128337
 20
115.4711488256961
 30
0.0
  0
ENDBLK
  5
2C6B
330
2C60
100
AcDbEntity
  8
0
100
AcDbBlockEnd
  0
BLOCK
  5
2C79
330
2C6D
100
AcDbEntity
  8
0
100
AcDbBlockBegin
  2
*D3
 70
     1
 10
0.0
 20
0.0
 30
0.0
  3
*D3
  1

  0
LINE
  5
2CB6
330
2C6D
100
AcDbEntity
  8
寸法線
 62
     0
370
    -2
100
AcDbLine
 10
277.6414745488584
 20
113.4711488256961
 30
0.0
 11
277.6414745488584
 21
99.38157372734748
 31
0.0
  0
LINE
  5
2CB7
330
2C6D
100
AcDbEntity
  8
寸法線
 62
     0
370
    -2
100
AcDbLine
 10
272.6414745488584
 20
113.4711488256961
 30
0.0
 11
272.6414745488584
 21
99.38157372734748
 31
0.0
  0
LINE
  5
2CB8
330
2C6D
100
AcDbEntity
  8
寸法線
 62
     0
370
    -2
100
AcDbLine
 10
280.6414745488584
 20
102.3815737273474
 30
0.0
 11
283.6414745488584
 21
102.3815737273474
 31
0.0
  0
LINE
  5
2CB9
330
2C6D
100
AcDbEntity
  8
寸法線
 62
     0
370
    -2
100
AcDbLine
 10
269.6414745488584
 20
102.3815737273474
 30
0.0
 11
266.6414745488584
 21
102.3815737273474
 31
0.0
  0
LINE
  5
2CBA
330
2C6D
100
AcDbEntity
  8
寸法線
 62
     0
370
    -2
100
AcDbLine
 10
277.6414745488584
 20
102.3815737273474
 30
0.0
 11
272.6414745488584
 21
102.3815737273474
 31
0.0
  0
INSERT
  5
2CBB
330
2C6D
100
AcDbEntity
  8
寸法線
 62
     0
370
    -2
100
AcDbBlockReference
  2
_Closed
 10
277.6414745488584
 20
102.3815737273474
 30
0.0
 41
3.0
 42
3.0
 43
3.0
 50
180.0
  0
INSERT
  5
2CBC
330
2C6D
100
AcDbEntity
  8
寸法線
 62
     0
370
    -2
100
AcDbBlockReference
  2
_Closed
 10
272.6414745488584
 20
102.3815737273474
 30
0.0
 41
3.0
 42
3.0
 43
3.0
  0
MTEXT
  5
2CBD
330
2C6D
100
AcDbEntity
  8
寸法線
 62
     0
100
AcDbMText
 10
275.1414745488584
 20
105.8815737273474
 30
0.0
 40
5.0
 41
0.0
 71
     5
 72
     1
  1
4
  7
OKANO
 73
     1
 44
1.0
  0
POINT
  5
2CBE
330
2C6D
100
AcDbEntity
  8
Defpoints
 62
     0
100
AcDbPoint
 10
277.6414745488584
 20
115.4711488256961
 30
0.0
  0
POINT
  5
2CBF
330
2C6D
100
AcDbEntity
  8
Defpoints
 62
     0
100
AcDbPoint
 10
272.6414745488584
 20
115.4711488256961
 30
0.0
  0
POINT
  5
2CC0
330
2C6D
100
AcDbEntity
  8
Defpoints
 62
     0
100
AcDbPoint
 10
272.6414745488584
 20
102.3815737273474
 30
0.0
  0
ENDBLK
  5
2C7A
330
2C6D
100
AcDbEntity
  8
0
100
AcDbBlockEnd
  0
BLOCK
  5
2C86
330
2C7C
100
AcDbEntity
  8
0
100
AcDbBlockBegin
  2
*D4
 70
     1
 10
0.0
 20
0.0
 30
0.0
  3
*D4
  1

  0
LINE
  5
2CAD
330
2C7C
100
AcDbEntity
  8
寸法線
 62
     0
370
    -2
100
AcDbLine
 10
272.6414745488584
 20
113.4711488256961
 30
0.0
 11
272.6414745488584
 21
99.38157372734748
 31
0.0
  0
LINE
  5
2CAE
330
2C7C
100
AcDbEntity
  8
寸法線
 62
     0
370
    -2
100
AcDbLine
 10
222.6414745488584
 20
113.4711488256961
 30
0.0
 11
222.6414745488584
 21
99.38157372734748
 31
0.0
  0
LINE
  5
2CAF
330
2C7C
100
AcDbEntity
  8
寸法線
 62
     0
370
    -2
100
AcDbLine
 10
269.6414745488584
 20
102.3815737273474
 30
0.0
 11
225.6414745488584
 21
102.3815737273474
 31
0.0
  0
INSERT
  5
2CB0
330
2C7C
100
AcDbEntity
  8
寸法線
 62
     0
370
    -2
100
AcDbBlockReference
  2
_Closed
 10
272.6414745488584
 20
102.3815737273474
 30
0.0
 41
3.0
 42
3.0
 43
3.0
  0
INSERT
  5
2CB1
330
2C7C
100
AcDbEntity
  8
寸法線
 62
     0
370
    -2
100
AcDbBlockReference
  2
_Closed
 10
222.6414745488584
 20
102.3815737273474
 30
0.0
 41
3.0
 42
3.0
 43
3.0
 50
180.0
  0
MTEXT
  5
2CB2
330
2C7C
100
AcDbEntity
  8
寸法線
 62
     0
100
AcDbMText
 10
247.6414745488584
 20
105.8815737273474
 30
0.0
 40
5.0
 41
0.0
 71
     5
 72
     1
  1
49.3
  7
OKANO
 73
     1
 44
1.0
  0
POINT
  5
2CB3
330
2C7C
100
AcDbEntity
  8
Defpoints
 62
     0
100
AcDbPoint
 10
272.6414745488584
 20
115.4711488256961
 30
0.0
  0
POINT
  5
2CB4
330
2C7C
100
AcDbEntity
  8
Defpoints
 62
     0
100
AcDbPoint
 10
222.6414745488584
 20
115.4711488256961
 30
0.0
  0
POINT
  5
2CB5
330
2C7C
100
AcDbEntity
  8
Defpoints
 62
     0
100
AcDbPoint
 10
222.6414745488584
 20
102.3815737273474
 30
0.0
  0
ENDBLK
  5
2C87
330
2C7C
100
AcDbEntity
  8
0
100
AcDbBlockEnd
  0
BLOCK
  5
2C95
330
2C89
100
AcDbEntity
  8
0
100
AcDbBlockBegin
  2
*D5
 70
     1
 10
0.0
 20
0.0
 30
0.0
  3
*D5
  1

  0
LINE
  5
2CC1
330
2C89
100
AcDbEntity
  8
寸法線
 62
     0
370
    -2
100
AcDbLine
 10
222.6414745488584
 20
113.4711488256961
 30
0.0
 11
222.6414745488584
 21
99.38157372734748
 31
0.0
  0
LINE
  5
2CC2
330
2C89
100
AcDbEntity
  8
寸法線
 62
     0
370
    -2
100
AcDbLine
 10
217.6414745488584
 20
113.4711488256961
 30
0.0
 11
217.6414745488584
 21
99.38157372734748
 31
0.0
  0
LINE
  5
2CC3
330
2C89
100
AcDbEntity
  8
寸法線
 62
     0
370
    -2
100
AcDbLine
 10
225.6414745488584
 20
102.3815737273474
 30
0.0
 11
228.6414745488584
 21
102.3815737273474
 31
0.0
  0
LINE
  5
2CC4
330
2C89
100
AcDbEntity
  8
寸法線
 62
     0
370
    -2
100
AcDbLine
 10
214.6414745488584
 20
102.3815737273474
 30
0.0
 11
211.6414745488584
 21
102.3815737273474
 31
0.0
  0
LINE
  5
2CC5
330
2C89
100
AcDbEntity
  8
寸法線
 62
     0
370
    -2
100
AcDbLine
 10
222.6414745488584
 20
102.3815737273474
 30
0.0
 11
217.6414745488584
 21
102.3815737273474
 31
0.0
  0
INSERT
  5
2CC6
330
2C89
100
AcDbEntity
  8
寸法線
 62
     0
370
    -2
100
AcDbBlockReference
  2
_Closed
 10
222.6414745488584
 20
102.3815737273474
 30
0.0
 41
3.0
 42
3.0
 43
3.0
 50
180.0
  0
INSERT
  5
2CC7
330
2C89
100
AcDbEntity
  8
寸法線
 62
     0
370
    -2
100
AcDbBlockReference
  2
_Closed
 10
217.6414745488584
 20
102.3815737273474
 30
0.0
 41
3.0
 42
3.0
 43
3.0
  0
MTEXT
  5
2CC8
330
2C89
100
AcDbEntity
  8
寸法線
 62
     0
100
AcDbMText
 10
220.1414745488584
 20
105.8815737273474
 30
0.0
 40
5.0
 41
0.0
 71
     5
 72
     1
  1
4
  7
OKANO
 73
     1
 44
1.0
  0
POINT
  5
2CC9
330
2C89
100
AcDbEntity
  8
Defpoints
 62
     0
100
AcDbPoint
 10
222.6414745488584
 20
115.4711488256961
 30
0.0
  0
POINT
  5
2CCA
330
2C89
100
AcDbEntity
  8
Defpoints
 62
     0
100
AcDbPoint
 10
217.6414745488584
 20
115.4711488256961
 30
0.0
  0
POINT
  5
2CCB
330
2C89
100
AcDbEntity
  8
Defpoints
 62
     0
100
AcDbPoint
 10
217.6414745488584
 20
102.3815737273474
 30
0.0
  0
ENDBLK
  5
2C96
330
2C89
100
AcDbEntity
  8
0
100
AcDbBlockEnd
  0
BLOCK
  5
2CA2
330
2C98
100
AcDbEntity
  8
0
100
AcDbBlockBegin
  2
*D6
 70
     1
 10
0.0
 20
0.0
 30
0.0
  3
*D6
  1

  0
LINE
  5
2ED7
330
2C98
100
AcDbEntity
  8
寸法線
 62
     0
370
    -2
100
AcDbLine
 10
222.6414745488584
 20
148.4711488256961
 30
0.0
 11
222.6414745488584
 21
140.6865984371464
 31
0.0
  0
LINE
  5
2ED8
330
2C98
100
AcDbEntity
  8
寸法線
 62
     0
370
    -2
100
AcDbLine
 10
272.6414745488584
 20
148.4711488256961
 30
0.0
 11
272.6414745488584
 21
140.6865984371464
 31
0.0
  0
LINE
  5
2ED9
330
2C98
100
AcDbEntity
  8
寸法線
 62
     0
370
    -2
100
AcDbLine
 10
225.6414745488584
 20
143.6865984371464
 30
0.0
 11
269.6414745488584
 21
143.6865984371464
 31
0.0
  0
INSERT
  5
2EDA
330
2C98
100
AcDbEntity
  8
寸法線
 62
     0
370
    -2
100
AcDbBlockReference
  2
_Closed
 10
222.6414745488584
 20
143.6865984371464
 30
0.0
 41
3.0
 42
3.0
 43
3.0
 50
180.0
  0
INSERT
  5
2EDB
330
2C98
100
AcDbEntity
  8
寸法線
 62
     0
370
    -2
100
AcDbBlockReference
  2
_Closed
 10
272.6414745488584
 20
143.6865984371464
 30
0.0
 41
3.0
 42
3.0
 43
3.0
  0
MTEXT
  5
2EDC
330
2C98
100
AcDbEntity
  8
寸法線
 62
     0
100
AcDbMText
 10
247.6414745488584
 20
147.1865984371464
 30
0.0
 40
5.0
 41
0.0
 71
     5
 72
     1
  1
49.3
  7
OKANO
 73
     1
 44
1.0
  0
POINT
  5
2EDD
330
2C98
100
AcDbEntity
  8
Defpoints
 62
     0
100
AcDbPoint
 10
222.6414745488584
 20
150.4711488256961
 30
0.0
  0
POINT
  5
2EDE
330
2C98
100
AcDbEntity
  8
Defpoints
 62
     0
100
AcDbPoint
 10
272.6414745488584
 20
150.4711488256961
 30
0.0
  0
POINT
  5
2EDF
330
2C98
100
AcDbEntity
  8
Defpoints
 62
     0
100
AcDbPoint
 10
272.6414745488584
 20
143.6865984371464
 30
0.0
  0
ENDBLK
  5
2CA3
330
2C98
100
AcDbEntity
  8
0
100
AcDbBlockEnd
  0
BLOCK
  5
2CD7
330
2CCD
100
AcDbEntity
  8
0
100
AcDbBlockBegin
  2
*D7
 70
     1
 10
0.0
 20
0.0
 30
0.0
  3
*D7
  1

  0
LINE
  5
2CD9
330
2CCD
100
AcDbEntity
  8
寸法線
 62
     0
370
    -2
100
AcDbLine
 10
42.20151402540432
 20
113.4711488256961
 30
0.0
 11
42.20151402540432
 21
93.57732068111772
 31
0.0
  0
LINE
  5
2CDA
330
2CCD
100
AcDbEntity
  8
寸法線
 62
     0
370
    -2
100
AcDbLine
 10
102.2015140254043
 20
113.4711488256961
 30
0.0
 11
102.2015140254043
 21
93.57732068111772
 31
0.0
  0
LINE
  5
2CDB
330
2CCD
100
AcDbEntity
  8
寸法線
 62
     0
370
    -2
100
AcDbLine
 10
45.20151402540432
 20
96.57732068111773
 30
0.0
 11
99.20151402540433
 21
96.57732068111773
 31
0.0
  0
INSERT
  5
2CDC
330
2CCD
100
AcDbEntity
  8
寸法線
 62
     0
370
    -2
100
AcDbBlockReference
  2
_Closed
 10
42.20151402540432
 20
96.57732068111773
 30
0.0
 41
3.0
 42
3.0
 43
3.0
 50
180.0
  0
INSERT
  5
2CDD
330
2CCD
100
AcDbEntity
  8
寸法線
 62
     0
370
    -2
100
AcDbBlockReference
  2
_Closed
 10
102.2015140254043
 20
96.57732068111773
 30
0.0
 41
3.0
 42
3.0
 43
3.0
  0
MTEXT
  5
2CDE
330
2CCD
100
AcDbEntity
  8
寸法線
 62
     0
100
AcDbMText
 10
72.20151402540432
 20
100.0773206811177
 30
0.0
 40
5.0
 41
0.0
 71
     5
 72
     1
  1
57.3
  7
OKANO
 73
     1
 44
1.0
  0
POINT
  5
2CDF
330
2CCD
100
AcDbEntity
  8
Defpoints
 62
     0
100
AcDbPoint
 10
42.20151402540432
 20
115.4711488256961
 30
0.0
  0
POINT
  5
2CE0
330
2CCD
100
AcDbEntity
  8
Defpoints
 62
     0
100
AcDbPoint
 10
102.2015140254043
 20
115.4711488256961
 30
0.0
  0
POINT
  5
2CE1
330
2CCD
100
AcDbEntity
  8
Defpoints
 62
     0
100
AcDbPoint
 10
102.2015140254043
 20
96.57732068111773
 30
0.0
  0
ENDBLK
  5
2CD8
330
2CCD
100
AcDbEntity
  8
0
100
AcDbBlockEnd
  0
BLOCK
  5
2CEF
330
2CE3
100
AcDbEntity
  8
0
100
AcDbBlockBegin
  2
*D8
 70
     1
 10
0.0
 20
0.0
 30
0.0
  3
*D8
  1

  0
LINE
  5
2CF1
330
2CE3
100
AcDbEntity
  8
寸法線
 62
     0
370
    -2
100
AcDbLine
 10
278.6414745488584
 20
155.4711488256961
 30
0.0
 11
294.0524041415976
 21
155.4711488256961
 31
0.0
  0
LINE
  5
2CF2
330
2CE3
100
AcDbEntity
  8
寸法線
 62
     0
370
    -2
100
AcDbLine
 10
274.6414745488584
 20
150.4711488256961
 30
0.0
 11
294.0524041415976
 21
150.4711488256961
 31
0.0
  0
LINE
  5
2CF3
330
2CE3
100
AcDbEntity
  8
寸法線
 62
     0
370
    -2
100
AcDbLine
 10
291.0524041415976
 20
158.4711488256961
 30
0.0
 11
291.0524041415976
 21
161.4711488256961
 31
0.0
  0
LINE
  5
2CF4
330
2CE3
100
AcDbEntity
  8
寸法線
 62
     0
370
    -2
100
AcDbLine
 10
291.0524041415976
 20
147.4711488256961
 30
0.0
 11
291.0524041415976
 21
144.4711488256961
 31
0.0
  0
LINE
  5
2CF5
330
2CE3
100
AcDbEntity
  8
寸法線
 62
     0
370
    -2
100
AcDbLine
 10
291.0524041415976
 20
155.4711488256961
 30
0.0
 11
291.0524041415976
 21
150.4711488256961
 31
0.0
  0
INSERT
  5
2CF6
330
2CE3
100
AcDbEntity
  8
寸法線
 62
     0
370
    -2
100
AcDbBlockReference
  2
_Closed
 10
291.0524041415976
 20
155.4711488256961
 30
0.0
 41
3.0
 42
3.0
 43
3.0
 50
270.0
  0
INSERT
  5
2CF7
330
2CE3
100
AcDbEntity
  8
寸法線
 62
     0
370
    -2
100
AcDbBlockReference
  2
_Closed
 10
291.0524041415976
 20
150.4711488256961
 30
0.0
 41
3.0
 42
3.0
 43
3.0
 50
90.0
  0
MTEXT
  5
2CF8
330
2CE3
100
AcDbEntity
  8
寸法線
 62
     0
100
AcDbMText
 10
287.5524041415975
 20
152.9711488256961
 30
0.0
 40
5.0
 41
0.0
 71
     5
 72
     1
  1
4
  7
OKANO
 11
0.0000000000000001
 21
1.0
 31
0.0
 73
     1
 44
1.0
  0
POINT
  5
2CF9
330
2CE3
100
AcDbEntity
  8
Defpoints
 62
     0
100
AcDbPoint
 10
276.6414745488584
 20
155.4711488256961
 30
0.0
  0
POINT
  5
2CFA
330
2CE3
100
AcDbEntity
  8
Defpoints
 62
     0
100
AcDbPoint
 10
272.6414745488584
 20
150.4711488256961
 30
0.0
  0
POINT
  5
2CFB
330
2CE3
100
AcDbEntity
  8
Defpoints
 62
     0
100
AcDbPoint
 10
291.0524041415976
 20
150.4711488256961
 30
0.0
  0
ENDBLK
  5
2CF0
330
2CE3
100
AcDbEntity
  8
0
100
AcDbBlockEnd
  0
BLOCK
  5
2E94
330
2E8A
100
AcDbEntity
  8
0
100
AcDbBlockBegin
  2
*D9
 70
     1
 10
0.0
 20
0.0
 30
0.0
  3
*D9
  1

  0
LINE
  5
2EC8
330
2E8A
100
AcDbEntity
  8
寸法線
 62
     0
370
    -2
100
AcDbLine
 10
104.2015140254043
 20
155.4711488256961
 30
0.0
 11
122.5453225425834
 21
155.4711488256961
 31
0.0
  0
LINE
  5
2EC9
330
2E8A
100
AcDbEntity
  8
寸法線
 62
     0
370
    -2
100
AcDbLine
 10
84.20151402540431
 20
203.7711488256961
 30
0.0
 11
122.5453225425834
 21
203.7711488256961
 31
0.0
  0
LINE
  5
2ECA
330
2E8A
100
AcDbEntity
  8
寸法線
 62
     0
370
    -2
100
AcDbLine
 10
119.5453225425834
 20
158.4711488256961
 30
0.0
 11
119.5453225425834
 21
200.7711488256961
 31
0.0
  0
INSERT
  5
2ECB
330
2E8A
100
AcDbEntity
  8
寸法線
 62
     0
370
    -2
100
AcDbBlockReference
  2
_Closed
 10
119.5453225425834
 20
155.4711488256961
 30
0.0
 41
3.0
 42
3.0
 43
3.0
 50
270.0
  0
INSERT
  5
2ECC
330
2E8A
100
AcDbEntity
  8
寸法線
 62
     0
370
    -2
100
AcDbBlockReference
  2
_Closed
 10
119.5453225425834
 20
203.7711488256961
 30
0.0
 41
3.0
 42
3.0
 43
3.0
 50
90.0
  0
MTEXT
  5
2ECD
330
2E8A
100
AcDbEntity
  8
寸法線
 62
     0
100
AcDbMText
 10
116.0453225425834
 20
179.6211488256961
 30
0.0
 40
5.0
 41
0.0
 71
     5
 72
     1
  1
49.3
  7
OKANO
 11
0.0000000000000001
 21
1.0
 31
0.0
 73
     1
 44
1.0
  0
POINT
  5
2ECE
330
2E8A
100
AcDbEntity
  8
Defpoints
 62
     0
100
AcDbPoint
 10
102.2015140254043
 20
155.4711488256961
 30
0.0
  0
POINT
  5
2ECF
330
2E8A
100
AcDbEntity
  8
Defpoints
 62
     0
100
AcDbPoint
 10
82.20151402540432
 20
203.7711488256961
 30
0.0
  0
POINT
  5
2ED0
330
2E8A
100
AcDbEntity
  8
Defpoints
 62
     0
100
AcDbPoint
 10
119.5453225425834
 20
203.7711488256961
 30
0.0
  0
ENDBLK
  5
2E95
330
2E8A
100
AcDbEntity
  8
0
100
AcDbBlockEnd
  0
BLOCK
  5
2EB6
330
2EA7
100
AcDbEntity
  8
0
100
AcDbBlockBegin
  2
*D10
 70
     1
 10
0.0
 20
0.0
 30
0.0
  3
*D10
  1

  0
LINE
  5
2EA8
330
2EA7
100
AcDbEntity
  8
寸法線
 62
     0
370
    -2
100
AcDbLine
 10
117.5453225425834
 20
203.7711488256961
 30
0.0
 11
116.5453225425834
 21
203.7711488256961
 31
0.0
  0
LINE
  5
2EA9
330
2EA7
100
AcDbEntity
  8
寸法線
 62
     0
370
    -2
100
AcDbLine
 10
84.20151402540431
 20
207.7711488256961
 30
0.0
 11
122.5453225425834
 21
207.7711488256961
 31
0.0
  0
LINE
  5
2EAA
330
2EA7
100
AcDbEntity
  8
寸法線
 62
     0
370
    -2
100
AcDbLine
 10
119.5453225425834
 20
200.7711488256961
 30
0.0
 11
119.5453225425834
 21
197.7711488256961
 31
0.0
  0
LINE
  5
2EAB
330
2EA7
100
AcDbEntity
  8
寸法線
 62
     0
370
    -2
100
AcDbLine
 10
119.5453225425834
 20
210.7711488256961
 30
0.0
 11
119.5453225425834
 21
213.7711488256961
 31
0.0
  0
LINE
  5
2EAC
330
2EA7
100
AcDbEntity
  8
寸法線
 62
     0
370
    -2
100
AcDbLine
 10
119.5453225425834
 20
205.7711488256961
 30
0.0
 11
131.5453225425834
 21
209.3711488256961
 31
0.0
  0
LINE
  5
2EAD
330
2EA7
100
AcDbEntity
  8
寸法線
 62
     0
370
    -2
100
AcDbLine
 10
131.5453225425834
 20
209.3711488256961
 30
0.0
 11
131.5453225425834
 21
213.8711488256961
 31
0.0
  0
MTEXT
  5
2EAE
330
2EA7
100
AcDbEntity
  8
寸法線
 62
     0
100
AcDbMText
 10
128.0453225425833
 20
211.6211488256961
 30
0.0
 40
5.0
 41
0.0
 71
     5
 72
     1
  1
4
  7
OKANO
 11
0.0000000000000001
 21
1.0
 31
0.0
 73
     1
 44
1.0
  0
LINE
  5
2EAF
330
2EA7
100
AcDbEntity
  8
寸法線
 62
     0
370
    -2
100
AcDbLine
 10
119.5453225425834
 20
203.7711488256961
 30
0.0
 11
119.5453225425834
 21
207.7711488256961
 31
0.0
  0
LINE
  5
2EB0
330
2EA7
100
AcDbEntity
  8
寸法線
 62
     0
370
    -2
100
AcDbLine
 10
119.5453225425834
 20
203.7711488256961
 30
0.0
 11
119.5453225425834
 21
207.7711488256961
 31
0.0
  0
INSERT
  5
2EB1
330
2EA7
100
AcDbEntity
  8
寸法線
 62
     0
370
    -2
100
AcDbBlockReference
  2
_Closed
 10
119.5453225425834
 20
203.7711488256961
 30
0.0
 41
3.0
 42
3.0
 43
3.0
 50
90.0
  0
INSERT
  5
2EB2
330
2EA7
100
AcDbEntity
  8
寸法線
 62
     0
370
    -2
100
AcDbBlockReference
  2
_Closed
 10
119.5453225425834
 20
207.7711488256961
 30
0.0
 41
3.0
 42
3.0
 43
3.0
 50
270.0
  0
POINT
  5
2EB3
330
2EA7
100
AcDbEntity
  8
Defpoints
 62
     0
100
AcDbPoint
 10
119.5453225425834
 20
203.7711488256961
 30
0.0
  0
POINT
  5
2EB4
330
2EA7
100
AcDbEntity
  8
Defpoints
 62
     0
100
AcDbPoint
 10
82.20151402540432
 20
207.7711488256961
 30
0.0
  0
POINT
  5
2EB5
330
2EA7
100
AcDbEntity
  8
Defpoints
 62
     0
100
AcDbPoint
 10
119.5453225425834
 20
207.7711488256961
 30
0.0
  0
ENDBLK
  5
2EB7
330
2EA7
100
AcDbEntity
  8
0
100
AcDbBlockEnd
  0
BLOCK
  5
2EF3
330
2EE9
100
AcDbEntity
  8
0
100
AcDbBlockBegin
  2
*D11
 70
     1
 10
0.0
 20
0.0
 30
0.0
  3
*D11
  1

  0
LINE
  5
2EEA
330
2EE9
100
AcDbEntity
  8
寸法線
 62
     0
370
    -2
100
AcDbLine
 10
62.20151402540432
 20
209.7711488256961
 30
0.0
 11
62.20151402540432
 21
222.1348924323252
 31
0.0
  0
LINE
  5
2EEB
330
2EE9
100
AcDbEntity
  8
寸法線
 62
     0
370
    -2
100
AcDbLine
 10
82.20151402540432
 20
209.7711488256961
 30
0.0
 11
82.20151402540432
 21
222.1348924323252
 31
0.0
  0
LINE
  5
2EEC
330
2EE9
100
AcDbEntity
  8
寸法線
 62
     0
370
    -2
100
AcDbLine
 10
65.20151402540432
 20
219.1348924323252
 30
0.0
 11
79.20151402540432
 21
219.1348924323252
 31
0.0
  0
INSERT
  5
2EED
330
2EE9
100
AcDbEntity
  8
寸法線
 62
     0
370
    -2
100
AcDbBlockReference
  2
_Closed
 10
62.20151402540432
 20
219.1348924323252
 30
0.0
 41
3.0
 42
3.0
 43
3.0
 50
180.0
  0
INSERT
  5
2EEE
330
2EE9
100
AcDbEntity
  8
寸法線
 62
     0
370
    -2
100
AcDbBlockReference
  2
_Closed
 10
82.20151402540432
 20
219.1348924323252
 30
0.0
 41
3.0
 42
3.0
 43
3.0
  0
MTEXT
  5
2EEF
330
2EE9
100
AcDbEntity
  8
寸法線
 62
     0
100
AcDbMText
 10
72.20151402540432
 20
222.6353845583095
 30
0.0
 40
5.0
 41
0.0
 71
     5
 72
     1
  1
20
  7
OKANO
 73
     1
 44
1.0
  0
POINT
  5
2EF0
330
2EE9
100
AcDbEntity
  8
Defpoints
 62
     0
100
AcDbPoint
 10
62.20151402540432
 20
207.7711488256961
 30
0.0
  0
POINT
  5
2EF1
330
2EE9
100
AcDbEntity
  8
Defpoints
 62
     0
100
AcDbPoint
 10
82.20151402540432
 20
207.7711488256961
 30
0.0
  0
POINT
  5
2EF2
330
2EE9
100
AcDbEntity
  8
Defpoints
 62
     0
100
AcDbPoint
 10
82.20151402540432
 20
219.1348924323252
 30
0.0
  0
ENDBLK
  5
2EF4
330
2EE9
100
AcDbEntity
  8
0
100
AcDbBlockEnd
  0
BLOCK
  5
2F00
330
2EF6
100
AcDbEntity
  8
0
100
AcDbBlockBegin
  2
*D12
 70
     1
 10
0.0
 20
0.0
 30
0.0
  3
*D12
  1

  0
LINE
  5
2F18
330
2EF6
100
AcDbEntity
  8
寸法線
 62
     0
370
    -2
100
AcDbLine
 10
56.50207595246031
 20
153.4711488256961
 30
0.0
 11
56.50207595246031
 21
135.5098245850268
 31
0.0
  0
LINE
  5
2F19
330
2EF6
100
AcDbEntity
  8
寸法線
 62
     0
370
    -2
100
AcDbLine
 10
86.96016505277261
 20
154.1321506916644
 30
0.0
 11
86.96016505277261
 21
135.5098245850268
 31
0.0
  0
LINE
  5
2F1A
330
2EF6
100
AcDbEntity
  8
寸法線
 62
     0
370
    -2
100
AcDbLine
 10
59.50207595246031
 20
138.5098245850268
 30
0.0
 11
83.96016505277261
 21
138.5098245850268
 31
0.0
  0
INSERT
  5
2F1B
330
2EF6
100
AcDbEntity
  8
寸法線
 62
     0
370
    -2
100
AcDbBlockReference
  2
_Closed
 10
56.50207595246031
 20
138.5098245850268
 30
0.0
 41
3.0
 42
3.0
 43
3.0
 50
180.0
  0
INSERT
  5
2F1C
330
2EF6
100
AcDbEntity
  8
寸法線
 62
     0
370
    -2
100
AcDbBlockReference
  2
_Closed
 10
86.96016505277261
 20
138.5098245850268
 30
0.0
 41
3.0
 42
3.0
 43
3.0
  0
MTEXT
  5
2F1D
330
2EF6
100
AcDbEntity
  8
寸法線
 62
     0
100
AcDbMText
 10
71.73112050261646
 20
142.0098245850268
 30
0.0
 40
5.0
 41
0.0
 71
     5
 72
     1
  1
30
  7
OKANO
 73
     1
 44
1.0
  0
POINT
  5
2F1E
330
2EF6
100
AcDbEntity
  8
Defpoints
 62
     0
100
AcDbPoint
 10
56.50207595246031
 20
155.4711488256961
 30
0.0
  0
POINT
  5
2F1F
330
2EF6
100
AcDbEntity
  8
Defpoints
 62
     0
100
AcDbPoint
 10
86.96016505277261
 20
156.1321506916644
 30
0.0
  0
POINT
  5
2F20
330
2EF6
100
AcDbEntity
  8
Defpoints
 62
     0
100
AcDbPoint
 10
86.96016505277261
 20
138.5098245850268
 30
0.0
  0
ENDBLK
  5
2F01
330
2EF6
100
AcDbEntity
  8
0
100
AcDbBlockEnd
  0
BLOCK
  5
2F0D
330
2F03
100
AcDbEntity
  8
0
100
AcDbBlockBegin
  2
*D13
 70
     1
 10
0.0
 20
0.0
 30
0.0
  3
*D13
  1

  0
LINE
  5
2F0F
330
2F03
100
AcDbEntity
  8
寸法線
 62
     0
370
    -2
100
AcDbLine
 10
60.20151402540432
 20
179.1211488256961
 30
0.0
 11
13.63916576264137
 21
179.1211488256961
 31
0.0
  0
LINE
  5
2F10
330
2F03
100
AcDbEntity
  8
寸法線
 62
     0
370
    -2
100
AcDbLine
 10
60.20151402540432
 20
155.978589125156
 30
0.0
 11
13.63916576264136
 21
155.978589125156
 31
0.0
  0
LINE
  5
2F11
330
2F03
100
AcDbEntity
  8
寸法線
 62
     0
370
    -2
100
AcDbLine
 10
16.63916576264137
 20
176.1211488256961
 30
0.0
 11
16.63916576264137
 21
158.978589125156
 31
0.0
  0
INSERT
  5
2F12
330
2F03
100
AcDbEntity
  8
寸法線
 62
     0
370
    -2
100
AcDbBlockReference
  2
_Closed
 10
16.63916576264137
 20
179.1211488256961
 30
0.0
 41
3.0
 42
3.0
 43
3.0
 50
90.0
  0
INSERT
  5
2F13
330
2F03
100
AcDbEntity
  8
寸法線
 62
     0
370
    -2
100
AcDbBlockReference
  2
_Closed
 10
16.63916576264137
 20
155.978589125156
 30
0.0
 41
3.0
 42
3.0
 43
3.0
 50
270.0
  0
MTEXT
  5
2F14
330
2F03
100
AcDbEntity
  8
寸法線
 62
     0
100
AcDbMText
 10
13.13867363665709
 20
167.549868975426
 30
0.0
 40
5.0
 41
0.0
 71
     5
 72
     1
  1
23
  7
OKANO
 11
0.0000000000000001
 21
1.0
 31
0.0
 73
     1
 44
1.0
  0
POINT
  5
2F15
330
2F03
100
AcDbEntity
  8
Defpoints
 62
     0
100
AcDbPoint
 10
62.20151402540432
 20
179.1211488256961
 30
0.0
  0
POINT
  5
2F16
330
2F03
100
AcDbEntity
  8
Defpoints
 62
     0
100
AcDbPoint
 10
62.20151402540432
 20
155.978589125156
 30
0.0
  0
POINT
  5
2F17
330
2F03
100
AcDbEntity
  8
Defpoints
 62
     0
100
AcDbPoint
 10
16.63916576264137
 20
155.978589125156
 30
0.0
  0
ENDBLK
  5
2F0E
330
2F03
100
AcDbEntity
  8
0
100
AcDbBlockEnd
  0
ENDSEC
  0
SECTION
  2
ENTITIES
  0
XLINE
  5
22CA
330
1F
100
AcDbEntity
  8
構築線
370
     5
100
AcDbXline
 10
72.20151402540432
 20
178.0193172078315
 30
0.0
 11
0.0
 21
-1.0
 31
0.0
  0
XLINE
  5
2508
330
1F
100
AcDbEntity
  8
構築線
370
     5
100
AcDbXline
 10
40.70151402540432
 20
100.4711488256961
 30
0.0
 11
1.0
 21
0.0
 31
0.0
  0
XLINE
  5
28D9
330
1F
100
AcDbEntity
  8
構築線
370
     5
100
AcDbXline
 10
42.20151402540432
 20
178.0193172078315
 30
0.0
 11
0.0
 21
-1.0
 31
0.0
  0
XLINE
  5
28DA
330
1F
100
AcDbEntity
  8
構築線
370
     5
100
AcDbXline
 10
102.2015140254043
 20
178.0193172078315
 30
0.0
 11
0.0
 21
-1.0
 31
0.0
  0
XLINE
  5
28DB
330
1F
100
AcDbEntity
  8
構築線
370
     5
100
AcDbXline
 10
40.70151402540432
 20
150.4711488256961
 30
0.0
 11
1.0
 21
0.0
 31
0.0
  0
XLINE
  5
28DF
330
1F
100
AcDbEntity
  8
構築線
370
     5
100
AcDbXline
 10
152.2015140254043
 20
178.0193172078315
 30
0.0
 11
0.0
 21
-1.0
 31
0.0
  0
LINE
  5
28E0
330
1F
100
AcDbEntity
  8
太線
100
AcDbLine
 10
42.20151402540431
 20
155.4711488256961
 30
0.0
 11
42.20151402540432
 21
115.4711488256961
 31
0.0
  0
XLINE
  5
28E6
330
1F
100
AcDbEntity
  8
構築線
370
     5
100
AcDbXline
 10
97.20151402540432
 20
178.0193172078315
 30
0.0
 11
0.0
 21
-1.0
 31
0.0
  0
XLINE
  5
28E7
330
1F
100
AcDbEntity
  8
構築線
370
     5
100
AcDbXline
 10
47.20151402540432
 20
178.0193172078315
 30
0.0
 11
0.0
 21
-1.0
 31
0.0
  0
XLINE
  5
28E9
330
1F
100
AcDbEntity
  8
構築線
370
     5
100
AcDbXline
 10
40.70151402540432
 20
155.4711488256961
 30
0.0
 11
1.0
 21
0.0
 31
0.0
  0
XLINE
  5
28EB
330
1F
100
AcDbEntity
  8
構築線
100
AcDbXline
 10
217.6414745488584
 20
210.4788998873083
 30
0.0
 11
0.0
 21
-1.0
 31
0.0
  0
XLINE
  5
28EC
330
1F
100
AcDbEntity
  8
構築線
100
AcDbXline
 10
277.6414745488584
 20
210.4788998873083
 30
0.0
 11
0.0
 21
-1.0
 31
0.0
  0
XLINE
  5
28ED
330
1F
100
AcDbEntity
  8
構築線
100
AcDbXline
 10
247.6414745488584
 20
210.4788998873083
 30
0.0
 11
0.0
 21
-1.0
 31
0.0
  0
XLINE
  5
28EE
330
1F
100
AcDbEntity
  8
構築線
100
AcDbXline
 10
222.6414745488584
 20
210.4788998873083
 30
0.0
 11
0.0
 21
-1.0
 31
0.0
  0
XLINE
  5
28EF
330
1F
100
AcDbEntity
  8
構築線
100
AcDbXline
 10
272.6414745488584
 20
210.4788998873083
 30
0.0
 11
0.0
 21
-1.0
 31
0.0
  0
LINE
  5
28F8
330
1F
100
AcDbEntity
  8
想像線
100
AcDbLine
 10
47.20151402540432
 20
115.4711488256961
 30
0.0
 11
47.20151402540432
 21
150.4711488256961
 31
0.0
  0
LINE
  5
28F9
330
1F
100
AcDbEntity
  8
想像線
100
AcDbLine
 10
47.20151402540432
 20
150.4711488256961
 30
0.0
 11
97.20151402540432
 21
150.4711488256961
 31
0.0
  0
LINE
  5
28FA
330
1F
100
AcDbEntity
  8
想像線
100
AcDbLine
 10
97.20151402540432
 20
150.4711488256961
 30
0.0
 11
97.2015140254043
 21
115.4711488256961
 31
0.0
  0
LINE
  5
28FE
330
1F
100
AcDbEntity
  8
想像線
100
AcDbLine
 10
222.6414745488584
 20
115.4711488256961
 30
0.0
 11
222.6414745488584
 21
150.4711488256961
 31
0.0
  0
LINE
  5
28FF
330
1F
100
AcDbEntity
  8
想像線
100
AcDbLine
 10
222.6414745488584
 20
150.4711488256961
 30
0.0
 11
272.6414745488584
 21
150.4711488256961
 31
0.0
  0
LINE
  5
2900
330
1F
100
AcDbEntity
  8
想像線
100
AcDbLine
 10
272.6414745488584
 20
150.4711488256961
 30
0.0
 11
272.6414745488584
 21
115.4711488256961
 31
0.0
  0
XLINE
  5
2905
330
1F
100
AcDbEntity
  8
構築線
100
AcDbXline
 10
102.7912907694046
 20
31.53560202454525
 30
0.0
 11
1.0
 21
0.0
 31
0.0
  0
XLINE
  5
2906
330
1F
100
AcDbEntity
  8
構築線
100
AcDbXline
 10
102.7912907694046
 20
61.53560202454525
 30
0.0
 11
1.0
 21
0.0
 31
0.0
  0
XLINE
  5
2907
330
1F
100
AcDbEntity
  8
構築線
100
AcDbXline
 10
102.7912907694046
 20
1.535602024545255
 30
0.0
 11
1.0
 21
0.0
 31
0.0
  0
XLINE
  5
2908
330
1F
100
AcDbEntity
  8
構築線
100
AcDbXline
 10
102.7912907694046
 20
56.53560202454525
 30
0.0
 11
1.0
 21
0.0
 31
0.0
  0
XLINE
  5
2909
330
1F
100
AcDbEntity
  8
構築線
100
AcDbXline
 10
102.7912907694046
 20
6.535602024545255
 30
0.0
 11
1.0
 21
0.0
 31
0.0
  0
CIRCLE
  5
290A
330
1F
100
AcDbEntity
  8
太線
100
AcDbCircle
 10
72.20151402540432
 20
31.53560202454525
 30
0.0
 40
30.0
  0
TEXT
  5
29C1
330
1F
100
AcDbEntity
  8
文字
100
AcDbText
 10
299.244885854959
 20
-28.87129987192441
 30
0.0
 40
3.599999999999999
  1
SET SCREW COUP
 51
15.0
  7
OKANO
100
AcDbText
  0
TEXT
  5
29C2
330
1F
100
AcDbEntity
  8
文字
100
AcDbText
 10
275.1070859623077
 20
-35.52497173398167
 30
0.0
 40
4.799999999999999
  1
joint kogyo T.okano
 51
15.0
  7
OKANO
100
AcDbText
  0
TEXT
  5
29C3
330
1F
100
AcDbEntity
  8
文字
100
AcDbText
 10
267.6187729505109
 20
-20.77260022669388
 30
0.0
 40
4.799999999999999
  1
F-999-20070605 Auto CAD
 51
15.0
  7
OKANO
100
AcDbText
  0
LINE
  5
29C4
330
1F
100
AcDbEntity
  8
太線
100
AcDbLine
 10
240.196544768897
 20
-21.69340787712424
 30
0.0
 11
348.196544768897
 21
-21.69340787712424
 31
0.0
  0
LWPOLYLINE
  5
29C5
330
1F
100
AcDbEntity
  8
太線
100
AcDbPolyline
 90
        4
 70
     1
 43
0.0
 10
240.196544768897
 20
-13.29340787712424
 10
348.196544768897
 20
-13.29340787712424
 10
348.196544768897
 20
-38.49340787712424
 10
240.196544768897
 20
-38.49340787712424
  0
TEXT
  5
29C6
330
1F
100
AcDbEntity
  8
文字
100
AcDbText
 10
244.0689283349545
 20
-29.88691967597492
 30
0.0
 40
2.399999999999999
  1
CHECK
 51
15.0
  7
OKANO
100
AcDbText
  0
LINE
  5
29C7
330
1F
100
AcDbEntity
  8
太線
100
AcDbLine
 10
264.196544768897
 20
-13.29340787712424
 30
0.0
 11
264.196544768897
 21
-38.49340787712424
 31
0.0
  0
TEXT
  5
29C8
330
1F
100
AcDbEntity
  8
文字
100
AcDbText
 10
244.0689283349545
 20
-36.80634728219074
 30
0.0
 40
2.399999999999999
  1
ISSUED
 51
15.0
  7
OKANO
100
AcDbText
  0
TEXT
  5
29C9
330
1F
100
AcDbEntity
  8
文字
100
AcDbText
 10
244.3254427678553
 20
-33.47477109292261
 30
0.0
 40
2.399999999999999
  1
APPR
 51
15.0
  7
OKANO
100
AcDbText
  0
TEXT
  5
29CA
330
1F
100
AcDbEntity
  8
文字
100
AcDbText
 10
242.2733327832688
 20
-19.89219169835908
 30
0.0
 40
2.399999999999999
  1
FILM NAME
 51
15.0
  7
OKANO
100
AcDbText
  0
TEXT
  5
29CB
330
1F
100
AcDbEntity
  8
文字
100
AcDbText
 10
243.5559016606009
 20
-26.29906884921588
 30
0.0
 40
2.399999999999999
  1
DRAWN
 51
15.0
  7
OKANO
100
AcDbText
  0
TEXT
  5
29CC
330
1F
100
AcDbEntity
  8
文字
100
AcDbText
 10
269.3616839235326
 20
-29.54763140891327
 30
0.0
 40
4.799999999999999
  1
3-2T-Ｍ
 51
15.0
  7
OKANO
100
AcDbText
  0
XLINE
  5
29D1
330
1F
100
AcDbEntity
  8
構築線
370
     5
100
AcDbXline
 10
40.70151402540432
 20
260.4711488256961
 30
0.0
 11
1.0
 21
0.0
 31
0.0
  0
LINE
  5
29D8
330
1F
100
AcDbEntity
  8
太線
100
AcDbLine
 10
102.2015140254043
 20
155.4711488256961
 30
0.0
 11
102.2015140254043
 21
115.4711488256961
 31
0.0
  0
LINE
  5
2AA8
330
1F
100
AcDbEntity
  8
太線
 62
     0
100
AcDbLine
 10
217.6414745488584
 20
115.4711488256961
 30
0.0
 11
217.6414745488584
 21
154.4711488256961
 31
0.0
  0
LINE
  5
2AB0
330
1F
100
AcDbEntity
  8
太線
 62
     0
100
AcDbLine
 10
277.6414745488584
 20
154.4711488256961
 30
0.0
 11
277.6414745488584
 21
115.4711488256961
 31
0.0
  0
XLINE
  5
2AB6
330
1F
100
AcDbEntity
  8
構築線
100
AcDbXline
 10
102.7912907694046
 20
36.68560202454525
 30
0.0
 11
1.0
 21
0.0
 31
0.0
  0
LINE
  5
2ABA
330
1F
100
AcDbEntity
  8
太線
 62
     0
100
AcDbLine
 10
42.20151402540432
 20
155.4711488256961
 30
0.0
 11
56.50207595246031
 21
155.4711488256961
 31
0.0
  0
ARC
  5
2ABD
330
1F
100
AcDbEntity
  8
太線
 62
     0
100
AcDbCircle
 10
276.6414745488584
 20
154.4711488256961
 30
0.0
 40
1.0
100
AcDbArc
 50
0.0
 51
90.0
  0
ARC
  5
2ABE
330
1F
100
AcDbEntity
  8
太線
 62
     0
100
AcDbCircle
 10
218.6414745488584
 20
154.4711488256961
 30
0.0
 40
1.0
100
AcDbArc
 50
90.0
 51
180.0
  0
XLINE
  5
2C0F
330
1F
100
AcDbEntity
  8
構築線
370
     5
100
AcDbXline
 10
40.70151402540432
 20
115.4711488256961
 30
0.0
 11
1.0
 21
0.0
 31
0.0
  0
LINE
  5
2C10
330
1F
100
AcDbEntity
  8
太線
100
AcDbLine
 10
217.6414745488584
 20
115.4711488256961
 30
0.0
 11
277.6414745488584
 21
115.4711488256961
 31
0.0
  0
LINE
  5
2C11
330
1F
100
AcDbEntity
  8
太線
100
AcDbLine
 10
42.20151402540432
 20
115.4711488256961
 30
0.0
 11
102.2015140254043
 21
115.4711488256961
 31
0.0
  0
DIMENSION
  5
2C5F
330
1F
100
AcDbEntity
  8
寸法線
100
AcDbDimension
  2
*D2
 10
204.105680128337
 20
115.4711488256961
 30
0.0
 11
200.605680128337
 21
132.9711488256962
 31
0.0
 70
    32
 71
     5
 42
35.00000000000001
  3
sunpo
100
AcDbAlignedDimension
 13
222.6414745488584
 23
150.4711488256961
 33
0.0
 14
217.6414745488584
 24
115.4711488256961
 34
0.0
 50
90.0
100
AcDbRotatedDimension
1001
ACAD
1000
DSTYLE
1002
{
1070
    40
1040
1.0
1070
   279
1070
     1
1002
}
  0
DIMENSION
  5
2C6C
330
1F
100
AcDbEntity
  8
寸法線
100
AcDbDimension
  2
*D3
 10
272.6414745488584
 20
102.3815737273474
 30
0.0
 11
275.1414745488584
 21
105.8815737273474
 31
0.0
 70
    32
  1
4
 71
     5
 42
5.0
  3
sunpo
100
AcDbAlignedDimension
 13
277.6414745488584
 23
115.4711488256961
 33
0.0
 14
272.6414745488584
 24
115.4711488256961
 34
0.0
100
AcDbRotatedDimension
1001
ACAD
1000
DSTYLE
1002
{
1070
    40
1040
1.0
1002
}
  0
DIMENSION
  5
2C7B
330
1F
100
AcDbEntity
  8
寸法線
100
AcDbDimension
  2
*D4
 10
222.6414745488584
 20
102.3815737273474
 30
0.0
 11
247.6414745488584
 21
105.8815737273474
 31
0.0
 70
    32
  1
49.3
 71
     5
 42
50.0
  3
sunpo
100
AcDbAlignedDimension
 13
272.6414745488584
 23
115.4711488256961
 33
0.0
 14
222.6414745488584
 24
115.4711488256961
 34
0.0
100
AcDbRotatedDimension
1001
ACAD
1000
DSTYLE
1002
{
1070
    40
1040
1.0
1070
   279
1070
     1
1002
}
  0
DIMENSION
  5
2C88
330
1F
100
AcDbEntity
  8
寸法線
100
AcDbDimension
  2
*D5
 10
217.6414745488584
 20
102.3815737273474
 30
0.0
 11
220.1414745488584
 21
105.8815737273474
 31
0.0
 70
    32
  1
4
 71
     5
 42
5.0
  3
sunpo
100
AcDbAlignedDimension
 13
222.6414745488584
 23
115.4711488256961
 33
0.0
 14
217.6414745488584
 24
115.4711488256961
 34
0.0
100
AcDbRotatedDimension
1001
ACAD
1000
DSTYLE
1002
{
1070
    40
1040
1.0
1070
   279
1070
     1
1002
}
  0
DIMENSION
  5
2C97
330
1F
100
AcDbEntity
  8
寸法線
100
AcDbDimension
  2
*D6
 10
272.6414745488584
 20
143.6865984371464
 30
0.0
 11
247.6414745488584
 21
147.1865984371464
 31
0.0
 70
    32
  1
49.3
 71
     5
 42
50.0
  3
sunpo
100
AcDbAlignedDimension
 13
222.6414745488584
 23
150.4711488256961
 33
0.0
 14
272.6414745488584
 24
150.4711488256961
 34
0.0
100
AcDbRotatedDimension
1001
ACAD
1000
DSTYLE
1002
{
1070
    40
1040
1.0
1002
}
  0
DIMENSION
  5
2CCC
330
1F
100
AcDbEntity
  8
寸法線
100
AcDbDimension
  2
*D7
 10
102.2015140254043
 20
96.57732068111773
 30
0.0
 11
72.20151402540432
 21
100.0773206811177
 31
0.0
 70
    32
  1
57.3
 71
     5
 42
60.0
  3
sunpo
100
AcDbAlignedDimension
 13
42.20151402540432
 23
115.4711488256961
 33
0.0
 14
102.2015140254043
 24
115.4711488256961
 34
0.0
100
AcDbRotatedDimension
1001
ACAD
1000
DSTYLE
1002
{
1070
    40
1040
1.0
1002
}
  0
DIMENSION
  5
2CE2
330
1F
100
AcDbEntity
  8
寸法線
100
AcDbDimension
  2
*D8
 10
291.0524041415976
 20
150.4711488256961
 30
0.0
 11
287.5524041415975
 21
152.9711488256961
 31
0.0
 70
    32
  1
4
 71
     5
 42
5.0
  3
sunpo
100
AcDbAlignedDimension
 13
276.6414745488584
 23
155.4711488256961
 33
0.0
 14
272.6414745488584
 24
150.4711488256961
 34
0.0
 50
90.0
100
AcDbRotatedDimension
1001
ACAD
1000
DSTYLE
1002
{
1070
    40
1040
1.0
1002
}
  0
LINE
  5
2D0A
330
1F
100
AcDbEntity
  8
構築線
100
AcDbLine
 10
247.6414745488584
 20
115.4711488256961
 30
0.0
 11
247.6414745488584
 21
136.6105976559615
 31
0.0
  0
XLINE
  5
2D0C
330
1F
100
AcDbEntity
  8
構築線
100
AcDbXline
 10
249.6414745488584
 20
210.4788998873083
 30
0.0
 11
0.0
 21
-1.0
 31
0.0
  0
LINE
  5
2D0D
330
1F
100
AcDbEntity
  8
太線
100
AcDbLine
 10
254.6414745488584
 20
155.4711488256961
 30
0.0
 11
276.6414745488584
 21
155.4711488256961
 31
0.0
  0
LINE
  5
2D0E
330
1F
100
AcDbEntity
  8
太線
100
AcDbLine
 10
218.6414745488584
 20
155.4711488256961
 30
0.0
 11
239.4914745488585
 21
155.4711488256961
 31
0.0
  0
XLINE
  5
2D11
330
1F
100
AcDbEntity
  8
構築線
100
AcDbXline
 10
102.7912907694046
 20
29.53560202454525
 30
0.0
 11
1.0
 21
0.0
 31
0.0
  0
XLINE
  5
2D7C
330
1F
100
AcDbEntity
  8
構築線
100
AcDbXline
 10
102.7912907694046
 20
33.53560202454525
 30
0.0
 11
1.0
 21
0.0
 31
0.0
  0
XLINE
  5
2D87
330
1F
100
AcDbEntity
  8
構築線
100
AcDbXline
 10
245.6414745488584
 20
210.4788998873083
 30
0.0
 11
0.0
 21
-1.0
 31
0.0
  0
LINE
  5
2D89
330
1F
100
AcDbEntity
  8
太線
100
AcDbLine
 10
240.6414745488584
 20
155.4711488256961
 30
0.0
 11
239.4914745488585
 21
155.4711488256961
 31
0.0
  0
TEXT
  5
2DF8
330
1F
100
AcDbEntity
  8
文字
100
AcDbText
 10
207.4603315785128
 20
34.82441146197427
 30
0.0
 40
4.799999999999999
  1
注記　内面バリは最小限にする
 51
15.0
  7
OKANO
100
AcDbText
  0
XLINE
  5
2E3F
330
1F
100
AcDbEntity
  8
構築線
100
AcDbXline
 10
269.6414745488584
 20
210.4788998873083
 30
0.0
 11
0.0
 21
-1.0
 31
0.0
  0
XLINE
  5
2E42
330
1F
100
AcDbEntity
  8
構築線
100
AcDbXline
 10
225.6414745488584
 20
210.4788998873083
 30
0.0
 11
0.0
 21
-1.0
 31
0.0
  0
LINE
  5
2E43
330
1F
100
AcDbEntity
  8
想像線
100
AcDbLine
 10
235.6414745488584
 20
155.4711488256961
 30
0.0
 11
235.6414745488584
 21
150.4711488256961
 31
0.0
  0
LINE
  5
2E44
330
1F
100
AcDbEntity
  8
想像線
100
AcDbLine
 10
225.6414745488584
 20
155.4711488256961
 30
0.0
 11
225.6414745488584
 21
150.4711488256961
 31
0.0
  0
LINE
  5
2E45
330
1F
100
AcDbEntity
  8
想像線
100
AcDbLine
 10
269.6414745488584
 20
155.4711488256961
 30
0.0
 11
269.6414745488584
 21
150.4711488256961
 31
0.0
  0
LINE
  5
2E46
330
1F
100
AcDbEntity
  8
想像線
100
AcDbLine
 10
259.6414745488584
 20
155.4711488256961
 30
0.0
 11
259.6414745488584
 21
150.4711488256961
 31
0.0
  0
XLINE
  5
2E56
330
1F
100
AcDbEntity
  8
構築線
370
     5
100
AcDbXline
 10
40.70151402540432
 20
207.7711488256961
 30
0.0
 11
1.0
 21
0.0
 31
0.0
  0
XLINE
  5
2E57
330
1F
100
AcDbEntity
  8
構築線
370
     5
100
AcDbXline
 10
40.70151402540432
 20
203.7711488256961
 30
0.0
 11
1.0
 21
0.0
 31
0.0
  0
XLINE
  5
2E58
330
1F
100
AcDbEntity
  8
構築線
370
     5
100
AcDbXline
 10
40.70151402540432
 20
179.1211488256961
 30
0.0
 11
1.0
 21
0.0
 31
0.0
  0
CIRCLE
  5
2E59
330
1F
100
AcDbEntity
  8
太線
100
AcDbCircle
 10
247.6414745488584
 20
179.1211488256961
 30
0.0
 40
24.65
  0
ARC
  5
2E5B
330
1F
100
AcDbEntity
  8
太線
100
AcDbCircle
 10
247.6414745488584
 20
179.1211488256961
 30
0.0
 40
30.0
100
AcDbArc
 50
0.0
 51
179.9999999999999
  0
XLINE
  5
2E5C
330
1F
100
AcDbEntity
  8
構築線
370
     5
100
AcDbXline
 10
87.20151402540432
 20
178.0193172078315
 30
0.0
 11
0.0
 21
-1.0
 31
0.0
  0
XLINE
  5
2E5D
330
1F
100
AcDbEntity
  8
構築線
370
     5
100
AcDbXline
 10
57.20151402540432
 20
178.0193172078315
 30
0.0
 11
0.0
 21
-1.0
 31
0.0
  0
XLINE
  5
2E5E
330
1F
100
AcDbEntity
  8
構築線
370
     5
100
AcDbXline
 10
104.2015140254043
 20
178.0193172078315
 30
0.0
 11
0.0
 21
-1.0
 31
0.0
  0
XLINE
  5
2E5F
330
1F
100
AcDbEntity
  8
構築線
370
     5
100
AcDbXline
 10
104.2015140254043
 20
178.0193172078315
 30
0.0
 11
0.0
 21
-1.0
 31
0.0
  0
XLINE
  5
2E60
330
1F
100
AcDbEntity
  8
構築線
370
     5
100
AcDbXline
 10
82.20151402540432
 20
178.0193172078315
 30
0.0
 11
0.0
 21
-1.0
 31
0.0
  0
XLINE
  5
2E61
330
1F
100
AcDbEntity
  8
構築線
370
     5
100
AcDbXline
 10
62.20151402540432
 20
178.0193172078315
 30
0.0
 11
0.0
 21
-1.0
 31
0.0
  0
LINE
  5
2E62
330
1F
100
AcDbEntity
  8
太線
100
AcDbLine
 10
62.20151402540432
 20
179.1211488256961
 30
0.0
 11
62.20151402540432
 21
207.7711488256961
 31
0.0
  0
LINE
  5
2E63
330
1F
100
AcDbEntity
  8
太線
100
AcDbLine
 10
62.20151402540432
 20
207.7711488256961
 30
0.0
 11
82.20151402540432
 21
207.7711488256961
 31
0.0
  0
LINE
  5
2E64
330
1F
100
AcDbEntity
  8
太線
100
AcDbLine
 10
82.20151402540432
 20
207.7711488256961
 30
0.0
 11
82.20151402540432
 21
179.1211488256961
 31
0.0
  0
XLINE
  5
2E65
330
1F
100
AcDbEntity
  8
構築線
370
     5
100
AcDbXline
 10
40.70151402540432
 20
165.4711488256961
 30
0.0
 11
1.0
 21
0.0
 31
0.0
  0
XLINE
  5
2E67
330
1F
100
AcDbEntity
  8
構築線
370
     5
100
AcDbXline
 10
84.20151402540431
 20
178.0193172078315
 30
0.0
 11
0.0
 21
-1.0
 31
0.0
  0
XLINE
  5
2E68
330
1F
100
AcDbEntity
  8
構築線
370
     5
100
AcDbXline
 10
60.20151402540432
 20
178.0193172078315
 30
0.0
 11
0.0
 21
-1.0
 31
0.0
  0
ARC
  5
2E69
330
1F
100
AcDbEntity
  8
太線
100
AcDbCircle
 10
165.1340915910367
 20
184.3009220953858
 30
0.0
 40
83.0941783328112
100
AcDbArc
 50
183.5739168979373
 51
199.8158467414098
  0
ARC
  5
2E6A
330
1F
100
AcDbEntity
  8
太線
100
AcDbCircle
 10
-20.73106354022802
 20
184.3009220953858
 30
0.0
 40
83.09417833281113
100
AcDbArc
 50
340.1841532585901
 51
356.4260831020626
  0
ARC
  5
2E6D
330
1F
100
AcDbEntity
  8
太線
100
AcDbCircle
 10
56.50207595246031
 20
156.4711488256961
 30
0.0
 40
1.0
100
AcDbArc
 50
270.0
 51
340.1841532585899
  0
LINE
  5
2E6E
330
1F
100
AcDbEntity
  8
太線
100
AcDbLine
 10
102.2015140254043
 20
155.4711488256961
 30
0.0
 11
87.90095209834829
 21
155.4711488256962
 31
0.0
  0
ARC
  5
2E6F
330
1F
100
AcDbEntity
  8
太線
100
AcDbCircle
 10
87.90095209834829
 20
156.4711488256961
 30
0.0
 40
1.0
100
AcDbArc
 50
199.8158467414106
 51
270.0
  0
LINE
  5
2E70
330
1F
100
AcDbEntity
  8
破線
100
AcDbLine
 10
82.20151402540432
 20
203.7711488256961
 30
0.0
 11
62.20151402540432
 21
203.7711488256961
 31
0.0
  0
LINE
  5
2E71
330
1F
100
AcDbEntity
  8
破線
100
AcDbLine
 10
57.44286299803602
 20
156.1321506916644
 30
0.0
 11
87.90095209834829
 21
155.4711488256962
 31
0.0
  0
CIRCLE
  5
2E73
330
1F
100
AcDbEntity
  8
太線
100
AcDbCircle
 10
72.20151402540432
 20
31.53560202454525
 30
0.0
 40
25.0
  0
XLINE
  5
2E74
330
1F
100
AcDbEntity
  8
構築線
100
AcDbXline
 10
102.7912907694046
 20
51.53560202454525
 30
0.0
 11
1.0
 21
0.0
 31
0.0
  0
XLINE
  5
2E75
330
1F
100
AcDbEntity
  8
構築線
100
AcDbXline
 10
102.7912907694046
 20
11.53560202454525
 30
0.0
 11
1.0
 21
0.0
 31
0.0
  0
ARC
  5
2E76
330
1F
100
AcDbEntity
  8
破線
100
AcDbCircle
 10
87.20230853052635
 20
10.63591982659406
 30
0.0
 40
5.081079977698534
100
AcDbArc
 50
169.801140355697
 51
269.9910409222685
  0
LINE
  5
2E77
330
1F
100
AcDbEntity
  8
破線
100
AcDbLine
 10
82.20151402540432
 20
9.736237628642895
 30
0.0
 11
82.20151402540432
 21
51.53560202454525
 31
0.0
  0
ARC
  5
2E78
330
1F
100
AcDbEntity
  8
破線
100
AcDbCircle
 10
85.70151402540432
 20
53.03560202454525
 30
0.0
 40
3.807886552931951
100
AcDbArc
 50
66.80140948635184
 51
203.198590513648
  0
ARC
  5
2E79
330
1F
100
AcDbEntity
  8
破線
100
AcDbCircle
 10
58.70151402540432
 20
10.03560202454525
 30
0.0
 40
3.807886552931954
100
AcDbArc
 50
246.8014094863518
 51
23.1985905136482
  0
LINE
  5
2E7A
330
1F
100
AcDbEntity
  8
破線
100
AcDbLine
 10
62.20151402540432
 20
11.53560202454525
 30
0.0
 11
62.20151402540431
 21
51.53560202454525
 31
0.0
  0
ARC
  5
2E7B
330
1F
100
AcDbEntity
  8
破線
100
AcDbCircle
 10
58.70151402540431
 20
53.03560202454526
 30
0.0
 40
3.807886552931961
100
AcDbArc
 50
336.8014094863518
 51
113.1985905136479
  0
DIMENSION
  5
2E89
330
1F
100
AcDbEntity
  8
寸法線
100
AcDbDimension
  2
*D9
 10
119.5453225425834
 20
203.7711488256961
 30
0.0
 11
116.0453225425834
 21
179.6211488256961
 31
0.0
 70
    32
  1
49.3
 71
     5
 42
48.30000000000004
  3
sunpo
100
AcDbAlignedDimension
 13
102.2015140254043
 23
155.4711488256961
 33
0.0
 14
82.20151402540432
 24
203.7711488256961
 34
0.0
 50
90.0
100
AcDbRotatedDimension
1001
ACAD
1000
DSTYLE
1002
{
1070
    40
1040
1.0
1002
}
  0
DIMENSION
  5
2EA6
330
1F
100
AcDbEntity
  8
寸法線
100
AcDbDimension
  2
*D10
 10
119.5453225425834
 20
207.7711488256961
 30
0.0
 11
128.0453225425833
 21
210.3711488256962
 31
0.0
 70
    32
 71
     5
 42
4.0
  3
sunpo
100
AcDbAlignedDimension
 13
119.5453225425834
 23
203.7711488256961
 33
0.0
 14
82.20151402540432
 24
207.7711488256961
 34
0.0
 50
90.0
100
AcDbRotatedDimension
1001
ACAD
1000
DSTYLE
1002
{
1070
    40
1040
1.0
1070
   279
1070
     1
1002
}
  0
LINE
  5
2ED2
330
1F
100
AcDbEntity
  8
構築線
100
AcDbLine
 10
217.6414745488584
 20
179.1211488256961
 30
0.0
 11
217.6414745488584
 21
155.4711488256961
 31
0.0
  0
LINE
  5
2ED3
330
1F
100
AcDbEntity
  8
太線
100
AcDbLine
 10
217.6414745488584
 20
179.1211488256961
 30
0.0
 11
217.6414745488584
 21
154.4711488256961
 31
0.0
  0
LINE
  5
2ED4
330
1F
100
AcDbEntity
  8
太線
100
AcDbLine
 10
277.6414745488584
 20
179.1211488256961
 30
0.0
 11
277.6414745488584
 21
154.4711488256961
 31
0.0
  0
DIMENSION
  5
2EE8
330
1F
100
AcDbEntity
  8
寸法線
100
AcDbDimension
  2
*D11
 10
82.20151402540432
 20
219.1348924323252
 30
0.0
 11
72.20151402540432
 21
222.6353845583095
 31
0.0
 70
    32
 71
     5
 42
20.0
  3
sunpo
100
AcDbAlignedDimension
 13
62.20151402540432
 23
207.7711488256961
 33
0.0
 14
82.20151402540432
 24
207.7711488256961
 34
0.0
100
AcDbRotatedDimension
1001
ACAD
1000
DSTYLE
1002
{
1070
    40
1040
1.0
1002
}
  0
DIMENSION
  5
2EF5
330
1F
100
AcDbEntity
  8
寸法線
100
AcDbDimension
  2
*D12
 10
86.96016505277261
 20
138.5098245850268
 30
0.0
 11
71.73112050261646
 21
142.0098245850268
 31
0.0
 70
    32
  1
30
 71
     5
 42
30.45808910031229
  3
sunpo
100
AcDbAlignedDimension
 13
56.50207595246031
 23
155.4711488256961
 33
0.0
 14
86.96016505277261
 24
156.1321506916644
 34
0.0
100
AcDbRotatedDimension
1001
ACAD
1000
DSTYLE
1002
{
1070
    40
1040
1.0
1002
}
  0
DIMENSION
  5
2F02
330
1F
100
AcDbEntity
  8
寸法線
100
AcDbDimension
  2
*D13
 10
16.63916576264137
 20
155.978589125156
 30
0.0
 11
13.13867363665709
 21
167.549868975426
 31
0.0
 70
    32
  1
23
 71
     5
 42
23.14255970054003
  3
sunpo
100
AcDbAlignedDimension
 13
62.20151402540432
 23
179.1211488256961
 33
0.0
 14
62.20151402540432
 24
155.978589125156
 34
0.0
 50
90.0
100
AcDbRotatedDimension
1001
ACAD
1000
DSTYLE
1002
{
1070
    40
1040
1.0
1002
}
  0
CIRCLE
  5
2F21
330
1F
100
AcDbEntity
  8
太線
100
AcDbCircle
 10
72.20151402540432
 20
179.1211488256961
 30
0.0
 40
2.5
  0
XLINE
  5
2F22
330
1F
100
AcDbEntity
  8
構築線
370
     5
100
AcDbXline
 10
40.70151402540432
 20
125.4711488256961
 30
0.0
 11
1.0
 21
0.0
 31
0.0
  0
CIRCLE
  5
2F25
330
1F
100
AcDbEntity
  8
太線
100
AcDbCircle
 10
72.20151402540432
 20
125.4711488256961
 30
0.0
 40
2.5
  0
XLINE
  5
2F26
330
1F
100
AcDbEntity
  8
構築線
370
     5
100
AcDbXline
 10
40.70151402540432
 20
181.6211488256961
 30
0.0
 11
1.0
 21
0.0
 31
0.0
  0
XLINE
  5
2F27
330
1F
100
AcDbEntity
  8
構築線
370
     5
100
AcDbXline
 10
40.70151402540432
 20
176.6211488256961
 30
0.0
 11
1.0
 21
0.0
 31
0.0
  0
XLINE
  5
2F28
330
1F
100
AcDbEntity
  8
構築線
370
     5
100
AcDbXline
 10
40.70151402540432
 20
127.9711488256961
 30
0.0
 11
1.0
 21
0.0
 31
0.0
  0
XLINE
  5
2F29
330
1F
100
AcDbEntity
  8
構築線
370
     5
100
AcDbXline
 10
40.70151402540432
 20
122.9711488256961
 30
0.0
 11
1.0
 21
0.0
 31
0.0
  0
XLINE
  5
2F2A
330
1F
100
AcDbEntity
  8
構築線
370
     5
100
AcDbXline
 10
40.70151402540432
 20
181.1211488256961
 30
0.0
 11
1.0
 21
0.0
 31
0.0
  0
XLINE
  5
2F2B
330
1F
100
AcDbEntity
  8
構築線
370
     5
100
AcDbXline
 10
40.70151402540432
 20
177.1211488256961
 30
0.0
 11
1.0
 21
0.0
 31
0.0
  0
XLINE
  5
2F2C
330
1F
100
AcDbEntity
  8
構築線
370
     5
100
AcDbXline
 10
40.70151402540432
 20
127.4711488256961
 30
0.0
 11
1.0
 21
0.0
 31
0.0
  0
XLINE
  5
2F2D
330
1F
100
AcDbEntity
  8
構築線
370
     5
100
AcDbXline
 10
40.70151402540432
 20
123.4711488256961
 30
0.0
 11
1.0
 21
0.0
 31
0.0
  0
LINE
  5
2F2F
330
1F
100
AcDbEntity
  8
破線
100
AcDbLine
 10
277.5371264066119
 20
181.6211488256961
 30
0.0
 11
272.6414745488584
 21
181.6211488256961
 31
0.0
  0
LINE
  5
2F30
330
1F
100
AcDbEntity
  8
破線
100
AcDbLine
 10
277.6414745488584
 20
176.6211488256961
 30
0.0
 11
272.1643720122497
 21
176.6211488256961
 31
0.0
  0
LINE
  5
2F31
330
1F
100
AcDbEntity
  8
破線
100
AcDbLine
 10
223.0727444229443
 20
181.1211488256961
 30
0.0
 11
217.7082154546669
 21
181.1211488256961
 31
0.0
  0
LINE
  5
2F32
330
1F
100
AcDbEntity
  8
破線
100
AcDbLine
 10
223.0727444229443
 20
177.1211488256961
 30
0.0
 11
217.6414745488584
 21
177.1211488256961
 31
0.0
  0
LINE
  5
2F33
330
1F
100
AcDbEntity
  8
破線
100
AcDbLine
 10
277.6414745488584
 20
127.9711488256961
 30
0.0
 11
272.6414745488584
 21
127.9711488256961
 31
0.0
  0
LINE
  5
2F34
330
1F
100
AcDbEntity
  8
破線
100
AcDbLine
 10
277.6414745488584
 20
123.4711488256961
 30
0.0
 11
272.6414745488584
 21
123.4711488256961
 31
0.0
  0
LINE
  5
2F35
330
1F
100
AcDbEntity
  8
破線
100
AcDbLine
 10
222.6414745488584
 20
127.4711488256961
 30
0.0
 11
217.6414745488584
 21
127.4711488256961
 31
0.0
  0
LINE
  5
2F36
330
1F
100
AcDbEntity
  8
破線
100
AcDbLine
 10
222.6414745488584
 20
123.4711488256961
 30
0.0
 11
217.6414745488584
 21
123.4711488256961
 31
0.0
  0
LINE
  5
2F37
330
1F
100
AcDbEntity
  8
破線
100
AcDbLine
 10
277.6414745488584
 20
122.9711488256961
 30
0.0
 11
272.6414745488584
 21
122.9711488256961
 31
0.0
  0
LINE
  5
2F38
330
1F
100
AcDbEntity
  8
破線
100
AcDbLine
 10
277.6414745488584
 20
127.4711488256961
 30
0.0
 11
272.6414745488584
 21
127.4711488256961
 31
0.0
  0
LINE
  5
2F39
330
1F
100
AcDbEntity
  8
破線
100
AcDbLine
 10
277.57473364305
 20
181.1211488256961
 30
0.0
 11
272.6414745488584
 21
181.1211488256961
 31
0.0
  0
LINE
  5
2F3A
330
1F
100
AcDbEntity
  8
破線
100
AcDbLine
 10
277.6414745488584
 20
177.1211488256961
 30
0.0
 11
272.6414745488584
 21
177.1211488256961
 31
0.0
  0
TEXT
  5
2F3B
330
1F
100
AcDbEntity
  8
文字
100
AcDbText
 10
166.9274509021041
 20
175.6841269115982
 30
0.0
 40
4.799999999999999
  1
Φ3.8mm
 51
15.0
  7
OKANO
100
AcDbText
  0
TEXT
  5
2F3C
330
1F
100
AcDbEntity
  8
文字
100
AcDbText
 10
315.4443176794226
 20
174.6465625340637
 30
0.0
 40
4.799999999999999
  1
M5-8mm
 51
15.0
  7
OKANO
100
AcDbText
  0
LEADER
  5
2F3D
330
1F
100
AcDbEntity
  8
寸法線
100
AcDbLeader
  3
sunpo
 76
     2
 10
282.3402657815467
 20
177.7529954209181
 30
0.0
 10
313.3980374750072
 20
178.7874299824831
 30
0.0
1001
ACAD
1000
DSTYLE
1002
{
1070
   147
1040
1.0
1070
    77
1070
     0
1002
}
  0
LEADER
  5
2F3E
330
1F
100
AcDbEntity
  8
寸法線
100
AcDbLeader
  3
sunpo
 76
     2
 10
280.7873763339026
 20
126.5484965927486
 30
0.0
 10
323.2329982236127
 20
167.9258692343863
 30
0.0
1001
ACAD
1000
DSTYLE
1002
{
1070
   147
1040
1.0
1070
    77
1070
     0
1002
}
  0
LEADER
  5
2F3F
330
1F
100
AcDbEntity
  8
寸法線
100
AcDbLeader
  3
sunpo
 76
     2
 10
209.3545016546862
 20
179.8218645440479
 30
0.0
 10
192.2727274390259
 20
178.7874299824831
 30
0.0
1001
ACAD
1000
DSTYLE
1002
{
1070
   147
1040
1.0
1070
    77
1070
     0
1002
}
  0
LEADER
  5
2F40
330
1F
100
AcDbEntity
  8
寸法線
100
AcDbLeader
  3
sunpo
 76
     2
 10
216.0836856654313
 20
127.0657135666261
 30
0.0
 10
194.8608747205763
 20
174.6496929638432
 30
0.0
1001
ACAD
1000
DSTYLE
1002
{
1070
   147
1040
1.0
1070
    77
1070
     0
1002
}
  0
XLINE
  5
2F42
330
1F
100
AcDbEntity
  8
構築線
370
     5
100
AcDbXline
 10
74.70151402540432
 20
178.0193172078315
 30
0.0
 11
0.0
 21
-1.0
 31
0.0
  0
XLINE
  5
2F43
330
1F
100
AcDbEntity
  8
構築線
370
     5
100
AcDbXline
 10
69.70151402540432
 20
178.0193172078315
 30
0.0
 11
0.0
 21
-1.0
 31
0.0
  0
XLINE
  5
2F45
330
1F
100
AcDbEntity
  8
構築線
370
     5
100
AcDbXline
 10
74.20151402540432
 20
178.0193172078315
 30
0.0
 11
0.0
 21
-1.0
 31
0.0
  0
XLINE
  5
2F46
330
1F
100
AcDbEntity
  8
構築線
370
     5
100
AcDbXline
 10
70.20151402540432
 20
178.0193172078315
 30
0.0
 11
0.0
 21
-1.0
 31
0.0
  0
LINE
  5
2F47
330
1F
100
AcDbEntity
  8
破線
100
AcDbLine
 10
74.70151402540432
 20
61.43125388229875
 30
0.0
 11
74.70151402540432
 21
56.41028795221075
 31
0.0
  0
LINE
  5
2F48
330
1F
100
AcDbEntity
  8
破線
100
AcDbLine
 10
69.70151402540432
 20
61.43125388229875
 30
0.0
 11
69.70151402540432
 21
56.53560202454525
 31
0.0
  0
LINE
  5
2F49
330
1F
100
AcDbEntity
  8
破線
100
AcDbLine
 10
70.20151402540432
 20
61.46886111873678
 30
0.0
 11
70.20151402540432
 21
56.53560202454525
 31
0.0
  0
LINE
  5
2F4A
330
1F
100
AcDbEntity
  8
破線
100
AcDbLine
 10
74.20151402540432
 20
61.46886111873678
 30
0.0
 11
74.20151402540432
 21
56.53560202454525
 31
0.0
  0
LINE
  5
2F4B
330
1F
100
AcDbEntity
  8
破線
100
AcDbLine
 10
74.20151402540432
 20
6.535602024545255
 30
0.0
 11
74.20151402540432
 21
1.602342930353728
 31
0.0
  0
LINE
  5
2F4C
330
1F
100
AcDbEntity
  8
破線
100
AcDbLine
 10
70.20151402540432
 20
6.535602024545255
 30
0.0
 11
70.20151402540432
 21
1.602342930353728
 31
0.0
  0
VIEWPORT
  5
2E
330
1B
100
AcDbEntity
 67
     1
  8
0
100
AcDbViewport
 10
203.0289323563273
 20
117.3780757370714
 30
0.0
 40
512.814383626843
 41
260.4599925270161
 68
     1
 69
     1
 12
203.0289323563273
 22
117.3780757370714
 13
0.0
 23
0.0
 14
10.0
 24
10.0
 15
10.0
 25
10.0
 16
0.0
 26
0.0
 36
1.0
 17
0.0
 27
0.0
 37
0.0
 42
50.0
 43
0.0
 44
0.0
 45
260.4599925270161
 50
0.0
 51
0.0
 72
   100
 90
    32800
  1

281
     0
 71
     1
 74
     0
110
0.0
120
0.0
130
0.0
111
1.0
121
0.0
131
0.0
112
0.0
122
1.0
132
0.0
 79
     0
146
0.0
  0
VIEWPORT
  5
30
330
1B
100
AcDbEntity
 67
     1
  8
70-0-CON
100
AcDbViewport
 10
141.8594093064315
 20
100.3480256368386
 30
0.0
 40
261.6199023344245
 41
192.6196987113174
 68
     2
 69
     2
 12
160.0326505925646
 22
100.6941901074507
 13
0.0
 23
0.0
 14
5.0
 24
5.0
 15
10.0
 25
10.0
 16
0.0
 26
0.0
 36
1.0
 17
0.0
 27
0.0
 37
0.0
 42
50.0
 43
0.0
 44
0.0
 45
304.1568204260045
 50
0.0
 51
0.0
 72
   100
 90
    32864
  1

281
     0
 71
     1
 74
     0
110
0.0
120
0.0
130
0.0
111
1.0
121
0.0
131
0.0
112
0.0
122
1.0
132
0.0
 79
     0
146
0.0
  0
LWPOLYLINE
  5
45
330
1B
100
AcDbEntity
 67
     1
  8
50-0-CON
100
AcDbPolyline
 90
        4
 70
     1
 43
0.0
 10
11.04945813921926
 20
4.038176281179858
 10
272.2125713060605
 20
4.033520706629644
 10
273.4987754093466
 20
195.9297862125246
 10
11.04945813921926
 20
196.6578749924973
  0
LINE
  5
4A
330
1B
100
AcDbEntity
 67
     1
  8
50-0-CON
100
AcDbLine
 10
10.38768783662635
 20
100.3480256368386
 30
0.0
 11
-4.391850629656119
 21
100.3480256368386
 31
0.0
  0
LINE
  5
4B
330
1B
100
AcDbEntity
 67
     1
  8
50-0-CON
100
AcDbLine
 10
141.8594093064315
 20
197.098652626247
 30
0.0
 11
141.8594093064315
 21
202.387980773708
 31
0.0
  0
LINE
  5
4C
330
1B
100
AcDbEntity
 67
     1
  8
50-0-CON
100
AcDbLine
 10
272.4487699456857
 20
100.7888032705883
 30
0.0
 11
278.8458837249377
 21
100.7888032705883
 31
0.0
  0
LINE
  5
4D
330
1B
100
AcDbEntity
 67
     1
  8
50-0-CON
100
AcDbLine
 10
140.9770484758805
 20
4.038176281179858
 30
0.0
 11
140.9770484758805
 21
-3.455038652015446
 31
0.0
  0
ENDSEC
  0
SECTION
  2
OBJECTS
  0
DICTIONARY
  5
C
330
0
100
AcDbDictionary
281
     1
  3
ACAD_GROUP
350
D
  3
ACAD_LAYOUT
350
1A
  3
ACAD_MLINESTYLE
350
17
  3
ACAD_PLOTSETTINGS
350
19
  3
ACAD_PLOTSTYLENAME
350
E
  3
AcadDim
350
13D0
  3
AcDbVariableDictionary
350
6AD
  3
DWGPROPS
350
30F
  0
DICTIONARY
  5
D
102
{ACAD_REACTORS
330
C
102
}
330
C
100
AcDbDictionary
281
     1
  0
DICTIONARY
  5
1A
102
{ACAD_REACTORS
330
C
102
}
330
C
100
AcDbDictionary
281
     1
  3
A4
350
1E
  3
Model
350
22
  0
DICTIONARY
  5
17
102
{ACAD_REACTORS
330
C
102
}
330
C
100
AcDbDictionary
281
     1
  3
Standard
350
18
  0
DICTIONARY
  5
19
102
{ACAD_REACTORS
330
C
102
}
330
C
100
AcDbDictionary
281
     1
  0
ACDBDICTIONARYWDFLT
  5
E
102
{ACAD_REACTORS
330
C
102
}
330
C
100
AcDbDictionary
281
     1
  3
Normal
350
F
100
AcDbDictionaryWithDefault
340
F
  0
XRECORD
  5
13D0
102
{ACAD_REACTORS
330
C
102
}
330
C
100
AcDbXrecord
280
     1
 90
   990106
  3

 60
     0
 61
     0
 62
     1
 63
     3
 64
     0
 65
     0
 66
     0
 67
     3
 68
     1
 69
     0
 70
     0
 71
     0
 72
     0
 40
0.0
170
     0
  0
DICTIONARY
  5
6AD
102
{ACAD_REACTORS
330
C
102
}
330
C
100
AcDbDictionary
281
     1
  3
SORTENTS
350
6AE
  0
XRECORD
  5
30F
102
{ACAD_REACTORS
330
C
102
}
330
C
100
AcDbXrecord
280
     1
  1
DWGPROPS COOKIE
  2

  3

  4

  6

  7

  8

  9

300
=
301
=
302
=
303
=
304
=
305
=
306
=
307
=
308
=
309
=
 40
0.3303803125
 41
2452362.482225463
 42
2452370.969861285
  1

 90
        0
  0
LAYOUT
  5
1E
102
{ACAD_REACTORS
330
1A
102
}
330
1A
100
AcDbPlotSettings
  1

  2
EPSON PM-920C
  4
A4
  6

 40
3.757083177566528
 41
14.7637300491333
 42
3.757080078125
 43
3.757080078125
 44
209.9733276367187
 45
296.9683227539062
 46
0.0
 47
0.0
 48
0.0
 49
0.0
140
0.0
141
0.0
142
1.0
143
1.0
 70
   688
 72
     1
 73
     1
 74
     5
  7
joint.ctb
 75
    16
147
1.0
148
0.0
149
0.0
100
AcDbLayout
  1
A4
 70
     1
 71
     1
 10
-3.757080078125
 20
-3.757083177566528
 11
293.2112426757812
 21
206.2162444591522
 12
0.0
 22
0.0
 32
0.0
 14
-4.391850629656119
 24
-3.455038652015446
 34
0.0
 15
278.8458837249377
 25
202.387980773708
 35
0.0
146
0.0
 13
0.0
 23
0.0
 33
0.0
 16
1.0
 26
0.0
 36
0.0
 17
0.0
 27
1.0
 37
0.0
 76
     0
330
1B
331
2E
  0
LAYOUT
  5
22
102
{ACAD_REACTORS
330
1A
102
}
330
1A
100
AcDbPlotSettings
  1

  2
EPSON PM-920C
  4
A4
  6

 40
3.757083177566528
 41
14.7637300491333
 42
3.757080078125
 43
3.757080078125
 44
209.9733276367187
 45
296.9683227539062
 46
0.0
 47
0.0
 48
0.0
 49
0.0
140
0.0
141
0.0
142
1.0
143
1.0
 70
 11952
 72
     1
 73
     1
 74
     0
  7

 75
     0
147
1.0
148
-45.64199848979289
149
-84.48806419330498
100
AcDbLayout
  1
Model
 70
     1
 71
     0
 10
0.0
 20
0.0
 11
12.0
 21
9.0
 12
0.0
 22
0.0
 32
0.0
 14
0.0
 24
0.0
 34
0.0
 15
0.0
 25
0.0
 35
0.0
146
0.0
 13
0.0
 23
0.0
 33
0.0
 16
1.0
 26
0.0
 36
0.0
 17
0.0
 27
1.0
 37
0.0
 76
     0
330
1F
  0
MLINESTYLE
  5
18
102
{ACAD_REACTORS
330
17
102
}
330
17
100
AcDbMlineStyle
  2
STANDARD
 70
     0
  3

 62
   256
 51
90.0
 52
90.0
 71
     2
 49
0.5
 62
   256
  6
BYLAYER
 49
-0.5
 62
   256
  6
BYLAYER
  0
ACDBPLACEHOLDER
  5
F
102
{ACAD_REACTORS
330
E
102
}
330
E
  0
DICTIONARYVAR
  5
6AE
102
{ACAD_REACTORS
330
6AD
102
}
330
6AD
100
DictionaryVariables
280
     0
  1
96
  0
ENDSEC
  0
EOF
