  0
SECTION
  2
HEADER
  9
$ACADVER
  1
AC1015
  9
$ACADMAINTVER
 70
     6
  9
$DWGCODEPAGE
  3
ANSI_932
  9
$INSBASE
 10
0.0
 20
0.0
 30
0.0
  9
$EXTMIN
 10
29.32799387694797
 20
-38.49340787712424
 30
0.0
  9
$EXTMAX
 10
550.4432495132867
 20
351.3452594353751
 30
0.0
  9
$LIMMIN
 10
0.0
 20
0.0
  9
$LIMMAX
 10
420.0
 20
297.0
  9
$ORTHOMODE
 70
     0
  9
$REGENMODE
 70
     1
  9
$FILLMODE
 70
     1
  9
$QTEXTMODE
 70
     0
  9
$MIRRTEXT
 70
     1
  9
$LTSCALE
 40
1.0
  9
$ATTMODE
 70
     1
  9
$TEXTSIZE
 40
5.0
  9
$TRACEWID
 40
1.0
  9
$TEXTSTYLE
  7
OKANO
  9
$CLAYER
  8
太線
  9
$CELTYPE
  6
ByLayer
  9
$CECOLOR
 62
     3
  9
$CELTSCALE
 40
1.0
  9
$DISPSILH
 70
     0
  9
$DIMSCALE
 40
0.0
  9
$DIMASZ
 40
3.0
  9
$DIMEXO
 40
2.0
  9
$DIMDLI
 40
8.0
  9
$DIMRND
 40
0.0
  9
$DIMDLE
 40
0.0
  9
$DIMEXE
 40
3.0
  9
$DIMTP
 40
0.0
  9
$DIMTM
 40
0.0
  9
$DIMTXT
 40
5.0
  9
$DIMCEN
 40
2.5
  9
$DIMTSZ
 40
0.0
  9
$DIMTOL
 70
     0
  9
$DIMLIM
 70
     0
  9
$DIMTIH
 70
     0
  9
$DIMTOH
 70
     0
  9
$DIMSE1
 70
     0
  9
$DIMSE2
 70
     0
  9
$DIMTAD
 70
     1
  9
$DIMZIN
 70
     8
  9
$DIMBLK
  1
Closed
  9
$DIMASO
 70
     1
  9
$DIMSHO
 70
     1
  9
$DIMPOST
  1

  9
$DIMAPOST
  1

  9
$DIMALT
 70
     0
  9
$DIMALTD
 70
     3
  9
$DIMALTF
 40
0.03937007874016
  9
$DIMLFAC
 40
1.0
  9
$DIMTOFL
 70
     1
  9
$DIMTVP
 40
0.0
  9
$DIMTIX
 70
     0
  9
$DIMSOXD
 70
     0
  9
$DIMSAH
 70
     0
  9
$DIMBLK1
  1

  9
$DIMBLK2
  1

  9
$DIMSTYLE
  2
sunpo
  9
$DIMCLRD
 70
     0
  9
$DIMCLRE
 70
     0
  9
$DIMCLRT
 70
     0
  9
$DIMTFAC
 40
1.0
  9
$DIMGAP
 40
1.0
  9
$DIMJUST
 70
     0
  9
$DIMSD1
 70
     0
  9
$DIMSD2
 70
     0
  9
$DIMTOLJ
 70
     0
  9
$DIMTZIN
 70
     8
  9
$DIMALTZ
 70
     0
  9
$DIMALTTZ
 70
     0
  9
$DIMUPT
 70
     0
  9
$DIMDEC
 70
     2
  9
$DIMTDEC
 70
     2
  9
$DIMALTU
 70
     2
  9
$DIMALTTD
 70
     3
  9
$DIMTXSTY
  7
OKANO
  9
$DIMAUNIT
 70
     0
  9
$DIMADEC
 70
     0
  9
$DIMALTRND
 40
0.0
  9
$DIMAZIN
 70
     0
  9
$DIMDSEP
 70
    46
  9
$DIMATFIT
 70
     3
  9
$DIMFRAC
 70
     0
  9
$DIMLDRBLK
  1
Closed
  9
$DIMLUNIT
 70
     2
  9
$DIMLWD
 70
    -2
  9
$DIMLWE
 70
    -2
  9
$DIMTMOVE
 70
     0
  9
$LUNITS
 70
     2
  9
$LUPREC
 70
     2
  9
$SKETCHINC
 40
1.0
  9
$FILLETRAD
 40
0.5
  9
$AUNITS
 70
     0
  9
$AUPREC
 70
     0
  9
$MENU
  1
.
  9
$ELEVATION
 40
0.0
  9
$PELEVATION
 40
0.0
  9
$THICKNESS
 40
0.0
  9
$LIMCHECK
 70
     0
  9
$CHAMFERA
 40
10.0
  9
$CHAMFERB
 40
10.0
  9
$CHAMFERC
 40
20.0
  9
$CHAMFERD
 40
0.0
  9
$SKPOLY
 70
     0
  9
$TDCREATE
 40
2452362.482225463
  9
$TDUCREATE
 40
2452362.107225463
  9
$TDUPDATE
 40
2456542.477758877
  9
$TDUUPDATE
 40
2456542.102758877
  9
$TDINDWG
 40
2.1660227315
  9
$TDUSRTIMER
 40
2.1660227315
  9
$USRTIMER
 70
     1
  9
$ANGBASE
 50
0.0
  9
$ANGDIR
 70
     0
  9
$PDMODE
 70
     0
  9
$PDSIZE
 40
0.0
  9
$PLINEWID
 40
0.0
  9
$SPLFRAME
 70
     0
  9
$SPLINETYPE
 70
     6
  9
$SPLINESEGS
 70
     8
  9
$HANDSEED
  5
3231
  9
$SURFTAB1
 70
     6
  9
$SURFTAB2
 70
     6
  9
$SURFTYPE
 70
     6
  9
$SURFU
 70
     6
  9
$SURFV
 70
     6
  9
$UCSBASE
  2

  9
$UCSNAME
  2

  9
$UCSORG
 10
0.0
 20
0.0
 30
0.0
  9
$UCSXDIR
 10
1.0
 20
0.0
 30
0.0
  9
$UCSYDIR
 10
0.0
 20
1.0
 30
0.0
  9
$UCSORTHOREF
  2

  9
$UCSORTHOVIEW
 70
     0
  9
$UCSORGTOP
 10
0.0
 20
0.0
 30
0.0
  9
$UCSORGBOTTOM
 10
0.0
 20
0.0
 30
0.0
  9
$UCSORGLEFT
 10
0.0
 20
0.0
 30
0.0
  9
$UCSORGRIGHT
 10
0.0
 20
0.0
 30
0.0
  9
$UCSORGFRONT
 10
0.0
 20
0.0
 30
0.0
  9
$UCSORGBACK
 10
0.0
 20
0.0
 30
0.0
  9
$PUCSBASE
  2

  9
$PUCSNAME
  2

  9
$PUCSORG
 10
0.0
 20
0.0
 30
0.0
  9
$PUCSXDIR
 10
1.0
 20
0.0
 30
0.0
  9
$PUCSYDIR
 10
0.0
 20
1.0
 30
0.0
  9
$PUCSORTHOREF
  2

  9
$PUCSORTHOVIEW
 70
     0
  9
$PUCSORGTOP
 10
0.0
 20
0.0
 30
0.0
  9
$PUCSORGBOTTOM
 10
0.0
 20
0.0
 30
0.0
  9
$PUCSORGLEFT
 10
0.0
 20
0.0
 30
0.0
  9
$PUCSORGRIGHT
 10
0.0
 20
0.0
 30
0.0
  9
$PUCSORGFRONT
 10
0.0
 20
0.0
 30
0.0
  9
$PUCSORGBACK
 10
0.0
 20
0.0
 30
0.0
  9
$USERI1
 70
     0
  9
$USERI2
 70
     0
  9
$USERI3
 70
     0
  9
$USERI4
 70
     0
  9
$USERI5
 70
     0
  9
$USERR1
 40
0.0
  9
$USERR2
 40
0.0
  9
$USERR3
 40
0.0
  9
$USERR4
 40
0.0
  9
$USERR5
 40
0.0
  9
$WORLDVIEW
 70
     1
  9
$SHADEDGE
 70
     3
  9
$SHADEDIF
 70
    70
  9
$TILEMODE
 70
     0
  9
$MAXACTVP
 70
    64
  9
$PINSBASE
 10
0.0
 20
0.0
 30
0.0
  9
$PLIMCHECK
 70
     0
  9
$PEXTMIN
 10
-4.400932062405672
 20
-3.459116387827521
 30
-0.0015258207003583
  9
$PEXTMAX
 10
278.8478616361952
 20
202.393946056399
 30
0.0000000349246037
  9
$PLIMMIN
 10
-3.757080078125
 20
-3.757083177566528
  9
$PLIMMAX
 10
293.2112426757812
 20
206.2162444591522
  9
$UNITMODE
 70
     0
  9
$VISRETAIN
 70
     1
  9
$PLINEGEN
 70
     0
  9
$PSLTSCALE
 70
     1
  9
$TREEDEPTH
 70
  3020
  9
$CMLSTYLE
  2
Standard
  9
$CMLJUST
 70
     0
  9
$CMLSCALE
 40
20.0
  9
$PROXYGRAPHICS
 70
     1
  9
$MEASUREMENT
 70
     1
  9
$CELWEIGHT
370
    -1
  9
$ENDCAPS
280
     0
  9
$JOINSTYLE
280
     0
  9
$LWDISPLAY
290
     0
  9
$INSUNITS
 70
     4
  9
$HYPERLINKBASE
  1

  9
$STYLESHEET
  1

  9
$XEDIT
290
     1
  9
$CEPSNTYPE
380
     0
  9
$PSTYLEMODE
290
     1
  9
$FINGERPRINTGUID
  2
{FF7F33C3-4233-11D6-AEE0-0000F45FD7F4}
  9
$VERSIONGUID
  2
{43DF545A-D279-456C-9C6C-1905BE456595}
  9
$EXTNAMES
290
     1
  9
$PSVPSCALE
 40
0.0
  9
$OLESTARTUP
290
     0
  0
ENDSEC
  0
SECTION
  2
CLASSES
  0
CLASS
  1
ACDBDICTIONARYWDFLT
  2
AcDbDictionaryWithDefault
  3
AutoCAD 2000
 90
        0
280
     0
281
     0
  0
CLASS
  1
ACDBPLACEHOLDER
  2
AcDbPlaceHolder
  3
AutoCAD 2000
 90
        0
280
     0
281
     0
  0
CLASS
  1
LAYOUT
  2
AcDbLayout
  3
AutoCAD 2000
 90
        0
280
     0
281
     0
  0
CLASS
  1
DICTIONARYVAR
  2
AcDbDictionaryVar
  3
AutoCAD 2000
 90
        0
280
     0
281
     0
  0
ENDSEC
  0
SECTION
  2
TABLES
  0
TABLE
  2
VPORT
  5
8
330
0
100
AcDbSymbolTable
 70
     1
  0
VPORT
  5
322A
330
8
100
AcDbSymbolTableRecord
100
AcDbViewportTableRecord
  2
*Active
 70
     0
 10
0.0
 20
0.0
 11
1.0
 21
1.0
 12
173.0419001168707
 22
61.76873148267862
 13
0.0
 23
0.0
 14
5.0
 24
5.0
 15
10.0
 25
10.0
 16
0.0
 26
0.0
 36
1.0
 17
0.0
 27
0.0
 37
0.0
 40
442.6156358136847
 41
2.205499276410998
 42
50.0
 43
0.0
 44
0.0
 50
0.0
 51
0.0
 71
     0
 72
   100
 73
     1
 74
     3
 75
     0
 76
     0
 77
     0
 78
     0
281
     0
 65
     1
110
0.0
120
0.0
130
0.0
111
1.0
121
0.0
131
0.0
112
0.0
122
1.0
132
0.0
 79
     0
146
0.0
  0
ENDTAB
  0
TABLE
  2
LTYPE
  5
5
330
0
100
AcDbSymbolTable
 70
     5
  0
LTYPE
  5
14
330
5
100
AcDbSymbolTableRecord
100
AcDbLinetypeTableRecord
  2
ByBlock
 70
     0
  3

 72
    65
 73
     0
 40
0.0
  0
LTYPE
  5
15
330
5
100
AcDbSymbolTableRecord
100
AcDbLinetypeTableRecord
  2
ByLayer
 70
     0
  3

 72
    65
 73
     0
 40
0.0
  0
LTYPE
  5
16
330
5
100
AcDbSymbolTableRecord
100
AcDbLinetypeTableRecord
  2
Continuous
 70
     0
  3
Solid line
 72
    65
 73
     0
 40
0.0
  0
LTYPE
  5
33
330
5
100
AcDbSymbolTableRecord
100
AcDbLinetypeTableRecord
  2
DASHED2
 70
     0
  3
Dashed (.5x) _ _ _ _ _ _ _ _ _ _ _ _ _ _ _ _ _
 72
    65
 73
     2
 40
9.524999999999998
 49
6.349999999999999
 74
     0
 49
-3.174999999999999
 74
     0
  0
LTYPE
  5
34
330
5
100
AcDbSymbolTableRecord
100
AcDbLinetypeTableRecord
  2
CENTER2
 70
     0
  3
Center (.5x) ___ _ ___ _ ___ _ ___ _ ___ _ ___
 72
    65
 73
     4
 40
28.57499999999999
 49
19.05
 74
     0
 49
-3.174999999999999
 74
     0
 49
3.174999999999999
 74
     0
 49
-3.174999999999999
 74
     0
  0
LTYPE
  5
35
330
5
100
AcDbSymbolTableRecord
100
AcDbLinetypeTableRecord
  2
PHANTOM2
 70
     0
  3
Phantom (.5x) ___ _ _ ___ _ _ ___ _ _ ___ _ _
 72
    65
 73
     6
 40
31.75
 49
15.875
 74
     0
 49
-3.174999999999999
 74
     0
 49
3.174999999999999
 74
     0
 49
-3.174999999999999
 74
     0
 49
3.174999999999999
 74
     0
 49
-3.174999999999999
 74
     0
  0
LTYPE
  5
36
330
5
100
AcDbSymbolTableRecord
100
AcDbLinetypeTableRecord
  2
HIDDEN2
 70
     0
  3
Hidden (.5x) _ _ _ _ _ _ _ _ _ _ _ _ _ _ _ _ _
 72
    65
 73
     2
 40
4.762499999999999
 49
3.174999999999999
 74
     0
 49
-1.587499999999999
 74
     0
  0
ENDTAB
  0
TABLE
  2
LAYER
  5
2
330
0
100
AcDbSymbolTable
 70
    13
  0
LAYER
  5
10
330
2
100
AcDbSymbolTableRecord
100
AcDbLayerTableRecord
  2
0
 70
     0
 62
     7
  6
Continuous
370
    -3
390
F
  0
LAYER
  5
40
330
2
100
AcDbSymbolTableRecord
100
AcDbLayerTableRecord
  2
50-0-CON
 70
     0
 62
     4
  6
Continuous
370
    50
390
F
  0
LAYER
  5
41
330
2
100
AcDbSymbolTableRecord
100
AcDbLayerTableRecord
  2
70-0-CON
 70
     0
 62
   202
  6
Continuous
370
    70
390
F
  0
LAYER
  5
4E
330
2
100
AcDbSymbolTableRecord
100
AcDbLayerTableRecord
  2
極太線
 70
     0
 62
     7
  6
Continuous
370
    70
390
F
  0
LAYER
  5
4F
330
2
100
AcDbSymbolTableRecord
100
AcDbLayerTableRecord
  2
細線
 70
     0
 62
     8
  6
Continuous
370
    18
390
F
  0
LAYER
  5
AB
330
2
100
AcDbSymbolTableRecord
100
AcDbLayerTableRecord
  2
構築線
 70
     0
 62
    -2
  6
Continuous
370
    18
390
F
  0
LAYER
  5
B8
330
2
100
AcDbSymbolTableRecord
100
AcDbLayerTableRecord
  2
太線
 70
     0
 62
     7
  6
Continuous
370
    35
390
F
  0
LAYER
  5
B9
330
2
100
AcDbSymbolTableRecord
100
AcDbLayerTableRecord
  2
寸法線
 70
     0
 62
     5
  6
Continuous
370
    18
390
F
  0
LAYER
  5
BA
330
2
100
AcDbSymbolTableRecord
100
AcDbLayerTableRecord
  2
破線
 70
     0
 62
     8
  6
HIDDEN2
370
    18
390
F
  0
LAYER
  5
BB
330
2
100
AcDbSymbolTableRecord
100
AcDbLayerTableRecord
  2
中心線
 70
     0
 62
     1
  6
CENTER2
370
    18
390
F
  0
LAYER
  5
BC
330
2
100
AcDbSymbolTableRecord
100
AcDbLayerTableRecord
  2
想像線
 70
     0
 62
     8
  6
PHANTOM2
370
    18
390
F
  0
LAYER
  5
BD
330
2
100
AcDbSymbolTableRecord
100
AcDbLayerTableRecord
  2
文字
 70
     0
 62
     7
  6
Continuous
370
    18
390
F
  0
LAYER
  5
180
330
2
100
AcDbSymbolTableRecord
100
AcDbLayerTableRecord
  2
Defpoints
 70
     0
 62
     7
  6
Continuous
290
     0
370
    -3
390
F
  0
ENDTAB
  0
TABLE
  2
STYLE
  5
3
330
0
100
AcDbSymbolTable
 70
     3
  0
STYLE
  5
11
330
3
100
AcDbSymbolTableRecord
100
AcDbTextStyleTableRecord
  2
Standard
 70
     0
 40
0.0
 41
1.0
 50
0.0
 71
     0
 42
3.0
  3
txt
  4

  0
STYLE
  5
32
330
3
100
AcDbSymbolTableRecord
100
AcDbTextStyleTableRecord
  2

 70
     1
 40
0.0
 41
1.0
 50
0.0
 71
     0
 42
2.5
  3
ltypeshp.shx
  4

  0
STYLE
  5
50
330
3
100
AcDbSymbolTableRecord
100
AcDbTextStyleTableRecord
  2
OKANO
 70
     0
 40
0.0
 41
1.0
 50
15.0
 71
     0
 42
5.0
  3
isocp.shx
  4
bigfont.shx
  0
ENDTAB
  0
TABLE
  2
VIEW
  5
6
330
0
100
AcDbSymbolTable
 70
     0
  0
ENDTAB
  0
TABLE
  2
UCS
  5
7
330
0
100
AcDbSymbolTable
 70
     0
  0
ENDTAB
  0
TABLE
  2
APPID
  5
9
330
0
100
AcDbSymbolTable
 70
     1
  0
APPID
  5
12
330
9
100
AcDbSymbolTableRecord
100
AcDbRegAppTableRecord
  2
ACAD
 70
     0
  0
ENDTAB
  0
TABLE
  2
DIMSTYLE
  5
A
330
0
100
AcDbSymbolTable
 70
     2
100
AcDbDimStyleTable
 71
     2
340
A2
340
27
  0
DIMSTYLE
105
27
330
A
100
AcDbSymbolTableRecord
100
AcDbDimStyleTableRecord
  2
ISO-25
 70
     0
 41
2.5
 42
0.625
 43
3.75
 44
1.25
 73
     0
 74
     0
 77
     1
 78
     8
140
2.5
141
2.5
143
0.03937007874016
147
0.625
171
     3
172
     1
271
     2
272
     2
274
     3
283
     0
284
     8
340
11
  0
DIMSTYLE
105
A2
102
{ACAD_REACTORS
330
2B0D
330
2B29
330
2C0C
330
2C1B
330
2C28
330
2C56
330
2C9C
330
2CBF
330
2CE5
330
2CFF
330
2D0E
330
2D1B
330
2D49
330
2D5F
330
2DA6
330
2DBC
330
2DC9
330
2DD8
330
2DE5
330
2E2D
102
}
330
A
100
AcDbSymbolTableRecord
100
AcDbDimStyleTableRecord
  2
sunpo
 70
     0
 40
0.0
 41
3.0
 42
2.0
 43
8.0
 44
3.0
 73
     0
 74
     0
 77
     1
 78
     8
140
5.0
141
2.5
143
0.03937007874016
147
1.0
171
     3
172
     1
271
     2
272
     2
274
     3
283
     0
284
     8
340
50
341
9B
342
9B
  0
ENDTAB
  0
TABLE
  2
BLOCK_RECORD
  5
1
330
0
100
AcDbSymbolTable
 70
    22
  0
BLOCK_RECORD
  5
1F
330
1
100
AcDbSymbolTableRecord
100
AcDbBlockTableRecord
  2
*Model_Space
340
22
  0
BLOCK_RECORD
  5
1B
330
1
100
AcDbSymbolTableRecord
100
AcDbBlockTableRecord
  2
*Paper_Space
340
1E
  0
BLOCK_RECORD
  5
9B
330
1
100
AcDbSymbolTableRecord
100
AcDbBlockTableRecord
  2
_Closed
340
0
102
{BLKREFS
331
2B12
331
2B13
331
2B2F
331
2B30
331
2C3C
331
2C3D
331
2C45
331
2C46
331
2C50
331
2C51
331
2CAC
331
2CAD
331
2CCF
331
2CD0
331
2CF9
331
2CFA
331
2D2F
331
2D30
331
2D38
331
2D39
331
2D43
331
2D44
331
2D59
331
2D5A
331
2D73
331
2D74
331
2DB6
331
2DB7
331
2DC1
331
2DC2
331
2E06
331
2E07
331
2E0F
331
2E10
331
2E1A
331
2E1B
331
2E32
331
2E33
331
2E5B
331
2E5C
102
}
  0
BLOCK_RECORD
  5
1510
330
1
100
AcDbSymbolTableRecord
100
AcDbBlockTableRecord
  2
A$C10A573AC
340
0
  0
BLOCK_RECORD
  5
2B0E
330
1
100
AcDbSymbolTableRecord
100
AcDbBlockTableRecord
  2
*D2
340
0
  0
BLOCK_RECORD
  5
2B2A
330
1
100
AcDbSymbolTableRecord
100
AcDbBlockTableRecord
  2
*D3
340
0
  0
BLOCK_RECORD
  5
2C0D
330
1
100
AcDbSymbolTableRecord
100
AcDbBlockTableRecord
  2
*D4
340
0
  0
BLOCK_RECORD
  5
2C1C
330
1
100
AcDbSymbolTableRecord
100
AcDbBlockTableRecord
  2
*D5
340
0
  0
BLOCK_RECORD
  5
2C29
330
1
100
AcDbSymbolTableRecord
100
AcDbBlockTableRecord
  2
*D6
340
0
  0
BLOCK_RECORD
  5
2C57
330
1
100
AcDbSymbolTableRecord
100
AcDbBlockTableRecord
  2
*D7
340
0
  0
BLOCK_RECORD
  5
2C9D
330
1
100
AcDbSymbolTableRecord
100
AcDbBlockTableRecord
  2
*D8
340
0
  0
BLOCK_RECORD
  5
2CC0
330
1
100
AcDbSymbolTableRecord
100
AcDbBlockTableRecord
  2
*D9
340
0
  0
BLOCK_RECORD
  5
2CE6
330
1
100
AcDbSymbolTableRecord
100
AcDbBlockTableRecord
  2
*D10
340
0
  0
BLOCK_RECORD
  5
2D00
330
1
100
AcDbSymbolTableRecord
100
AcDbBlockTableRecord
  2
*D11
340
0
  0
BLOCK_RECORD
  5
2D0F
330
1
100
AcDbSymbolTableRecord
100
AcDbBlockTableRecord
  2
*D12
340
0
  0
BLOCK_RECORD
  5
2D1C
330
1
100
AcDbSymbolTableRecord
100
AcDbBlockTableRecord
  2
*D13
340
0
  0
BLOCK_RECORD
  5
2D4A
330
1
100
AcDbSymbolTableRecord
100
AcDbBlockTableRecord
  2
*D14
340
0
  0
BLOCK_RECORD
  5
2D60
330
1
100
AcDbSymbolTableRecord
100
AcDbBlockTableRecord
  2
*D15
340
0
  0
BLOCK_RECORD
  5
2DA7
330
1
100
AcDbSymbolTableRecord
100
AcDbBlockTableRecord
  2
*D16
340
0
  0
BLOCK_RECORD
  5
2DBD
330
1
100
AcDbSymbolTableRecord
100
AcDbBlockTableRecord
  2
*D17
340
0
  0
BLOCK_RECORD
  5
2DCA
330
1
100
AcDbSymbolTableRecord
100
AcDbBlockTableRecord
  2
*D18
340
0
  0
BLOCK_RECORD
  5
2DD9
330
1
100
AcDbSymbolTableRecord
100
AcDbBlockTableRecord
  2
*D19
340
0
  0
BLOCK_RECORD
  5
2DE6
330
1
100
AcDbSymbolTableRecord
100
AcDbBlockTableRecord
  2
*D20
340
0
  0
BLOCK_RECORD
  5
2E2E
330
1
100
AcDbSymbolTableRecord
100
AcDbBlockTableRecord
  2
*D21
340
0
  0
ENDTAB
  0
ENDSEC
  0
SECTION
  2
BLOCKS
  0
BLOCK
  5
20
330
1F
100
AcDbEntity
  8
0
100
AcDbBlockBegin
  2
*Model_Space
 70
     0
 10
0.0
 20
0.0
 30
0.0
  3
*Model_Space
  1

  0
ENDBLK
  5
21
330
1F
100
AcDbEntity
  8
0
100
AcDbBlockEnd
  0
BLOCK
  5
1C
330
1B
100
AcDbEntity
 67
     1
  8
0
100
AcDbBlockBegin
  2
*Paper_Space
 70
     0
 10
0.0
 20
0.0
 30
0.0
  3
*Paper_Space
  1

  0
ENDBLK
  5
1D
330
1B
100
AcDbEntity
 67
     1
  8
0
100
AcDbBlockEnd
  0
BLOCK
  5
A0
330
9B
100
AcDbEntity
  8
0
100
AcDbBlockBegin
  2
_Closed
 70
     0
 10
0.0
 20
0.0
 30
0.0
  3
_Closed
  1

  0
LINE
  5
9C
330
9B
100
AcDbEntity
  8
0
 62
     0
370
    -2
100
AcDbLine
 10
-1.0
 20
0.1666666666666666
 30
0.0
 11
0.0
 21
0.0
 31
0.0
  0
LINE
  5
9D
330
9B
100
AcDbEntity
  8
0
 62
     0
370
    -2
100
AcDbLine
 10
0.0
 20
0.0
 30
0.0
 11
-1.0
 21
-0.1666666666666666
 31
0.0
  0
LINE
  5
9E
330
9B
100
AcDbEntity
  8
0
 62
     0
370
    -2
100
AcDbLine
 10
-1.0
 20
0.1666666666666666
 30
0.0
 11
-1.0
 21
-0.1666666666666666
 31
0.0
  0
LINE
  5
9F
330
9B
100
AcDbEntity
  8
0
 62
     0
370
    -2
100
AcDbLine
 10
0.0
 20
0.0
 30
0.0
 11
-1.0
 21
0.0
 31
0.0
  0
ENDBLK
  5
A1
330
9B
100
AcDbEntity
  8
0
100
AcDbBlockEnd
  0
BLOCK
  5
155B
330
1510
100
AcDbEntity
  8
0
100
AcDbBlockBegin
  2
A$C10A573AC
 70
     0
 10
0.0
 20
0.0
 30
0.0
  3
A$C10A573AC
  1

  0
TEXT
  5
1511
330
1510
100
AcDbEntity
  8
文字
100
AcDbText
 10
0.9844302777919438
 20
5.224957122252135
 30
0.0
 40
3.0
  1
Materal : Steel.
 51
15.0
  7
OKANO
100
AcDbText
  0
TEXT
  5
1512
330
1510
100
AcDbEntity
  8
文字
100
AcDbText
 10
-0.1141909619694843
 20
0.7500001922403499
 30
0.0
 40
3.0
  1
Surface treatment : Electro galvanized.
 51
15.0
  7
OKANO
100
AcDbText
  0
TEXT
  5
1513
330
1510
100
AcDbEntity
  8
文字
100
AcDbText
 10
-0.4901926332574931
 20
9.159967445193728
 30
0.0
 40
3.0
  1
5 TORGUE SCREW  M5-6
 51
15.0
  7
OKANO
100
AcDbText
  0
TEXT
  5
1514
330
1510
100
AcDbEntity
  8
文字
100
AcDbText
 10
1.364713526390005
 20
78.88822913323082
 30
0.0
 40
3.0
  1
Special standard,
 51
15.0
  7
OKANO
100
AcDbText
  0
TEXT
  5
1515
330
1510
100
AcDbEntity
  8
文字
100
AcDbText
 10
92.88160823408942
 20
89.92753849837379
 30
0.0
 40
3.0
  1
Screw Type
 51
15.0
  7
OKANO
100
AcDbText
  0
LINE
  5
1516
330
1510
100
AcDbEntity
  8
太線
100
AcDbLine
 10
113.9464587597784
 20
81.93930390144641
 30
0.0
 11
112.4464587597784
 21
81.93930390144641
 31
0.0
  0
LINE
  5
1517
330
1510
100
AcDbEntity
  8
太線
100
AcDbLine
 10
112.4464587597784
 20
76.9393039014464
 30
0.0
 11
121.4644995438761
 21
76.9393039014464
 31
0.0
  0
TEXT
  5
1518
330
1510
100
AcDbEntity
  8
文字
100
AcDbText
 10
93.46068240437217
 20
77.96976862235396
 30
0.0
 40
2.0
  1
17-30
 51
15.0
  7
OKANO
100
AcDbText
  0
LINE
  5
1519
330
1510
100
AcDbEntity
  8
太線
100
AcDbLine
 10
111.9464587597784
 20
81.43930390144641
 30
0.0
 11
111.9464587597784
 21
77.4393039014464
 31
0.0
  0
LINE
  5
151A
330
1510
100
AcDbEntity
  8
太線
100
AcDbLine
 10
91.94645875977846
 20
81.43930390144641
 30
0.0
 11
91.94645875977846
 21
77.43930390144639
 31
0.0
  0
LINE
  5
151B
330
1510
100
AcDbEntity
  8
太線
100
AcDbLine
 10
101.9644995438761
 20
77.4393039014464
 30
0.0
 11
101.9644995438761
 21
81.43930390144641
 31
0.0
  0
LINE
  5
151C
330
1510
100
AcDbEntity
  8
太線
100
AcDbLine
 10
92.44645875977846
 20
76.9393039014464
 30
0.0
 11
101.4644995438761
 21
76.9393039014464
 31
0.0
  0
ARC
  5
151D
330
1510
100
AcDbEntity
  8
太線
100
AcDbCircle
 10
92.44645875977846
 20
77.43930390144639
 30
0.0
 40
0.5
100
AcDbArc
 50
180.0
 51
270.0
  0
ARC
  5
151E
330
1510
100
AcDbEntity
  8
太線
100
AcDbCircle
 10
101.4644995438761
 20
77.4393039014464
 30
0.0
 40
0.5
100
AcDbArc
 50
270.0
 51
0.0
  0
ARC
  5
151F
330
1510
100
AcDbEntity
  8
太線
100
AcDbCircle
 10
112.4464587597784
 20
77.4393039014464
 30
0.0
 40
0.5
100
AcDbArc
 50
180.0
 51
270.0
  0
LINE
  5
1520
330
1510
100
AcDbEntity
  8
想像線
100
AcDbLine
 10
93.94645875977847
 20
81.93930390144641
 30
0.0
 11
99.96449954387617
 21
81.93930390144641
 31
0.0
  0
LINE
  5
1521
330
1510
100
AcDbEntity
  8
極太線
100
AcDbLine
 10
96.38762957111168
 20
85.43930390144641
 30
0.0
 11
97.50528794844525
 21
85.43930390144641
 31
0.0
  0
CIRCLE
  5
1522
330
1510
100
AcDbEntity
  8
太線
100
AcDbCircle
 10
96.94645875977847
 20
85.43930390144641
 30
0.0
 40
0.5588291886667776
  0
LINE
  5
1523
330
1510
100
AcDbEntity
  8
太線
100
AcDbLine
 10
99.46449954387617
 20
86.93930390144641
 30
0.0
 11
94.44645875977846
 21
86.93930390144641
 31
0.0
  0
LINE
  5
1524
330
1510
100
AcDbEntity
  8
太線
100
AcDbLine
 10
93.94645875977847
 20
86.43930390144641
 30
0.0
 11
93.94645875977847
 21
81.93930390144641
 31
0.0
  0
ARC
  5
1525
330
1510
100
AcDbEntity
  8
太線
100
AcDbCircle
 10
92.44645875977846
 20
81.43930390144641
 30
0.0
 40
0.5
100
AcDbArc
 50
90.0
 51
180.0
  0
LINE
  5
1526
330
1510
100
AcDbEntity
  8
太線
100
AcDbLine
 10
93.94645875977847
 20
81.93930390144641
 30
0.0
 11
92.44645875977846
 21
81.93930390144641
 31
0.0
  0
ARC
  5
1527
330
1510
100
AcDbEntity
  8
太線
100
AcDbCircle
 10
94.44645875977846
 20
86.43930390144641
 30
0.0
 40
0.5
100
AcDbArc
 50
90.0
 51
180.0
  0
LINE
  5
1528
330
1510
100
AcDbEntity
  8
太線
100
AcDbLine
 10
99.96449954387617
 20
81.93930390144641
 30
0.0
 11
99.96449954387617
 21
86.43930390144641
 31
0.0
  0
LINE
  5
1529
330
1510
100
AcDbEntity
  8
太線
100
AcDbLine
 10
101.4644995438761
 20
81.93930390144641
 30
0.0
 11
99.96449954387617
 21
81.93930390144641
 31
0.0
  0
ARC
  5
152A
330
1510
100
AcDbEntity
  8
太線
100
AcDbCircle
 10
101.4644995438761
 20
81.43930390144641
 30
0.0
 40
0.5
100
AcDbArc
 50
0.0
 51
90.0
  0
ARC
  5
152B
330
1510
100
AcDbEntity
  8
太線
100
AcDbCircle
 10
99.46449954387617
 20
86.43930390144641
 30
0.0
 40
0.5
100
AcDbArc
 50
0.0
 51
90.0
  0
LINE
  5
152C
330
1510
100
AcDbEntity
  8
極太線
100
AcDbLine
 10
96.94645875977847
 20
85.99813309011318
 30
0.0
 11
96.94645875977847
 21
84.88047471277964
 31
0.0
  0
ARC
  5
152D
330
1510
100
AcDbEntity
  8
太線
100
AcDbCircle
 10
112.4464587597784
 20
81.43930390144641
 30
0.0
 40
0.5
100
AcDbArc
 50
90.0
 51
180.0
  0
TEXT
  5
152E
330
1510
100
AcDbEntity
  8
文字
100
AcDbText
 10
134.3819212586066
 20
78.16263579228063
 30
0.0
 40
2.0
  1
101
 51
15.0
  7
OKANO
100
AcDbText
  0
TEXT
  5
152F
330
1510
100
AcDbEntity
  8
文字
100
AcDbText
 10
113.3422276612066
 20
77.96976862235396
 30
0.0
 40
2.0
  1
38-83
 51
15.0
  7
OKANO
100
AcDbText
  0
LINE
  5
1530
330
1510
100
AcDbEntity
  8
太線
100
AcDbLine
 10
141.9825403279738
 20
77.4393039014464
 30
0.0
 11
141.9825403279738
 21
81.43930390144641
 31
0.0
  0
LINE
  5
1531
330
1510
100
AcDbEntity
  8
太線
100
AcDbLine
 10
131.9644995438761
 20
81.43930390144641
 30
0.0
 11
131.9644995438761
 21
77.4393039014464
 31
0.0
  0
LINE
  5
1532
330
1510
100
AcDbEntity
  8
太線
100
AcDbLine
 10
121.9644995438761
 20
77.4393039014464
 30
0.0
 11
121.9644995438761
 21
81.43930390144641
 31
0.0
  0
ARC
  5
1533
330
1510
100
AcDbEntity
  8
太線
100
AcDbCircle
 10
121.4644995438761
 20
77.4393039014464
 30
0.0
 40
0.5
100
AcDbArc
 50
270.0
 51
0.0
  0
LINE
  5
1534
330
1510
100
AcDbEntity
  8
太線
100
AcDbLine
 10
132.4644995438761
 20
76.9393039014464
 30
0.0
 11
141.4825403279738
 21
76.9393039014464
 31
0.0
  0
ARC
  5
1535
330
1510
100
AcDbEntity
  8
太線
100
AcDbCircle
 10
132.4644995438761
 20
77.4393039014464
 30
0.0
 40
0.5
100
AcDbArc
 50
180.0
 51
270.0
  0
ARC
  5
1536
330
1510
100
AcDbEntity
  8
太線
100
AcDbCircle
 10
141.4825403279738
 20
77.4393039014464
 30
0.0
 40
0.5
100
AcDbArc
 50
270.0
 51
0.0
  0
ARC
  5
1537
330
1510
100
AcDbEntity
  8
太線
100
AcDbCircle
 10
121.4644995438761
 20
81.43930390144641
 30
0.0
 40
0.5
100
AcDbArc
 50
0.0
 51
90.0
  0
LINE
  5
1538
330
1510
100
AcDbEntity
  8
太線
100
AcDbLine
 10
119.9644995438761
 20
81.93930390144641
 30
0.0
 11
119.9644995438761
 21
86.43930390144641
 31
0.0
  0
LINE
  5
1539
330
1510
100
AcDbEntity
  8
太線
100
AcDbLine
 10
113.9464587597784
 20
86.43930390144641
 30
0.0
 11
113.9464587597784
 21
81.93930390144641
 31
0.0
  0
LINE
  5
153A
330
1510
100
AcDbEntity
  8
想像線
100
AcDbLine
 10
113.9464587597784
 20
81.93930390144641
 30
0.0
 11
119.9644995438761
 21
81.93930390144641
 31
0.0
  0
LINE
  5
153B
330
1510
100
AcDbEntity
  8
太線
100
AcDbLine
 10
121.4644995438761
 20
81.93930390144641
 30
0.0
 11
119.9644995438761
 21
81.93930390144641
 31
0.0
  0
LINE
  5
153C
330
1510
100
AcDbEntity
  8
太線
100
AcDbLine
 10
119.4644995438761
 20
86.93930390144641
 30
0.0
 11
114.4464587597784
 21
86.93930390144641
 31
0.0
  0
ARC
  5
153D
330
1510
100
AcDbEntity
  8
太線
100
AcDbCircle
 10
114.4464587597784
 20
86.43930390144641
 30
0.0
 40
0.5
100
AcDbArc
 50
90.0
 51
180.0
  0
CIRCLE
  5
153E
330
1510
100
AcDbEntity
  8
太線
100
AcDbCircle
 10
115.4464587597784
 20
85.43930390144641
 30
0.0
 40
0.5588291886667776
  0
LINE
  5
153F
330
1510
100
AcDbEntity
  8
極太線
100
AcDbLine
 10
115.4464587597784
 20
85.99813309011318
 30
0.0
 11
115.4464587597784
 21
84.88047471277964
 31
0.0
  0
LINE
  5
1540
330
1510
100
AcDbEntity
  8
極太線
100
AcDbLine
 10
114.8876295711116
 20
85.43930390144641
 30
0.0
 11
116.0052879484452
 21
85.43930390144641
 31
0.0
  0
ARC
  5
1541
330
1510
100
AcDbEntity
  8
太線
100
AcDbCircle
 10
119.4644995438761
 20
86.43930390144641
 30
0.0
 40
0.5
100
AcDbArc
 50
0.0
 51
90.0
  0
LINE
  5
1542
330
1510
100
AcDbEntity
  8
極太線
100
AcDbLine
 10
117.9056703552094
 20
85.43930390144641
 30
0.0
 11
119.0233287325429
 21
85.43930390144641
 31
0.0
  0
LINE
  5
1543
330
1510
100
AcDbEntity
  8
極太線
100
AcDbLine
 10
118.4644995438761
 20
85.99813309011318
 30
0.0
 11
118.4644995438761
 21
84.88047471277964
 31
0.0
  0
CIRCLE
  5
1544
330
1510
100
AcDbEntity
  8
太線
100
AcDbCircle
 10
118.4644995438761
 20
85.43930390144641
 30
0.0
 40
0.5588291886667776
  0
LINE
  5
1545
330
1510
100
AcDbEntity
  8
想像線
100
AcDbLine
 10
133.9644995438761
 20
81.93930390144641
 30
0.0
 11
139.9825403279738
 21
81.93930390144641
 31
0.0
  0
LINE
  5
1546
330
1510
100
AcDbEntity
  8
極太線
100
AcDbLine
 10
137.9237111393071
 20
85.43930390144641
 30
0.0
 11
139.0413695166406
 21
85.43930390144641
 31
0.0
  0
CIRCLE
  5
1547
330
1510
100
AcDbEntity
  8
太線
100
AcDbCircle
 10
138.4825403279738
 20
85.43930390144641
 30
0.0
 40
0.5588291886667776
  0
CIRCLE
  5
1548
330
1510
100
AcDbEntity
  8
太線
100
AcDbCircle
 10
138.4825403279738
 20
83.26342923362075
 30
0.0
 40
0.5588291886667776
  0
LINE
  5
1549
330
1510
100
AcDbEntity
  8
極太線
100
AcDbLine
 10
137.9237111393071
 20
83.26342923362075
 30
0.0
 11
139.0413695166406
 21
83.26342923362075
 31
0.0
  0
LINE
  5
154A
330
1510
100
AcDbEntity
  8
太線
100
AcDbLine
 10
139.4825403279738
 20
86.93930390144641
 30
0.0
 11
134.4644995438761
 21
86.93930390144641
 31
0.0
  0
LINE
  5
154B
330
1510
100
AcDbEntity
  8
太線
100
AcDbLine
 10
133.9644995438761
 20
86.43930390144641
 30
0.0
 11
133.9644995438761
 21
81.93930390144641
 31
0.0
  0
ARC
  5
154C
330
1510
100
AcDbEntity
  8
太線
100
AcDbCircle
 10
132.4644995438761
 20
81.43930390144641
 30
0.0
 40
0.5
100
AcDbArc
 50
90.0
 51
180.0
  0
LINE
  5
154D
330
1510
100
AcDbEntity
  8
太線
100
AcDbLine
 10
133.9644995438761
 20
81.93930390144641
 30
0.0
 11
132.4644995438761
 21
81.93930390144641
 31
0.0
  0
LINE
  5
154E
330
1510
100
AcDbEntity
  8
極太線
100
AcDbLine
 10
134.9056703552093
 20
83.26342923362075
 30
0.0
 11
136.0233287325429
 21
83.26342923362075
 31
0.0
  0
LINE
  5
154F
330
1510
100
AcDbEntity
  8
極太線
100
AcDbLine
 10
135.4644995438761
 20
83.82225842228752
 30
0.0
 11
135.4644995438761
 21
82.70460004495395
 31
0.0
  0
CIRCLE
  5
1550
330
1510
100
AcDbEntity
  8
太線
100
AcDbCircle
 10
135.4644995438761
 20
83.26342923362075
 30
0.0
 40
0.5588291886667776
  0
ARC
  5
1551
330
1510
100
AcDbEntity
  8
太線
100
AcDbCircle
 10
134.4644995438761
 20
86.43930390144641
 30
0.0
 40
0.5
100
AcDbArc
 50
90.0
 51
180.0
  0
CIRCLE
  5
1552
330
1510
100
AcDbEntity
  8
太線
100
AcDbCircle
 10
135.4644995438761
 20
85.43930390144641
 30
0.0
 40
0.5588291886667776
  0
LINE
  5
1553
330
1510
100
AcDbEntity
  8
極太線
100
AcDbLine
 10
135.4644995438761
 20
85.99813309011318
 30
0.0
 11
135.4644995438761
 21
84.88047471277964
 31
0.0
  0
LINE
  5
1554
330
1510
100
AcDbEntity
  8
極太線
100
AcDbLine
 10
134.9056703552093
 20
85.43930390144641
 30
0.0
 11
136.0233287325429
 21
85.43930390144641
 31
0.0
  0
LINE
  5
1555
330
1510
100
AcDbEntity
  8
太線
100
AcDbLine
 10
139.9825403279738
 20
81.93930390144641
 30
0.0
 11
139.9825403279738
 21
86.43930390144641
 31
0.0
  0
ARC
  5
1556
330
1510
100
AcDbEntity
  8
太線
100
AcDbCircle
 10
141.4825403279738
 20
81.43930390144641
 30
0.0
 40
0.5
100
AcDbArc
 50
0.0
 51
90.0
  0
LINE
  5
1557
330
1510
100
AcDbEntity
  8
極太線
100
AcDbLine
 10
138.4825403279738
 20
83.82225842228752
 30
0.0
 11
138.4825403279738
 21
82.70460004495395
 31
0.0
  0
LINE
  5
1558
330
1510
100
AcDbEntity
  8
太線
100
AcDbLine
 10
141.4825403279738
 20
81.93930390144641
 30
0.0
 11
139.9825403279738
 21
81.93930390144641
 31
0.0
  0
ARC
  5
1559
330
1510
100
AcDbEntity
  8
太線
100
AcDbCircle
 10
139.4825403279738
 20
86.43930390144641
 30
0.0
 40
0.5
100
AcDbArc
 50
0.0
 51
90.0
  0
LINE
  5
155A
330
1510
100
AcDbEntity
  8
極太線
100
AcDbLine
 10
138.4825403279738
 20
85.99813309011318
 30
0.0
 11
138.4825403279738
 21
84.88047471277964
 31
0.0
  0
ENDBLK
  5
155C
330
1510
100
AcDbEntity
  8
0
100
AcDbBlockEnd
  0
BLOCK
  5
2B18
330
2B0E
100
AcDbEntity
  8
0
100
AcDbBlockBegin
  2
*D2
 70
     1
 10
0.0
 20
0.0
 30
0.0
  3
*D2
  1

  0
LINE
  5
2B0F
330
2B0E
100
AcDbEntity
  8
寸法線
 62
     0
370
    -2
100
AcDbLine
 10
289.6414745488584
 20
150.4711488256961
 30
0.0
 11
298.2418428980147
 21
150.4711488256961
 31
0.0
  0
LINE
  5
2B10
330
2B0E
100
AcDbEntity
  8
寸法線
 62
     0
370
    -2
100
AcDbLine
 10
279.6414745488584
 20
125.4711488256961
 30
0.0
 11
298.2418428980147
 21
125.4711488256961
 31
0.0
  0
LINE
  5
2B11
330
2B0E
100
AcDbEntity
  8
寸法線
 62
     0
370
    -2
100
AcDbLine
 10
295.2418428980148
 20
147.4711488256961
 30
0.0
 11
295.2418428980148
 21
128.4711488256961
 31
0.0
  0
INSERT
  5
2B12
330
2B0E
100
AcDbEntity
  8
寸法線
 62
     0
370
    -2
100
AcDbBlockReference
  2
_Closed
 10
295.2418428980148
 20
150.4711488256961
 30
0.0
 41
3.0
 42
3.0
 43
3.0
 50
90.0
  0
INSERT
  5
2B13
330
2B0E
100
AcDbEntity
  8
寸法線
 62
     0
370
    -2
100
AcDbBlockReference
  2
_Closed
 10
295.2418428980147
 20
125.4711488256961
 30
0.0
 41
3.0
 42
3.0
 43
3.0
 50
270.0
  0
MTEXT
  5
2B14
330
2B0E
100
AcDbEntity
  8
寸法線
 62
     0
100
AcDbMText
 10
291.7413507720305
 20
137.9711488256961
 30
0.0
 40
5.0
 41
0.0
 71
     5
 72
     1
  1
25
  7
OKANO
 11
0.0000000000000001
 21
1.0
 31
0.0
 73
     1
 44
1.0
  0
POINT
  5
2B15
330
2B0E
100
AcDbEntity
  8
Defpoints
 62
     0
100
AcDbPoint
 10
287.6414745488584
 20
150.4711488256961
 30
0.0
  0
POINT
  5
2B16
330
2B0E
100
AcDbEntity
  8
Defpoints
 62
     0
100
AcDbPoint
 10
277.6414745488584
 20
125.4711488256961
 30
0.0
  0
POINT
  5
2B17
330
2B0E
100
AcDbEntity
  8
Defpoints
 62
     0
100
AcDbPoint
 10
295.2418428980147
 20
125.4711488256961
 30
0.0
  0
ENDBLK
  5
2B19
330
2B0E
100
AcDbEntity
  8
0
100
AcDbBlockEnd
  0
BLOCK
  5
2B33
330
2B2A
100
AcDbEntity
  8
0
100
AcDbBlockBegin
  2
*D3
 70
     1
 10
0.0
 20
0.0
 30
0.0
  3
*D3
  1

  0
LINE
  5
2B2B
330
2B2A
100
AcDbEntity
  8
寸法線
 62
     0
370
    -2
100
AcDbLine
 10
229.6768723951956
 20
170.8968000131558
 30
0.0
 11
217.8823665000986
 21
152.5205665505815
 31
0.0
  0
LINE
  5
2B2C
330
2B2A
100
AcDbEntity
  8
寸法線
 62
     0
370
    -2
100
AcDbLine
 10
211.4005825976182
 20
142.4217311008107
 30
0.0
 11
209.7801366219981
 21
139.8970222383681
 31
0.0
  0
MTEXT
  5
2B2D
330
2B2A
100
AcDbEntity
  8
寸法線
 62
     0
100
AcDbMText
 10
224.2965362383359
 20
168.9937545401559
 30
0.0
 40
5.0
 41
0.0
 71
     5
 72
     1
  1
\U+22056
  7
OKANO
 11
0.5401486585400337
 21
0.8415696208142271
 31
0.0
 73
     1
 44
1.0
  0
LINE
  5
2B2E
330
2B2A
100
AcDbEntity
  8
寸法線
 62
     0
370
    -2
100
AcDbLine
 10
213.0210285732383
 20
144.9464399632534
 30
0.0
 11
216.2619205244785
 21
149.9958576881388
 31
0.0
  0
INSERT
  5
2B2F
330
2B2A
100
AcDbEntity
  8
寸法線
 62
     0
370
    -2
100
AcDbBlockReference
  2
_Closed
 10
213.0210285732383
 20
144.9464399632534
 30
0.0
 41
3.0
 42
3.0
 43
3.0
 50
57.30624075017911
  0
INSERT
  5
2B30
330
2B2A
100
AcDbEntity
  8
寸法線
 62
     0
370
    -2
100
AcDbBlockReference
  2
_Closed
 10
216.2619205244785
 20
149.9958576881388
 30
0.0
 41
3.0
 42
3.0
 43
3.0
 50
237.306240750179
  0
POINT
  5
2B31
330
2B2A
100
AcDbEntity
  8
Defpoints
 62
     0
100
AcDbPoint
 10
216.2619205244785
 20
149.9958576881388
 30
0.0
  0
POINT
  5
2B32
330
2B2A
100
AcDbEntity
  8
Defpoints
 62
     0
100
AcDbPoint
 10
213.0210285732383
 20
144.9464399632534
 30
0.0
  0
ENDBLK
  5
2B34
330
2B2A
100
AcDbEntity
  8
0
100
AcDbBlockEnd
  0
BLOCK
  5
2C19
330
2C0D
100
AcDbEntity
  8
0
100
AcDbBlockBegin
  2
*D4
 70
     1
 10
0.0
 20
0.0
 30
0.0
  3
*D4
  1

  0
LINE
  5
2C37
330
2C0D
100
AcDbEntity
  8
寸法線
 62
     0
370
    -2
100
AcDbLine
 10
277.6414745488584
 20
113.4711488256961
 30
0.0
 11
277.6414745488584
 21
96.69682858227908
 31
0.0
  0
LINE
  5
2C38
330
2C0D
100
AcDbEntity
  8
寸法線
 62
     0
370
    -2
100
AcDbLine
 10
272.6414745488584
 20
113.4711488256961
 30
0.0
 11
272.6414745488584
 21
96.69682858227908
 31
0.0
  0
LINE
  5
2C39
330
2C0D
100
AcDbEntity
  8
寸法線
 62
     0
370
    -2
100
AcDbLine
 10
280.6414745488584
 20
99.69682858227907
 30
0.0
 11
283.6414745488584
 21
99.69682858227907
 31
0.0
  0
LINE
  5
2C3A
330
2C0D
100
AcDbEntity
  8
寸法線
 62
     0
370
    -2
100
AcDbLine
 10
269.6414745488584
 20
99.69682858227907
 30
0.0
 11
266.6414745488584
 21
99.69682858227907
 31
0.0
  0
LINE
  5
2C3B
330
2C0D
100
AcDbEntity
  8
寸法線
 62
     0
370
    -2
100
AcDbLine
 10
277.6414745488584
 20
99.69682858227907
 30
0.0
 11
272.6414745488584
 21
99.69682858227907
 31
0.0
  0
INSERT
  5
2C3C
330
2C0D
100
AcDbEntity
  8
寸法線
 62
     0
370
    -2
100
AcDbBlockReference
  2
_Closed
 10
277.6414745488584
 20
99.69682858227907
 30
0.0
 41
3.0
 42
3.0
 43
3.0
 50
180.0
  0
INSERT
  5
2C3D
330
2C0D
100
AcDbEntity
  8
寸法線
 62
     0
370
    -2
100
AcDbBlockReference
  2
_Closed
 10
272.6414745488584
 20
99.69682858227907
 30
0.0
 41
3.0
 42
3.0
 43
3.0
  0
MTEXT
  5
2C3E
330
2C0D
100
AcDbEntity
  8
寸法線
 62
     0
100
AcDbMText
 10
275.1414745488584
 20
103.196828582279
 30
0.0
 40
5.0
 41
0.0
 71
     5
 72
     1
  1
4
  7
OKANO
 73
     1
 44
1.0
  0
POINT
  5
2C3F
330
2C0D
100
AcDbEntity
  8
Defpoints
 62
     0
100
AcDbPoint
 10
277.6414745488584
 20
115.4711488256961
 30
0.0
  0
POINT
  5
2C40
330
2C0D
100
AcDbEntity
  8
Defpoints
 62
     0
100
AcDbPoint
 10
272.6414745488584
 20
115.4711488256961
 30
0.0
  0
POINT
  5
2C41
330
2C0D
100
AcDbEntity
  8
Defpoints
 62
     0
100
AcDbPoint
 10
272.6414745488584
 20
99.69682858227907
 30
0.0
  0
ENDBLK
  5
2C1A
330
2C0D
100
AcDbEntity
  8
0
100
AcDbBlockEnd
  0
BLOCK
  5
2C26
330
2C1C
100
AcDbEntity
  8
0
100
AcDbBlockBegin
  2
*D5
 70
     1
 10
0.0
 20
0.0
 30
0.0
  3
*D5
  1

  0
LINE
  5
2C42
330
2C1C
100
AcDbEntity
  8
寸法線
 62
     0
370
    -2
100
AcDbLine
 10
272.6414745488584
 20
113.4711488256961
 30
0.0
 11
272.6414745488584
 21
96.69682858227908
 31
0.0
  0
LINE
  5
2C43
330
2C1C
100
AcDbEntity
  8
寸法線
 62
     0
370
    -2
100
AcDbLine
 10
222.6414745488584
 20
113.4711488256961
 30
0.0
 11
222.6414745488584
 21
96.69682858227908
 31
0.0
  0
LINE
  5
2C44
330
2C1C
100
AcDbEntity
  8
寸法線
 62
     0
370
    -2
100
AcDbLine
 10
269.6414745488584
 20
99.69682858227907
 30
0.0
 11
225.6414745488584
 21
99.69682858227907
 31
0.0
  0
INSERT
  5
2C45
330
2C1C
100
AcDbEntity
  8
寸法線
 62
     0
370
    -2
100
AcDbBlockReference
  2
_Closed
 10
272.6414745488584
 20
99.69682858227907
 30
0.0
 41
3.0
 42
3.0
 43
3.0
  0
INSERT
  5
2C46
330
2C1C
100
AcDbEntity
  8
寸法線
 62
     0
370
    -2
100
AcDbBlockReference
  2
_Closed
 10
222.6414745488584
 20
99.69682858227907
 30
0.0
 41
3.0
 42
3.0
 43
3.0
 50
180.0
  0
MTEXT
  5
2C47
330
2C1C
100
AcDbEntity
  8
寸法線
 62
     0
100
AcDbMText
 10
247.6414745488584
 20
103.196828582279
 30
0.0
 40
5.0
 41
0.0
 71
     5
 72
     1
  1
49.3
  7
OKANO
 73
     1
 44
1.0
  0
POINT
  5
2C48
330
2C1C
100
AcDbEntity
  8
Defpoints
 62
     0
100
AcDbPoint
 10
272.6414745488584
 20
115.4711488256961
 30
0.0
  0
POINT
  5
2C49
330
2C1C
100
AcDbEntity
  8
Defpoints
 62
     0
100
AcDbPoint
 10
222.6414745488584
 20
115.4711488256961
 30
0.0
  0
POINT
  5
2C4A
330
2C1C
100
AcDbEntity
  8
Defpoints
 62
     0
100
AcDbPoint
 10
222.6414745488584
 20
99.69682858227907
 30
0.0
  0
ENDBLK
  5
2C27
330
2C1C
100
AcDbEntity
  8
0
100
AcDbBlockEnd
  0
BLOCK
  5
2C35
330
2C29
100
AcDbEntity
  8
0
100
AcDbBlockBegin
  2
*D6
 70
     1
 10
0.0
 20
0.0
 30
0.0
  3
*D6
  1

  0
LINE
  5
2C4B
330
2C29
100
AcDbEntity
  8
寸法線
 62
     0
370
    -2
100
AcDbLine
 10
222.6414745488584
 20
113.4711488256961
 30
0.0
 11
222.6414745488584
 21
96.69682858227908
 31
0.0
  0
LINE
  5
2C4C
330
2C29
100
AcDbEntity
  8
寸法線
 62
     0
370
    -2
100
AcDbLine
 10
217.6414745488584
 20
113.4711488256961
 30
0.0
 11
217.6414745488584
 21
96.69682858227908
 31
0.0
  0
LINE
  5
2C4D
330
2C29
100
AcDbEntity
  8
寸法線
 62
     0
370
    -2
100
AcDbLine
 10
225.6414745488584
 20
99.69682858227907
 30
0.0
 11
228.6414745488584
 21
99.69682858227907
 31
0.0
  0
LINE
  5
2C4E
330
2C29
100
AcDbEntity
  8
寸法線
 62
     0
370
    -2
100
AcDbLine
 10
214.6414745488584
 20
99.69682858227907
 30
0.0
 11
211.6414745488584
 21
99.69682858227907
 31
0.0
  0
LINE
  5
2C4F
330
2C29
100
AcDbEntity
  8
寸法線
 62
     0
370
    -2
100
AcDbLine
 10
222.6414745488584
 20
99.69682858227907
 30
0.0
 11
217.6414745488584
 21
99.69682858227907
 31
0.0
  0
INSERT
  5
2C50
330
2C29
100
AcDbEntity
  8
寸法線
 62
     0
370
    -2
100
AcDbBlockReference
  2
_Closed
 10
222.6414745488584
 20
99.69682858227907
 30
0.0
 41
3.0
 42
3.0
 43
3.0
 50
180.0
  0
INSERT
  5
2C51
330
2C29
100
AcDbEntity
  8
寸法線
 62
     0
370
    -2
100
AcDbBlockReference
  2
_Closed
 10
217.6414745488584
 20
99.69682858227907
 30
0.0
 41
3.0
 42
3.0
 43
3.0
  0
MTEXT
  5
2C52
330
2C29
100
AcDbEntity
  8
寸法線
 62
     0
100
AcDbMText
 10
220.1414745488584
 20
103.196828582279
 30
0.0
 40
5.0
 41
0.0
 71
     5
 72
     1
  1
4
  7
OKANO
 73
     1
 44
1.0
  0
POINT
  5
2C53
330
2C29
100
AcDbEntity
  8
Defpoints
 62
     0
100
AcDbPoint
 10
222.6414745488584
 20
115.4711488256961
 30
0.0
  0
POINT
  5
2C54
330
2C29
100
AcDbEntity
  8
Defpoints
 62
     0
100
AcDbPoint
 10
217.6414745488584
 20
115.4711488256961
 30
0.0
  0
POINT
  5
2C55
330
2C29
100
AcDbEntity
  8
Defpoints
 62
     0
100
AcDbPoint
 10
217.6414745488584
 20
99.69682858227907
 30
0.0
  0
ENDBLK
  5
2C36
330
2C29
100
AcDbEntity
  8
0
100
AcDbBlockEnd
  0
BLOCK
  5
2C61
330
2C57
100
AcDbEntity
  8
0
100
AcDbBlockBegin
  2
*D7
 70
     1
 10
0.0
 20
0.0
 30
0.0
  3
*D7
  1

  0
LINE
  5
2E58
330
2C57
100
AcDbEntity
  8
寸法線
 62
     0
370
    -2
100
AcDbLine
 10
289.6414745488584
 20
155.4711488256961
 30
0.0
 11
302.779751351378
 21
155.4711488256961
 31
0.0
  0
LINE
  5
2E59
330
2C57
100
AcDbEntity
  8
寸法線
 62
     0
370
    -2
100
AcDbLine
 10
289.6414745488584
 20
205.4711488256961
 30
0.0
 11
302.779751351378
 21
205.4711488256961
 31
0.0
  0
LINE
  5
2E5A
330
2C57
100
AcDbEntity
  8
寸法線
 62
     0
370
    -2
100
AcDbLine
 10
299.7797513513781
 20
158.4711488256961
 30
0.0
 11
299.7797513513781
 21
202.4711488256961
 31
0.0
  0
INSERT
  5
2E5B
330
2C57
100
AcDbEntity
  8
寸法線
 62
     0
370
    -2
100
AcDbBlockReference
  2
_Closed
 10
299.7797513513781
 20
155.4711488256961
 30
0.0
 41
3.0
 42
3.0
 43
3.0
 50
270.0
  0
INSERT
  5
2E5C
330
2C57
100
AcDbEntity
  8
寸法線
 62
     0
370
    -2
100
AcDbBlockReference
  2
_Closed
 10
299.7797513513781
 20
205.4711488256961
 30
0.0
 41
3.0
 42
3.0
 43
3.0
 50
90.0
  0
MTEXT
  5
2E5D
330
2C57
100
AcDbEntity
  8
寸法線
 62
     0
100
AcDbMText
 10
296.279751351378
 20
180.4711488256961
 30
0.0
 40
5.0
 41
0.0
 71
     5
 72
     1
  1
49.6
  7
OKANO
 11
0.0000000000000001
 21
1.0
 31
0.0
 73
     1
 44
1.0
  0
POINT
  5
2E5E
330
2C57
100
AcDbEntity
  8
Defpoints
 62
     0
100
AcDbPoint
 10
287.6414745488584
 20
155.4711488256961
 30
0.0
  0
POINT
  5
2E5F
330
2C57
100
AcDbEntity
  8
Defpoints
 62
     0
100
AcDbPoint
 10
287.6414745488584
 20
205.4711488256961
 30
0.0
  0
POINT
  5
2E60
330
2C57
100
AcDbEntity
  8
Defpoints
 62
     0
100
AcDbPoint
 10
299.7797513513781
 20
205.4711488256961
 30
0.0
  0
ENDBLK
  5
2C62
330
2C57
100
AcDbEntity
  8
0
100
AcDbBlockEnd
  0
BLOCK
  5
2CA7
330
2C9D
100
AcDbEntity
  8
0
100
AcDbBlockBegin
  2
*D8
 70
     1
 10
0.0
 20
0.0
 30
0.0
  3
*D8
  1

  0
LINE
  5
2CA9
330
2C9D
100
AcDbEntity
  8
寸法線
 62
     0
370
    -2
100
AcDbLine
 10
74.08154446100161
 20
210.4126820800531
 30
0.0
 11
127.8038073730104
 21
210.4126820800531
 31
0.0
  0
LINE
  5
2CAA
330
2C9D
100
AcDbEntity
  8
寸法線
 62
     0
370
    -2
100
AcDbLine
 10
104.3968455597384
 20
115.5979042470245
 30
0.0
 11
127.8038073730103
 21
115.5979042470245
 31
0.0
  0
LINE
  5
2CAB
330
2C9D
100
AcDbEntity
  8
寸法線
 62
     0
370
    -2
100
AcDbLine
 10
124.8038073730104
 20
207.4126820800531
 30
0.0
 11
124.8038073730103
 21
118.5979042470245
 31
0.0
  0
INSERT
  5
2CAC
330
2C9D
100
AcDbEntity
  8
寸法線
 62
     0
370
    -2
100
AcDbBlockReference
  2
_Closed
 10
124.8038073730104
 20
210.4126820800531
 30
0.0
 41
3.0
 42
3.0
 43
3.0
 50
90.0
  0
INSERT
  5
2CAD
330
2C9D
100
AcDbEntity
  8
寸法線
 62
     0
370
    -2
100
AcDbBlockReference
  2
_Closed
 10
124.8038073730103
 20
115.5979042470245
 30
0.0
 41
3.0
 42
3.0
 43
3.0
 50
270.0
  0
MTEXT
  5
2CAE
330
2C9D
100
AcDbEntity
  8
寸法線
 62
     0
100
AcDbMText
 10
121.3021068494768
 20
163.0052931635388
 30
0.0
 40
5.0
 41
0.0
 71
     5
 72
     1
  1
92.3
  7
OKANO
 11
0.0000000000000001
 21
1.0
 31
0.0
 73
     1
 44
1.0
  0
POINT
  5
2CAF
330
2C9D
100
AcDbEntity
  8
Defpoints
 62
     0
100
AcDbPoint
 10
72.08154446100161
 20
210.4126820800531
 30
0.0
  0
POINT
  5
2CB0
330
2C9D
100
AcDbEntity
  8
Defpoints
 62
     0
100
AcDbPoint
 10
102.3968455597384
 20
115.5979042470245
 30
0.0
  0
POINT
  5
2CB1
330
2C9D
100
AcDbEntity
  8
Defpoints
 62
     0
100
AcDbPoint
 10
124.8038073730103
 20
115.5979042470245
 30
0.0
  0
ENDBLK
  5
2CA8
330
2C9D
100
AcDbEntity
  8
0
100
AcDbBlockEnd
  0
BLOCK
  5
2CCA
330
2CC0
100
AcDbEntity
  8
0
100
AcDbBlockBegin
  2
*D9
 70
     1
 10
0.0
 20
0.0
 30
0.0
  3
*D9
  1

  0
LINE
  5
2CCC
330
2CC0
100
AcDbEntity
  8
寸法線
 62
     0
370
    -2
100
AcDbLine
 10
222.6414745488584
 20
152.4711488256961
 30
0.0
 11
222.6414745488584
 21
160.7729287011933
 31
0.0
  0
LINE
  5
2CCD
330
2CC0
100
AcDbEntity
  8
寸法線
 62
     0
370
    -2
100
AcDbLine
 10
272.6414745488584
 20
152.4711488256961
 30
0.0
 11
272.6414745488584
 21
160.7729287011933
 31
0.0
  0
LINE
  5
2CCE
330
2CC0
100
AcDbEntity
  8
寸法線
 62
     0
370
    -2
100
AcDbLine
 10
225.6414745488584
 20
157.7729287011933
 30
0.0
 11
269.6414745488584
 21
157.7729287011933
 31
0.0
  0
INSERT
  5
2CCF
330
2CC0
100
AcDbEntity
  8
寸法線
 62
     0
370
    -2
100
AcDbBlockReference
  2
_Closed
 10
222.6414745488584
 20
157.7729287011933
 30
0.0
 41
3.0
 42
3.0
 43
3.0
 50
180.0
  0
INSERT
  5
2CD0
330
2CC0
100
AcDbEntity
  8
寸法線
 62
     0
370
    -2
100
AcDbBlockReference
  2
_Closed
 10
272.6414745488584
 20
157.7729287011933
 30
0.0
 41
3.0
 42
3.0
 43
3.0
  0
MTEXT
  5
2CD1
330
2CC0
100
AcDbEntity
  8
寸法線
 62
     0
100
AcDbMText
 10
247.6414745488584
 20
161.2729287011933
 30
0.0
 40
5.0
 41
0.0
 71
     5
 72
     1
  1
49.0
  7
OKANO
 73
     1
 44
1.0
  0
POINT
  5
2CD2
330
2CC0
100
AcDbEntity
  8
Defpoints
 62
     0
100
AcDbPoint
 10
222.6414745488584
 20
150.4711488256961
 30
0.0
  0
POINT
  5
2CD3
330
2CC0
100
AcDbEntity
  8
Defpoints
 62
     0
100
AcDbPoint
 10
272.6414745488584
 20
150.4711488256961
 30
0.0
  0
POINT
  5
2CD4
330
2CC0
100
AcDbEntity
  8
Defpoints
 62
     0
100
AcDbPoint
 10
272.6414745488584
 20
157.7729287011933
 30
0.0
  0
ENDBLK
  5
2CCB
330
2CC0
100
AcDbEntity
  8
0
100
AcDbBlockEnd
  0
BLOCK
  5
2CF2
330
2CE6
100
AcDbEntity
  8
0
100
AcDbBlockBegin
  2
*D10
 70
     1
 10
0.0
 20
0.0
 30
0.0
  3
*D10
  1

  0
LINE
  5
2CF4
330
2CE6
100
AcDbEntity
  8
寸法線
 62
     0
370
    -2
100
AcDbLine
 10
69.70151402540432
 20
123.4711488256961
 30
0.0
 11
69.70151402540432
 21
101.0796795782234
 31
0.0
  0
LINE
  5
2CF5
330
2CE6
100
AcDbEntity
  8
寸法線
 62
     0
370
    -2
100
AcDbLine
 10
74.70151402540432
 20
123.4711488256961
 30
0.0
 11
74.70151402540432
 21
101.0796795782234
 31
0.0
  0
LINE
  5
2CF6
330
2CE6
100
AcDbEntity
  8
寸法線
 62
     0
370
    -2
100
AcDbLine
 10
66.70151402540432
 20
104.0796795782234
 30
0.0
 11
63.70151402540432
 21
104.0796795782234
 31
0.0
  0
LINE
  5
2CF7
330
2CE6
100
AcDbEntity
  8
寸法線
 62
     0
370
    -2
100
AcDbLine
 10
77.70151402540432
 20
104.0796795782234
 30
0.0
 11
80.70151402540432
 21
104.0796795782234
 31
0.0
  0
LINE
  5
2CF8
330
2CE6
100
AcDbEntity
  8
寸法線
 62
     0
370
    -2
100
AcDbLine
 10
69.70151402540432
 20
104.0796795782234
 30
0.0
 11
74.70151402540432
 21
104.0796795782234
 31
0.0
  0
INSERT
  5
2CF9
330
2CE6
100
AcDbEntity
  8
寸法線
 62
     0
370
    -2
100
AcDbBlockReference
  2
_Closed
 10
69.70151402540432
 20
104.0796795782234
 30
0.0
 41
3.0
 42
3.0
 43
3.0
  0
INSERT
  5
2CFA
330
2CE6
100
AcDbEntity
  8
寸法線
 62
     0
370
    -2
100
AcDbBlockReference
  2
_Closed
 10
74.70151402540432
 20
104.0796795782234
 30
0.0
 41
3.0
 42
3.0
 43
3.0
 50
180.0
  0
MTEXT
  5
2CFB
330
2CE6
100
AcDbEntity
  8
寸法線
 62
     0
100
AcDbMText
 10
72.20151402540432
 20
107.5796795782234
 30
0.0
 40
5.0
 41
0.0
 71
     5
 72
     1
  1
4
  7
OKANO
 73
     1
 44
1.0
  0
POINT
  5
2CFC
330
2CE6
100
AcDbEntity
  8
Defpoints
 62
     0
100
AcDbPoint
 10
69.70151402540432
 20
125.4711488256961
 30
0.0
  0
POINT
  5
2CFD
330
2CE6
100
AcDbEntity
  8
Defpoints
 62
     0
100
AcDbPoint
 10
74.70151402540432
 20
125.4711488256961
 30
0.0
  0
POINT
  5
2CFE
330
2CE6
100
AcDbEntity
  8
Defpoints
 62
     0
100
AcDbPoint
 10
74.70151402540432
 20
104.0796795782234
 30
0.0
  0
ENDBLK
  5
2CF3
330
2CE6
100
AcDbEntity
  8
0
100
AcDbBlockEnd
  0
BLOCK
  5
2D0C
330
2D00
100
AcDbEntity
  8
0
100
AcDbBlockBegin
  2
*D11
 70
     1
 10
0.0
 20
0.0
 30
0.0
  3
*D11
  1

  0
LINE
  5
2D2A
330
2D00
100
AcDbEntity
  8
寸法線
 62
     0
370
    -2
100
AcDbLine
 10
102.2015140254043
 20
113.4711488256961
 30
0.0
 11
102.2015140254043
 21
77.81494226547863
 31
0.0
  0
LINE
  5
2D2B
330
2D00
100
AcDbEntity
  8
寸法線
 62
     0
370
    -2
100
AcDbLine
 10
97.2015140254043
 20
113.4711488256961
 30
0.0
 11
97.2015140254043
 21
77.81494226547863
 31
0.0
  0
LINE
  5
2D2C
330
2D00
100
AcDbEntity
  8
寸法線
 62
     0
370
    -2
100
AcDbLine
 10
105.2015140254043
 20
80.81494226547864
 30
0.0
 11
108.2015140254043
 21
80.81494226547864
 31
0.0
  0
LINE
  5
2D2D
330
2D00
100
AcDbEntity
  8
寸法線
 62
     0
370
    -2
100
AcDbLine
 10
94.20151402540431
 20
80.81494226547864
 30
0.0
 11
91.20151402540431
 21
80.81494226547864
 31
0.0
  0
LINE
  5
2D2E
330
2D00
100
AcDbEntity
  8
寸法線
 62
     0
370
    -2
100
AcDbLine
 10
102.2015140254043
 20
80.81494226547864
 30
0.0
 11
97.2015140254043
 21
80.81494226547864
 31
0.0
  0
INSERT
  5
2D2F
330
2D00
100
AcDbEntity
  8
寸法線
 62
     0
370
    -2
100
AcDbBlockReference
  2
_Closed
 10
102.2015140254043
 20
80.81494226547864
 30
0.0
 41
3.0
 42
3.0
 43
3.0
 50
180.0
  0
INSERT
  5
2D30
330
2D00
100
AcDbEntity
  8
寸法線
 62
     0
370
    -2
100
AcDbBlockReference
  2
_Closed
 10
97.2015140254043
 20
80.81494226547864
 30
0.0
 41
3.0
 42
3.0
 43
3.0
  0
MTEXT
  5
2D31
330
2D00
100
AcDbEntity
  8
寸法線
 62
     0
100
AcDbMText
 10
99.70151402540432
 20
84.31494226547863
 30
0.0
 40
5.0
 41
0.0
 71
     5
 72
     1
  1
4
  7
OKANO
 73
     1
 44
1.0
  0
POINT
  5
2D32
330
2D00
100
AcDbEntity
  8
Defpoints
 62
     0
100
AcDbPoint
 10
102.2015140254043
 20
115.4711488256961
 30
0.0
  0
POINT
  5
2D33
330
2D00
100
AcDbEntity
  8
Defpoints
 62
     0
100
AcDbPoint
 10
97.2015140254043
 20
115.4711488256961
 30
0.0
  0
POINT
  5
2D34
330
2D00
100
AcDbEntity
  8
Defpoints
 62
     0
100
AcDbPoint
 10
97.2015140254043
 20
80.81494226547864
 30
0.0
  0
ENDBLK
  5
2D0D
330
2D00
100
AcDbEntity
  8
0
100
AcDbBlockEnd
  0
BLOCK
  5
2D19
330
2D0F
100
AcDbEntity
  8
0
100
AcDbBlockBegin
  2
*D12
 70
     1
 10
0.0
 20
0.0
 30
0.0
  3
*D12
  1

  0
LINE
  5
2D35
330
2D0F
100
AcDbEntity
  8
寸法線
 62
     0
370
    -2
100
AcDbLine
 10
97.2015140254043
 20
113.4711488256961
 30
0.0
 11
97.2015140254043
 21
77.81494226547863
 31
0.0
  0
LINE
  5
2D36
330
2D0F
100
AcDbEntity
  8
寸法線
 62
     0
370
    -2
100
AcDbLine
 10
47.20151402540432
 20
113.4711488256961
 30
0.0
 11
47.20151402540432
 21
77.81494226547863
 31
0.0
  0
LINE
  5
2D37
330
2D0F
100
AcDbEntity
  8
寸法線
 62
     0
370
    -2
100
AcDbLine
 10
94.20151402540431
 20
80.81494226547864
 30
0.0
 11
50.20151402540432
 21
80.81494226547864
 31
0.0
  0
INSERT
  5
2D38
330
2D0F
100
AcDbEntity
  8
寸法線
 62
     0
370
    -2
100
AcDbBlockReference
  2
_Closed
 10
97.2015140254043
 20
80.81494226547864
 30
0.0
 41
3.0
 42
3.0
 43
3.0
  0
INSERT
  5
2D39
330
2D0F
100
AcDbEntity
  8
寸法線
 62
     0
370
    -2
100
AcDbBlockReference
  2
_Closed
 10
47.20151402540432
 20
80.81494226547864
 30
0.0
 41
3.0
 42
3.0
 43
3.0
 50
180.0
  0
MTEXT
  5
2D3A
330
2D0F
100
AcDbEntity
  8
寸法線
 62
     0
100
AcDbMText
 10
72.20151402540432
 20
84.31494226547863
 30
0.0
 40
5.0
 41
0.0
 71
     5
 72
     1
  1
49.3
  7
OKANO
 73
     1
 44
1.0
  0
POINT
  5
2D3B
330
2D0F
100
AcDbEntity
  8
Defpoints
 62
     0
100
AcDbPoint
 10
97.2015140254043
 20
115.4711488256961
 30
0.0
  0
POINT
  5
2D3C
330
2D0F
100
AcDbEntity
  8
Defpoints
 62
     0
100
AcDbPoint
 10
47.20151402540432
 20
115.4711488256961
 30
0.0
  0
POINT
  5
2D3D
330
2D0F
100
AcDbEntity
  8
Defpoints
 62
     0
100
AcDbPoint
 10
47.20151402540432
 20
80.81494226547864
 30
0.0
  0
ENDBLK
  5
2D1A
330
2D0F
100
AcDbEntity
  8
0
100
AcDbBlockEnd
  0
BLOCK
  5
2D28
330
2D1C
100
AcDbEntity
  8
0
100
AcDbBlockBegin
  2
*D13
 70
     1
 10
0.0
 20
0.0
 30
0.0
  3
*D13
  1

  0
LINE
  5
2D3E
330
2D1C
100
AcDbEntity
  8
寸法線
 62
     0
370
    -2
100
AcDbLine
 10
47.20151402540432
 20
113.4711488256961
 30
0.0
 11
47.20151402540432
 21
77.81494226547863
 31
0.0
  0
LINE
  5
2D3F
330
2D1C
100
AcDbEntity
  8
寸法線
 62
     0
370
    -2
100
AcDbLine
 10
42.20151402540432
 20
113.4711488256961
 30
0.0
 11
42.20151402540432
 21
77.81494226547863
 31
0.0
  0
LINE
  5
2D40
330
2D1C
100
AcDbEntity
  8
寸法線
 62
     0
370
    -2
100
AcDbLine
 10
50.20151402540432
 20
80.81494226547864
 30
0.0
 11
53.20151402540432
 21
80.81494226547864
 31
0.0
  0
LINE
  5
2D41
330
2D1C
100
AcDbEntity
  8
寸法線
 62
     0
370
    -2
100
AcDbLine
 10
39.20151402540432
 20
80.81494226547864
 30
0.0
 11
36.20151402540432
 21
80.81494226547864
 31
0.0
  0
LINE
  5
2D42
330
2D1C
100
AcDbEntity
  8
寸法線
 62
     0
370
    -2
100
AcDbLine
 10
47.20151402540432
 20
80.81494226547864
 30
0.0
 11
42.20151402540432
 21
80.81494226547864
 31
0.0
  0
INSERT
  5
2D43
330
2D1C
100
AcDbEntity
  8
寸法線
 62
     0
370
    -2
100
AcDbBlockReference
  2
_Closed
 10
47.20151402540432
 20
80.81494226547864
 30
0.0
 41
3.0
 42
3.0
 43
3.0
 50
180.0
  0
INSERT
  5
2D44
330
2D1C
100
AcDbEntity
  8
寸法線
 62
     0
370
    -2
100
AcDbBlockReference
  2
_Closed
 10
42.20151402540432
 20
80.81494226547864
 30
0.0
 41
3.0
 42
3.0
 43
3.0
  0
MTEXT
  5
2D45
330
2D1C
100
AcDbEntity
  8
寸法線
 62
     0
100
AcDbMText
 10
44.70151402540432
 20
84.31494226547863
 30
0.0
 40
5.0
 41
0.0
 71
     5
 72
     1
  1
4
  7
OKANO
 73
     1
 44
1.0
  0
POINT
  5
2D46
330
2D1C
100
AcDbEntity
  8
Defpoints
 62
     0
100
AcDbPoint
 10
47.20151402540432
 20
115.4711488256961
 30
0.0
  0
POINT
  5
2D47
330
2D1C
100
AcDbEntity
  8
Defpoints
 62
     0
100
AcDbPoint
 10
42.20151402540432
 20
115.4711488256961
 30
0.0
  0
POINT
  5
2D48
330
2D1C
100
AcDbEntity
  8
Defpoints
 62
     0
100
AcDbPoint
 10
42.20151402540432
 20
80.81494226547864
 30
0.0
  0
ENDBLK
  5
2D29
330
2D1C
100
AcDbEntity
  8
0
100
AcDbBlockEnd
  0
BLOCK
  5
2D54
330
2D4A
100
AcDbEntity
  8
0
100
AcDbBlockBegin
  2
*D14
 70
     1
 10
0.0
 20
0.0
 30
0.0
  3
*D14
  1

  0
LINE
  5
2D56
330
2D4A
100
AcDbEntity
  8
寸法線
 62
     0
370
    -2
100
AcDbLine
 10
205.6414745488584
 20
61.53560202454525
 30
0.0
 11
190.3427502145241
 21
61.53560202454525
 31
0.0
  0
LINE
  5
2D57
330
2D4A
100
AcDbEntity
  8
寸法線
 62
     0
370
    -2
100
AcDbLine
 10
205.6414745488584
 20
1.535602024545256
 30
0.0
 11
190.3427502145241
 21
1.53560202454526
 31
0.0
  0
LINE
  5
2D58
330
2D4A
100
AcDbEntity
  8
寸法線
 62
     0
370
    -2
100
AcDbLine
 10
193.3427502145241
 20
58.53560202454525
 30
0.0
 11
193.3427502145241
 21
4.535602024545259
 31
0.0
  0
INSERT
  5
2D59
330
2D4A
100
AcDbEntity
  8
寸法線
 62
     0
370
    -2
100
AcDbBlockReference
  2
_Closed
 10
193.3427502145241
 20
61.53560202454525
 30
0.0
 41
3.0
 42
3.0
 43
3.0
 50
90.0
  0
INSERT
  5
2D5A
330
2D4A
100
AcDbEntity
  8
寸法線
 62
     0
370
    -2
100
AcDbBlockReference
  2
_Closed
 10
193.3427502145241
 20
1.535602024545259
 30
0.0
 41
3.0
 42
3.0
 43
3.0
 50
270.0
  0
MTEXT
  5
2D5B
330
2D4A
100
AcDbEntity
  8
寸法線
 62
     0
100
AcDbMText
 10
189.8427502145241
 20
31.53560202454529
 30
0.0
 40
5.0
 41
0.0
 71
     5
 72
     1
  1
57.3
  7
OKANO
 11
0.0000000000000001
 21
1.0
 31
0.0
 73
     1
 44
1.0
  0
POINT
  5
2D5C
330
2D4A
100
AcDbEntity
  8
Defpoints
 62
     0
100
AcDbPoint
 10
207.6414745488584
 20
61.53560202454525
 30
0.0
  0
POINT
  5
2D5D
330
2D4A
100
AcDbEntity
  8
Defpoints
 62
     0
100
AcDbPoint
 10
207.6414745488584
 20
1.535602024545255
 30
0.0
  0
POINT
  5
2D5E
330
2D4A
100
AcDbEntity
  8
Defpoints
 62
     0
100
AcDbPoint
 10
193.3427502145241
 20
1.535602024545259
 30
0.0
  0
ENDBLK
  5
2D55
330
2D4A
100
AcDbEntity
  8
0
100
AcDbBlockEnd
  0
BLOCK
  5
2D6C
330
2D60
100
AcDbEntity
  8
0
100
AcDbBlockBegin
  2
*D15
 70
     1
 10
0.0
 20
0.0
 30
0.0
  3
*D15
  1

  0
LINE
  5
2D6E
330
2D60
100
AcDbEntity
  8
寸法線
 62
     0
370
    -2
100
AcDbLine
 10
289.6414745488584
 20
29.03560202454525
 30
0.0
 11
303.9840385282173
 21
29.03560202454525
 31
0.0
  0
LINE
  5
2D6F
330
2D60
100
AcDbEntity
  8
寸法線
 62
     0
370
    -2
100
AcDbLine
 10
289.6414745488584
 20
34.03560202454525
 30
0.0
 11
303.9840385282173
 21
34.03560202454525
 31
0.0
  0
LINE
  5
2D70
330
2D60
100
AcDbEntity
  8
寸法線
 62
     0
370
    -2
100
AcDbLine
 10
300.9840385282172
 20
26.03560202454525
 30
0.0
 11
300.9840385282172
 21
23.03560202454525
 31
0.0
  0
LINE
  5
2D71
330
2D60
100
AcDbEntity
  8
寸法線
 62
     0
370
    -2
100
AcDbLine
 10
300.9840385282172
 20
37.03560202454525
 30
0.0
 11
300.9840385282172
 21
40.03560202454525
 31
0.0
  0
LINE
  5
2D72
330
2D60
100
AcDbEntity
  8
寸法線
 62
     0
370
    -2
100
AcDbLine
 10
300.9840385282172
 20
29.03560202454525
 30
0.0
 11
300.9840385282172
 21
34.03560202454525
 31
0.0
  0
INSERT
  5
2D73
330
2D60
100
AcDbEntity
  8
寸法線
 62
     0
370
    -2
100
AcDbBlockReference
  2
_Closed
 10
300.9840385282172
 20
29.03560202454525
 30
0.0
 41
3.0
 42
3.0
 43
3.0
 50
90.0
  0
INSERT
  5
2D74
330
2D60
100
AcDbEntity
  8
寸法線
 62
     0
370
    -2
100
AcDbBlockReference
  2
_Closed
 10
300.9840385282172
 20
34.03560202454525
 30
0.0
 41
3.0
 42
3.0
 43
3.0
 50
270.0
  0
MTEXT
  5
2D75
330
2D60
100
AcDbEntity
  8
寸法線
 62
     0
100
AcDbMText
 10
297.4840385282173
 20
31.5356020245453
 30
0.0
 40
5.0
 41
0.0
 71
     5
 72
     1
  1
4
  7
OKANO
 11
0.0000000000000001
 21
1.0
 31
0.0
 73
     1
 44
1.0
  0
POINT
  5
2D76
330
2D60
100
AcDbEntity
  8
Defpoints
 62
     0
100
AcDbPoint
 10
287.6414745488584
 20
29.03560202454525
 30
0.0
  0
POINT
  5
2D77
330
2D60
100
AcDbEntity
  8
Defpoints
 62
     0
100
AcDbPoint
 10
287.6414745488584
 20
34.03560202454525
 30
0.0
  0
POINT
  5
2D78
330
2D60
100
AcDbEntity
  8
Defpoints
 62
     0
100
AcDbPoint
 10
300.9840385282172
 20
34.03560202454525
 30
0.0
  0
ENDBLK
  5
2D6D
330
2D60
100
AcDbEntity
  8
0
100
AcDbBlockEnd
  0
BLOCK
  5
2DB1
330
2DA7
100
AcDbEntity
  8
0
100
AcDbBlockBegin
  2
*D16
 70
     1
 10
0.0
 20
0.0
 30
0.0
  3
*D16
  1

  0
LINE
  5
2DB3
330
2DA7
100
AcDbEntity
  8
寸法線
 62
     0
370
    -2
100
AcDbLine
 10
205.6414745488584
 20
212.4788998873083
 30
0.0
 11
205.6414745488584
 21
222.1502729214653
 31
0.0
  0
LINE
  5
2DB4
330
2DA7
100
AcDbEntity
  8
寸法線
 62
     0
370
    -2
100
AcDbLine
 10
289.6414745488584
 20
212.4711488256961
 30
0.0
 11
289.6414745488584
 21
222.1502729214653
 31
0.0
  0
LINE
  5
2DB5
330
2DA7
100
AcDbEntity
  8
寸法線
 62
     0
370
    -2
100
AcDbLine
 10
208.6414745488584
 20
219.1502729214653
 30
0.0
 11
286.6414745488584
 21
219.1502729214653
 31
0.0
  0
INSERT
  5
2DB6
330
2DA7
100
AcDbEntity
  8
寸法線
 62
     0
370
    -2
100
AcDbBlockReference
  2
_Closed
 10
205.6414745488584
 20
219.1502729214653
 30
0.0
 41
3.0
 42
3.0
 43
3.0
 50
180.0
  0
INSERT
  5
2DB7
330
2DA7
100
AcDbEntity
  8
寸法線
 62
     0
370
    -2
100
AcDbBlockReference
  2
_Closed
 10
289.6414745488584
 20
219.1502729214653
 30
0.0
 41
3.0
 42
3.0
 43
3.0
  0
MTEXT
  5
2DB8
330
2DA7
100
AcDbEntity
  8
寸法線
 62
     0
100
AcDbMText
 10
247.6414745488584
 20
222.6502729214653
 30
0.0
 40
5.0
 41
0.0
 71
     5
 72
     1
  1
81.3
  7
OKANO
 73
     1
 44
1.0
  0
POINT
  5
2DB9
330
2DA7
100
AcDbEntity
  8
Defpoints
 62
     0
100
AcDbPoint
 10
205.6414745488584
 20
210.4788998873083
 30
0.0
  0
POINT
  5
2DBA
330
2DA7
100
AcDbEntity
  8
Defpoints
 62
     0
100
AcDbPoint
 10
289.6414745488584
 20
210.4711488256961
 30
0.0
  0
POINT
  5
2DBB
330
2DA7
100
AcDbEntity
  8
Defpoints
 62
     0
100
AcDbPoint
 10
289.6414745488584
 20
219.1502729214653
 30
0.0
  0
ENDBLK
  5
2DB2
330
2DA7
100
AcDbEntity
  8
0
100
AcDbBlockEnd
  0
BLOCK
  5
2DC7
330
2DBD
100
AcDbEntity
  8
0
100
AcDbBlockBegin
  2
*D17
 70
     1
 10
0.0
 20
0.0
 30
0.0
  3
*D17
  1

  0
LINE
  5
2DBE
330
2DBD
100
AcDbEntity
  8
寸法線
 62
     0
370
    -2
100
AcDbLine
 10
215.6414745488584
 20
115.4711488256961
 30
0.0
 11
187.824686406431
 21
115.4711488256961
 31
0.0
  0
LINE
  5
2DBF
330
2DBD
100
AcDbEntity
  8
寸法線
 62
     0
370
    -2
100
AcDbLine
 10
215.6414745488584
 20
150.4711488256961
 30
0.0
 11
187.824686406431
 21
150.4711488256961
 31
0.0
  0
LINE
  5
2DC0
330
2DBD
100
AcDbEntity
  8
寸法線
 62
     0
370
    -2
100
AcDbLine
 10
190.824686406431
 20
118.4711488256961
 30
0.0
 11
190.824686406431
 21
147.4711488256961
 31
0.0
  0
INSERT
  5
2DC1
330
2DBD
100
AcDbEntity
  8
寸法線
 62
     0
370
    -2
100
AcDbBlockReference
  2
_Closed
 10
190.824686406431
 20
115.4711488256961
 30
0.0
 41
3.0
 42
3.0
 43
3.0
 50
270.0
  0
INSERT
  5
2DC2
330
2DBD
100
AcDbEntity
  8
寸法線
 62
     0
370
    -2
100
AcDbBlockReference
  2
_Closed
 10
190.824686406431
 20
150.4711488256961
 30
0.0
 41
3.0
 42
3.0
 43
3.0
 50
90.0
  0
MTEXT
  5
2DC3
330
2DBD
100
AcDbEntity
  8
寸法線
 62
     0
100
AcDbMText
 10
187.324686406431
 20
132.9711488256962
 30
0.0
 40
5.0
 41
0.0
 71
     5
 72
     1
  1
35
  7
OKANO
 11
0.0000000000000001
 21
1.0
 31
0.0
 73
     1
 44
1.0
  0
POINT
  5
2DC4
330
2DBD
100
AcDbEntity
  8
Defpoints
 62
     0
100
AcDbPoint
 10
217.6414745488584
 20
115.4711488256961
 30
0.0
  0
POINT
  5
2DC5
330
2DBD
100
AcDbEntity
  8
Defpoints
 62
     0
100
AcDbPoint
 10
217.6414745488584
 20
150.4711488256961
 30
0.0
  0
POINT
  5
2DC6
330
2DBD
100
AcDbEntity
  8
Defpoints
 62
     0
100
AcDbPoint
 10
190.824686406431
 20
150.4711488256961
 30
0.0
  0
ENDBLK
  5
2DC8
330
2DBD
100
AcDbEntity
  8
0
100
AcDbBlockEnd
  0
BLOCK
  5
2DD6
330
2DCA
100
AcDbEntity
  8
0
100
AcDbBlockBegin
  2
*D18
 70
     1
 10
0.0
 20
0.0
 30
0.0
  3
*D18
  1

  0
LINE
  5
2E01
330
2DCA
100
AcDbEntity
  8
寸法線
 62
     0
370
    -2
100
AcDbLine
 10
215.6414745488584
 20
150.4711488256961
 30
0.0
 11
187.824686406431
 21
150.4711488256961
 31
0.0
  0
LINE
  5
2E02
330
2DCA
100
AcDbEntity
  8
寸法線
 62
     0
370
    -2
100
AcDbLine
 10
205.6414745488584
 20
155.4711488256961
 30
0.0
 11
187.824686406431
 21
155.4711488256961
 31
0.0
  0
LINE
  5
2E03
330
2DCA
100
AcDbEntity
  8
寸法線
 62
     0
370
    -2
100
AcDbLine
 10
190.824686406431
 20
147.4711488256961
 30
0.0
 11
190.824686406431
 21
144.4711488256961
 31
0.0
  0
LINE
  5
2E04
330
2DCA
100
AcDbEntity
  8
寸法線
 62
     0
370
    -2
100
AcDbLine
 10
190.824686406431
 20
158.4711488256961
 30
0.0
 11
190.824686406431
 21
161.4711488256961
 31
0.0
  0
LINE
  5
2E05
330
2DCA
100
AcDbEntity
  8
寸法線
 62
     0
370
    -2
100
AcDbLine
 10
190.824686406431
 20
150.4711488256961
 30
0.0
 11
190.824686406431
 21
155.4711488256961
 31
0.0
  0
INSERT
  5
2E06
330
2DCA
100
AcDbEntity
  8
寸法線
 62
     0
370
    -2
100
AcDbBlockReference
  2
_Closed
 10
190.824686406431
 20
150.4711488256961
 30
0.0
 41
3.0
 42
3.0
 43
3.0
 50
90.0
  0
INSERT
  5
2E07
330
2DCA
100
AcDbEntity
  8
寸法線
 62
     0
370
    -2
100
AcDbBlockReference
  2
_Closed
 10
190.824686406431
 20
155.4711488256961
 30
0.0
 41
3.0
 42
3.0
 43
3.0
 50
270.0
  0
MTEXT
  5
2E08
330
2DCA
100
AcDbEntity
  8
寸法線
 62
     0
100
AcDbMText
 10
187.324686406431
 20
152.9711488256962
 30
0.0
 40
5.0
 41
0.0
 71
     5
 72
     1
  1
4
  7
OKANO
 11
0.0000000000000001
 21
1.0
 31
0.0
 73
     1
 44
1.0
  0
POINT
  5
2E09
330
2DCA
100
AcDbEntity
  8
Defpoints
 62
     0
100
AcDbPoint
 10
217.6414745488584
 20
150.4711488256961
 30
0.0
  0
POINT
  5
2E0A
330
2DCA
100
AcDbEntity
  8
Defpoints
 62
     0
100
AcDbPoint
 10
207.6414745488584
 20
155.4711488256961
 30
0.0
  0
POINT
  5
2E0B
330
2DCA
100
AcDbEntity
  8
Defpoints
 62
     0
100
AcDbPoint
 10
190.824686406431
 20
155.4711488256961
 30
0.0
  0
ENDBLK
  5
2DD7
330
2DCA
100
AcDbEntity
  8
0
100
AcDbBlockEnd
  0
BLOCK
  5
2DE3
330
2DD9
100
AcDbEntity
  8
0
100
AcDbBlockBegin
  2
*D19
 70
     1
 10
0.0
 20
0.0
 30
0.0
  3
*D19
  1

  0
LINE
  5
2E0C
330
2DD9
100
AcDbEntity
  8
寸法線
 62
     0
370
    -2
100
AcDbLine
 10
205.6414745488584
 20
155.4711488256961
 30
0.0
 11
187.824686406431
 21
155.4711488256961
 31
0.0
  0
LINE
  5
2E0D
330
2DD9
100
AcDbEntity
  8
寸法線
 62
     0
370
    -2
100
AcDbLine
 10
205.6414745488584
 20
205.4711488256961
 30
0.0
 11
187.824686406431
 21
205.4711488256962
 31
0.0
  0
LINE
  5
2E0E
330
2DD9
100
AcDbEntity
  8
寸法線
 62
     0
370
    -2
100
AcDbLine
 10
190.824686406431
 20
158.4711488256961
 30
0.0
 11
190.824686406431
 21
202.4711488256961
 31
0.0
  0
INSERT
  5
2E0F
330
2DD9
100
AcDbEntity
  8
寸法線
 62
     0
370
    -2
100
AcDbBlockReference
  2
_Closed
 10
190.824686406431
 20
155.4711488256961
 30
0.0
 41
3.0
 42
3.0
 43
3.0
 50
270.0
  0
INSERT
  5
2E10
330
2DD9
100
AcDbEntity
  8
寸法線
 62
     0
370
    -2
100
AcDbBlockReference
  2
_Closed
 10
190.824686406431
 20
205.4711488256962
 30
0.0
 41
3.0
 42
3.0
 43
3.0
 50
90.0
  0
MTEXT
  5
2E11
330
2DD9
100
AcDbEntity
  8
寸法線
 62
     0
100
AcDbMText
 10
187.324686406431
 20
180.4711488256962
 30
0.0
 40
5.0
 41
0.0
 71
     5
 72
     1
  1
49.3
  7
OKANO
 11
0.0000000000000001
 21
1.0
 31
0.0
 73
     1
 44
1.0
  0
POINT
  5
2E12
330
2DD9
100
AcDbEntity
  8
Defpoints
 62
     0
100
AcDbPoint
 10
207.6414745488584
 20
155.4711488256961
 30
0.0
  0
POINT
  5
2E13
330
2DD9
100
AcDbEntity
  8
Defpoints
 62
     0
100
AcDbPoint
 10
207.6414745488584
 20
205.4711488256961
 30
0.0
  0
POINT
  5
2E14
330
2DD9
100
AcDbEntity
  8
Defpoints
 62
     0
100
AcDbPoint
 10
190.824686406431
 20
205.4711488256962
 30
0.0
  0
ENDBLK
  5
2DE4
330
2DD9
100
AcDbEntity
  8
0
100
AcDbBlockEnd
  0
BLOCK
  5
2DF2
330
2DE6
100
AcDbEntity
  8
0
100
AcDbBlockBegin
  2
*D20
 70
     1
 10
0.0
 20
0.0
 30
0.0
  3
*D20
  1

  0
LINE
  5
2E15
330
2DE6
100
AcDbEntity
  8
寸法線
 62
     0
370
    -2
100
AcDbLine
 10
205.6414745488584
 20
205.4711488256961
 30
0.0
 11
187.824686406431
 21
205.4711488256962
 31
0.0
  0
LINE
  5
2E16
330
2DE6
100
AcDbEntity
  8
寸法線
 62
     0
370
    -2
100
AcDbLine
 10
205.6414745488584
 20
210.4711488256961
 30
0.0
 11
187.824686406431
 21
210.4711488256961
 31
0.0
  0
LINE
  5
2E17
330
2DE6
100
AcDbEntity
  8
寸法線
 62
     0
370
    -2
100
AcDbLine
 10
190.824686406431
 20
202.4711488256961
 30
0.0
 11
190.824686406431
 21
199.4711488256961
 31
0.0
  0
LINE
  5
2E18
330
2DE6
100
AcDbEntity
  8
寸法線
 62
     0
370
    -2
100
AcDbLine
 10
190.824686406431
 20
213.4711488256961
 30
0.0
 11
190.824686406431
 21
216.4711488256962
 31
0.0
  0
LINE
  5
2E19
330
2DE6
100
AcDbEntity
  8
寸法線
 62
     0
370
    -2
100
AcDbLine
 10
190.824686406431
 20
205.4711488256962
 30
0.0
 11
190.824686406431
 21
210.4711488256961
 31
0.0
  0
INSERT
  5
2E1A
330
2DE6
100
AcDbEntity
  8
寸法線
 62
     0
370
    -2
100
AcDbBlockReference
  2
_Closed
 10
190.824686406431
 20
205.4711488256962
 30
0.0
 41
3.0
 42
3.0
 43
3.0
 50
90.0
  0
INSERT
  5
2E1B
330
2DE6
100
AcDbEntity
  8
寸法線
 62
     0
370
    -2
100
AcDbBlockReference
  2
_Closed
 10
190.824686406431
 20
210.4711488256961
 30
0.0
 41
3.0
 42
3.0
 43
3.0
 50
270.0
  0
MTEXT
  5
2E1C
330
2DE6
100
AcDbEntity
  8
寸法線
 62
     0
100
AcDbMText
 10
187.324686406431
 20
207.9711488256962
 30
0.0
 40
5.0
 41
0.0
 71
     5
 72
     1
  1
4
  7
OKANO
 11
0.0000000000000001
 21
1.0
 31
0.0
 73
     1
 44
1.0
  0
POINT
  5
2E1D
330
2DE6
100
AcDbEntity
  8
Defpoints
 62
     0
100
AcDbPoint
 10
207.6414745488584
 20
205.4711488256961
 30
0.0
  0
POINT
  5
2E1E
330
2DE6
100
AcDbEntity
  8
Defpoints
 62
     0
100
AcDbPoint
 10
207.6414745488584
 20
210.4711488256961
 30
0.0
  0
POINT
  5
2E1F
330
2DE6
100
AcDbEntity
  8
Defpoints
 62
     0
100
AcDbPoint
 10
190.824686406431
 20
210.4711488256961
 30
0.0
  0
ENDBLK
  5
2DF3
330
2DE6
100
AcDbEntity
  8
0
100
AcDbBlockEnd
  0
BLOCK
  5
2E38
330
2E2E
100
AcDbEntity
  8
0
100
AcDbBlockBegin
  2
*D21
 70
     1
 10
0.0
 20
0.0
 30
0.0
  3
*D21
  1

  0
LINE
  5
2E2F
330
2E2E
100
AcDbEntity
  8
寸法線
 62
     0
370
    -2
100
AcDbLine
 10
277.6414745488584
 20
152.4711488256961
 30
0.0
 11
277.6414745488584
 21
162.1390748809335
 31
0.0
  0
LINE
  5
2E30
330
2E2E
100
AcDbEntity
  8
寸法線
 62
     0
370
    -2
100
AcDbLine
 10
289.6414745488584
 20
152.4711488256961
 30
0.0
 11
289.6414745488584
 21
162.1390748809335
 31
0.0
  0
LINE
  5
2E31
330
2E2E
100
AcDbEntity
  8
寸法線
 62
     0
370
    -2
100
AcDbLine
 10
280.6414745488584
 20
159.1390748809335
 30
0.0
 11
286.6414745488584
 21
159.1390748809335
 31
0.0
  0
INSERT
  5
2E32
330
2E2E
100
AcDbEntity
  8
寸法線
 62
     0
370
    -2
100
AcDbBlockReference
  2
_Closed
 10
277.6414745488584
 20
159.1390748809335
 30
0.0
 41
3.0
 42
3.0
 43
3.0
 50
180.0
  0
INSERT
  5
2E33
330
2E2E
100
AcDbEntity
  8
寸法線
 62
     0
370
    -2
100
AcDbBlockReference
  2
_Closed
 10
289.6414745488584
 20
159.1390748809335
 30
0.0
 41
3.0
 42
3.0
 43
3.0
  0
MTEXT
  5
2E34
330
2E2E
100
AcDbEntity
  8
寸法線
 62
     0
100
AcDbMText
 10
283.6414745488584
 20
162.6395670069177
 30
0.0
 40
5.0
 41
0.0
 71
     5
 72
     1
  1
12
  7
OKANO
 73
     1
 44
1.0
  0
POINT
  5
2E35
330
2E2E
100
AcDbEntity
  8
Defpoints
 62
     0
100
AcDbPoint
 10
277.6414745488584
 20
150.4711488256961
 30
0.0
  0
POINT
  5
2E36
330
2E2E
100
AcDbEntity
  8
Defpoints
 62
     0
100
AcDbPoint
 10
289.6414745488584
 20
150.4711488256961
 30
0.0
  0
POINT
  5
2E37
330
2E2E
100
AcDbEntity
  8
Defpoints
 62
     0
100
AcDbPoint
 10
289.6414745488584
 20
159.1390748809335
 30
0.0
  0
ENDBLK
  5
2E39
330
2E2E
100
AcDbEntity
  8
0
100
AcDbBlockEnd
  0
ENDSEC
  0
SECTION
  2
ENTITIES
  0
XLINE
  5
22CA
330
1F
100
AcDbEntity
  8
構築線
 62
     3
370
     5
100
AcDbXline
 10
72.20151402540432
 20
178.0193172078315
 30
0.0
 11
0.0
 21
-1.0
 31
0.0
  0
XLINE
  5
2508
330
1F
100
AcDbEntity
  8
構築線
370
     5
100
AcDbXline
 10
40.70151402540432
 20
100.4711488256961
 30
0.0
 11
1.0
 21
0.0
 31
0.0
  0
XLINE
  5
28D9
330
1F
100
AcDbEntity
  8
構築線
370
     5
100
AcDbXline
 10
42.20151402540432
 20
178.0193172078315
 30
0.0
 11
0.0
 21
-1.0
 31
0.0
  0
XLINE
  5
28DB
330
1F
100
AcDbEntity
  8
構築線
370
     5
100
AcDbXline
 10
40.70151402540432
 20
150.4711488256961
 30
0.0
 11
1.0
 21
0.0
 31
0.0
  0
XLINE
  5
28DC
330
1F
100
AcDbEntity
  8
構築線
370
     5
100
AcDbXline
 10
40.70151402540432
 20
210.4711488256961
 30
0.0
 11
1.0
 21
0.0
 31
0.0
  0
XLINE
  5
28DD
330
1F
100
AcDbEntity
  8
構築線
 62
     3
370
     5
100
AcDbXline
 10
40.70151402540432
 20
180.4711488256961
 30
0.0
 11
1.0
 21
0.0
 31
0.0
  0
CIRCLE
  5
28DE
330
1F
100
AcDbEntity
  8
太線
100
AcDbCircle
 10
72.20151402540432
 20
180.4711488256961
 30
0.0
 40
30.0
  0
XLINE
  5
28DF
330
1F
100
AcDbEntity
  8
構築線
370
     5
100
AcDbXline
 10
152.2015140254043
 20
178.0193172078315
 30
0.0
 11
0.0
 21
-1.0
 31
0.0
  0
LINE
  5
28E0
330
1F
100
AcDbEntity
  8
太線
100
AcDbLine
 10
42.20151402540432
 20
180.4711488256961
 30
0.0
 11
42.20151402540432
 21
115.4711488256961
 31
0.0
  0
XLINE
  5
28E6
330
1F
100
AcDbEntity
  8
構築線
370
     5
100
AcDbXline
 10
97.20151402540432
 20
178.0193172078315
 30
0.0
 11
0.0
 21
-1.0
 31
0.0
  0
XLINE
  5
28E7
330
1F
100
AcDbEntity
  8
構築線
370
     5
100
AcDbXline
 10
47.20151402540432
 20
178.0193172078315
 30
0.0
 11
0.0
 21
-1.0
 31
0.0
  0
XLINE
  5
28E8
330
1F
100
AcDbEntity
  8
構築線
370
     5
100
AcDbXline
 10
40.70151402540432
 20
205.4711488256961
 30
0.0
 11
1.0
 21
0.0
 31
0.0
  0
XLINE
  5
28E9
330
1F
100
AcDbEntity
  8
構築線
370
     5
100
AcDbXline
 10
40.70151402540432
 20
155.4711488256961
 30
0.0
 11
1.0
 21
0.0
 31
0.0
  0
CIRCLE
  5
28EA
330
1F
100
AcDbEntity
  8
太線
100
AcDbCircle
 10
72.20151402540432
 20
180.4711488256961
 30
0.0
 40
25.0
  0
XLINE
  5
28EB
330
1F
100
AcDbEntity
  8
構築線
100
AcDbXline
 10
217.6414745488584
 20
210.4788998873083
 30
0.0
 11
0.0
 21
-1.0
 31
0.0
  0
XLINE
  5
28ED
330
1F
100
AcDbEntity
  8
構築線
 62
     3
100
AcDbXline
 10
247.6414745488584
 20
210.4788998873083
 30
0.0
 11
0.0
 21
-1.0
 31
0.0
  0
LINE
  5
28F8
330
1F
100
AcDbEntity
  8
想像線
100
AcDbLine
 10
47.20151402540432
 20
115.4711488256961
 30
0.0
 11
47.20151402540432
 21
150.4711488256961
 31
0.0
  0
LINE
  5
28F9
330
1F
100
AcDbEntity
  8
想像線
100
AcDbLine
 10
47.20151402540432
 20
150.4711488256961
 30
0.0
 11
97.20151402540432
 21
150.4711488256961
 31
0.0
  0
LINE
  5
28FA
330
1F
100
AcDbEntity
  8
想像線
100
AcDbLine
 10
97.20151402540432
 20
150.4711488256961
 30
0.0
 11
97.2015140254043
 21
115.4711488256961
 31
0.0
  0
LINE
  5
28FE
330
1F
100
AcDbEntity
  8
想像線
100
AcDbLine
 10
222.6414745488584
 20
115.4711488256961
 30
0.0
 11
222.6414745488584
 21
150.4711488256961
 31
0.0
  0
LINE
  5
28FF
330
1F
100
AcDbEntity
  8
想像線
100
AcDbLine
 10
222.6414745488584
 20
150.4711488256961
 30
0.0
 11
272.6414745488584
 21
150.4711488256961
 31
0.0
  0
LINE
  5
2900
330
1F
100
AcDbEntity
  8
想像線
100
AcDbLine
 10
272.6414745488584
 20
150.4711488256961
 30
0.0
 11
272.6414745488584
 21
115.4711488256961
 31
0.0
  0
XLINE
  5
2905
330
1F
100
AcDbEntity
  8
構築線
100
AcDbXline
 10
102.7912907694046
 20
31.53560202454525
 30
0.0
 11
1.0
 21
0.0
 31
0.0
  0
XLINE
  5
2906
330
1F
100
AcDbEntity
  8
構築線
100
AcDbXline
 10
102.7912907694046
 20
61.53560202454525
 30
0.0
 11
1.0
 21
0.0
 31
0.0
  0
XLINE
  5
2907
330
1F
100
AcDbEntity
  8
構築線
100
AcDbXline
 10
102.7912907694046
 20
1.535602024545255
 30
0.0
 11
1.0
 21
0.0
 31
0.0
  0
XLINE
  5
2908
330
1F
100
AcDbEntity
  8
構築線
100
AcDbXline
 10
102.7912907694046
 20
56.53560202454525
 30
0.0
 11
1.0
 21
0.0
 31
0.0
  0
XLINE
  5
2909
330
1F
100
AcDbEntity
  8
構築線
100
AcDbXline
 10
102.7912907694046
 20
6.535602024545255
 30
0.0
 11
1.0
 21
0.0
 31
0.0
  0
CIRCLE
  5
290A
330
1F
100
AcDbEntity
  8
太線
100
AcDbCircle
 10
247.6414745488584
 20
31.53560202454525
 30
0.0
 40
30.0
  0
CIRCLE
  5
290B
330
1F
100
AcDbEntity
  8
太線
100
AcDbCircle
 10
247.6414745488584
 20
31.53560202454525
 30
0.0
 40
25.0
  0
LINE
  5
290F
330
1F
100
AcDbEntity
  8
太線
100
AcDbLine
 10
247.6414745488584
 20
61.53560202454525
 30
0.0
 11
217.6414745488584
 21
61.53560202454525
 31
0.0
  0
LINE
  5
2911
330
1F
100
AcDbEntity
  8
太線
100
AcDbLine
 10
217.6414745488584
 20
1.535602024545255
 30
0.0
 11
247.6414745488584
 21
1.535602024545248
 31
0.0
  0
TEXT
  5
29C1
330
1F
100
AcDbEntity
  8
文字
100
AcDbText
 10
294.6160411600212
 20
-27.71684312069623
 30
0.0
 40
3.599999999999999
  1
SET SCREW COUP
 51
15.0
  7
OKANO
100
AcDbText
  0
TEXT
  5
29C2
330
1F
100
AcDbEntity
  8
文字
100
AcDbText
 10
275.1070859623077
 20
-35.52497173398167
 30
0.0
 40
4.799999999999999
  1
joint kogyo T.okano
 51
15.0
  7
OKANO
100
AcDbText
  0
TEXT
  5
29C3
330
1F
100
AcDbEntity
  8
文字
100
AcDbText
 10
267.6187729505109
 20
-20.77260022669388
 30
0.0
 40
4.799999999999999
  1
F-999-20130824 Auto CAD
 51
15.0
  7
OKANO
100
AcDbText
  0
LINE
  5
29C4
330
1F
100
AcDbEntity
  8
太線
100
AcDbLine
 10
240.196544768897
 20
-21.69340787712424
 30
0.0
 11
348.196544768897
 21
-21.69340787712424
 31
0.0
  0
LWPOLYLINE
  5
29C5
330
1F
100
AcDbEntity
  8
太線
100
AcDbPolyline
 90
        4
 70
     1
 43
0.0
 10
240.196544768897
 20
-13.29340787712424
 10
348.196544768897
 20
-13.29340787712424
 10
348.196544768897
 20
-38.49340787712424
 10
240.196544768897
 20
-38.49340787712424
  0
TEXT
  5
29C6
330
1F
100
AcDbEntity
  8
文字
100
AcDbText
 10
244.0689283349545
 20
-29.88691967597492
 30
0.0
 40
2.399999999999999
  1
CHECK
 51
15.0
  7
OKANO
100
AcDbText
  0
LINE
  5
29C7
330
1F
100
AcDbEntity
  8
太線
100
AcDbLine
 10
264.196544768897
 20
-13.29340787712424
 30
0.0
 11
264.196544768897
 21
-38.49340787712424
 31
0.0
  0
TEXT
  5
29C8
330
1F
100
AcDbEntity
  8
文字
100
AcDbText
 10
244.0689283349545
 20
-36.80634728219074
 30
0.0
 40
2.399999999999999
  1
ISSUED
 51
15.0
  7
OKANO
100
AcDbText
  0
TEXT
  5
29C9
330
1F
100
AcDbEntity
  8
文字
100
AcDbText
 10
244.3254427678553
 20
-33.47477109292261
 30
0.0
 40
2.399999999999999
  1
APPR
 51
15.0
  7
OKANO
100
AcDbText
  0
TEXT
  5
29CA
330
1F
100
AcDbEntity
  8
文字
100
AcDbText
 10
242.2733327832688
 20
-19.89219169835908
 30
0.0
 40
2.399999999999999
  1
FILM NAME
 51
15.0
  7
OKANO
100
AcDbText
  0
TEXT
  5
29CB
330
1F
100
AcDbEntity
  8
文字
100
AcDbText
 10
243.5559016606009
 20
-26.29906884921588
 30
0.0
 40
2.399999999999999
  1
DRAWN
 51
15.0
  7
OKANO
100
AcDbText
  0
TEXT
  5
29CC
330
1F
100
AcDbEntity
  8
文字
100
AcDbText
 10
274.5940581922302
 20
-28.0929942625954
 30
0.0
 40
4.799999999999999
  1
3-2T
 51
15.0
  7
OKANO
100
AcDbText
  0
XLINE
  5
29D1
330
1F
100
AcDbEntity
  8
構築線
370
     5
100
AcDbXline
 10
40.70151402540432
 20
260.4711488256961
 30
0.0
 11
1.0
 21
0.0
 31
0.0
  0
LINE
  5
29D8
330
1F
100
AcDbEntity
  8
太線
100
AcDbLine
 10
102.2015140254043
 20
178.0193172078315
 30
0.0
 11
102.2015140254043
 21
115.4711488256961
 31
0.0
  0
LINE
  5
29DF
330
1F
100
AcDbEntity
  8
太線
100
AcDbLine
 10
247.6414745488584
 20
61.53560202454525
 30
0.0
 11
277.6414745488584
 21
61.53560202454525
 31
0.0
  0
LINE
  5
29E1
330
1F
100
AcDbEntity
  8
太線
100
AcDbLine
 10
278.2312512928588
 20
1.535602024545255
 30
0.0
 11
247.6414745488584
 21
1.535602024545248
 31
0.0
  0
LINE
  5
2A65
330
1F
100
AcDbEntity
  8
太線
100
AcDbLine
 10
217.6414745488584
 20
210.4711488256961
 30
0.0
 11
277.6414745488584
 21
210.4711488256961
 31
0.0
  0
XLINE
  5
2A75
330
1F
100
AcDbEntity
  8
構築線
100
AcDbXline
 10
287.6414745488584
 20
210.4788998873083
 30
0.0
 11
0.0
 21
-1.0
 31
0.0
  0
XLINE
  5
2A76
330
1F
100
AcDbEntity
  8
構築線
100
AcDbXline
 10
207.6414745488584
 20
210.4788998873083
 30
0.0
 11
0.0
 21
-1.0
 31
0.0
  0
XLINE
  5
2A8E
330
1F
100
AcDbEntity
  8
構築線
370
     5
100
AcDbXline
 10
40.70151402540432
 20
147.4711488256961
 30
0.0
 11
1.0
 21
0.0
 31
0.0
  0
XLINE
  5
2A8F
330
1F
100
AcDbEntity
  8
構築線
100
AcDbXline
 10
280.6414745488584
 20
210.4788998873083
 30
0.0
 11
0.0
 21
-1.0
 31
0.0
  0
XLINE
  5
2A90
330
1F
100
AcDbEntity
  8
構築線
100
AcDbXline
 10
214.6414745488584
 20
210.4788998873083
 30
0.0
 11
0.0
 21
-1.0
 31
0.0
  0
CIRCLE
  5
2A91
330
1F
100
AcDbEntity
  8
太線
 62
     0
100
AcDbCircle
 10
280.6414745488584
 20
147.4711488256961
 30
0.0
 40
3.0
  0
LINE
  5
2A94
330
1F
100
AcDbEntity
  8
太線
 62
     0
100
AcDbLine
 10
277.6414745488584
 20
210.4711488256961
 30
0.0
 11
287.6414745488584
 21
210.4788998873083
 31
0.0
  0
LINE
  5
2A96
330
1F
100
AcDbEntity
  8
太線
 62
     0
100
AcDbLine
 10
277.6414745488584
 20
150.4711488256961
 30
0.0
 11
287.6414745488584
 21
150.4711488256961
 31
0.0
  0
LINE
  5
2A97
330
1F
100
AcDbEntity
  8
太線
 62
     0
100
AcDbLine
 10
277.6414745488584
 20
115.4711488256961
 30
0.0
 11
277.6414745488584
 21
125.4711488256961
 31
0.0
  0
LINE
  5
2A99
330
1F
100
AcDbEntity
  8
太線
 62
     0
100
AcDbLine
 10
277.6414745488584
 20
150.4711488256961
 30
0.0
 11
277.6414745488584
 21
125.4711488256961
 31
0.0
  0
LINE
  5
2A9E
330
1F
100
AcDbEntity
  8
太線
 62
     0
100
AcDbLine
 10
217.6414745488584
 20
210.4711488256961
 30
0.0
 11
207.6414745488584
 21
210.4788998873083
 31
0.0
  0
CIRCLE
  5
2AA1
330
1F
100
AcDbEntity
  8
太線
 62
     0
100
AcDbCircle
 10
214.6414745488584
 20
147.4711488256961
 30
0.0
 40
3.0
  0
XLINE
  5
2AA3
330
1F
100
AcDbEntity
  8
構築線
370
     5
100
AcDbXline
 10
74.70151402540432
 20
178.0193172078315
 30
0.0
 11
0.0
 21
-1.0
 31
0.0
  0
XLINE
  5
2AA4
330
1F
100
AcDbEntity
  8
構築線
370
     5
100
AcDbXline
 10
69.70151402540432
 20
178.0193172078315
 30
0.0
 11
0.0
 21
-1.0
 31
0.0
  0
LINE
  5
2AA5
330
1F
100
AcDbEntity
  8
太線
 62
     0
100
AcDbLine
 10
69.70151402540432
 20
150.4711488256961
 30
0.0
 11
69.70151402540432
 21
125.4711488256961
 31
0.0
  0
LINE
  5
2AA6
330
1F
100
AcDbEntity
  8
太線
 62
     0
100
AcDbLine
 10
69.70151402540432
 20
125.4711488256961
 30
0.0
 11
74.70151402540432
 21
125.4711488256961
 31
0.0
  0
LINE
  5
2AA7
330
1F
100
AcDbEntity
  8
太線
 62
     0
100
AcDbLine
 10
74.70151402540432
 20
125.4711488256961
 30
0.0
 11
74.70151402540432
 21
150.5754969679426
 31
0.0
  0
XLINE
  5
2AAA
330
1F
100
AcDbEntity
  8
構築線
100
AcDbXline
 10
102.7912907694046
 20
34.03560202454525
 30
0.0
 11
1.0
 21
0.0
 31
0.0
  0
XLINE
  5
2AAB
330
1F
100
AcDbEntity
  8
構築線
100
AcDbXline
 10
102.7912907694046
 20
29.03560202454525
 30
0.0
 11
1.0
 21
0.0
 31
0.0
  0
LINE
  5
2AAC
330
1F
100
AcDbEntity
  8
太線
 62
     0
100
AcDbLine
 10
277.6414745488584
 20
61.53560202454525
 30
0.0
 11
287.6414745488584
 21
61.53560202454525
 31
0.0
  0
LINE
  5
2AAE
330
1F
100
AcDbEntity
  8
太線
 62
     0
100
AcDbLine
 10
287.6414745488584
 20
1.535602024545255
 30
0.0
 11
277.6414745488584
 21
1.535602024545255
 31
0.0
  0
LINE
  5
2AAF
330
1F
100
AcDbEntity
  8
太線
 62
     0
100
AcDbLine
 10
217.6414745488584
 20
61.53560202454525
 30
0.0
 11
207.6414745488584
 21
61.53560202454525
 31
0.0
  0
LINE
  5
2AB1
330
1F
100
AcDbEntity
  8
太線
 62
     0
100
AcDbLine
 10
207.6414745488584
 20
1.535602024545255
 30
0.0
 11
217.6414745488584
 21
1.535602024545255
 31
0.0
  0
LINE
  5
2AB2
330
1F
100
AcDbEntity
  8
太線
 62
     0
100
AcDbLine
 10
277.5371264066119
 20
34.03560202454525
 30
0.0
 11
287.6414745488584
 21
34.03560202454525
 31
0.0
  0
LINE
  5
2AB3
330
1F
100
AcDbEntity
  8
太線
 62
     0
100
AcDbLine
 10
287.6414745488584
 20
29.03560202454525
 30
0.0
 11
277.6414745488584
 21
29.03560202454525
 31
0.0
  0
LINE
  5
2AB4
330
1F
100
AcDbEntity
  8
太線
 62
     0
100
AcDbLine
 10
217.6414745488584
 20
34.03560202454525
 30
0.0
 11
207.6414745488584
 21
34.03560202454525
 31
0.0
  0
LINE
  5
2AB5
330
1F
100
AcDbEntity
  8
太線
 62
     0
100
AcDbLine
 10
207.6414745488584
 20
29.03560202454525
 30
0.0
 11
217.6414745488584
 21
29.03560202454525
 31
0.0
  0
XLINE
  5
2ABE
330
1F
100
AcDbEntity
  8
構築線
100
AcDbXline
 10
283.6414745488584
 20
210.4788998873083
 30
0.0
 11
0.0
 21
-1.0
 31
0.0
  0
XLINE
  5
2AC0
330
1F
100
AcDbEntity
  8
構築線
100
AcDbXline
 10
211.6414745488584
 20
210.4788998873083
 30
0.0
 11
0.0
 21
-1.0
 31
0.0
  0
LINE
  5
2AC1
330
1F
100
AcDbEntity
  8
破線
 62
     0
100
AcDbLine
 10
283.6414745488584
 20
34.03560202454525
 30
0.0
 11
283.6414745488584
 21
29.03560202454525
 31
0.0
  0
LINE
  5
2AC2
330
1F
100
AcDbEntity
  8
破線
 62
     0
100
AcDbLine
 10
211.6414745488584
 20
34.03560202454525
 30
0.0
 11
211.6414745488584
 21
29.03560202454525
 31
0.0
  0
LINE
  5
2AC5
330
1F
100
AcDbEntity
  8
太線
 62
     0
100
AcDbLine
 10
217.6414745488584
 20
115.4711488256961
 30
0.0
 11
217.6414745488584
 21
150.4711488256961
 31
0.0
  0
LINE
  5
2AC6
330
1F
100
AcDbEntity
  8
太線
 62
     0
100
AcDbLine
 10
217.6414745488584
 20
150.4711488256961
 30
0.0
 11
207.6414745488584
 21
150.4711488256961
 31
0.0
  0
DIMENSION
  5
2B0D
330
1F
100
AcDbEntity
  8
寸法線
100
AcDbDimension
  2
*D2
 10
295.2418428980147
 20
125.4711488256961
 30
0.0
 11
291.7413507720305
 21
137.9711488256961
 31
0.0
 70
    32
 71
     5
 42
25.0
  3
sunpo
100
AcDbAlignedDimension
 13
287.6414745488584
 23
150.4711488256961
 33
0.0
 14
277.6414745488584
 24
125.4711488256961
 34
0.0
 50
90.0
100
AcDbRotatedDimension
1001
ACAD
1000
DSTYLE
1002
{
1070
    40
1040
1.0
1002
}
  0
LINE
  5
2B1A
330
1F
100
AcDbEntity
  8
想像線
100
AcDbLine
 10
207.6414745488584
 20
205.4711488256961
 30
0.0
 11
287.6414745488584
 21
205.4711488256961
 31
0.0
  0
LINE
  5
2B1B
330
1F
100
AcDbEntity
  8
想像線
100
AcDbLine
 10
207.6414745488584
 20
155.4711488256961
 30
0.0
 11
287.6414745488584
 21
155.4711488256961
 31
0.0
  0
DIMENSION
  5
2B29
330
1F
100
AcDbEntity
  8
寸法線
100
AcDbDimension
  2
*D3
 10
213.0210285732383
 20
144.9464399632534
 30
0.0
 11
227.2420299111857
 21
167.1032342352658
 31
0.0
 70
   163
 71
     5
 42
6.0
  3
sunpo
100
AcDbDiametricDimension
 15
216.2619205244785
 25
149.9958576881388
 35
0.0
 40
0.0
1001
ACAD
1000
DSTYLE
1002
{
1070
    40
1040
1.0
1070
   288
1070
     1
1002
}
  0
XLINE
  5
2B54
330
1F
100
AcDbEntity
  8
構築線
100
AcDbXline
 10
215.1238126587759
 20
144.3069187020544
 30
0.0
 11
-1.0
 21
0.0
 31
0.0
  0
LINE
  5
2B55
330
1F
100
AcDbEntity
  8
破線
100
AcDbLine
 10
69.70151402540432
 20
144.3069187020544
 30
0.0
 11
74.70151402540432
 21
144.3069187020544
 31
0.0
  0
XLINE
  5
2B67
330
1F
100
AcDbEntity
  8
構築線
370
     5
100
AcDbXline
 10
40.70151402540432
 20
115.4711488256961
 30
0.0
 11
1.0
 21
0.0
 31
0.0
  0
LINE
  5
2B68
330
1F
100
AcDbEntity
  8
太線
100
AcDbLine
 10
42.20151402540432
 20
115.4711488256961
 30
0.0
 11
102.2015140254043
 21
115.4711488256961
 31
0.0
  0
LINE
  5
2B69
330
1F
100
AcDbEntity
  8
太線
100
AcDbLine
 10
217.6414745488584
 20
115.4711488256961
 30
0.0
 11
277.6414745488584
 21
115.4711488256961
 31
0.0
  0
CIRCLE
  5
2B6B
330
1F
100
AcDbEntity
  8
細線
100
AcDbCircle
 10
247.6414745488584
 20
31.53560202454525
 30
0.0
 40
23.95306275369432
  0
DIMENSION
  5
2C0C
330
1F
100
AcDbEntity
  8
寸法線
100
AcDbDimension
  2
*D4
 10
272.6414745488584
 20
99.69682858227907
 30
0.0
 11
275.1414745488584
 21
103.196828582279
 31
0.0
 70
    32
  1
4
 71
     5
 42
5.0
  3
sunpo
100
AcDbAlignedDimension
 13
277.6414745488584
 23
115.4711488256961
 33
0.0
 14
272.6414745488584
 24
115.4711488256961
 34
0.0
100
AcDbRotatedDimension
1001
ACAD
1000
DSTYLE
1002
{
1070
    40
1040
1.0
1002
}
  0
DIMENSION
  5
2C1B
330
1F
100
AcDbEntity
  8
寸法線
100
AcDbDimension
  2
*D5
 10
222.6414745488584
 20
99.69682858227907
 30
0.0
 11
247.6414745488584
 21
103.196828582279
 31
0.0
 70
    32
  1
49.3
 71
     5
 42
50.0
  3
sunpo
100
AcDbAlignedDimension
 13
272.6414745488584
 23
115.4711488256961
 33
0.0
 14
222.6414745488584
 24
115.4711488256961
 34
0.0
100
AcDbRotatedDimension
1001
ACAD
1000
DSTYLE
1002
{
1070
    40
1040
1.0
1070
   279
1070
     1
1002
}
  0
DIMENSION
  5
2C28
330
1F
100
AcDbEntity
  8
寸法線
100
AcDbDimension
  2
*D6
 10
217.6414745488584
 20
99.69682858227907
 30
0.0
 11
220.1414745488584
 21
103.196828582279
 31
0.0
 70
    32
  1
4
 71
     5
 42
5.0
  3
sunpo
100
AcDbAlignedDimension
 13
222.6414745488584
 23
115.4711488256961
 33
0.0
 14
217.6414745488584
 24
115.4711488256961
 34
0.0
100
AcDbRotatedDimension
1001
ACAD
1000
DSTYLE
1002
{
1070
    40
1040
1.0
1070
   279
1070
     1
1002
}
  0
DIMENSION
  5
2C56
330
1F
100
AcDbEntity
  8
寸法線
100
AcDbDimension
  2
*D7
 10
299.7797513513781
 20
205.4711488256961
 30
0.0
 11
296.279751351378
 21
180.4711488256961
 31
0.0
 70
    32
  1
49.6
 71
     5
 42
50.0
  3
sunpo
100
AcDbAlignedDimension
 13
287.6414745488584
 23
155.4711488256961
 33
0.0
 14
287.6414745488584
 24
205.4711488256961
 34
0.0
 50
90.0
100
AcDbRotatedDimension
1001
ACAD
1000
DSTYLE
1002
{
1070
    40
1040
1.0
1002
}
  0
DIMENSION
  5
2C9C
330
1F
100
AcDbEntity
  8
寸法線
100
AcDbDimension
  2
*D8
 10
124.8038073730103
 20
115.5979042470245
 30
0.0
 11
121.3021068494768
 21
163.0052931635388
 31
0.0
 70
    32
  1
92.3
 71
     5
 42
94.81477783302864
  3
sunpo
100
AcDbAlignedDimension
 13
72.08154446100161
 23
210.4126820800531
 33
0.0
 14
102.3968455597384
 24
115.5979042470245
 34
0.0
 50
90.0
100
AcDbRotatedDimension
1001
ACAD
1000
DSTYLE
1002
{
1070
    40
1040
1.0
1002
}
  0
DIMENSION
  5
2CBF
330
1F
100
AcDbEntity
  8
寸法線
100
AcDbDimension
  2
*D9
 10
272.6414745488584
 20
157.7729287011933
 30
0.0
 11
247.6414745488584
 21
161.2729287011933
 31
0.0
 70
    32
  1
49.0
 71
     5
 42
50.0
  3
sunpo
100
AcDbAlignedDimension
 13
222.6414745488584
 23
150.4711488256961
 33
0.0
 14
272.6414745488584
 24
150.4711488256961
 34
0.0
100
AcDbRotatedDimension
1001
ACAD
1000
DSTYLE
1002
{
1070
    40
1040
1.0
1002
}
  0
DIMENSION
  5
2CE5
330
1F
100
AcDbEntity
  8
寸法線
100
AcDbDimension
  2
*D10
 10
74.70151402540432
 20
104.0796795782234
 30
0.0
 11
72.20151402540432
 21
107.5796795782234
 31
0.0
 70
    32
  1
4
 71
     5
 42
5.0
  3
sunpo
100
AcDbAlignedDimension
 13
69.70151402540432
 23
125.4711488256961
 33
0.0
 14
74.70151402540432
 24
125.4711488256961
 34
0.0
100
AcDbRotatedDimension
1001
ACAD
1000
DSTYLE
1002
{
1070
    40
1040
1.0
1002
}
  0
DIMENSION
  5
2CFF
330
1F
100
AcDbEntity
  8
寸法線
100
AcDbDimension
  2
*D11
 10
97.2015140254043
 20
80.81494226547864
 30
0.0
 11
99.70151402540432
 21
84.31494226547863
 31
0.0
 70
    32
  1
4
 71
     5
 42
5.000000000000014
  3
sunpo
100
AcDbAlignedDimension
 13
102.2015140254043
 23
115.4711488256961
 33
0.0
 14
97.2015140254043
 24
115.4711488256961
 34
0.0
100
AcDbRotatedDimension
1001
ACAD
1000
DSTYLE
1002
{
1070
    40
1040
1.0
1002
}
  0
DIMENSION
  5
2D0E
330
1F
100
AcDbEntity
  8
寸法線
100
AcDbDimension
  2
*D12
 10
47.20151402540432
 20
80.81494226547864
 30
0.0
 11
72.20151402540432
 21
84.31494226547863
 31
0.0
 70
    32
  1
49.3
 71
     5
 42
49.99999999999999
  3
sunpo
100
AcDbAlignedDimension
 13
97.2015140254043
 23
115.4711488256961
 33
0.0
 14
47.20151402540432
 24
115.4711488256961
 34
0.0
100
AcDbRotatedDimension
1001
ACAD
1000
DSTYLE
1002
{
1070
    40
1040
1.0
1070
   279
1070
     1
1002
}
  0
DIMENSION
  5
2D1B
330
1F
100
AcDbEntity
  8
寸法線
100
AcDbDimension
  2
*D13
 10
42.20151402540432
 20
80.81494226547864
 30
0.0
 11
44.70151402540432
 21
84.31494226547863
 31
0.0
 70
    32
  1
4
 71
     5
 42
5.0
  3
sunpo
100
AcDbAlignedDimension
 13
47.20151402540432
 23
115.4711488256961
 33
0.0
 14
42.20151402540432
 24
115.4711488256961
 34
0.0
100
AcDbRotatedDimension
1001
ACAD
1000
DSTYLE
1002
{
1070
    40
1040
1.0
1070
   279
1070
     1
1002
}
  0
DIMENSION
  5
2D49
330
1F
100
AcDbEntity
  8
寸法線
100
AcDbDimension
  2
*D14
 10
193.3427502145241
 20
1.535602024545259
 30
0.0
 11
189.8427502145241
 21
31.53560202454529
 31
0.0
 70
    32
  1
57.3
 71
     5
 42
60.0
  3
sunpo
100
AcDbAlignedDimension
 13
207.6414745488584
 23
61.53560202454525
 33
0.0
 14
207.6414745488584
 24
1.535602024545255
 34
0.0
 50
90.0
100
AcDbRotatedDimension
1001
ACAD
1000
DSTYLE
1002
{
1070
    40
1040
1.0
1002
}
  0
DIMENSION
  5
2D5F
330
1F
100
AcDbEntity
  8
寸法線
100
AcDbDimension
  2
*D15
 10
300.9840385282172
 20
34.03560202454525
 30
0.0
 11
297.4840385282173
 21
31.5356020245453
 31
0.0
 70
    32
  1
4
 71
     5
 42
5.0
  3
sunpo
100
AcDbAlignedDimension
 13
287.6414745488584
 23
29.03560202454525
 33
0.0
 14
287.6414745488584
 24
34.03560202454525
 34
0.0
 50
90.0
100
AcDbRotatedDimension
1001
ACAD
1000
DSTYLE
1002
{
1070
    40
1040
1.0
1002
}
  0
XLINE
  5
2D90
330
1F
100
AcDbEntity
  8
構築線
 62
     3
100
AcDbXline
 10
289.6414745488584
 20
210.4788998873083
 30
0.0
 11
0.0
 21
-1.0
 31
0.0
  0
XLINE
  5
2D91
330
1F
100
AcDbEntity
  8
構築線
 62
     3
100
AcDbXline
 10
205.6414745488584
 20
210.4788998873083
 30
0.0
 11
0.0
 21
-1.0
 31
0.0
  0
LINE
  5
2D92
330
1F
100
AcDbEntity
  8
太線
100
AcDbLine
 10
207.6414745488584
 20
210.4711488256961
 30
0.0
 11
205.6414745488584
 21
210.4788998873083
 31
0.0
  0
LINE
  5
2D93
330
1F
100
AcDbEntity
  8
太線
100
AcDbLine
 10
205.6414745488584
 20
210.4788998873083
 30
0.0
 11
205.6414745488584
 21
150.4711488256961
 31
0.0
  0
LINE
  5
2D94
330
1F
100
AcDbEntity
  8
太線
100
AcDbLine
 10
205.6414745488584
 20
150.4711488256961
 30
0.0
 11
217.6414745488584
 21
125.4711488256961
 31
0.0
  0
LINE
  5
2D95
330
1F
100
AcDbEntity
  8
太線
100
AcDbLine
 10
277.6414745488584
 20
125.4711488256961
 30
0.0
 11
289.6414745488584
 21
150.4711488256961
 31
0.0
  0
LINE
  5
2D96
330
1F
100
AcDbEntity
  8
太線
100
AcDbLine
 10
289.6414745488584
 20
150.4711488256961
 30
0.0
 11
289.6414745488584
 21
210.4711488256961
 31
0.0
  0
LINE
  5
2D97
330
1F
100
AcDbEntity
  8
太線
100
AcDbLine
 10
289.6414745488584
 20
210.4711488256961
 30
0.0
 11
287.6414745488584
 21
210.4711488256961
 31
0.0
  0
LINE
  5
2D9A
330
1F
100
AcDbEntity
  8
太線
100
AcDbLine
 10
287.6414745488584
 20
61.53560202454525
 30
0.0
 11
289.6414745488584
 21
61.53560202454525
 31
0.0
  0
LINE
  5
2D9B
330
1F
100
AcDbEntity
  8
太線
100
AcDbLine
 10
289.6414745488584
 20
61.53560202454525
 30
0.0
 11
289.6414745488584
 21
1.535602024545255
 31
0.0
  0
LINE
  5
2D9C
330
1F
100
AcDbEntity
  8
太線
100
AcDbLine
 10
289.6414745488584
 20
1.535602024545255
 30
0.0
 11
287.6414745488584
 21
1.535602024545255
 31
0.0
  0
LINE
  5
2D9D
330
1F
100
AcDbEntity
  8
太線
100
AcDbLine
 10
207.6414745488584
 20
61.53560202454525
 30
0.0
 11
205.6414745488584
 21
61.53560202454525
 31
0.0
  0
LINE
  5
2D9E
330
1F
100
AcDbEntity
  8
太線
100
AcDbLine
 10
205.6414745488584
 20
61.53560202454525
 30
0.0
 11
205.6414745488584
 21
1.535602024545256
 31
0.0
  0
LINE
  5
2D9F
330
1F
100
AcDbEntity
  8
太線
100
AcDbLine
 10
205.6414745488584
 20
1.535602024545256
 30
0.0
 11
207.6414745488584
 21
1.535602024545255
 31
0.0
  0
LINE
  5
2DA0
330
1F
100
AcDbEntity
  8
太線
100
AcDbLine
 10
207.6414745488584
 20
34.03560202454525
 30
0.0
 11
205.6414745488584
 21
34.03560202454525
 31
0.0
  0
LINE
  5
2DA1
330
1F
100
AcDbEntity
  8
太線
100
AcDbLine
 10
205.6414745488584
 20
29.03560202454525
 30
0.0
 11
207.6414745488584
 21
29.03560202454525
 31
0.0
  0
LINE
  5
2DA2
330
1F
100
AcDbEntity
  8
太線
100
AcDbLine
 10
289.6414745488584
 20
34.03560202454525
 30
0.0
 11
287.6414745488584
 21
34.03560202454525
 31
0.0
  0
LINE
  5
2DA3
330
1F
100
AcDbEntity
  8
太線
100
AcDbLine
 10
289.6414745488584
 20
29.03560202454525
 30
0.0
 11
287.6414745488584
 21
29.03560202454525
 31
0.0
  0
LINE
  5
2DA4
330
1F
100
AcDbEntity
  8
太線
100
AcDbLine
 10
287.6414745488584
 20
150.4711488256961
 30
0.0
 11
289.6414745488584
 21
150.4711488256961
 31
0.0
  0
LINE
  5
2DA5
330
1F
100
AcDbEntity
  8
太線
100
AcDbLine
 10
207.6414745488584
 20
150.4711488256961
 30
0.0
 11
205.6414745488584
 21
150.4711488256961
 31
0.0
  0
DIMENSION
  5
2DA6
330
1F
100
AcDbEntity
  8
寸法線
100
AcDbDimension
  2
*D16
 10
289.6414745488584
 20
219.1502729214653
 30
0.0
 11
247.6414745488584
 21
222.6502729214653
 31
0.0
 70
    32
  1
81.3
 71
     5
 42
84.0
  3
sunpo
100
AcDbAlignedDimension
 13
205.6414745488584
 23
210.4788998873083
 33
0.0
 14
289.6414745488584
 24
210.4711488256961
 34
0.0
100
AcDbRotatedDimension
1001
ACAD
1000
DSTYLE
1002
{
1070
    40
1040
1.0
1002
}
  0
DIMENSION
  5
2DBC
330
1F
100
AcDbEntity
  8
寸法線
100
AcDbDimension
  2
*D17
 10
190.824686406431
 20
150.4711488256961
 30
0.0
 11
187.324686406431
 21
132.9711488256962
 31
0.0
 70
    32
 71
     5
 42
35.00000000000001
  3
sunpo
100
AcDbAlignedDimension
 13
217.6414745488584
 23
115.4711488256961
 33
0.0
 14
217.6414745488584
 24
150.4711488256961
 34
0.0
 50
90.0
100
AcDbRotatedDimension
1001
ACAD
1000
DSTYLE
1002
{
1070
    40
1040
1.0
1002
}
  0
DIMENSION
  5
2DC9
330
1F
100
AcDbEntity
  8
寸法線
100
AcDbDimension
  2
*D18
 10
190.824686406431
 20
155.4711488256961
 30
0.0
 11
187.324686406431
 21
152.9711488256962
 31
0.0
 70
    32
  1
4
 71
     5
 42
5.0
  3
sunpo
100
AcDbAlignedDimension
 13
217.6414745488584
 23
150.4711488256961
 33
0.0
 14
207.6414745488584
 24
155.4711488256961
 34
0.0
 50
90.0
100
AcDbRotatedDimension
1001
ACAD
1000
DSTYLE
1002
{
1070
    40
1040
1.0
1070
   279
1070
     1
1002
}
  0
DIMENSION
  5
2DD8
330
1F
100
AcDbEntity
  8
寸法線
100
AcDbDimension
  2
*D19
 10
190.824686406431
 20
205.4711488256962
 30
0.0
 11
187.324686406431
 21
180.4711488256962
 31
0.0
 70
    32
  1
49.3
 71
     5
 42
50.0
  3
sunpo
100
AcDbAlignedDimension
 13
207.6414745488584
 23
155.4711488256961
 33
0.0
 14
207.6414745488584
 24
205.4711488256961
 34
0.0
 50
90.0
100
AcDbRotatedDimension
1001
ACAD
1000
DSTYLE
1002
{
1070
    40
1040
1.0
1070
   279
1070
     1
1002
}
  0
DIMENSION
  5
2DE5
330
1F
100
AcDbEntity
  8
寸法線
100
AcDbDimension
  2
*D20
 10
190.824686406431
 20
210.4711488256961
 30
0.0
 11
187.324686406431
 21
207.9711488256962
 31
0.0
 70
    32
  1
4
 71
     5
 42
5.0
  3
sunpo
100
AcDbAlignedDimension
 13
207.6414745488584
 23
205.4711488256961
 33
0.0
 14
207.6414745488584
 24
210.4711488256961
 34
0.0
 50
90.0
100
AcDbRotatedDimension
1001
ACAD
1000
DSTYLE
1002
{
1070
    40
1040
1.0
1070
   279
1070
     1
1002
}
  0
DIMENSION
  5
2E2D
330
1F
100
AcDbEntity
  8
寸法線
100
AcDbDimension
  2
*D21
 10
289.6414745488584
 20
159.1390748809335
 30
0.0
 11
283.6414745488584
 21
162.6395670069177
 31
0.0
 70
    32
 71
     5
 42
12.0
  3
sunpo
100
AcDbAlignedDimension
 13
277.6414745488584
 23
150.4711488256961
 33
0.0
 14
289.6414745488584
 24
150.4711488256961
 34
0.0
100
AcDbRotatedDimension
1001
ACAD
1000
DSTYLE
1002
{
1070
    40
1040
1.0
1002
}
  0
LINE
  5
2E43
330
1F
100
AcDbEntity
  8
想像線
100
AcDbLine
 10
271.5945373025527
 20
150.4711488256961
 30
0.0
 11
271.5945373025527
 21
155.390433689534
 31
0.0
  0
LINE
  5
2E44
330
1F
100
AcDbEntity
  8
想像線
100
AcDbLine
 10
223.6884117951641
 20
150.4711488256961
 30
0.0
 11
223.6884117951641
 21
155.4711488256961
 31
0.0
  0
XLINE
  5
2E45
330
1F
100
AcDbEntity
  8
構築線
100
AcDbXline
 10
96.21750994380654
 20
180.4711488256961
 30
0.0
 11
0.0
 21
1.0
 31
0.0
  0
XLINE
  5
2E46
330
1F
100
AcDbEntity
  8
構築線
100
AcDbXline
 10
48.18551810700211
 20
180.4711488256961
 30
0.0
 11
0.0
 21
1.0
 31
0.0
  0
LINE
  5
2E47
330
1F
100
AcDbEntity
  8
想像線
100
AcDbLine
 10
96.21750994380654
 20
180.4711488256961
 30
0.0
 11
96.21750994380654
 21
150.4711488256961
 31
0.0
  0
LINE
  5
2E48
330
1F
100
AcDbEntity
  8
想像線
100
AcDbLine
 10
48.18551810700211
 20
180.4711488256961
 30
0.0
 11
48.18551810700211
 21
150.4711488256961
 31
0.0
  0
XLINE
  5
2E8E
330
1F
100
AcDbEntity
  8
構築線
 62
     3
100
AcDbXline
 10
277.6414745488584
 20
210.4788998873083
 30
0.0
 11
0.0
 21
-1.0
 31
0.0
  0
XLINE
  5
2E8F
330
1F
100
AcDbEntity
  8
構築線
 62
     3
100
AcDbXline
 10
217.6414745488584
 20
210.4788998873083
 30
0.0
 11
0.0
 21
-1.0
 31
0.0
  0
CIRCLE
  5
2E90
330
1F
100
AcDbEntity
  8
構築線
 62
     3
100
AcDbCircle
 10
277.6414745488584
 20
180.4711488256961
 30
0.0
 40
2.5
  0
XLINE
  5
2E96
330
1F
100
AcDbEntity
  8
構築線
 62
     3
100
AcDbXline
 10
32.50209977061877
 20
350.0952594353751
 30
0.0
 11
1.0
 21
0.0
 31
0.0
  0
CIRCLE
  5
2EB3
330
1F
100
AcDbEntity
  8
構築線
 62
     3
100
AcDbCircle
 10
167.2015140254043
 20
350.0952594353751
 30
0.0
 40
1.25
  0
XLINE
  5
2FE3
330
1F
100
AcDbEntity
  8
構築線
 62
     3
100
AcDbXline
 10
172.2015140254043
 20
362.5952594353751
 30
0.0
 11
1.0
 21
0.0
 31
0.0
  0
XLINE
  5
2FE4
330
1F
100
AcDbEntity
  8
構築線
 62
     3
100
AcDbXline
 10
172.2015140254043
 20
337.5952594353751
 30
0.0
 11
1.0
 21
0.0
 31
0.0
  0
XLINE
  5
2FE5
330
1F
100
AcDbEntity
  8
構築線
 62
     3
100
AcDbXline
 10
164.7015140254043
 20
317.5952594353751
 30
0.0
 11
0.0
 21
-1.0
 31
0.0
  0
XLINE
  5
2FE6
330
1F
100
AcDbEntity
  8
構築線
 62
     3
100
AcDbXline
 10
139.7015140254043
 20
317.5952594353751
 30
0.0
 11
0.0
 21
-1.0
 31
0.0
  0
XLINE
  5
2FE7
330
1F
100
AcDbEntity
  8
構築線
 62
     3
100
AcDbXline
 10
180.7250489652665
 20
362.5758409305583
 30
0.0
 11
0.0
 21
1.0
 31
0.0
  0
XLINE
  5
2FE8
330
1F
100
AcDbEntity
  8
構築線
 62
     3
100
AcDbXline
 10
123.5823981932987
 20
362.2917734930114
 30
0.0
 11
0.0
 21
1.0
 31
0.0
  0
XLINE
  5
2FE9
330
1F
100
AcDbEntity
  8
構築線
 62
     3
100
AcDbXline
 10
139.5027394286846
 20
310.0234009271736
 30
0.0
 11
1.0
 21
0.0
 31
0.0
  0
LINE
  5
308A
330
1F
100
AcDbEntity
  8
細線
 62
     0
100
AcDbLine
 10
537.6349142988599
 20
152.1877463084626
 30
0.0
 11
530.1349142988599
 21
152.1877463084626
 31
0.0
  0
LINE
  5
308B
330
1F
100
AcDbEntity
  8
細線
 62
     0
100
AcDbLine
 10
537.6349142988599
 20
156.1877463084626
 30
0.0
 11
530.1349142988599
 21
156.1877463084626
 31
0.0
  0
LINE
  5
308C
330
1F
100
AcDbEntity
  8
細線
 62
     0
100
AcDbLine
 10
530.1349142988599
 20
151.6877463084626
 30
0.0
 11
537.6349142988599
 21
151.6877463084626
 31
0.0
  0
LINE
  5
308D
330
1F
100
AcDbEntity
  8
細線
 62
     0
100
AcDbLine
 10
530.1349142988599
 20
156.6877463084626
 30
0.0
 11
537.6349142988599
 21
156.6877463084626
 31
0.0
  0
LINE
  5
308E
330
1F
100
AcDbEntity
  8
細線
 62
     0
100
AcDbLine
 10
530.1349142988599
 20
152.1877463084626
 30
0.0
 11
530.1349142988599
 21
156.1877463084626
 31
0.0
  0
LINE
  5
308F
330
1F
100
AcDbEntity
  8
細線
 62
     0
100
AcDbLine
 10
529.6349142988599
 20
152.1877463084626
 30
0.0
 11
529.6349142988599
 21
156.1877463084626
 31
0.0
  0
LINE
  5
3090
330
1F
100
AcDbEntity
  8
細線
 62
     0
100
AcDbLine
 10
485.6349142988599
 20
152.1877463084626
 30
0.0
 11
485.6349142988599
 21
156.1877463084626
 31
0.0
  0
LINE
  5
3091
330
1F
100
AcDbEntity
  8
細線
 62
     0
100
AcDbLine
 10
485.1349142988599
 20
152.1877463084626
 30
0.0
 11
485.1349142988599
 21
156.1877463084626
 31
0.0
  0
LINE
  5
3092
330
1F
100
AcDbEntity
  8
細線
 62
     0
100
AcDbLine
 10
477.6349142988599
 20
151.6877463084626
 30
0.0
 11
477.6349142988599
 21
156.6877463084626
 31
0.0
  0
ARC
  5
3093
330
1F
100
AcDbEntity
  8
太線
100
AcDbCircle
 10
468.826579084433
 20
154.1877463084626
 30
0.0
 40
2.5
100
AcDbArc
 50
348.463040967185
 51
11.53695903281653
  0
ARC
  5
3094
330
1F
100
AcDbEntity
  8
太線
100
AcDbCircle
 10
468.826579084433
 20
154.1877463084626
 30
0.0
 40
2.5
100
AcDbArc
 50
168.4630409671834
 51
191.5369590328149
  0
ARC
  5
3095
330
1F
100
AcDbEntity
  8
細線
 62
     0
100
AcDbCircle
 10
483.1349142988598
 20
154.1877463084626
 30
0.0
 40
8.49999999999995
100
AcDbArc
 50
151.9275130641469
 51
208.072486935853
  0
CIRCLE
  5
3096
330
1F
100
AcDbEntity
  8
太線
100
AcDbCircle
 10
468.826579084433
 20
154.1877463084626
 30
0.0
 40
4.0
  0
LINE
  5
3097
330
1F
100
AcDbEntity
  8
太線
100
AcDbLine
 10
466.3770893416499
 20
153.6877463084626
 30
0.0
 11
467.8265790844331
 21
153.6877463084625
 31
0.0
  0
LINE
  5
3098
330
1F
100
AcDbEntity
  8
太線
100
AcDbLine
 10
469.826579084433
 20
153.6877463084625
 30
0.0
 11
471.2760688272163
 21
153.6877463084626
 31
0.0
  0
ARC
  5
3099
330
1F
100
AcDbEntity
  8
太線
100
AcDbCircle
 10
468.826579084433
 20
154.1877463084626
 30
0.0
 40
2.5
100
AcDbArc
 50
258.4630409671818
 51
281.5369590328147
  0
LINE
  5
309A
330
1F
100
AcDbEntity
  8
太線
100
AcDbLine
 10
468.326579084433
 20
153.1877463084625
 30
0.0
 11
468.326579084433
 21
151.7382565656794
 31
0.0
  0
LINE
  5
309B
330
1F
100
AcDbEntity
  8
太線
100
AcDbLine
 10
469.326579084433
 20
151.7382565656794
 30
0.0
 11
469.326579084433
 21
153.1877463084625
 31
0.0
  0
ARC
  5
309C
330
1F
100
AcDbEntity
  8
太線
100
AcDbCircle
 10
469.826579084433
 20
153.1877463084626
 30
0.0
 40
0.5
100
AcDbArc
 50
90.0
 51
180.0
  0
ARC
  5
309D
330
1F
100
AcDbEntity
  8
太線
100
AcDbCircle
 10
467.8265790844331
 20
153.1877463084626
 30
0.0
 40
0.5
100
AcDbArc
 50
0.0
 51
90.0
  0
LINE
  5
309E
330
1F
100
AcDbEntity
  8
細線
 62
     0
100
AcDbLine
 10
485.1349142988599
 20
151.6877463084626
 30
0.0
 11
477.6349142988599
 21
151.6877463084626
 31
0.0
  0
LINE
  5
309F
330
1F
100
AcDbEntity
  8
細線
 62
     0
100
AcDbLine
 10
477.6349142988599
 20
152.1877463084626
 30
0.0
 11
485.1349142988599
 21
152.1877463084626
 31
0.0
  0
LINE
  5
30A0
330
1F
100
AcDbEntity
  8
細線
 62
     0
100
AcDbLine
 10
477.6349142988599
 20
150.1877463084626
 30
0.0
 11
475.6349142988599
 21
150.1877463084626
 31
0.0
  0
LINE
  5
30A1
330
1F
100
AcDbEntity
  8
細線
 62
     0
100
AcDbLine
 10
477.6349142988599
 20
151.6877463084626
 30
0.0
 11
477.6349142988599
 21
150.1877463084626
 31
0.0
  0
LINE
  5
30A2
330
1F
100
AcDbEntity
  8
細線
 62
     0
100
AcDbLine
 10
485.6349142988599
 20
152.1877463084626
 30
0.0
 11
485.1349142988599
 21
151.6877463084626
 31
0.0
  0
LINE
  5
30A3
330
1F
100
AcDbEntity
  8
細線
 62
     0
100
AcDbLine
 10
510.1349142988599
 20
131.6877463084626
 30
0.0
 11
510.1349142988599
 21
124.1877463084626
 31
0.0
  0
LINE
  5
30A4
330
1F
100
AcDbEntity
  8
細線
 62
     0
100
AcDbLine
 10
505.1349142988599
 20
131.6877463084626
 30
0.0
 11
505.1349142988599
 21
124.1877463084626
 31
0.0
  0
LINE
  5
30A5
330
1F
100
AcDbEntity
  8
細線
 62
     0
100
AcDbLine
 10
509.6349142988599
 20
124.1877463084626
 30
0.0
 11
509.6349142988599
 21
131.6877463084626
 31
0.0
  0
LINE
  5
30A6
330
1F
100
AcDbEntity
  8
細線
 62
     0
100
AcDbLine
 10
505.6349142988599
 20
124.1877463084626
 30
0.0
 11
505.6349142988599
 21
131.6877463084626
 31
0.0
  0
LINE
  5
30A7
330
1F
100
AcDbEntity
  8
太線
100
AcDbLine
 10
508.1349142988599
 20
114.3794110940358
 30
0.0
 11
508.1349142988599
 21
112.9299213512526
 31
0.0
  0
LINE
  5
30A8
330
1F
100
AcDbEntity
  8
太線
100
AcDbLine
 10
507.1349142988599
 20
112.9299213512526
 30
0.0
 11
507.1349142988599
 21
114.3794110940358
 31
0.0
  0
CIRCLE
  5
30A9
330
1F
100
AcDbEntity
  8
太線
100
AcDbCircle
 10
507.6349142988599
 20
115.3794110940358
 30
0.0
 40
4.0
  0
ARC
  5
30AA
330
1F
100
AcDbEntity
  8
太線
100
AcDbCircle
 10
507.6349142988599
 20
115.3794110940358
 30
0.0
 40
2.5
100
AcDbArc
 50
258.4630409671852
 51
281.5369590328181
  0
ARC
  5
30AB
330
1F
100
AcDbEntity
  8
太線
100
AcDbCircle
 10
508.6349142988599
 20
116.3794110940358
 30
0.0
 40
0.5
100
AcDbArc
 50
180.0
 51
270.0
  0
ARC
  5
30AC
330
1F
100
AcDbEntity
  8
太線
100
AcDbCircle
 10
508.6349142988599
 20
114.3794110940358
 30
0.0
 40
0.5
100
AcDbArc
 50
90.0
 51
180.0
  0
LINE
  5
30AD
330
1F
100
AcDbEntity
  8
太線
100
AcDbLine
 10
508.1349142988599
 20
117.828900836819
 30
0.0
 11
508.1349142988599
 21
116.3794110940358
 31
0.0
  0
LINE
  5
30AE
330
1F
100
AcDbEntity
  8
太線
100
AcDbLine
 10
507.1349142988599
 20
116.3794110940358
 30
0.0
 11
507.1349142988599
 21
117.828900836819
 31
0.0
  0
ARC
  5
30AF
330
1F
100
AcDbEntity
  8
太線
100
AcDbCircle
 10
507.6349142988599
 20
115.3794110940358
 30
0.0
 40
2.5
100
AcDbArc
 50
78.46304096718187
 51
101.5369590328147
  0
ARC
  5
30B0
330
1F
100
AcDbEntity
  8
太線
100
AcDbCircle
 10
507.6349142988599
 20
115.3794110940358
 30
0.0
 40
2.5
100
AcDbArc
 50
168.463040967185
 51
191.5369590328165
  0
LINE
  5
30B1
330
1F
100
AcDbEntity
  8
太線
100
AcDbLine
 10
506.6349142988598
 20
114.8794110940358
 30
0.0
 11
505.1854245560767
 21
114.8794110940358
 31
0.0
  0
ARC
  5
30B2
330
1F
100
AcDbEntity
  8
太線
100
AcDbCircle
 10
506.6349142988598
 20
114.3794110940358
 30
0.0
 40
0.5
100
AcDbArc
 50
0.0
 51
90.0
  0
LINE
  5
30B3
330
1F
100
AcDbEntity
  8
太線
100
AcDbLine
 10
505.1854245560767
 20
115.8794110940358
 30
0.0
 11
506.6349142988598
 21
115.8794110940358
 31
0.0
  0
ARC
  5
30B4
330
1F
100
AcDbEntity
  8
太線
100
AcDbCircle
 10
506.6349142988598
 20
116.3794110940358
 30
0.0
 40
0.5
100
AcDbArc
 50
270.0
 51
0.0
  0
ARC
  5
30B5
330
1F
100
AcDbEntity
  8
太線
100
AcDbCircle
 10
507.6349142988599
 20
115.3794110940358
 30
0.0
 40
2.5
100
AcDbArc
 50
348.463040967185
 51
11.53695903281494
  0
LINE
  5
30B6
330
1F
100
AcDbEntity
  8
太線
100
AcDbLine
 10
508.6349142988599
 20
115.8794110940358
 30
0.0
 11
510.0844040416431
 21
115.8794110940358
 31
0.0
  0
LINE
  5
30B7
330
1F
100
AcDbEntity
  8
太線
100
AcDbLine
 10
510.0844040416431
 20
114.8794110940358
 30
0.0
 11
508.6349142988599
 21
114.8794110940358
 31
0.0
  0
LINE
  5
30B8
330
1F
100
AcDbEntity
  8
細線
 62
     0
100
AcDbLine
 10
505.1349142988599
 20
124.1877463084626
 30
0.0
 11
510.1349142988599
 21
124.1877463084626
 31
0.0
  0
ARC
  5
30B9
330
1F
100
AcDbEntity
  8
細線
 62
     0
100
AcDbCircle
 10
507.6349142988599
 20
129.6877463084625
 30
0.0
 40
8.49999999999995
100
AcDbArc
 50
241.9275130641455
 51
298.0724869358544
  0
LINE
  5
30BA
330
1F
100
AcDbEntity
  8
細線
 62
     0
100
AcDbLine
 10
503.6349142988599
 20
124.1877463084626
 30
0.0
 11
503.6349142988599
 21
122.1877463084626
 31
0.0
  0
LINE
  5
30BB
330
1F
100
AcDbEntity
  8
細線
 62
     0
100
AcDbLine
 10
505.1349142988599
 20
124.1877463084626
 30
0.0
 11
503.6349142988599
 21
124.1877463084626
 31
0.0
  0
LINE
  5
30BC
330
1F
100
AcDbEntity
  8
細線
 62
     0
100
AcDbLine
 10
510.1349142988599
 20
124.1877463084626
 30
0.0
 11
511.6349142988599
 21
124.1877463084626
 31
0.0
  0
LINE
  5
30BD
330
1F
100
AcDbEntity
  8
細線
 62
     0
100
AcDbLine
 10
511.6349142988599
 20
124.1877463084626
 30
0.0
 11
511.6349142988599
 21
122.1877463084626
 31
0.0
  0
LINE
  5
30BE
330
1F
100
AcDbEntity
  8
細線
 62
     0
100
AcDbLine
 10
505.6349142988599
 20
132.1877463084626
 30
0.0
 11
509.6349142988599
 21
132.1877463084626
 31
0.0
  0
LINE
  5
30BF
330
1F
100
AcDbEntity
  8
細線
 62
     0
100
AcDbLine
 10
505.6349142988599
 20
131.6877463084626
 30
0.0
 11
509.6349142988599
 21
131.6877463084626
 31
0.0
  0
LINE
  5
30C0
330
1F
100
AcDbEntity
  8
細線
 62
     0
100
AcDbLine
 10
505.6349142988599
 20
132.1877463084626
 30
0.0
 11
505.1349142988599
 21
131.6877463084626
 31
0.0
  0
LINE
  5
30C1
330
1F
100
AcDbEntity
  8
細線
 62
     0
100
AcDbLine
 10
509.6349142988599
 20
132.1877463084626
 30
0.0
 11
510.1349142988599
 21
131.6877463084626
 31
0.0
  0
LINE
  5
30C2
330
1F
100
AcDbEntity
  8
細線
 62
     0
100
AcDbLine
 10
529.6349142988599
 20
152.1877463084626
 30
0.0
 11
530.1349142988599
 21
151.6877463084626
 31
0.0
  0
LINE
  5
30C3
330
1F
100
AcDbEntity
  8
太線
100
AcDbLine
 10
467.8265790844331
 20
154.6877463084626
 30
0.0
 11
466.3770893416499
 21
154.6877463084626
 31
0.0
  0
ARC
  5
30C4
330
1F
100
AcDbEntity
  8
太線
100
AcDbCircle
 10
468.826579084433
 20
154.1877463084626
 30
0.0
 40
2.5
100
AcDbArc
 50
78.46304096718522
 51
101.5369590328147
  0
LINE
  5
30C5
330
1F
100
AcDbEntity
  8
太線
100
AcDbLine
 10
471.2760688272163
 20
154.6877463084626
 30
0.0
 11
469.826579084433
 21
154.6877463084626
 31
0.0
  0
ARC
  5
30C6
330
1F
100
AcDbEntity
  8
太線
100
AcDbCircle
 10
469.826579084433
 20
155.1877463084626
 30
0.0
 40
0.5
100
AcDbArc
 50
180.0
 51
270.0
  0
LINE
  5
30C7
330
1F
100
AcDbEntity
  8
太線
100
AcDbLine
 10
469.326579084433
 20
155.1877463084626
 30
0.0
 11
469.326579084433
 21
156.6372360512457
 31
0.0
  0
LINE
  5
30C8
330
1F
100
AcDbEntity
  8
太線
100
AcDbLine
 10
468.326579084433
 20
156.6372360512457
 30
0.0
 11
468.326579084433
 21
155.1877463084626
 31
0.0
  0
ARC
  5
30C9
330
1F
100
AcDbEntity
  8
太線
100
AcDbCircle
 10
467.8265790844331
 20
155.1877463084626
 30
0.0
 40
0.5
100
AcDbArc
 50
270.0
 51
0.0
  0
LINE
  5
30CA
330
1F
100
AcDbEntity
  8
細線
 62
     0
100
AcDbLine
 10
485.1349142988599
 20
156.6877463084626
 30
0.0
 11
477.6349142988599
 21
156.6877463084626
 31
0.0
  0
LINE
  5
30CB
330
1F
100
AcDbEntity
  8
細線
 62
     0
100
AcDbLine
 10
477.6349142988599
 20
156.1877463084626
 30
0.0
 11
485.1349142988599
 21
156.1877463084626
 31
0.0
  0
LINE
  5
30CC
330
1F
100
AcDbEntity
  8
細線
 62
     0
100
AcDbLine
 10
477.6349142988599
 20
158.1877463084626
 30
0.0
 11
475.6349142988599
 21
158.1877463084626
 31
0.0
  0
LINE
  5
30CD
330
1F
100
AcDbEntity
  8
細線
 62
     0
100
AcDbLine
 10
477.6349142988599
 20
156.6877463084626
 30
0.0
 11
477.6349142988599
 21
158.1877463084626
 31
0.0
  0
LINE
  5
30CE
330
1F
100
AcDbEntity
  8
細線
 62
     0
100
AcDbLine
 10
485.6349142988599
 20
156.1877463084626
 30
0.0
 11
485.1349142988599
 21
156.6877463084626
 31
0.0
  0
LINE
  5
30CF
330
1F
100
AcDbEntity
  8
細線
 62
     0
100
AcDbLine
 10
505.6349142988599
 20
184.1877463084626
 30
0.0
 11
505.6349142988599
 21
176.6877463084626
 31
0.0
  0
LINE
  5
30D0
330
1F
100
AcDbEntity
  8
細線
 62
     0
100
AcDbLine
 10
509.6349142988599
 20
184.1877463084626
 30
0.0
 11
509.6349142988599
 21
176.6877463084626
 31
0.0
  0
LINE
  5
30D1
330
1F
100
AcDbEntity
  8
細線
 62
     0
100
AcDbLine
 10
505.1349142988599
 20
176.6877463084626
 30
0.0
 11
505.1349142988599
 21
184.1877463084626
 31
0.0
  0
LINE
  5
30D2
330
1F
100
AcDbEntity
  8
細線
 62
     0
100
AcDbLine
 10
510.1349142988599
 20
176.6877463084626
 30
0.0
 11
510.1349142988599
 21
184.1877463084626
 31
0.0
  0
LINE
  5
30D3
330
1F
100
AcDbEntity
  8
細線
 62
     0
100
AcDbLine
 10
505.6349142988599
 20
176.6877463084626
 30
0.0
 11
509.6349142988599
 21
176.6877463084626
 31
0.0
  0
LINE
  5
30D4
330
1F
100
AcDbEntity
  8
細線
 62
     0
100
AcDbLine
 10
505.6349142988599
 20
176.1877463084626
 30
0.0
 11
509.6349142988599
 21
176.1877463084626
 31
0.0
  0
LINE
  5
30D5
330
1F
100
AcDbEntity
  8
細線
 62
     0
100
AcDbLine
 10
505.6349142988599
 20
176.1877463084626
 30
0.0
 11
505.1349142988599
 21
176.6877463084626
 31
0.0
  0
LINE
  5
30D6
330
1F
100
AcDbEntity
  8
細線
 62
     0
100
AcDbLine
 10
509.6349142988599
 20
176.1877463084626
 30
0.0
 11
510.1349142988599
 21
176.6877463084626
 31
0.0
  0
LINE
  5
30D7
330
1F
100
AcDbEntity
  8
細線
 62
     0
100
AcDbLine
 10
529.6349142988599
 20
156.1877463084626
 30
0.0
 11
530.1349142988599
 21
156.6877463084626
 31
0.0
  0
ARC
  5
30D8
330
1F
100
AcDbEntity
  8
太線
100
AcDbCircle
 10
508.6349142988599
 20
193.9960815228894
 30
0.0
 40
0.5
100
AcDbArc
 50
180.0
 51
270.0
  0
ARC
  5
30D9
330
1F
100
AcDbEntity
  8
太線
100
AcDbCircle
 10
506.6349142988599
 20
193.9960815228894
 30
0.0
 40
0.5
100
AcDbArc
 50
270.0
 51
0.0
  0
CIRCLE
  5
30DA
330
1F
100
AcDbEntity
  8
太線
100
AcDbCircle
 10
507.6349142988599
 20
192.9960815228894
 30
0.0
 40
4.0
  0
LINE
  5
30DB
330
1F
100
AcDbEntity
  8
細線
 62
     0
100
AcDbLine
 10
505.1349142988599
 20
184.1877463084626
 30
0.0
 11
510.1349142988599
 21
184.1877463084626
 31
0.0
  0
ARC
  5
30DC
330
1F
100
AcDbEntity
  8
細線
 62
     0
100
AcDbCircle
 10
507.6349142988599
 20
178.6877463084626
 30
0.0
 40
8.49999999999995
100
AcDbArc
 50
61.9275130641455
 51
118.0724869358545
  0
LINE
  5
30DD
330
1F
100
AcDbEntity
  8
細線
 62
     0
100
AcDbLine
 10
503.6349142988599
 20
184.1877463084626
 30
0.0
 11
503.6349142988599
 21
186.1877463084626
 31
0.0
  0
LINE
  5
30DE
330
1F
100
AcDbEntity
  8
細線
 62
     0
100
AcDbLine
 10
505.1349142988599
 20
184.1877463084626
 30
0.0
 11
503.6349142988599
 21
184.1877463084626
 31
0.0
  0
LINE
  5
30DF
330
1F
100
AcDbEntity
  8
細線
 62
     0
100
AcDbLine
 10
511.6349142988599
 20
184.1877463084626
 30
0.0
 11
511.6349142988599
 21
186.1877463084626
 31
0.0
  0
LINE
  5
30E0
330
1F
100
AcDbEntity
  8
細線
 62
     0
100
AcDbLine
 10
510.1349142988599
 20
184.1877463084626
 30
0.0
 11
511.6349142988599
 21
184.1877463084626
 31
0.0
  0
ARC
  5
30E1
330
1F
100
AcDbEntity
  8
太線
100
AcDbCircle
 10
508.6349142988599
 20
191.9960815228894
 30
0.0
 40
0.5
100
AcDbArc
 50
90.0
 51
180.0
  0
LINE
  5
30E2
330
1F
100
AcDbEntity
  8
太線
100
AcDbLine
 10
508.1349142988599
 20
190.5465917801062
 30
0.0
 11
508.1349142988599
 21
191.9960815228894
 31
0.0
  0
LINE
  5
30E3
330
1F
100
AcDbEntity
  8
太線
100
AcDbLine
 10
505.1854245560767
 20
192.4960815228894
 30
0.0
 11
506.6349142988599
 21
192.4960815228894
 31
0.0
  0
LINE
  5
30E4
330
1F
100
AcDbEntity
  8
太線
100
AcDbLine
 10
506.6349142988599
 20
193.4960815228894
 30
0.0
 11
505.1854245560767
 21
193.4960815228894
 31
0.0
  0
ARC
  5
30E5
330
1F
100
AcDbEntity
  8
太線
100
AcDbCircle
 10
507.6349142988599
 20
192.9960815228894
 30
0.0
 40
2.5
100
AcDbArc
 50
168.4630409671834
 51
191.5369590328149
  0
LINE
  5
30E6
330
1F
100
AcDbEntity
  8
太線
100
AcDbLine
 10
507.1349142988599
 20
191.9960815228894
 30
0.0
 11
507.1349142988599
 21
190.5465917801062
 31
0.0
  0
ARC
  5
30E7
330
1F
100
AcDbEntity
  8
太線
100
AcDbCircle
 10
506.6349142988599
 20
191.9960815228894
 30
0.0
 40
0.5
100
AcDbArc
 50
0.0
 51
90.0
  0
ARC
  5
30E8
330
1F
100
AcDbEntity
  8
太線
100
AcDbCircle
 10
507.6349142988599
 20
192.9960815228894
 30
0.0
 40
2.5
100
AcDbArc
 50
258.4630409671852
 51
281.5369590328181
  0
ARC
  5
30E9
330
1F
100
AcDbEntity
  8
太線
100
AcDbCircle
 10
507.6349142988599
 20
192.9960815228894
 30
0.0
 40
2.5
100
AcDbArc
 50
348.463040967185
 51
11.53695903281494
  0
LINE
  5
30EA
330
1F
100
AcDbEntity
  8
太線
100
AcDbLine
 10
510.0844040416431
 20
193.4960815228894
 30
0.0
 11
508.6349142988599
 21
193.4960815228894
 31
0.0
  0
LINE
  5
30EB
330
1F
100
AcDbEntity
  8
太線
100
AcDbLine
 10
508.6349142988599
 20
192.4960815228894
 30
0.0
 11
510.0844040416431
 21
192.4960815228894
 31
0.0
  0
LINE
  5
30EC
330
1F
100
AcDbEntity
  8
太線
100
AcDbLine
 10
508.1349142988599
 20
193.9960815228894
 30
0.0
 11
508.1349142988599
 21
195.4455712656726
 31
0.0
  0
LINE
  5
30ED
330
1F
100
AcDbEntity
  8
太線
100
AcDbLine
 10
507.1349142988599
 20
195.4455712656726
 30
0.0
 11
507.1349142988599
 21
193.9960815228894
 31
0.0
  0
ARC
  5
30EE
330
1F
100
AcDbEntity
  8
太線
100
AcDbCircle
 10
507.6349142988599
 20
192.9960815228894
 30
0.0
 40
2.5
100
AcDbArc
 50
78.46304096718187
 51
101.5369590328147
  0
ARC
  5
30EF
330
1F
100
AcDbEntity
  8
太線
100
AcDbCircle
 10
546.4432495132867
 20
154.1877463084626
 30
0.0
 40
2.5
100
AcDbArc
 50
348.463040967185
 51
11.53695903281653
  0
ARC
  5
30F0
330
1F
100
AcDbEntity
  8
太線
100
AcDbCircle
 10
546.4432495132867
 20
154.1877463084626
 30
0.0
 40
2.5
100
AcDbArc
 50
168.4630409671834
 51
191.5369590328149
  0
LINE
  5
30F1
330
1F
100
AcDbEntity
  8
細線
 62
     0
100
AcDbLine
 10
537.6349142988599
 20
151.6877463084626
 30
0.0
 11
537.6349142988599
 21
156.6877463084626
 31
0.0
  0
CIRCLE
  5
30F2
330
1F
100
AcDbEntity
  8
太線
100
AcDbCircle
 10
546.4432495132867
 20
154.1877463084626
 30
0.0
 40
4.0
  0
ARC
  5
30F3
330
1F
100
AcDbEntity
  8
細線
 62
     0
100
AcDbCircle
 10
532.1349142988601
 20
154.1877463084626
 30
0.0
 40
8.49999999999995
100
AcDbArc
 50
331.9275130641469
 51
28.07248693585305
  0
LINE
  5
30F4
330
1F
100
AcDbEntity
  8
太線
100
AcDbLine
 10
545.4432495132867
 20
153.6877463084625
 30
0.0
 11
543.9937597705036
 21
153.6877463084626
 31
0.0
  0
LINE
  5
30F5
330
1F
100
AcDbEntity
  8
細線
 62
     0
100
AcDbLine
 10
537.6349142988599
 20
150.1877463084626
 30
0.0
 11
539.6349142988599
 21
150.1877463084626
 31
0.0
  0
LINE
  5
30F6
330
1F
100
AcDbEntity
  8
細線
 62
     0
100
AcDbLine
 10
537.6349142988599
 20
151.6877463084626
 30
0.0
 11
537.6349142988599
 21
150.1877463084626
 31
0.0
  0
LINE
  5
30F7
330
1F
100
AcDbEntity
  8
太線
100
AcDbLine
 10
546.9432495132868
 20
153.1877463084625
 30
0.0
 11
546.9432495132868
 21
151.7382565656794
 31
0.0
  0
LINE
  5
30F8
330
1F
100
AcDbEntity
  8
太線
100
AcDbLine
 10
548.8927392560699
 20
153.6877463084626
 30
0.0
 11
547.4432495132868
 21
153.6877463084625
 31
0.0
  0
ARC
  5
30F9
330
1F
100
AcDbEntity
  8
太線
100
AcDbCircle
 10
547.4432495132868
 20
153.1877463084626
 30
0.0
 40
0.5
100
AcDbArc
 50
90.0
 51
180.0
  0
LINE
  5
30FA
330
1F
100
AcDbEntity
  8
太線
100
AcDbLine
 10
545.9432495132867
 20
151.7382565656794
 30
0.0
 11
545.9432495132867
 21
153.1877463084625
 31
0.0
  0
ARC
  5
30FB
330
1F
100
AcDbEntity
  8
太線
100
AcDbCircle
 10
545.4432495132867
 20
153.1877463084626
 30
0.0
 40
0.5
100
AcDbArc
 50
0.0
 51
90.0
  0
ARC
  5
30FC
330
1F
100
AcDbEntity
  8
太線
100
AcDbCircle
 10
546.4432495132867
 20
154.1877463084626
 30
0.0
 40
2.5
100
AcDbArc
 50
258.4630409671852
 51
281.5369590328181
  0
LINE
  5
30FD
330
1F
100
AcDbEntity
  8
太線
100
AcDbLine
 10
543.9937597705036
 20
154.6877463084626
 30
0.0
 11
545.4432495132867
 21
154.6877463084626
 31
0.0
  0
LINE
  5
30FE
330
1F
100
AcDbEntity
  8
細線
 62
     0
100
AcDbLine
 10
537.6349142988599
 20
158.1877463084626
 30
0.0
 11
539.6349142988599
 21
158.1877463084626
 31
0.0
  0
LINE
  5
30FF
330
1F
100
AcDbEntity
  8
細線
 62
     0
100
AcDbLine
 10
537.6349142988599
 20
156.6877463084626
 30
0.0
 11
537.6349142988599
 21
158.1877463084626
 31
0.0
  0
LINE
  5
3100
330
1F
100
AcDbEntity
  8
太線
100
AcDbLine
 10
546.9432495132868
 20
156.6372360512457
 30
0.0
 11
546.9432495132868
 21
155.1877463084626
 31
0.0
  0
LINE
  5
3101
330
1F
100
AcDbEntity
  8
太線
100
AcDbLine
 10
547.4432495132868
 20
154.6877463084626
 30
0.0
 11
548.8927392560699
 21
154.6877463084626
 31
0.0
  0
ARC
  5
3102
330
1F
100
AcDbEntity
  8
太線
100
AcDbCircle
 10
547.4432495132868
 20
155.1877463084626
 30
0.0
 40
0.5
100
AcDbArc
 50
180.0
 51
270.0
  0
LINE
  5
3103
330
1F
100
AcDbEntity
  8
太線
100
AcDbLine
 10
545.9432495132867
 20
155.1877463084626
 30
0.0
 11
545.9432495132867
 21
156.6372360512457
 31
0.0
  0
ARC
  5
3104
330
1F
100
AcDbEntity
  8
太線
100
AcDbCircle
 10
545.4432495132867
 20
155.1877463084626
 30
0.0
 40
0.5
100
AcDbArc
 50
270.0
 51
0.0
  0
ARC
  5
3105
330
1F
100
AcDbEntity
  8
太線
100
AcDbCircle
 10
546.4432495132867
 20
154.1877463084626
 30
0.0
 40
2.5
100
AcDbArc
 50
78.46304096718522
 51
101.5369590328147
  0
TEXT
  5
310B
330
1F
100
AcDbEntity
  8
文字
100
AcDbText
 10
43.53359344343039
 20
222.9659206934419
 30
0.0
 40
4.799999999999999
  1
M5-8×2
 51
15.0
  7
OKANO
100
AcDbText
  0
LINE
  5
310C
330
1F
100
AcDbEntity
  8
太線
100
AcDbLine
 10
246.6414745488584
 20
180.9711488256962
 30
0.0
 11
245.1919848060753
 21
180.9711488256961
 31
0.0
  0
LINE
  5
310D
330
1F
100
AcDbEntity
  8
太線
100
AcDbLine
 10
245.1919848060753
 20
179.9711488256961
 30
0.0
 11
246.6414745488584
 21
179.9711488256961
 31
0.0
  0
CIRCLE
  5
310E
330
1F
100
AcDbEntity
  8
太線
100
AcDbCircle
 10
247.6414745488584
 20
180.4711488256961
 30
0.0
 40
4.0
  0
ARC
  5
310F
330
1F
100
AcDbEntity
  8
太線
100
AcDbCircle
 10
247.6414745488584
 20
180.4711488256961
 30
0.0
 40
2.5
100
AcDbArc
 50
168.4630409671834
 51
191.5369590328149
  0
LINE
  5
3110
330
1F
100
AcDbEntity
  8
太線
100
AcDbLine
 10
247.1414745488584
 20
182.9206385684793
 30
0.0
 11
247.1414745488584
 21
181.4711488256961
 31
0.0
  0
LINE
  5
3111
330
1F
100
AcDbEntity
  8
太線
100
AcDbLine
 10
248.1414745488584
 20
181.4711488256961
 30
0.0
 11
248.1414745488584
 21
182.9206385684793
 31
0.0
  0
LINE
  5
3112
330
1F
100
AcDbEntity
  8
太線
100
AcDbLine
 10
248.6414745488584
 20
179.9711488256961
 30
0.0
 11
250.0909642916416
 21
179.9711488256961
 31
0.0
  0
LINE
  5
3113
330
1F
100
AcDbEntity
  8
太線
100
AcDbLine
 10
250.0909642916416
 20
180.9711488256961
 30
0.0
 11
248.6414745488584
 21
180.9711488256962
 31
0.0
  0
ARC
  5
3114
330
1F
100
AcDbEntity
  8
太線
100
AcDbCircle
 10
247.6414745488584
 20
180.4711488256961
 30
0.0
 40
2.5
100
AcDbArc
 50
258.4630409671852
 51
281.5369590328181
  0
ARC
  5
3115
330
1F
100
AcDbEntity
  8
太線
100
AcDbCircle
 10
246.6414745488584
 20
179.4711488256961
 30
0.0
 40
0.5
100
AcDbArc
 50
0.0
 51
90.0
  0
LINE
  5
3116
330
1F
100
AcDbEntity
  8
太線
100
AcDbLine
 10
247.1414745488584
 20
179.4711488256961
 30
0.0
 11
247.1414745488584
 21
178.0216590829129
 31
0.0
  0
LINE
  5
3117
330
1F
100
AcDbEntity
  8
太線
100
AcDbLine
 10
248.1414745488584
 20
178.0216590829129
 30
0.0
 11
248.1414745488584
 21
179.4711488256961
 31
0.0
  0
ARC
  5
3118
330
1F
100
AcDbEntity
  8
太線
100
AcDbCircle
 10
248.6414745488584
 20
179.4711488256961
 30
0.0
 40
0.5
100
AcDbArc
 50
90.0
 51
180.0
  0
ARC
  5
3119
330
1F
100
AcDbEntity
  8
太線
100
AcDbCircle
 10
246.6414745488584
 20
181.4711488256961
 30
0.0
 40
0.5
100
AcDbArc
 50
270.0
 51
0.0
  0
ARC
  5
311A
330
1F
100
AcDbEntity
  8
太線
100
AcDbCircle
 10
248.6414745488584
 20
181.4711488256961
 30
0.0
 40
0.5
100
AcDbArc
 50
180.0
 51
270.0
  0
ARC
  5
311B
330
1F
100
AcDbEntity
  8
太線
100
AcDbCircle
 10
247.6414745488584
 20
180.4711488256961
 30
0.0
 40
2.5
100
AcDbArc
 50
348.463040967185
 51
11.53695903281494
  0
ARC
  5
311C
330
1F
100
AcDbEntity
  8
太線
100
AcDbCircle
 10
247.6414745488584
 20
180.4711488256961
 30
0.0
 40
2.5
100
AcDbArc
 50
78.46304096718187
 51
101.5369590328147
  0
CIRCLE
  5
311D
330
1F
100
AcDbEntity
  8
太線
100
AcDbCircle
 10
247.6414745488584
 20
125.4711488256961
 30
0.0
 40
4.0
  0
LINE
  5
311E
330
1F
100
AcDbEntity
  8
太線
100
AcDbLine
 10
248.1414745488584
 20
123.0216590829129
 30
0.0
 11
248.1414745488584
 21
124.4711488256961
 31
0.0
  0
LINE
  5
311F
330
1F
100
AcDbEntity
  8
太線
100
AcDbLine
 10
247.1414745488584
 20
124.4711488256961
 30
0.0
 11
247.1414745488584
 21
123.0216590829129
 31
0.0
  0
ARC
  5
3120
330
1F
100
AcDbEntity
  8
太線
100
AcDbCircle
 10
247.6414745488584
 20
125.4711488256961
 30
0.0
 40
2.5
100
AcDbArc
 50
258.4630409671852
 51
281.5369590328181
  0
ARC
  5
3121
330
1F
100
AcDbEntity
  8
太線
100
AcDbCircle
 10
246.6414745488584
 20
126.4711488256961
 30
0.0
 40
0.5
100
AcDbArc
 50
270.0
 51
0.0
  0
ARC
  5
3122
330
1F
100
AcDbEntity
  8
太線
100
AcDbCircle
 10
246.6414745488584
 20
124.4711488256961
 30
0.0
 40
0.5
100
AcDbArc
 50
0.0
 51
90.0
  0
ARC
  5
3123
330
1F
100
AcDbEntity
  8
太線
100
AcDbCircle
 10
247.6414745488584
 20
125.4711488256961
 30
0.0
 40
2.5
100
AcDbArc
 50
168.4630409671834
 51
191.5369590328149
  0
LINE
  5
3124
330
1F
100
AcDbEntity
  8
太線
100
AcDbLine
 10
245.1919848060753
 20
124.9711488256961
 30
0.0
 11
246.6414745488584
 21
124.9711488256961
 31
0.0
  0
LINE
  5
3125
330
1F
100
AcDbEntity
  8
太線
100
AcDbLine
 10
246.6414745488584
 20
125.9711488256961
 30
0.0
 11
245.1919848060753
 21
125.9711488256961
 31
0.0
  0
ARC
  5
3126
330
1F
100
AcDbEntity
  8
太線
100
AcDbCircle
 10
247.6414745488584
 20
125.4711488256961
 30
0.0
 40
2.5
100
AcDbArc
 50
78.46304096718187
 51
101.5369590328147
  0
ARC
  5
3127
330
1F
100
AcDbEntity
  8
太線
100
AcDbCircle
 10
247.6414745488584
 20
125.4711488256961
 30
0.0
 40
2.5
100
AcDbArc
 50
348.463040967185
 51
11.53695903281494
  0
ARC
  5
3128
330
1F
100
AcDbEntity
  8
太線
100
AcDbCircle
 10
248.6414745488584
 20
126.4711488256961
 30
0.0
 40
0.5
100
AcDbArc
 50
180.0
 51
270.0
  0
ARC
  5
3129
330
1F
100
AcDbEntity
  8
太線
100
AcDbCircle
 10
248.6414745488584
 20
124.4711488256961
 30
0.0
 40
0.5
100
AcDbArc
 50
90.0
 51
180.0
  0
LINE
  5
312A
330
1F
100
AcDbEntity
  8
太線
100
AcDbLine
 10
250.0909642916416
 20
125.9711488256961
 30
0.0
 11
248.6414745488584
 21
125.9711488256961
 31
0.0
  0
LINE
  5
312B
330
1F
100
AcDbEntity
  8
太線
100
AcDbLine
 10
248.6414745488584
 20
124.9711488256961
 30
0.0
 11
250.0909642916416
 21
124.9711488256961
 31
0.0
  0
LINE
  5
312C
330
1F
100
AcDbEntity
  8
太線
100
AcDbLine
 10
248.1414745488584
 20
126.4711488256961
 30
0.0
 11
248.1414745488584
 21
127.9206385684793
 31
0.0
  0
LINE
  5
312D
330
1F
100
AcDbEntity
  8
太線
100
AcDbLine
 10
247.1414745488584
 20
127.9206385684793
 30
0.0
 11
247.1414745488584
 21
126.4711488256961
 31
0.0
  0
LINE
  5
312E
330
1F
100
AcDbEntity
  8
細線
 62
     0
100
AcDbLine
 10
50.13632909137482
 20
182.9452333352769
 30
0.0
 11
49.63632909137482
 21
183.4452333352768
 31
0.0
  0
LINE
  5
312F
330
1F
100
AcDbEntity
  8
太線
100
AcDbLine
 10
32.82799387694797
 20
183.39472307806
 30
0.0
 11
32.82799387694797
 21
181.9452333352769
 31
0.0
  0
LINE
  5
3130
330
1F
100
AcDbEntity
  8
太線
100
AcDbLine
 10
33.82799387694797
 20
181.9452333352769
 30
0.0
 11
33.82799387694797
 21
183.39472307806
 31
0.0
  0
CIRCLE
  5
3131
330
1F
100
AcDbEntity
  8
太線
100
AcDbCircle
 10
33.32799387694797
 20
180.9452333352769
 30
0.0
 40
4.0
  0
ARC
  5
3132
330
1F
100
AcDbEntity
  8
細線
 62
     0
100
AcDbCircle
 10
47.6363290913747
 20
180.9452333352769
 30
0.0
 40
8.49999999999995
100
AcDbArc
 50
151.9275130641469
 51
208.072486935853
  0
LINE
  5
3133
330
1F
100
AcDbEntity
  8
細線
 62
     0
100
AcDbLine
 10
42.13632909137482
 20
178.4452333352769
 30
0.0
 11
42.13632909137482
 21
183.4452333352768
 31
0.0
  0
ARC
  5
3134
330
1F
100
AcDbEntity
  8
太線
100
AcDbCircle
 10
32.32799387694797
 20
181.9452333352769
 30
0.0
 40
0.5
100
AcDbArc
 50
270.0
 51
0.0
  0
ARC
  5
3135
330
1F
100
AcDbEntity
  8
太線
100
AcDbCircle
 10
32.32799387694797
 20
179.9452333352768
 30
0.0
 40
0.5
100
AcDbArc
 50
0.0
 51
90.0
  0
ARC
  5
3136
330
1F
100
AcDbEntity
  8
太線
100
AcDbCircle
 10
33.32799387694797
 20
180.9452333352769
 30
0.0
 40
2.5
100
AcDbArc
 50
258.4630409671818
 51
281.5369590328147
  0
LINE
  5
3137
330
1F
100
AcDbEntity
  8
太線
100
AcDbLine
 10
32.32799387694797
 20
181.4452333352768
 30
0.0
 11
30.87850413416481
 21
181.4452333352768
 31
0.0
  0
LINE
  5
3138
330
1F
100
AcDbEntity
  8
太線
100
AcDbLine
 10
32.82799387694797
 20
179.9452333352768
 30
0.0
 11
32.82799387694797
 21
178.4957435924937
 31
0.0
  0
LINE
  5
3139
330
1F
100
AcDbEntity
  8
太線
100
AcDbLine
 10
30.87850413416481
 20
180.4452333352768
 30
0.0
 11
32.32799387694797
 21
180.4452333352768
 31
0.0
  0
ARC
  5
313A
330
1F
100
AcDbEntity
  8
太線
100
AcDbCircle
 10
33.32799387694797
 20
180.9452333352769
 30
0.0
 40
2.5
100
AcDbArc
 50
168.4630409671834
 51
191.5369590328149
  0
ARC
  5
313B
330
1F
100
AcDbEntity
  8
太線
100
AcDbCircle
 10
34.32799387694797
 20
181.9452333352769
 30
0.0
 40
0.5
100
AcDbArc
 50
180.0
 51
270.0
  0
LINE
  5
313C
330
1F
100
AcDbEntity
  8
太線
100
AcDbLine
 10
35.77748361973118
 20
181.4452333352768
 30
0.0
 11
34.32799387694797
 21
181.4452333352768
 31
0.0
  0
ARC
  5
313D
330
1F
100
AcDbEntity
  8
太線
100
AcDbCircle
 10
34.32799387694797
 20
179.9452333352768
 30
0.0
 40
0.5
100
AcDbArc
 50
90.0
 51
180.0
  0
LINE
  5
313E
330
1F
100
AcDbEntity
  8
太線
100
AcDbLine
 10
33.82799387694797
 20
178.4957435924937
 30
0.0
 11
33.82799387694797
 21
179.9452333352768
 31
0.0
  0
LINE
  5
313F
330
1F
100
AcDbEntity
  8
太線
100
AcDbLine
 10
34.32799387694797
 20
180.4452333352768
 30
0.0
 11
35.77748361973118
 21
180.4452333352768
 31
0.0
  0
ARC
  5
3140
330
1F
100
AcDbEntity
  8
太線
100
AcDbCircle
 10
33.32799387694797
 20
180.9452333352769
 30
0.0
 40
2.5
100
AcDbArc
 50
348.463040967185
 51
11.53695903281653
  0
LINE
  5
3141
330
1F
100
AcDbEntity
  8
細線
 62
     0
100
AcDbLine
 10
42.13632909137482
 20
182.9452333352769
 30
0.0
 11
49.63632909137482
 21
182.9452333352769
 31
0.0
  0
LINE
  5
3142
330
1F
100
AcDbEntity
  8
細線
 62
     0
100
AcDbLine
 10
42.13632909137482
 20
178.9452333352769
 30
0.0
 11
49.63632909137482
 21
178.9452333352769
 31
0.0
  0
LINE
  5
3143
330
1F
100
AcDbEntity
  8
細線
 62
     0
100
AcDbLine
 10
49.63632909137482
 20
178.4452333352769
 30
0.0
 11
42.13632909137482
 21
178.4452333352769
 31
0.0
  0
LINE
  5
3144
330
1F
100
AcDbEntity
  8
細線
 62
     0
100
AcDbLine
 10
42.13632909137482
 20
176.9452333352768
 30
0.0
 11
40.13632909137482
 21
176.9452333352768
 31
0.0
  0
LINE
  5
3145
330
1F
100
AcDbEntity
  8
細線
 62
     0
100
AcDbLine
 10
42.13632909137482
 20
178.4452333352769
 30
0.0
 11
42.13632909137482
 21
176.9452333352768
 31
0.0
  0
LINE
  5
3146
330
1F
100
AcDbEntity
  8
細線
 62
     0
100
AcDbLine
 10
50.13632909137482
 20
178.9452333352769
 30
0.0
 11
49.63632909137482
 21
178.4452333352769
 31
0.0
  0
LINE
  5
3147
330
1F
100
AcDbEntity
  8
細線
 62
     0
100
AcDbLine
 10
49.63632909137482
 20
178.9452333352769
 30
0.0
 11
49.63632909137482
 21
182.9452333352769
 31
0.0
  0
LINE
  5
3148
330
1F
100
AcDbEntity
  8
細線
 62
     0
100
AcDbLine
 10
50.13632909137482
 20
178.9452333352769
 30
0.0
 11
50.13632909137482
 21
182.9452333352769
 31
0.0
  0
ARC
  5
3149
330
1F
100
AcDbEntity
  8
太線
100
AcDbCircle
 10
33.32799387694797
 20
180.9452333352769
 30
0.0
 40
2.5
100
AcDbArc
 50
78.46304096718522
 51
101.5369590328147
  0
LINE
  5
314A
330
1F
100
AcDbEntity
  8
細線
 62
     0
100
AcDbLine
 10
49.63632909137482
 20
183.4452333352768
 30
0.0
 11
42.13632909137482
 21
183.4452333352768
 31
0.0
  0
LINE
  5
314B
330
1F
100
AcDbEntity
  8
細線
 62
     0
100
AcDbLine
 10
42.13632909137482
 20
184.9452333352768
 30
0.0
 11
40.13632909137482
 21
184.9452333352768
 31
0.0
  0
LINE
  5
314C
330
1F
100
AcDbEntity
  8
細線
 62
     0
100
AcDbLine
 10
42.13632909137482
 20
183.4452333352768
 30
0.0
 11
42.13632909137482
 21
184.9452333352768
 31
0.0
  0
XLINE
  5
314D
330
1F
100
AcDbEntity
  8
構築線
370
     5
100
AcDbXline
 10
40.70151402540432
 20
127.4711488256961
 30
0.0
 11
1.0
 21
0.0
 31
0.0
  0
LINE
  5
314E
330
1F
100
AcDbEntity
  8
細線
 62
     0
100
AcDbLine
 10
49.63632909137482
 20
129.7789494228264
 30
0.0
 11
42.13632909137482
 21
129.7789494228264
 31
0.0
  0
LINE
  5
314F
330
1F
100
AcDbEntity
  8
細線
 62
     0
100
AcDbLine
 10
49.63632909137482
 20
124.7789494228264
 30
0.0
 11
42.13632909137482
 21
124.7789494228264
 31
0.0
  0
LINE
  5
3150
330
1F
100
AcDbEntity
  8
細線
 62
     0
100
AcDbLine
 10
42.13632909137482
 20
125.2789494228264
 30
0.0
 11
49.63632909137482
 21
125.2789494228264
 31
0.0
  0
LINE
  5
3151
330
1F
100
AcDbEntity
  8
細線
 62
     0
100
AcDbLine
 10
42.13632909137482
 20
129.2789494228264
 30
0.0
 11
49.63632909137482
 21
129.2789494228264
 31
0.0
  0
CIRCLE
  5
3152
330
1F
100
AcDbEntity
  8
太線
100
AcDbCircle
 10
33.32799387694797
 20
127.2789494228264
 30
0.0
 40
4.0
  0
LINE
  5
3153
330
1F
100
AcDbEntity
  8
太線
100
AcDbLine
 10
33.82799387694797
 20
124.8294596800432
 30
0.0
 11
33.82799387694797
 21
126.2789494228263
 31
0.0
  0
LINE
  5
3154
330
1F
100
AcDbEntity
  8
太線
100
AcDbLine
 10
32.82799387694797
 20
126.2789494228263
 30
0.0
 11
32.82799387694797
 21
124.8294596800432
 31
0.0
  0
ARC
  5
3155
330
1F
100
AcDbEntity
  8
太線
100
AcDbCircle
 10
33.32799387694797
 20
127.2789494228264
 30
0.0
 40
2.5
100
AcDbArc
 50
258.4630409671818
 51
281.5369590328147
  0
ARC
  5
3156
330
1F
100
AcDbEntity
  8
太線
100
AcDbCircle
 10
33.32799387694797
 20
127.2789494228264
 30
0.0
 40
2.5
100
AcDbArc
 50
78.46304096718522
 51
101.5369590328147
  0
ARC
  5
3157
330
1F
100
AcDbEntity
  8
太線
100
AcDbCircle
 10
33.32799387694797
 20
127.2789494228264
 30
0.0
 40
2.5
100
AcDbArc
 50
168.4630409671834
 51
191.5369590328149
  0
LINE
  5
3158
330
1F
100
AcDbEntity
  8
太線
100
AcDbLine
 10
30.87850413416481
 20
126.7789494228264
 30
0.0
 11
32.32799387694797
 21
126.7789494228263
 31
0.0
  0
LINE
  5
3159
330
1F
100
AcDbEntity
  8
太線
100
AcDbLine
 10
32.32799387694797
 20
127.7789494228264
 30
0.0
 11
30.87850413416481
 21
127.7789494228264
 31
0.0
  0
ARC
  5
315A
330
1F
100
AcDbEntity
  8
太線
100
AcDbCircle
 10
32.32799387694797
 20
126.2789494228264
 30
0.0
 40
0.5
100
AcDbArc
 50
0.0
 51
90.0
  0
ARC
  5
315B
330
1F
100
AcDbEntity
  8
太線
100
AcDbCircle
 10
32.32799387694797
 20
128.2789494228264
 30
0.0
 40
0.5
100
AcDbArc
 50
270.0
 51
0.0
  0
LINE
  5
315C
330
1F
100
AcDbEntity
  8
太線
100
AcDbLine
 10
32.82799387694797
 20
129.7284391656095
 30
0.0
 11
32.82799387694797
 21
128.2789494228264
 31
0.0
  0
ARC
  5
315D
330
1F
100
AcDbEntity
  8
太線
100
AcDbCircle
 10
33.32799387694797
 20
127.2789494228264
 30
0.0
 40
2.5
100
AcDbArc
 50
348.463040967185
 51
11.53695903281653
  0
LINE
  5
315E
330
1F
100
AcDbEntity
  8
太線
100
AcDbLine
 10
34.32799387694797
 20
126.7789494228263
 30
0.0
 11
35.77748361973118
 21
126.7789494228264
 31
0.0
  0
ARC
  5
315F
330
1F
100
AcDbEntity
  8
太線
100
AcDbCircle
 10
34.32799387694797
 20
126.2789494228264
 30
0.0
 40
0.5
100
AcDbArc
 50
90.0
 51
180.0
  0
LINE
  5
3160
330
1F
100
AcDbEntity
  8
太線
100
AcDbLine
 10
35.77748361973118
 20
127.7789494228264
 30
0.0
 11
34.32799387694797
 21
127.7789494228264
 31
0.0
  0
ARC
  5
3161
330
1F
100
AcDbEntity
  8
太線
100
AcDbCircle
 10
34.32799387694797
 20
128.2789494228264
 30
0.0
 40
0.5
100
AcDbArc
 50
180.0
 51
270.0
  0
LINE
  5
3162
330
1F
100
AcDbEntity
  8
太線
100
AcDbLine
 10
33.82799387694797
 20
128.2789494228264
 30
0.0
 11
33.82799387694797
 21
129.7284391656095
 31
0.0
  0
LINE
  5
3163
330
1F
100
AcDbEntity
  8
細線
 62
     0
100
AcDbLine
 10
42.13632909137482
 20
124.7789494228264
 30
0.0
 11
42.13632909137482
 21
129.7789494228264
 31
0.0
  0
ARC
  5
3164
330
1F
100
AcDbEntity
  8
細線
 62
     0
100
AcDbCircle
 10
47.6363290913747
 20
127.2789494228264
 30
0.0
 40
8.49999999999995
100
AcDbArc
 50
151.9275130641469
 51
208.072486935853
  0
LINE
  5
3165
330
1F
100
AcDbEntity
  8
細線
 62
     0
100
AcDbLine
 10
42.13632909137482
 20
123.2789494228264
 30
0.0
 11
40.13632909137482
 21
123.2789494228264
 31
0.0
  0
LINE
  5
3166
330
1F
100
AcDbEntity
  8
細線
 62
     0
100
AcDbLine
 10
42.13632909137482
 20
124.7789494228264
 30
0.0
 11
42.13632909137482
 21
123.2789494228264
 31
0.0
  0
LINE
  5
3167
330
1F
100
AcDbEntity
  8
細線
 62
     0
100
AcDbLine
 10
42.13632909137482
 20
131.2789494228264
 30
0.0
 11
40.13632909137482
 21
131.2789494228264
 31
0.0
  0
LINE
  5
3168
330
1F
100
AcDbEntity
  8
細線
 62
     0
100
AcDbLine
 10
42.13632909137482
 20
129.7789494228264
 30
0.0
 11
42.13632909137482
 21
131.2789494228264
 31
0.0
  0
LINE
  5
3169
330
1F
100
AcDbEntity
  8
細線
 62
     0
100
AcDbLine
 10
50.13632909137482
 20
125.2789494228264
 30
0.0
 11
50.13632909137482
 21
129.2789494228264
 31
0.0
  0
LINE
  5
316A
330
1F
100
AcDbEntity
  8
細線
 62
     0
100
AcDbLine
 10
49.63632909137482
 20
125.2789494228264
 30
0.0
 11
49.63632909137482
 21
129.2789494228264
 31
0.0
  0
LINE
  5
316B
330
1F
100
AcDbEntity
  8
細線
 62
     0
100
AcDbLine
 10
50.13632909137482
 20
125.2789494228264
 30
0.0
 11
49.63632909137482
 21
124.7789494228264
 31
0.0
  0
LINE
  5
316C
330
1F
100
AcDbEntity
  8
細線
 62
     0
100
AcDbLine
 10
50.13632909137482
 20
129.2789494228264
 30
0.0
 11
49.63632909137482
 21
129.7789494228264
 31
0.0
  0
LINE
  5
316D
330
1F
100
AcDbEntity
  8
太線
100
AcDbLine
 10
246.4301104213084
 20
70.99642317747854
 30
0.0
 11
244.9806206785252
 21
70.9964231774785
 31
0.0
  0
LINE
  5
316E
330
1F
100
AcDbEntity
  8
太線
100
AcDbLine
 10
244.9806206785252
 20
69.9964231774785
 30
0.0
 11
246.4301104213084
 21
69.9964231774785
 31
0.0
  0
ARC
  5
316F
330
1F
100
AcDbEntity
  8
細線
 62
     0
100
AcDbCircle
 10
247.4301104213084
 20
56.18808796305177
 30
0.0
 40
8.49999999999995
100
AcDbArc
 50
61.9275130641455
 51
118.0724869358545
  0
LINE
  5
3170
330
1F
100
AcDbEntity
  8
細線
 62
     0
100
AcDbLine
 10
244.9301104213084
 20
61.68808796305171
 30
0.0
 11
249.9301104213084
 21
61.68808796305171
 31
0.0
  0
CIRCLE
  5
3171
330
1F
100
AcDbEntity
  8
太線
100
AcDbCircle
 10
247.4301104213084
 20
70.4964231774785
 30
0.0
 40
4.0
  0
LINE
  5
3172
330
1F
100
AcDbEntity
  8
細線
 62
     0
100
AcDbLine
 10
245.4301104213084
 20
53.68808796305171
 30
0.0
 11
244.9301104213084
 21
54.18808796305171
 31
0.0
  0
LINE
  5
3173
330
1F
100
AcDbEntity
  8
細線
 62
     0
100
AcDbLine
 10
244.9301104213084
 20
54.18808796305171
 30
0.0
 11
244.9301104213084
 21
61.68808796305171
 31
0.0
  0
LINE
  5
3174
330
1F
100
AcDbEntity
  8
細線
 62
     0
100
AcDbLine
 10
244.9301104213084
 20
61.68808796305171
 30
0.0
 11
243.4301104213084
 21
61.68808796305171
 31
0.0
  0
LINE
  5
3175
330
1F
100
AcDbEntity
  8
細線
 62
     0
100
AcDbLine
 10
243.4301104213084
 20
61.68808796305171
 30
0.0
 11
243.4301104213084
 21
63.68808796305171
 31
0.0
  0
ARC
  5
3176
330
1F
100
AcDbEntity
  8
太線
100
AcDbCircle
 10
247.4301104213084
 20
70.4964231774785
 30
0.0
 40
2.5
100
AcDbArc
 50
168.4630409671834
 51
191.5369590328149
  0
LINE
  5
3177
330
1F
100
AcDbEntity
  8
細線
 62
     0
100
AcDbLine
 10
249.9301104213084
 20
54.18808796305171
 30
0.0
 11
249.9301104213084
 21
61.68808796305171
 31
0.0
  0
LINE
  5
3178
330
1F
100
AcDbEntity
  8
細線
 62
     0
100
AcDbLine
 10
249.4301104213084
 20
61.68808796305171
 30
0.0
 11
249.4301104213084
 21
54.18808796305171
 31
0.0
  0
LINE
  5
3179
330
1F
100
AcDbEntity
  8
細線
 62
     0
100
AcDbLine
 10
245.4301104213084
 20
61.68808796305171
 30
0.0
 11
245.4301104213084
 21
54.18808796305171
 31
0.0
  0
LINE
  5
317A
330
1F
100
AcDbEntity
  8
細線
 62
     0
100
AcDbLine
 10
245.4301104213084
 20
53.68808796305171
 30
0.0
 11
249.4301104213084
 21
53.68808796305171
 31
0.0
  0
LINE
  5
317B
330
1F
100
AcDbEntity
  8
細線
 62
     0
100
AcDbLine
 10
245.4301104213084
 20
54.18808796305171
 30
0.0
 11
249.4301104213084
 21
54.18808796305171
 31
0.0
  0
LINE
  5
317C
330
1F
100
AcDbEntity
  8
細線
 62
     0
100
AcDbLine
 10
249.4301104213084
 20
53.68808796305171
 30
0.0
 11
249.9301104213084
 21
54.18808796305171
 31
0.0
  0
LINE
  5
317D
330
1F
100
AcDbEntity
  8
細線
 62
     0
100
AcDbLine
 10
249.9301104213084
 20
61.68808796305171
 30
0.0
 11
251.4301104213084
 21
61.68808796305171
 31
0.0
  0
LINE
  5
317E
330
1F
100
AcDbEntity
  8
細線
 62
     0
100
AcDbLine
 10
251.4301104213084
 20
61.68808796305171
 30
0.0
 11
251.4301104213084
 21
63.68808796305171
 31
0.0
  0
LINE
  5
317F
330
1F
100
AcDbEntity
  8
太線
100
AcDbLine
 10
246.9301104213084
 20
72.94591292026169
 30
0.0
 11
246.9301104213084
 21
71.49642317747853
 31
0.0
  0
LINE
  5
3180
330
1F
100
AcDbEntity
  8
太線
100
AcDbLine
 10
247.9301104213084
 20
71.49642317747853
 30
0.0
 11
247.9301104213084
 21
72.94591292026169
 31
0.0
  0
LINE
  5
3181
330
1F
100
AcDbEntity
  8
太線
100
AcDbLine
 10
248.4301104213084
 20
69.9964231774785
 30
0.0
 11
249.8796001640915
 21
69.9964231774785
 31
0.0
  0
LINE
  5
3182
330
1F
100
AcDbEntity
  8
太線
100
AcDbLine
 10
249.8796001640915
 20
70.9964231774785
 30
0.0
 11
248.4301104213084
 21
70.99642317747854
 31
0.0
  0
ARC
  5
3183
330
1F
100
AcDbEntity
  8
太線
100
AcDbCircle
 10
247.4301104213084
 20
70.4964231774785
 30
0.0
 40
2.5
100
AcDbArc
 50
258.4630409671852
 51
281.5369590328181
  0
ARC
  5
3184
330
1F
100
AcDbEntity
  8
太線
100
AcDbCircle
 10
246.4301104213084
 20
69.49642317747851
 30
0.0
 40
0.5
100
AcDbArc
 50
0.0
 51
90.0
  0
LINE
  5
3185
330
1F
100
AcDbEntity
  8
太線
100
AcDbLine
 10
246.9301104213084
 20
69.49642317747851
 30
0.0
 11
246.9301104213084
 21
68.04693343469532
 31
0.0
  0
LINE
  5
3186
330
1F
100
AcDbEntity
  8
太線
100
AcDbLine
 10
247.9301104213084
 20
68.04693343469532
 30
0.0
 11
247.9301104213084
 21
69.49642317747851
 31
0.0
  0
ARC
  5
3187
330
1F
100
AcDbEntity
  8
太線
100
AcDbCircle
 10
248.4301104213084
 20
69.49642317747851
 30
0.0
 40
0.5
100
AcDbArc
 50
90.0
 51
180.0
  0
ARC
  5
3188
330
1F
100
AcDbEntity
  8
太線
100
AcDbCircle
 10
246.4301104213084
 20
71.49642317747853
 30
0.0
 40
0.5
100
AcDbArc
 50
270.0
 51
0.0
  0
ARC
  5
3189
330
1F
100
AcDbEntity
  8
太線
100
AcDbCircle
 10
248.4301104213084
 20
71.49642317747853
 30
0.0
 40
0.5
100
AcDbArc
 50
180.0
 51
270.0
  0
ARC
  5
318A
330
1F
100
AcDbEntity
  8
太線
100
AcDbCircle
 10
247.4301104213084
 20
70.4964231774785
 30
0.0
 40
2.5
100
AcDbArc
 50
348.463040967185
 51
11.53695903281494
  0
ARC
  5
318B
330
1F
100
AcDbEntity
  8
太線
100
AcDbCircle
 10
247.4301104213084
 20
70.4964231774785
 30
0.0
 40
2.5
100
AcDbArc
 50
78.46304096718187
 51
101.5369590328147
  0
LEADER
  5
31B5
330
1F
100
AcDbEntity
  8
太線
 62
     5
100
AcDbLeader
  3
sunpo
 76
     2
 10
38.29489726427027
 20
189.2519750708295
 30
0.0
 10
49.32804498044561
 20
218.4342998814317
 30
0.0
1001
ACAD
1000
DSTYLE
1002
{
1070
   147
1040
1.0
1070
    77
1070
     0
1002
}
  0
TEXT
  5
31B6
330
1F
100
AcDbEntity
  8
文字
100
AcDbText
 10
113.7987112110561
 20
227.4522079155107
 30
0.0
 40
4.799999999999999
  1
3箇所止まりも、1箇所貫通も出来います。
 51
15.0
  7
OKANO
100
AcDbText
  0
VIEWPORT
  5
2E
330
1B
100
AcDbEntity
 67
     1
  8
0
100
AcDbViewport
 10
253.1605639091757
 20
124.3535121571442
 30
0.0
 40
725.8755642929785
 41
368.6744172699848
 68
     2
 69
     1
 12
253.1605639091757
 22
124.3535121571442
 13
0.0
 23
0.0
 14
10.0
 24
10.0
 15
10.0
 25
10.0
 16
0.0
 26
0.0
 36
1.0
 17
0.0
 27
0.0
 37
0.0
 42
50.0
 43
0.0
 44
0.0
 45
368.6744172699848
 50
0.0
 51
0.0
 72
   100
 90
    32800
  1

281
     0
 71
     1
 74
     0
110
0.0
120
0.0
130
0.0
111
1.0
121
0.0
131
0.0
112
0.0
122
1.0
132
0.0
 79
     0
146
0.0
  0
VIEWPORT
  5
30
330
1B
100
AcDbEntity
 67
     1
  8
70-0-CON
100
AcDbViewport
 10
141.8594093064315
 20
100.3480256368386
 30
0.0
 40
261.6199023344245
 41
192.6196987113174
 68
     1
 69
     2
 12
179.1257677577604
 22
101.2571054624595
 13
0.0
 23
0.0
 14
5.0
 24
5.0
 15
10.0
 25
10.0
 16
0.0
 26
0.0
 36
1.0
 17
0.0
 27
0.0
 37
0.0
 42
50.0
 43
0.0
 44
0.0
 45
289.9939164974768
 50
0.0
 51
0.0
 72
   100
 90
    32864
  1

281
     0
 71
     1
 74
     0
110
0.0
120
0.0
130
0.0
111
1.0
121
0.0
131
0.0
112
0.0
122
1.0
132
0.0
 79
     0
146
0.0
  0
LWPOLYLINE
  5
45
330
1B
100
AcDbEntity
 67
     1
  8
50-0-CON
100
AcDbPolyline
 90
        4
 70
     1
 43
0.0
 10
11.04945813921926
 20
4.038176281179858
 10
272.2125713060605
 20
4.033520706629644
 10
273.4987754093466
 20
195.9297862125246
 10
11.04945813921926
 20
196.6578749924973
  0
LINE
  5
4A
330
1B
100
AcDbEntity
 67
     1
  8
50-0-CON
100
AcDbLine
 10
10.38768783662635
 20
100.3480256368386
 30
0.0
 11
-4.391850629656119
 21
100.3480256368386
 31
0.0
  0
LINE
  5
4B
330
1B
100
AcDbEntity
 67
     1
  8
50-0-CON
100
AcDbLine
 10
141.8594093064315
 20
197.098652626247
 30
0.0
 11
141.8594093064315
 21
202.387980773708
 31
0.0
  0
LINE
  5
4C
330
1B
100
AcDbEntity
 67
     1
  8
50-0-CON
100
AcDbLine
 10
272.4487699456857
 20
100.7888032705883
 30
0.0
 11
278.8458837249377
 21
100.7888032705883
 31
0.0
  0
LINE
  5
4D
330
1B
100
AcDbEntity
 67
     1
  8
50-0-CON
100
AcDbLine
 10
140.9770484758805
 20
4.038176281179858
 30
0.0
 11
140.9770484758805
 21
-3.455038652015446
 31
0.0
  0
ENDSEC
  0
SECTION
  2
OBJECTS
  0
DICTIONARY
  5
C
330
0
100
AcDbDictionary
281
     1
  3
ACAD_GROUP
350
D
  3
ACAD_LAYOUT
350
1A
  3
ACAD_MLINESTYLE
350
17
  3
ACAD_PLOTSETTINGS
350
19
  3
ACAD_PLOTSTYLENAME
350
E
  3
AcadDim
350
13D0
  3
AcDbVariableDictionary
350
6AD
  3
DWGPROPS
350
30F
  0
DICTIONARY
  5
D
102
{ACAD_REACTORS
330
C
102
}
330
C
100
AcDbDictionary
281
     1
  0
DICTIONARY
  5
1A
102
{ACAD_REACTORS
330
C
102
}
330
C
100
AcDbDictionary
281
     1
  3
A4
350
1E
  3
Model
350
22
  0
DICTIONARY
  5
17
102
{ACAD_REACTORS
330
C
102
}
330
C
100
AcDbDictionary
281
     1
  3
Standard
350
18
  0
DICTIONARY
  5
19
102
{ACAD_REACTORS
330
C
102
}
330
C
100
AcDbDictionary
281
     1
  0
ACDBDICTIONARYWDFLT
  5
E
102
{ACAD_REACTORS
330
C
102
}
330
C
100
AcDbDictionary
281
     1
  3
Normal
350
F
100
AcDbDictionaryWithDefault
340
F
  0
XRECORD
  5
13D0
102
{ACAD_REACTORS
330
C
102
}
330
C
100
AcDbXrecord
280
     1
 90
   990106
  3

 60
     0
 61
     0
 62
     1
 63
     3
 64
     0
 65
     0
 66
     0
 67
     3
 68
     1
 69
     0
 70
     0
 71
     0
 72
     0
 40
0.0
170
     0
  0
DICTIONARY
  5
6AD
102
{ACAD_REACTORS
330
C
102
}
330
C
100
AcDbDictionary
281
     1
  3
SORTENTS
350
6AE
  0
XRECORD
  5
30F
102
{ACAD_REACTORS
330
C
102
}
330
C
100
AcDbXrecord
280
     1
  1
DWGPROPS COOKIE
  2

  3

  4

  6

  7

  8

  9

300
=
301
=
302
=
303
=
304
=
305
=
306
=
307
=
308
=
309
=
 40
0.3303803125
 41
2452362.482225463
 42
2452370.969861285
  1

 90
        0
  0
LAYOUT
  5
1E
102
{ACAD_REACTORS
330
1A
102
}
330
1A
100
AcDbPlotSettings
  1

  2
EPSON PM-920C
  4
A4
  6

 40
3.757083177566528
 41
14.7637300491333
 42
3.757080078125
 43
3.757080078125
 44
209.9733276367187
 45
296.9683227539062
 46
0.0
 47
0.0
 48
0.0
 49
0.0
140
0.0
141
0.0
142
1.0
143
1.0
 70
   688
 72
     1
 73
     1
 74
     5
  7
joint.ctb
 75
    16
147
1.0
148
0.0
149
0.0
100
AcDbLayout
  1
A4
 70
     1
 71
     1
 10
-3.757080078125
 20
-3.757083177566528
 11
293.2112426757812
 21
206.2162444591522
 12
0.0
 22
0.0
 32
0.0
 14
-4.400932062405672
 24
-3.459116387827521
 34
-0.0015258207003583
 15
278.8478616361952
 25
202.393946056399
 35
0.0000000349246037
146
0.0
 13
0.0
 23
0.0
 33
0.0
 16
1.0
 26
0.0
 36
0.0
 17
0.0
 27
1.0
 37
0.0
 76
     0
330
1B
331
30
  0
LAYOUT
  5
22
102
{ACAD_REACTORS
330
1A
102
}
330
1A
100
AcDbPlotSettings
  1

  2
EPSON PM-920C
  4
A4
  6

 40
3.757083177566528
 41
14.7637300491333
 42
3.757080078125
 43
3.757080078125
 44
209.9733276367187
 45
296.9683227539062
 46
0.0
 47
0.0
 48
0.0
 49
0.0
140
0.0
141
0.0
142
1.0
143
1.0
 70
 11952
 72
     1
 73
     1
 74
     0
  7

 75
     0
147
1.0
148
-45.64199848979289
149
-84.48806419330498
100
AcDbLayout
  1
Model
 70
     1
 71
     0
 10
0.0
 20
0.0
 11
12.0
 21
9.0
 12
0.0
 22
0.0
 32
0.0
 14
0.0
 24
0.0
 34
0.0
 15
0.0
 25
0.0
 35
0.0
146
0.0
 13
0.0
 23
0.0
 33
0.0
 16
1.0
 26
0.0
 36
0.0
 17
0.0
 27
1.0
 37
0.0
 76
     0
330
1F
  0
MLINESTYLE
  5
18
102
{ACAD_REACTORS
330
17
102
}
330
17
100
AcDbMlineStyle
  2
STANDARD
 70
     0
  3

 62
   256
 51
90.0
 52
90.0
 71
     2
 49
0.5
 62
   256
  6
BYLAYER
 49
-0.5
 62
   256
  6
BYLAYER
  0
ACDBPLACEHOLDER
  5
F
102
{ACAD_REACTORS
330
E
102
}
330
E
  0
DICTIONARYVAR
  5
6AE
102
{ACAD_REACTORS
330
6AD
102
}
330
6AD
100
DictionaryVariables
280
     0
  1
96
  0
ENDSEC
  0
EOF
