  0
SECTION
  2
HEADER
  9
$ACADVER
  1
AC1015
  9
$ACADMAINTVER
 70
     6
  9
$DWGCODEPAGE
  3
ANSI_932
  9
$INSBASE
 10
0.0
 20
0.0
 30
0.0
  9
$EXTMIN
 10
-39388.31230787149
 20
-39723.85460132336
 30
0.0
  9
$EXTMAX
 10
40661.6876921285
 20
40326.14539867664
 30
0.0
  9
$LIMMIN
 10
0.0
 20
0.0
  9
$LIMMAX
 10
420.0
 20
297.0
  9
$ORTHOMODE
 70
     1
  9
$REGENMODE
 70
     1
  9
$FILLMODE
 70
     1
  9
$QTEXTMODE
 70
     0
  9
$MIRRTEXT
 70
     1
  9
$LTSCALE
 40
1.0
  9
$ATTMODE
 70
     1
  9
$TEXTSIZE
 40
5.0
  9
$TRACEWID
 40
1.0
  9
$TEXTSTYLE
  7
OKANO
  9
$CLAYER
  8
破線
  9
$CELTYPE
  6
ByLayer
  9
$CECOLOR
 62
   256
  9
$CELTSCALE
 40
1.0
  9
$DISPSILH
 70
     0
  9
$DIMSCALE
 40
0.0
  9
$DIMASZ
 40
3.0
  9
$DIMEXO
 40
2.0
  9
$DIMDLI
 40
8.0
  9
$DIMRND
 40
0.0
  9
$DIMDLE
 40
0.0
  9
$DIMEXE
 40
3.0
  9
$DIMTP
 40
0.0
  9
$DIMTM
 40
0.0
  9
$DIMTXT
 40
5.0
  9
$DIMCEN
 40
2.5
  9
$DIMTSZ
 40
0.0
  9
$DIMTOL
 70
     0
  9
$DIMLIM
 70
     0
  9
$DIMTIH
 70
     0
  9
$DIMTOH
 70
     0
  9
$DIMSE1
 70
     0
  9
$DIMSE2
 70
     0
  9
$DIMTAD
 70
     1
  9
$DIMZIN
 70
     8
  9
$DIMBLK
  1
Closed
  9
$DIMASO
 70
     1
  9
$DIMSHO
 70
     1
  9
$DIMPOST
  1

  9
$DIMAPOST
  1

  9
$DIMALT
 70
     0
  9
$DIMALTD
 70
     3
  9
$DIMALTF
 40
0.03937007874016
  9
$DIMLFAC
 40
1.0
  9
$DIMTOFL
 70
     1
  9
$DIMTVP
 40
0.0
  9
$DIMTIX
 70
     0
  9
$DIMSOXD
 70
     0
  9
$DIMSAH
 70
     0
  9
$DIMBLK1
  1

  9
$DIMBLK2
  1

  9
$DIMSTYLE
  2
sunpo
  9
$DIMCLRD
 70
     0
  9
$DIMCLRE
 70
     0
  9
$DIMCLRT
 70
     0
  9
$DIMTFAC
 40
1.0
  9
$DIMGAP
 40
1.0
  9
$DIMJUST
 70
     0
  9
$DIMSD1
 70
     0
  9
$DIMSD2
 70
     0
  9
$DIMTOLJ
 70
     0
  9
$DIMTZIN
 70
     8
  9
$DIMALTZ
 70
     0
  9
$DIMALTTZ
 70
     0
  9
$DIMUPT
 70
     0
  9
$DIMDEC
 70
     2
  9
$DIMTDEC
 70
     2
  9
$DIMALTU
 70
     2
  9
$DIMALTTD
 70
     3
  9
$DIMTXSTY
  7
OKANO
  9
$DIMAUNIT
 70
     0
  9
$DIMADEC
 70
     0
  9
$DIMALTRND
 40
0.0
  9
$DIMAZIN
 70
     0
  9
$DIMDSEP
 70
    46
  9
$DIMATFIT
 70
     3
  9
$DIMFRAC
 70
     0
  9
$DIMLDRBLK
  1
Closed
  9
$DIMLUNIT
 70
     2
  9
$DIMLWD
 70
    -2
  9
$DIMLWE
 70
    -2
  9
$DIMTMOVE
 70
     0
  9
$LUNITS
 70
     2
  9
$LUPREC
 70
     2
  9
$SKETCHINC
 40
1.0
  9
$FILLETRAD
 40
3.0
  9
$AUNITS
 70
     0
  9
$AUPREC
 70
     0
  9
$MENU
  1
.
  9
$ELEVATION
 40
0.0
  9
$PELEVATION
 40
0.0
  9
$THICKNESS
 40
0.0
  9
$LIMCHECK
 70
     0
  9
$CHAMFERA
 40
10.0
  9
$CHAMFERB
 40
10.0
  9
$CHAMFERC
 40
20.0
  9
$CHAMFERD
 40
0.0
  9
$SKPOLY
 70
     0
  9
$TDCREATE
 40
2452362.482225463
  9
$TDUCREATE
 40
2452362.107225463
  9
$TDUPDATE
 40
2456631.536966585
  9
$TDUUPDATE
 40
2456631.161966585
  9
$TDINDWG
 40
4.0903833565
  9
$TDUSRTIMER
 40
4.0903833565
  9
$USRTIMER
 70
     1
  9
$ANGBASE
 50
0.0
  9
$ANGDIR
 70
     0
  9
$PDMODE
 70
     0
  9
$PDSIZE
 40
0.0
  9
$PLINEWID
 40
0.0
  9
$SPLFRAME
 70
     0
  9
$SPLINETYPE
 70
     6
  9
$SPLINESEGS
 70
     8
  9
$HANDSEED
  5
6CAC
  9
$SURFTAB1
 70
     6
  9
$SURFTAB2
 70
     6
  9
$SURFTYPE
 70
     6
  9
$SURFU
 70
     6
  9
$SURFV
 70
     6
  9
$UCSBASE
  2

  9
$UCSNAME
  2

  9
$UCSORG
 10
0.0
 20
0.0
 30
0.0
  9
$UCSXDIR
 10
1.0
 20
0.0
 30
0.0
  9
$UCSYDIR
 10
0.0
 20
1.0
 30
0.0
  9
$UCSORTHOREF
  2

  9
$UCSORTHOVIEW
 70
     0
  9
$UCSORGTOP
 10
0.0
 20
0.0
 30
0.0
  9
$UCSORGBOTTOM
 10
0.0
 20
0.0
 30
0.0
  9
$UCSORGLEFT
 10
0.0
 20
0.0
 30
0.0
  9
$UCSORGRIGHT
 10
0.0
 20
0.0
 30
0.0
  9
$UCSORGFRONT
 10
0.0
 20
0.0
 30
0.0
  9
$UCSORGBACK
 10
0.0
 20
0.0
 30
0.0
  9
$PUCSBASE
  2

  9
$PUCSNAME
  2

  9
$PUCSORG
 10
0.0
 20
0.0
 30
0.0
  9
$PUCSXDIR
 10
1.0
 20
0.0
 30
0.0
  9
$PUCSYDIR
 10
0.0
 20
1.0
 30
0.0
  9
$PUCSORTHOREF
  2

  9
$PUCSORTHOVIEW
 70
     0
  9
$PUCSORGTOP
 10
0.0
 20
0.0
 30
0.0
  9
$PUCSORGBOTTOM
 10
0.0
 20
0.0
 30
0.0
  9
$PUCSORGLEFT
 10
0.0
 20
0.0
 30
0.0
  9
$PUCSORGRIGHT
 10
0.0
 20
0.0
 30
0.0
  9
$PUCSORGFRONT
 10
0.0
 20
0.0
 30
0.0
  9
$PUCSORGBACK
 10
0.0
 20
0.0
 30
0.0
  9
$USERI1
 70
     0
  9
$USERI2
 70
     0
  9
$USERI3
 70
     0
  9
$USERI4
 70
     0
  9
$USERI5
 70
     0
  9
$USERR1
 40
0.0
  9
$USERR2
 40
0.0
  9
$USERR3
 40
0.0
  9
$USERR4
 40
0.0
  9
$USERR5
 40
0.0
  9
$WORLDVIEW
 70
     1
  9
$SHADEDGE
 70
     3
  9
$SHADEDIF
 70
    70
  9
$TILEMODE
 70
     0
  9
$MAXACTVP
 70
    64
  9
$PINSBASE
 10
0.0
 20
0.0
 30
0.0
  9
$PLIMCHECK
 70
     0
  9
$PEXTMIN
 10
-4.391850629656119
 20
-3.455038652015446
 30
0.0
  9
$PEXTMAX
 10
278.8458837249377
 20
202.387980773708
 30
0.0
  9
$PLIMMIN
 10
-20.0
 20
-7.5
  9
$PLIMMAX
 10
277.0
 20
202.4999999999999
  9
$UNITMODE
 70
     0
  9
$VISRETAIN
 70
     1
  9
$PLINEGEN
 70
     0
  9
$PSLTSCALE
 70
     1
  9
$TREEDEPTH
 70
  3020
  9
$CMLSTYLE
  2
Standard
  9
$CMLJUST
 70
     0
  9
$CMLSCALE
 40
20.0
  9
$PROXYGRAPHICS
 70
     1
  9
$MEASUREMENT
 70
     1
  9
$CELWEIGHT
370
    -1
  9
$ENDCAPS
280
     0
  9
$JOINSTYLE
280
     0
  9
$LWDISPLAY
290
     0
  9
$INSUNITS
 70
     4
  9
$HYPERLINKBASE
  1

  9
$STYLESHEET
  1

  9
$XEDIT
290
     1
  9
$CEPSNTYPE
380
     0
  9
$PSTYLEMODE
290
     1
  9
$FINGERPRINTGUID
  2
{FF7F33C3-4233-11D6-AEE0-0000F45FD7F4}
  9
$VERSIONGUID
  2
{DFCD4283-375C-4BE4-9F19-BA020A7525E9}
  9
$EXTNAMES
290
     1
  9
$PSVPSCALE
 40
0.0
  9
$OLESTARTUP
290
     0
  0
ENDSEC
  0
SECTION
  2
CLASSES
  0
CLASS
  1
ACDBDICTIONARYWDFLT
  2
AcDbDictionaryWithDefault
  3
AutoCAD 2000
 90
        0
280
     0
281
     0
  0
CLASS
  1
ACDBPLACEHOLDER
  2
AcDbPlaceHolder
  3
AutoCAD 2000
 90
        0
280
     0
281
     0
  0
CLASS
  1
LAYOUT
  2
AcDbLayout
  3
AutoCAD 2000
 90
        0
280
     0
281
     0
  0
CLASS
  1
DICTIONARYVAR
  2
AcDbDictionaryVar
  3
AutoCAD 2000
 90
        0
280
     0
281
     0
  0
ENDSEC
  0
SECTION
  2
TABLES
  0
TABLE
  2
VPORT
  5
8
330
0
100
AcDbSymbolTable
 70
     1
  0
VPORT
  5
6CA5
330
8
100
AcDbSymbolTableRecord
100
AcDbViewportTableRecord
  2
*Active
 70
     0
 10
0.0
 20
0.0
 11
1.0
 21
1.0
 12
483.831301681319
 22
789.8987244201022
 13
0.0
 23
0.0
 14
5.0
 24
5.0
 15
10.0
 25
10.0
 16
0.0
 26
0.0
 36
1.0
 17
0.0
 27
0.0
 37
0.0
 40
397.1978826303177
 41
1.968879668049792
 42
50.0
 43
0.0
 44
0.0
 50
0.0
 51
0.0
 71
     0
 72
   100
 73
     1
 74
     3
 75
     0
 76
     0
 77
     0
 78
     0
281
     0
 65
     1
110
0.0
120
0.0
130
0.0
111
1.0
121
0.0
131
0.0
112
0.0
122
1.0
132
0.0
 79
     0
146
0.0
  0
ENDTAB
  0
TABLE
  2
LTYPE
  5
5
330
0
100
AcDbSymbolTable
 70
     5
  0
LTYPE
  5
14
330
5
100
AcDbSymbolTableRecord
100
AcDbLinetypeTableRecord
  2
ByBlock
 70
     0
  3

 72
    65
 73
     0
 40
0.0
  0
LTYPE
  5
15
330
5
100
AcDbSymbolTableRecord
100
AcDbLinetypeTableRecord
  2
ByLayer
 70
     0
  3

 72
    65
 73
     0
 40
0.0
  0
LTYPE
  5
16
330
5
100
AcDbSymbolTableRecord
100
AcDbLinetypeTableRecord
  2
Continuous
 70
     0
  3
Solid line
 72
    65
 73
     0
 40
0.0
  0
LTYPE
  5
33
330
5
100
AcDbSymbolTableRecord
100
AcDbLinetypeTableRecord
  2
DASHED2
 70
     0
  3
Dashed (.5x) _ _ _ _ _ _ _ _ _ _ _ _ _ _ _ _ _
 72
    65
 73
     2
 40
9.524999999999998
 49
6.349999999999999
 74
     0
 49
-3.174999999999999
 74
     0
  0
LTYPE
  5
34
330
5
100
AcDbSymbolTableRecord
100
AcDbLinetypeTableRecord
  2
CENTER2
 70
     0
  3
Center (.5x) ___ _ ___ _ ___ _ ___ _ ___ _ ___
 72
    65
 73
     4
 40
28.57499999999999
 49
19.05
 74
     0
 49
-3.174999999999999
 74
     0
 49
3.174999999999999
 74
     0
 49
-3.174999999999999
 74
     0
  0
LTYPE
  5
35
330
5
100
AcDbSymbolTableRecord
100
AcDbLinetypeTableRecord
  2
PHANTOM2
 70
     0
  3
Phantom (.5x) ___ _ _ ___ _ _ ___ _ _ ___ _ _
 72
    65
 73
     6
 40
31.75
 49
15.875
 74
     0
 49
-3.174999999999999
 74
     0
 49
3.174999999999999
 74
     0
 49
-3.174999999999999
 74
     0
 49
3.174999999999999
 74
     0
 49
-3.174999999999999
 74
     0
  0
LTYPE
  5
36
330
5
100
AcDbSymbolTableRecord
100
AcDbLinetypeTableRecord
  2
HIDDEN2
 70
     0
  3
Hidden (.5x) _ _ _ _ _ _ _ _ _ _ _ _ _ _ _ _ _
 72
    65
 73
     2
 40
4.762499999999999
 49
3.174999999999999
 74
     0
 49
-1.587499999999999
 74
     0
  0
ENDTAB
  0
TABLE
  2
LAYER
  5
2
330
0
100
AcDbSymbolTable
 70
    13
  0
LAYER
  5
10
330
2
100
AcDbSymbolTableRecord
100
AcDbLayerTableRecord
  2
0
 70
     0
 62
     7
  6
Continuous
370
    -3
390
F
  0
LAYER
  5
40
330
2
100
AcDbSymbolTableRecord
100
AcDbLayerTableRecord
  2
50-0-CON
 70
     0
 62
     4
  6
Continuous
370
    50
390
F
  0
LAYER
  5
41
330
2
100
AcDbSymbolTableRecord
100
AcDbLayerTableRecord
  2
70-0-CON
 70
     0
 62
   202
  6
Continuous
370
    70
390
F
  0
LAYER
  5
4E
330
2
100
AcDbSymbolTableRecord
100
AcDbLayerTableRecord
  2
極太線
 70
     0
 62
     7
  6
Continuous
370
    70
390
F
  0
LAYER
  5
4F
330
2
100
AcDbSymbolTableRecord
100
AcDbLayerTableRecord
  2
細線
 70
     0
 62
     8
  6
Continuous
370
    18
390
F
  0
LAYER
  5
AB
330
2
100
AcDbSymbolTableRecord
100
AcDbLayerTableRecord
  2
構築線
 70
     0
 62
    -2
  6
Continuous
370
    18
390
F
  0
LAYER
  5
B8
330
2
100
AcDbSymbolTableRecord
100
AcDbLayerTableRecord
  2
太線
 70
     0
 62
     7
  6
Continuous
370
    35
390
F
  0
LAYER
  5
B9
330
2
100
AcDbSymbolTableRecord
100
AcDbLayerTableRecord
  2
寸法線
 70
     0
 62
     5
  6
Continuous
370
    18
390
F
  0
LAYER
  5
BA
330
2
100
AcDbSymbolTableRecord
100
AcDbLayerTableRecord
  2
破線
 70
     0
 62
     8
  6
HIDDEN2
370
    18
390
F
  0
LAYER
  5
BB
330
2
100
AcDbSymbolTableRecord
100
AcDbLayerTableRecord
  2
中心線
 70
     0
 62
     1
  6
CENTER2
370
    18
390
F
  0
LAYER
  5
BC
330
2
100
AcDbSymbolTableRecord
100
AcDbLayerTableRecord
  2
想像線
 70
     0
 62
     8
  6
PHANTOM2
370
    18
390
F
  0
LAYER
  5
BD
330
2
100
AcDbSymbolTableRecord
100
AcDbLayerTableRecord
  2
文字
 70
     0
 62
     7
  6
Continuous
370
    18
390
F
  0
LAYER
  5
180
330
2
100
AcDbSymbolTableRecord
100
AcDbLayerTableRecord
  2
Defpoints
 70
     0
 62
     7
  6
Continuous
290
     0
370
    -3
390
F
  0
ENDTAB
  0
TABLE
  2
STYLE
  5
3
330
0
100
AcDbSymbolTable
 70
     3
  0
STYLE
  5
11
330
3
100
AcDbSymbolTableRecord
100
AcDbTextStyleTableRecord
  2
Standard
 70
     0
 40
0.0
 41
1.0
 50
0.0
 71
     0
 42
3.0
  3
txt
  4

  0
STYLE
  5
32
330
3
100
AcDbSymbolTableRecord
100
AcDbTextStyleTableRecord
  2

 70
     1
 40
0.0
 41
1.0
 50
0.0
 71
     0
 42
2.5
  3
ltypeshp.shx
  4

  0
STYLE
  5
50
330
3
100
AcDbSymbolTableRecord
100
AcDbTextStyleTableRecord
  2
OKANO
 70
     0
 40
0.0
 41
1.0
 50
15.0
 71
     0
 42
5.0
  3
isocp.shx
  4
bigfont.shx
  0
ENDTAB
  0
TABLE
  2
VIEW
  5
6
330
0
100
AcDbSymbolTable
 70
     0
  0
ENDTAB
  0
TABLE
  2
UCS
  5
7
330
0
100
AcDbSymbolTable
 70
     0
  0
ENDTAB
  0
TABLE
  2
APPID
  5
9
330
0
100
AcDbSymbolTable
 70
     1
  0
APPID
  5
12
330
9
100
AcDbSymbolTableRecord
100
AcDbRegAppTableRecord
  2
ACAD
 70
     0
  0
ENDTAB
  0
TABLE
  2
DIMSTYLE
  5
A
330
0
100
AcDbSymbolTable
 70
     2
100
AcDbDimStyleTable
 71
     2
340
A2
340
27
  0
DIMSTYLE
105
27
330
A
100
AcDbSymbolTableRecord
100
AcDbDimStyleTableRecord
  2
ISO-25
 70
     0
 41
2.5
 42
0.625
 43
3.75
 44
1.25
 73
     0
 74
     0
 77
     1
 78
     8
140
2.5
141
2.5
143
0.03937007874016
147
0.625
171
     3
172
     1
271
     2
272
     2
274
     3
283
     0
284
     8
340
11
  0
DIMSTYLE
105
A2
102
{ACAD_REACTORS
330
5D08
330
5D95
330
5D94
330
5FD5
330
65B5
330
66C8
330
6713
330
6730
330
675B
330
676D
330
677A
330
6787
330
67AD
330
67DB
330
68B1
330
68D9
330
68DA
330
68DB
330
68E1
330
68E2
330
68E3
330
68E4
330
68E5
330
68E6
330
68EC
330
6A34
330
6ACA
330
6AE9
102
}
330
A
100
AcDbSymbolTableRecord
100
AcDbDimStyleTableRecord
  2
sunpo
 70
     0
 40
0.0
 41
3.0
 42
2.0
 43
8.0
 44
3.0
 73
     0
 74
     0
 77
     1
 78
     8
140
5.0
141
2.5
143
0.03937007874016
147
1.0
171
     3
172
     1
271
     2
272
     2
274
     3
283
     0
284
     8
340
50
341
9B
342
9B
  0
ENDTAB
  0
TABLE
  2
BLOCK_RECORD
  5
1
330
0
100
AcDbSymbolTable
 70
    31
  0
BLOCK_RECORD
  5
1F
330
1
100
AcDbSymbolTableRecord
100
AcDbBlockTableRecord
  2
*Model_Space
340
22
  0
BLOCK_RECORD
  5
1B
330
1
100
AcDbSymbolTableRecord
100
AcDbBlockTableRecord
  2
*Paper_Space
340
1E
  0
BLOCK_RECORD
  5
9B
330
1
100
AcDbSymbolTableRecord
100
AcDbBlockTableRecord
  2
_Closed
340
0
102
{BLKREFS
331
5D0D
331
5D0E
331
5DDC
331
5DDD
331
5DE5
331
5DE6
331
6019
331
601A
331
66FB
331
66FC
331
6740
331
6741
331
6752
331
6768
331
678C
331
678D
331
6797
331
6798
331
67A0
331
67A1
331
67B2
331
67B3
331
67E0
331
67E1
331
69D6
331
69D7
331
69DF
331
69E0
331
69E7
331
69ED
331
69EE
331
69F6
331
69F7
331
69FF
331
6A00
331
6A08
331
6A09
331
6A11
331
6A12
331
6A1A
331
6A1B
331
6A23
331
6A24
331
6A2E
331
6A2F
331
6A3B
331
6A3C
331
6AE3
331
6AE4
331
6AEE
331
6AEF
331
6AF9
331
6AFA
331
6BD4
331
6BD5
102
}
  0
BLOCK_RECORD
  5
1510
330
1
100
AcDbSymbolTableRecord
100
AcDbBlockTableRecord
  2
A$C10A573AC
340
0
  0
BLOCK_RECORD
  5
5D09
330
1
100
AcDbSymbolTableRecord
100
AcDbBlockTableRecord
  2
*D2
340
0
  0
BLOCK_RECORD
  5
5DB8
330
1
100
AcDbSymbolTableRecord
100
AcDbBlockTableRecord
  2
*D3
340
0
  0
BLOCK_RECORD
  5
5DC4
330
1
100
AcDbSymbolTableRecord
100
AcDbBlockTableRecord
  2
*D4
340
0
  0
BLOCK_RECORD
  5
600A
330
1
100
AcDbSymbolTableRecord
100
AcDbBlockTableRecord
  2
*D5
340
0
  0
BLOCK_RECORD
  5
65B6
330
1
100
AcDbSymbolTableRecord
100
AcDbBlockTableRecord
  2
*D6
340
0
  0
BLOCK_RECORD
  5
66D4
330
1
100
AcDbSymbolTableRecord
100
AcDbBlockTableRecord
  2
*D7
340
0
  0
BLOCK_RECORD
  5
6714
330
1
100
AcDbSymbolTableRecord
100
AcDbBlockTableRecord
  2
*D8
340
0
  0
BLOCK_RECORD
  5
6731
330
1
100
AcDbSymbolTableRecord
100
AcDbBlockTableRecord
  2
*D9
340
0
  0
BLOCK_RECORD
  5
675C
330
1
100
AcDbSymbolTableRecord
100
AcDbBlockTableRecord
  2
*D10
340
0
  0
BLOCK_RECORD
  5
676E
330
1
100
AcDbSymbolTableRecord
100
AcDbBlockTableRecord
  2
*D11
340
0
  0
BLOCK_RECORD
  5
677B
330
1
100
AcDbSymbolTableRecord
100
AcDbBlockTableRecord
  2
*D12
340
0
  0
BLOCK_RECORD
  5
6788
330
1
100
AcDbSymbolTableRecord
100
AcDbBlockTableRecord
  2
*D13
340
0
  0
BLOCK_RECORD
  5
67AE
330
1
100
AcDbSymbolTableRecord
100
AcDbBlockTableRecord
  2
*D14
340
0
  0
BLOCK_RECORD
  5
67DC
330
1
100
AcDbSymbolTableRecord
100
AcDbBlockTableRecord
  2
*D15
340
0
  0
BLOCK_RECORD
  5
68ED
330
1
100
AcDbSymbolTableRecord
100
AcDbBlockTableRecord
  2
*D16
340
0
  0
BLOCK_RECORD
  5
68FB
330
1
100
AcDbSymbolTableRecord
100
AcDbBlockTableRecord
  2
*D17
340
0
  0
BLOCK_RECORD
  5
6907
330
1
100
AcDbSymbolTableRecord
100
AcDbBlockTableRecord
  2
*D18
340
0
  0
BLOCK_RECORD
  5
6913
330
1
100
AcDbSymbolTableRecord
100
AcDbBlockTableRecord
  2
*D19
340
0
  0
BLOCK_RECORD
  5
691F
330
1
100
AcDbSymbolTableRecord
100
AcDbBlockTableRecord
  2
*D20
340
0
  0
BLOCK_RECORD
  5
692B
330
1
100
AcDbSymbolTableRecord
100
AcDbBlockTableRecord
  2
*D21
340
0
  0
BLOCK_RECORD
  5
6937
330
1
100
AcDbSymbolTableRecord
100
AcDbBlockTableRecord
  2
*D22
340
0
  0
BLOCK_RECORD
  5
6943
330
1
100
AcDbSymbolTableRecord
100
AcDbBlockTableRecord
  2
*D23
340
0
  0
BLOCK_RECORD
  5
694F
330
1
100
AcDbSymbolTableRecord
100
AcDbBlockTableRecord
  2
*D24
340
0
  0
BLOCK_RECORD
  5
6957
330
1
100
AcDbSymbolTableRecord
100
AcDbBlockTableRecord
  2
*D25
340
0
  0
BLOCK_RECORD
  5
6963
330
1
100
AcDbSymbolTableRecord
100
AcDbBlockTableRecord
  2
*D26
340
0
  0
BLOCK_RECORD
  5
6A35
330
1
100
AcDbSymbolTableRecord
100
AcDbBlockTableRecord
  2
*D27
340
0
  0
BLOCK_RECORD
  5
6ACB
330
1
100
AcDbSymbolTableRecord
100
AcDbBlockTableRecord
  2
*D28
340
0
  0
BLOCK_RECORD
  5
6AEA
330
1
100
AcDbSymbolTableRecord
100
AcDbBlockTableRecord
  2
*D29
340
0
  0
ENDTAB
  0
ENDSEC
  0
SECTION
  2
BLOCKS
  0
BLOCK
  5
20
330
1F
100
AcDbEntity
  8
0
100
AcDbBlockBegin
  2
*Model_Space
 70
     0
 10
0.0
 20
0.0
 30
0.0
  3
*Model_Space
  1

  0
ENDBLK
  5
21
330
1F
100
AcDbEntity
  8
0
100
AcDbBlockEnd
  0
BLOCK
  5
1C
330
1B
100
AcDbEntity
 67
     1
  8
0
100
AcDbBlockBegin
  2
*Paper_Space
 70
     0
 10
0.0
 20
0.0
 30
0.0
  3
*Paper_Space
  1

  0
ENDBLK
  5
1D
330
1B
100
AcDbEntity
 67
     1
  8
0
100
AcDbBlockEnd
  0
BLOCK
  5
A0
330
9B
100
AcDbEntity
  8
0
100
AcDbBlockBegin
  2
_Closed
 70
     0
 10
0.0
 20
0.0
 30
0.0
  3
_Closed
  1

  0
LINE
  5
9C
330
9B
100
AcDbEntity
  8
0
 62
     0
370
    -2
100
AcDbLine
 10
-1.0
 20
0.1666666666666666
 30
0.0
 11
0.0
 21
0.0
 31
0.0
  0
LINE
  5
9D
330
9B
100
AcDbEntity
  8
0
 62
     0
370
    -2
100
AcDbLine
 10
0.0
 20
0.0
 30
0.0
 11
-1.0
 21
-0.1666666666666666
 31
0.0
  0
LINE
  5
9E
330
9B
100
AcDbEntity
  8
0
 62
     0
370
    -2
100
AcDbLine
 10
-1.0
 20
0.1666666666666666
 30
0.0
 11
-1.0
 21
-0.1666666666666666
 31
0.0
  0
LINE
  5
9F
330
9B
100
AcDbEntity
  8
0
 62
     0
370
    -2
100
AcDbLine
 10
0.0
 20
0.0
 30
0.0
 11
-1.0
 21
0.0
 31
0.0
  0
ENDBLK
  5
A1
330
9B
100
AcDbEntity
  8
0
100
AcDbBlockEnd
  0
BLOCK
  5
155B
330
1510
100
AcDbEntity
  8
0
100
AcDbBlockBegin
  2
A$C10A573AC
 70
     0
 10
0.0
 20
0.0
 30
0.0
  3
A$C10A573AC
  1

  0
TEXT
  5
1511
330
1510
100
AcDbEntity
  8
文字
100
AcDbText
 10
0.9844302777919438
 20
5.224957122252135
 30
0.0
 40
3.0
  1
Materal : Steel.
 51
15.0
  7
OKANO
100
AcDbText
  0
TEXT
  5
1512
330
1510
100
AcDbEntity
  8
文字
100
AcDbText
 10
-0.1141909619694843
 20
0.7500001922403499
 30
0.0
 40
3.0
  1
Surface treatment : Electro galvanized.
 51
15.0
  7
OKANO
100
AcDbText
  0
TEXT
  5
1513
330
1510
100
AcDbEntity
  8
文字
100
AcDbText
 10
-0.4901926332574931
 20
9.159967445193728
 30
0.0
 40
3.0
  1
5 TORGUE SCREW  M5-6
 51
15.0
  7
OKANO
100
AcDbText
  0
TEXT
  5
1514
330
1510
100
AcDbEntity
  8
文字
100
AcDbText
 10
1.364713526390005
 20
78.88822913323082
 30
0.0
 40
3.0
  1
Special standard,
 51
15.0
  7
OKANO
100
AcDbText
  0
TEXT
  5
1515
330
1510
100
AcDbEntity
  8
文字
100
AcDbText
 10
92.88160823408942
 20
89.92753849837379
 30
0.0
 40
3.0
  1
Screw Type
 51
15.0
  7
OKANO
100
AcDbText
  0
LINE
  5
1516
330
1510
100
AcDbEntity
  8
太線
100
AcDbLine
 10
113.9464587597784
 20
81.93930390144641
 30
0.0
 11
112.4464587597784
 21
81.93930390144641
 31
0.0
  0
LINE
  5
1517
330
1510
100
AcDbEntity
  8
太線
100
AcDbLine
 10
112.4464587597784
 20
76.9393039014464
 30
0.0
 11
121.4644995438761
 21
76.9393039014464
 31
0.0
  0
TEXT
  5
1518
330
1510
100
AcDbEntity
  8
文字
100
AcDbText
 10
93.46068240437217
 20
77.96976862235396
 30
0.0
 40
2.0
  1
17-30
 51
15.0
  7
OKANO
100
AcDbText
  0
LINE
  5
1519
330
1510
100
AcDbEntity
  8
太線
100
AcDbLine
 10
111.9464587597784
 20
81.43930390144641
 30
0.0
 11
111.9464587597784
 21
77.4393039014464
 31
0.0
  0
LINE
  5
151A
330
1510
100
AcDbEntity
  8
太線
100
AcDbLine
 10
91.94645875977846
 20
81.43930390144641
 30
0.0
 11
91.94645875977846
 21
77.43930390144639
 31
0.0
  0
LINE
  5
151B
330
1510
100
AcDbEntity
  8
太線
100
AcDbLine
 10
101.9644995438761
 20
77.4393039014464
 30
0.0
 11
101.9644995438761
 21
81.43930390144641
 31
0.0
  0
LINE
  5
151C
330
1510
100
AcDbEntity
  8
太線
100
AcDbLine
 10
92.44645875977846
 20
76.9393039014464
 30
0.0
 11
101.4644995438761
 21
76.9393039014464
 31
0.0
  0
ARC
  5
151D
330
1510
100
AcDbEntity
  8
太線
100
AcDbCircle
 10
92.44645875977846
 20
77.43930390144639
 30
0.0
 40
0.5
100
AcDbArc
 50
180.0
 51
270.0
  0
ARC
  5
151E
330
1510
100
AcDbEntity
  8
太線
100
AcDbCircle
 10
101.4644995438761
 20
77.4393039014464
 30
0.0
 40
0.5
100
AcDbArc
 50
270.0
 51
0.0
  0
ARC
  5
151F
330
1510
100
AcDbEntity
  8
太線
100
AcDbCircle
 10
112.4464587597784
 20
77.4393039014464
 30
0.0
 40
0.5
100
AcDbArc
 50
180.0
 51
270.0
  0
LINE
  5
1520
330
1510
100
AcDbEntity
  8
想像線
100
AcDbLine
 10
93.94645875977847
 20
81.93930390144641
 30
0.0
 11
99.96449954387617
 21
81.93930390144641
 31
0.0
  0
LINE
  5
1521
330
1510
100
AcDbEntity
  8
極太線
100
AcDbLine
 10
96.38762957111168
 20
85.43930390144641
 30
0.0
 11
97.50528794844525
 21
85.43930390144641
 31
0.0
  0
CIRCLE
  5
1522
330
1510
100
AcDbEntity
  8
太線
100
AcDbCircle
 10
96.94645875977847
 20
85.43930390144641
 30
0.0
 40
0.5588291886667776
  0
LINE
  5
1523
330
1510
100
AcDbEntity
  8
太線
100
AcDbLine
 10
99.46449954387617
 20
86.93930390144641
 30
0.0
 11
94.44645875977846
 21
86.93930390144641
 31
0.0
  0
LINE
  5
1524
330
1510
100
AcDbEntity
  8
太線
100
AcDbLine
 10
93.94645875977847
 20
86.43930390144641
 30
0.0
 11
93.94645875977847
 21
81.93930390144641
 31
0.0
  0
ARC
  5
1525
330
1510
100
AcDbEntity
  8
太線
100
AcDbCircle
 10
92.44645875977846
 20
81.43930390144641
 30
0.0
 40
0.5
100
AcDbArc
 50
90.0
 51
180.0
  0
LINE
  5
1526
330
1510
100
AcDbEntity
  8
太線
100
AcDbLine
 10
93.94645875977847
 20
81.93930390144641
 30
0.0
 11
92.44645875977846
 21
81.93930390144641
 31
0.0
  0
ARC
  5
1527
330
1510
100
AcDbEntity
  8
太線
100
AcDbCircle
 10
94.44645875977846
 20
86.43930390144641
 30
0.0
 40
0.5
100
AcDbArc
 50
90.0
 51
180.0
  0
LINE
  5
1528
330
1510
100
AcDbEntity
  8
太線
100
AcDbLine
 10
99.96449954387617
 20
81.93930390144641
 30
0.0
 11
99.96449954387617
 21
86.43930390144641
 31
0.0
  0
LINE
  5
1529
330
1510
100
AcDbEntity
  8
太線
100
AcDbLine
 10
101.4644995438761
 20
81.93930390144641
 30
0.0
 11
99.96449954387617
 21
81.93930390144641
 31
0.0
  0
ARC
  5
152A
330
1510
100
AcDbEntity
  8
太線
100
AcDbCircle
 10
101.4644995438761
 20
81.43930390144641
 30
0.0
 40
0.5
100
AcDbArc
 50
0.0
 51
90.0
  0
ARC
  5
152B
330
1510
100
AcDbEntity
  8
太線
100
AcDbCircle
 10
99.46449954387617
 20
86.43930390144641
 30
0.0
 40
0.5
100
AcDbArc
 50
0.0
 51
90.0
  0
LINE
  5
152C
330
1510
100
AcDbEntity
  8
極太線
100
AcDbLine
 10
96.94645875977847
 20
85.99813309011318
 30
0.0
 11
96.94645875977847
 21
84.88047471277964
 31
0.0
  0
ARC
  5
152D
330
1510
100
AcDbEntity
  8
太線
100
AcDbCircle
 10
112.4464587597784
 20
81.43930390144641
 30
0.0
 40
0.5
100
AcDbArc
 50
90.0
 51
180.0
  0
TEXT
  5
152E
330
1510
100
AcDbEntity
  8
文字
100
AcDbText
 10
134.3819212586066
 20
78.16263579228063
 30
0.0
 40
2.0
  1
101
 51
15.0
  7
OKANO
100
AcDbText
  0
TEXT
  5
152F
330
1510
100
AcDbEntity
  8
文字
100
AcDbText
 10
113.3422276612066
 20
77.96976862235396
 30
0.0
 40
2.0
  1
38-83
 51
15.0
  7
OKANO
100
AcDbText
  0
LINE
  5
1530
330
1510
100
AcDbEntity
  8
太線
100
AcDbLine
 10
141.9825403279738
 20
77.4393039014464
 30
0.0
 11
141.9825403279738
 21
81.43930390144641
 31
0.0
  0
LINE
  5
1531
330
1510
100
AcDbEntity
  8
太線
100
AcDbLine
 10
131.9644995438761
 20
81.43930390144641
 30
0.0
 11
131.9644995438761
 21
77.4393039014464
 31
0.0
  0
LINE
  5
1532
330
1510
100
AcDbEntity
  8
太線
100
AcDbLine
 10
121.9644995438761
 20
77.4393039014464
 30
0.0
 11
121.9644995438761
 21
81.43930390144641
 31
0.0
  0
ARC
  5
1533
330
1510
100
AcDbEntity
  8
太線
100
AcDbCircle
 10
121.4644995438761
 20
77.4393039014464
 30
0.0
 40
0.5
100
AcDbArc
 50
270.0
 51
0.0
  0
LINE
  5
1534
330
1510
100
AcDbEntity
  8
太線
100
AcDbLine
 10
132.4644995438761
 20
76.9393039014464
 30
0.0
 11
141.4825403279738
 21
76.9393039014464
 31
0.0
  0
ARC
  5
1535
330
1510
100
AcDbEntity
  8
太線
100
AcDbCircle
 10
132.4644995438761
 20
77.4393039014464
 30
0.0
 40
0.5
100
AcDbArc
 50
180.0
 51
270.0
  0
ARC
  5
1536
330
1510
100
AcDbEntity
  8
太線
100
AcDbCircle
 10
141.4825403279738
 20
77.4393039014464
 30
0.0
 40
0.5
100
AcDbArc
 50
270.0
 51
0.0
  0
ARC
  5
1537
330
1510
100
AcDbEntity
  8
太線
100
AcDbCircle
 10
121.4644995438761
 20
81.43930390144641
 30
0.0
 40
0.5
100
AcDbArc
 50
0.0
 51
90.0
  0
LINE
  5
1538
330
1510
100
AcDbEntity
  8
太線
100
AcDbLine
 10
119.9644995438761
 20
81.93930390144641
 30
0.0
 11
119.9644995438761
 21
86.43930390144641
 31
0.0
  0
LINE
  5
1539
330
1510
100
AcDbEntity
  8
太線
100
AcDbLine
 10
113.9464587597784
 20
86.43930390144641
 30
0.0
 11
113.9464587597784
 21
81.93930390144641
 31
0.0
  0
LINE
  5
153A
330
1510
100
AcDbEntity
  8
想像線
100
AcDbLine
 10
113.9464587597784
 20
81.93930390144641
 30
0.0
 11
119.9644995438761
 21
81.93930390144641
 31
0.0
  0
LINE
  5
153B
330
1510
100
AcDbEntity
  8
太線
100
AcDbLine
 10
121.4644995438761
 20
81.93930390144641
 30
0.0
 11
119.9644995438761
 21
81.93930390144641
 31
0.0
  0
LINE
  5
153C
330
1510
100
AcDbEntity
  8
太線
100
AcDbLine
 10
119.4644995438761
 20
86.93930390144641
 30
0.0
 11
114.4464587597784
 21
86.93930390144641
 31
0.0
  0
ARC
  5
153D
330
1510
100
AcDbEntity
  8
太線
100
AcDbCircle
 10
114.4464587597784
 20
86.43930390144641
 30
0.0
 40
0.5
100
AcDbArc
 50
90.0
 51
180.0
  0
CIRCLE
  5
153E
330
1510
100
AcDbEntity
  8
太線
100
AcDbCircle
 10
115.4464587597784
 20
85.43930390144641
 30
0.0
 40
0.5588291886667776
  0
LINE
  5
153F
330
1510
100
AcDbEntity
  8
極太線
100
AcDbLine
 10
115.4464587597784
 20
85.99813309011318
 30
0.0
 11
115.4464587597784
 21
84.88047471277964
 31
0.0
  0
LINE
  5
1540
330
1510
100
AcDbEntity
  8
極太線
100
AcDbLine
 10
114.8876295711116
 20
85.43930390144641
 30
0.0
 11
116.0052879484452
 21
85.43930390144641
 31
0.0
  0
ARC
  5
1541
330
1510
100
AcDbEntity
  8
太線
100
AcDbCircle
 10
119.4644995438761
 20
86.43930390144641
 30
0.0
 40
0.5
100
AcDbArc
 50
0.0
 51
90.0
  0
LINE
  5
1542
330
1510
100
AcDbEntity
  8
極太線
100
AcDbLine
 10
117.9056703552094
 20
85.43930390144641
 30
0.0
 11
119.0233287325429
 21
85.43930390144641
 31
0.0
  0
LINE
  5
1543
330
1510
100
AcDbEntity
  8
極太線
100
AcDbLine
 10
118.4644995438761
 20
85.99813309011318
 30
0.0
 11
118.4644995438761
 21
84.88047471277964
 31
0.0
  0
CIRCLE
  5
1544
330
1510
100
AcDbEntity
  8
太線
100
AcDbCircle
 10
118.4644995438761
 20
85.43930390144641
 30
0.0
 40
0.5588291886667776
  0
LINE
  5
1545
330
1510
100
AcDbEntity
  8
想像線
100
AcDbLine
 10
133.9644995438761
 20
81.93930390144641
 30
0.0
 11
139.9825403279738
 21
81.93930390144641
 31
0.0
  0
LINE
  5
1546
330
1510
100
AcDbEntity
  8
極太線
100
AcDbLine
 10
137.9237111393071
 20
85.43930390144641
 30
0.0
 11
139.0413695166406
 21
85.43930390144641
 31
0.0
  0
CIRCLE
  5
1547
330
1510
100
AcDbEntity
  8
太線
100
AcDbCircle
 10
138.4825403279738
 20
85.43930390144641
 30
0.0
 40
0.5588291886667776
  0
CIRCLE
  5
1548
330
1510
100
AcDbEntity
  8
太線
100
AcDbCircle
 10
138.4825403279738
 20
83.26342923362075
 30
0.0
 40
0.5588291886667776
  0
LINE
  5
1549
330
1510
100
AcDbEntity
  8
極太線
100
AcDbLine
 10
137.9237111393071
 20
83.26342923362075
 30
0.0
 11
139.0413695166406
 21
83.26342923362075
 31
0.0
  0
LINE
  5
154A
330
1510
100
AcDbEntity
  8
太線
100
AcDbLine
 10
139.4825403279738
 20
86.93930390144641
 30
0.0
 11
134.4644995438761
 21
86.93930390144641
 31
0.0
  0
LINE
  5
154B
330
1510
100
AcDbEntity
  8
太線
100
AcDbLine
 10
133.9644995438761
 20
86.43930390144641
 30
0.0
 11
133.9644995438761
 21
81.93930390144641
 31
0.0
  0
ARC
  5
154C
330
1510
100
AcDbEntity
  8
太線
100
AcDbCircle
 10
132.4644995438761
 20
81.43930390144641
 30
0.0
 40
0.5
100
AcDbArc
 50
90.0
 51
180.0
  0
LINE
  5
154D
330
1510
100
AcDbEntity
  8
太線
100
AcDbLine
 10
133.9644995438761
 20
81.93930390144641
 30
0.0
 11
132.4644995438761
 21
81.93930390144641
 31
0.0
  0
LINE
  5
154E
330
1510
100
AcDbEntity
  8
極太線
100
AcDbLine
 10
134.9056703552093
 20
83.26342923362075
 30
0.0
 11
136.0233287325429
 21
83.26342923362075
 31
0.0
  0
LINE
  5
154F
330
1510
100
AcDbEntity
  8
極太線
100
AcDbLine
 10
135.4644995438761
 20
83.82225842228752
 30
0.0
 11
135.4644995438761
 21
82.70460004495395
 31
0.0
  0
CIRCLE
  5
1550
330
1510
100
AcDbEntity
  8
太線
100
AcDbCircle
 10
135.4644995438761
 20
83.26342923362075
 30
0.0
 40
0.5588291886667776
  0
ARC
  5
1551
330
1510
100
AcDbEntity
  8
太線
100
AcDbCircle
 10
134.4644995438761
 20
86.43930390144641
 30
0.0
 40
0.5
100
AcDbArc
 50
90.0
 51
180.0
  0
CIRCLE
  5
1552
330
1510
100
AcDbEntity
  8
太線
100
AcDbCircle
 10
135.4644995438761
 20
85.43930390144641
 30
0.0
 40
0.5588291886667776
  0
LINE
  5
1553
330
1510
100
AcDbEntity
  8
極太線
100
AcDbLine
 10
135.4644995438761
 20
85.99813309011318
 30
0.0
 11
135.4644995438761
 21
84.88047471277964
 31
0.0
  0
LINE
  5
1554
330
1510
100
AcDbEntity
  8
極太線
100
AcDbLine
 10
134.9056703552093
 20
85.43930390144641
 30
0.0
 11
136.0233287325429
 21
85.43930390144641
 31
0.0
  0
LINE
  5
1555
330
1510
100
AcDbEntity
  8
太線
100
AcDbLine
 10
139.9825403279738
 20
81.93930390144641
 30
0.0
 11
139.9825403279738
 21
86.43930390144641
 31
0.0
  0
ARC
  5
1556
330
1510
100
AcDbEntity
  8
太線
100
AcDbCircle
 10
141.4825403279738
 20
81.43930390144641
 30
0.0
 40
0.5
100
AcDbArc
 50
0.0
 51
90.0
  0
LINE
  5
1557
330
1510
100
AcDbEntity
  8
極太線
100
AcDbLine
 10
138.4825403279738
 20
83.82225842228752
 30
0.0
 11
138.4825403279738
 21
82.70460004495395
 31
0.0
  0
LINE
  5
1558
330
1510
100
AcDbEntity
  8
太線
100
AcDbLine
 10
141.4825403279738
 20
81.93930390144641
 30
0.0
 11
139.9825403279738
 21
81.93930390144641
 31
0.0
  0
ARC
  5
1559
330
1510
100
AcDbEntity
  8
太線
100
AcDbCircle
 10
139.4825403279738
 20
86.43930390144641
 30
0.0
 40
0.5
100
AcDbArc
 50
0.0
 51
90.0
  0
LINE
  5
155A
330
1510
100
AcDbEntity
  8
極太線
100
AcDbLine
 10
138.4825403279738
 20
85.99813309011318
 30
0.0
 11
138.4825403279738
 21
84.88047471277964
 31
0.0
  0
ENDBLK
  5
155C
330
1510
100
AcDbEntity
  8
0
100
AcDbBlockEnd
  0
BLOCK
  5
5D13
330
5D09
100
AcDbEntity
  8
0
100
AcDbBlockBegin
  2
*D2
 70
     1
 10
0.0
 20
0.0
 30
0.0
  3
*D2
  1

  0
LINE
  5
5D0A
330
5D09
100
AcDbEntity
  8
寸法線
 62
     0
370
    -2
100
AcDbLine
 10
536.3007271552923
 20
908.3399995297424
 30
0.0
 11
575.7918214579112
 21
908.3399995297424
 31
0.0
  0
LINE
  5
5D0B
330
5D09
100
AcDbEntity
  8
寸法線
 62
     0
370
    -2
100
AcDbLine
 10
551.3007271552924
 20
873.3399995297425
 30
0.0
 11
575.7918214579112
 21
873.3399995297425
 31
0.0
  0
LINE
  5
5D0C
330
5D09
100
AcDbEntity
  8
寸法線
 62
     0
370
    -2
100
AcDbLine
 10
572.7918214579112
 20
905.3399995297425
 30
0.0
 11
572.7918214579112
 21
876.3399995297424
 31
0.0
  0
INSERT
  5
5D0D
330
5D09
100
AcDbEntity
  8
寸法線
 62
     0
370
    -2
100
AcDbBlockReference
  2
_Closed
 10
572.7918214579112
 20
908.3399995297424
 30
0.0
 41
3.0
 42
3.0
 43
3.0
 50
90.0
  0
INSERT
  5
5D0E
330
5D09
100
AcDbEntity
  8
寸法線
 62
     0
370
    -2
100
AcDbBlockReference
  2
_Closed
 10
572.7918214579112
 20
873.3399995297425
 30
0.0
 41
3.0
 42
3.0
 43
3.0
 50
270.0
  0
MTEXT
  5
5D0F
330
5D09
100
AcDbEntity
  8
寸法線
 62
     0
100
AcDbMText
 10
569.291821457911
 20
890.8399995297425
 30
0.0
 40
5.0
 41
0.0
 71
     5
 72
     1
  1
35
  7
OKANO
 11
0.0000000000000001
 21
1.0
 31
0.0
 73
     1
 44
1.0
  0
POINT
  5
5D10
330
5D09
100
AcDbEntity
  8
Defpoints
 62
     0
100
AcDbPoint
 10
534.3007271552924
 20
908.3399995297424
 30
0.0
  0
POINT
  5
5D11
330
5D09
100
AcDbEntity
  8
Defpoints
 62
     0
100
AcDbPoint
 10
549.3007271552924
 20
873.3399995297425
 30
0.0
  0
POINT
  5
5D12
330
5D09
100
AcDbEntity
  8
Defpoints
 62
     0
100
AcDbPoint
 10
572.7918214579112
 20
873.3399995297425
 30
0.0
  0
ENDBLK
  5
5D14
330
5D09
100
AcDbEntity
  8
0
100
AcDbBlockEnd
  0
BLOCK
  5
5DC2
330
5DB8
100
AcDbEntity
  8
0
100
AcDbBlockBegin
  2
*D3
 70
     1
 10
0.0
 20
0.0
 30
0.0
  3
*D3
  1

  0
LINE
  5
5DD9
330
5DB8
100
AcDbEntity
  8
寸法線
 62
     0
370
    -2
100
AcDbLine
 10
393.3125459663808
 20
977.1263675188819
 30
0.0
 11
372.2622992226283
 21
977.1263675188819
 31
0.0
  0
LINE
  5
5DDA
330
5DB8
100
AcDbEntity
  8
寸法線
 62
     0
370
    -2
100
AcDbLine
 10
382.8125459663808
 20
962.1263675188821
 30
0.0
 11
372.2622992226283
 21
962.1263675188821
 31
0.0
  0
LINE
  5
5DDB
330
5DB8
100
AcDbEntity
  8
寸法線
 62
     0
370
    -2
100
AcDbLine
 10
375.2622992226283
 20
974.126367518882
 30
0.0
 11
375.2622992226283
 21
965.126367518882
 31
0.0
  0
INSERT
  5
5DDC
330
5DB8
100
AcDbEntity
  8
寸法線
 62
     0
370
    -2
100
AcDbBlockReference
  2
_Closed
 10
375.2622992226283
 20
977.1263675188819
 30
0.0
 41
3.0
 42
3.0
 43
3.0
 50
90.0
  0
INSERT
  5
5DDD
330
5DB8
100
AcDbEntity
  8
寸法線
 62
     0
370
    -2
100
AcDbBlockReference
  2
_Closed
 10
375.2622992226283
 20
962.1263675188821
 30
0.0
 41
3.0
 42
3.0
 43
3.0
 50
270.0
  0
MTEXT
  5
5DDE
330
5DB8
100
AcDbEntity
  8
寸法線
 62
     0
100
AcDbMText
 10
371.7622992226282
 20
969.6263675188822
 30
0.0
 40
5.0
 41
0.0
 71
     5
 72
     1
  1
15
  7
OKANO
 11
0.0000000000000001
 21
1.0
 31
0.0
 73
     1
 44
1.0
  0
POINT
  5
5DDF
330
5DB8
100
AcDbEntity
  8
Defpoints
 62
     0
100
AcDbPoint
 10
395.3125459663808
 20
977.1263675188819
 30
0.0
  0
POINT
  5
5DE0
330
5DB8
100
AcDbEntity
  8
Defpoints
 62
     0
100
AcDbPoint
 10
384.8125459663808
 20
962.1263675188821
 30
0.0
  0
POINT
  5
5DE1
330
5DB8
100
AcDbEntity
  8
Defpoints
 62
     0
100
AcDbPoint
 10
375.2622992226283
 20
962.1263675188821
 30
0.0
  0
ENDBLK
  5
5DC3
330
5DB8
100
AcDbEntity
  8
0
100
AcDbBlockEnd
  0
BLOCK
  5
5DCE
330
5DC4
100
AcDbEntity
  8
0
100
AcDbBlockBegin
  2
*D4
 70
     1
 10
0.0
 20
0.0
 30
0.0
  3
*D4
  1

  0
LINE
  5
5DE2
330
5DC4
100
AcDbEntity
  8
寸法線
 62
     0
370
    -2
100
AcDbLine
 10
382.8125459663808
 20
962.1263675188821
 30
0.0
 11
372.2622992226283
 21
962.1263675188821
 31
0.0
  0
LINE
  5
5DE3
330
5DC4
100
AcDbEntity
  8
寸法線
 62
     0
370
    -2
100
AcDbLine
 10
388.8805627299111
 20
954.1118724836065
 30
0.0
 11
372.2622992226283
 21
954.1118724836065
 31
0.0
  0
LINE
  5
5DE4
330
5DC4
100
AcDbEntity
  8
寸法線
 62
     0
370
    -2
100
AcDbLine
 10
375.2622992226283
 20
959.126367518882
 30
0.0
 11
375.2622992226283
 21
957.1118724836065
 31
0.0
  0
INSERT
  5
5DE5
330
5DC4
100
AcDbEntity
  8
寸法線
 62
     0
370
    -2
100
AcDbBlockReference
  2
_Closed
 10
375.2622992226283
 20
962.1263675188821
 30
0.0
 41
3.0
 42
3.0
 43
3.0
 50
90.0
  0
INSERT
  5
5DE6
330
5DC4
100
AcDbEntity
  8
寸法線
 62
     0
370
    -2
100
AcDbBlockReference
  2
_Closed
 10
375.2622992226283
 20
954.1118724836065
 30
0.0
 41
3.0
 42
3.0
 43
3.0
 50
270.0
  0
MTEXT
  5
5DE7
330
5DC4
100
AcDbEntity
  8
寸法線
 62
     0
100
AcDbMText
 10
371.7622992226282
 20
958.1191200012444
 30
0.0
 40
5.0
 41
0.0
 71
     5
 72
     1
  1
10
  7
OKANO
 11
0.0000000000000001
 21
1.0
 31
0.0
 73
     1
 44
1.0
  0
POINT
  5
5DE8
330
5DC4
100
AcDbEntity
  8
Defpoints
 62
     0
100
AcDbPoint
 10
384.8125459663808
 20
962.1263675188821
 30
0.0
  0
POINT
  5
5DE9
330
5DC4
100
AcDbEntity
  8
Defpoints
 62
     0
100
AcDbPoint
 10
390.8805627299111
 20
954.1118724836065
 30
0.0
  0
POINT
  5
5DEA
330
5DC4
100
AcDbEntity
  8
Defpoints
 62
     0
100
AcDbPoint
 10
375.2622992226283
 20
954.1118724836065
 30
0.0
  0
ENDBLK
  5
5DCF
330
5DC4
100
AcDbEntity
  8
0
100
AcDbBlockEnd
  0
BLOCK
  5
6014
330
600A
100
AcDbEntity
  8
0
100
AcDbBlockBegin
  2
*D5
 70
     1
 10
0.0
 20
0.0
 30
0.0
  3
*D5
  1

  0
LINE
  5
6016
330
600A
100
AcDbEntity
  8
寸法線
 62
     0
370
    -2
100
AcDbLine
 10
456.8125459663808
 20
796.8399995297425
 30
0.0
 11
456.8125459663808
 21
784.8874924159608
 31
0.0
  0
LINE
  5
6017
330
600A
100
AcDbEntity
  8
寸法線
 62
     0
370
    -2
100
AcDbLine
 10
398.8125459663809
 20
796.8399995297425
 30
0.0
 11
398.8125459663809
 21
784.8874924159608
 31
0.0
  0
LINE
  5
6018
330
600A
100
AcDbEntity
  8
寸法線
 62
     0
370
    -2
100
AcDbLine
 10
453.8125459663809
 20
787.8874924159608
 30
0.0
 11
401.8125459663808
 21
787.8874924159608
 31
0.0
  0
INSERT
  5
6019
330
600A
100
AcDbEntity
  8
寸法線
 62
     0
370
    -2
100
AcDbBlockReference
  2
_Closed
 10
456.8125459663808
 20
787.8874924159608
 30
0.0
 41
3.0
 42
3.0
 43
3.0
  0
INSERT
  5
601A
330
600A
100
AcDbEntity
  8
寸法線
 62
     0
370
    -2
100
AcDbBlockReference
  2
_Closed
 10
398.8125459663809
 20
787.8874924159608
 30
0.0
 41
3.0
 42
3.0
 43
3.0
 50
180.0
  0
MTEXT
  5
601B
330
600A
100
AcDbEntity
  8
寸法線
 62
     0
100
AcDbMText
 10
427.8125459663808
 20
791.3874924159609
 30
0.0
 40
5.0
 41
0.0
 71
     5
 72
     1
  1
60
  7
OKANO
 73
     1
 44
1.0
  0
POINT
  5
601C
330
600A
100
AcDbEntity
  8
Defpoints
 62
     0
100
AcDbPoint
 10
456.8125459663808
 20
798.8399995297425
 30
0.0
  0
POINT
  5
601D
330
600A
100
AcDbEntity
  8
Defpoints
 62
     0
100
AcDbPoint
 10
398.8125459663809
 20
798.8399995297425
 30
0.0
  0
POINT
  5
601E
330
600A
100
AcDbEntity
  8
Defpoints
 62
     0
100
AcDbPoint
 10
398.8125459663809
 20
787.8874924159608
 30
0.0
  0
ENDBLK
  5
6015
330
600A
100
AcDbEntity
  8
0
100
AcDbBlockEnd
  0
BLOCK
  5
65C0
330
65B6
100
AcDbEntity
  8
0
100
AcDbBlockBegin
  2
*D6
 70
     1
 10
0.0
 20
0.0
 30
0.0
  3
*D6
  1

  0
LINE
  5
6AF6
330
65B6
100
AcDbEntity
  8
寸法線
 62
     0
370
    -2
100
AcDbLine
 10
216.9454965241318
 20
918.3399995297424
 30
0.0
 11
194.6766388972755
 21
918.3399995297424
 31
0.0
  0
LINE
  5
6AF7
330
65B6
100
AcDbEntity
  8
寸法線
 62
     0
370
    -2
100
AcDbLine
 10
212.1879386112857
 20
799.3399995297425
 30
0.0
 11
194.6766388972755
 21
799.3399995297425
 31
0.0
  0
LINE
  5
6AF8
330
65B6
100
AcDbEntity
  8
寸法線
 62
     0
370
    -2
100
AcDbLine
 10
197.6766388972755
 20
915.3399995297423
 30
0.0
 11
197.6766388972755
 21
802.3399995297424
 31
0.0
  0
INSERT
  5
6AF9
330
65B6
100
AcDbEntity
  8
寸法線
 62
     0
370
    -2
100
AcDbBlockReference
  2
_Closed
 10
197.6766388972755
 20
918.3399995297424
 30
0.0
 41
3.0
 42
3.0
 43
3.0
 50
90.0
  0
INSERT
  5
6AFA
330
65B6
100
AcDbEntity
  8
寸法線
 62
     0
370
    -2
100
AcDbBlockReference
  2
_Closed
 10
197.6766388972755
 20
799.3399995297425
 30
0.0
 41
3.0
 42
3.0
 43
3.0
 50
270.0
  0
MTEXT
  5
6AFB
330
65B6
100
AcDbEntity
  8
寸法線
 62
     0
100
AcDbMText
 10
194.1761467712911
 20
858.8399995297425
 30
0.0
 40
5.0
 41
0.0
 71
     5
 72
     1
  1
120
  7
OKANO
 11
0.0000000000000001
 21
1.0
 31
0.0
 73
     1
 44
1.0
  0
POINT
  5
6AFC
330
65B6
100
AcDbEntity
  8
Defpoints
 62
     0
100
AcDbPoint
 10
218.9454965241318
 20
918.3399995297424
 30
0.0
  0
POINT
  5
6AFD
330
65B6
100
AcDbEntity
  8
Defpoints
 62
     0
100
AcDbPoint
 10
214.1879386112857
 20
799.3399995297425
 30
0.0
  0
POINT
  5
6AFE
330
65B6
100
AcDbEntity
  8
Defpoints
 62
     0
100
AcDbPoint
 10
197.6766388972755
 20
799.3399995297425
 30
0.0
  0
ENDBLK
  5
65C1
330
65B6
100
AcDbEntity
  8
0
100
AcDbBlockEnd
  0
BLOCK
  5
66DE
330
66D4
100
AcDbEntity
  8
0
100
AcDbBlockBegin
  2
*D7
 70
     1
 10
0.0
 20
0.0
 30
0.0
  3
*D7
  1

  0
LINE
  5
66F8
330
66D4
100
AcDbEntity
  8
寸法線
 62
     0
370
    -2
100
AcDbLine
 10
223.9454965241318
 20
975.126367518882
 30
0.0
 11
223.9454965241318
 21
956.4749603992732
 31
0.0
  0
LINE
  5
66F9
330
66D4
100
AcDbEntity
  8
寸法線
 62
     0
370
    -2
100
AcDbLine
 10
209.9454965241318
 20
975.126367518882
 30
0.0
 11
209.9454965241318
 21
956.4749603992732
 31
0.0
  0
LINE
  5
66FA
330
66D4
100
AcDbEntity
  8
寸法線
 62
     0
370
    -2
100
AcDbLine
 10
220.9454965241318
 20
959.4749603992731
 30
0.0
 11
212.9454965241318
 21
959.4749603992731
 31
0.0
  0
INSERT
  5
66FB
330
66D4
100
AcDbEntity
  8
寸法線
 62
     0
370
    -2
100
AcDbBlockReference
  2
_Closed
 10
223.9454965241318
 20
959.4749603992731
 30
0.0
 41
3.0
 42
3.0
 43
3.0
  0
INSERT
  5
66FC
330
66D4
100
AcDbEntity
  8
寸法線
 62
     0
370
    -2
100
AcDbBlockReference
  2
_Closed
 10
209.9454965241318
 20
959.4749603992731
 30
0.0
 41
3.0
 42
3.0
 43
3.0
 50
180.0
  0
MTEXT
  5
66FD
330
66D4
100
AcDbEntity
  8
寸法線
 62
     0
100
AcDbMText
 10
216.9454965241318
 20
962.9749603992731
 30
0.0
 40
5.0
 41
0.0
 71
     5
 72
     1
  1
14
  7
OKANO
 73
     1
 44
1.0
  0
POINT
  5
66FE
330
66D4
100
AcDbEntity
  8
Defpoints
 62
     0
100
AcDbPoint
 10
223.9454965241318
 20
977.1263675188819
 30
0.0
  0
POINT
  5
66FF
330
66D4
100
AcDbEntity
  8
Defpoints
 62
     0
100
AcDbPoint
 10
209.9454965241318
 20
977.1263675188819
 30
0.0
  0
POINT
  5
6700
330
66D4
100
AcDbEntity
  8
Defpoints
 62
     0
100
AcDbPoint
 10
209.9454965241318
 20
959.4749603992731
 30
0.0
  0
ENDBLK
  5
66DF
330
66D4
100
AcDbEntity
  8
0
100
AcDbBlockEnd
  0
BLOCK
  5
671B
330
6714
100
AcDbEntity
  8
0
100
AcDbBlockBegin
  2
*D8
 70
     1
 10
0.0
 20
0.0
 30
0.0
  3
*D8
  1

  0
LINE
  5
674F
330
6714
100
AcDbEntity
  8
寸法線
 62
     0
370
    -2
100
AcDbLine
 10
193.2442829612326
 20
1027.371887059547
 30
0.0
 11
204.6513823044759
 21
1016.215891206732
 31
0.0
  0
MTEXT
  5
6750
330
6714
100
AcDbEntity
  8
寸法線
 62
     0
100
AcDbMText
 10
199.8533385504695
 20
1025.803887464505
 30
0.0
 40
5.0
 41
0.0
 71
     5
 72
     1
  1
R10
  7
OKANO
 11
0.7149318630504525
 21
-0.6991941298346327
 31
0.0
 73
     1
 44
1.0
  0
LINE
  5
6751
330
6714
100
AcDbEntity
  8
寸法線
 62
     0
370
    -2
100
AcDbLine
 10
213.9454965241319
 20
1007.126367518881
 30
0.0
 11
206.7961778936272
 21
1014.118308817228
 31
0.0
  0
INSERT
  5
6752
330
6714
100
AcDbEntity
  8
寸法線
 62
     0
370
    -2
100
AcDbBlockReference
  2
_Closed
 10
206.7961778936272
 20
1014.118308817228
 30
0.0
 41
3.0
 42
3.0
 43
3.0
 50
315.6376153703524
  0
POINT
  5
6753
330
6714
100
AcDbEntity
  8
Defpoints
 62
     0
100
AcDbPoint
 10
206.7961778936272
 20
1014.118308817228
 30
0.0
  0
POINT
  5
6754
330
6714
100
AcDbEntity
  8
Defpoints
 62
     0
100
AcDbPoint
 10
213.9454965241319
 20
1007.126367518881
 30
0.0
  0
ENDBLK
  5
671C
330
6714
100
AcDbEntity
  8
0
100
AcDbBlockEnd
  0
BLOCK
  5
673B
330
6731
100
AcDbEntity
  8
0
100
AcDbBlockBegin
  2
*D9
 70
     1
 10
0.0
 20
0.0
 30
0.0
  3
*D9
  1

  0
LINE
  5
673D
330
6731
100
AcDbEntity
  8
寸法線
 62
     0
370
    -2
100
AcDbLine
 10
527.6225364411948
 20
839.7942087756527
 30
0.0
 11
554.6845179686788
 21
839.7942087756527
 31
0.0
  0
LINE
  5
673E
330
6731
100
AcDbEntity
  8
寸法線
 62
     0
370
    -2
100
AcDbLine
 10
527.6225364411948
 20
800.4521764591919
 30
0.0
 11
554.6845179686788
 21
800.4521764591919
 31
0.0
  0
LINE
  5
673F
330
6731
100
AcDbEntity
  8
寸法線
 62
     0
370
    -2
100
AcDbLine
 10
551.6845179686789
 20
836.7942087756528
 30
0.0
 11
551.6845179686789
 21
803.4521764591918
 31
0.0
  0
INSERT
  5
6740
330
6731
100
AcDbEntity
  8
寸法線
 62
     0
370
    -2
100
AcDbBlockReference
  2
_Closed
 10
551.6845179686789
 20
839.7942087756527
 30
0.0
 41
3.0
 42
3.0
 43
3.0
 50
90.0
  0
INSERT
  5
6741
330
6731
100
AcDbEntity
  8
寸法線
 62
     0
370
    -2
100
AcDbBlockReference
  2
_Closed
 10
551.6845179686789
 20
800.4521764591919
 30
0.0
 41
3.0
 42
3.0
 43
3.0
 50
270.0
  0
MTEXT
  5
6742
330
6731
100
AcDbEntity
  8
寸法線
 62
     0
100
AcDbMText
 10
548.1845179686786
 20
820.1231926174225
 30
0.0
 40
5.0
 41
0.0
 71
     5
 72
     1
  1
40
  7
OKANO
 11
0.0000000000000001
 21
1.0
 31
0.0
 73
     1
 44
1.0
  0
POINT
  5
6743
330
6731
100
AcDbEntity
  8
Defpoints
 62
     0
100
AcDbPoint
 10
525.6225364411948
 20
839.7942087756527
 30
0.0
  0
POINT
  5
6744
330
6731
100
AcDbEntity
  8
Defpoints
 62
     0
100
AcDbPoint
 10
525.6225364411948
 20
800.4521764591919
 30
0.0
  0
POINT
  5
6745
330
6731
100
AcDbEntity
  8
Defpoints
 62
     0
100
AcDbPoint
 10
551.6845179686789
 20
800.4521764591919
 30
0.0
  0
ENDBLK
  5
673C
330
6731
100
AcDbEntity
  8
0
100
AcDbBlockEnd
  0
BLOCK
  5
6763
330
675C
100
AcDbEntity
  8
0
100
AcDbBlockBegin
  2
*D10
 70
     1
 10
0.0
 20
0.0
 30
0.0
  3
*D10
  1

  0
LINE
  5
6765
330
675C
100
AcDbEntity
  8
寸法線
 62
     0
370
    -2
100
AcDbLine
 10
369.7536335427959
 20
1024.85109460082
 30
0.0
 11
384.1991687086433
 21
1014.633445724478
 31
0.0
  0
MTEXT
  5
6766
330
675C
100
AcDbEntity
  8
寸法線
 62
     0
100
AcDbMText
 10
376.527408101344
 20
1024.3468954917
 30
0.0
 40
5.0
 41
0.0
 71
     5
 72
     1
  1
R10
  7
OKANO
 11
0.8164136352105689
 21
-0.5774675542766572
 31
0.0
 73
     1
 44
1.0
  0
LINE
  5
6767
330
675C
100
AcDbEntity
  8
寸法線
 62
     0
370
    -2
100
AcDbLine
 10
394.8125459663809
 20
1007.126367518881
 30
0.0
 11
386.648409614275
 21
1012.901043061648
 31
0.0
  0
INSERT
  5
6768
330
675C
100
AcDbEntity
  8
寸法線
 62
     0
370
    -2
100
AcDbBlockReference
  2
_Closed
 10
386.648409614275
 20
1012.901043061648
 30
0.0
 41
3.0
 42
3.0
 43
3.0
 50
324.7273796865483
  0
POINT
  5
6769
330
675C
100
AcDbEntity
  8
Defpoints
 62
     0
100
AcDbPoint
 10
386.648409614275
 20
1012.901043061648
 30
0.0
  0
POINT
  5
676A
330
675C
100
AcDbEntity
  8
Defpoints
 62
     0
100
AcDbPoint
 10
394.8125459663809
 20
1007.126367518881
 30
0.0
  0
ENDBLK
  5
6764
330
675C
100
AcDbEntity
  8
0
100
AcDbBlockEnd
  0
BLOCK
  5
6778
330
676E
100
AcDbEntity
  8
0
100
AcDbBlockBegin
  2
*D11
 70
     1
 10
0.0
 20
0.0
 30
0.0
  3
*D11
  1

  0
LINE
  5
6794
330
676E
100
AcDbEntity
  8
寸法線
 62
     0
370
    -2
100
AcDbLine
 10
281.9454965241319
 20
937.1263675188821
 30
0.0
 11
310.8319132368778
 21
937.1263675188821
 31
0.0
  0
LINE
  5
6795
330
676E
100
AcDbEntity
  8
寸法線
 62
     0
370
    -2
100
AcDbLine
 10
291.9454965241319
 20
976.4867081656712
 30
0.0
 11
310.8319132368778
 21
976.4867081656712
 31
0.0
  0
LINE
  5
6796
330
676E
100
AcDbEntity
  8
寸法線
 62
     0
370
    -2
100
AcDbLine
 10
307.8319132368779
 20
940.126367518882
 30
0.0
 11
307.8319132368779
 21
973.4867081656712
 31
0.0
  0
INSERT
  5
6797
330
676E
100
AcDbEntity
  8
寸法線
 62
     0
370
    -2
100
AcDbBlockReference
  2
_Closed
 10
307.8319132368779
 20
937.1263675188821
 30
0.0
 41
3.0
 42
3.0
 43
3.0
 50
270.0
  0
INSERT
  5
6798
330
676E
100
AcDbEntity
  8
寸法線
 62
     0
370
    -2
100
AcDbBlockReference
  2
_Closed
 10
307.8319132368779
 20
976.4867081656712
 30
0.0
 41
3.0
 42
3.0
 43
3.0
 50
90.0
  0
MTEXT
  5
6799
330
676E
100
AcDbEntity
  8
寸法線
 62
     0
100
AcDbMText
 10
304.3319132368777
 20
956.8065378422767
 30
0.0
 40
5.0
 41
0.0
 71
     5
 72
     1
  1
40
  7
OKANO
 11
0.0000000000000001
 21
1.0
 31
0.0
 73
     1
 44
1.0
  0
POINT
  5
679A
330
676E
100
AcDbEntity
  8
Defpoints
 62
     0
100
AcDbPoint
 10
279.9454965241319
 20
937.1263675188821
 30
0.0
  0
POINT
  5
679B
330
676E
100
AcDbEntity
  8
Defpoints
 62
     0
100
AcDbPoint
 10
289.9454965241319
 20
976.4867081656712
 30
0.0
  0
POINT
  5
679C
330
676E
100
AcDbEntity
  8
Defpoints
 62
     0
100
AcDbPoint
 10
307.8319132368779
 20
976.4867081656712
 30
0.0
  0
ENDBLK
  5
6779
330
676E
100
AcDbEntity
  8
0
100
AcDbBlockEnd
  0
BLOCK
  5
6785
330
677B
100
AcDbEntity
  8
0
100
AcDbBlockBegin
  2
*D12
 70
     1
 10
0.0
 20
0.0
 30
0.0
  3
*D12
  1

  0
LINE
  5
679D
330
677B
100
AcDbEntity
  8
寸法線
 62
     0
370
    -2
100
AcDbLine
 10
291.9454965241319
 20
976.4867081656712
 30
0.0
 11
310.8319132368778
 21
976.4867081656712
 31
0.0
  0
LINE
  5
679E
330
677B
100
AcDbEntity
  8
寸法線
 62
     0
370
    -2
100
AcDbLine
 10
281.9454965241319
 20
1017.126367518881
 30
0.0
 11
310.8319132368778
 21
1017.126367518881
 31
0.0
  0
LINE
  5
679F
330
677B
100
AcDbEntity
  8
寸法線
 62
     0
370
    -2
100
AcDbLine
 10
307.8319132368779
 20
979.4867081656711
 30
0.0
 11
307.8319132368779
 21
1014.126367518882
 31
0.0
  0
INSERT
  5
67A0
330
677B
100
AcDbEntity
  8
寸法線
 62
     0
370
    -2
100
AcDbBlockReference
  2
_Closed
 10
307.8319132368779
 20
976.4867081656712
 30
0.0
 41
3.0
 42
3.0
 43
3.0
 50
270.0
  0
INSERT
  5
67A1
330
677B
100
AcDbEntity
  8
寸法線
 62
     0
370
    -2
100
AcDbBlockReference
  2
_Closed
 10
307.8319132368779
 20
1017.126367518881
 30
0.0
 41
3.0
 42
3.0
 43
3.0
 50
90.0
  0
MTEXT
  5
67A2
330
677B
100
AcDbEntity
  8
寸法線
 62
     0
100
AcDbMText
 10
304.3319132368777
 20
996.8065378422767
 30
0.0
 40
5.0
 41
0.0
 71
     5
 72
     1
  1
40
  7
OKANO
 11
0.0000000000000001
 21
1.0
 31
0.0
 73
     1
 44
1.0
  0
POINT
  5
67A3
330
677B
100
AcDbEntity
  8
Defpoints
 62
     0
100
AcDbPoint
 10
289.9454965241319
 20
976.4867081656712
 30
0.0
  0
POINT
  5
67A4
330
677B
100
AcDbEntity
  8
Defpoints
 62
     0
100
AcDbPoint
 10
279.9454965241319
 20
1017.126367518881
 30
0.0
  0
POINT
  5
67A5
330
677B
100
AcDbEntity
  8
Defpoints
 62
     0
100
AcDbPoint
 10
307.8319132368779
 20
1017.126367518881
 30
0.0
  0
ENDBLK
  5
6786
330
677B
100
AcDbEntity
  8
0
100
AcDbBlockEnd
  0
BLOCK
  5
6792
330
6788
100
AcDbEntity
  8
0
100
AcDbBlockBegin
  2
*D13
 70
     1
 10
0.0
 20
0.0
 30
0.0
  3
*D13
  1

  0
LINE
  5
6789
330
6788
100
AcDbEntity
  8
寸法線
 62
     0
370
    -2
100
AcDbLine
 10
472.8125459663808
 20
977.1263675188819
 30
0.0
 11
497.5203370024683
 21
977.1263675188819
 31
0.0
  0
LINE
  5
678A
330
6788
100
AcDbEntity
  8
寸法線
 62
     0
370
    -2
100
AcDbLine
 10
462.8125459663809
 20
1017.126367518881
 30
0.0
 11
497.5203370024683
 21
1017.126367518881
 31
0.0
  0
LINE
  5
678B
330
6788
100
AcDbEntity
  8
寸法線
 62
     0
370
    -2
100
AcDbLine
 10
494.5203370024683
 20
980.126367518882
 30
0.0
 11
494.5203370024683
 21
1014.126367518882
 31
0.0
  0
INSERT
  5
678C
330
6788
100
AcDbEntity
  8
寸法線
 62
     0
370
    -2
100
AcDbBlockReference
  2
_Closed
 10
494.5203370024683
 20
977.1263675188819
 30
0.0
 41
3.0
 42
3.0
 43
3.0
 50
270.0
  0
INSERT
  5
678D
330
6788
100
AcDbEntity
  8
寸法線
 62
     0
370
    -2
100
AcDbBlockReference
  2
_Closed
 10
494.5203370024683
 20
1017.126367518881
 30
0.0
 41
3.0
 42
3.0
 43
3.0
 50
90.0
  0
MTEXT
  5
678E
330
6788
100
AcDbEntity
  8
寸法線
 62
     0
100
AcDbMText
 10
491.0203370024681
 20
997.126367518882
 30
0.0
 40
5.0
 41
0.0
 71
     5
 72
     1
  1
40
  7
OKANO
 11
0.0000000000000001
 21
1.0
 31
0.0
 73
     1
 44
1.0
  0
POINT
  5
678F
330
6788
100
AcDbEntity
  8
Defpoints
 62
     0
100
AcDbPoint
 10
470.8125459663809
 20
977.1263675188819
 30
0.0
  0
POINT
  5
6790
330
6788
100
AcDbEntity
  8
Defpoints
 62
     0
100
AcDbPoint
 10
460.8125459663808
 20
1017.126367518881
 30
0.0
  0
POINT
  5
6791
330
6788
100
AcDbEntity
  8
Defpoints
 62
     0
100
AcDbPoint
 10
494.5203370024683
 20
1017.126367518881
 30
0.0
  0
ENDBLK
  5
6793
330
6788
100
AcDbEntity
  8
0
100
AcDbBlockEnd
  0
BLOCK
  5
67B8
330
67AE
100
AcDbEntity
  8
0
100
AcDbBlockBegin
  2
*D14
 70
     1
 10
0.0
 20
0.0
 30
0.0
  3
*D14
  1

  0
LINE
  5
67AF
330
67AE
100
AcDbEntity
  8
寸法線
 62
     0
370
    -2
100
AcDbLine
 10
270.4454965241319
 20
981.6263675188819
 30
0.0
 11
255.7563003959367
 21
981.6263675188821
 31
0.0
  0
LINE
  5
67B0
330
67AE
100
AcDbEntity
  8
寸法線
 62
     0
370
    -2
100
AcDbLine
 10
270.4454965241319
 20
972.626367518883
 30
0.0
 11
255.7563003959367
 21
972.626367518883
 31
0.0
  0
LINE
  5
67B1
330
67AE
100
AcDbEntity
  8
寸法線
 62
     0
370
    -2
100
AcDbLine
 10
258.7563003959366
 20
978.626367518882
 30
0.0
 11
258.7563003959366
 21
975.6263675188829
 31
0.0
  0
INSERT
  5
67B2
330
67AE
100
AcDbEntity
  8
寸法線
 62
     0
370
    -2
100
AcDbBlockReference
  2
_Closed
 10
258.7563003959366
 20
981.6263675188819
 30
0.0
 41
3.0
 42
3.0
 43
3.0
 50
90.0
  0
INSERT
  5
67B3
330
67AE
100
AcDbEntity
  8
寸法線
 62
     0
370
    -2
100
AcDbBlockReference
  2
_Closed
 10
258.7563003959366
 20
972.626367518883
 30
0.0
 41
3.0
 42
3.0
 43
3.0
 50
270.0
  0
MTEXT
  5
67B4
330
67AE
100
AcDbEntity
  8
寸法線
 62
     0
100
AcDbMText
 10
255.2563003959365
 20
977.1263675188826
 30
0.0
 40
5.0
 41
0.0
 71
     5
 72
     1
  1
9
  7
OKANO
 11
0.0000000000000001
 21
1.0
 31
0.0
 73
     1
 44
1.0
  0
POINT
  5
67B5
330
67AE
100
AcDbEntity
  8
Defpoints
 62
     0
100
AcDbPoint
 10
272.4454965241319
 20
981.6263675188819
 30
0.0
  0
POINT
  5
67B6
330
67AE
100
AcDbEntity
  8
Defpoints
 62
     0
100
AcDbPoint
 10
272.4454965241319
 20
972.626367518883
 30
0.0
  0
POINT
  5
67B7
330
67AE
100
AcDbEntity
  8
Defpoints
 62
     0
100
AcDbPoint
 10
258.7563003959366
 20
972.626367518883
 30
0.0
  0
ENDBLK
  5
67B9
330
67AE
100
AcDbEntity
  8
0
100
AcDbBlockEnd
  0
BLOCK
  5
67E6
330
67DC
100
AcDbEntity
  8
0
100
AcDbBlockBegin
  2
*D15
 70
     1
 10
0.0
 20
0.0
 30
0.0
  3
*D15
  1

  0
LINE
  5
67DD
330
67DC
100
AcDbEntity
  8
寸法線
 62
     0
370
    -2
100
AcDbLine
 10
203.9454965241318
 20
945.1263675188821
 30
0.0
 11
203.9454965241318
 21
922.9555035750964
 31
0.0
  0
LINE
  5
67DE
330
67DC
100
AcDbEntity
  8
寸法線
 62
     0
370
    -2
100
AcDbLine
 10
289.9454965241319
 20
945.1263675188821
 30
0.0
 11
289.9454965241319
 21
922.9555035750964
 31
0.0
  0
LINE
  5
67DF
330
67DC
100
AcDbEntity
  8
寸法線
 62
     0
370
    -2
100
AcDbLine
 10
206.9454965241318
 20
925.9555035750963
 30
0.0
 11
286.9454965241319
 21
925.9555035750963
 31
0.0
  0
INSERT
  5
67E0
330
67DC
100
AcDbEntity
  8
寸法線
 62
     0
370
    -2
100
AcDbBlockReference
  2
_Closed
 10
203.9454965241318
 20
925.9555035750963
 30
0.0
 41
3.0
 42
3.0
 43
3.0
 50
180.0
  0
INSERT
  5
67E1
330
67DC
100
AcDbEntity
  8
寸法線
 62
     0
370
    -2
100
AcDbBlockReference
  2
_Closed
 10
289.9454965241319
 20
925.9555035750963
 30
0.0
 41
3.0
 42
3.0
 43
3.0
  0
MTEXT
  5
67E2
330
67DC
100
AcDbEntity
  8
寸法線
 62
     0
100
AcDbMText
 10
246.9454965241319
 20
929.4555035750963
 30
0.0
 40
5.0
 41
0.0
 71
     5
 72
     1
  1
86
  7
OKANO
 73
     1
 44
1.0
  0
POINT
  5
67E3
330
67DC
100
AcDbEntity
  8
Defpoints
 62
     0
100
AcDbPoint
 10
203.9454965241318
 20
947.126367518882
 30
0.0
  0
POINT
  5
67E4
330
67DC
100
AcDbEntity
  8
Defpoints
 62
     0
100
AcDbPoint
 10
289.9454965241319
 20
947.126367518882
 30
0.0
  0
POINT
  5
67E5
330
67DC
100
AcDbEntity
  8
Defpoints
 62
     0
100
AcDbPoint
 10
289.9454965241319
 20
925.9555035750963
 30
0.0
  0
ENDBLK
  5
67E7
330
67DC
100
AcDbEntity
  8
0
100
AcDbBlockEnd
  0
BLOCK
  5
68F9
330
68ED
100
AcDbEntity
  8
0
100
AcDbBlockBegin
  2
*D16
 70
     1
 10
0.0
 20
0.0
 30
0.0
  3
*D16
  1

  0
LINE
  5
6A29
330
68ED
100
AcDbEntity
  8
寸法線
 62
     0
370
    -2
100
AcDbLine
 10
534.1580344773369
 20
737.8985795282117
 30
0.0
 11
534.1580344773369
 21
752.2470480975171
 31
0.0
  0
LINE
  5
6A2A
330
68ED
100
AcDbEntity
  8
寸法線
 62
     0
370
    -2
100
AcDbLine
 10
536.1580704178733
 20
736.8985795282116
 30
0.0
 11
536.1580704178733
 21
752.2470480975171
 31
0.0
  0
LINE
  5
6A2B
330
68ED
100
AcDbEntity
  8
寸法線
 62
     0
370
    -2
100
AcDbLine
 10
531.158034477337
 20
749.2470480975171
 30
0.0
 11
528.1580344773369
 21
749.2470480975171
 31
0.0
  0
LINE
  5
6A2C
330
68ED
100
AcDbEntity
  8
寸法線
 62
     0
370
    -2
100
AcDbLine
 10
539.1580704178733
 20
749.2470480975171
 30
0.0
 11
550.1760196103044
 21
749.2470480975171
 31
0.0
  0
LINE
  5
6A2D
330
68ED
100
AcDbEntity
  8
寸法線
 62
     0
370
    -2
100
AcDbLine
 10
534.1580344773369
 20
749.2470480975171
 30
0.0
 11
536.1580704178733
 21
749.2470480975171
 31
0.0
  0
INSERT
  5
6A2E
330
68ED
100
AcDbEntity
  8
寸法線
 62
     0
370
    -2
100
AcDbBlockReference
  2
_Closed
 10
534.1580344773369
 20
749.2470480975171
 30
0.0
 41
3.0
 42
3.0
 43
3.0
  0
INSERT
  5
6A2F
330
68ED
100
AcDbEntity
  8
寸法線
 62
     0
370
    -2
100
AcDbBlockReference
  2
_Closed
 10
536.1580704178733
 20
749.2470480975171
 30
0.0
 41
3.0
 42
3.0
 43
3.0
 50
180.0
  0
MTEXT
  5
6A30
330
68ED
100
AcDbEntity
  8
寸法線
 62
     0
100
AcDbMText
 10
546.1670450140888
 20
752.747048097517
 30
0.0
 40
5.0
 41
0.0
 71
     5
 72
     1
  1
1.5
  7
OKANO
 73
     1
 44
1.0
  0
POINT
  5
6A31
330
68ED
100
AcDbEntity
  8
Defpoints
 62
     0
100
AcDbPoint
 10
534.1580344773369
 20
735.8985795282117
 30
0.0
  0
POINT
  5
6A32
330
68ED
100
AcDbEntity
  8
Defpoints
 62
     0
100
AcDbPoint
 10
536.1580704178733
 20
734.8985795282117
 30
0.0
  0
POINT
  5
6A33
330
68ED
100
AcDbEntity
  8
Defpoints
 62
     0
100
AcDbPoint
 10
536.1580704178733
 20
749.2470480975171
 30
0.0
  0
ENDBLK
  5
68FA
330
68ED
100
AcDbEntity
  8
0
100
AcDbBlockEnd
  0
BLOCK
  5
6905
330
68FB
100
AcDbEntity
  8
0
100
AcDbBlockBegin
  2
*D17
 70
     1
 10
0.0
 20
0.0
 30
0.0
  3
*D17
  1

  0
LINE
  5
6A20
330
68FB
100
AcDbEntity
  8
寸法線
 62
     0
370
    -2
100
AcDbLine
 10
217.9813678889439
 20
726.8985795282117
 30
0.0
 11
217.9813678889439
 21
741.1752869754675
 31
0.0
  0
LINE
  5
6A21
330
68FB
100
AcDbEntity
  8
寸法線
 62
     0
370
    -2
100
AcDbLine
 10
275.9666731544376
 20
718.1249974416584
 30
0.0
 11
275.9666731544376
 21
741.1752869754675
 31
0.0
  0
LINE
  5
6A22
330
68FB
100
AcDbEntity
  8
寸法線
 62
     0
370
    -2
100
AcDbLine
 10
220.9813678889439
 20
738.1752869754675
 30
0.0
 11
272.9666731544376
 21
738.1752869754675
 31
0.0
  0
INSERT
  5
6A23
330
68FB
100
AcDbEntity
  8
寸法線
 62
     0
370
    -2
100
AcDbBlockReference
  2
_Closed
 10
217.9813678889439
 20
738.1752869754675
 30
0.0
 41
3.0
 42
3.0
 43
3.0
 50
180.0
  0
INSERT
  5
6A24
330
68FB
100
AcDbEntity
  8
寸法線
 62
     0
370
    -2
100
AcDbBlockReference
  2
_Closed
 10
275.9666731544376
 20
738.1752869754675
 30
0.0
 41
3.0
 42
3.0
 43
3.0
  0
MTEXT
  5
6A25
330
68FB
100
AcDbEntity
  8
寸法線
 62
     0
100
AcDbMText
 10
246.9740205216908
 20
744.1752869754675
 30
0.0
 40
10.0
 41
0.0
 71
     5
 72
     1
  1
60
  7
OKANO
 73
     1
 44
1.0
  0
POINT
  5
6A26
330
68FB
100
AcDbEntity
  8
Defpoints
 62
     0
100
AcDbPoint
 10
217.9813678889439
 20
724.8985795282116
 30
0.0
  0
POINT
  5
6A27
330
68FB
100
AcDbEntity
  8
Defpoints
 62
     0
100
AcDbPoint
 10
275.9666731544376
 20
716.1249974416583
 30
0.0
  0
POINT
  5
6A28
330
68FB
100
AcDbEntity
  8
Defpoints
 62
     0
100
AcDbPoint
 10
275.9666731544376
 20
738.1752869754675
 30
0.0
  0
ENDBLK
  5
6906
330
68FB
100
AcDbEntity
  8
0
100
AcDbBlockEnd
  0
BLOCK
  5
6911
330
6907
100
AcDbEntity
  8
0
100
AcDbBlockBegin
  2
*D18
 70
     1
 10
0.0
 20
0.0
 30
0.0
  3
*D18
  1

  0
LINE
  5
6A17
330
6907
100
AcDbEntity
  8
寸法線
 62
     0
370
    -2
100
AcDbLine
 10
224.9813678889439
 20
712.8985795282117
 30
0.0
 11
224.9813678889439
 21
691.2471724086019
 31
0.0
  0
LINE
  5
6A18
330
6907
100
AcDbEntity
  8
寸法線
 62
     0
370
    -2
100
AcDbLine
 10
210.9813678889439
 20
712.8985795282117
 30
0.0
 11
210.9813678889439
 21
691.2471724086019
 31
0.0
  0
LINE
  5
6A19
330
6907
100
AcDbEntity
  8
寸法線
 62
     0
370
    -2
100
AcDbLine
 10
221.9813678889439
 20
694.2471724086019
 30
0.0
 11
213.9813678889439
 21
694.2471724086019
 31
0.0
  0
INSERT
  5
6A1A
330
6907
100
AcDbEntity
  8
寸法線
 62
     0
370
    -2
100
AcDbBlockReference
  2
_Closed
 10
224.9813678889439
 20
694.2471724086019
 30
0.0
 41
3.0
 42
3.0
 43
3.0
  0
INSERT
  5
6A1B
330
6907
100
AcDbEntity
  8
寸法線
 62
     0
370
    -2
100
AcDbBlockReference
  2
_Closed
 10
210.9813678889439
 20
694.2471724086019
 30
0.0
 41
3.0
 42
3.0
 43
3.0
 50
180.0
  0
MTEXT
  5
6A1C
330
6907
100
AcDbEntity
  8
寸法線
 62
     0
100
AcDbMText
 10
217.9813678889439
 20
697.747172408602
 30
0.0
 40
5.0
 41
0.0
 71
     5
 72
     1
  1
14
  7
OKANO
 73
     1
 44
1.0
  0
POINT
  5
6A1D
330
6907
100
AcDbEntity
  8
Defpoints
 62
     0
100
AcDbPoint
 10
224.9813678889439
 20
714.8985795282117
 30
0.0
  0
POINT
  5
6A1E
330
6907
100
AcDbEntity
  8
Defpoints
 62
     0
100
AcDbPoint
 10
210.9813678889439
 20
714.8985795282117
 30
0.0
  0
POINT
  5
6A1F
330
6907
100
AcDbEntity
  8
Defpoints
 62
     0
100
AcDbPoint
 10
210.9813678889439
 20
694.2471724086019
 30
0.0
  0
ENDBLK
  5
6912
330
6907
100
AcDbEntity
  8
0
100
AcDbBlockEnd
  0
BLOCK
  5
691D
330
6913
100
AcDbEntity
  8
0
100
AcDbBlockBegin
  2
*D19
 70
     1
 10
0.0
 20
0.0
 30
0.0
  3
*D19
  1

  0
LINE
  5
6A0E
330
6913
100
AcDbEntity
  8
寸法線
 62
     0
370
    -2
100
AcDbLine
 10
277.9813678889439
 20
710.3985795282117
 30
0.0
 11
313.9549535113743
 21
710.3985795282117
 31
0.0
  0
LINE
  5
6A0F
330
6913
100
AcDbEntity
  8
寸法線
 62
     0
370
    -2
100
AcDbLine
 10
277.9813678889439
 20
719.3985795282117
 30
0.0
 11
313.9549535113743
 21
719.3985795282117
 31
0.0
  0
LINE
  5
6A10
330
6913
100
AcDbEntity
  8
寸法線
 62
     0
370
    -2
100
AcDbLine
 10
310.9549535113743
 20
713.3985795282117
 30
0.0
 11
310.9549535113743
 21
716.3985795282116
 31
0.0
  0
INSERT
  5
6A11
330
6913
100
AcDbEntity
  8
寸法線
 62
     0
370
    -2
100
AcDbBlockReference
  2
_Closed
 10
310.9549535113743
 20
710.3985795282117
 30
0.0
 41
3.0
 42
3.0
 43
3.0
 50
270.0
  0
INSERT
  5
6A12
330
6913
100
AcDbEntity
  8
寸法線
 62
     0
370
    -2
100
AcDbBlockReference
  2
_Closed
 10
310.9549535113743
 20
719.3985795282117
 30
0.0
 41
3.0
 42
3.0
 43
3.0
 50
90.0
  0
MTEXT
  5
6A13
330
6913
100
AcDbEntity
  8
寸法線
 62
     0
100
AcDbMText
 10
307.4549535113742
 20
714.8985795282118
 30
0.0
 40
5.0
 41
0.0
 71
     5
 72
     1
  1
9
  7
OKANO
 11
0.0000000000000001
 21
1.0
 31
0.0
 73
     1
 44
1.0
  0
POINT
  5
6A14
330
6913
100
AcDbEntity
  8
Defpoints
 62
     0
100
AcDbPoint
 10
275.9813678889439
 20
710.3985795282117
 30
0.0
  0
POINT
  5
6A15
330
6913
100
AcDbEntity
  8
Defpoints
 62
     0
100
AcDbPoint
 10
275.9813678889439
 20
719.3985795282117
 30
0.0
  0
POINT
  5
6A16
330
6913
100
AcDbEntity
  8
Defpoints
 62
     0
100
AcDbPoint
 10
310.9549535113743
 20
719.3985795282117
 30
0.0
  0
ENDBLK
  5
691E
330
6913
100
AcDbEntity
  8
0
100
AcDbBlockEnd
  0
BLOCK
  5
6929
330
691F
100
AcDbEntity
  8
0
100
AcDbBlockBegin
  2
*D20
 70
     1
 10
0.0
 20
0.0
 30
0.0
  3
*D20
  1

  0
LINE
  5
6A05
330
691F
100
AcDbEntity
  8
寸法線
 62
     0
370
    -2
100
AcDbLine
 10
535.6580344773369
 20
714.8985795282117
 30
0.0
 11
570.8920211597534
 21
714.8985795282117
 31
0.0
  0
LINE
  5
6A06
330
691F
100
AcDbEntity
  8
寸法線
 62
     0
370
    -2
100
AcDbLine
 10
534.1580344773369
 20
735.8985795282117
 30
0.0
 11
570.8920211597534
 21
735.8985795282117
 31
0.0
  0
LINE
  5
6A07
330
691F
100
AcDbEntity
  8
寸法線
 62
     0
370
    -2
100
AcDbLine
 10
567.8920211597534
 20
717.8985795282117
 30
0.0
 11
567.8920211597534
 21
732.8985795282116
 31
0.0
  0
INSERT
  5
6A08
330
691F
100
AcDbEntity
  8
寸法線
 62
     0
370
    -2
100
AcDbBlockReference
  2
_Closed
 10
567.8920211597534
 20
714.8985795282117
 30
0.0
 41
3.0
 42
3.0
 43
3.0
 50
270.0
  0
INSERT
  5
6A09
330
691F
100
AcDbEntity
  8
寸法線
 62
     0
370
    -2
100
AcDbBlockReference
  2
_Closed
 10
567.8920211597534
 20
735.8985795282117
 30
0.0
 41
3.0
 42
3.0
 43
3.0
 50
90.0
  0
MTEXT
  5
6A0A
330
691F
100
AcDbEntity
  8
寸法線
 62
     0
100
AcDbMText
 10
564.391529033769
 20
725.3985795282118
 30
0.0
 40
5.0
 41
0.0
 71
     5
 72
     1
  1
21
  7
OKANO
 11
0.0000000000000001
 21
1.0
 31
0.0
 73
     1
 44
1.0
  0
POINT
  5
6A0B
330
691F
100
AcDbEntity
  8
Defpoints
 62
     0
100
AcDbPoint
 10
533.6580344773369
 20
714.8985795282117
 30
0.0
  0
POINT
  5
6A0C
330
691F
100
AcDbEntity
  8
Defpoints
 62
     0
100
AcDbPoint
 10
532.1580344773369
 20
735.8985795282117
 30
0.0
  0
POINT
  5
6A0D
330
691F
100
AcDbEntity
  8
Defpoints
 62
     0
100
AcDbPoint
 10
567.8920211597534
 20
735.8985795282117
 30
0.0
  0
ENDBLK
  5
692A
330
691F
100
AcDbEntity
  8
0
100
AcDbBlockEnd
  0
BLOCK
  5
6935
330
692B
100
AcDbEntity
  8
0
100
AcDbBlockBegin
  2
*D21
 70
     1
 10
0.0
 20
0.0
 30
0.0
  3
*D21
  1

  0
LINE
  5
69FC
330
692B
100
AcDbEntity
  8
寸法線
 62
     0
370
    -2
100
AcDbLine
 10
384.8842886960051
 20
712.7397425211831
 30
0.0
 11
384.8842886960051
 21
687.7077073676628
 31
0.0
  0
LINE
  5
69FD
330
692B
100
AcDbEntity
  8
寸法線
 62
     0
370
    -2
100
AcDbLine
 10
470.883700996429
 20
713.0576795931067
 30
0.0
 11
470.883700996429
 21
687.7077073676628
 31
0.0
  0
LINE
  5
69FE
330
692B
100
AcDbEntity
  8
寸法線
 62
     0
370
    -2
100
AcDbLine
 10
387.8842886960051
 20
690.7077073676628
 30
0.0
 11
467.883700996429
 21
690.7077073676628
 31
0.0
  0
INSERT
  5
69FF
330
692B
100
AcDbEntity
  8
寸法線
 62
     0
370
    -2
100
AcDbBlockReference
  2
_Closed
 10
384.8842886960051
 20
690.7077073676628
 30
0.0
 41
3.0
 42
3.0
 43
3.0
 50
180.0
  0
INSERT
  5
6A00
330
692B
100
AcDbEntity
  8
寸法線
 62
     0
370
    -2
100
AcDbBlockReference
  2
_Closed
 10
470.883700996429
 20
690.7077073676628
 30
0.0
 41
3.0
 42
3.0
 43
3.0
  0
MTEXT
  5
6A01
330
692B
100
AcDbEntity
  8
寸法線
 62
     0
100
AcDbMText
 10
427.883994846217
 20
694.2077073676628
 30
0.0
 40
5.0
 41
0.0
 71
     5
 72
     1
  1
86
  7
OKANO
 73
     1
 44
1.0
  0
POINT
  5
6A02
330
692B
100
AcDbEntity
  8
Defpoints
 62
     0
100
AcDbPoint
 10
384.8842886960051
 20
714.739742521183
 30
0.0
  0
POINT
  5
6A03
330
692B
100
AcDbEntity
  8
Defpoints
 62
     0
100
AcDbPoint
 10
470.883700996429
 20
715.0576795931067
 30
0.0
  0
POINT
  5
6A04
330
692B
100
AcDbEntity
  8
Defpoints
 62
     0
100
AcDbPoint
 10
470.883700996429
 20
690.7077073676628
 30
0.0
  0
ENDBLK
  5
6936
330
692B
100
AcDbEntity
  8
0
100
AcDbBlockEnd
  0
BLOCK
  5
6941
330
6937
100
AcDbEntity
  8
0
100
AcDbBlockBegin
  2
*D22
 70
     1
 10
0.0
 20
0.0
 30
0.0
  3
*D22
  1

  0
LINE
  5
69F3
330
6937
100
AcDbEntity
  8
寸法線
 62
     0
370
    -2
100
AcDbLine
 10
382.8842886960051
 20
714.739742521183
 30
0.0
 11
366.8003332901236
 21
714.739742521183
 31
0.0
  0
LINE
  5
69F4
330
6937
100
AcDbEntity
  8
寸法線
 62
     0
370
    -2
100
AcDbLine
 10
402.8052528622498
 20
736.1552673102679
 30
0.0
 11
366.8003332901236
 21
736.1552673102679
 31
0.0
  0
LINE
  5
69F5
330
6937
100
AcDbEntity
  8
寸法線
 62
     0
370
    -2
100
AcDbLine
 10
369.8003332901236
 20
717.7397425211831
 30
0.0
 11
369.8003332901236
 21
733.1552673102679
 31
0.0
  0
INSERT
  5
69F6
330
6937
100
AcDbEntity
  8
寸法線
 62
     0
370
    -2
100
AcDbBlockReference
  2
_Closed
 10
369.8003332901236
 20
714.739742521183
 30
0.0
 41
3.0
 42
3.0
 43
3.0
 50
270.0
  0
INSERT
  5
69F7
330
6937
100
AcDbEntity
  8
寸法線
 62
     0
370
    -2
100
AcDbBlockReference
  2
_Closed
 10
369.8003332901236
 20
736.1552673102679
 30
0.0
 41
3.0
 42
3.0
 43
3.0
 50
90.0
  0
MTEXT
  5
69F8
330
6937
100
AcDbEntity
  8
寸法線
 62
     0
100
AcDbMText
 10
366.2998411641392
 20
725.4475049157256
 30
0.0
 40
5.0
 41
0.0
 71
     5
 72
     1
  1
21
  7
OKANO
 11
0.0000000000000001
 21
1.0
 31
0.0
 73
     1
 44
1.0
  0
POINT
  5
69F9
330
6937
100
AcDbEntity
  8
Defpoints
 62
     0
100
AcDbPoint
 10
384.8842886960051
 20
714.739742521183
 30
0.0
  0
POINT
  5
69FA
330
6937
100
AcDbEntity
  8
Defpoints
 62
     0
100
AcDbPoint
 10
404.8052528622498
 20
736.1552673102679
 30
0.0
  0
POINT
  5
69FB
330
6937
100
AcDbEntity
  8
Defpoints
 62
     0
100
AcDbPoint
 10
369.8003332901236
 20
736.1552673102679
 30
0.0
  0
ENDBLK
  5
6942
330
6937
100
AcDbEntity
  8
0
100
AcDbBlockEnd
  0
BLOCK
  5
694D
330
6943
100
AcDbEntity
  8
0
100
AcDbBlockBegin
  2
*D23
 70
     1
 10
0.0
 20
0.0
 30
0.0
  3
*D23
  1

  0
LINE
  5
69EA
330
6943
100
AcDbEntity
  8
寸法線
 62
     0
370
    -2
100
AcDbLine
 10
430.118738577231
 20
724.7220407880959
 30
0.0
 11
486.3576938962752
 21
724.7220407880959
 31
0.0
  0
LINE
  5
69EB
330
6943
100
AcDbEntity
  8
寸法線
 62
     0
370
    -2
100
AcDbLine
 10
472.883700996429
 20
715.0576795931067
 30
0.0
 11
486.3576938962752
 21
715.0576795931067
 31
0.0
  0
LINE
  5
69EC
330
6943
100
AcDbEntity
  8
寸法線
 62
     0
370
    -2
100
AcDbLine
 10
483.3576938962752
 20
721.7220407880959
 30
0.0
 11
483.3576938962752
 21
718.0576795931067
 31
0.0
  0
INSERT
  5
69ED
330
6943
100
AcDbEntity
  8
寸法線
 62
     0
370
    -2
100
AcDbBlockReference
  2
_Closed
 10
483.3576938962752
 20
724.7220407880959
 30
0.0
 41
3.0
 42
3.0
 43
3.0
 50
90.0
  0
INSERT
  5
69EE
330
6943
100
AcDbEntity
  8
寸法線
 62
     0
370
    -2
100
AcDbBlockReference
  2
_Closed
 10
483.3576938962752
 20
715.0576795931067
 30
0.0
 41
3.0
 42
3.0
 43
3.0
 50
270.0
  0
MTEXT
  5
69EF
330
6943
100
AcDbEntity
  8
寸法線
 62
     0
100
AcDbMText
 10
479.8576938962751
 20
719.8898601906014
 30
0.0
 40
5.0
 41
0.0
 71
     5
 72
     1
  1
10
  7
OKANO
 11
0.0000000000000001
 21
1.0
 31
0.0
 73
     1
 44
1.0
  0
POINT
  5
69F0
330
6943
100
AcDbEntity
  8
Defpoints
 62
     0
100
AcDbPoint
 10
428.1187385772311
 20
724.7220407880959
 30
0.0
  0
POINT
  5
69F1
330
6943
100
AcDbEntity
  8
Defpoints
 62
     0
100
AcDbPoint
 10
470.883700996429
 20
715.0576795931067
 30
0.0
  0
POINT
  5
69F2
330
6943
100
AcDbEntity
  8
Defpoints
 62
     0
100
AcDbPoint
 10
483.3576938962752
 20
715.0576795931067
 30
0.0
  0
ENDBLK
  5
694E
330
6943
100
AcDbEntity
  8
0
100
AcDbBlockEnd
  0
BLOCK
  5
6955
330
694F
100
AcDbEntity
  8
0
100
AcDbBlockBegin
  2
*D24
 70
     1
 10
0.0
 20
0.0
 30
0.0
  3
*D24
  1

  0
LINE
  5
69E5
330
694F
100
AcDbEntity
  8
寸法線
 62
     0
370
    -2
100
AcDbLine
 10
427.9837948304697
 20
748.0047633143266
 30
0.0
 11
412.8467733020752
 21
734.0606344686076
 31
0.0
  0
MTEXT
  5
69E6
330
694F
100
AcDbEntity
  8
寸法線
 62
     0
100
AcDbMText
 10
420.4799109240809
 20
745.851612124067
 30
0.0
 40
5.0
 41
0.0
 71
     5
 72
     1
  1
24.5
  7
OKANO
 11
0.7354934010610301
 21
0.6775318863313215
 31
0.0
 73
     1
 44
1.0
  0
INSERT
  5
69E7
330
694F
100
AcDbEntity
  8
寸法線
 62
     0
370
    -2
100
AcDbBlockReference
  2
_Closed
 10
410.6402930988921
 20
732.0280388096136
 30
0.0
 41
3.0
 42
3.0
 43
3.0
 50
222.6510756946225
  0
POINT
  5
69E8
330
694F
100
AcDbEntity
  8
Defpoints
 62
     0
100
AcDbPoint
 10
410.6402930988921
 20
732.0280388096136
 30
0.0
  0
POINT
  5
69E9
330
694F
100
AcDbEntity
  8
Defpoints
 62
     0
100
AcDbPoint
 10
427.7623569657289
 20
747.8007761487224
 30
0.0
  0
ENDBLK
  5
6956
330
694F
100
AcDbEntity
  8
0
100
AcDbBlockEnd
  0
BLOCK
  5
6961
330
6957
100
AcDbEntity
  8
0
100
AcDbBlockBegin
  2
*D25
 70
     1
 10
0.0
 20
0.0
 30
0.0
  3
*D25
  1

  0
LINE
  5
69DC
330
6957
100
AcDbEntity
  8
寸法線
 62
     0
370
    -2
100
AcDbLine
 10
201.9813678889439
 20
702.3985795282117
 30
0.0
 11
189.288353557985
 21
702.3985795282117
 31
0.0
  0
LINE
  5
69DD
330
6957
100
AcDbEntity
  8
寸法線
 62
     0
370
    -2
100
AcDbLine
 10
201.9813678889439
 20
727.3985795282117
 30
0.0
 11
189.288353557985
 21
727.3985795282117
 31
0.0
  0
LINE
  5
69DE
330
6957
100
AcDbEntity
  8
寸法線
 62
     0
370
    -2
100
AcDbLine
 10
192.288353557985
 20
705.3985795282117
 30
0.0
 11
192.288353557985
 21
724.3985795282116
 31
0.0
  0
INSERT
  5
69DF
330
6957
100
AcDbEntity
  8
寸法線
 62
     0
370
    -2
100
AcDbBlockReference
  2
_Closed
 10
192.288353557985
 20
702.3985795282117
 30
0.0
 41
3.0
 42
3.0
 43
3.0
 50
270.0
  0
INSERT
  5
69E0
330
6957
100
AcDbEntity
  8
寸法線
 62
     0
370
    -2
100
AcDbBlockReference
  2
_Closed
 10
192.288353557985
 20
727.3985795282117
 30
0.0
 41
3.0
 42
3.0
 43
3.0
 50
90.0
  0
MTEXT
  5
69E1
330
6957
100
AcDbEntity
  8
寸法線
 62
     0
100
AcDbMText
 10
188.7878614320006
 20
714.8985795282117
 30
0.0
 40
5.0
 41
0.0
 71
     5
 72
     1
  1
25
  7
OKANO
 11
0.0000000000000001
 21
1.0
 31
0.0
 73
     1
 44
1.0
  0
POINT
  5
69E2
330
6957
100
AcDbEntity
  8
Defpoints
 62
     0
100
AcDbPoint
 10
203.9813678889439
 20
702.3985795282117
 30
0.0
  0
POINT
  5
69E3
330
6957
100
AcDbEntity
  8
Defpoints
 62
     0
100
AcDbPoint
 10
203.9813678889439
 20
727.3985795282117
 30
0.0
  0
POINT
  5
69E4
330
6957
100
AcDbEntity
  8
Defpoints
 62
     0
100
AcDbPoint
 10
192.288353557985
 20
727.3985795282117
 30
0.0
  0
ENDBLK
  5
6962
330
6957
100
AcDbEntity
  8
0
100
AcDbBlockEnd
  0
BLOCK
  5
696D
330
6963
100
AcDbEntity
  8
0
100
AcDbBlockBegin
  2
*D26
 70
     1
 10
0.0
 20
0.0
 30
0.0
  3
*D26
  1

  0
LINE
  5
69D3
330
6963
100
AcDbEntity
  8
寸法線
 62
     0
370
    -2
100
AcDbLine
 10
512.1580704178732
 20
712.8985795282117
 30
0.0
 11
512.1580704178732
 21
696.0162025725003
 31
0.0
  0
LINE
  5
69D4
330
6963
100
AcDbEntity
  8
寸法線
 62
     0
370
    -2
100
AcDbLine
 10
537.1580704178732
 20
712.8985795282117
 30
0.0
 11
537.1580704178732
 21
696.0162025725003
 31
0.0
  0
LINE
  5
69D5
330
6963
100
AcDbEntity
  8
寸法線
 62
     0
370
    -2
100
AcDbLine
 10
515.1580704178733
 20
699.0162025725003
 30
0.0
 11
534.1580704178733
 21
699.0162025725003
 31
0.0
  0
INSERT
  5
69D6
330
6963
100
AcDbEntity
  8
寸法線
 62
     0
370
    -2
100
AcDbBlockReference
  2
_Closed
 10
512.1580704178732
 20
699.0162025725003
 30
0.0
 41
3.0
 42
3.0
 43
3.0
 50
180.0
  0
INSERT
  5
69D7
330
6963
100
AcDbEntity
  8
寸法線
 62
     0
370
    -2
100
AcDbBlockReference
  2
_Closed
 10
537.1580704178732
 20
699.0162025725003
 30
0.0
 41
3.0
 42
3.0
 43
3.0
  0
MTEXT
  5
69D8
330
6963
100
AcDbEntity
  8
寸法線
 62
     0
100
AcDbMText
 10
524.6580704178732
 20
702.5166946984845
 30
0.0
 40
5.0
 41
0.0
 71
     5
 72
     1
  1
25
  7
OKANO
 73
     1
 44
1.0
  0
POINT
  5
69D9
330
6963
100
AcDbEntity
  8
Defpoints
 62
     0
100
AcDbPoint
 10
512.1580704178732
 20
714.8985795282117
 30
0.0
  0
POINT
  5
69DA
330
6963
100
AcDbEntity
  8
Defpoints
 62
     0
100
AcDbPoint
 10
537.1580704178732
 20
714.8985795282117
 30
0.0
  0
POINT
  5
69DB
330
6963
100
AcDbEntity
  8
Defpoints
 62
     0
100
AcDbPoint
 10
537.1580704178732
 20
699.0162025725003
 30
0.0
  0
ENDBLK
  5
696E
330
6963
100
AcDbEntity
  8
0
100
AcDbBlockEnd
  0
BLOCK
  5
6A41
330
6A35
100
AcDbEntity
  8
0
100
AcDbBlockBegin
  2
*D27
 70
     1
 10
0.0
 20
0.0
 30
0.0
  3
*D27
  1

  0
LINE
  5
6A36
330
6A35
100
AcDbEntity
  8
寸法線
 62
     0
370
    -2
100
AcDbLine
 10
202.9454965241318
 20
907.8399995297425
 30
0.0
 11
155.8992637341143
 21
907.8399995297425
 31
0.0
  0
LINE
  5
6A37
330
6A35
100
AcDbEntity
  8
寸法線
 62
     0
370
    -2
100
AcDbLine
 10
202.9454965241319
 20
910.3399995297424
 30
0.0
 11
155.8992637341143
 21
910.3399995297424
 31
0.0
  0
LINE
  5
6A38
330
6A35
100
AcDbEntity
  8
寸法線
 62
     0
370
    -2
100
AcDbLine
 10
158.8992637341143
 20
904.8399995297424
 30
0.0
 11
158.8992637341143
 21
901.8399995297425
 31
0.0
  0
LINE
  5
6A39
330
6A35
100
AcDbEntity
  8
寸法線
 62
     0
370
    -2
100
AcDbLine
 10
158.8992637341143
 20
913.3399995297425
 30
0.0
 11
158.8992637341143
 21
926.2957708956825
 31
0.0
  0
LINE
  5
6A3A
330
6A35
100
AcDbEntity
  8
寸法線
 62
     0
370
    -2
100
AcDbLine
 10
158.8992637341143
 20
907.8399995297425
 30
0.0
 11
158.8992637341143
 21
910.3399995297424
 31
0.0
  0
INSERT
  5
6A3B
330
6A35
100
AcDbEntity
  8
寸法線
 62
     0
370
    -2
100
AcDbBlockReference
  2
_Closed
 10
158.8992637341143
 20
907.8399995297425
 30
0.0
 41
3.0
 42
3.0
 43
3.0
 50
90.0
  0
INSERT
  5
6A3C
330
6A35
100
AcDbEntity
  8
寸法線
 62
     0
370
    -2
100
AcDbBlockReference
  2
_Closed
 10
158.8992637341143
 20
910.3399995297424
 30
0.0
 41
3.0
 42
3.0
 43
3.0
 50
270.0
  0
MTEXT
  5
6A3D
330
6A35
100
AcDbEntity
  8
寸法線
 62
     0
100
AcDbMText
 10
155.3987716081299
 20
921.3178852127125
 30
0.0
 40
5.0
 41
0.0
 71
     5
 72
     1
  1
2.5
  7
OKANO
 11
0.0000000000000001
 21
1.0
 31
0.0
 73
     1
 44
1.0
  0
POINT
  5
6A3E
330
6A35
100
AcDbEntity
  8
Defpoints
 62
     0
100
AcDbPoint
 10
204.9454965241318
 20
907.8399995297425
 30
0.0
  0
POINT
  5
6A3F
330
6A35
100
AcDbEntity
  8
Defpoints
 62
     0
100
AcDbPoint
 10
204.9454965241319
 20
910.3399995297424
 30
0.0
  0
POINT
  5
6A40
330
6A35
100
AcDbEntity
  8
Defpoints
 62
     0
100
AcDbPoint
 10
158.8992637341143
 20
910.3399995297424
 30
0.0
  0
ENDBLK
  5
6A42
330
6A35
100
AcDbEntity
  8
0
100
AcDbBlockEnd
  0
BLOCK
  5
6AD5
330
6ACB
100
AcDbEntity
  8
0
100
AcDbBlockBegin
  2
*D28
 70
     1
 10
0.0
 20
0.0
 30
0.0
  3
*D28
  1

  0
LINE
  5
6AE0
330
6ACB
100
AcDbEntity
  8
寸法線
 62
     0
370
    -2
100
AcDbLine
 10
484.6221990530612
 20
913.3399995297425
 30
0.0
 11
484.6221990530612
 21
927.3507637642033
 31
0.0
  0
LINE
  5
6AE1
330
6ACB
100
AcDbEntity
  8
寸法線
 62
     0
370
    -2
100
AcDbLine
 10
524.3007271552924
 20
916.3399995297424
 30
0.0
 11
524.3007271552924
 21
927.3507637642033
 31
0.0
  0
LINE
  5
6AE2
330
6ACB
100
AcDbEntity
  8
寸法線
 62
     0
370
    -2
100
AcDbLine
 10
487.6221990530612
 20
924.3507637642032
 30
0.0
 11
521.3007271552924
 21
924.3507637642032
 31
0.0
  0
INSERT
  5
6AE3
330
6ACB
100
AcDbEntity
  8
寸法線
 62
     0
370
    -2
100
AcDbBlockReference
  2
_Closed
 10
484.6221990530612
 20
924.3507637642032
 30
0.0
 41
3.0
 42
3.0
 43
3.0
 50
180.0
  0
INSERT
  5
6AE4
330
6ACB
100
AcDbEntity
  8
寸法線
 62
     0
370
    -2
100
AcDbBlockReference
  2
_Closed
 10
524.3007271552924
 20
924.3507637642032
 30
0.0
 41
3.0
 42
3.0
 43
3.0
  0
MTEXT
  5
6AE5
330
6ACB
100
AcDbEntity
  8
寸法線
 62
     0
100
AcDbMText
 10
504.4614631041768
 20
927.8507637642032
 30
0.0
 40
5.0
 41
0.0
 71
     5
 72
     1
  1
40
  7
OKANO
 73
     1
 44
1.0
  0
POINT
  5
6AE6
330
6ACB
100
AcDbEntity
  8
Defpoints
 62
     0
100
AcDbPoint
 10
484.6221990530612
 20
911.3399995297426
 30
0.0
  0
POINT
  5
6AE7
330
6ACB
100
AcDbEntity
  8
Defpoints
 62
     0
100
AcDbPoint
 10
524.3007271552924
 20
914.3399995297425
 30
0.0
  0
POINT
  5
6AE8
330
6ACB
100
AcDbEntity
  8
Defpoints
 62
     0
100
AcDbPoint
 10
524.3007271552924
 20
924.3507637642032
 30
0.0
  0
ENDBLK
  5
6AD6
330
6ACB
100
AcDbEntity
  8
0
100
AcDbBlockEnd
  0
BLOCK
  5
6AF4
330
6AEA
100
AcDbEntity
  8
0
100
AcDbBlockBegin
  2
*D29
 70
     1
 10
0.0
 20
0.0
 30
0.0
  3
*D29
  1

  0
LINE
  5
6AEB
330
6AEA
100
AcDbEntity
  8
寸法線
 62
     0
370
    -2
100
AcDbLine
 10
297.2360464832163
 20
913.3399995297425
 30
0.0
 11
297.2360464832163
 21
932.8913096827454
 31
0.0
  0
LINE
  5
6AEC
330
6AEA
100
AcDbEntity
  8
寸法線
 62
     0
370
    -2
100
AcDbLine
 10
377.2360464832163
 20
913.3399995297425
 30
0.0
 11
377.2360464832163
 21
932.8913096827454
 31
0.0
  0
LINE
  5
6AED
330
6AEA
100
AcDbEntity
  8
寸法線
 62
     0
370
    -2
100
AcDbLine
 10
300.2360464832163
 20
929.8913096827455
 30
0.0
 11
374.2360464832163
 21
929.8913096827455
 31
0.0
  0
INSERT
  5
6AEE
330
6AEA
100
AcDbEntity
  8
寸法線
 62
     0
370
    -2
100
AcDbBlockReference
  2
_Closed
 10
297.2360464832163
 20
929.8913096827455
 30
0.0
 41
3.0
 42
3.0
 43
3.0
 50
180.0
  0
INSERT
  5
6AEF
330
6AEA
100
AcDbEntity
  8
寸法線
 62
     0
370
    -2
100
AcDbBlockReference
  2
_Closed
 10
377.2360464832163
 20
929.8913096827455
 30
0.0
 41
3.0
 42
3.0
 43
3.0
  0
MTEXT
  5
6AF0
330
6AEA
100
AcDbEntity
  8
寸法線
 62
     0
100
AcDbMText
 10
337.2360464832163
 20
933.3913096827455
 30
0.0
 40
5.0
 41
0.0
 71
     5
 72
     1
  1
80
  7
OKANO
 73
     1
 44
1.0
  0
POINT
  5
6AF1
330
6AEA
100
AcDbEntity
  8
Defpoints
 62
     0
100
AcDbPoint
 10
297.2360464832163
 20
911.3399995297426
 30
0.0
  0
POINT
  5
6AF2
330
6AEA
100
AcDbEntity
  8
Defpoints
 62
     0
100
AcDbPoint
 10
377.2360464832163
 20
911.3399995297426
 30
0.0
  0
POINT
  5
6AF3
330
6AEA
100
AcDbEntity
  8
Defpoints
 62
     0
100
AcDbPoint
 10
377.2360464832163
 20
929.8913096827455
 30
0.0
  0
ENDBLK
  5
6AF5
330
6AEA
100
AcDbEntity
  8
0
100
AcDbBlockEnd
  0
ENDSEC
  0
SECTION
  2
ENTITIES
  0
XLINE
  5
4673
330
1F
100
AcDbEntity
  8
構築線
100
AcDbXline
 10
246.9454965241318
 20
144.7597868093781
 30
0.0
 11
0.0
 21
1.0
 31
0.0
  0
TEXT
  5
49EE
330
1F
100
AcDbEntity
  8
文字
100
AcDbText
 10
225.8306686455034
 20
885.0102224951843
 30
0.0
 40
5.0
  1
ソーラーパネル
 51
15.0
  7
OKANO
100
AcDbText
  0
CIRCLE
  5
51A8
330
1F
100
AcDbEntity
  8
太線
100
AcDbCircle
 10
636.6876921285085
 20
301.1453986766348
 30
0.0
 40
40025.0
  0
XLINE
  5
54CE
330
1F
100
AcDbEntity
  8
構築線
100
AcDbXline
 10
427.8125459663808
 20
415.2012174374958
 30
0.0
 11
0.0
 21
-1.0
 31
0.0
  0
LINE
  5
5641
330
1F
100
AcDbEntity
  8
破線
100
AcDbLine
 10
298.653843286389
 20
907.8399995297425
 30
0.0
 11
184.419597760593
 21
907.8399995297425
 31
0.0
  0
LINE
  5
5643
330
1F
100
AcDbEntity
  8
破線
100
AcDbLine
 10
184.419597760593
 20
872.8399995297424
 30
0.0
 11
298.653843286389
 21
872.8399995297424
 31
0.0
  0
LINE
  5
5644
330
1F
100
AcDbEntity
  8
破線
100
AcDbLine
 10
184.419597760593
 20
907.8399995297425
 30
0.0
 11
184.419597760593
 21
872.8399995297424
 31
0.0
  0
LINE
  5
5645
330
1F
100
AcDbEntity
  8
太線
100
AcDbLine
 10
204.9454965241318
 20
907.8399995297425
 30
0.0
 11
288.9454965241318
 21
907.8399995297425
 31
0.0
  0
LINE
  5
5646
330
1F
100
AcDbEntity
  8
太線
100
AcDbLine
 10
288.9454965241317
 20
911.3399995297426
 30
0.0
 11
204.9454965241319
 21
911.3399995297426
 31
0.0
  0
LINE
  5
5647
330
1F
100
AcDbEntity
  8
太線
100
AcDbLine
 10
203.9454965241318
 20
908.8399995297425
 30
0.0
 11
203.9454965241318
 21
910.3399995297424
 31
0.0
  0
LINE
  5
5648
330
1F
100
AcDbEntity
  8
太線
100
AcDbLine
 10
289.9454965241318
 20
908.8399995297425
 30
0.0
 11
289.9454965241318
 21
910.3399995297424
 31
0.0
  0
ARC
  5
5649
330
1F
100
AcDbEntity
  8
太線
100
AcDbCircle
 10
204.9454965241318
 20
908.8399995297425
 30
0.0
 40
1.0
100
AcDbArc
 50
180.0
 51
270.0
  0
ARC
  5
564A
330
1F
100
AcDbEntity
  8
太線
100
AcDbCircle
 10
288.9454965241318
 20
908.8399995297425
 30
0.0
 40
1.0
100
AcDbArc
 50
269.9999999999999
 51
0.0
  0
ARC
  5
564B
330
1F
100
AcDbEntity
  8
太線
100
AcDbCircle
 10
204.9454965241319
 20
910.3399995297424
 30
0.0
 40
1.0
100
AcDbArc
 50
90.00000000000003
 51
180.0
  0
ARC
  5
564C
330
1F
100
AcDbEntity
  8
太線
100
AcDbCircle
 10
288.9454965241317
 20
910.3399995297424
 30
0.0
 40
1.0
100
AcDbArc
 50
0.0
 51
90.00000000000003
  0
LINE
  5
564D
330
1F
100
AcDbEntity
  8
破線
100
AcDbLine
 10
210.9454965241318
 20
911.3399995297426
 30
0.0
 11
210.9454965241318
 21
907.8399995297425
 31
0.0
  0
LINE
  5
564E
330
1F
100
AcDbEntity
  8
破線
100
AcDbLine
 10
282.9454965241318
 20
907.8399995297425
 30
0.0
 11
282.9454965241318
 21
911.3399995297426
 31
0.0
  0
CIRCLE
  5
569D
330
1F
100
AcDbEntity
  8
破線
100
AcDbCircle
 10
246.9454965241318
 20
848.195908254542
 30
0.0
 40
24.5
  0
LINE
  5
56FF
330
1F
100
AcDbEntity
  8
太線
100
AcDbLine
 10
279.9454965241318
 20
827.083479475694
 30
0.0
 11
279.9454965241318
 21
872.8399995297424
 31
0.0
  0
LINE
  5
5700
330
1F
100
AcDbEntity
  8
太線
100
AcDbLine
 10
271.9454965241318
 20
872.8399995297424
 30
0.0
 11
271.9454965241318
 21
832.6777057238334
 31
0.0
  0
LINE
  5
5701
330
1F
100
AcDbEntity
  8
太線
100
AcDbLine
 10
221.9454965241318
 20
832.9727265271809
 30
0.0
 11
221.9454965241318
 21
872.8399995297424
 31
0.0
  0
LINE
  5
5702
330
1F
100
AcDbEntity
  8
太線
100
AcDbLine
 10
213.9454965241318
 20
872.8399995297424
 30
0.0
 11
213.9454965241318
 21
827.083479475694
 31
0.0
  0
LINE
  5
5956
330
1F
100
AcDbEntity
  8
想像線
100
AcDbLine
 10
271.9454965241318
 20
907.8399995297425
 30
0.0
 11
271.9454965241318
 21
908.3399995297424
 31
0.0
  0
LINE
  5
5958
330
1F
100
AcDbEntity
  8
想像線
100
AcDbLine
 10
279.9454965241318
 20
907.8399995297425
 30
0.0
 11
279.9454965241318
 21
911.3399995297426
 31
0.0
  0
LINE
  5
5959
330
1F
100
AcDbEntity
  8
太線
100
AcDbLine
 10
279.9454965241318
 20
911.3399995297426
 30
0.0
 11
279.9454965241318
 21
913.3399995297423
 31
0.0
  0
LINE
  5
595A
330
1F
100
AcDbEntity
  8
太線
100
AcDbLine
 10
274.9454965241318
 20
918.3399995297424
 30
0.0
 11
269.9454965241318
 21
918.3399995297424
 31
0.0
  0
ARC
  5
595B
330
1F
100
AcDbEntity
  8
太線
100
AcDbCircle
 10
274.9454965241318
 20
913.3399995297423
 30
0.0
 40
5.0
100
AcDbArc
 50
0.0
 51
90.0
  0
ARC
  5
595D
330
1F
100
AcDbEntity
  8
想像線
100
AcDbCircle
 10
268.9454965241318
 20
908.3399995297424
 30
0.0
 40
3.0
100
AcDbArc
 50
0.0
 51
90.0
  0
ARC
  5
595E
330
1F
100
AcDbEntity
  8
太線
100
AcDbCircle
 10
218.9454965241318
 20
913.3399995297423
 30
0.0
 40
5.0
100
AcDbArc
 50
90.0
 51
180.0
  0
ARC
  5
595F
330
1F
100
AcDbEntity
  8
想像線
100
AcDbCircle
 10
224.9454965241318
 20
908.3399995297424
 30
0.0
 40
3.0
100
AcDbArc
 50
90.0
 51
180.0
  0
LINE
  5
5960
330
1F
100
AcDbEntity
  8
太線
100
AcDbLine
 10
218.9454965241318
 20
918.3399995297424
 30
0.0
 11
269.9454965241318
 21
918.3399995297424
 31
0.0
  0
LINE
  5
5961
330
1F
100
AcDbEntity
  8
太線
100
AcDbLine
 10
213.9454965241318
 20
913.3399995297423
 30
0.0
 11
213.9454965241318
 21
911.3399995297426
 31
0.0
  0
LINE
  5
5962
330
1F
100
AcDbEntity
  8
太線
100
AcDbLine
 10
224.9454965241318
 20
911.3399995297426
 30
0.0
 11
268.9454965241318
 21
911.3399995297426
 31
0.0
  0
LINE
  5
5963
330
1F
100
AcDbEntity
  8
想像線
100
AcDbLine
 10
221.9454965241318
 20
908.3399995297424
 30
0.0
 11
221.9454965241318
 21
907.8399995297424
 31
0.0
  0
LINE
  5
5964
330
1F
100
AcDbEntity
  8
想像線
100
AcDbLine
 10
213.9454965241318
 20
911.3399995297426
 30
0.0
 11
213.9454965241318
 21
907.8399995297425
 31
0.0
  0
LINE
  5
5965
330
1F
100
AcDbEntity
  8
想像線
100
AcDbLine
 10
213.9454965241318
 20
907.8399995297425
 30
0.0
 11
213.9454965241318
 21
872.8399995297424
 31
0.0
  0
LINE
  5
5966
330
1F
100
AcDbEntity
  8
想像線
100
AcDbLine
 10
221.9454965241318
 20
907.8399995297424
 30
0.0
 11
221.9454965241318
 21
872.8399995297424
 31
0.0
  0
LINE
  5
5967
330
1F
100
AcDbEntity
  8
想像線
100
AcDbLine
 10
271.9454965241318
 20
907.8399995297425
 30
0.0
 11
271.9454965241318
 21
872.8399995297424
 31
0.0
  0
LINE
  5
5968
330
1F
100
AcDbEntity
  8
想像線
100
AcDbLine
 10
279.9454965241318
 20
907.8399995297425
 30
0.0
 11
279.9454965241318
 21
872.8399995297424
 31
0.0
  0
LINE
  5
5BA5
330
1F
100
AcDbEntity
  8
太線
100
AcDbLine
 10
528.3007271552924
 20
815.8399995297425
 30
0.0
 11
528.3007271552924
 21
872.9410200441762
 31
0.0
  0
LINE
  5
5BA6
330
1F
100
AcDbEntity
  8
太線
100
AcDbLine
 10
520.3007271552924
 20
872.9410200441762
 30
0.0
 11
520.3007271552924
 21
815.8399995297425
 31
0.0
  0
LINE
  5
5BAC
330
1F
100
AcDbEntity
  8
太線
100
AcDbLine
 10
520.3007271552924
 20
907.9410200441763
 30
0.0
 11
520.3007271552924
 21
872.9410200441762
 31
0.0
  0
LINE
  5
5BAD
330
1F
100
AcDbEntity
  8
太線
100
AcDbLine
 10
528.3007271552924
 20
907.9410200441762
 30
0.0
 11
528.3007271552924
 21
872.9410200441762
 31
0.0
  0
ARC
  5
5BBF
330
1F
100
AcDbEntity
  8
太線
100
AcDbCircle
 10
524.3007271552924
 20
914.3399995297425
 30
0.0
 40
4.0
100
AcDbArc
 50
0.0
 51
180.0
  0
LINE
  5
5BC0
330
1F
100
AcDbEntity
  8
太線
100
AcDbLine
 10
528.3007271552924
 20
907.9410200441762
 30
0.0
 11
528.3007271552924
 21
908.3399995297424
 31
0.0
  0
LINE
  5
5BC1
330
1F
100
AcDbEntity
  8
太線
100
AcDbLine
 10
520.3007271552924
 20
907.9410200441763
 30
0.0
 11
520.3007271552924
 21
908.3399995297424
 31
0.0
  0
LINE
  5
5CC2
330
1F
100
AcDbEntity
  8
太線
100
AcDbLine
 10
504.3007271552924
 20
911.3399995297426
 30
0.0
 11
537.3007271552924
 21
911.3399995297426
 31
0.0
  0
LINE
  5
5CC3
330
1F
100
AcDbEntity
  8
太線
100
AcDbLine
 10
537.3007271552924
 20
911.3399995297426
 30
0.0
 11
537.3007271552924
 21
876.3399995297424
 31
0.0
  0
LINE
  5
5CC4
330
1F
100
AcDbEntity
  8
太線
100
AcDbLine
 10
537.3007271552924
 20
876.3399995297424
 30
0.0
 11
549.3007271552924
 21
876.3399995297424
 31
0.0
  0
LINE
  5
5CC5
330
1F
100
AcDbEntity
  8
太線
100
AcDbLine
 10
504.3007271552924
 20
908.3399995297424
 30
0.0
 11
534.3007271552924
 21
908.3399995297424
 31
0.0
  0
LINE
  5
5CC6
330
1F
100
AcDbEntity
  8
太線
100
AcDbLine
 10
534.3007271552924
 20
908.3399995297424
 30
0.0
 11
534.3007271552924
 21
873.3399995297425
 31
0.0
  0
LINE
  5
5CC7
330
1F
100
AcDbEntity
  8
太線
100
AcDbLine
 10
534.3007271552924
 20
873.3399995297425
 30
0.0
 11
549.3007271552924
 21
873.3399995297425
 31
0.0
  0
LINE
  5
5CC8
330
1F
100
AcDbEntity
  8
太線
100
AcDbLine
 10
549.3007271552924
 20
873.3399995297425
 30
0.0
 11
549.3007271552924
 21
876.3399995297424
 31
0.0
  0
LINE
  5
5CFA
330
1F
100
AcDbEntity
  8
寸法線
100
AcDbLine
 10
534.3007271552924
 20
873.3399995297425
 30
0.0
 11
549.3007271552924
 21
873.3399995297425
 31
0.0
  0
DIMENSION
  5
5D08
330
1F
100
AcDbEntity
  8
寸法線
100
AcDbDimension
  2
*D2
 10
572.7918214579112
 20
873.3399995297425
 30
0.0
 11
569.291821457911
 21
890.8399995297425
 31
0.0
 70
    32
 71
     5
 42
35.0
  3
sunpo
100
AcDbAlignedDimension
 13
534.3007271552924
 23
908.3399995297424
 33
0.0
 14
549.3007271552924
 24
873.3399995297425
 34
0.0
 50
90.0
100
AcDbRotatedDimension
1001
ACAD
1000
DSTYLE
1002
{
1070
    40
1040
1.0
1002
}
  0
TEXT
  5
5D62
330
1F
100
AcDbEntity
  8
文字
100
AcDbText
 10
1046.206962600699
 20
1521.405617238604
 30
0.0
 40
5.0
  1
31-1U-20
 51
15.0
  7
OKANO
100
AcDbText
  0
TEXT
  5
5D65
330
1F
100
AcDbEntity
  8
文字
100
AcDbText
 10
490.3915501392329
 20
762.8969781226478
 30
0.0
 40
5.0
  1
Ｍ8
 51
15.0
  7
OKANO
100
AcDbText
  0
XLINE
  5
5D7F
330
1F
100
AcDbEntity
  8
構築線
100
AcDbXline
 10
140.7799199748551
 20
977.1263675188819
 30
0.0
 11
1.0
 21
0.0
 31
0.0
  0
LINE
  5
5D92
330
1F
100
AcDbEntity
  8
構築線
100
AcDbLine
 10
427.8125459663808
 20
977.1263675188819
 30
0.0
 11
427.8125459663808
 21
1015.568856918334
 31
0.0
  0
DIMENSION
  5
5D94
330
1F
100
AcDbEntity
  8
寸法線
100
AcDbDimension
  2
*D4
 10
375.2622992226283
 20
954.1118724836065
 30
0.0
 11
371.7622992226282
 21
958.1191200012444
 31
0.0
 70
    32
  1
10
 71
     5
 42
8.014495035275558
  3
sunpo
100
AcDbAlignedDimension
 13
384.8125459663808
 23
962.1263675188821
 33
0.0
 14
390.8805627299111
 24
954.1118724836065
 34
0.0
 50
90.0
100
AcDbRotatedDimension
1001
ACAD
1000
DSTYLE
1002
{
1070
    40
1040
1.0
1070
   279
1070
     1
1002
}
  0
DIMENSION
  5
5D95
330
1F
100
AcDbEntity
  8
寸法線
100
AcDbDimension
  2
*D3
 10
375.2622992226283
 20
962.1263675188821
 30
0.0
 11
371.7622992226282
 21
969.6263675188822
 31
0.0
 70
    32
 71
     5
 42
15.0
  3
sunpo
100
AcDbAlignedDimension
 13
395.3125459663808
 23
977.1263675188819
 33
0.0
 14
384.8125459663808
 24
962.1263675188821
 34
0.0
 50
90.0
100
AcDbRotatedDimension
1001
ACAD
1000
DSTYLE
1002
{
1070
    40
1040
1.0
1002
}
  0
LINE
  5
5D97
330
1F
100
AcDbEntity
  8
太線
100
AcDbLine
 10
470.8125459663809
 20
987.1263675188821
 30
0.0
 11
470.8125459663809
 21
976.4867081656703
 31
0.0
  0
LINE
  5
5D98
330
1F
100
AcDbEntity
  8
太線
100
AcDbLine
 10
384.8125459663808
 20
977.1263675188819
 30
0.0
 11
384.8125459663808
 21
987.1263675188821
 31
0.0
  0
LINE
  5
5D99
330
1F
100
AcDbEntity
  8
太線
100
AcDbLine
 10
453.3125459663808
 20
981.6263675188819
 30
0.0
 11
458.3125459663809
 21
981.6263675188819
 31
0.0
  0
LINE
  5
5D9A
330
1F
100
AcDbEntity
  8
太線
100
AcDbLine
 10
458.3125459663809
 20
972.6263675188819
 30
0.0
 11
453.3125459663808
 21
972.6263675188819
 31
0.0
  0
ARC
  5
5D9B
330
1F
100
AcDbEntity
  8
太線
100
AcDbCircle
 10
453.3125459663808
 20
977.1263675188819
 30
0.0
 40
4.5
100
AcDbArc
 50
90.0
 51
270.0
  0
ARC
  5
5D9C
330
1F
100
AcDbEntity
  8
太線
100
AcDbCircle
 10
458.3125459663809
 20
977.1263675188819
 30
0.0
 40
4.5
100
AcDbArc
 50
270.0
 51
90.0
  0
LINE
  5
5D9D
330
1F
100
AcDbEntity
  8
太線
100
AcDbLine
 10
400.3125459663809
 20
972.6263675188819
 30
0.0
 11
395.3125459663808
 21
972.6263675188819
 31
0.0
  0
LINE
  5
5D9E
330
1F
100
AcDbEntity
  8
太線
100
AcDbLine
 10
395.3125459663808
 20
981.6263675188819
 30
0.0
 11
400.3125459663809
 21
981.6263675188819
 31
0.0
  0
ARC
  5
5D9F
330
1F
100
AcDbEntity
  8
太線
100
AcDbCircle
 10
400.3125459663809
 20
977.1263675188819
 30
0.0
 40
4.5
100
AcDbArc
 50
270.0
 51
90.0
  0
ARC
  5
5DA0
330
1F
100
AcDbEntity
  8
太線
100
AcDbCircle
 10
395.3125459663808
 20
977.1263675188819
 30
0.0
 40
4.5
100
AcDbArc
 50
90.0
 51
270.0
  0
LINE
  5
5DA1
330
1F
100
AcDbEntity
  8
太線
100
AcDbLine
 10
394.8125459663808
 20
1017.126367518881
 30
0.0
 11
460.8125459663808
 21
1017.126367518881
 31
0.0
  0
ARC
  5
5DA2
330
1F
100
AcDbEntity
  8
太線
100
AcDbCircle
 10
394.8125459663808
 20
1007.126367518882
 30
0.0
 40
10.0
100
AcDbArc
 50
90.0
 51
180.0
  0
ARC
  5
5DA3
330
1F
100
AcDbEntity
  8
太線
100
AcDbCircle
 10
460.8125459663808
 20
1007.126367518882
 30
0.0
 40
10.0
100
AcDbArc
 50
0.0
 51
90.0
  0
ARC
  5
5DA4
330
1F
100
AcDbEntity
  8
太線
100
AcDbCircle
 10
458.1078260278178
 20
966.7411092921895
 30
0.0
 40
13.46227939715074
100
AcDbArc
 50
290.2617654909258
 51
339.953020805332
  0
ARC
  5
5DA5
330
1F
100
AcDbEntity
  8
太線
100
AcDbCircle
 10
393.3277491031097
 20
962.3310333993488
 30
0.0
 40
8.575740627143373
100
AcDbArc
 50
181.3675325705321
 51
253.4195404704698
  0
LINE
  5
5DA6
330
1F
100
AcDbEntity
  8
太線
100
AcDbLine
 10
390.8805627299111
 20
954.1118724836065
 30
0.0
 11
462.769944022858
 21
954.1118724836065
 31
0.0
  0
LINE
  5
5DA7
330
1F
100
AcDbEntity
  8
想像線
100
AcDbLine
 10
384.7544510690152
 20
965.126367518882
 30
0.0
 11
470.7544510690151
 21
965.126367518882
 31
0.0
  0
LINE
  5
5DA8
330
1F
100
AcDbEntity
  8
太線
100
AcDbLine
 10
384.7544510690152
 20
962.1263675188821
 30
0.0
 11
470.7544510690151
 21
962.1263675188821
 31
0.0
  0
LINE
  5
5DA9
330
1F
100
AcDbEntity
  8
太線
100
AcDbLine
 10
384.8125459663808
 20
977.1263675188819
 30
0.0
 11
384.8125459663808
 21
962.1263675188821
 31
0.0
  0
LINE
  5
5DAA
330
1F
100
AcDbEntity
  8
太線
100
AcDbLine
 10
470.8125459663809
 20
976.4867081656703
 30
0.0
 11
470.7544510690151
 21
962.1263675188821
 31
0.0
  0
TEXT
  5
5DAB
330
1F
100
AcDbEntity
  8
文字
100
AcDbText
 10
399.3444736598176
 20
1032.475187404168
 30
0.0
 40
10.0
  1
30-ＱＳ-40-35
 51
15.0
  7
OKANO
100
AcDbText
  0
TEXT
  5
5DEB
330
1F
100
AcDbEntity
  8
文字
100
AcDbText
 10
189.7979518363135
 20
1033.857388384145
 30
0.0
 40
10.0
  1
30-ＱＷ-40-35
 51
15.0
  7
OKANO
100
AcDbText
  0
ARC
  5
5F4E
330
1F
100
AcDbEntity
  8
太線
100
AcDbCircle
 10
337.2360464832163
 20
914.3399995297425
 30
0.0
 40
4.0
100
AcDbArc
 50
0.0
 51
180.0
  0
LINE
  5
5F59
330
1F
100
AcDbEntity
  8
太線
100
AcDbLine
 10
341.2360464832163
 20
907.9410200441762
 30
0.0
 11
341.2360464832163
 21
872.9410200441762
 31
0.0
  0
LINE
  5
5F5A
330
1F
100
AcDbEntity
  8
太線
100
AcDbLine
 10
333.2360464832163
 20
907.9410200441763
 30
0.0
 11
333.2360464832163
 21
872.9410200441762
 31
0.0
  0
LINE
  5
5F5B
330
1F
100
AcDbEntity
  8
太線
100
AcDbLine
 10
333.2360464832163
 20
872.9410200441762
 30
0.0
 11
333.2360464832162
 21
823.3399995297423
 31
0.0
  0
LINE
  5
5F5C
330
1F
100
AcDbEntity
  8
太線
100
AcDbLine
 10
341.2360464832163
 20
823.3399995297423
 30
0.0
 11
341.2360464832163
 21
872.9410200441762
 31
0.0
  0
LINE
  5
5F83
330
1F
100
AcDbEntity
  8
太線
100
AcDbLine
 10
341.2360464832163
 20
911.3399995297426
 30
0.0
 11
341.2360464832163
 21
914.3399995297425
 31
0.0
  0
LINE
  5
5F84
330
1F
100
AcDbEntity
  8
太線
100
AcDbLine
 10
333.2360464832163
 20
911.3399995297426
 30
0.0
 11
333.2360464832163
 21
914.3399995297425
 31
0.0
  0
LINE
  5
5F85
330
1F
100
AcDbEntity
  8
太線
100
AcDbLine
 10
520.3007271552924
 20
911.3399995297426
 30
0.0
 11
520.3007271552924
 21
914.3399995297425
 31
0.0
  0
LINE
  5
5F86
330
1F
100
AcDbEntity
  8
太線
100
AcDbLine
 10
528.3007271552924
 20
911.3399995297426
 30
0.0
 11
528.3007271552924
 21
914.3399995297425
 31
0.0
  0
LINE
  5
5F8B
330
1F
100
AcDbEntity
  8
破線
100
AcDbLine
 10
331.2412979246867
 20
908.3399995297424
 30
0.0
 11
331.2412979246867
 21
873.3399995297425
 31
0.0
  0
LINE
  5
5F8E
330
1F
100
AcDbEntity
  8
破線
100
AcDbLine
 10
518.1183516110177
 20
908.3399995297424
 30
0.0
 11
518.1183516110177
 21
873.3399995297425
 31
0.0
  0
LINE
  5
5F8F
330
1F
100
AcDbEntity
  8
破線
100
AcDbLine
 10
518.1183516110177
 20
873.3399995297425
 30
0.0
 11
336.209529763495
 21
873.3399995297425
 31
0.0
  0
LINE
  5
5F90
330
1F
100
AcDbEntity
  8
破線
100
AcDbLine
 10
343.5000797225796
 20
873.3399995297425
 30
0.0
 11
343.5000797225796
 21
908.3399995297424
 31
0.0
  0
TEXT
  5
5F92
330
1F
100
AcDbEntity
  8
文字
100
AcDbText
 10
385.5679103009169
 20
932.3056882553792
 30
0.0
 40
5.0
  1
Φ7
 51
15.0
  7
OKANO
100
AcDbText
  0
LINE
  5
5FB6
330
1F
100
AcDbEntity
  8
想像線
100
AcDbLine
 10
460.8125459663808
 20
827.083479475694
 30
0.0
 11
460.8125459663808
 21
825.3792102045295
 31
0.0
  0
LINE
  5
5FC4
330
1F
100
AcDbEntity
  8
想像線
100
AcDbLine
 10
460.8125459663808
 20
907.8399995297425
 30
0.0
 11
460.8125459663808
 21
872.8399995297424
 31
0.0
  0
LINE
  5
5FC5
330
1F
100
AcDbEntity
  8
想像線
100
AcDbLine
 10
452.8125459663808
 20
907.8399995297425
 30
0.0
 11
452.8125459663808
 21
872.8399995297424
 31
0.0
  0
LINE
  5
5FC6
330
1F
100
AcDbEntity
  8
想像線
100
AcDbLine
 10
402.8125459663808
 20
907.8399995297424
 30
0.0
 11
402.8125459663808
 21
872.8399995297424
 31
0.0
  0
LINE
  5
5FC7
330
1F
100
AcDbEntity
  8
想像線
100
AcDbLine
 10
394.8125459663808
 20
907.8399995297425
 30
0.0
 11
394.8125459663808
 21
872.8399995297424
 31
0.0
  0
LINE
  5
5FC8
330
1F
100
AcDbEntity
  8
想像線
100
AcDbLine
 10
394.8125459663808
 20
911.3399995297426
 30
0.0
 11
394.8125459663808
 21
907.8399995297425
 31
0.0
  0
LINE
  5
5FC9
330
1F
100
AcDbEntity
  8
想像線
100
AcDbLine
 10
402.8125459663808
 20
908.3399995297424
 30
0.0
 11
402.8125459663808
 21
907.8399995297424
 31
0.0
  0
LINE
  5
5FCA
330
1F
100
AcDbEntity
  8
太線
100
AcDbLine
 10
405.8125459663808
 20
911.3399995297426
 30
0.0
 11
449.8125459663809
 21
911.3399995297426
 31
0.0
  0
LINE
  5
5FCB
330
1F
100
AcDbEntity
  8
太線
100
AcDbLine
 10
394.8125459663808
 20
913.3399995297423
 30
0.0
 11
394.8125459663808
 21
911.3399995297426
 31
0.0
  0
LINE
  5
5FCC
330
1F
100
AcDbEntity
  8
太線
100
AcDbLine
 10
399.8125459663808
 20
918.3399995297424
 30
0.0
 11
450.8125459663808
 21
918.3399995297424
 31
0.0
  0
ARC
  5
5FCD
330
1F
100
AcDbEntity
  8
想像線
100
AcDbCircle
 10
405.8125459663808
 20
908.3399995297424
 30
0.0
 40
3.0
100
AcDbArc
 50
90.0
 51
180.0
  0
ARC
  5
5FCE
330
1F
100
AcDbEntity
  8
太線
100
AcDbCircle
 10
399.8125459663808
 20
913.3399995297423
 30
0.0
 40
5.0
100
AcDbArc
 50
90.0
 51
180.0
  0
ARC
  5
5FCF
330
1F
100
AcDbEntity
  8
想像線
100
AcDbCircle
 10
449.8125459663809
 20
908.3399995297424
 30
0.0
 40
3.0
100
AcDbArc
 50
0.0
 51
90.0
  0
ARC
  5
5FD0
330
1F
100
AcDbEntity
  8
太線
100
AcDbCircle
 10
455.8125459663808
 20
913.3399995297423
 30
0.0
 40
5.0
100
AcDbArc
 50
0.0
 51
90.0
  0
LINE
  5
5FD1
330
1F
100
AcDbEntity
  8
太線
100
AcDbLine
 10
455.8125459663808
 20
918.3399995297424
 30
0.0
 11
450.8125459663808
 21
918.3399995297424
 31
0.0
  0
LINE
  5
5FD2
330
1F
100
AcDbEntity
  8
太線
100
AcDbLine
 10
460.8125459663808
 20
911.3399995297426
 30
0.0
 11
460.8125459663808
 21
913.3399995297423
 31
0.0
  0
LINE
  5
5FD3
330
1F
100
AcDbEntity
  8
想像線
100
AcDbLine
 10
460.8125459663808
 20
907.8399995297425
 30
0.0
 11
460.8125459663808
 21
911.3399995297426
 31
0.0
  0
LINE
  5
5FD4
330
1F
100
AcDbEntity
  8
想像線
100
AcDbLine
 10
452.8125459663808
 20
907.8399995297425
 30
0.0
 11
452.8125459663808
 21
908.3399995297424
 31
0.0
  0
DIMENSION
  5
5FD5
330
1F
100
AcDbEntity
  8
寸法線
100
AcDbDimension
  2
*D5
 10
398.8125459663809
 20
787.8874924159608
 30
0.0
 11
427.8125459663808
 21
791.3874924159609
 31
0.0
 70
    32
  1
60
 71
     5
 42
58.0
  3
sunpo
100
AcDbAlignedDimension
 13
456.8125459663808
 23
798.8399995297425
 33
0.0
 14
398.8125459663809
 24
798.8399995297425
 34
0.0
100
AcDbRotatedDimension
1001
ACAD
1000
DSTYLE
1002
{
1070
    40
1040
1.0
1002
}
  0
LINE
  5
5FD6
330
1F
100
AcDbEntity
  8
細線
100
AcDbLine
 10
460.8125459663808
 20
799.3399995297425
 30
0.0
 11
461.3125459663808
 21
800.3399995297424
 31
0.0
  0
LINE
  5
5FD7
330
1F
100
AcDbEntity
  8
細線
100
AcDbLine
 10
452.3125459663808
 20
800.3399995297424
 30
0.0
 11
452.8125459663808
 21
799.3399995297425
 31
0.0
  0
LINE
  5
5FD8
330
1F
100
AcDbEntity
  8
太線
100
AcDbLine
 10
460.8125459663808
 20
799.3399995297425
 30
0.0
 11
452.8125459663808
 21
799.3399995297425
 31
0.0
  0
LINE
  5
5FDB
330
1F
100
AcDbEntity
  8
太線
100
AcDbLine
 10
452.8125459663808
 20
872.8399995297424
 30
0.0
 11
452.8125459663808
 21
832.6777057238336
 31
0.0
  0
LINE
  5
5FDC
330
1F
100
AcDbEntity
  8
太線
100
AcDbLine
 10
460.8125459663808
 20
827.083479475694
 30
0.0
 11
460.8125459663808
 21
872.8399995297424
 31
0.0
  0
LINE
  5
5FE2
330
1F
100
AcDbEntity
  8
太線
100
AcDbLine
 10
452.3125459663809
 20
833.13386169379
 30
0.0
 11
452.3125459663808
 21
837.6995272631466
 31
0.0
  0
LINE
  5
5FE3
330
1F
100
AcDbEntity
  8
細線
100
AcDbLine
 10
452.3125459663808
 20
837.6995272631466
 30
0.0
 11
452.8125459663808
 21
839.6995272631466
 31
0.0
  0
LINE
  5
5FE4
330
1F
100
AcDbEntity
  8
太線
100
AcDbLine
 10
452.8125459663808
 20
839.6995272631466
 30
0.0
 11
460.8125459663808
 21
839.6995272631466
 31
0.0
  0
LINE
  5
5FE5
330
1F
100
AcDbEntity
  8
細線
100
AcDbLine
 10
460.8125459663808
 20
839.6995272631466
 30
0.0
 11
461.3125459663808
 21
837.6995272631466
 31
0.0
  0
LINE
  5
5FE6
330
1F
100
AcDbEntity
  8
太線
100
AcDbLine
 10
461.3125459663808
 20
837.6995272631466
 30
0.0
 11
461.3125459663808
 21
824.9230542345731
 31
0.0
  0
LINE
  5
5FE8
330
1F
100
AcDbEntity
  8
太線
100
AcDbLine
 10
452.8125459663808
 20
800.3399995297424
 30
0.0
 11
452.8125459663809
 21
806.1804088770415
 31
0.0
  0
LINE
  5
5FE9
330
1F
100
AcDbEntity
  8
太線
100
AcDbLine
 10
460.8125459663808
 20
800.3399995297424
 30
0.0
 11
460.8125459663808
 21
806.1804088770415
 31
0.0
  0
LINE
  5
5FEC
330
1F
100
AcDbEntity
  8
細線
100
AcDbLine
 10
452.3125459663808
 20
800.3399995297426
 30
0.0
 11
452.3125459663808
 21
806.1804088770415
 31
0.0
  0
LINE
  5
5FED
330
1F
100
AcDbEntity
  8
細線
100
AcDbLine
 10
461.3125459663808
 20
800.3399995297426
 30
0.0
 11
461.3125459663808
 21
806.1804088770415
 31
0.0
  0
LINE
  5
5FEE
330
1F
100
AcDbEntity
  8
細線
100
AcDbLine
 10
452.3125459663808
 20
800.3399995297424
 30
0.0
 11
461.3125459663808
 21
800.3399995297424
 31
0.0
  0
ARC
  5
5FF0
330
1F
100
AcDbEntity
  8
太線
100
AcDbCircle
 10
427.8125459663808
 20
846.4756057231216
 30
0.0
 40
23.2796974685795
100
AcDbArc
 50
210.7486871587841
 51
329.2513128412158
  0
CIRCLE
  5
5FFE
330
1F
100
AcDbEntity
  8
破線
100
AcDbCircle
 10
427.8125459663808
 20
848.195908254542
 30
0.0
 40
24.5
  0
LINE
  5
5FFF
330
1F
100
AcDbEntity
  8
破線
100
AcDbLine
 10
463.8125459663808
 20
907.8399995297425
 30
0.0
 11
463.8125459663808
 21
911.3399995297426
 31
0.0
  0
LINE
  5
6000
330
1F
100
AcDbEntity
  8
破線
100
AcDbLine
 10
391.8125459663808
 20
911.3399995297426
 30
0.0
 11
391.8125459663808
 21
907.8399995297425
 31
0.0
  0
ARC
  5
6001
330
1F
100
AcDbEntity
  8
太線
100
AcDbCircle
 10
469.8125459663808
 20
910.3399995297424
 30
0.0
 40
1.0
100
AcDbArc
 50
0.0
 51
90.00000000000003
  0
ARC
  5
6002
330
1F
100
AcDbEntity
  8
太線
100
AcDbCircle
 10
385.8125459663809
 20
910.3399995297424
 30
0.0
 40
1.0
100
AcDbArc
 50
90.00000000000003
 51
180.0
  0
ARC
  5
6003
330
1F
100
AcDbEntity
  8
太線
100
AcDbCircle
 10
469.8125459663808
 20
908.8399995297425
 30
0.0
 40
1.0
100
AcDbArc
 50
269.9999999999999
 51
0.0
  0
ARC
  5
6004
330
1F
100
AcDbEntity
  8
太線
100
AcDbCircle
 10
385.8125459663808
 20
908.8399995297425
 30
0.0
 40
1.0
100
AcDbArc
 50
180.0
 51
270.0
  0
LINE
  5
6005
330
1F
100
AcDbEntity
  8
太線
100
AcDbLine
 10
470.8125459663809
 20
908.8399995297425
 30
0.0
 11
470.8125459663808
 21
910.3399995297424
 31
0.0
  0
LINE
  5
6006
330
1F
100
AcDbEntity
  8
太線
100
AcDbLine
 10
384.8125459663808
 20
908.8399995297425
 30
0.0
 11
384.8125459663809
 21
910.3399995297424
 31
0.0
  0
LINE
  5
6007
330
1F
100
AcDbEntity
  8
太線
100
AcDbLine
 10
469.8125459663808
 20
911.3399995297426
 30
0.0
 11
385.8125459663809
 21
911.3399995297426
 31
0.0
  0
LINE
  5
6008
330
1F
100
AcDbEntity
  8
太線
100
AcDbLine
 10
385.8125459663808
 20
907.8399995297425
 30
0.0
 11
469.8125459663808
 21
907.8399995297425
 31
0.0
  0
TEXT
  5
6009
330
1F
100
AcDbEntity
  8
文字
100
AcDbText
 10
408.8610305055567
 20
885.0102224951843
 30
0.0
 40
5.0
  1
ソーラーパネル
 51
15.0
  7
OKANO
100
AcDbText
  0
LEADER
  5
601F
330
1F
100
AcDbEntity
  8
寸法線
100
AcDbLeader
  3
sunpo
 76
     2
 10
413.3175682372529
 20
916.0901745471056
 30
0.0
 10
391.6623490726924
 20
929.8913096827455
 30
0.0
1001
ACAD
1000
DSTYLE
1002
{
1070
   147
1040
1.0
1070
    77
1070
     0
1002
}
  0
LEADER
  5
6020
330
1F
100
AcDbEntity
  8
寸法線
100
AcDbLeader
  3
sunpo
 76
     2
 10
457.9320732163032
 20
804.4565707492292
 30
0.0
 10
487.7988946142722
 20
767.8625388708606
 30
0.0
1001
ACAD
1000
DSTYLE
1002
{
1070
   147
1040
1.0
1070
    77
1070
     0
1002
}
  0
LINE
  5
6056
330
1F
100
AcDbEntity
  8
構築線
100
AcDbLine
 10
534.3007271552924
 20
829.5733157866383
 30
0.0
 11
534.3007271552924
 21
832.5733157866384
 31
0.0
  0
LINE
  5
6058
330
1F
100
AcDbEntity
  8
想像線
100
AcDbLine
 10
521.2309431265459
 20
806.0162063749741
 30
0.0
 11
521.2309431265457
 21
801.6172268894075
 31
0.0
  0
LINE
  5
6059
330
1F
100
AcDbEntity
  8
太線
100
AcDbLine
 10
521.2309431265459
 20
806.0162063749741
 30
0.0
 11
521.2309431265457
 21
801.6172268894075
 31
0.0
  0
LINE
  5
605D
330
1F
100
AcDbEntity
  8
細線
100
AcDbLine
 10
529.2309431265457
 20
800.6172268894074
 30
0.0
 11
529.7309431265457
 21
801.6172268894074
 31
0.0
  0
LINE
  5
605E
330
1F
100
AcDbEntity
  8
細線
100
AcDbLine
 10
520.7309431265457
 20
801.6172268894074
 30
0.0
 11
521.2309431265457
 21
800.6172268894074
 31
0.0
  0
LINE
  5
605F
330
1F
100
AcDbEntity
  8
太線
100
AcDbLine
 10
529.2309431265457
 20
800.6172268894074
 30
0.0
 11
521.2309431265457
 21
800.6172268894074
 31
0.0
  0
LINE
  5
6060
330
1F
100
AcDbEntity
  8
太線
100
AcDbLine
 10
520.7309431265457
 20
801.6172268894074
 30
0.0
 11
529.7309431265457
 21
801.6172268894074
 31
0.0
  0
LINE
  5
6061
330
1F
100
AcDbEntity
  8
太線
100
AcDbLine
 10
529.7309431265457
 20
801.6172268894077
 30
0.0
 11
529.7309431265457
 21
806.0162063749741
 31
0.0
  0
LINE
  5
6062
330
1F
100
AcDbEntity
  8
太線
100
AcDbLine
 10
520.7309431265457
 20
801.6172268894075
 30
0.0
 11
520.7309431265457
 21
806.0162063749741
 31
0.0
  0
LINE
  5
6063
330
1F
100
AcDbEntity
  8
太線
100
AcDbLine
 10
529.2309431265457
 20
801.6172268894075
 30
0.0
 11
529.2309431265457
 21
806.0162063749741
 31
0.0
  0
LINE
  5
6064
330
1F
100
AcDbEntity
  8
太線
100
AcDbLine
 10
519.8007271552923
 20
835.8005477775803
 30
0.0
 11
519.8007271552923
 21
815.8399995297425
 31
0.0
  0
LINE
  5
6065
330
1F
100
AcDbEntity
  8
細線
100
AcDbLine
 10
520.3007271552924
 20
839.8005477775804
 30
0.0
 11
519.8007271552923
 21
837.8005477775804
 31
0.0
  0
LINE
  5
6066
330
1F
100
AcDbEntity
  8
太線
100
AcDbLine
 10
528.3007271552924
 20
839.8005477775804
 30
0.0
 11
520.3007271552924
 21
839.8005477775804
 31
0.0
  0
LINE
  5
6067
330
1F
100
AcDbEntity
  8
太線
100
AcDbLine
 10
528.8007271552924
 20
837.8005477775804
 30
0.0
 11
528.3007271552924
 21
839.8005477775804
 31
0.0
  0
LINE
  5
6068
330
1F
100
AcDbEntity
  8
太線
100
AcDbLine
 10
528.8007271552926
 20
815.8399995297425
 30
0.0
 11
528.8007271552924
 21
835.8005477775805
 31
0.0
  0
LINE
  5
6069
330
1F
100
AcDbEntity
  8
太線
100
AcDbLine
 10
520.3007271552924
 20
839.8005477775804
 30
0.0
 11
520.3007271552924
 21
834.5733157866384
 31
0.0
  0
LINE
  5
606A
330
1F
100
AcDbEntity
  8
想像線
100
AcDbLine
 10
520.3007271552924
 20
839.8005477775804
 30
0.0
 11
520.3007271552924
 21
834.5733157866384
 31
0.0
  0
LINE
  5
606D
330
1F
100
AcDbEntity
  8
太線
100
AcDbLine
 10
517.8188570712893
 20
807.1172268894073
 30
0.0
 11
517.9607147121152
 21
807.1172268894073
 31
0.0
  0
LINE
  5
606F
330
1F
100
AcDbEntity
  8
破線
100
AcDbLine
 10
325.3112425973763
 20
823.3399995297425
 30
0.0
 11
305.9443932454735
 21
823.3399995297425
 31
0.0
  0
LINE
  5
6071
330
1F
100
AcDbEntity
  8
破線
100
AcDbLine
 10
331.2412979246867
 20
873.3399995297425
 30
0.0
 11
305.9443932454735
 21
873.3399995297425
 31
0.0
  0
LINE
  5
6073
330
1F
100
AcDbEntity
  8
破線
100
AcDbLine
 10
305.9443932454735
 20
871.7357998689113
 30
0.0
 11
333.2360464832163
 21
871.7357998689113
 31
0.0
  0
LINE
  5
6074
330
1F
100
AcDbEntity
  8
破線
100
AcDbLine
 10
341.2360464832163
 20
871.7357998689113
 30
0.0
 11
381.6838327434664
 21
871.7357998689113
 31
0.0
  0
LINE
  5
6075
330
1F
100
AcDbEntity
  8
破線
100
AcDbLine
 10
347.2360464832163
 20
823.3399995297425
 30
0.0
 11
347.8112425973762
 21
823.3399995297425
 31
0.0
  0
ARC
  5
6076
330
1F
100
AcDbEntity
  8
破線
100
AcDbCircle
 10
335.9076721529464
 20
835.3037335349403
 30
0.0
 40
32.26343153221832
100
AcDbArc
 50
159.0805330045533
 51
201.7658311696099
  0
ARC
  5
6077
330
1F
100
AcDbEntity
  8
破線
100
AcDbCircle
 10
294.4074521340795
 20
859.2427919553433
 30
0.0
 40
17.00518323736129
100
AcDbArc
 50
311.3418335518356
 51
47.27839501028782
  0
ARC
  5
6078
330
1F
100
AcDbEntity
  8
破線
100
AcDbCircle
 10
326.4767489726862
 20
858.8566340333436
 30
0.0
 40
24.23737907301136
100
AcDbArc
 50
147.9015151908757
 51
210.7187133712467
  0
ARC
  5
6079
330
1F
100
AcDbEntity
  8
破線
100
AcDbCircle
 10
325.7885241000566
 20
857.7983198180087
 30
0.0
 40
21.08650945674944
100
AcDbArc
 50
148.1400720497831
 51
205.9293802481058
  0
ARC
  5
607A
330
1F
100
AcDbEntity
  8
破線
100
AcDbCircle
 10
371.3178873008009
 20
859.1057027960165
 30
0.0
 40
16.33928324594025
100
AcDbArc
 50
309.3768775352742
 51
50.62312246472567
  0
ARC
  5
607B
330
1F
100
AcDbEntity
  8
破線
100
AcDbCircle
 10
391.5499396789915
 20
834.907802626432
 30
0.0
 40
15.2037539623278
100
AcDbArc
 50
130.4606543981836
 51
229.5393456018163
  0
ARC
  5
607C
330
1F
100
AcDbEntity
  8
破線
100
AcDbCircle
 10
369.2098158735917
 20
834.907802626432
 30
0.0
 40
17.0122063634821
100
AcDbArc
 50
317.1586408826422
 51
42.84135911735722
  0
ARC
  5
607D
330
1F
100
AcDbEntity
  8
破線
100
AcDbCircle
 10
368.611805992129
 20
835.2842215157949
 30
0.0
 40
15.25296799368536
100
AcDbArc
 50
319.7068012469318
 51
38.20768649586063
  0
LINE
  5
6095
330
1F
100
AcDbEntity
  8
破線
100
AcDbLine
 10
518.1183516110177
 20
871.7357998689113
 30
0.0
 11
480.733456914565
 21
871.7357998689113
 31
0.0
  0
LINE
  5
6096
330
1F
100
AcDbEntity
  8
破線
100
AcDbLine
 10
512.1580704178732
 20
823.3399995297427
 30
0.0
 11
480.733456914565
 21
823.3399995297425
 31
0.0
  0
LINE
  5
6097
330
1F
100
AcDbEntity
  8
破線
100
AcDbLine
 10
528.3007271552924
 20
871.7357998689113
 30
0.0
 11
562.5217850466724
 21
871.7357998689111
 31
0.0
  0
LINE
  5
6098
330
1F
100
AcDbEntity
  8
破線
100
AcDbLine
 10
534.3007271552924
 20
823.3399995297425
 30
0.0
 11
534.6580704178733
 21
823.3399995297427
 31
0.0
  0
ARC
  5
6099
330
1F
100
AcDbEntity
  8
破線
100
AcDbCircle
 10
499.1771301267662
 20
834.7537812639263
 30
0.0
 40
21.68970942714666
100
AcDbArc
 50
149.4960451344054
 51
211.7511016726787
  0
ARC
  5
609A
330
1F
100
AcDbEntity
  8
破線
100
AcDbCircle
 10
458.7991709858763
 20
858.9545773082603
 30
0.0
 40
25.38646390000696
100
AcDbArc
 50
328.6936782097743
 51
30.22957781478023
  0
ARC
  5
609B
330
1F
100
AcDbEntity
  8
破線
100
AcDbCircle
 10
480.7334569145647
 20
871.7357998689109
 30
0.0
 40
0.000000000000364
100
AcDbArc
 50
38.65774614320865
 51
338.1985905136482
  0
ARC
  5
609C
330
1F
100
AcDbEntity
  8
破線
100
AcDbCircle
 10
500.506186066564
 20
858.6304523794238
 30
0.0
 40
23.72152927065439
100
AcDbArc
 50
146.463617723158
 51
210.7508407704295
  0
ARC
  5
609D
330
1F
100
AcDbEntity
  8
破線
100
AcDbCircle
 10
515.2486955351784
 20
858.2066877012259
 30
0.0
 40
34.90328502184022
100
AcDbArc
 50
163.2431606761428
 51
196.7568393238575
  0
LINE
  5
609F
330
1F
100
AcDbEntity
  8
破線
100
AcDbLine
 10
562.5217850466724
 20
871.7357998689113
 30
0.0
 11
562.5217850466724
 21
823.3399995297425
 31
0.0
  0
TEXT
  5
6144
330
1F
100
AcDbEntity
  8
文字
100
AcDbText
 10
488.7927999686216
 20
843.6992620297823
 30
0.0
 40
10.0
  1
単管
 51
15.0
  7
OKANO
100
AcDbText
  0
TEXT
  5
614C
330
1F
100
AcDbEntity
  8
文字
100
AcDbText
 10
187.4908171045826
 20
1055.973535968514
 30
0.0
 40
10.0
  1
中間押さえ40mm用
 51
15.0
  7
OKANO
100
AcDbText
  0
TEXT
  5
6154
330
1F
100
AcDbEntity
  8
文字
100
AcDbText
 10
399.3444736598176
 20
1057.35573694852
 30
0.0
 40
10.0
  1
端用押さえ40mm用
 51
15.0
  7
OKANO
100
AcDbText
  0
XLINE
  5
631E
330
1F
100
AcDbEntity
  8
構築線
100
AcDbXline
 10
665.0000521970512
 20
714.7137583323929
 30
0.0
 11
-0.0000003473175631
 21
0.9999999999999397
 31
0.0
  0
XLINE
  5
6321
330
1F
100
AcDbEntity
  8
構築線
100
AcDbXline
 10
936.0792791620777
 20
702.2137583323929
 30
0.0
 11
0.0
 21
-1.0
 31
0.0
  0
XLINE
  5
6322
330
1F
100
AcDbEntity
  8
構築線
100
AcDbXline
 10
708.0000521970486
 20
714.713773267048
 30
0.0
 11
-0.0000003473175631
 21
0.9999999999999397
 31
0.0
  0
XLINE
  5
6323
330
1F
100
AcDbEntity
  8
構築線
100
AcDbXline
 10
893.0792791620776
 20
702.2137583323929
 30
0.0
 11
0.0
 21
-1.0
 31
0.0
  0
LINE
  5
6340
330
1F
100
AcDbEntity
  8
想像線
100
AcDbLine
 10
470.8385872748749
 20
816.2323330087298
 30
0.0
 11
384.839174974451
 21
815.9143959368062
 31
0.0
  0
LINE
  5
6341
330
1F
100
AcDbEntity
  8
太線
100
AcDbLine
 10
470.8478296316169
 20
813.7323500930198
 30
0.0
 11
469.8478364653328
 21
813.728653150323
 31
0.0
  0
LINE
  5
6342
330
1F
100
AcDbEntity
  8
太線
100
AcDbLine
 10
470.8385872748749
 20
816.2323330087298
 30
0.0
 11
470.8478296316169
 21
813.7323500930198
 31
0.0
  0
LINE
  5
6343
330
1F
100
AcDbEntity
  8
太線
100
AcDbLine
 10
450.2690705633596
 20
834.9981487028848
 30
0.0
 11
470.8385872748749
 21
816.2323330087298
 31
0.0
  0
LINE
  5
6344
330
1F
100
AcDbEntity
  8
太線
100
AcDbLine
 10
384.839174974451
 20
815.9143959368062
 30
0.0
 11
404.7693814974377
 21
834.829937810181
 31
0.0
  0
LINE
  5
6345
330
1F
100
AcDbEntity
  8
太線
100
AcDbLine
 10
384.848417331193
 20
813.4144130210961
 30
0.0
 11
384.839174974451
 21
815.9143959368062
 31
0.0
  0
LINE
  5
6346
330
1F
100
AcDbEntity
  8
太線
100
AcDbLine
 10
407.5629819958813
 20
834.840265661719
 30
0.0
 11
404.7693814974377
 21
834.829937810181
 31
0.0
  0
LINE
  5
6347
330
1F
100
AcDbEntity
  8
太線
100
AcDbLine
 10
450.2690705633596
 20
834.9981487028848
 30
0.0
 11
447.9754666480581
 21
834.989669322695
 31
0.0
  0
ARC
  5
6348
330
1F
100
AcDbEntity
  8
太線
100
AcDbCircle
 10
427.7264856009167
 20
846.4754466486361
 30
0.0
 40
23.2796974685795
100
AcDbArc
 50
209.9867354356142
 51
330.4369039566517
  0
LINE
  5
6349
330
1F
100
AcDbEntity
  8
太線
100
AcDbLine
 10
469.8478364653328
 20
813.728653150323
 30
0.0
 11
385.848410497477
 21
813.4181099637929
 31
0.0
  0
XLINE
  5
634E
330
1F
100
AcDbEntity
  8
構築線
100
AcDbXline
 10
524.6221990530612
 20
823.2305354893615
 30
0.0
 11
0.0
 21
1.0
 31
0.0
  0
LINE
  5
636F
330
1F
100
AcDbEntity
  8
構築線
100
AcDbLine
 10
528.8007271552926
 20
821.3399995297423
 30
0.0
 11
528.8007271552924
 21
811.3399995297424
 31
0.0
  0
ARC
  5
6376
330
1F
100
AcDbEntity
  8
太線
100
AcDbCircle
 10
532.0524150243145
 20
807.0162063749739
 30
0.0
 40
1.0
100
AcDbArc
 50
270.0
 51
0.0
  0
ARC
  5
6377
330
1F
100
AcDbEntity
  8
太線
100
AcDbCircle
 10
519.0524150243146
 20
807.0162063749739
 30
0.0
 40
1.0
100
AcDbArc
 50
180.0
 51
270.0
  0
ARC
  5
637A
330
1F
100
AcDbEntity
  8
太線
100
AcDbCircle
 10
531.3024150243145
 20
808.0445199448659
 30
0.0
 40
2.029760773594802
100
AcDbArc
 50
210.4388252364164
 51
329.5611747635835
  0
ARC
  5
637B
330
1F
100
AcDbEntity
  8
太線
100
AcDbCircle
 10
519.8024150243145
 20
807.9545154865977
 30
0.0
 40
1.985679729703703
100
AcDbArc
 50
208.1991695866887
 51
331.8008304133112
  0
ARC
  5
637C
330
1F
100
AcDbEntity
  8
太線
100
AcDbCircle
 10
525.5524150243145
 20
814.5162063749737
 30
0.0
 40
8.499999999999836
100
AcDbArc
 50
241.9275130641455
 51
298.0724869358544
  0
LINE
  5
637D
330
1F
100
AcDbEntity
  8
太線
100
AcDbLine
 10
529.5524150243145
 20
807.0162063749739
 30
0.0
 11
529.5524150243145
 21
812.016206374974
 31
0.0
  0
LINE
  5
637E
330
1F
100
AcDbEntity
  8
太線
100
AcDbLine
 10
521.5524150243145
 20
807.0162063749739
 30
0.0
 11
521.5524150243145
 21
812.016206374974
 31
0.0
  0
LINE
  5
637F
330
1F
100
AcDbEntity
  8
太線
100
AcDbLine
 10
518.0524150243145
 20
812.016206374974
 30
0.0
 11
533.0524150243145
 21
812.016206374974
 31
0.0
  0
LINE
  5
6381
330
1F
100
AcDbEntity
  8
太線
100
AcDbLine
 10
533.0524150243145
 20
812.016206374974
 30
0.0
 11
533.1942726651403
 21
812.016206374974
 31
0.0
  0
LINE
  5
6382
330
1F
100
AcDbEntity
  8
太線
100
AcDbLine
 10
533.0524150243145
 20
807.0162063749739
 30
0.0
 11
533.0524150243145
 21
812.016206374974
 31
0.0
  0
LINE
  5
6383
330
1F
100
AcDbEntity
  8
太線
100
AcDbLine
 10
519.0524150243146
 20
806.0162063749739
 30
0.0
 11
532.0524150243145
 21
806.0162063749739
 31
0.0
  0
LINE
  5
6384
330
1F
100
AcDbEntity
  8
太線
100
AcDbLine
 10
518.0524150243145
 20
812.016206374974
 30
0.0
 11
518.0524150243146
 21
807.0162063749739
 31
0.0
  0
LINE
  5
6385
330
1F
100
AcDbEntity
  8
太線
100
AcDbLine
 10
517.9105573834887
 20
812.016206374974
 30
0.0
 11
518.0524150243145
 21
812.016206374974
 31
0.0
  0
XLINE
  5
6388
330
1F
100
AcDbEntity
  8
構築線
100
AcDbXline
 10
456.7981498592416
 20
813.5705982467042
 30
0.0
 11
0.0
 21
-1.0
 31
0.0
  0
XLINE
  5
6389
330
1F
100
AcDbEntity
  8
構築線
100
AcDbXline
 10
399.0405919463956
 20
812.0051848121219
 30
0.0
 11
0.0
 21
-1.0
 31
0.0
  0
ARC
  5
638A
330
1F
100
AcDbEntity
  8
太線
100
AcDbCircle
 10
464.0724429721306
 20
807.1804088770416
 30
0.0
 40
1.0
100
AcDbArc
 50
270.0
 51
0.0
  0
ARC
  5
638B
330
1F
100
AcDbEntity
  8
太線
100
AcDbCircle
 10
451.0724429721307
 20
807.1804088770416
 30
0.0
 40
1.0
100
AcDbArc
 50
180.0
 51
270.0
  0
ARC
  5
638C
330
1F
100
AcDbEntity
  8
太線
100
AcDbCircle
 10
465.2143006129564
 20
813.1804088770415
 30
0.0
 40
1.0
100
AcDbArc
 50
270.0
 51
0.0
  0
ARC
  5
638D
330
1F
100
AcDbEntity
  8
太線
100
AcDbCircle
 10
449.9305853313049
 20
813.1804088770415
 30
0.0
 40
1.0
100
AcDbArc
 50
180.0
 51
270.0
  0
ARC
  5
638E
330
1F
100
AcDbEntity
  8
太線
100
AcDbCircle
 10
463.3224429721305
 20
808.2087224469336
 30
0.0
 40
2.029760773594802
100
AcDbArc
 50
210.4388252364164
 51
329.5611747635835
  0
ARC
  5
638F
330
1F
100
AcDbEntity
  8
太線
100
AcDbCircle
 10
451.8224429721306
 20
808.1187179886653
 30
0.0
 40
1.985679729703703
100
AcDbArc
 50
208.1991695866887
 51
331.8008304133112
  0
ARC
  5
6390
330
1F
100
AcDbEntity
  8
太線
100
AcDbCircle
 10
457.5724429721305
 20
814.6804088770414
 30
0.0
 40
8.499999999999836
100
AcDbArc
 50
241.9275130641455
 51
298.0724869358544
  0
LINE
  5
6391
330
1F
100
AcDbEntity
  8
太線
100
AcDbLine
 10
461.5724429721305
 20
807.1804088770416
 30
0.0
 11
461.5724429721305
 21
812.1804088770415
 31
0.0
  0
LINE
  5
6392
330
1F
100
AcDbEntity
  8
太線
100
AcDbLine
 10
453.5724429721305
 20
807.1804088770416
 30
0.0
 11
453.5724429721305
 21
812.1804088770415
 31
0.0
  0
LINE
  5
6393
330
1F
100
AcDbEntity
  8
太線
100
AcDbLine
 10
450.0724429721306
 20
812.1804088770415
 30
0.0
 11
465.0724429721305
 21
812.1804088770415
 31
0.0
  0
LINE
  5
6394
330
1F
100
AcDbEntity
  8
太線
100
AcDbLine
 10
466.2143006129564
 20
813.1804088770415
 30
0.0
 11
466.2143006129564
 21
813.6804088770416
 31
0.0
  0
LINE
  5
6395
330
1F
100
AcDbEntity
  8
太線
100
AcDbLine
 10
465.0724429721305
 20
812.1804088770415
 30
0.0
 11
465.2143006129564
 21
812.1804088770415
 31
0.0
  0
LINE
  5
6396
330
1F
100
AcDbEntity
  8
太線
100
AcDbLine
 10
465.0724429721305
 20
807.1804088770416
 30
0.0
 11
465.0724429721305
 21
812.1804088770415
 31
0.0
  0
LINE
  5
6397
330
1F
100
AcDbEntity
  8
太線
100
AcDbLine
 10
451.0724429721307
 20
806.1804088770415
 30
0.0
 11
464.0724429721306
 21
806.1804088770415
 31
0.0
  0
LINE
  5
6398
330
1F
100
AcDbEntity
  8
太線
100
AcDbLine
 10
450.0724429721306
 20
812.1804088770415
 30
0.0
 11
450.0724429721307
 21
807.1804088770416
 31
0.0
  0
LINE
  5
6399
330
1F
100
AcDbEntity
  8
太線
100
AcDbLine
 10
449.9305853313047
 20
812.1804088770415
 30
0.0
 11
450.0724429721306
 21
812.1804088770415
 31
0.0
  0
LINE
  5
639A
330
1F
100
AcDbEntity
  8
太線
100
AcDbLine
 10
448.9305853313047
 20
813.6804088770416
 30
0.0
 11
448.9305853313047
 21
813.1804088770415
 31
0.0
  0
LINE
  5
639B
330
1F
100
AcDbEntity
  8
太線
100
AcDbLine
 10
448.9305853313047
 20
813.6804088770416
 30
0.0
 11
466.2143006129564
 21
813.6804088770416
 31
0.0
  0
LINE
  5
639D
330
1F
100
AcDbEntity
  8
太線
100
AcDbLine
 10
391.1730274184586
 20
813.14251351186
 30
0.0
 11
391.1730274184586
 21
812.64251351186
 31
0.0
  0
LINE
  5
639E
330
1F
100
AcDbEntity
  8
太線
100
AcDbLine
 10
392.1730274184586
 20
811.64251351186
 30
0.0
 11
392.3148850592845
 21
811.64251351186
 31
0.0
  0
LINE
  5
639F
330
1F
100
AcDbEntity
  8
太線
100
AcDbLine
 10
392.3148850592845
 20
811.64251351186
 30
0.0
 11
392.3148850592846
 21
806.6425135118599
 31
0.0
  0
LINE
  5
63A0
330
1F
100
AcDbEntity
  8
太線
100
AcDbLine
 10
393.3148850592846
 20
805.6425135118599
 30
0.0
 11
406.3148850592845
 21
805.6425135118599
 31
0.0
  0
LINE
  5
63A1
330
1F
100
AcDbEntity
  8
太線
100
AcDbLine
 10
407.3148850592844
 20
806.6425135118599
 30
0.0
 11
407.3148850592844
 21
811.64251351186
 31
0.0
  0
LINE
  5
63A2
330
1F
100
AcDbEntity
  8
太線
100
AcDbLine
 10
407.3148850592844
 20
811.64251351186
 30
0.0
 11
407.4567427001103
 21
811.64251351186
 31
0.0
  0
LINE
  5
63A3
330
1F
100
AcDbEntity
  8
太線
100
AcDbLine
 10
408.4567427001103
 20
812.64251351186
 30
0.0
 11
408.4567427001103
 21
813.14251351186
 31
0.0
  0
LINE
  5
63A4
330
1F
100
AcDbEntity
  8
太線
100
AcDbLine
 10
392.3148850592845
 20
811.64251351186
 30
0.0
 11
407.3148850592844
 21
811.64251351186
 31
0.0
  0
LINE
  5
63A5
330
1F
100
AcDbEntity
  8
太線
100
AcDbLine
 10
395.8148850592845
 20
806.6425135118599
 30
0.0
 11
395.8148850592845
 21
811.64251351186
 31
0.0
  0
LINE
  5
63A6
330
1F
100
AcDbEntity
  8
太線
100
AcDbLine
 10
403.8148850592845
 20
806.6425135118599
 30
0.0
 11
403.8148850592845
 21
811.64251351186
 31
0.0
  0
ARC
  5
63A7
330
1F
100
AcDbEntity
  8
太線
100
AcDbCircle
 10
399.8148850592844
 20
814.1425135118597
 30
0.0
 40
8.499999999999836
100
AcDbArc
 50
241.9275130641455
 51
298.0724869358544
  0
ARC
  5
63A8
330
1F
100
AcDbEntity
  8
太線
100
AcDbCircle
 10
394.0648850592845
 20
807.5808226234837
 30
0.0
 40
1.985679729703703
100
AcDbArc
 50
208.1991695866887
 51
331.8008304133112
  0
ARC
  5
63A9
330
1F
100
AcDbEntity
  8
太線
100
AcDbCircle
 10
405.5648850592844
 20
807.6708270817519
 30
0.0
 40
2.029760773594802
100
AcDbArc
 50
210.4388252364164
 51
329.5611747635835
  0
ARC
  5
63AA
330
1F
100
AcDbEntity
  8
太線
100
AcDbCircle
 10
392.1730274184588
 20
812.64251351186
 30
0.0
 40
1.0
100
AcDbArc
 50
180.0
 51
270.0
  0
ARC
  5
63AB
330
1F
100
AcDbEntity
  8
太線
100
AcDbCircle
 10
407.4567427001103
 20
812.64251351186
 30
0.0
 40
1.0
100
AcDbArc
 50
270.0
 51
0.0
  0
ARC
  5
63AC
330
1F
100
AcDbEntity
  8
太線
100
AcDbCircle
 10
393.3148850592846
 20
806.6425135118599
 30
0.0
 40
1.0
100
AcDbArc
 50
180.0
 51
270.0
  0
ARC
  5
63AD
330
1F
100
AcDbEntity
  8
太線
100
AcDbCircle
 10
406.3148850592845
 20
806.6425135118599
 30
0.0
 40
1.0
100
AcDbArc
 50
270.0
 51
0.0
  0
LINE
  5
63B1
330
1F
100
AcDbEntity
  8
細線
100
AcDbLine
 10
394.5549880535347
 20
799.8021041645609
 30
0.0
 11
403.5549880535347
 21
799.8021041645609
 31
0.0
  0
LINE
  5
63B2
330
1F
100
AcDbEntity
  8
細線
100
AcDbLine
 10
403.5549880535347
 20
799.802104164561
 30
0.0
 11
403.5549880535347
 21
805.6425135118599
 31
0.0
  0
LINE
  5
63B3
330
1F
100
AcDbEntity
  8
細線
100
AcDbLine
 10
394.5549880535347
 20
799.802104164561
 30
0.0
 11
394.5549880535347
 21
805.6425135118599
 31
0.0
  0
LINE
  5
63B4
330
1F
100
AcDbEntity
  8
太線
100
AcDbLine
 10
403.0549880535347
 20
799.8021041645609
 30
0.0
 11
403.0549880535347
 21
805.6425135118599
 31
0.0
  0
LINE
  5
63B5
330
1F
100
AcDbEntity
  8
太線
100
AcDbLine
 10
395.0549880535347
 20
799.8021041645609
 30
0.0
 11
395.0549880535348
 21
805.6425135118599
 31
0.0
  0
LINE
  5
63B6
330
1F
100
AcDbEntity
  8
太線
100
AcDbLine
 10
403.5549880535347
 20
837.6995272631466
 30
0.0
 11
403.5549880535347
 21
833.6773702232669
 31
0.0
  0
LINE
  5
63B7
330
1F
100
AcDbEntity
  8
細線
100
AcDbLine
 10
403.0549880535347
 20
839.6995272631466
 30
0.0
 11
403.5549880535347
 21
837.6995272631466
 31
0.0
  0
LINE
  5
63B8
330
1F
100
AcDbEntity
  8
太線
100
AcDbLine
 10
395.0549880535347
 20
839.6995272631466
 30
0.0
 11
403.0549880535347
 21
839.6995272631466
 31
0.0
  0
LINE
  5
63B9
330
1F
100
AcDbEntity
  8
細線
100
AcDbLine
 10
394.5549880535347
 20
837.6995272631466
 30
0.0
 11
395.0549880535347
 21
839.6995272631466
 31
0.0
  0
LINE
  5
63BA
330
1F
100
AcDbEntity
  8
太線
100
AcDbLine
 10
394.5549880535347
 20
825.1355682773601
 30
0.0
 11
394.5549880535347
 21
837.6995272631466
 31
0.0
  0
LINE
  5
63BB
330
1F
100
AcDbEntity
  8
太線
100
AcDbLine
 10
403.0549880535347
 20
833.2028256707165
 30
0.0
 11
403.0549880535347
 21
872.8399995297424
 31
0.0
  0
LINE
  5
63BC
330
1F
100
AcDbEntity
  8
太線
100
AcDbLine
 10
395.0549880535347
 20
872.8399995297424
 30
0.0
 11
395.0549880535347
 21
827.083479475694
 31
0.0
  0
LINE
  5
63BD
330
1F
100
AcDbEntity
  8
太線
100
AcDbLine
 10
403.0549880535347
 20
798.8021041645609
 30
0.0
 11
395.0549880535347
 21
798.8021041645609
 31
0.0
  0
LINE
  5
63BE
330
1F
100
AcDbEntity
  8
細線
100
AcDbLine
 10
394.5549880535347
 20
799.8021041645609
 30
0.0
 11
395.0549880535347
 21
798.8021041645609
 31
0.0
  0
LINE
  5
63BF
330
1F
100
AcDbEntity
  8
細線
100
AcDbLine
 10
403.0549880535347
 20
798.8021041645609
 30
0.0
 11
403.5549880535347
 21
799.8021041645609
 31
0.0
  0
LINE
  5
63C5
330
1F
100
AcDbEntity
  8
想像線
100
AcDbLine
 10
395.0549880535347
 20
827.083479475694
 30
0.0
 11
395.0549880535347
 21
825.6101128299103
 31
0.0
  0
LINE
  5
63C8
330
1F
100
AcDbEntity
  8
太線
100
AcDbLine
 10
329.1335135917382
 20
813.3007932260575
 30
0.0
 11
329.1335135917382
 21
812.8007932260574
 31
0.0
  0
LINE
  5
63C9
330
1F
100
AcDbEntity
  8
太線
100
AcDbLine
 10
330.1335135917383
 20
811.8007932260574
 30
0.0
 11
330.2753712325641
 21
811.8007932260574
 31
0.0
  0
LINE
  5
63CA
330
1F
100
AcDbEntity
  8
太線
100
AcDbLine
 10
330.2753712325641
 20
811.8007932260574
 30
0.0
 11
330.2753712325642
 21
806.8007932260575
 31
0.0
  0
LINE
  5
63CB
330
1F
100
AcDbEntity
  8
太線
100
AcDbLine
 10
331.2753712325642
 20
805.8007932260576
 30
0.0
 11
344.2753712325641
 21
805.8007932260576
 31
0.0
  0
LINE
  5
63CC
330
1F
100
AcDbEntity
  8
太線
100
AcDbLine
 10
345.2753712325641
 20
806.8007932260575
 30
0.0
 11
345.2753712325641
 21
811.8007932260574
 31
0.0
  0
LINE
  5
63CD
330
1F
100
AcDbEntity
  8
太線
100
AcDbLine
 10
345.2753712325641
 20
811.8007932260574
 30
0.0
 11
345.4172288733899
 21
811.8007932260574
 31
0.0
  0
LINE
  5
63CE
330
1F
100
AcDbEntity
  8
太線
100
AcDbLine
 10
346.4172288733899
 20
812.8007932260574
 30
0.0
 11
346.4172288733899
 21
813.3007932260575
 31
0.0
  0
LINE
  5
63CF
330
1F
100
AcDbEntity
  8
太線
100
AcDbLine
 10
330.2753712325641
 20
811.8007932260574
 30
0.0
 11
345.2753712325641
 21
811.8007932260574
 31
0.0
  0
LINE
  5
63D0
330
1F
100
AcDbEntity
  8
太線
100
AcDbLine
 10
333.7753712325641
 20
806.8007932260575
 30
0.0
 11
333.7753712325641
 21
811.8007932260574
 31
0.0
  0
LINE
  5
63D1
330
1F
100
AcDbEntity
  8
太線
100
AcDbLine
 10
341.7753712325641
 20
806.8007932260575
 30
0.0
 11
341.7753712325641
 21
811.8007932260574
 31
0.0
  0
ARC
  5
63D2
330
1F
100
AcDbEntity
  8
太線
100
AcDbCircle
 10
337.7753712325641
 20
814.3007932260573
 30
0.0
 40
8.499999999999836
100
AcDbArc
 50
241.9275130641455
 51
298.0724869358544
  0
ARC
  5
63D3
330
1F
100
AcDbEntity
  8
太線
100
AcDbCircle
 10
332.0253712325641
 20
807.7391023376813
 30
0.0
 40
1.985679729703703
100
AcDbArc
 50
208.1991695866887
 51
331.8008304133112
  0
ARC
  5
63D4
330
1F
100
AcDbEntity
  8
太線
100
AcDbCircle
 10
343.5253712325641
 20
807.8291067959495
 30
0.0
 40
2.029760773594802
100
AcDbArc
 50
210.4388252364164
 51
329.5611747635835
  0
ARC
  5
63D5
330
1F
100
AcDbEntity
  8
太線
100
AcDbCircle
 10
330.1335135917383
 20
812.8007932260574
 30
0.0
 40
1.0
100
AcDbArc
 50
180.0
 51
270.0
  0
ARC
  5
63D6
330
1F
100
AcDbEntity
  8
太線
100
AcDbCircle
 10
345.4172288733899
 20
812.8007932260574
 30
0.0
 40
1.0
100
AcDbArc
 50
270.0
 51
0.0
  0
ARC
  5
63D7
330
1F
100
AcDbEntity
  8
太線
100
AcDbCircle
 10
331.2753712325642
 20
806.8007932260575
 30
0.0
 40
1.0
100
AcDbArc
 50
180.0
 51
270.0
  0
ARC
  5
63D8
330
1F
100
AcDbEntity
  8
太線
100
AcDbCircle
 10
344.2753712325641
 20
806.8007932260575
 30
0.0
 40
1.0
100
AcDbArc
 50
270.0
 51
0.0
  0
LINE
  5
63DC
330
1F
100
AcDbEntity
  8
太線
100
AcDbLine
 10
332.9538993347953
 20
813.3399995297425
 30
0.0
 11
332.9538993347953
 21
820.8399995297426
 31
0.0
  0
LINE
  5
63DD
330
1F
100
AcDbEntity
  8
太線
100
AcDbLine
 10
341.9538993347954
 20
813.3399995297425
 30
0.0
 11
341.9538993347955
 21
820.8399995297424
 31
0.0
  0
LINE
  5
63DE
330
1F
100
AcDbEntity
  8
構築線
100
AcDbLine
 10
341.9538993347955
 20
823.3399995297423
 30
0.0
 11
341.9538993347953
 21
813.3399995297423
 31
0.0
  0
LINE
  5
63E0
330
1F
100
AcDbEntity
  8
太線
100
AcDbLine
 10
328.7753352920277
 20
813.3399995297425
 30
0.0
 11
346.7753352920277
 21
813.3399995297425
 31
0.0
  0
LINE
  5
63EF
330
1F
100
AcDbEntity
  8
太線
100
AcDbLine
 10
330.0418132795389
 20
806.901813740491
 30
0.0
 11
330.1836709203647
 21
806.901813740491
 31
0.0
  0
LINE
  5
63F4
330
1F
100
AcDbEntity
  8
太線
100
AcDbLine
 10
341.9538993347955
 20
820.8399995297424
 30
0.0
 11
341.9538993347953
 21
835.3005477775806
 31
0.0
  0
LINE
  5
63F5
330
1F
100
AcDbEntity
  8
太線
100
AcDbLine
 10
341.9538993347953
 20
835.3005477775806
 30
0.0
 11
341.4538993347953
 21
837.3005477775805
 31
0.0
  0
LINE
  5
63F6
330
1F
100
AcDbEntity
  8
太線
100
AcDbLine
 10
341.4538993347953
 20
837.3005477775805
 30
0.0
 11
333.4538993347953
 21
837.3005477775805
 31
0.0
  0
LINE
  5
63F7
330
1F
100
AcDbEntity
  8
細線
100
AcDbLine
 10
333.4538993347953
 20
837.3005477775805
 30
0.0
 11
332.9538993347953
 21
835.3005477775806
 31
0.0
  0
LINE
  5
63F8
330
1F
100
AcDbEntity
  8
太線
100
AcDbLine
 10
332.9538993347953
 20
835.3005477775806
 30
0.0
 11
332.9538993347953
 21
820.8399995297426
 31
0.0
  0
LINE
  5
63F9
330
1F
100
AcDbEntity
  8
太線
100
AcDbLine
 10
341.4538993347953
 20
801.401813740491
 30
0.0
 11
341.4538993347952
 21
805.8007932260576
 31
0.0
  0
LINE
  5
63FA
330
1F
100
AcDbEntity
  8
太線
100
AcDbLine
 10
332.9538993347953
 20
801.401813740491
 30
0.0
 11
332.9538993347954
 21
805.8007932260576
 31
0.0
  0
LINE
  5
63FB
330
1F
100
AcDbEntity
  8
太線
100
AcDbLine
 10
341.9538993347953
 20
801.4018137404912
 30
0.0
 11
341.9538993347953
 21
805.8007932260576
 31
0.0
  0
LINE
  5
63FC
330
1F
100
AcDbEntity
  8
太線
100
AcDbLine
 10
332.9538993347953
 20
801.401813740491
 30
0.0
 11
341.9538993347953
 21
801.401813740491
 31
0.0
  0
LINE
  5
63FD
330
1F
100
AcDbEntity
  8
太線
100
AcDbLine
 10
341.4538993347953
 20
800.4018137404909
 30
0.0
 11
333.4538993347953
 21
800.4018137404909
 31
0.0
  0
LINE
  5
63FE
330
1F
100
AcDbEntity
  8
細線
100
AcDbLine
 10
332.9538993347953
 20
801.401813740491
 30
0.0
 11
333.4538993347953
 21
800.4018137404909
 31
0.0
  0
LINE
  5
63FF
330
1F
100
AcDbEntity
  8
細線
100
AcDbLine
 10
341.4538993347953
 20
800.4018137404909
 30
0.0
 11
341.9538993347953
 21
801.401813740491
 31
0.0
  0
LINE
  5
6401
330
1F
100
AcDbEntity
  8
太線
100
AcDbLine
 10
333.4538993347953
 20
805.8007932260576
 30
0.0
 11
333.4538993347953
 21
801.401813740491
 31
0.0
  0
LINE
  5
6402
330
1F
100
AcDbEntity
  8
想像線
100
AcDbLine
 10
333.4538993347953
 20
805.8007932260576
 30
0.0
 11
333.4538993347953
 21
801.401813740491
 31
0.0
  0
XLINE
  5
64D7
330
1F
100
AcDbEntity
  8
構築線
100
AcDbXline
 10
220.4454965241318
 20
715.3985795282117
 30
0.0
 11
1.0
 21
0.0
 31
0.0
  0
XLINE
  5
6541
330
1F
100
AcDbEntity
  8
構築線
100
AcDbXline
 10
218.9454965241318
 20
918.3399995297424
 30
0.0
 11
1.0
 21
0.0
 31
0.0
  0
XLINE
  5
6542
330
1F
100
AcDbEntity
  8
構築線
100
AcDbXline
 10
218.9454965241318
 20
798.3399995297424
 30
0.0
 11
1.0
 21
0.0
 31
0.0
  0
XLINE
  5
6543
330
1F
100
AcDbEntity
  8
構築線
100
AcDbXline
 10
246.9454965241318
 20
848.195908254542
 30
0.0
 11
1.0
 21
0.0
 31
0.0
  0
LINE
  5
6544
330
1F
100
AcDbEntity
  8
想像線
100
AcDbLine
 10
214.1879386112857
 20
827.083479475694
 30
0.0
 11
214.1879386112857
 21
825.6101128299103
 31
0.0
  0
LINE
  5
654A
330
1F
100
AcDbEntity
  8
細線
100
AcDbLine
 10
222.1879386112857
 20
799.3399995297425
 30
0.0
 11
222.6879386112857
 21
800.3399995297424
 31
0.0
  0
LINE
  5
654B
330
1F
100
AcDbEntity
  8
細線
100
AcDbLine
 10
213.6879386112857
 20
800.3399995297424
 30
0.0
 11
214.1879386112857
 21
799.3399995297425
 31
0.0
  0
LINE
  5
654C
330
1F
100
AcDbEntity
  8
太線
100
AcDbLine
 10
222.1879386112857
 20
799.3399995297425
 30
0.0
 11
214.1879386112857
 21
799.3399995297425
 31
0.0
  0
LINE
  5
654D
330
1F
100
AcDbEntity
  8
太線
100
AcDbLine
 10
213.6879386112857
 20
825.1355682773601
 30
0.0
 11
213.6879386112857
 21
837.6995272631466
 31
0.0
  0
LINE
  5
654E
330
1F
100
AcDbEntity
  8
細線
100
AcDbLine
 10
213.6879386112857
 20
837.6995272631466
 30
0.0
 11
214.1879386112857
 21
839.6995272631466
 31
0.0
  0
LINE
  5
654F
330
1F
100
AcDbEntity
  8
太線
100
AcDbLine
 10
214.1879386112857
 20
839.6995272631466
 30
0.0
 11
222.1879386112857
 21
839.6995272631466
 31
0.0
  0
LINE
  5
6550
330
1F
100
AcDbEntity
  8
細線
100
AcDbLine
 10
222.1879386112857
 20
839.6995272631466
 30
0.0
 11
222.6879386112857
 21
837.6995272631466
 31
0.0
  0
LINE
  5
6551
330
1F
100
AcDbEntity
  8
太線
100
AcDbLine
 10
222.6879386112857
 20
837.6995272631466
 30
0.0
 11
222.6879386112857
 21
833.6773702232669
 31
0.0
  0
LINE
  5
6552
330
1F
100
AcDbEntity
  8
太線
100
AcDbLine
 10
214.1879386112857
 20
800.3399995297424
 30
0.0
 11
214.1879386112857
 21
806.1804088770415
 31
0.0
  0
LINE
  5
6553
330
1F
100
AcDbEntity
  8
太線
100
AcDbLine
 10
222.1879386112857
 20
800.3399995297424
 30
0.0
 11
222.1879386112857
 21
806.1804088770415
 31
0.0
  0
LINE
  5
6554
330
1F
100
AcDbEntity
  8
細線
100
AcDbLine
 10
213.6879386112857
 20
800.3399995297426
 30
0.0
 11
213.6879386112857
 21
806.1804088770415
 31
0.0
  0
LINE
  5
6555
330
1F
100
AcDbEntity
  8
細線
100
AcDbLine
 10
222.6879386112857
 20
800.3399995297426
 30
0.0
 11
222.6879386112857
 21
806.1804088770415
 31
0.0
  0
LINE
  5
6556
330
1F
100
AcDbEntity
  8
細線
100
AcDbLine
 10
213.6879386112857
 20
800.3399995297424
 30
0.0
 11
222.6879386112857
 21
800.3399995297424
 31
0.0
  0
ARC
  5
6559
330
1F
100
AcDbEntity
  8
太線
100
AcDbCircle
 10
224.6442904605064
 20
807.1804088770416
 30
0.0
 40
1.0
100
AcDbArc
 50
270.0
 51
0.0
  0
ARC
  5
655A
330
1F
100
AcDbEntity
  8
太線
100
AcDbCircle
 10
211.6442904605065
 20
807.1804088770416
 30
0.0
 40
1.0
100
AcDbArc
 50
180.0
 51
270.0
  0
ARC
  5
655B
330
1F
100
AcDbEntity
  8
太線
100
AcDbCircle
 10
225.7861481013323
 20
813.1804088770415
 30
0.0
 40
1.0
100
AcDbArc
 50
270.0
 51
0.0
  0
ARC
  5
655C
330
1F
100
AcDbEntity
  8
太線
100
AcDbCircle
 10
210.5024328196807
 20
813.1804088770415
 30
0.0
 40
1.0
100
AcDbArc
 50
180.0
 51
270.0
  0
ARC
  5
655D
330
1F
100
AcDbEntity
  8
太線
100
AcDbCircle
 10
223.8942904605064
 20
808.2087224469336
 30
0.0
 40
2.029760773594802
100
AcDbArc
 50
210.4388252364164
 51
329.5611747635835
  0
ARC
  5
655E
330
1F
100
AcDbEntity
  8
太線
100
AcDbCircle
 10
212.3942904605064
 20
808.1187179886653
 30
0.0
 40
1.985679729703703
100
AcDbArc
 50
208.1991695866887
 51
331.8008304133112
  0
ARC
  5
655F
330
1F
100
AcDbEntity
  8
太線
100
AcDbCircle
 10
218.1442904605064
 20
814.6804088770414
 30
0.0
 40
8.499999999999836
100
AcDbArc
 50
241.9275130641455
 51
298.0724869358544
  0
LINE
  5
6560
330
1F
100
AcDbEntity
  8
太線
100
AcDbLine
 10
222.1442904605064
 20
807.1804088770416
 30
0.0
 11
222.1442904605064
 21
812.1804088770415
 31
0.0
  0
LINE
  5
6561
330
1F
100
AcDbEntity
  8
太線
100
AcDbLine
 10
214.1442904605064
 20
807.1804088770416
 30
0.0
 11
214.1442904605064
 21
812.1804088770415
 31
0.0
  0
LINE
  5
6562
330
1F
100
AcDbEntity
  8
太線
100
AcDbLine
 10
210.6442904605064
 20
812.1804088770415
 30
0.0
 11
225.6442904605064
 21
812.1804088770415
 31
0.0
  0
LINE
  5
6563
330
1F
100
AcDbEntity
  8
太線
100
AcDbLine
 10
226.7861481013322
 20
813.1804088770415
 30
0.0
 11
226.7861481013322
 21
813.6804088770416
 31
0.0
  0
LINE
  5
6564
330
1F
100
AcDbEntity
  8
太線
100
AcDbLine
 10
225.6442904605064
 20
812.1804088770415
 30
0.0
 11
225.7861481013323
 21
812.1804088770415
 31
0.0
  0
LINE
  5
6565
330
1F
100
AcDbEntity
  8
太線
100
AcDbLine
 10
225.6442904605064
 20
807.1804088770416
 30
0.0
 11
225.6442904605064
 21
812.1804088770415
 31
0.0
  0
LINE
  5
6566
330
1F
100
AcDbEntity
  8
太線
100
AcDbLine
 10
211.6442904605065
 20
806.1804088770415
 30
0.0
 11
224.6442904605064
 21
806.1804088770415
 31
0.0
  0
LINE
  5
6567
330
1F
100
AcDbEntity
  8
太線
100
AcDbLine
 10
210.6442904605064
 20
812.1804088770415
 30
0.0
 11
210.6442904605065
 21
807.1804088770416
 31
0.0
  0
LINE
  5
6568
330
1F
100
AcDbEntity
  8
太線
100
AcDbLine
 10
210.5024328196806
 20
812.1804088770415
 30
0.0
 11
210.6442904605064
 21
812.1804088770415
 31
0.0
  0
LINE
  5
6569
330
1F
100
AcDbEntity
  8
太線
100
AcDbLine
 10
209.5024328196806
 20
813.6804088770416
 30
0.0
 11
209.5024328196806
 21
813.1804088770415
 31
0.0
  0
LINE
  5
656A
330
1F
100
AcDbEntity
  8
太線
100
AcDbLine
 10
209.5024328196806
 20
813.6804088770416
 30
0.0
 11
226.7861481013322
 21
813.6804088770416
 31
0.0
  0
LINE
  5
656B
330
1F
100
AcDbEntity
  8
太線
100
AcDbLine
 10
268.0635358890557
 20
813.6804088770416
 30
0.0
 11
285.3472511707074
 21
813.6804088770416
 31
0.0
  0
LINE
  5
656C
330
1F
100
AcDbEntity
  8
太線
100
AcDbLine
 10
268.0635358890557
 20
813.6804088770416
 30
0.0
 11
268.0635358890557
 21
813.1804088770415
 31
0.0
  0
LINE
  5
656D
330
1F
100
AcDbEntity
  8
太線
100
AcDbLine
 10
269.0635358890557
 20
812.1804088770415
 30
0.0
 11
269.2053935298815
 21
812.1804088770415
 31
0.0
  0
LINE
  5
656E
330
1F
100
AcDbEntity
  8
太線
100
AcDbLine
 10
269.2053935298815
 20
812.1804088770415
 30
0.0
 11
269.2053935298817
 21
807.1804088770416
 31
0.0
  0
LINE
  5
656F
330
1F
100
AcDbEntity
  8
太線
100
AcDbLine
 10
270.2053935298816
 20
806.1804088770415
 30
0.0
 11
283.2053935298815
 21
806.1804088770415
 31
0.0
  0
LINE
  5
6570
330
1F
100
AcDbEntity
  8
太線
100
AcDbLine
 10
284.2053935298815
 20
807.1804088770416
 30
0.0
 11
284.2053935298815
 21
812.1804088770415
 31
0.0
  0
LINE
  5
6571
330
1F
100
AcDbEntity
  8
太線
100
AcDbLine
 10
284.2053935298815
 20
812.1804088770415
 30
0.0
 11
284.3472511707074
 21
812.1804088770415
 31
0.0
  0
LINE
  5
6572
330
1F
100
AcDbEntity
  8
太線
100
AcDbLine
 10
285.3472511707074
 20
813.1804088770415
 30
0.0
 11
285.3472511707074
 21
813.6804088770416
 31
0.0
  0
LINE
  5
6573
330
1F
100
AcDbEntity
  8
太線
100
AcDbLine
 10
269.2053935298815
 20
812.1804088770415
 30
0.0
 11
284.2053935298815
 21
812.1804088770415
 31
0.0
  0
LINE
  5
6574
330
1F
100
AcDbEntity
  8
太線
100
AcDbLine
 10
272.7053935298815
 20
807.1804088770416
 30
0.0
 11
272.7053935298815
 21
812.1804088770415
 31
0.0
  0
LINE
  5
6575
330
1F
100
AcDbEntity
  8
太線
100
AcDbLine
 10
280.7053935298815
 20
807.1804088770416
 30
0.0
 11
280.7053935298815
 21
812.1804088770415
 31
0.0
  0
ARC
  5
6576
330
1F
100
AcDbEntity
  8
太線
100
AcDbCircle
 10
276.7053935298815
 20
814.6804088770414
 30
0.0
 40
8.499999999999836
100
AcDbArc
 50
241.9275130641455
 51
298.0724869358544
  0
ARC
  5
6577
330
1F
100
AcDbEntity
  8
太線
100
AcDbCircle
 10
270.9553935298815
 20
808.1187179886653
 30
0.0
 40
1.985679729703703
100
AcDbArc
 50
208.1991695866887
 51
331.8008304133112
  0
ARC
  5
6578
330
1F
100
AcDbEntity
  8
太線
100
AcDbCircle
 10
282.4553935298815
 20
808.2087224469336
 30
0.0
 40
2.029760773594802
100
AcDbArc
 50
210.4388252364164
 51
329.5611747635835
  0
ARC
  5
6579
330
1F
100
AcDbEntity
  8
太線
100
AcDbCircle
 10
269.0635358890558
 20
813.1804088770415
 30
0.0
 40
1.0
100
AcDbArc
 50
180.0
 51
270.0
  0
ARC
  5
657A
330
1F
100
AcDbEntity
  8
太線
100
AcDbCircle
 10
284.3472511707074
 20
813.1804088770415
 30
0.0
 40
1.0
100
AcDbArc
 50
270.0
 51
0.0
  0
ARC
  5
657B
330
1F
100
AcDbEntity
  8
太線
100
AcDbCircle
 10
270.2053935298816
 20
807.1804088770416
 30
0.0
 40
1.0
100
AcDbArc
 50
180.0
 51
270.0
  0
ARC
  5
657C
330
1F
100
AcDbEntity
  8
太線
100
AcDbCircle
 10
283.2053935298815
 20
807.1804088770416
 30
0.0
 40
1.0
100
AcDbArc
 50
270.0
 51
0.0
  0
LINE
  5
6581
330
1F
100
AcDbEntity
  8
太線
100
AcDbLine
 10
288.9807870230838
 20
813.728653150323
 30
0.0
 11
204.9813610552279
 21
813.4181099637929
 31
0.0
  0
ARC
  5
6582
330
1F
100
AcDbEntity
  8
太線
100
AcDbCircle
 10
246.8594361586676
 20
846.4754466486361
 30
0.0
 40
23.2796974685795
100
AcDbArc
 50
209.9867354356142
 51
330.4369039566517
  0
LINE
  5
6583
330
1F
100
AcDbEntity
  8
太線
100
AcDbLine
 10
269.4020211211106
 20
834.9981487028848
 30
0.0
 11
267.1084172058091
 21
834.989669322695
 31
0.0
  0
LINE
  5
6584
330
1F
100
AcDbEntity
  8
太線
100
AcDbLine
 10
226.6959325536322
 20
834.840265661719
 30
0.0
 11
223.9023320551887
 21
834.829937810181
 31
0.0
  0
LINE
  5
6585
330
1F
100
AcDbEntity
  8
太線
100
AcDbLine
 10
203.9813678889439
 20
813.4144130210961
 30
0.0
 11
203.972125532202
 21
815.9143959368062
 31
0.0
  0
LINE
  5
6586
330
1F
100
AcDbEntity
  8
太線
100
AcDbLine
 10
203.972125532202
 20
815.9143959368062
 30
0.0
 11
223.9023320551887
 21
834.829937810181
 31
0.0
  0
LINE
  5
6587
330
1F
100
AcDbEntity
  8
太線
100
AcDbLine
 10
269.4020211211106
 20
834.9981487028848
 30
0.0
 11
289.9715378326259
 21
816.2323330087298
 31
0.0
  0
LINE
  5
6588
330
1F
100
AcDbEntity
  8
太線
100
AcDbLine
 10
289.9715378326259
 20
816.2323330087298
 30
0.0
 11
289.9807801893678
 21
813.7323500930198
 31
0.0
  0
LINE
  5
6589
330
1F
100
AcDbEntity
  8
太線
100
AcDbLine
 10
289.9807801893678
 20
813.7323500930198
 30
0.0
 11
288.9807870230838
 21
813.728653150323
 31
0.0
  0
LINE
  5
658A
330
1F
100
AcDbEntity
  8
想像線
100
AcDbLine
 10
289.9715378326259
 20
816.2323330087298
 30
0.0
 11
203.972125532202
 21
815.9143959368062
 31
0.0
  0
ARC
  5
658B
330
1F
100
AcDbEntity
  8
太線
100
AcDbCircle
 10
246.9454965241318
 20
846.4756057231216
 30
0.0
 40
23.2796974685795
100
AcDbArc
 50
210.7486871587841
 51
329.2513128412158
  0
LINE
  5
658C
330
1F
100
AcDbEntity
  8
細線
100
AcDbLine
 10
271.4454965241318
 20
800.3399995297424
 30
0.0
 11
280.4454965241318
 21
800.3399995297424
 31
0.0
  0
LINE
  5
658D
330
1F
100
AcDbEntity
  8
細線
100
AcDbLine
 10
280.4454965241318
 20
800.3399995297426
 30
0.0
 11
280.4454965241318
 21
806.1804088770415
 31
0.0
  0
LINE
  5
658E
330
1F
100
AcDbEntity
  8
細線
100
AcDbLine
 10
271.4454965241318
 20
800.3399995297426
 30
0.0
 11
271.4454965241317
 21
806.1804088770415
 31
0.0
  0
LINE
  5
658F
330
1F
100
AcDbEntity
  8
太線
100
AcDbLine
 10
279.9454965241318
 20
800.3399995297424
 30
0.0
 11
279.9454965241318
 21
806.1804088770415
 31
0.0
  0
LINE
  5
6590
330
1F
100
AcDbEntity
  8
太線
100
AcDbLine
 10
271.9454965241318
 20
800.3399995297424
 30
0.0
 11
271.9454965241318
 21
806.1804088770415
 31
0.0
  0
LINE
  5
6591
330
1F
100
AcDbEntity
  8
太線
100
AcDbLine
 10
280.4454965241318
 20
837.6995272631466
 30
0.0
 11
280.4454965241318
 21
824.9230542345729
 31
0.0
  0
LINE
  5
6592
330
1F
100
AcDbEntity
  8
細線
100
AcDbLine
 10
279.9454965241318
 20
839.6995272631466
 30
0.0
 11
280.4454965241318
 21
837.6995272631466
 31
0.0
  0
LINE
  5
6593
330
1F
100
AcDbEntity
  8
太線
100
AcDbLine
 10
271.9454965241318
 20
839.6995272631466
 30
0.0
 11
279.9454965241318
 21
839.6995272631466
 31
0.0
  0
LINE
  5
6594
330
1F
100
AcDbEntity
  8
細線
100
AcDbLine
 10
271.4454965241318
 20
837.6995272631466
 30
0.0
 11
271.9454965241318
 21
839.6995272631466
 31
0.0
  0
LINE
  5
6595
330
1F
100
AcDbEntity
  8
太線
100
AcDbLine
 10
271.4454965241318
 20
833.13386169379
 30
0.0
 11
271.4454965241318
 21
837.6995272631466
 31
0.0
  0
LINE
  5
6596
330
1F
100
AcDbEntity
  8
太線
100
AcDbLine
 10
279.9454965241318
 20
799.3399995297425
 30
0.0
 11
271.9454965241318
 21
799.3399995297425
 31
0.0
  0
LINE
  5
6597
330
1F
100
AcDbEntity
  8
細線
100
AcDbLine
 10
271.4454965241318
 20
800.3399995297424
 30
0.0
 11
271.9454965241318
 21
799.3399995297425
 31
0.0
  0
LINE
  5
6598
330
1F
100
AcDbEntity
  8
細線
100
AcDbLine
 10
279.9454965241318
 20
799.3399995297425
 30
0.0
 11
280.4454965241318
 21
800.3399995297424
 31
0.0
  0
LINE
  5
659E
330
1F
100
AcDbEntity
  8
想像線
100
AcDbLine
 10
279.9454965241318
 20
827.083479475694
 30
0.0
 11
279.9454965241318
 21
825.3792102045295
 31
0.0
  0
DIMENSION
  5
65B5
330
1F
100
AcDbEntity
  8
寸法線
100
AcDbDimension
  2
*D6
 10
197.6766388972755
 20
799.3399995297425
 30
0.0
 11
194.1761467712911
 21
858.8399995297425
 31
0.0
 70
    32
  1
120
 71
     5
 42
118.9999999999998
  3
sunpo
100
AcDbAlignedDimension
 13
218.9454965241318
 23
918.3399995297424
 33
0.0
 14
214.1879386112857
 24
799.3399995297425
 34
0.0
 50
90.0
100
AcDbRotatedDimension
1001
ACAD
1000
DSTYLE
1002
{
1070
    40
1040
1.0
1002
}
  0
TEXT
  5
65CB
330
1F
100
AcDbEntity
  8
文字
100
AcDbText
 10
237.45197632903
 20
843.6992620297823
 30
0.0
 40
10.0
  1
単管
 51
15.0
  7
OKANO
100
AcDbText
  0
TEXT
  5
6618
330
1F
100
AcDbEntity
  8
文字
100
AcDbText
 10
234.0649996434803
 20
893.5947417693096
 30
0.0
 40
7.0
  1
35ｍｍ
 51
15.0
  7
OKANO
100
AcDbText
  0
TEXT
  5
6619
330
1F
100
AcDbEntity
  8
文字
100
AcDbText
 10
411.8802793472423
 20
895.2859623319236
 30
0.0
 40
7.0
  1
35ｍｍ
 51
15.0
  7
OKANO
100
AcDbText
  0
XLINE
  5
66BC
330
1F
100
AcDbEntity
  8
構築線
100
AcDbXline
 10
-30.95560943914472
 20
1069.476769437663
 30
0.0
 11
1.0
 21
0.0
 31
0.0
  0
XLINE
  5
66BD
330
1F
100
AcDbEntity
  8
構築線
100
AcDbXline
 10
-41.45560943914472
 20
1069.476769437663
 30
0.0
 11
0.0
 21
-1.0
 31
0.0
  0
XLINE
  5
66BE
330
1F
100
AcDbEntity
  8
構築線
100
AcDbXline
 10
1.544390560855276
 20
1069.476769437663
 30
0.0
 11
0.0
 21
-1.0
 31
0.0
  0
LINE
  5
66C1
330
1F
100
AcDbEntity
  8
太線
100
AcDbLine
 10
289.9454965241319
 20
967.126367518882
 30
0.0
 11
289.9454965241319
 21
976.4867081656712
 31
0.0
  0
ARC
  5
66C2
330
1F
100
AcDbEntity
  8
太線
100
AcDbCircle
 10
279.9454965241319
 20
947.126367518882
 30
0.0
 40
10.0
100
AcDbArc
 50
270.0
 51
0.0
  0
LINE
  5
66C3
330
1F
100
AcDbEntity
  8
太線
100
AcDbLine
 10
213.9454965241318
 20
937.1263675188821
 30
0.0
 11
279.9454965241319
 21
937.1263675188821
 31
0.0
  0
ARC
  5
66C4
330
1F
100
AcDbEntity
  8
太線
100
AcDbCircle
 10
213.9454965241318
 20
947.126367518882
 30
0.0
 40
10.0
100
AcDbArc
 50
180.0
 51
270.0
  0
LINE
  5
66C5
330
1F
100
AcDbEntity
  8
太線
100
AcDbLine
 10
203.9454965241318
 20
977.1263675188819
 30
0.0
 11
203.9454965241318
 21
967.126367518882
 31
0.0
  0
LINE
  5
66C6
330
1F
100
AcDbEntity
  8
太線
100
AcDbLine
 10
289.9454965241319
 20
987.126367518883
 30
0.0
 11
289.9454965241319
 21
976.4867081656712
 31
0.0
  0
LINE
  5
66C7
330
1F
100
AcDbEntity
  8
太線
100
AcDbLine
 10
203.9454965241318
 20
977.1263675188819
 30
0.0
 11
203.9454965241318
 21
987.126367518883
 31
0.0
  0
DIMENSION
  5
66C8
330
1F
100
AcDbEntity
  8
寸法線
100
AcDbDimension
  2
*D7
 10
209.9454965241318
 20
959.4749603992731
 30
0.0
 11
216.9454965241318
 21
962.9749603992731
 31
0.0
 70
    32
 71
     5
 42
14.0
  3
sunpo
100
AcDbAlignedDimension
 13
223.9454965241318
 23
977.1263675188819
 33
0.0
 14
209.9454965241318
 24
977.1263675188819
 34
0.0
100
AcDbRotatedDimension
1001
ACAD
1000
DSTYLE
1002
{
1070
    40
1040
1.0
1002
}
  0
LINE
  5
66C9
330
1F
100
AcDbEntity
  8
太線
100
AcDbLine
 10
272.4454965241319
 20
981.6263675188819
 30
0.0
 11
277.4454965241319
 21
981.6263675188819
 31
0.0
  0
LINE
  5
66CA
330
1F
100
AcDbEntity
  8
太線
100
AcDbLine
 10
277.4454965241319
 20
972.626367518883
 30
0.0
 11
272.4454965241319
 21
972.626367518883
 31
0.0
  0
ARC
  5
66CB
330
1F
100
AcDbEntity
  8
太線
100
AcDbCircle
 10
272.4454965241319
 20
977.1263675188819
 30
0.0
 40
4.5
100
AcDbArc
 50
90.0
 51
270.0
  0
ARC
  5
66CC
330
1F
100
AcDbEntity
  8
太線
100
AcDbCircle
 10
277.4454965241319
 20
977.1263675188819
 30
0.0
 40
4.5
100
AcDbArc
 50
270.0
 51
90.0
  0
LINE
  5
66CD
330
1F
100
AcDbEntity
  8
太線
100
AcDbLine
 10
219.4454965241319
 20
972.626367518883
 30
0.0
 11
214.4454965241318
 21
972.626367518883
 31
0.0
  0
LINE
  5
66CE
330
1F
100
AcDbEntity
  8
太線
100
AcDbLine
 10
214.4454965241318
 20
981.6263675188819
 30
0.0
 11
219.4454965241319
 21
981.6263675188819
 31
0.0
  0
ARC
  5
66CF
330
1F
100
AcDbEntity
  8
太線
100
AcDbCircle
 10
219.4454965241319
 20
977.1263675188819
 30
0.0
 40
4.5
100
AcDbArc
 50
270.0
 51
90.0
  0
ARC
  5
66D0
330
1F
100
AcDbEntity
  8
太線
100
AcDbCircle
 10
214.4454965241318
 20
977.1263675188819
 30
0.0
 40
4.5
100
AcDbArc
 50
90.0
 51
270.0
  0
LINE
  5
66D1
330
1F
100
AcDbEntity
  8
太線
100
AcDbLine
 10
213.9454965241318
 20
1017.126367518881
 30
0.0
 11
279.9454965241319
 21
1017.126367518881
 31
0.0
  0
ARC
  5
66D2
330
1F
100
AcDbEntity
  8
太線
100
AcDbCircle
 10
213.9454965241318
 20
1007.126367518882
 30
0.0
 40
10.0
100
AcDbArc
 50
90.0
 51
180.0
  0
ARC
  5
66D3
330
1F
100
AcDbEntity
  8
太線
100
AcDbCircle
 10
279.9454965241319
 20
1007.126367518882
 30
0.0
 40
10.0
100
AcDbArc
 50
0.0
 51
90.0
  0
DIMENSION
  5
6713
330
1F
100
AcDbEntity
  8
寸法線
100
AcDbDimension
  2
*D8
 10
213.9454965241319
 20
1007.126367518881
 30
0.0
 11
197.4061590960483
 21
1023.301625943829
 31
0.0
 70
   164
 71
     5
 42
10.00000000000034
  3
sunpo
100
AcDbRadialDimension
 15
206.7961778936272
 25
1014.118308817228
 35
0.0
 40
0.0
1001
ACAD
1000
DSTYLE
1002
{
1070
    40
1040
1.0
1070
   288
1070
     1
1002
}
  0
DIMENSION
  5
6730
330
1F
100
AcDbEntity
  8
寸法線
100
AcDbDimension
  2
*D9
 10
551.6845179686789
 20
800.4521764591919
 30
0.0
 11
548.1845179686786
 21
820.1231926174225
 31
0.0
 70
    32
  1
40
 71
     5
 42
39.34203231646097
  3
sunpo
100
AcDbAlignedDimension
 13
525.6225364411948
 23
839.7942087756527
 33
0.0
 14
525.6225364411948
 24
800.4521764591919
 34
0.0
 50
90.0
100
AcDbRotatedDimension
1001
ACAD
1000
DSTYLE
1002
{
1070
    40
1040
1.0
1002
}
  0
XLINE
  5
674D
330
1F
100
AcDbEntity
  8
構築線
100
AcDbXline
 10
140.7799199748551
 20
1017.126367518881
 30
0.0
 11
1.0
 21
0.0
 31
0.0
  0
XLINE
  5
674E
330
1F
100
AcDbEntity
  8
構築線
100
AcDbXline
 10
140.7799199748551
 20
937.1263675188821
 30
0.0
 11
1.0
 21
0.0
 31
0.0
  0
LINE
  5
6755
330
1F
100
AcDbEntity
  8
太線
100
AcDbLine
 10
289.9454965241319
 20
1007.126367518882
 30
0.0
 11
289.9454965241319
 21
987.126367518883
 31
0.0
  0
LINE
  5
6756
330
1F
100
AcDbEntity
  8
太線
100
AcDbLine
 10
289.9454965241319
 20
967.126367518882
 30
0.0
 11
289.9454965241319
 21
947.126367518882
 31
0.0
  0
LINE
  5
6757
330
1F
100
AcDbEntity
  8
太線
100
AcDbLine
 10
203.9454965241318
 20
1007.126367518882
 30
0.0
 11
203.9454965241318
 21
987.126367518883
 31
0.0
  0
LINE
  5
6758
330
1F
100
AcDbEntity
  8
太線
100
AcDbLine
 10
203.9454965241318
 20
967.126367518882
 30
0.0
 11
203.9454965241318
 21
947.126367518882
 31
0.0
  0
DIMENSION
  5
675B
330
1F
100
AcDbEntity
  8
寸法線
100
AcDbDimension
  2
*D10
 10
394.8125459663809
 20
1007.126367518881
 30
0.0
 11
374.5062716613757
 21
1021.489447768463
 31
0.0
 70
   164
 71
     5
 42
10.00000000000045
  3
sunpo
100
AcDbRadialDimension
 15
386.648409614275
 25
1012.901043061648
 35
0.0
 40
0.0
1001
ACAD
1000
DSTYLE
1002
{
1070
    40
1040
1.0
1070
   288
1070
     1
1002
}
  0
LINE
  5
676B
330
1F
100
AcDbEntity
  8
太線
100
AcDbLine
 10
470.8125459663809
 20
1007.126367518882
 30
0.0
 11
470.8125459663809
 21
987.1263675188821
 31
0.0
  0
LINE
  5
676C
330
1F
100
AcDbEntity
  8
太線
100
AcDbLine
 10
384.8125459663808
 20
1007.126367518882
 30
0.0
 11
384.8125459663808
 21
987.1263675188821
 31
0.0
  0
DIMENSION
  5
676D
330
1F
100
AcDbEntity
  8
寸法線
100
AcDbDimension
  2
*D11
 10
307.8319132368779
 20
976.4867081656712
 30
0.0
 11
304.3319132368777
 21
956.8065378422767
 31
0.0
 70
    32
  1
40
 71
     5
 42
39.36034064678915
  3
sunpo
100
AcDbAlignedDimension
 13
279.9454965241319
 23
937.1263675188821
 33
0.0
 14
289.9454965241319
 24
976.4867081656712
 34
0.0
 50
90.0
100
AcDbRotatedDimension
1001
ACAD
1000
DSTYLE
1002
{
1070
    40
1040
1.0
1002
}
  0
DIMENSION
  5
677A
330
1F
100
AcDbEntity
  8
寸法線
100
AcDbDimension
  2
*D12
 10
307.8319132368779
 20
1017.126367518881
 30
0.0
 11
304.3319132368777
 21
996.8065378422767
 31
0.0
 70
    32
  1
40
 71
     5
 42
40.63965935321085
  3
sunpo
100
AcDbAlignedDimension
 13
289.9454965241319
 23
976.4867081656712
 33
0.0
 14
279.9454965241319
 24
1017.126367518881
 34
0.0
 50
90.0
100
AcDbRotatedDimension
1001
ACAD
1000
DSTYLE
1002
{
1070
    40
1040
1.0
1070
   279
1070
     1
1002
}
  0
DIMENSION
  5
6787
330
1F
100
AcDbEntity
  8
寸法線
100
AcDbDimension
  2
*D13
 10
494.5203370024683
 20
1017.126367518881
 30
0.0
 11
491.0203370024681
 21
997.126367518882
 31
0.0
 70
    32
 71
     5
 42
40.0
  3
sunpo
100
AcDbAlignedDimension
 13
470.8125459663809
 23
977.1263675188819
 33
0.0
 14
460.8125459663808
 24
1017.126367518881
 34
0.0
 50
90.0
100
AcDbRotatedDimension
1001
ACAD
1000
DSTYLE
1002
{
1070
    40
1040
1.0
1002
}
  0
DIMENSION
  5
67AD
330
1F
100
AcDbEntity
  8
寸法線
100
AcDbDimension
  2
*D14
 10
258.7563003959366
 20
972.626367518883
 30
0.0
 11
255.2563003959365
 21
977.1263675188826
 31
0.0
 70
    32
 71
     5
 42
8.99999999999909
  3
sunpo
100
AcDbAlignedDimension
 13
272.4454965241319
 23
981.6263675188819
 33
0.0
 14
272.4454965241319
 24
972.626367518883
 34
0.0
 50
90.0
100
AcDbRotatedDimension
1001
ACAD
1000
DSTYLE
1002
{
1070
    40
1040
1.0
1002
}
  0
DIMENSION
  5
67DB
330
1F
100
AcDbEntity
  8
寸法線
100
AcDbDimension
  2
*D15
 10
289.9454965241319
 20
925.9555035750963
 30
0.0
 11
246.9454965241319
 21
929.4555035750963
 31
0.0
 70
    32
 71
     5
 42
86.00000000000012
  3
sunpo
100
AcDbAlignedDimension
 13
203.9454965241318
 23
947.126367518882
 33
0.0
 14
289.9454965241319
 24
947.126367518882
 34
0.0
100
AcDbRotatedDimension
1001
ACAD
1000
DSTYLE
1002
{
1070
    40
1040
1.0
1002
}
  0
DIMENSION
  5
68B1
330
1F
100
AcDbEntity
  8
寸法線
100
AcDbDimension
  2
*D16
 10
536.1580704178733
 20
749.2470480975171
 30
0.0
 11
546.1670450140888
 21
752.747048097517
 31
0.0
 70
    32
  1
1.5
 71
     5
 42
2.000035940536349
  3
sunpo
100
AcDbAlignedDimension
 13
534.1580344773369
 23
735.8985795282117
 33
0.0
 14
536.1580704178733
 24
734.8985795282117
 34
0.0
100
AcDbRotatedDimension
1001
ACAD
1000
DSTYLE
1002
{
1070
    40
1040
1.0
1002
}
  0
LINE
  5
68B2
330
1F
100
AcDbEntity
  8
破線
100
AcDbLine
 10
463.383752249299
 20
715.0299525228809
 30
0.0
 11
463.3745098925571
 21
717.5299354385908
 31
0.0
  0
LINE
  5
68B3
330
1F
100
AcDbEntity
  8
破線
100
AcDbLine
 10
450.383841087607
 20
714.9818922678226
 30
0.0
 11
450.3745987308651
 21
717.4818751835325
 31
0.0
  0
LINE
  5
68B4
330
1F
100
AcDbEntity
  8
破線
100
AcDbLine
 10
404.8841520216851
 20
714.8136813751188
 30
0.0
 11
404.8749096649431
 21
717.3136642908287
 31
0.0
  0
LINE
  5
68B5
330
1F
100
AcDbEntity
  8
破線
100
AcDbLine
 10
392.3842374431351
 20
714.7674695914089
 30
0.0
 11
392.3749950863932
 21
717.2674525071189
 31
0.0
  0
LINE
  5
68B6
330
1F
100
AcDbEntity
  8
太線
100
AcDbLine
 10
469.8837078301449
 20
715.0539826504099
 30
0.0
 11
385.8842818622891
 21
714.7434394638799
 31
0.0
  0
ARC
  5
68B7
330
1F
100
AcDbEntity
  8
太線
100
AcDbCircle
 10
427.7623569657288
 20
747.800776148723
 30
0.0
 40
23.2796974685795
100
AcDbArc
 50
209.9867354356147
 51
330.4369039566483
  0
LINE
  5
68B8
330
1F
100
AcDbEntity
  8
太線
100
AcDbLine
 10
450.3049419281717
 20
736.3234782029717
 30
0.0
 11
448.0113380128702
 21
736.314998822782
 31
0.0
  0
LINE
  5
68B9
330
1F
100
AcDbEntity
  8
太線
100
AcDbLine
 10
407.5988533606934
 20
736.1655951618059
 30
0.0
 11
404.8052528622498
 21
736.1552673102679
 31
0.0
  0
LINE
  5
68BA
330
1F
100
AcDbEntity
  8
太線
100
AcDbLine
 10
384.8842886960051
 20
714.739742521183
 30
0.0
 11
384.8750463392631
 21
717.2397254368931
 31
0.0
  0
LINE
  5
68BB
330
1F
100
AcDbEntity
  8
太線
100
AcDbLine
 10
384.8750463392631
 20
717.2397254368931
 30
0.0
 11
404.8052528622498
 21
736.1552673102679
 31
0.0
  0
LINE
  5
68BC
330
1F
100
AcDbEntity
  8
太線
100
AcDbLine
 10
450.3049419281717
 20
736.3234782029717
 30
0.0
 11
470.874458639687
 21
717.5576625088167
 31
0.0
  0
LINE
  5
68BD
330
1F
100
AcDbEntity
  8
太線
100
AcDbLine
 10
470.874458639687
 20
717.5576625088167
 30
0.0
 11
470.883700996429
 21
715.0576795931067
 31
0.0
  0
LINE
  5
68BE
330
1F
100
AcDbEntity
  8
太線
100
AcDbLine
 10
470.883700996429
 20
715.0576795931067
 30
0.0
 11
469.8837078301449
 21
715.0539826504099
 31
0.0
  0
LINE
  5
68BF
330
1F
100
AcDbEntity
  8
想像線
100
AcDbLine
 10
470.874458639687
 20
717.5576625088167
 30
0.0
 11
384.8750463392631
 21
717.2397254368931
 31
0.0
  0
ARC
  5
68C0
330
1F
100
AcDbEntity
  8
太線
100
AcDbCircle
 10
536.1580704178733
 20
734.8985795282117
 30
0.0
 40
1.0
100
AcDbArc
 50
0.0
 51
90.0
  0
ARC
  5
68C1
330
1F
100
AcDbEntity
  8
太線
100
AcDbCircle
 10
513.1580704178733
 20
734.8985795282117
 30
0.0
 40
1.0
100
AcDbArc
 50
90.0
 51
180.0
  0
ARC
  5
68C2
330
1F
100
AcDbEntity
  8
太線
100
AcDbCircle
 10
515.6580704178733
 20
718.3985795282117
 30
0.0
 40
1.0
100
AcDbArc
 50
180.0
 51
270.0
  0
ARC
  5
68C3
330
1F
100
AcDbEntity
  8
太線
100
AcDbCircle
 10
536.1580704178733
 20
715.8985795282118
 30
0.0
 40
1.0
100
AcDbArc
 50
270.0
 51
0.0
  0
ARC
  5
68C4
330
1F
100
AcDbEntity
  8
太線
100
AcDbCircle
 10
513.1580704178733
 20
715.8985795282118
 30
0.0
 40
1.0
100
AcDbArc
 50
180.0
 51
270.0
  0
LINE
  5
68C5
330
1F
100
AcDbEntity
  8
想像線
100
AcDbLine
 10
529.1580344773369
 20
714.8985795282117
 30
0.0
 11
529.1580344773369
 21
717.3985795282117
 31
0.0
  0
LINE
  5
68C6
330
1F
100
AcDbEntity
  8
想像線
100
AcDbLine
 10
520.1580344773369
 20
714.8985795282117
 30
0.0
 11
520.1580344773369
 21
717.3985795282117
 31
0.0
  0
LINE
  5
68C7
330
1F
100
AcDbEntity
  8
太線
100
AcDbLine
 10
514.6580704178733
 20
735.8985795282117
 30
0.0
 11
513.1580704178733
 21
735.8985795282117
 31
0.0
  0
LINE
  5
68C8
330
1F
100
AcDbEntity
  8
太線
100
AcDbLine
 10
514.6580704178733
 20
718.3985795282117
 30
0.0
 11
514.6580704178733
 21
735.8985795282117
 31
0.0
  0
LINE
  5
68C9
330
1F
100
AcDbEntity
  8
太線
100
AcDbLine
 10
531.158034477337
 20
717.3985795282117
 30
0.0
 11
518.158034477337
 21
717.3985795282117
 31
0.0
  0
LINE
  5
68CA
330
1F
100
AcDbEntity
  8
太線
100
AcDbLine
 10
534.6580704178733
 20
735.8985795282117
 30
0.0
 11
534.6580704178733
 21
718.3985795282117
 31
0.0
  0
LINE
  5
68CB
330
1F
100
AcDbEntity
  8
太線
100
AcDbLine
 10
536.1580704178733
 20
735.8985795282117
 30
0.0
 11
534.6580704178733
 21
735.8985795282117
 31
0.0
  0
LINE
  5
68CC
330
1F
100
AcDbEntity
  8
太線
100
AcDbLine
 10
537.1580704178732
 20
715.8985795282118
 30
0.0
 11
537.1580704178732
 21
734.8985795282117
 31
0.0
  0
LINE
  5
68CD
330
1F
100
AcDbEntity
  8
太線
100
AcDbLine
 10
515.6580344773369
 20
714.8985795282118
 30
0.0
 11
533.6580344773369
 21
714.8985795282118
 31
0.0
  0
LINE
  5
68CE
330
1F
100
AcDbEntity
  8
太線
100
AcDbLine
 10
512.1580704178732
 20
734.8985795282117
 30
0.0
 11
512.1580704178732
 21
715.8985795282118
 31
0.0
  0
ARC
  5
68CF
330
1F
100
AcDbEntity
  8
太線
100
AcDbCircle
 10
215.4813678889439
 20
714.8985795282117
 30
0.0
 40
4.5
100
AcDbArc
 50
90.0
 51
270.0
  0
ARC
  5
68D0
330
1F
100
AcDbEntity
  8
太線
100
AcDbCircle
 10
220.4813678889439
 20
714.8985795282117
 30
0.0
 40
4.5
100
AcDbArc
 50
270.0
 51
90.0
  0
LINE
  5
68D1
330
1F
100
AcDbEntity
  8
太線
100
AcDbLine
 10
203.9813678889439
 20
727.3985795282117
 30
0.0
 11
289.9813678889439
 21
727.3985795282117
 31
0.0
  0
LINE
  5
68D2
330
1F
100
AcDbEntity
  8
太線
100
AcDbLine
 10
203.9813678889439
 20
702.3985795282117
 30
0.0
 11
289.9813678889439
 21
702.3985795282117
 31
0.0
  0
LINE
  5
68D3
330
1F
100
AcDbEntity
  8
太線
100
AcDbLine
 10
215.4813678889439
 20
719.3985795282117
 30
0.0
 11
220.4813678889439
 21
719.3985795282117
 31
0.0
  0
LINE
  5
68D4
330
1F
100
AcDbEntity
  8
太線
100
AcDbLine
 10
220.4813678889439
 20
710.3985795282117
 30
0.0
 11
215.4813678889439
 21
710.3985795282117
 31
0.0
  0
ARC
  5
68D5
330
1F
100
AcDbEntity
  8
太線
100
AcDbCircle
 10
278.4813678889439
 20
714.8985795282117
 30
0.0
 40
4.5
100
AcDbArc
 50
270.0
 51
90.0
  0
ARC
  5
68D6
330
1F
100
AcDbEntity
  8
太線
100
AcDbCircle
 10
273.4813678889439
 20
714.8985795282117
 30
0.0
 40
4.5
100
AcDbArc
 50
90.0
 51
270.0
  0
LINE
  5
68D7
330
1F
100
AcDbEntity
  8
太線
100
AcDbLine
 10
278.4813678889439
 20
710.3985795282117
 30
0.0
 11
273.4813678889439
 21
710.3985795282117
 31
0.0
  0
LINE
  5
68D8
330
1F
100
AcDbEntity
  8
太線
100
AcDbLine
 10
273.4813678889439
 20
719.3985795282117
 30
0.0
 11
278.4813678889439
 21
719.3985795282117
 31
0.0
  0
DIMENSION
  5
68D9
330
1F
100
AcDbEntity
  8
寸法線
100
AcDbDimension
  2
*D17
 10
275.9666731544376
 20
738.1752869754675
 30
0.0
 11
246.9740205216908
 21
744.1752869754675
 31
0.0
 70
    32
  1
60
 71
     5
 42
57.9853052654937
  3
sunpo
100
AcDbAlignedDimension
 13
217.9813678889439
 23
724.8985795282116
 33
0.0
 14
275.9666731544376
 24
716.1249974416583
 34
0.0
100
AcDbRotatedDimension
1001
ACAD
1000
DSTYLE
1002
{
1070
   140
1040
10.0
1070
    40
1040
1.0
1002
}
  0
DIMENSION
  5
68DA
330
1F
100
AcDbEntity
  8
寸法線
100
AcDbDimension
  2
*D18
 10
210.9813678889439
 20
694.2471724086019
 30
0.0
 11
217.9813678889439
 21
697.747172408602
 31
0.0
 70
    32
 71
     5
 42
14.0
  3
sunpo
100
AcDbAlignedDimension
 13
224.9813678889439
 23
714.8985795282117
 33
0.0
 14
210.9813678889439
 24
714.8985795282117
 34
0.0
100
AcDbRotatedDimension
1001
ACAD
1000
DSTYLE
1002
{
1070
    40
1040
1.0
1002
}
  0
DIMENSION
  5
68DB
330
1F
100
AcDbEntity
  8
寸法線
100
AcDbDimension
  2
*D19
 10
310.9549535113743
 20
719.3985795282117
 30
0.0
 11
307.4549535113742
 21
714.8985795282118
 31
0.0
 70
    32
 71
     5
 42
9.0
  3
sunpo
100
AcDbAlignedDimension
 13
275.9813678889439
 23
710.3985795282117
 33
0.0
 14
275.9813678889439
 24
719.3985795282117
 34
0.0
 50
90.0
100
AcDbRotatedDimension
1001
ACAD
1000
DSTYLE
1002
{
1070
    40
1040
1.0
1002
}
  0
LINE
  5
68DC
330
1F
100
AcDbEntity
  8
太線
100
AcDbLine
 10
203.9813678889439
 20
727.3985795282117
 30
0.0
 11
203.9813678889439
 21
702.3985795282117
 31
0.0
  0
LINE
  5
68DD
330
1F
100
AcDbEntity
  8
太線
100
AcDbLine
 10
289.9813678889439
 20
727.3985795282117
 30
0.0
 11
289.9813678889439
 21
702.3985795282117
 31
0.0
  0
LINE
  5
68DE
330
1F
100
AcDbEntity
  8
想像線
100
AcDbLine
 10
289.9813678889439
 20
724.8985795282116
 30
0.0
 11
203.9813678889439
 21
724.8985795282116
 31
0.0
  0
LINE
  5
68DF
330
1F
100
AcDbEntity
  8
想像線
100
AcDbLine
 10
203.9813678889439
 20
704.8985795282117
 30
0.0
 11
289.9813678889439
 21
704.8985795282117
 31
0.0
  0
LINE
  5
68E0
330
1F
100
AcDbEntity
  8
寸法線
100
AcDbLine
 10
537.1580704178732
 20
715.8985795282118
 30
0.0
 11
537.1580704178732
 21
734.8985795282117
 31
0.0
  0
DIMENSION
  5
68E1
330
1F
100
AcDbEntity
  8
寸法線
100
AcDbDimension
  2
*D20
 10
567.8920211597534
 20
735.8985795282117
 30
0.0
 11
564.391529033769
 21
725.3985795282118
 31
0.0
 70
    32
 71
     5
 42
21.0
  3
sunpo
100
AcDbAlignedDimension
 13
533.6580344773369
 23
714.8985795282117
 33
0.0
 14
532.1580344773369
 24
735.8985795282117
 34
0.0
 50
90.0
100
AcDbRotatedDimension
1001
ACAD
1000
DSTYLE
1002
{
1070
    40
1040
1.0
1002
}
  0
DIMENSION
  5
68E2
330
1F
100
AcDbEntity
  8
寸法線
100
AcDbDimension
  2
*D21
 10
470.883700996429
 20
690.7077073676628
 30
0.0
 11
427.883994846217
 21
694.2077073676628
 31
0.0
 70
    32
 71
     5
 42
85.99941230042389
  3
sunpo
100
AcDbAlignedDimension
 13
384.8842886960051
 23
714.739742521183
 33
0.0
 14
470.883700996429
 24
715.0576795931067
 34
0.0
100
AcDbRotatedDimension
1001
ACAD
1000
DSTYLE
1002
{
1070
    40
1040
1.0
1002
}
  0
DIMENSION
  5
68E3
330
1F
100
AcDbEntity
  8
寸法線
100
AcDbDimension
  2
*D22
 10
369.8003332901236
 20
736.1552673102679
 30
0.0
 11
366.2998411641392
 21
725.4475049157256
 31
0.0
 70
    32
  1
21
 71
     5
 42
21.41552478908488
  3
sunpo
100
AcDbAlignedDimension
 13
384.8842886960051
 23
714.739742521183
 33
0.0
 14
404.8052528622498
 24
736.1552673102679
 34
0.0
 50
90.0
100
AcDbRotatedDimension
1001
ACAD
1000
DSTYLE
1002
{
1070
    40
1040
1.0
1002
}
  0
DIMENSION
  5
68E4
330
1F
100
AcDbEntity
  8
寸法線
100
AcDbDimension
  2
*D23
 10
483.3576938962752
 20
715.0576795931067
 30
0.0
 11
479.8576938962751
 21
719.8898601906014
 31
0.0
 70
    32
  1
10
 71
     5
 42
9.664361194989169
  3
sunpo
100
AcDbAlignedDimension
 13
428.1187385772311
 23
724.7220407880959
 33
0.0
 14
470.883700996429
 24
715.0576795931067
 34
0.0
 50
90.0
100
AcDbRotatedDimension
1001
ACAD
1000
DSTYLE
1002
{
1070
    40
1040
1.0
1002
}
  0
DIMENSION
  5
68E5
330
1F
100
AcDbEntity
  8
寸法線
100
AcDbDimension
  2
*D24
 10
427.7623569657289
 20
747.8007761487224
 30
0.0
 11
422.851605957287
 21
743.2770232649395
 31
0.0
 70
   164
  1
24.5
 71
     5
 42
23.27969746857877
  3
sunpo
100
AcDbRadialDimension
 15
410.6402930988921
 25
732.0280388096136
 35
0.0
 40
0.0
1001
ACAD
1000
DSTYLE
1002
{
1070
    40
1040
1.0
1070
   288
1070
     1
1002
}
  0
DIMENSION
  5
68E6
330
1F
100
AcDbEntity
  8
寸法線
100
AcDbDimension
  2
*D25
 10
192.288353557985
 20
727.3985795282117
 30
0.0
 11
188.7878614320006
 21
714.8985795282117
 31
0.0
 70
    32
 71
     5
 42
25.0
  3
sunpo
100
AcDbAlignedDimension
 13
203.9813678889439
 23
702.3985795282117
 33
0.0
 14
203.9813678889439
 24
727.3985795282117
 34
0.0
 50
90.0
100
AcDbRotatedDimension
1001
ACAD
1000
DSTYLE
1002
{
1070
    40
1040
1.0
1002
}
  0
ARC
  5
68E7
330
1F
100
AcDbEntity
  8
太線
100
AcDbCircle
 10
533.6580704178733
 20
718.3985795282117
 30
0.0
 40
1.0
100
AcDbArc
 50
270.0
 51
0.0
  0
LINE
  5
68E8
330
1F
100
AcDbEntity
  8
太線
100
AcDbLine
 10
515.6580704178733
 20
717.3985795282117
 30
0.0
 11
518.158034477337
 21
717.3985795282117
 31
0.0
  0
LINE
  5
68E9
330
1F
100
AcDbEntity
  8
太線
100
AcDbLine
 10
531.158034477337
 20
717.3985795282117
 30
0.0
 11
533.6580704178733
 21
717.3985795282117
 31
0.0
  0
LINE
  5
68EA
330
1F
100
AcDbEntity
  8
太線
100
AcDbLine
 10
513.1580704178733
 20
714.8985795282117
 30
0.0
 11
515.6580344773369
 21
714.8985795282118
 31
0.0
  0
LINE
  5
68EB
330
1F
100
AcDbEntity
  8
太線
100
AcDbLine
 10
533.6580344773369
 20
714.8985795282118
 30
0.0
 11
535.6580344773369
 21
714.8985795282117
 31
0.0
  0
DIMENSION
  5
68EC
330
1F
100
AcDbEntity
  8
寸法線
100
AcDbDimension
  2
*D26
 10
537.1580704178732
 20
699.0162025725003
 30
0.0
 11
524.6580704178732
 21
702.5166946984845
 31
0.0
 70
    32
 71
     5
 42
25.0
  3
sunpo
100
AcDbAlignedDimension
 13
512.1580704178732
 23
714.8985795282117
 33
0.0
 14
537.1580704178732
 24
714.8985795282117
 34
0.0
100
AcDbRotatedDimension
1001
ACAD
1000
DSTYLE
1002
{
1070
    40
1040
1.0
1002
}
  0
XLINE
  5
69D0
330
1F
100
AcDbEntity
  8
構築線
100
AcDbXline
 10
203.9813678889439
 20
813.4144130210961
 30
0.0
 11
0.0
 21
-1.0
 31
0.0
  0
XLINE
  5
69D1
330
1F
100
AcDbEntity
  8
構築線
100
AcDbXline
 10
220.4454965241318
 20
727.3985795282117
 30
0.0
 11
1.0
 21
0.0
 31
0.0
  0
XLINE
  5
69D2
330
1F
100
AcDbEntity
  8
構築線
100
AcDbXline
 10
220.4454965241318
 20
703.3985795282116
 30
0.0
 11
1.0
 21
0.0
 31
0.0
  0
DIMENSION
  5
6A34
330
1F
100
AcDbEntity
  8
寸法線
100
AcDbDimension
  2
*D27
 10
158.8992637341143
 20
910.3399995297424
 30
0.0
 11
155.3987716081299
 21
921.3178852127125
 31
0.0
 70
    32
 71
     5
 42
2.5
  3
sunpo
100
AcDbAlignedDimension
 13
204.9454965241318
 23
907.8399995297425
 33
0.0
 14
204.9454965241319
 24
910.3399995297424
 34
0.0
 50
90.0
100
AcDbRotatedDimension
1001
ACAD
1000
DSTYLE
1002
{
1070
    40
1040
1.0
1002
}
  0
XLINE
  5
6A44
330
1F
100
AcDbEntity
  8
構築線
100
AcDbXline
 10
524.6221990530612
 20
815.8399995297425
 30
0.0
 11
-1.0
 21
0.0
 31
0.0
  0
LINE
  5
6A45
330
1F
100
AcDbEntity
  8
太線
100
AcDbLine
 10
533.6580344773369
 20
813.3399995297425
 30
0.0
 11
535.6580344773369
 21
813.3399995297425
 31
0.0
  0
LINE
  5
6A46
330
1F
100
AcDbEntity
  8
太線
100
AcDbLine
 10
513.1580704178733
 20
813.3399995297425
 30
0.0
 11
515.6580344773369
 21
813.3399995297425
 31
0.0
  0
LINE
  5
6A47
330
1F
100
AcDbEntity
  8
太線
100
AcDbLine
 10
531.158034477337
 20
815.8399995297425
 30
0.0
 11
533.6580704178733
 21
815.8399995297425
 31
0.0
  0
LINE
  5
6A48
330
1F
100
AcDbEntity
  8
太線
100
AcDbLine
 10
515.6580704178733
 20
815.8399995297425
 30
0.0
 11
518.158034477337
 21
815.8399995297425
 31
0.0
  0
ARC
  5
6A49
330
1F
100
AcDbEntity
  8
太線
100
AcDbCircle
 10
533.6580704178733
 20
816.8399995297425
 30
0.0
 40
1.0
100
AcDbArc
 50
270.0
 51
0.0
  0
LINE
  5
6A4A
330
1F
100
AcDbEntity
  8
寸法線
100
AcDbLine
 10
537.1580704178732
 20
814.3399995297425
 30
0.0
 11
537.1580704178732
 21
833.3399995297424
 31
0.0
  0
LINE
  5
6A4B
330
1F
100
AcDbEntity
  8
太線
100
AcDbLine
 10
512.1580704178732
 20
833.3399995297424
 30
0.0
 11
512.1580704178732
 21
814.3399995297425
 31
0.0
  0
LINE
  5
6A4C
330
1F
100
AcDbEntity
  8
太線
100
AcDbLine
 10
515.6580344773369
 20
813.3399995297425
 30
0.0
 11
533.6580344773369
 21
813.3399995297425
 31
0.0
  0
LINE
  5
6A4D
330
1F
100
AcDbEntity
  8
太線
100
AcDbLine
 10
537.1580704178732
 20
814.3399995297425
 30
0.0
 11
537.1580704178732
 21
833.3399995297424
 31
0.0
  0
LINE
  5
6A4E
330
1F
100
AcDbEntity
  8
太線
100
AcDbLine
 10
536.1580704178733
 20
834.3399995297424
 30
0.0
 11
534.6580704178733
 21
834.3399995297424
 31
0.0
  0
LINE
  5
6A4F
330
1F
100
AcDbEntity
  8
太線
100
AcDbLine
 10
534.6580704178733
 20
834.3399995297424
 30
0.0
 11
534.6580704178733
 21
816.8399995297425
 31
0.0
  0
LINE
  5
6A50
330
1F
100
AcDbEntity
  8
太線
100
AcDbLine
 10
531.158034477337
 20
815.8399995297425
 30
0.0
 11
518.158034477337
 21
815.8399995297425
 31
0.0
  0
LINE
  5
6A51
330
1F
100
AcDbEntity
  8
太線
100
AcDbLine
 10
514.6580704178733
 20
816.8399995297425
 30
0.0
 11
514.6580704178733
 21
834.3399995297424
 31
0.0
  0
LINE
  5
6A52
330
1F
100
AcDbEntity
  8
太線
100
AcDbLine
 10
514.6580704178733
 20
834.3399995297424
 30
0.0
 11
513.1580704178733
 21
834.3399995297424
 31
0.0
  0
LINE
  5
6A53
330
1F
100
AcDbEntity
  8
想像線
100
AcDbLine
 10
520.1580344773369
 20
813.3399995297425
 30
0.0
 11
520.1580344773369
 21
815.8399995297425
 31
0.0
  0
LINE
  5
6A54
330
1F
100
AcDbEntity
  8
想像線
100
AcDbLine
 10
529.1580344773369
 20
813.3399995297425
 30
0.0
 11
529.1580344773369
 21
815.8399995297425
 31
0.0
  0
ARC
  5
6A55
330
1F
100
AcDbEntity
  8
太線
100
AcDbCircle
 10
513.1580704178733
 20
814.3399995297425
 30
0.0
 40
1.0
100
AcDbArc
 50
180.0
 51
270.0
  0
ARC
  5
6A56
330
1F
100
AcDbEntity
  8
太線
100
AcDbCircle
 10
536.1580704178733
 20
814.3399995297425
 30
0.0
 40
1.0
100
AcDbArc
 50
270.0
 51
0.0
  0
ARC
  5
6A57
330
1F
100
AcDbEntity
  8
太線
100
AcDbCircle
 10
515.6580704178733
 20
816.8399995297425
 30
0.0
 40
1.0
100
AcDbArc
 50
180.0
 51
270.0
  0
ARC
  5
6A58
330
1F
100
AcDbEntity
  8
太線
100
AcDbCircle
 10
513.1580704178733
 20
833.3399995297424
 30
0.0
 40
1.0
100
AcDbArc
 50
90.0
 51
180.0
  0
ARC
  5
6A59
330
1F
100
AcDbEntity
  8
太線
100
AcDbCircle
 10
536.1580704178733
 20
833.3399995297424
 30
0.0
 40
1.0
100
AcDbArc
 50
0.0
 51
90.0
  0
LINE
  5
6A5A
330
1F
100
AcDbEntity
  8
太線
100
AcDbLine
 10
346.8112066568398
 20
813.3399995297425
 30
0.0
 11
348.8112066568398
 21
813.3399995297425
 31
0.0
  0
LINE
  5
6A5B
330
1F
100
AcDbEntity
  8
太線
100
AcDbLine
 10
326.3112425973762
 20
813.3399995297425
 30
0.0
 11
328.8112066568398
 21
813.3399995297425
 31
0.0
  0
LINE
  5
6A5C
330
1F
100
AcDbEntity
  8
太線
100
AcDbLine
 10
344.3112066568398
 20
815.8399995297425
 30
0.0
 11
346.8112425973762
 21
815.8399995297425
 31
0.0
  0
LINE
  5
6A5D
330
1F
100
AcDbEntity
  8
太線
100
AcDbLine
 10
328.8112425973762
 20
815.8399995297425
 30
0.0
 11
331.3112066568399
 21
815.8399995297425
 31
0.0
  0
ARC
  5
6A5E
330
1F
100
AcDbEntity
  8
太線
100
AcDbCircle
 10
346.8112425973762
 20
816.8399995297425
 30
0.0
 40
1.0
100
AcDbArc
 50
270.0
 51
0.0
  0
LINE
  5
6A5F
330
1F
100
AcDbEntity
  8
寸法線
100
AcDbLine
 10
350.3112425973762
 20
814.3399995297425
 30
0.0
 11
350.3112425973762
 21
833.3399995297424
 31
0.0
  0
LINE
  5
6A60
330
1F
100
AcDbEntity
  8
太線
100
AcDbLine
 10
325.3112425973762
 20
833.3399995297424
 30
0.0
 11
325.3112425973762
 21
814.3399995297425
 31
0.0
  0
LINE
  5
6A61
330
1F
100
AcDbEntity
  8
太線
100
AcDbLine
 10
328.8112066568398
 20
813.3399995297425
 30
0.0
 11
346.8112066568398
 21
813.3399995297425
 31
0.0
  0
LINE
  5
6A62
330
1F
100
AcDbEntity
  8
太線
100
AcDbLine
 10
350.3112425973762
 20
814.3399995297425
 30
0.0
 11
350.3112425973762
 21
833.3399995297424
 31
0.0
  0
LINE
  5
6A63
330
1F
100
AcDbEntity
  8
太線
100
AcDbLine
 10
349.3112425973762
 20
834.3399995297424
 30
0.0
 11
347.8112425973762
 21
834.3399995297424
 31
0.0
  0
LINE
  5
6A64
330
1F
100
AcDbEntity
  8
太線
100
AcDbLine
 10
347.8112425973762
 20
834.3399995297424
 30
0.0
 11
347.8112425973762
 21
816.8399995297425
 31
0.0
  0
LINE
  5
6A65
330
1F
100
AcDbEntity
  8
太線
100
AcDbLine
 10
344.3112066568398
 20
815.8399995297425
 30
0.0
 11
331.3112066568399
 21
815.8399995297425
 31
0.0
  0
LINE
  5
6A66
330
1F
100
AcDbEntity
  8
太線
100
AcDbLine
 10
327.8112425973762
 20
816.8399995297425
 30
0.0
 11
327.8112425973762
 21
834.3399995297424
 31
0.0
  0
LINE
  5
6A67
330
1F
100
AcDbEntity
  8
太線
100
AcDbLine
 10
327.8112425973762
 20
834.3399995297424
 30
0.0
 11
326.3112425973762
 21
834.3399995297424
 31
0.0
  0
LINE
  5
6A68
330
1F
100
AcDbEntity
  8
想像線
100
AcDbLine
 10
333.3112066568399
 20
813.3399995297425
 30
0.0
 11
333.3112066568399
 21
815.8399995297425
 31
0.0
  0
LINE
  5
6A69
330
1F
100
AcDbEntity
  8
想像線
100
AcDbLine
 10
342.3112066568398
 20
813.3399995297425
 30
0.0
 11
342.3112066568398
 21
815.8399995297425
 31
0.0
  0
ARC
  5
6A6A
330
1F
100
AcDbEntity
  8
太線
100
AcDbCircle
 10
326.3112425973762
 20
814.3399995297425
 30
0.0
 40
1.0
100
AcDbArc
 50
180.0
 51
270.0
  0
ARC
  5
6A6B
330
1F
100
AcDbEntity
  8
太線
100
AcDbCircle
 10
349.3112425973762
 20
814.3399995297425
 30
0.0
 40
1.0
100
AcDbArc
 50
270.0
 51
0.0
  0
ARC
  5
6A6C
330
1F
100
AcDbEntity
  8
太線
100
AcDbCircle
 10
328.8112425973762
 20
816.8399995297425
 30
0.0
 40
1.0
100
AcDbArc
 50
180.0
 51
270.0
  0
ARC
  5
6A6D
330
1F
100
AcDbEntity
  8
太線
100
AcDbCircle
 10
326.3112425973762
 20
833.3399995297424
 30
0.0
 40
1.0
100
AcDbArc
 50
90.0
 51
180.0
  0
ARC
  5
6A6E
330
1F
100
AcDbEntity
  8
太線
100
AcDbCircle
 10
349.3112425973762
 20
833.3399995297424
 30
0.0
 40
1.0
100
AcDbArc
 50
0.0
 51
90.0
  0
LINE
  5
6A6F
330
1F
100
AcDbEntity
  8
太線
100
AcDbLine
 10
516.7546345251243
 20
813.3399995297425
 30
0.0
 11
516.7546345251243
 21
812.8399995297426
 31
0.0
  0
LINE
  5
6A70
330
1F
100
AcDbEntity
  8
太線
100
AcDbLine
 10
534.0383498067759
 20
812.8399995297426
 30
0.0
 11
534.0383498067759
 21
813.3399995297425
 31
0.0
  0
ARC
  5
6A71
330
1F
100
AcDbEntity
  8
太線
100
AcDbCircle
 10
517.7546345251244
 20
812.8399995297426
 30
0.0
 40
1.0
100
AcDbArc
 50
180.0
 51
270.0
  0
ARC
  5
6A72
330
1F
100
AcDbEntity
  8
太線
100
AcDbCircle
 10
533.0383498067759
 20
812.8399995297426
 30
0.0
 40
1.0
100
AcDbArc
 50
270.0
 51
0.0
  0
LINE
  5
6A73
330
1F
100
AcDbEntity
  8
細線
100
AcDbLine
 10
528.8007271552924
 20
835.8005477775805
 30
0.0
 11
528.8007271552924
 21
837.8005477775804
 31
0.0
  0
LINE
  5
6A74
330
1F
100
AcDbEntity
  8
細線
100
AcDbLine
 10
519.8007271552923
 20
837.8005477775804
 30
0.0
 11
519.8007271552923
 21
835.8005477775803
 31
0.0
  0
LINE
  5
6A75
330
1F
100
AcDbEntity
  8
細線
100
AcDbLine
 10
520.3007271552924
 20
839.8005477775804
 30
0.0
 11
528.3023119057743
 21
839.7942087756527
 31
0.0
  0
LINE
  5
6A76
330
1F
100
AcDbEntity
  8
破線
100
AcDbLine
 10
514.3007271552924
 20
823.3399995297425
 30
0.0
 11
514.6580704178733
 21
823.3399995297425
 31
0.0
  0
LINE
  5
6A78
330
1F
100
AcDbEntity
  8
破線
100
AcDbLine
 10
514.6580704178733
 20
823.3399995297425
 30
0.0
 11
519.8007271552923
 21
823.3399995297425
 31
0.0
  0
LINE
  5
6A79
330
1F
100
AcDbEntity
  8
破線
100
AcDbLine
 10
537.1580704178732
 20
823.3399995297425
 30
0.0
 11
562.5217850466724
 21
823.3399995297425
 31
0.0
  0
LINE
  5
6A7A
330
1F
100
AcDbEntity
  8
破線
100
AcDbLine
 10
528.8007271552926
 20
823.3399995297425
 30
0.0
 11
534.3007271552924
 21
823.3399995297425
 31
0.0
  0
LINE
  5
6A7B
330
1F
100
AcDbEntity
  8
細線
100
AcDbLine
 10
333.2360464832162
 20
823.3399995297423
 30
0.0
 11
332.9538993347953
 21
820.8399995297426
 31
0.0
  0
LINE
  5
6A7C
330
1F
100
AcDbEntity
  8
細線
100
AcDbLine
 10
341.2360464832163
 20
823.3399995297423
 30
0.0
 11
341.2360464832163
 21
815.9797581532911
 31
0.0
  0
LINE
  5
6A7D
330
1F
100
AcDbEntity
  8
細線
100
AcDbLine
 10
333.2360464832162
 20
823.3399995297423
 30
0.0
 11
333.2360464832162
 21
815.9797581532911
 31
0.0
  0
LINE
  5
6A7E
330
1F
100
AcDbEntity
  8
破線
100
AcDbLine
 10
327.2360464832163
 20
823.3399995297425
 30
0.0
 11
332.9538993347953
 21
823.3399995297425
 31
0.0
  0
LINE
  5
6A7F
330
1F
100
AcDbEntity
  8
破線
100
AcDbLine
 10
350.3112425973761
 20
823.3399995297423
 30
0.0
 11
381.6838327434664
 21
823.3399995297425
 31
0.0
  0
LINE
  5
6A80
330
1F
100
AcDbEntity
  8
破線
100
AcDbLine
 10
341.9538993347955
 20
823.3399995297423
 30
0.0
 11
347.2360464832163
 21
823.3399995297425
 31
0.0
  0
TEXT
  5
6A96
330
1F
100
AcDbEntity
  8
文字
100
AcDbText
 10
222.4426662388982
 20
1086.599031082776
 30
0.0
 40
10.0
  1
パネル裏側止め金具：オールステンレス（SUS304)
 51
15.0
  7
OKANO
100
AcDbText
  0
XLINE
  5
6AA1
330
1F
100
AcDbEntity
  8
構築線
100
AcDbXline
 10
484.6221990530612
 20
823.2305354893615
 30
0.0
 11
0.0
 21
1.0
 31
0.0
  0
XLINE
  5
6AA2
330
1F
100
AcDbEntity
  8
構築線
100
AcDbXline
 10
213.9454965241318
 20
872.8399995297424
 30
0.0
 11
0.0
 21
1.0
 31
0.0
  0
XLINE
  5
6AA4
330
1F
100
AcDbEntity
  8
構築線
100
AcDbXline
 10
343.821821663063
 20
911.7262514423055
 30
0.0
 11
0.0
 21
1.0
 31
0.0
  0
XLINE
  5
6AA5
330
1F
100
AcDbEntity
  8
構築線
100
AcDbXline
 10
303.821821663063
 20
911.7262514423055
 30
0.0
 11
0.0
 21
1.0
 31
0.0
  0
XLINE
  5
6AA7
330
1F
100
AcDbEntity
  8
構築線
100
AcDbXline
 10
337.2360464832163
 20
917.8054382497503
 30
0.0
 11
0.0
 21
1.0
 31
0.0
  0
XLINE
  5
6AA8
330
1F
100
AcDbEntity
  8
構築線
100
AcDbXline
 10
377.2360464832163
 20
917.8054382497503
 30
0.0
 11
0.0
 21
1.0
 31
0.0
  0
XLINE
  5
6AA9
330
1F
100
AcDbEntity
  8
構築線
100
AcDbXline
 10
297.2360464832163
 20
917.8054382497503
 30
0.0
 11
0.0
 21
1.0
 31
0.0
  0
XLINE
  5
6AB2
330
1F
100
AcDbEntity
  8
構築線
100
AcDbXline
 10
333.2360464832163
 20
911.3399995297426
 30
0.0
 11
1.0
 21
0.0
 31
0.0
  0
XLINE
  5
6AB3
330
1F
100
AcDbEntity
  8
構築線
100
AcDbXline
 10
333.2360464832163
 20
907.9410200441763
 30
0.0
 11
-1.0
 21
0.0
 31
0.0
  0
LINE
  5
6AB4
330
1F
100
AcDbEntity
  8
太線
100
AcDbLine
 10
333.2360464832163
 20
911.3399995297426
 30
0.0
 11
377.2360464832163
 21
911.3399995297426
 31
0.0
  0
LINE
  5
6AB5
330
1F
100
AcDbEntity
  8
太線
100
AcDbLine
 10
377.2360464832163
 20
911.3399995297426
 30
0.0
 11
377.2360464832163
 21
908.3399995297424
 31
0.0
  0
LINE
  5
6AB6
330
1F
100
AcDbEntity
  8
太線
100
AcDbLine
 10
377.2360464832163
 20
908.3399995297424
 30
0.0
 11
297.2360464832163
 21
907.9410200441763
 31
0.0
  0
LINE
  5
6AB7
330
1F
100
AcDbEntity
  8
太線
100
AcDbLine
 10
297.2360464832163
 20
907.9410200441763
 30
0.0
 11
297.2360464832163
 21
911.3399995297426
 31
0.0
  0
LINE
  5
6AB8
330
1F
100
AcDbEntity
  8
太線
100
AcDbLine
 10
297.2360464832163
 20
911.3399995297426
 30
0.0
 11
333.2360464832163
 21
911.3399995297426
 31
0.0
  0
LINE
  5
6ABD
330
1F
100
AcDbEntity
  8
太線
100
AcDbLine
 10
484.6221990530612
 20
911.3399995297426
 30
0.0
 11
504.3007271552924
 21
911.3399995297426
 31
0.0
  0
LINE
  5
6ABE
330
1F
100
AcDbEntity
  8
太線
100
AcDbLine
 10
504.3007271552924
 20
908.3399995297424
 30
0.0
 11
484.7050479778554
 21
908.3399995297424
 31
0.0
  0
LINE
  5
6ABF
330
1F
100
AcDbEntity
  8
太線
100
AcDbLine
 10
484.7050479778554
 20
908.3399995297424
 30
0.0
 11
484.7050479778554
 21
911.0824917086283
 31
0.0
  0
DIMENSION
  5
6ACA
330
1F
100
AcDbEntity
  8
寸法線
100
AcDbDimension
  2
*D28
 10
524.3007271552924
 20
924.3507637642032
 30
0.0
 11
504.4614631041768
 21
927.8507637642032
 31
0.0
 70
    32
  1
40
 71
     5
 42
39.67852810223121
  3
sunpo
100
AcDbAlignedDimension
 13
484.6221990530612
 23
911.3399995297426
 33
0.0
 14
524.3007271552924
 24
914.3399995297425
 34
0.0
100
AcDbRotatedDimension
1001
ACAD
1000
DSTYLE
1002
{
1070
    40
1040
1.0
1002
}
  0
DIMENSION
  5
6AE9
330
1F
100
AcDbEntity
  8
寸法線
100
AcDbDimension
  2
*D29
 10
377.2360464832163
 20
929.8913096827455
 30
0.0
 11
337.2360464832163
 21
933.3913096827455
 31
0.0
 70
    32
 71
     5
 42
80.0
  3
sunpo
100
AcDbAlignedDimension
 13
297.2360464832163
 23
911.3399995297426
 33
0.0
 14
377.2360464832163
 24
911.3399995297426
 34
0.0
100
AcDbRotatedDimension
1001
ACAD
1000
DSTYLE
1002
{
1070
    40
1040
1.0
1002
}
  0
MTEXT
  5
6BE0
330
1F
100
AcDbEntity
  8
寸法線
100
AcDbMText
 10
694.0610406082123
 20
883.2189879532089
 30
0.0
 40
5.0
 41
0.0
 71
     1
 72
     1
  1

  7
OKANO
 73
     1
 44
1.0
  0
LEADER
  5
6C48
330
1F
100
AcDbEntity
  8
寸法線
100
AcDbLeader
  3
sunpo
 76
     2
 10
708.908001992334
 20
912.7957181041962
 30
0.0
 10
709.1153514028474
 20
899.746073722226
 30
0.0
211
-1.0
221
0.0000000000000001
231
0.0
1001
ACAD
1000
DSTYLE
1002
{
1070
   147
1040
1.0
1070
    77
1070
     0
1002
}
  0
TEXT
  5
6C49
330
1F
100
AcDbEntity
  8
文字
100
AcDbText
 10
646.5219714632691
 20
942.4096572428977
 30
0.0
 40
6.0
  1
強度は設計基準を参照
 51
15.0
  7
OKANO
100
AcDbText
  0
TEXT
  5
6C4A
330
1F
100
AcDbEntity
  8
文字
100
AcDbText
 10
632.1968895852396
 20
915.580122309141
 30
0.0
 40
6.0
  1
荷重1000Ｎ
 51
15.0
  7
OKANO
100
AcDbText
  0
LEADER
  5
6C4B
330
1F
100
AcDbEntity
  8
寸法線
100
AcDbLeader
  3
sunpo
 76
     2
 10
651.4727994824053
 20
913.2307060234353
 30
0.0
 10
651.4727994824053
 20
900.1810616414651
 30
0.0
211
-1.0
221
0.0000000000000001
231
0.0
1001
ACAD
1000
DSTYLE
1002
{
1070
   147
1040
1.0
1070
    77
1070
     0
1002
}
  0
LINE
  5
6C4C
330
1F
100
AcDbEntity
  8
想像線
100
AcDbLine
 10
647.8837142731612
 20
868.8016331085108
 30
0.0
 11
647.8837142731612
 21
870.5059023796753
 31
0.0
  0
LINE
  5
6C4D
330
1F
100
AcDbEntity
  8
細線
100
AcDbLine
 10
647.8837142731612
 20
896.5451130544623
 30
0.0
 11
647.3837142731611
 21
895.5451130544624
 31
0.0
  0
LINE
  5
6C4E
330
1F
100
AcDbEntity
  8
細線
100
AcDbLine
 10
656.3837142731612
 20
895.5451130544624
 30
0.0
 11
655.8837142731611
 21
896.5451130544623
 31
0.0
  0
LINE
  5
6C4F
330
1F
100
AcDbEntity
  8
太線
100
AcDbLine
 10
647.8837142731612
 20
896.5451130544623
 30
0.0
 11
655.8837142731611
 21
896.5451130544623
 31
0.0
  0
LINE
  5
6C50
330
1F
100
AcDbEntity
  8
太線
100
AcDbLine
 10
656.3837142731612
 20
862.7512508904148
 30
0.0
 11
656.3837142731612
 21
858.1855853210582
 31
0.0
  0
LINE
  5
6C51
330
1F
100
AcDbEntity
  8
細線
100
AcDbLine
 10
656.3837142731612
 20
858.1855853210582
 30
0.0
 11
655.8837142731611
 21
856.1855853210582
 31
0.0
  0
LINE
  5
6C52
330
1F
100
AcDbEntity
  8
太線
100
AcDbLine
 10
655.8837142731611
 20
856.1855853210582
 30
0.0
 11
647.8837142731612
 21
856.1855853210582
 31
0.0
  0
LINE
  5
6C53
330
1F
100
AcDbEntity
  8
細線
100
AcDbLine
 10
647.8837142731612
 20
856.1855853210582
 30
0.0
 11
647.3837142731611
 21
858.1855853210582
 31
0.0
  0
LINE
  5
6C54
330
1F
100
AcDbEntity
  8
太線
100
AcDbLine
 10
647.3837142731611
 20
858.1855853210582
 30
0.0
 11
647.3837142731611
 21
870.9620583496318
 31
0.0
  0
LINE
  5
6C55
330
1F
100
AcDbEntity
  8
太線
100
AcDbLine
 10
655.8837142731611
 20
895.5451130544624
 30
0.0
 11
655.8837142731611
 21
889.7047037071633
 31
0.0
  0
LINE
  5
6C56
330
1F
100
AcDbEntity
  8
太線
100
AcDbLine
 10
647.8837142731612
 20
895.5451130544624
 30
0.0
 11
647.8837142731612
 21
889.7047037071633
 31
0.0
  0
LINE
  5
6C57
330
1F
100
AcDbEntity
  8
細線
100
AcDbLine
 10
656.3837142731612
 20
895.5451130544622
 30
0.0
 11
656.3837142731612
 21
889.7047037071633
 31
0.0
  0
LINE
  5
6C58
330
1F
100
AcDbEntity
  8
細線
100
AcDbLine
 10
647.3837142731611
 20
895.5451130544622
 30
0.0
 11
647.3837142731611
 21
889.7047037071633
 31
0.0
  0
LINE
  5
6C59
330
1F
100
AcDbEntity
  8
細線
100
AcDbLine
 10
656.3837142731612
 20
895.5451130544624
 30
0.0
 11
647.3837142731611
 21
895.5451130544624
 31
0.0
  0
ARC
  5
6C5A
330
1F
100
AcDbEntity
  8
太線
100
AcDbCircle
 10
680.8837142731611
 20
849.4095068610832
 30
0.0
 40
23.2796974685795
100
AcDbArc
 50
30.7486871587825
 51
149.2513128412175
  0
LINE
  5
6C5B
330
1F
100
AcDbEntity
  8
想像線
100
AcDbLine
 10
637.8576729646671
 20
879.652779575475
 30
0.0
 11
723.857085265091
 21
879.9707166473988
 31
0.0
  0
LINE
  5
6C5C
330
1F
100
AcDbEntity
  8
太線
100
AcDbLine
 10
637.8484306079252
 20
882.1527624911849
 30
0.0
 11
638.8484237742091
 21
882.1564594338818
 31
0.0
  0
LINE
  5
6C5D
330
1F
100
AcDbEntity
  8
太線
100
AcDbLine
 10
637.8576729646671
 20
879.652779575475
 30
0.0
 11
637.8484306079252
 21
882.1527624911849
 31
0.0
  0
LINE
  5
6C5E
330
1F
100
AcDbEntity
  8
太線
100
AcDbLine
 10
658.4271896761824
 20
860.8869638813201
 30
0.0
 11
637.8576729646671
 21
879.652779575475
 31
0.0
  0
LINE
  5
6C5F
330
1F
100
AcDbEntity
  8
太線
100
AcDbLine
 10
723.857085265091
 20
879.9707166473988
 30
0.0
 11
703.9268787421043
 21
861.0551747740238
 31
0.0
  0
LINE
  5
6C60
330
1F
100
AcDbEntity
  8
太線
100
AcDbLine
 10
723.8478429083491
 20
882.4706995631087
 30
0.0
 11
723.857085265091
 21
879.9707166473988
 31
0.0
  0
LINE
  5
6C61
330
1F
100
AcDbEntity
  8
太線
100
AcDbLine
 10
701.1332782436608
 20
861.0448469224857
 30
0.0
 11
703.9268787421043
 21
861.0551747740238
 31
0.0
  0
LINE
  5
6C62
330
1F
100
AcDbEntity
  8
太線
100
AcDbLine
 10
658.4271896761824
 20
860.8869638813201
 30
0.0
 11
660.7207935914839
 21
860.8954432615098
 31
0.0
  0
ARC
  5
6C63
330
1F
100
AcDbEntity
  8
太線
370
    60
100
AcDbCircle
 10
680.9697746386254
 20
849.4096659355687
 30
0.0
 40
23.2796974685795
100
AcDbArc
 50
29.98673543561478
 51
150.4369039566483
  0
LINE
  5
6C64
330
1F
100
AcDbEntity
  8
太線
100
AcDbLine
 10
638.8484237742091
 20
882.1564594338818
 30
0.0
 11
722.847849742065
 21
882.4670026204119
 31
0.0
  0
ARC
  5
6C65
330
1F
100
AcDbEntity
  8
太線
100
AcDbCircle
 10
644.6238172674115
 20
888.7047037071633
 30
0.0
 40
1.0
100
AcDbArc
 50
90.0
 51
180.0
  0
ARC
  5
6C66
330
1F
100
AcDbEntity
  8
太線
100
AcDbCircle
 10
657.6238172674114
 20
888.7047037071633
 30
0.0
 40
1.0
100
AcDbArc
 50
0.0
 51
90.0
  0
ARC
  5
6C67
330
1F
100
AcDbEntity
  8
太線
100
AcDbCircle
 10
643.4819596265856
 20
882.7047037071633
 30
0.0
 40
1.0
100
AcDbArc
 50
90.0
 51
180.0
  0
ARC
  5
6C68
330
1F
100
AcDbEntity
  8
太線
100
AcDbCircle
 10
658.7656749082372
 20
882.7047037071633
 30
0.0
 40
1.0
100
AcDbArc
 50
0.0
 51
90.0
  0
ARC
  5
6C69
330
1F
100
AcDbEntity
  8
太線
100
AcDbCircle
 10
645.3738172674114
 20
887.6763901372711
 30
0.0
 40
2.029760773594802
100
AcDbArc
 50
30.43882523641641
 51
149.5611747635836
  0
ARC
  5
6C6A
330
1F
100
AcDbEntity
  8
太線
100
AcDbCircle
 10
656.8738172674114
 20
887.7663945955395
 30
0.0
 40
1.985679729703703
100
AcDbArc
 50
28.19916958668873
 51
151.8008304133112
  0
ARC
  5
6C6B
330
1F
100
AcDbEntity
  8
太線
100
AcDbCircle
 10
651.1238172674114
 20
881.2047037071634
 30
0.0
 40
8.499999999999836
100
AcDbArc
 50
61.9275130641455
 51
118.0724869358545
  0
LINE
  5
6C6C
330
1F
100
AcDbEntity
  8
太線
100
AcDbLine
 10
647.1238172674114
 20
888.7047037071633
 30
0.0
 11
647.1238172674114
 21
883.7047037071632
 31
0.0
  0
LINE
  5
6C6D
330
1F
100
AcDbEntity
  8
太線
100
AcDbLine
 10
655.1238172674114
 20
888.7047037071633
 30
0.0
 11
655.1238172674114
 21
883.7047037071632
 31
0.0
  0
LINE
  5
6C6E
330
1F
100
AcDbEntity
  8
太線
100
AcDbLine
 10
658.6238172674114
 20
883.7047037071632
 30
0.0
 11
643.6238172674115
 21
883.7047037071632
 31
0.0
  0
LINE
  5
6C6F
330
1F
100
AcDbEntity
  8
太線
100
AcDbLine
 10
642.4819596265856
 20
882.7047037071633
 30
0.0
 11
642.4819596265856
 21
882.2047037071632
 31
0.0
  0
LINE
  5
6C70
330
1F
100
AcDbEntity
  8
太線
100
AcDbLine
 10
643.6238172674115
 20
883.7047037071632
 30
0.0
 11
643.4819596265856
 21
883.7047037071632
 31
0.0
  0
LINE
  5
6C71
330
1F
100
AcDbEntity
  8
太線
100
AcDbLine
 10
643.6238172674115
 20
888.7047037071633
 30
0.0
 11
643.6238172674115
 21
883.7047037071632
 31
0.0
  0
LINE
  5
6C72
330
1F
100
AcDbEntity
  8
太線
100
AcDbLine
 10
657.6238172674114
 20
889.7047037071633
 30
0.0
 11
644.6238172674115
 21
889.7047037071633
 31
0.0
  0
LINE
  5
6C73
330
1F
100
AcDbEntity
  8
太線
100
AcDbLine
 10
658.6238172674114
 20
883.7047037071632
 30
0.0
 11
658.6238172674113
 21
888.7047037071633
 31
0.0
  0
LINE
  5
6C74
330
1F
100
AcDbEntity
  8
太線
100
AcDbLine
 10
658.7656749082372
 20
883.7047037071632
 30
0.0
 11
658.6238172674114
 21
883.7047037071632
 31
0.0
  0
LINE
  5
6C75
330
1F
100
AcDbEntity
  8
太線
100
AcDbLine
 10
659.7656749082373
 20
882.2047037071632
 30
0.0
 11
659.7656749082373
 21
882.7047037071633
 31
0.0
  0
LINE
  5
6C76
330
1F
100
AcDbEntity
  8
太線
100
AcDbLine
 10
659.7656749082373
 20
882.2047037071632
 30
0.0
 11
642.4819596265856
 21
882.2047037071632
 31
0.0
  0
LINE
  5
6C77
330
1F
100
AcDbEntity
  8
太線
100
AcDbLine
 10
718.3267779776124
 20
882.2047037071632
 30
0.0
 11
701.0430626959608
 21
882.2047037071632
 31
0.0
  0
LINE
  5
6C78
330
1F
100
AcDbEntity
  8
太線
100
AcDbLine
 10
718.3267779776124
 20
882.2047037071632
 30
0.0
 11
718.3267779776124
 21
882.7047037071633
 31
0.0
  0
LINE
  5
6C79
330
1F
100
AcDbEntity
  8
太線
100
AcDbLine
 10
717.3267779776124
 20
883.7047037071632
 30
0.0
 11
717.1849203367866
 21
883.7047037071632
 31
0.0
  0
LINE
  5
6C7A
330
1F
100
AcDbEntity
  8
太線
100
AcDbLine
 10
717.1849203367866
 20
883.7047037071632
 30
0.0
 11
717.1849203367864
 21
888.7047037071633
 31
0.0
  0
LINE
  5
6C7B
330
1F
100
AcDbEntity
  8
太線
100
AcDbLine
 10
716.1849203367864
 20
889.7047037071633
 30
0.0
 11
703.1849203367865
 21
889.7047037071633
 31
0.0
  0
LINE
  5
6C7C
330
1F
100
AcDbEntity
  8
太線
100
AcDbLine
 10
702.1849203367866
 20
888.7047037071633
 30
0.0
 11
702.1849203367866
 21
883.7047037071632
 31
0.0
  0
LINE
  5
6C7D
330
1F
100
AcDbEntity
  8
太線
100
AcDbLine
 10
702.1849203367866
 20
883.7047037071632
 30
0.0
 11
702.0430626959607
 21
883.7047037071632
 31
0.0
  0
LINE
  5
6C7E
330
1F
100
AcDbEntity
  8
太線
100
AcDbLine
 10
701.0430626959608
 20
882.7047037071633
 30
0.0
 11
701.0430626959608
 21
882.2047037071632
 31
0.0
  0
LINE
  5
6C7F
330
1F
100
AcDbEntity
  8
太線
100
AcDbLine
 10
717.1849203367866
 20
883.7047037071632
 30
0.0
 11
702.1849203367866
 21
883.7047037071632
 31
0.0
  0
LINE
  5
6C80
330
1F
100
AcDbEntity
  8
太線
100
AcDbLine
 10
713.6849203367866
 20
888.7047037071633
 30
0.0
 11
713.6849203367866
 21
883.7047037071632
 31
0.0
  0
LINE
  5
6C81
330
1F
100
AcDbEntity
  8
太線
100
AcDbLine
 10
705.6849203367866
 20
888.7047037071633
 30
0.0
 11
705.6849203367866
 21
883.7047037071632
 31
0.0
  0
ARC
  5
6C82
330
1F
100
AcDbEntity
  8
太線
100
AcDbCircle
 10
709.6849203367866
 20
881.2047037071634
 30
0.0
 40
8.499999999999836
100
AcDbArc
 50
61.9275130641455
 51
118.0724869358545
  0
ARC
  5
6C83
330
1F
100
AcDbEntity
  8
太線
100
AcDbCircle
 10
715.4349203367866
 20
887.7663945955395
 30
0.0
 40
1.985679729703703
100
AcDbArc
 50
28.19916958668873
 51
151.8008304133112
  0
ARC
  5
6C84
330
1F
100
AcDbEntity
  8
太線
100
AcDbCircle
 10
703.9349203367866
 20
887.6763901372711
 30
0.0
 40
2.029760773594802
100
AcDbArc
 50
30.43882523641641
 51
149.5611747635836
  0
ARC
  5
6C85
330
1F
100
AcDbEntity
  8
太線
100
AcDbCircle
 10
717.3267779776123
 20
882.7047037071633
 30
0.0
 40
1.0
100
AcDbArc
 50
0.0
 51
90.0
  0
ARC
  5
6C86
330
1F
100
AcDbEntity
  8
太線
100
AcDbCircle
 10
702.0430626959607
 20
882.7047037071633
 30
0.0
 40
1.0
100
AcDbArc
 50
90.0
 51
180.0
  0
ARC
  5
6C87
330
1F
100
AcDbEntity
  8
太線
100
AcDbCircle
 10
716.1849203367864
 20
888.7047037071633
 30
0.0
 40
1.0
100
AcDbArc
 50
0.0
 51
90.0
  0
ARC
  5
6C88
330
1F
100
AcDbEntity
  8
太線
100
AcDbCircle
 10
703.1849203367865
 20
888.7047037071633
 30
0.0
 40
1.0
100
AcDbArc
 50
90.0
 51
180.0
  0
LINE
  5
6C89
330
1F
100
AcDbEntity
  8
細線
100
AcDbLine
 10
714.1412721860072
 20
895.5451130544624
 30
0.0
 11
705.1412721860073
 21
895.5451130544624
 31
0.0
  0
LINE
  5
6C8A
330
1F
100
AcDbEntity
  8
細線
100
AcDbLine
 10
705.1412721860073
 20
895.5451130544622
 30
0.0
 11
705.1412721860073
 21
889.7047037071633
 31
0.0
  0
LINE
  5
6C8B
330
1F
100
AcDbEntity
  8
細線
100
AcDbLine
 10
714.1412721860072
 20
895.5451130544622
 30
0.0
 11
714.1412721860072
 21
889.7047037071633
 31
0.0
  0
LINE
  5
6C8C
330
1F
100
AcDbEntity
  8
太線
100
AcDbLine
 10
705.6412721860072
 20
895.5451130544624
 30
0.0
 11
705.6412721860072
 21
889.7047037071633
 31
0.0
  0
LINE
  5
6C8D
330
1F
100
AcDbEntity
  8
太線
100
AcDbLine
 10
713.6412721860073
 20
895.5451130544624
 30
0.0
 11
713.6412721860073
 21
889.7047037071633
 31
0.0
  0
LINE
  5
6C8E
330
1F
100
AcDbEntity
  8
太線
100
AcDbLine
 10
705.1412721860073
 20
858.1855853210582
 30
0.0
 11
705.1412721860073
 21
862.2077423609379
 31
0.0
  0
LINE
  5
6C8F
330
1F
100
AcDbEntity
  8
細線
100
AcDbLine
 10
705.6412721860072
 20
856.1855853210582
 30
0.0
 11
705.1412721860073
 21
858.1855853210582
 31
0.0
  0
LINE
  5
6C90
330
1F
100
AcDbEntity
  8
太線
100
AcDbLine
 10
713.6412721860073
 20
856.1855853210582
 30
0.0
 11
705.6412721860072
 21
856.1855853210582
 31
0.0
  0
LINE
  5
6C91
330
1F
100
AcDbEntity
  8
細線
100
AcDbLine
 10
714.1412721860072
 20
858.1855853210582
 30
0.0
 11
713.6412721860073
 21
856.1855853210582
 31
0.0
  0
LINE
  5
6C92
330
1F
100
AcDbEntity
  8
太線
100
AcDbLine
 10
714.1412721860072
 20
870.7495443068447
 30
0.0
 11
714.1412721860072
 21
858.1855853210582
 31
0.0
  0
LINE
  5
6C93
330
1F
100
AcDbEntity
  8
太線
100
AcDbLine
 10
705.6412721860072
 20
896.5451130544623
 30
0.0
 11
713.6412721860073
 21
896.5451130544623
 31
0.0
  0
LINE
  5
6C94
330
1F
100
AcDbEntity
  8
細線
100
AcDbLine
 10
714.1412721860072
 20
895.5451130544624
 30
0.0
 11
713.6412721860073
 21
896.5451130544623
 31
0.0
  0
LINE
  5
6C95
330
1F
100
AcDbEntity
  8
細線
100
AcDbLine
 10
705.6412721860072
 20
896.5451130544623
 30
0.0
 11
705.1412721860073
 21
895.5451130544624
 31
0.0
  0
LINE
  5
6C96
330
1F
100
AcDbEntity
  8
想像線
100
AcDbLine
 10
713.6412721860073
 20
868.8016331085108
 30
0.0
 11
713.6412721860073
 21
870.2749997542944
 31
0.0
  0
LINE
  5
6C97
330
1F
100
AcDbEntity
  8
太線
100
AcDbLine
 10
713.8837142731611
 20
823.0451130544624
 30
0.0
 11
713.8837142731611
 21
868.8016331085108
 31
0.0
  0
LINE
  5
6C98
330
1F
100
AcDbEntity
  8
太線
100
AcDbLine
 10
705.8837142731611
 20
862.9123860570238
 30
0.0
 11
705.8837142731611
 21
823.0451130544624
 31
0.0
  0
LINE
  5
6C99
330
1F
100
AcDbEntity
  8
太線
100
AcDbLine
 10
655.8837142731611
 20
823.0451130544624
 30
0.0
 11
655.8837142731611
 21
863.2074068603714
 31
0.0
  0
LINE
  5
6C9A
330
1F
100
AcDbEntity
  8
太線
100
AcDbLine
 10
647.8837142731612
 20
868.8016331085108
 30
0.0
 11
647.8837142731612
 21
823.0451130544624
 31
0.0
  0
CIRCLE
  5
6C9B
330
1F
100
AcDbEntity
  8
破線
100
AcDbCircle
 10
680.8837142731611
 20
847.6892043296627
 30
0.0
 40
24.5
  0
TEXT
  5
6C9C
330
1F
100
AcDbEntity
  8
文字
100
AcDbText
 10
695.8819463409663
 20
915.580122309141
 30
0.0
 40
6.0
  1
荷重1000Ｎ
 51
15.0
  7
OKANO
100
AcDbText
  0
LEADER
  5
6C9D
330
1F
100
AcDbEntity
  8
寸法線
100
AcDbLeader
  3
sunpo
 76
     2
 10
692.740583320271
 20
871.3737340896775
 30
0.0
 10
692.740583320271
 20
879.6551979709628
 30
0.0
1001
ACAD
1000
DSTYLE
1002
{
1070
   147
1040
1.0
1070
    77
1070
     0
1002
}
  0
LEADER
  5
6C9E
330
1F
100
AcDbEntity
  8
寸法線
100
AcDbLeader
  3
sunpo
 76
     2
 10
666.6235051290195
 20
869.9244359747542
 30
0.0
 10
666.6235051290195
 20
879.0339903299035
 30
0.0
1001
ACAD
1000
DSTYLE
1002
{
1070
   147
1040
1.0
1070
    77
1070
     0
1002
}
  0
LEADER
  5
6C9F
330
1F
100
AcDbEntity
  8
寸法線
100
AcDbLeader
  3
sunpo
 76
     2
 10
651.2847060525155
 20
875.307490007094
 30
0.0
 10
651.2847060525155
 20
882.1396557734558
 30
0.0
1001
ACAD
1000
DSTYLE
1002
{
1070
   147
1040
1.0
1070
    77
1070
     0
1002
}
  0
LEADER
  5
6CA0
330
1F
100
AcDbEntity
  8
寸法線
100
AcDbLeader
  3
sunpo
 76
     3
 10
710.1517094322543
 20
875.9285112672522
 30
0.0
 10
710.1517094322543
 20
882.3467249871617
 30
0.0
 10
709.7373996344458
 20
882.3467249871617
 30
0.0
1001
ACAD
1000
DSTYLE
1002
{
1070
   147
1040
1.0
1070
    77
1070
     0
1002
}
  0
TEXT
  5
6CA1
330
1F
100
AcDbEntity
  8
文字
100
AcDbText
 10
670.5075268439895
 20
844.9128606363235
 30
0.0
 40
10.0
  1
単管
 51
15.0
  7
OKANO
100
AcDbText
  0
TEXT
  5
6CA2
330
1F
100
AcDbEntity
  8
文字
100
AcDbText
 10
168.2926887035855
 20
669.6846441799468
 30
0.0
 40
10.0
  1
台座設計基準　荷重：P(止め金具へ垂直の荷重）Uボルトへかかる荷重1000Ｎ
 51
15.0
  7
OKANO
100
AcDbText
  0
TEXT
  5
6CA3
330
1F
100
AcDbEntity
  8
文字
100
AcDbText
 10
168.2926887035855
 20
651.7297717812623
 30
0.0
 40
10.0
  1
M8ボルト2本止め：2×1000＝2000Ｎ
 51
15.0
  7
OKANO
100
AcDbText
  0
TEXT
  5
6CA4
330
1F
100
AcDbEntity
  8
文字
100
AcDbText
 10
168.2926887035855
 20
636.973434377244
 30
0.0
 40
10.0
  1
安全率（使用環境に応じて設定）ここでは静荷重として安全率3を設定しています。2000/3＝667N（約65kg)
 51
15.0
  7
OKANO
100
AcDbText
  0
VIEWPORT
  5
2E
330
1B
100
AcDbEntity
 67
     1
  8
0
100
AcDbViewport
 10
235.7854606834672
 20
120.5771097553193
 30
0.0
 40
533.5020158028831
 41
255.6006442271047
 68
     2
 69
     1
 12
235.7854606834672
 22
120.5771097553193
 13
0.0
 23
0.0
 14
10.0
 24
10.0
 15
10.0
 25
10.0
 16
0.0
 26
0.0
 36
1.0
 17
0.0
 27
0.0
 37
0.0
 42
50.0
 43
0.0
 44
0.0
 45
255.6006442271047
 50
0.0
 51
0.0
 72
   100
 90
    32800
  1

281
     0
 71
     1
 74
     0
110
0.0
120
0.0
130
0.0
111
1.0
121
0.0
131
0.0
112
0.0
122
1.0
132
0.0
 79
     0
146
0.0
  0
VIEWPORT
  5
30
330
1B
100
AcDbEntity
 67
     1
  8
70-0-CON
100
AcDbViewport
 10
141.8594093064315
 20
100.3480256368386
 30
0.0
 40
261.6199023344245
 41
192.6196987113174
 68
     1
 69
     2
 12
478.7843292724051
 22
859.2757687181002
 13
0.0
 23
0.0
 14
5.0
 24
5.0
 15
10.0
 25
10.0
 16
0.0
 26
0.0
 36
1.0
 17
0.0
 27
0.0
 37
0.0
 42
50.0
 43
0.0
 44
0.0
 45
539.4381954579
 50
0.0
 51
0.0
 72
   100
 90
    32864
  1

281
     0
 71
     1
 74
     0
110
0.0
120
0.0
130
0.0
111
1.0
121
0.0
131
0.0
112
0.0
122
1.0
132
0.0
 79
     0
146
0.0
  0
LWPOLYLINE
  5
45
330
1B
100
AcDbEntity
 67
     1
  8
50-0-CON
100
AcDbPolyline
 90
        4
 70
     1
 43
0.0
 10
11.04945813921926
 20
4.038176281179858
 10
272.2125713060605
 20
4.033520706629644
 10
273.4987754093466
 20
195.9297862125246
 10
11.04945813921926
 20
196.6578749924973
  0
LINE
  5
4A
330
1B
100
AcDbEntity
 67
     1
  8
50-0-CON
100
AcDbLine
 10
10.38768783662635
 20
100.3480256368386
 30
0.0
 11
-4.391850629656119
 21
100.3480256368386
 31
0.0
  0
LINE
  5
4B
330
1B
100
AcDbEntity
 67
     1
  8
50-0-CON
100
AcDbLine
 10
141.8594093064315
 20
197.098652626247
 30
0.0
 11
141.8594093064315
 21
202.387980773708
 31
0.0
  0
LINE
  5
4C
330
1B
100
AcDbEntity
 67
     1
  8
50-0-CON
100
AcDbLine
 10
272.4487699456857
 20
100.7888032705883
 30
0.0
 11
278.8458837249377
 21
100.7888032705883
 31
0.0
  0
LINE
  5
4D
330
1B
100
AcDbEntity
 67
     1
  8
50-0-CON
100
AcDbLine
 10
140.9770484758805
 20
4.038176281179858
 30
0.0
 11
140.9770484758805
 21
-3.455038652015446
 31
0.0
  0
ENDSEC
  0
SECTION
  2
OBJECTS
  0
DICTIONARY
  5
C
330
0
100
AcDbDictionary
281
     1
  3
ACAD_GROUP
350
D
  3
ACAD_LAYOUT
350
1A
  3
ACAD_MLINESTYLE
350
17
  3
ACAD_PLOTSETTINGS
350
19
  3
ACAD_PLOTSTYLENAME
350
E
  3
AcadDim
350
6BDE
  3
AcDbVariableDictionary
350
6AD
  3
DWGPROPS
350
4AEC
  0
DICTIONARY
  5
D
102
{ACAD_REACTORS
330
C
102
}
330
C
100
AcDbDictionary
281
     1
  0
DICTIONARY
  5
1A
102
{ACAD_REACTORS
330
C
102
}
330
C
100
AcDbDictionary
281
     1
  3
A4
350
1E
  3
Model
350
22
  0
DICTIONARY
  5
17
102
{ACAD_REACTORS
330
C
102
}
330
C
100
AcDbDictionary
281
     1
  3
Standard
350
18
  0
DICTIONARY
  5
19
102
{ACAD_REACTORS
330
C
102
}
330
C
100
AcDbDictionary
281
     1
  0
ACDBDICTIONARYWDFLT
  5
E
102
{ACAD_REACTORS
330
C
102
}
330
C
100
AcDbDictionary
281
     1
  3
Normal
350
F
100
AcDbDictionaryWithDefault
340
F
  0
XRECORD
  5
6BDE
102
{ACAD_REACTORS
330
C
102
}
330
C
100
AcDbXrecord
280
     1
 90
   990106
  3

 60
     0
 61
     0
 62
     1
 63
     3
 64
     0
 65
     0
 66
     0
 67
     3
 68
     1
 69
     0
 70
     0
 71
     0
 72
     0
 40
0.0
170
     0
340
6BE0
  0
DICTIONARY
  5
6AD
102
{ACAD_REACTORS
330
C
102
}
330
C
100
AcDbDictionary
281
     1
  3
SORTENTS
350
6AE
  0
XRECORD
  5
4AEC
102
{ACAD_REACTORS
330
C
102
}
330
C
100
AcDbXrecord
280
     1
  1
DWGPROPS COOKIE
  2

  3

  4

  6

  7

  8

  9

300
=
301
=
302
=
303
=
304
=
305
=
306
=
307
=
308
=
309
=
 40
3.342131759259259
 41
2452362.482225463
 42
2455527.444288414
  1

 90
        0
  0
LAYOUT
  5
1E
102
{ACAD_REACTORS
330
1A
102
}
330
1A
100
AcDbPlotSettings
  1

  2
none_device
  4
ISO_A4_(210.00_x_297.00_MM)
  6

 40
7.5
 41
20.0
 42
7.5
 43
20.0
 44
210.0
 45
297.0
 46
0.0
 47
0.0
 48
0.0
 49
0.0
140
0.0
141
0.0
142
1.0
143
1.0
 70
   656
 72
     1
 73
     1
 74
     5
  7

 75
    16
147
1.0
148
0.0
149
0.0
100
AcDbLayout
  1
A4
 70
     1
 71
     1
 10
-20.0
 20
-7.5
 11
277.0
 21
202.4999999999999
 12
0.0
 22
0.0
 32
0.0
 14
-4.391850629656119
 24
-3.455038652015446
 34
0.0
 15
278.8458837249377
 25
202.387980773708
 35
0.0
146
0.0
 13
0.0
 23
0.0
 33
0.0
 16
1.0
 26
0.0
 36
0.0
 17
0.0
 27
1.0
 37
0.0
 76
     0
330
1B
331
30
  0
LAYOUT
  5
22
102
{ACAD_REACTORS
330
1A
102
}
330
1A
100
AcDbPlotSettings
  1

  2
EPSON PM-920C
  4
A4
  6

 40
3.757083177566528
 41
14.7637300491333
 42
3.757080078125
 43
3.757080078125
 44
209.9733276367187
 45
296.9683227539062
 46
0.0
 47
0.0
 48
0.0
 49
0.0
140
0.0
141
0.0
142
1.0
143
1.0
 70
 11952
 72
     1
 73
     1
 74
     0
  7
C:\Program Files\ACAD LT 2000\Plot Styles\JOINT.ctb
 75
     0
147
1.0
148
-45.64199848979289
149
-84.48806419330498
100
AcDbLayout
  1
Model
 70
     1
 71
     0
 10
0.0
 20
0.0
 11
12.0
 21
9.0
 12
0.0
 22
0.0
 32
0.0
 14
0.0
 24
0.0
 34
0.0
 15
0.0
 25
0.0
 35
0.0
146
0.0
 13
0.0
 23
0.0
 33
0.0
 16
1.0
 26
0.0
 36
0.0
 17
0.0
 27
1.0
 37
0.0
 76
     0
330
1F
  0
MLINESTYLE
  5
18
102
{ACAD_REACTORS
330
17
102
}
330
17
100
AcDbMlineStyle
  2
STANDARD
 70
     0
  3

 62
   256
 51
90.0
 52
90.0
 71
     2
 49
0.5
 62
   256
  6
BYLAYER
 49
-0.5
 62
   256
  6
BYLAYER
  0
ACDBPLACEHOLDER
  5
F
102
{ACAD_REACTORS
330
E
102
}
330
E
  0
DICTIONARYVAR
  5
6AE
102
{ACAD_REACTORS
330
6AD
102
}
330
6AD
100
DictionaryVariables
280
     0
  1
119
  0
ENDSEC
  0
EOF
