  0
SECTION
  2
HEADER
  9
$ACADVER
  1
AC1015
  9
$ACADMAINTVER
 70
     6
  9
$DWGCODEPAGE
  3
ANSI_932
  9
$INSBASE
 10
0.0
 20
0.0
 30
0.0
  9
$EXTMIN
 10
-39388.31230787149
 20
-39723.85460132336
 30
0.0
  9
$EXTMAX
 10
40661.6876921285
 20
40326.14539867664
 30
40.0
  9
$LIMMIN
 10
0.0
 20
0.0
  9
$LIMMAX
 10
420.0
 20
297.0
  9
$ORTHOMODE
 70
     1
  9
$REGENMODE
 70
     1
  9
$FILLMODE
 70
     1
  9
$QTEXTMODE
 70
     0
  9
$MIRRTEXT
 70
     1
  9
$LTSCALE
 40
1.0
  9
$ATTMODE
 70
     1
  9
$TEXTSIZE
 40
5.0
  9
$TRACEWID
 40
1.0
  9
$TEXTSTYLE
  7
OKANO
  9
$CLAYER
  8
破線
  9
$CELTYPE
  6
ByLayer
  9
$CECOLOR
 62
   256
  9
$CELTSCALE
 40
1.0
  9
$DISPSILH
 70
     0
  9
$DIMSCALE
 40
0.0
  9
$DIMASZ
 40
3.0
  9
$DIMEXO
 40
2.0
  9
$DIMDLI
 40
8.0
  9
$DIMRND
 40
0.0
  9
$DIMDLE
 40
0.0
  9
$DIMEXE
 40
3.0
  9
$DIMTP
 40
0.0
  9
$DIMTM
 40
0.0
  9
$DIMTXT
 40
5.0
  9
$DIMCEN
 40
2.5
  9
$DIMTSZ
 40
0.0
  9
$DIMTOL
 70
     0
  9
$DIMLIM
 70
     0
  9
$DIMTIH
 70
     0
  9
$DIMTOH
 70
     0
  9
$DIMSE1
 70
     0
  9
$DIMSE2
 70
     0
  9
$DIMTAD
 70
     1
  9
$DIMZIN
 70
     8
  9
$DIMBLK
  1
Closed
  9
$DIMASO
 70
     1
  9
$DIMSHO
 70
     1
  9
$DIMPOST
  1

  9
$DIMAPOST
  1

  9
$DIMALT
 70
     0
  9
$DIMALTD
 70
     3
  9
$DIMALTF
 40
0.03937007874016
  9
$DIMLFAC
 40
1.0
  9
$DIMTOFL
 70
     1
  9
$DIMTVP
 40
0.0
  9
$DIMTIX
 70
     0
  9
$DIMSOXD
 70
     0
  9
$DIMSAH
 70
     0
  9
$DIMBLK1
  1

  9
$DIMBLK2
  1

  9
$DIMSTYLE
  2
sunpo
  9
$DIMCLRD
 70
     0
  9
$DIMCLRE
 70
     0
  9
$DIMCLRT
 70
     0
  9
$DIMTFAC
 40
1.0
  9
$DIMGAP
 40
1.0
  9
$DIMJUST
 70
     0
  9
$DIMSD1
 70
     0
  9
$DIMSD2
 70
     0
  9
$DIMTOLJ
 70
     0
  9
$DIMTZIN
 70
     8
  9
$DIMALTZ
 70
     0
  9
$DIMALTTZ
 70
     0
  9
$DIMUPT
 70
     0
  9
$DIMDEC
 70
     2
  9
$DIMTDEC
 70
     2
  9
$DIMALTU
 70
     2
  9
$DIMALTTD
 70
     3
  9
$DIMTXSTY
  7
OKANO
  9
$DIMAUNIT
 70
     0
  9
$DIMADEC
 70
     0
  9
$DIMALTRND
 40
0.0
  9
$DIMAZIN
 70
     0
  9
$DIMDSEP
 70
    46
  9
$DIMATFIT
 70
     3
  9
$DIMFRAC
 70
     0
  9
$DIMLDRBLK
  1
Closed
  9
$DIMLUNIT
 70
     2
  9
$DIMLWD
 70
    -2
  9
$DIMLWE
 70
    -2
  9
$DIMTMOVE
 70
     0
  9
$LUNITS
 70
     2
  9
$LUPREC
 70
     2
  9
$SKETCHINC
 40
1.0
  9
$FILLETRAD
 40
3.0
  9
$AUNITS
 70
     0
  9
$AUPREC
 70
     0
  9
$MENU
  1
.
  9
$ELEVATION
 40
0.0
  9
$PELEVATION
 40
0.0
  9
$THICKNESS
 40
0.0
  9
$LIMCHECK
 70
     0
  9
$CHAMFERA
 40
10.0
  9
$CHAMFERB
 40
10.0
  9
$CHAMFERC
 40
20.0
  9
$CHAMFERD
 40
0.0
  9
$SKPOLY
 70
     0
  9
$TDCREATE
 40
2452362.482225463
  9
$TDUCREATE
 40
2452362.107225463
  9
$TDUPDATE
 40
2456631.536046169
  9
$TDUUPDATE
 40
2456631.161046168
  9
$TDINDWG
 40
4.0475746759
  9
$TDUSRTIMER
 40
4.0475746759
  9
$USRTIMER
 70
     1
  9
$ANGBASE
 50
0.0
  9
$ANGDIR
 70
     0
  9
$PDMODE
 70
     0
  9
$PDSIZE
 40
0.0
  9
$PLINEWID
 40
0.0
  9
$SPLFRAME
 70
     0
  9
$SPLINETYPE
 70
     6
  9
$SPLINESEGS
 70
     8
  9
$HANDSEED
  5
70C8
  9
$SURFTAB1
 70
     6
  9
$SURFTAB2
 70
     6
  9
$SURFTYPE
 70
     6
  9
$SURFU
 70
     6
  9
$SURFV
 70
     6
  9
$UCSBASE
  2

  9
$UCSNAME
  2

  9
$UCSORG
 10
0.0
 20
0.0
 30
0.0
  9
$UCSXDIR
 10
1.0
 20
0.0
 30
0.0
  9
$UCSYDIR
 10
0.0
 20
1.0
 30
0.0
  9
$UCSORTHOREF
  2

  9
$UCSORTHOVIEW
 70
     0
  9
$UCSORGTOP
 10
0.0
 20
0.0
 30
0.0
  9
$UCSORGBOTTOM
 10
0.0
 20
0.0
 30
0.0
  9
$UCSORGLEFT
 10
0.0
 20
0.0
 30
0.0
  9
$UCSORGRIGHT
 10
0.0
 20
0.0
 30
0.0
  9
$UCSORGFRONT
 10
0.0
 20
0.0
 30
0.0
  9
$UCSORGBACK
 10
0.0
 20
0.0
 30
0.0
  9
$PUCSBASE
  2

  9
$PUCSNAME
  2

  9
$PUCSORG
 10
0.0
 20
0.0
 30
0.0
  9
$PUCSXDIR
 10
1.0
 20
0.0
 30
0.0
  9
$PUCSYDIR
 10
0.0
 20
1.0
 30
0.0
  9
$PUCSORTHOREF
  2

  9
$PUCSORTHOVIEW
 70
     0
  9
$PUCSORGTOP
 10
0.0
 20
0.0
 30
0.0
  9
$PUCSORGBOTTOM
 10
0.0
 20
0.0
 30
0.0
  9
$PUCSORGLEFT
 10
0.0
 20
0.0
 30
0.0
  9
$PUCSORGRIGHT
 10
0.0
 20
0.0
 30
0.0
  9
$PUCSORGFRONT
 10
0.0
 20
0.0
 30
0.0
  9
$PUCSORGBACK
 10
0.0
 20
0.0
 30
0.0
  9
$USERI1
 70
     0
  9
$USERI2
 70
     0
  9
$USERI3
 70
     0
  9
$USERI4
 70
     0
  9
$USERI5
 70
     0
  9
$USERR1
 40
0.0
  9
$USERR2
 40
0.0
  9
$USERR3
 40
0.0
  9
$USERR4
 40
0.0
  9
$USERR5
 40
0.0
  9
$WORLDVIEW
 70
     1
  9
$SHADEDGE
 70
     3
  9
$SHADEDIF
 70
    70
  9
$TILEMODE
 70
     0
  9
$MAXACTVP
 70
    64
  9
$PINSBASE
 10
0.0
 20
0.0
 30
0.0
  9
$PLIMCHECK
 70
     0
  9
$PEXTMIN
 10
-4.391850629656119
 20
-3.455038652015446
 30
0.0
  9
$PEXTMAX
 10
278.8458837249377
 20
202.387980773708
 30
0.0
  9
$PLIMMIN
 10
-20.0
 20
-7.5
  9
$PLIMMAX
 10
277.0
 20
202.4999999999999
  9
$UNITMODE
 70
     0
  9
$VISRETAIN
 70
     1
  9
$PLINEGEN
 70
     0
  9
$PSLTSCALE
 70
     1
  9
$TREEDEPTH
 70
  3020
  9
$CMLSTYLE
  2
Standard
  9
$CMLJUST
 70
     0
  9
$CMLSCALE
 40
20.0
  9
$PROXYGRAPHICS
 70
     1
  9
$MEASUREMENT
 70
     1
  9
$CELWEIGHT
370
    -1
  9
$ENDCAPS
280
     0
  9
$JOINSTYLE
280
     0
  9
$LWDISPLAY
290
     0
  9
$INSUNITS
 70
     4
  9
$HYPERLINKBASE
  1

  9
$STYLESHEET
  1

  9
$XEDIT
290
     1
  9
$CEPSNTYPE
380
     0
  9
$PSTYLEMODE
290
     1
  9
$FINGERPRINTGUID
  2
{FF7F33C3-4233-11D6-AEE0-0000F45FD7F4}
  9
$VERSIONGUID
  2
{9FC30D53-7C98-4009-8D24-C50316297749}
  9
$EXTNAMES
290
     1
  9
$PSVPSCALE
 40
0.0
  9
$OLESTARTUP
290
     0
  0
ENDSEC
  0
SECTION
  2
CLASSES
  0
CLASS
  1
ACDBDICTIONARYWDFLT
  2
AcDbDictionaryWithDefault
  3
AutoCAD 2000
 90
        0
280
     0
281
     0
  0
CLASS
  1
ACDBPLACEHOLDER
  2
AcDbPlaceHolder
  3
AutoCAD 2000
 90
        0
280
     0
281
     0
  0
CLASS
  1
LAYOUT
  2
AcDbLayout
  3
AutoCAD 2000
 90
        0
280
     0
281
     0
  0
CLASS
  1
DICTIONARYVAR
  2
AcDbDictionaryVar
  3
AutoCAD 2000
 90
        0
280
     0
281
     0
  0
ENDSEC
  0
SECTION
  2
TABLES
  0
TABLE
  2
VPORT
  5
8
330
0
100
AcDbSymbolTable
 70
     1
  0
VPORT
  5
70C1
330
8
100
AcDbSymbolTableRecord
100
AcDbViewportTableRecord
  2
*Active
 70
     0
 10
0.0
 20
0.0
 11
1.0
 21
1.0
 12
484.3438721445245
 22
857.4199267327092
 13
0.0
 23
0.0
 14
5.0
 24
5.0
 15
10.0
 25
10.0
 16
0.0
 26
0.0
 36
1.0
 17
0.0
 27
0.0
 37
0.0
 40
666.35888649911
 41
1.968879668049792
 42
50.0
 43
0.0
 44
0.0
 50
0.0
 51
0.0
 71
     0
 72
   100
 73
     1
 74
     3
 75
     0
 76
     0
 77
     0
 78
     0
281
     0
 65
     1
110
0.0
120
0.0
130
0.0
111
1.0
121
0.0
131
0.0
112
0.0
122
1.0
132
0.0
 79
     0
146
0.0
  0
ENDTAB
  0
TABLE
  2
LTYPE
  5
5
330
0
100
AcDbSymbolTable
 70
     5
  0
LTYPE
  5
14
330
5
100
AcDbSymbolTableRecord
100
AcDbLinetypeTableRecord
  2
ByBlock
 70
     0
  3

 72
    65
 73
     0
 40
0.0
  0
LTYPE
  5
15
330
5
100
AcDbSymbolTableRecord
100
AcDbLinetypeTableRecord
  2
ByLayer
 70
     0
  3

 72
    65
 73
     0
 40
0.0
  0
LTYPE
  5
16
330
5
100
AcDbSymbolTableRecord
100
AcDbLinetypeTableRecord
  2
Continuous
 70
     0
  3
Solid line
 72
    65
 73
     0
 40
0.0
  0
LTYPE
  5
33
330
5
100
AcDbSymbolTableRecord
100
AcDbLinetypeTableRecord
  2
DASHED2
 70
     0
  3
Dashed (.5x) _ _ _ _ _ _ _ _ _ _ _ _ _ _ _ _ _
 72
    65
 73
     2
 40
9.524999999999998
 49
6.349999999999999
 74
     0
 49
-3.174999999999999
 74
     0
  0
LTYPE
  5
34
330
5
100
AcDbSymbolTableRecord
100
AcDbLinetypeTableRecord
  2
CENTER2
 70
     0
  3
Center (.5x) ___ _ ___ _ ___ _ ___ _ ___ _ ___
 72
    65
 73
     4
 40
28.57499999999999
 49
19.05
 74
     0
 49
-3.174999999999999
 74
     0
 49
3.174999999999999
 74
     0
 49
-3.174999999999999
 74
     0
  0
LTYPE
  5
35
330
5
100
AcDbSymbolTableRecord
100
AcDbLinetypeTableRecord
  2
PHANTOM2
 70
     0
  3
Phantom (.5x) ___ _ _ ___ _ _ ___ _ _ ___ _ _
 72
    65
 73
     6
 40
31.75
 49
15.875
 74
     0
 49
-3.174999999999999
 74
     0
 49
3.174999999999999
 74
     0
 49
-3.174999999999999
 74
     0
 49
3.174999999999999
 74
     0
 49
-3.174999999999999
 74
     0
  0
LTYPE
  5
36
330
5
100
AcDbSymbolTableRecord
100
AcDbLinetypeTableRecord
  2
HIDDEN2
 70
     0
  3
Hidden (.5x) _ _ _ _ _ _ _ _ _ _ _ _ _ _ _ _ _
 72
    65
 73
     2
 40
4.762499999999999
 49
3.174999999999999
 74
     0
 49
-1.587499999999999
 74
     0
  0
ENDTAB
  0
TABLE
  2
LAYER
  5
2
330
0
100
AcDbSymbolTable
 70
    13
  0
LAYER
  5
10
330
2
100
AcDbSymbolTableRecord
100
AcDbLayerTableRecord
  2
0
 70
     0
 62
     7
  6
Continuous
370
    -3
390
F
  0
LAYER
  5
40
330
2
100
AcDbSymbolTableRecord
100
AcDbLayerTableRecord
  2
50-0-CON
 70
     0
 62
     4
  6
Continuous
370
    50
390
F
  0
LAYER
  5
41
330
2
100
AcDbSymbolTableRecord
100
AcDbLayerTableRecord
  2
70-0-CON
 70
     0
 62
   202
  6
Continuous
370
    70
390
F
  0
LAYER
  5
4E
330
2
100
AcDbSymbolTableRecord
100
AcDbLayerTableRecord
  2
極太線
 70
     0
 62
     7
  6
Continuous
370
    70
390
F
  0
LAYER
  5
4F
330
2
100
AcDbSymbolTableRecord
100
AcDbLayerTableRecord
  2
細線
 70
     0
 62
     8
  6
Continuous
370
    18
390
F
  0
LAYER
  5
AB
330
2
100
AcDbSymbolTableRecord
100
AcDbLayerTableRecord
  2
構築線
 70
     0
 62
    -2
  6
Continuous
370
    18
390
F
  0
LAYER
  5
B8
330
2
100
AcDbSymbolTableRecord
100
AcDbLayerTableRecord
  2
太線
 70
     0
 62
     7
  6
Continuous
370
    35
390
F
  0
LAYER
  5
B9
330
2
100
AcDbSymbolTableRecord
100
AcDbLayerTableRecord
  2
寸法線
 70
     0
 62
     5
  6
Continuous
370
    18
390
F
  0
LAYER
  5
BA
330
2
100
AcDbSymbolTableRecord
100
AcDbLayerTableRecord
  2
破線
 70
     0
 62
     8
  6
HIDDEN2
370
    18
390
F
  0
LAYER
  5
BB
330
2
100
AcDbSymbolTableRecord
100
AcDbLayerTableRecord
  2
中心線
 70
     0
 62
     1
  6
CENTER2
370
    18
390
F
  0
LAYER
  5
BC
330
2
100
AcDbSymbolTableRecord
100
AcDbLayerTableRecord
  2
想像線
 70
     0
 62
     8
  6
PHANTOM2
370
    18
390
F
  0
LAYER
  5
BD
330
2
100
AcDbSymbolTableRecord
100
AcDbLayerTableRecord
  2
文字
 70
     0
 62
     7
  6
Continuous
370
    18
390
F
  0
LAYER
  5
180
330
2
100
AcDbSymbolTableRecord
100
AcDbLayerTableRecord
  2
Defpoints
 70
     0
 62
     7
  6
Continuous
290
     0
370
    -3
390
F
  0
ENDTAB
  0
TABLE
  2
STYLE
  5
3
330
0
100
AcDbSymbolTable
 70
     3
  0
STYLE
  5
11
330
3
100
AcDbSymbolTableRecord
100
AcDbTextStyleTableRecord
  2
Standard
 70
     0
 40
0.0
 41
1.0
 50
0.0
 71
     0
 42
3.0
  3
txt
  4

  0
STYLE
  5
32
330
3
100
AcDbSymbolTableRecord
100
AcDbTextStyleTableRecord
  2

 70
     1
 40
0.0
 41
1.0
 50
0.0
 71
     0
 42
2.5
  3
ltypeshp.shx
  4

  0
STYLE
  5
50
330
3
100
AcDbSymbolTableRecord
100
AcDbTextStyleTableRecord
  2
OKANO
 70
     0
 40
0.0
 41
1.0
 50
15.0
 71
     0
 42
5.0
  3
isocp.shx
  4
bigfont.shx
  0
ENDTAB
  0
TABLE
  2
VIEW
  5
6
330
0
100
AcDbSymbolTable
 70
     0
  0
ENDTAB
  0
TABLE
  2
UCS
  5
7
330
0
100
AcDbSymbolTable
 70
     0
  0
ENDTAB
  0
TABLE
  2
APPID
  5
9
330
0
100
AcDbSymbolTable
 70
     1
  0
APPID
  5
12
330
9
100
AcDbSymbolTableRecord
100
AcDbRegAppTableRecord
  2
ACAD
 70
     0
  0
ENDTAB
  0
TABLE
  2
DIMSTYLE
  5
A
330
0
100
AcDbSymbolTable
 70
     2
100
AcDbDimStyleTable
 71
     2
340
A2
340
27
  0
DIMSTYLE
105
27
330
A
100
AcDbSymbolTableRecord
100
AcDbDimStyleTableRecord
  2
ISO-25
 70
     0
 41
2.5
 42
0.625
 43
3.75
 44
1.25
 73
     0
 74
     0
 77
     1
 78
     8
140
2.5
141
2.5
143
0.03937007874016
147
0.625
171
     3
172
     1
271
     2
272
     2
274
     3
283
     0
284
     8
340
11
  0
DIMSTYLE
105
A2
102
{ACAD_REACTORS
330
5FD5
330
6628
330
6641
330
683B
330
6A9E
330
6A9F
330
6AA0
330
6AA1
330
6AA4
330
6AA9
330
6AB5
330
6AD1
330
6AD2
330
6BA8
330
6BBC
330
6C99
330
6C9F
330
6CA0
330
6CA1
330
6CA2
330
6CA3
330
6CA4
330
6CAA
330
6CAB
330
6CAC
330
6CD4
330
6ED7
330
6EED
102
}
330
A
100
AcDbSymbolTableRecord
100
AcDbDimStyleTableRecord
  2
sunpo
 70
     0
 40
0.0
 41
3.0
 42
2.0
 43
8.0
 44
3.0
 73
     0
 74
     0
 77
     1
 78
     8
140
5.0
141
2.5
143
0.03937007874016
147
1.0
171
     3
172
     1
271
     2
272
     2
274
     3
283
     0
284
     8
340
50
341
9B
342
9B
  0
ENDTAB
  0
TABLE
  2
BLOCK_RECORD
  5
1
330
0
100
AcDbSymbolTable
 70
    61
  0
BLOCK_RECORD
  5
1F
330
1
100
AcDbSymbolTableRecord
100
AcDbBlockTableRecord
  2
*Model_Space
340
22
  0
BLOCK_RECORD
  5
1B
330
1
100
AcDbSymbolTableRecord
100
AcDbBlockTableRecord
  2
*Paper_Space
340
1E
  0
BLOCK_RECORD
  5
9B
330
1
100
AcDbSymbolTableRecord
100
AcDbBlockTableRecord
  2
_Closed
340
0
102
{BLKREFS
331
661F
331
6620
331
6638
331
6639
331
6662
331
6663
331
666E
331
666F
331
667A
331
667B
331
684B
331
684C
331
68AF
331
68A6
331
6882
331
6883
331
688E
331
688F
331
689A
331
689B
331
685E
331
685F
331
686A
331
686B
331
6876
331
6877
331
693B
331
6932
331
690E
331
690F
331
691A
331
691B
331
6926
331
6927
331
68EA
331
68EB
331
68F6
331
68F7
331
6902
331
6903
331
69C7
331
69BE
331
699A
331
699B
331
69A6
331
69A7
331
69B2
331
69B3
331
6976
331
6977
331
6982
331
6983
331
698E
331
698F
331
6B3C
331
6B3D
331
6B45
331
6B46
331
6B4E
331
6B4F
331
6B57
331
6B58
331
6B60
331
6B66
331
6B6C
331
6B6D
331
6B75
331
6B76
331
6B7E
331
6B7F
331
6BAD
331
6BAE
331
6BD0
331
6BD1
331
6E1D
331
6E1E
331
6E26
331
6E27
331
6E2F
331
6E30
331
6E38
331
6E39
331
6E41
331
6E42
331
6E4A
331
6E4B
331
6E53
331
6E54
331
6E5B
331
6E61
331
6E62
331
6E6A
331
6E6B
331
6E75
331
6E76
331
6EC3
331
6EC4
331
6EE7
331
6EE8
331
6EF2
331
6EF3
102
}
  0
BLOCK_RECORD
  5
1510
330
1
100
AcDbSymbolTableRecord
100
AcDbBlockTableRecord
  2
A$C10A573AC
340
0
  0
BLOCK_RECORD
  5
600A
330
1
100
AcDbSymbolTableRecord
100
AcDbBlockTableRecord
  2
*D2
340
0
  0
BLOCK_RECORD
  5
6629
330
1
100
AcDbSymbolTableRecord
100
AcDbBlockTableRecord
  2
*D3
340
0
  0
BLOCK_RECORD
  5
6642
330
1
100
AcDbSymbolTableRecord
100
AcDbBlockTableRecord
  2
*D4
340
0
  0
BLOCK_RECORD
  5
665E
330
1
100
AcDbSymbolTableRecord
100
AcDbBlockTableRecord
  2
*D5
340
0
  0
BLOCK_RECORD
  5
666A
330
1
100
AcDbSymbolTableRecord
100
AcDbBlockTableRecord
  2
*D6
340
0
  0
BLOCK_RECORD
  5
6676
330
1
100
AcDbSymbolTableRecord
100
AcDbBlockTableRecord
  2
*D7
340
0
  0
BLOCK_RECORD
  5
6682
330
1
100
AcDbSymbolTableRecord
100
AcDbBlockTableRecord
  2
A$C23BB43CC
340
0
  0
BLOCK_RECORD
  5
683C
330
1
100
AcDbSymbolTableRecord
100
AcDbBlockTableRecord
  2
*D9
340
0
  0
BLOCK_RECORD
  5
685A
330
1
100
AcDbSymbolTableRecord
100
AcDbBlockTableRecord
  2
*D10
340
0
  0
BLOCK_RECORD
  5
6866
330
1
100
AcDbSymbolTableRecord
100
AcDbBlockTableRecord
  2
*D11
340
0
  0
BLOCK_RECORD
  5
6872
330
1
100
AcDbSymbolTableRecord
100
AcDbBlockTableRecord
  2
*D12
340
0
  0
BLOCK_RECORD
  5
687E
330
1
100
AcDbSymbolTableRecord
100
AcDbBlockTableRecord
  2
*D13
340
0
  0
BLOCK_RECORD
  5
688A
330
1
100
AcDbSymbolTableRecord
100
AcDbBlockTableRecord
  2
*D14
340
0
  0
BLOCK_RECORD
  5
6896
330
1
100
AcDbSymbolTableRecord
100
AcDbBlockTableRecord
  2
*D15
340
0
  0
BLOCK_RECORD
  5
68A2
330
1
100
AcDbSymbolTableRecord
100
AcDbBlockTableRecord
  2
*D16
340
0
  0
BLOCK_RECORD
  5
68AB
330
1
100
AcDbSymbolTableRecord
100
AcDbBlockTableRecord
  2
*D17
340
0
  0
BLOCK_RECORD
  5
68B4
330
1
100
AcDbSymbolTableRecord
100
AcDbBlockTableRecord
  2
A$C459203B4
340
0
  0
BLOCK_RECORD
  5
68E6
330
1
100
AcDbSymbolTableRecord
100
AcDbBlockTableRecord
  2
*D19
340
0
  0
BLOCK_RECORD
  5
68F2
330
1
100
AcDbSymbolTableRecord
100
AcDbBlockTableRecord
  2
*D20
340
0
  0
BLOCK_RECORD
  5
68FE
330
1
100
AcDbSymbolTableRecord
100
AcDbBlockTableRecord
  2
*D21
340
0
  0
BLOCK_RECORD
  5
690A
330
1
100
AcDbSymbolTableRecord
100
AcDbBlockTableRecord
  2
*D22
340
0
  0
BLOCK_RECORD
  5
6916
330
1
100
AcDbSymbolTableRecord
100
AcDbBlockTableRecord
  2
*D23
340
0
  0
BLOCK_RECORD
  5
6922
330
1
100
AcDbSymbolTableRecord
100
AcDbBlockTableRecord
  2
*D24
340
0
  0
BLOCK_RECORD
  5
692E
330
1
100
AcDbSymbolTableRecord
100
AcDbBlockTableRecord
  2
*D25
340
0
  0
BLOCK_RECORD
  5
6937
330
1
100
AcDbSymbolTableRecord
100
AcDbBlockTableRecord
  2
*D26
340
0
  0
BLOCK_RECORD
  5
6940
330
1
100
AcDbSymbolTableRecord
100
AcDbBlockTableRecord
  2
A$C6D5B13AF
340
0
  0
BLOCK_RECORD
  5
6972
330
1
100
AcDbSymbolTableRecord
100
AcDbBlockTableRecord
  2
*D28
340
0
  0
BLOCK_RECORD
  5
697E
330
1
100
AcDbSymbolTableRecord
100
AcDbBlockTableRecord
  2
*D29
340
0
  0
BLOCK_RECORD
  5
698A
330
1
100
AcDbSymbolTableRecord
100
AcDbBlockTableRecord
  2
*D30
340
0
  0
BLOCK_RECORD
  5
6996
330
1
100
AcDbSymbolTableRecord
100
AcDbBlockTableRecord
  2
*D31
340
0
  0
BLOCK_RECORD
  5
69A2
330
1
100
AcDbSymbolTableRecord
100
AcDbBlockTableRecord
  2
*D32
340
0
  0
BLOCK_RECORD
  5
69AE
330
1
100
AcDbSymbolTableRecord
100
AcDbBlockTableRecord
  2
*D33
340
0
  0
BLOCK_RECORD
  5
69BA
330
1
100
AcDbSymbolTableRecord
100
AcDbBlockTableRecord
  2
*D34
340
0
  0
BLOCK_RECORD
  5
69C3
330
1
100
AcDbSymbolTableRecord
100
AcDbBlockTableRecord
  2
*D35
340
0
  0
BLOCK_RECORD
  5
69CC
330
1
100
AcDbSymbolTableRecord
100
AcDbBlockTableRecord
  2
A$C488A7D67
340
0
  0
BLOCK_RECORD
  5
6AD3
330
1
100
AcDbSymbolTableRecord
100
AcDbBlockTableRecord
  2
*D37
340
0
  0
BLOCK_RECORD
  5
6ADF
330
1
100
AcDbSymbolTableRecord
100
AcDbBlockTableRecord
  2
*D38
340
0
  0
BLOCK_RECORD
  5
6AEB
330
1
100
AcDbSymbolTableRecord
100
AcDbBlockTableRecord
  2
*D39
340
0
  0
BLOCK_RECORD
  5
6AF7
330
1
100
AcDbSymbolTableRecord
100
AcDbBlockTableRecord
  2
*D40
340
0
  0
BLOCK_RECORD
  5
6B03
330
1
100
AcDbSymbolTableRecord
100
AcDbBlockTableRecord
  2
*D41
340
0
  0
BLOCK_RECORD
  5
6B0C
330
1
100
AcDbSymbolTableRecord
100
AcDbBlockTableRecord
  2
*D42
340
0
  0
BLOCK_RECORD
  5
6B15
330
1
100
AcDbSymbolTableRecord
100
AcDbBlockTableRecord
  2
*D43
340
0
  0
BLOCK_RECORD
  5
6B21
330
1
100
AcDbSymbolTableRecord
100
AcDbBlockTableRecord
  2
*D44
340
0
  0
BLOCK_RECORD
  5
6B2D
330
1
100
AcDbSymbolTableRecord
100
AcDbBlockTableRecord
  2
*D45
340
0
  0
BLOCK_RECORD
  5
6BA9
330
1
100
AcDbSymbolTableRecord
100
AcDbBlockTableRecord
  2
*D46
340
0
  0
BLOCK_RECORD
  5
6BBD
330
1
100
AcDbSymbolTableRecord
100
AcDbBlockTableRecord
  2
*D47
340
0
  0
BLOCK_RECORD
  5
6CD5
330
1
100
AcDbSymbolTableRecord
100
AcDbBlockTableRecord
  2
*D48
340
0
  0
BLOCK_RECORD
  5
6CE1
330
1
100
AcDbSymbolTableRecord
100
AcDbBlockTableRecord
  2
*D49
340
0
  0
BLOCK_RECORD
  5
6CED
330
1
100
AcDbSymbolTableRecord
100
AcDbBlockTableRecord
  2
*D50
340
0
  0
BLOCK_RECORD
  5
6CF5
330
1
100
AcDbSymbolTableRecord
100
AcDbBlockTableRecord
  2
*D51
340
0
  0
BLOCK_RECORD
  5
6D01
330
1
100
AcDbSymbolTableRecord
100
AcDbBlockTableRecord
  2
*D52
340
0
  0
BLOCK_RECORD
  5
6D0D
330
1
100
AcDbSymbolTableRecord
100
AcDbBlockTableRecord
  2
*D53
340
0
  0
BLOCK_RECORD
  5
6D19
330
1
100
AcDbSymbolTableRecord
100
AcDbBlockTableRecord
  2
*D54
340
0
  0
BLOCK_RECORD
  5
6D25
330
1
100
AcDbSymbolTableRecord
100
AcDbBlockTableRecord
  2
*D55
340
0
  0
BLOCK_RECORD
  5
6D31
330
1
100
AcDbSymbolTableRecord
100
AcDbBlockTableRecord
  2
*D56
340
0
  0
BLOCK_RECORD
  5
6D3D
330
1
100
AcDbSymbolTableRecord
100
AcDbBlockTableRecord
  2
*D57
340
0
  0
BLOCK_RECORD
  5
6D49
330
1
100
AcDbSymbolTableRecord
100
AcDbBlockTableRecord
  2
*D58
340
0
  0
BLOCK_RECORD
  5
6ED8
330
1
100
AcDbSymbolTableRecord
100
AcDbBlockTableRecord
  2
*D59
340
0
  0
BLOCK_RECORD
  5
6EEE
330
1
100
AcDbSymbolTableRecord
100
AcDbBlockTableRecord
  2
*D60
340
0
  0
ENDTAB
  0
ENDSEC
  0
SECTION
  2
BLOCKS
  0
BLOCK
  5
20
330
1F
100
AcDbEntity
  8
0
100
AcDbBlockBegin
  2
*Model_Space
 70
     0
 10
0.0
 20
0.0
 30
0.0
  3
*Model_Space
  1

  0
ENDBLK
  5
21
330
1F
100
AcDbEntity
  8
0
100
AcDbBlockEnd
  0
BLOCK
  5
1C
330
1B
100
AcDbEntity
 67
     1
  8
0
100
AcDbBlockBegin
  2
*Paper_Space
 70
     0
 10
0.0
 20
0.0
 30
0.0
  3
*Paper_Space
  1

  0
ENDBLK
  5
1D
330
1B
100
AcDbEntity
 67
     1
  8
0
100
AcDbBlockEnd
  0
BLOCK
  5
A0
330
9B
100
AcDbEntity
  8
0
100
AcDbBlockBegin
  2
_Closed
 70
     0
 10
0.0
 20
0.0
 30
0.0
  3
_Closed
  1

  0
LINE
  5
9C
330
9B
100
AcDbEntity
  8
0
 62
     0
370
    -2
100
AcDbLine
 10
-1.0
 20
0.1666666666666666
 30
0.0
 11
0.0
 21
0.0
 31
0.0
  0
LINE
  5
9D
330
9B
100
AcDbEntity
  8
0
 62
     0
370
    -2
100
AcDbLine
 10
0.0
 20
0.0
 30
0.0
 11
-1.0
 21
-0.1666666666666666
 31
0.0
  0
LINE
  5
9E
330
9B
100
AcDbEntity
  8
0
 62
     0
370
    -2
100
AcDbLine
 10
-1.0
 20
0.1666666666666666
 30
0.0
 11
-1.0
 21
-0.1666666666666666
 31
0.0
  0
LINE
  5
9F
330
9B
100
AcDbEntity
  8
0
 62
     0
370
    -2
100
AcDbLine
 10
0.0
 20
0.0
 30
0.0
 11
-1.0
 21
0.0
 31
0.0
  0
ENDBLK
  5
A1
330
9B
100
AcDbEntity
  8
0
100
AcDbBlockEnd
  0
BLOCK
  5
155B
330
1510
100
AcDbEntity
  8
0
100
AcDbBlockBegin
  2
A$C10A573AC
 70
     0
 10
0.0
 20
0.0
 30
0.0
  3
A$C10A573AC
  1

  0
TEXT
  5
1511
330
1510
100
AcDbEntity
  8
文字
100
AcDbText
 10
0.9844302777919438
 20
5.224957122252135
 30
0.0
 40
3.0
  1
Materal : Steel.
 51
15.0
  7
OKANO
100
AcDbText
  0
TEXT
  5
1512
330
1510
100
AcDbEntity
  8
文字
100
AcDbText
 10
-0.1141909619694843
 20
0.7500001922403499
 30
0.0
 40
3.0
  1
Surface treatment : Electro galvanized.
 51
15.0
  7
OKANO
100
AcDbText
  0
TEXT
  5
1513
330
1510
100
AcDbEntity
  8
文字
100
AcDbText
 10
-0.4901926332574931
 20
9.159967445193728
 30
0.0
 40
3.0
  1
5 TORGUE SCREW  M5-6
 51
15.0
  7
OKANO
100
AcDbText
  0
TEXT
  5
1514
330
1510
100
AcDbEntity
  8
文字
100
AcDbText
 10
1.364713526390005
 20
78.88822913323082
 30
0.0
 40
3.0
  1
Special standard,
 51
15.0
  7
OKANO
100
AcDbText
  0
TEXT
  5
1515
330
1510
100
AcDbEntity
  8
文字
100
AcDbText
 10
92.88160823408942
 20
89.92753849837379
 30
0.0
 40
3.0
  1
Screw Type
 51
15.0
  7
OKANO
100
AcDbText
  0
LINE
  5
1516
330
1510
100
AcDbEntity
  8
太線
100
AcDbLine
 10
113.9464587597784
 20
81.93930390144641
 30
0.0
 11
112.4464587597784
 21
81.93930390144641
 31
0.0
  0
LINE
  5
1517
330
1510
100
AcDbEntity
  8
太線
100
AcDbLine
 10
112.4464587597784
 20
76.9393039014464
 30
0.0
 11
121.4644995438761
 21
76.9393039014464
 31
0.0
  0
TEXT
  5
1518
330
1510
100
AcDbEntity
  8
文字
100
AcDbText
 10
93.46068240437217
 20
77.96976862235396
 30
0.0
 40
2.0
  1
17-30
 51
15.0
  7
OKANO
100
AcDbText
  0
LINE
  5
1519
330
1510
100
AcDbEntity
  8
太線
100
AcDbLine
 10
111.9464587597784
 20
81.43930390144641
 30
0.0
 11
111.9464587597784
 21
77.4393039014464
 31
0.0
  0
LINE
  5
151A
330
1510
100
AcDbEntity
  8
太線
100
AcDbLine
 10
91.94645875977846
 20
81.43930390144641
 30
0.0
 11
91.94645875977846
 21
77.43930390144639
 31
0.0
  0
LINE
  5
151B
330
1510
100
AcDbEntity
  8
太線
100
AcDbLine
 10
101.9644995438761
 20
77.4393039014464
 30
0.0
 11
101.9644995438761
 21
81.43930390144641
 31
0.0
  0
LINE
  5
151C
330
1510
100
AcDbEntity
  8
太線
100
AcDbLine
 10
92.44645875977846
 20
76.9393039014464
 30
0.0
 11
101.4644995438761
 21
76.9393039014464
 31
0.0
  0
ARC
  5
151D
330
1510
100
AcDbEntity
  8
太線
100
AcDbCircle
 10
92.44645875977846
 20
77.43930390144639
 30
0.0
 40
0.5
100
AcDbArc
 50
180.0
 51
270.0
  0
ARC
  5
151E
330
1510
100
AcDbEntity
  8
太線
100
AcDbCircle
 10
101.4644995438761
 20
77.4393039014464
 30
0.0
 40
0.5
100
AcDbArc
 50
270.0
 51
0.0
  0
ARC
  5
151F
330
1510
100
AcDbEntity
  8
太線
100
AcDbCircle
 10
112.4464587597784
 20
77.4393039014464
 30
0.0
 40
0.5
100
AcDbArc
 50
180.0
 51
270.0
  0
LINE
  5
1520
330
1510
100
AcDbEntity
  8
想像線
100
AcDbLine
 10
93.94645875977847
 20
81.93930390144641
 30
0.0
 11
99.96449954387617
 21
81.93930390144641
 31
0.0
  0
LINE
  5
1521
330
1510
100
AcDbEntity
  8
極太線
100
AcDbLine
 10
96.38762957111168
 20
85.43930390144641
 30
0.0
 11
97.50528794844525
 21
85.43930390144641
 31
0.0
  0
CIRCLE
  5
1522
330
1510
100
AcDbEntity
  8
太線
100
AcDbCircle
 10
96.94645875977847
 20
85.43930390144641
 30
0.0
 40
0.5588291886667776
  0
LINE
  5
1523
330
1510
100
AcDbEntity
  8
太線
100
AcDbLine
 10
99.46449954387617
 20
86.93930390144641
 30
0.0
 11
94.44645875977846
 21
86.93930390144641
 31
0.0
  0
LINE
  5
1524
330
1510
100
AcDbEntity
  8
太線
100
AcDbLine
 10
93.94645875977847
 20
86.43930390144641
 30
0.0
 11
93.94645875977847
 21
81.93930390144641
 31
0.0
  0
ARC
  5
1525
330
1510
100
AcDbEntity
  8
太線
100
AcDbCircle
 10
92.44645875977846
 20
81.43930390144641
 30
0.0
 40
0.5
100
AcDbArc
 50
90.0
 51
180.0
  0
LINE
  5
1526
330
1510
100
AcDbEntity
  8
太線
100
AcDbLine
 10
93.94645875977847
 20
81.93930390144641
 30
0.0
 11
92.44645875977846
 21
81.93930390144641
 31
0.0
  0
ARC
  5
1527
330
1510
100
AcDbEntity
  8
太線
100
AcDbCircle
 10
94.44645875977846
 20
86.43930390144641
 30
0.0
 40
0.5
100
AcDbArc
 50
90.0
 51
180.0
  0
LINE
  5
1528
330
1510
100
AcDbEntity
  8
太線
100
AcDbLine
 10
99.96449954387617
 20
81.93930390144641
 30
0.0
 11
99.96449954387617
 21
86.43930390144641
 31
0.0
  0
LINE
  5
1529
330
1510
100
AcDbEntity
  8
太線
100
AcDbLine
 10
101.4644995438761
 20
81.93930390144641
 30
0.0
 11
99.96449954387617
 21
81.93930390144641
 31
0.0
  0
ARC
  5
152A
330
1510
100
AcDbEntity
  8
太線
100
AcDbCircle
 10
101.4644995438761
 20
81.43930390144641
 30
0.0
 40
0.5
100
AcDbArc
 50
0.0
 51
90.0
  0
ARC
  5
152B
330
1510
100
AcDbEntity
  8
太線
100
AcDbCircle
 10
99.46449954387617
 20
86.43930390144641
 30
0.0
 40
0.5
100
AcDbArc
 50
0.0
 51
90.0
  0
LINE
  5
152C
330
1510
100
AcDbEntity
  8
極太線
100
AcDbLine
 10
96.94645875977847
 20
85.99813309011318
 30
0.0
 11
96.94645875977847
 21
84.88047471277964
 31
0.0
  0
ARC
  5
152D
330
1510
100
AcDbEntity
  8
太線
100
AcDbCircle
 10
112.4464587597784
 20
81.43930390144641
 30
0.0
 40
0.5
100
AcDbArc
 50
90.0
 51
180.0
  0
TEXT
  5
152E
330
1510
100
AcDbEntity
  8
文字
100
AcDbText
 10
134.3819212586066
 20
78.16263579228063
 30
0.0
 40
2.0
  1
101
 51
15.0
  7
OKANO
100
AcDbText
  0
TEXT
  5
152F
330
1510
100
AcDbEntity
  8
文字
100
AcDbText
 10
113.3422276612066
 20
77.96976862235396
 30
0.0
 40
2.0
  1
38-83
 51
15.0
  7
OKANO
100
AcDbText
  0
LINE
  5
1530
330
1510
100
AcDbEntity
  8
太線
100
AcDbLine
 10
141.9825403279738
 20
77.4393039014464
 30
0.0
 11
141.9825403279738
 21
81.43930390144641
 31
0.0
  0
LINE
  5
1531
330
1510
100
AcDbEntity
  8
太線
100
AcDbLine
 10
131.9644995438761
 20
81.43930390144641
 30
0.0
 11
131.9644995438761
 21
77.4393039014464
 31
0.0
  0
LINE
  5
1532
330
1510
100
AcDbEntity
  8
太線
100
AcDbLine
 10
121.9644995438761
 20
77.4393039014464
 30
0.0
 11
121.9644995438761
 21
81.43930390144641
 31
0.0
  0
ARC
  5
1533
330
1510
100
AcDbEntity
  8
太線
100
AcDbCircle
 10
121.4644995438761
 20
77.4393039014464
 30
0.0
 40
0.5
100
AcDbArc
 50
270.0
 51
0.0
  0
LINE
  5
1534
330
1510
100
AcDbEntity
  8
太線
100
AcDbLine
 10
132.4644995438761
 20
76.9393039014464
 30
0.0
 11
141.4825403279738
 21
76.9393039014464
 31
0.0
  0
ARC
  5
1535
330
1510
100
AcDbEntity
  8
太線
100
AcDbCircle
 10
132.4644995438761
 20
77.4393039014464
 30
0.0
 40
0.5
100
AcDbArc
 50
180.0
 51
270.0
  0
ARC
  5
1536
330
1510
100
AcDbEntity
  8
太線
100
AcDbCircle
 10
141.4825403279738
 20
77.4393039014464
 30
0.0
 40
0.5
100
AcDbArc
 50
270.0
 51
0.0
  0
ARC
  5
1537
330
1510
100
AcDbEntity
  8
太線
100
AcDbCircle
 10
121.4644995438761
 20
81.43930390144641
 30
0.0
 40
0.5
100
AcDbArc
 50
0.0
 51
90.0
  0
LINE
  5
1538
330
1510
100
AcDbEntity
  8
太線
100
AcDbLine
 10
119.9644995438761
 20
81.93930390144641
 30
0.0
 11
119.9644995438761
 21
86.43930390144641
 31
0.0
  0
LINE
  5
1539
330
1510
100
AcDbEntity
  8
太線
100
AcDbLine
 10
113.9464587597784
 20
86.43930390144641
 30
0.0
 11
113.9464587597784
 21
81.93930390144641
 31
0.0
  0
LINE
  5
153A
330
1510
100
AcDbEntity
  8
想像線
100
AcDbLine
 10
113.9464587597784
 20
81.93930390144641
 30
0.0
 11
119.9644995438761
 21
81.93930390144641
 31
0.0
  0
LINE
  5
153B
330
1510
100
AcDbEntity
  8
太線
100
AcDbLine
 10
121.4644995438761
 20
81.93930390144641
 30
0.0
 11
119.9644995438761
 21
81.93930390144641
 31
0.0
  0
LINE
  5
153C
330
1510
100
AcDbEntity
  8
太線
100
AcDbLine
 10
119.4644995438761
 20
86.93930390144641
 30
0.0
 11
114.4464587597784
 21
86.93930390144641
 31
0.0
  0
ARC
  5
153D
330
1510
100
AcDbEntity
  8
太線
100
AcDbCircle
 10
114.4464587597784
 20
86.43930390144641
 30
0.0
 40
0.5
100
AcDbArc
 50
90.0
 51
180.0
  0
CIRCLE
  5
153E
330
1510
100
AcDbEntity
  8
太線
100
AcDbCircle
 10
115.4464587597784
 20
85.43930390144641
 30
0.0
 40
0.5588291886667776
  0
LINE
  5
153F
330
1510
100
AcDbEntity
  8
極太線
100
AcDbLine
 10
115.4464587597784
 20
85.99813309011318
 30
0.0
 11
115.4464587597784
 21
84.88047471277964
 31
0.0
  0
LINE
  5
1540
330
1510
100
AcDbEntity
  8
極太線
100
AcDbLine
 10
114.8876295711116
 20
85.43930390144641
 30
0.0
 11
116.0052879484452
 21
85.43930390144641
 31
0.0
  0
ARC
  5
1541
330
1510
100
AcDbEntity
  8
太線
100
AcDbCircle
 10
119.4644995438761
 20
86.43930390144641
 30
0.0
 40
0.5
100
AcDbArc
 50
0.0
 51
90.0
  0
LINE
  5
1542
330
1510
100
AcDbEntity
  8
極太線
100
AcDbLine
 10
117.9056703552094
 20
85.43930390144641
 30
0.0
 11
119.0233287325429
 21
85.43930390144641
 31
0.0
  0
LINE
  5
1543
330
1510
100
AcDbEntity
  8
極太線
100
AcDbLine
 10
118.4644995438761
 20
85.99813309011318
 30
0.0
 11
118.4644995438761
 21
84.88047471277964
 31
0.0
  0
CIRCLE
  5
1544
330
1510
100
AcDbEntity
  8
太線
100
AcDbCircle
 10
118.4644995438761
 20
85.43930390144641
 30
0.0
 40
0.5588291886667776
  0
LINE
  5
1545
330
1510
100
AcDbEntity
  8
想像線
100
AcDbLine
 10
133.9644995438761
 20
81.93930390144641
 30
0.0
 11
139.9825403279738
 21
81.93930390144641
 31
0.0
  0
LINE
  5
1546
330
1510
100
AcDbEntity
  8
極太線
100
AcDbLine
 10
137.9237111393071
 20
85.43930390144641
 30
0.0
 11
139.0413695166406
 21
85.43930390144641
 31
0.0
  0
CIRCLE
  5
1547
330
1510
100
AcDbEntity
  8
太線
100
AcDbCircle
 10
138.4825403279738
 20
85.43930390144641
 30
0.0
 40
0.5588291886667776
  0
CIRCLE
  5
1548
330
1510
100
AcDbEntity
  8
太線
100
AcDbCircle
 10
138.4825403279738
 20
83.26342923362075
 30
0.0
 40
0.5588291886667776
  0
LINE
  5
1549
330
1510
100
AcDbEntity
  8
極太線
100
AcDbLine
 10
137.9237111393071
 20
83.26342923362075
 30
0.0
 11
139.0413695166406
 21
83.26342923362075
 31
0.0
  0
LINE
  5
154A
330
1510
100
AcDbEntity
  8
太線
100
AcDbLine
 10
139.4825403279738
 20
86.93930390144641
 30
0.0
 11
134.4644995438761
 21
86.93930390144641
 31
0.0
  0
LINE
  5
154B
330
1510
100
AcDbEntity
  8
太線
100
AcDbLine
 10
133.9644995438761
 20
86.43930390144641
 30
0.0
 11
133.9644995438761
 21
81.93930390144641
 31
0.0
  0
ARC
  5
154C
330
1510
100
AcDbEntity
  8
太線
100
AcDbCircle
 10
132.4644995438761
 20
81.43930390144641
 30
0.0
 40
0.5
100
AcDbArc
 50
90.0
 51
180.0
  0
LINE
  5
154D
330
1510
100
AcDbEntity
  8
太線
100
AcDbLine
 10
133.9644995438761
 20
81.93930390144641
 30
0.0
 11
132.4644995438761
 21
81.93930390144641
 31
0.0
  0
LINE
  5
154E
330
1510
100
AcDbEntity
  8
極太線
100
AcDbLine
 10
134.9056703552093
 20
83.26342923362075
 30
0.0
 11
136.0233287325429
 21
83.26342923362075
 31
0.0
  0
LINE
  5
154F
330
1510
100
AcDbEntity
  8
極太線
100
AcDbLine
 10
135.4644995438761
 20
83.82225842228752
 30
0.0
 11
135.4644995438761
 21
82.70460004495395
 31
0.0
  0
CIRCLE
  5
1550
330
1510
100
AcDbEntity
  8
太線
100
AcDbCircle
 10
135.4644995438761
 20
83.26342923362075
 30
0.0
 40
0.5588291886667776
  0
ARC
  5
1551
330
1510
100
AcDbEntity
  8
太線
100
AcDbCircle
 10
134.4644995438761
 20
86.43930390144641
 30
0.0
 40
0.5
100
AcDbArc
 50
90.0
 51
180.0
  0
CIRCLE
  5
1552
330
1510
100
AcDbEntity
  8
太線
100
AcDbCircle
 10
135.4644995438761
 20
85.43930390144641
 30
0.0
 40
0.5588291886667776
  0
LINE
  5
1553
330
1510
100
AcDbEntity
  8
極太線
100
AcDbLine
 10
135.4644995438761
 20
85.99813309011318
 30
0.0
 11
135.4644995438761
 21
84.88047471277964
 31
0.0
  0
LINE
  5
1554
330
1510
100
AcDbEntity
  8
極太線
100
AcDbLine
 10
134.9056703552093
 20
85.43930390144641
 30
0.0
 11
136.0233287325429
 21
85.43930390144641
 31
0.0
  0
LINE
  5
1555
330
1510
100
AcDbEntity
  8
太線
100
AcDbLine
 10
139.9825403279738
 20
81.93930390144641
 30
0.0
 11
139.9825403279738
 21
86.43930390144641
 31
0.0
  0
ARC
  5
1556
330
1510
100
AcDbEntity
  8
太線
100
AcDbCircle
 10
141.4825403279738
 20
81.43930390144641
 30
0.0
 40
0.5
100
AcDbArc
 50
0.0
 51
90.0
  0
LINE
  5
1557
330
1510
100
AcDbEntity
  8
極太線
100
AcDbLine
 10
138.4825403279738
 20
83.82225842228752
 30
0.0
 11
138.4825403279738
 21
82.70460004495395
 31
0.0
  0
LINE
  5
1558
330
1510
100
AcDbEntity
  8
太線
100
AcDbLine
 10
141.4825403279738
 20
81.93930390144641
 30
0.0
 11
139.9825403279738
 21
81.93930390144641
 31
0.0
  0
ARC
  5
1559
330
1510
100
AcDbEntity
  8
太線
100
AcDbCircle
 10
139.4825403279738
 20
86.43930390144641
 30
0.0
 40
0.5
100
AcDbArc
 50
0.0
 51
90.0
  0
LINE
  5
155A
330
1510
100
AcDbEntity
  8
極太線
100
AcDbLine
 10
138.4825403279738
 20
85.99813309011318
 30
0.0
 11
138.4825403279738
 21
84.88047471277964
 31
0.0
  0
ENDBLK
  5
155C
330
1510
100
AcDbEntity
  8
0
100
AcDbBlockEnd
  0
BLOCK
  5
6014
330
600A
100
AcDbEntity
  8
0
100
AcDbBlockBegin
  2
*D2
 70
     1
 10
0.0
 20
0.0
 30
0.0
  3
*D2
  1

  0
LINE
  5
661C
330
600A
100
AcDbEntity
  8
寸法線
 62
     0
370
    -2
100
AcDbLine
 10
456.8125459663808
 20
790.7389790153087
 30
0.0
 11
456.8125459663808
 21
778.7864719015271
 31
0.0
  0
LINE
  5
661D
330
600A
100
AcDbEntity
  8
寸法線
 62
     0
370
    -2
100
AcDbLine
 10
398.8125459663809
 20
790.7389790153087
 30
0.0
 11
398.8125459663809
 21
778.7864719015271
 31
0.0
  0
LINE
  5
661E
330
600A
100
AcDbEntity
  8
寸法線
 62
     0
370
    -2
100
AcDbLine
 10
453.8125459663809
 20
781.786471901527
 30
0.0
 11
401.8125459663808
 21
781.786471901527
 31
0.0
  0
INSERT
  5
661F
330
600A
100
AcDbEntity
  8
寸法線
 62
     0
370
    -2
100
AcDbBlockReference
  2
_Closed
 10
456.8125459663808
 20
781.786471901527
 30
0.0
 41
3.0
 42
3.0
 43
3.0
  0
INSERT
  5
6620
330
600A
100
AcDbEntity
  8
寸法線
 62
     0
370
    -2
100
AcDbBlockReference
  2
_Closed
 10
398.8125459663809
 20
781.786471901527
 30
0.0
 41
3.0
 42
3.0
 43
3.0
 50
180.0
  0
MTEXT
  5
6621
330
600A
100
AcDbEntity
  8
寸法線
 62
     0
100
AcDbMText
 10
427.8125459663808
 20
785.286471901527
 30
0.0
 40
5.0
 41
0.0
 71
     5
 72
     1
  1
60
  7
OKANO
 73
     1
 44
1.0
  0
POINT
  5
6622
330
600A
100
AcDbEntity
  8
Defpoints
 62
     0
100
AcDbPoint
 10
456.8125459663808
 20
792.7389790153086
 30
0.0
  0
POINT
  5
6623
330
600A
100
AcDbEntity
  8
Defpoints
 62
     0
100
AcDbPoint
 10
398.8125459663809
 20
792.7389790153086
 30
0.0
  0
POINT
  5
6624
330
600A
100
AcDbEntity
  8
Defpoints
 62
     0
100
AcDbPoint
 10
398.8125459663809
 20
781.786471901527
 30
0.0
  0
ENDBLK
  5
6015
330
600A
100
AcDbEntity
  8
0
100
AcDbBlockEnd
  0
BLOCK
  5
6633
330
6629
100
AcDbEntity
  8
0
100
AcDbBlockBegin
  2
*D3
 70
     1
 10
0.0
 20
0.0
 30
0.0
  3
*D3
  1

  0
LINE
  5
6635
330
6629
100
AcDbEntity
  8
寸法線
 62
     0
370
    -2
100
AcDbLine
 10
536.3007271552923
 20
908.3399995297424
 30
0.0
 11
573.0279688294395
 21
908.3399995297424
 31
0.0
  0
LINE
  5
6636
330
6629
100
AcDbEntity
  8
寸法線
 62
     0
370
    -2
100
AcDbLine
 10
551.3007271552924
 20
867.2389790153086
 30
0.0
 11
573.0279688294395
 21
867.2389790153086
 31
0.0
  0
LINE
  5
6637
330
6629
100
AcDbEntity
  8
寸法線
 62
     0
370
    -2
100
AcDbLine
 10
570.0279688294394
 20
905.3399995297425
 30
0.0
 11
570.0279688294394
 21
870.2389790153088
 31
0.0
  0
INSERT
  5
6638
330
6629
100
AcDbEntity
  8
寸法線
 62
     0
370
    -2
100
AcDbBlockReference
  2
_Closed
 10
570.0279688294394
 20
908.3399995297424
 30
0.0
 41
3.0
 42
3.0
 43
3.0
 50
90.0
  0
INSERT
  5
6639
330
6629
100
AcDbEntity
  8
寸法線
 62
     0
370
    -2
100
AcDbBlockReference
  2
_Closed
 10
570.0279688294394
 20
867.2389790153086
 30
0.0
 41
3.0
 42
3.0
 43
3.0
 50
270.0
  0
MTEXT
  5
663A
330
6629
100
AcDbEntity
  8
寸法線
 62
     0
100
AcDbMText
 10
566.5279688294392
 20
887.7894892725258
 30
0.0
 40
5.0
 41
0.0
 71
     5
 72
     1
  1
40
  7
OKANO
 11
0.0000000000000001
 21
1.0
 31
0.0
 73
     1
 44
1.0
  0
POINT
  5
663B
330
6629
100
AcDbEntity
  8
Defpoints
 62
     0
100
AcDbPoint
 10
534.3007271552924
 20
908.3399995297424
 30
0.0
  0
POINT
  5
663C
330
6629
100
AcDbEntity
  8
Defpoints
 62
     0
100
AcDbPoint
 10
549.3007271552924
 20
867.2389790153086
 30
0.0
  0
POINT
  5
663D
330
6629
100
AcDbEntity
  8
Defpoints
 62
     0
100
AcDbPoint
 10
570.0279688294394
 20
867.2389790153086
 30
0.0
  0
ENDBLK
  5
6634
330
6629
100
AcDbEntity
  8
0
100
AcDbBlockEnd
  0
BLOCK
  5
664C
330
6642
100
AcDbEntity
  8
0
100
AcDbBlockBegin
  2
*D4
 70
     1
 10
0.0
 20
0.0
 30
0.0
  3
*D4
  1

  0
LINE
  5
6EC0
330
6642
100
AcDbEntity
  8
寸法線
 62
     0
370
    -2
100
AcDbLine
 10
212.2295522808142
 20
918.3399995297424
 30
0.0
 11
165.8624897836125
 21
918.3399995297424
 31
0.0
  0
LINE
  5
6EC1
330
6642
100
AcDbEntity
  8
寸法線
 62
     0
370
    -2
100
AcDbLine
 10
215.8697506784607
 20
793.3399995297423
 30
0.0
 11
165.8624897836125
 21
793.3399995297423
 31
0.0
  0
LINE
  5
6EC2
330
6642
100
AcDbEntity
  8
寸法線
 62
     0
370
    -2
100
AcDbLine
 10
168.8624897836125
 20
915.3399995297423
 30
0.0
 11
168.8624897836125
 21
796.3399995297423
 31
0.0
  0
INSERT
  5
6EC3
330
6642
100
AcDbEntity
  8
寸法線
 62
     0
370
    -2
100
AcDbBlockReference
  2
_Closed
 10
168.8624897836125
 20
918.3399995297424
 30
0.0
 41
3.0
 42
3.0
 43
3.0
 50
90.0
  0
INSERT
  5
6EC4
330
6642
100
AcDbEntity
  8
寸法線
 62
     0
370
    -2
100
AcDbBlockReference
  2
_Closed
 10
168.8624897836125
 20
793.3399995297423
 30
0.0
 41
3.0
 42
3.0
 43
3.0
 50
270.0
  0
MTEXT
  5
6EC5
330
6642
100
AcDbEntity
  8
寸法線
 62
     0
100
AcDbMText
 10
165.3619976576282
 20
855.8399995297424
 30
0.0
 40
5.0
 41
0.0
 71
     5
 72
     1
  1
125
  7
OKANO
 11
0.0000000000000001
 21
1.0
 31
0.0
 73
     1
 44
1.0
  0
POINT
  5
6EC6
330
6642
100
AcDbEntity
  8
Defpoints
 62
     0
100
AcDbPoint
 10
214.2295522808142
 20
918.3399995297424
 30
0.0
  0
POINT
  5
6EC7
330
6642
100
AcDbEntity
  8
Defpoints
 62
     0
100
AcDbPoint
 10
217.8697506784607
 20
793.3399995297423
 30
0.0
  0
POINT
  5
6EC8
330
6642
100
AcDbEntity
  8
Defpoints
 62
     0
100
AcDbPoint
 10
168.8624897836125
 20
793.3399995297423
 30
0.0
  0
ENDBLK
  5
664D
330
6642
100
AcDbEntity
  8
0
100
AcDbBlockEnd
  0
BLOCK
  5
6668
330
665E
100
AcDbEntity
  8
0
100
AcDbBlockBegin
  2
*D5
 70
     1
 10
0.0
 20
0.0
 30
0.0
  3
*D5
  1

  0
LINE
  5
665F
330
665E
100
AcDbEntity
  8
寸法線
 62
     0
370
    -2
100
AcDbLine
 10
-267.0684195674258
 20
3008.999355540464
 30
0.0
 11
-267.0684195674258
 21
2990.347948420856
 31
0.0
  0
LINE
  5
6660
330
665E
100
AcDbEntity
  8
寸法線
 62
     0
370
    -2
100
AcDbLine
 10
-281.0684195674258
 20
3008.999355540464
 30
0.0
 11
-281.0684195674258
 21
2990.347948420856
 31
0.0
  0
LINE
  5
6661
330
665E
100
AcDbEntity
  8
寸法線
 62
     0
370
    -2
100
AcDbLine
 10
-270.0684195674258
 20
2993.347948420856
 30
0.0
 11
-278.0684195674258
 21
2993.347948420856
 31
0.0
  0
INSERT
  5
6662
330
665E
100
AcDbEntity
  8
寸法線
 62
     0
370
    -2
100
AcDbBlockReference
  2
_Closed
 10
-267.0684195674258
 20
2993.347948420856
 30
0.0
 41
3.0
 42
3.0
 43
3.0
  0
INSERT
  5
6663
330
665E
100
AcDbEntity
  8
寸法線
 62
     0
370
    -2
100
AcDbBlockReference
  2
_Closed
 10
-281.0684195674258
 20
2993.347948420856
 30
0.0
 41
3.0
 42
3.0
 43
3.0
 50
180.0
  0
MTEXT
  5
6664
330
665E
100
AcDbEntity
  8
寸法線
 62
     0
100
AcDbMText
 10
-274.0684195674258
 20
2996.847948420855
 30
0.0
 40
5.0
 41
0.0
 71
     5
 72
     1
  1
14
  7
OKANO
 73
     1
 44
1.0
  0
POINT
  5
6665
330
665E
100
AcDbEntity
  8
Defpoints
 62
     0
100
AcDbPoint
 10
-267.0684195674258
 20
3010.999355540464
 30
0.0
  0
POINT
  5
6666
330
665E
100
AcDbEntity
  8
Defpoints
 62
     0
100
AcDbPoint
 10
-281.0684195674258
 20
3010.999355540464
 30
0.0
  0
POINT
  5
6667
330
665E
100
AcDbEntity
  8
Defpoints
 62
     0
100
AcDbPoint
 10
-281.0684195674258
 20
2993.347948420856
 30
0.0
  0
ENDBLK
  5
6669
330
665E
100
AcDbEntity
  8
0
100
AcDbBlockEnd
  0
BLOCK
  5
6674
330
666A
100
AcDbEntity
  8
0
100
AcDbBlockBegin
  2
*D6
 70
     1
 10
0.0
 20
0.0
 30
0.0
  3
*D6
  1

  0
LINE
  5
666B
330
666A
100
AcDbEntity
  8
寸法線
 62
     0
370
    -2
100
AcDbLine
 10
-209.0684195674257
 20
2990.999355540464
 30
0.0
 11
-184.2030401041266
 21
2990.999355540464
 31
0.0
  0
LINE
  5
666C
330
666A
100
AcDbEntity
  8
寸法線
 62
     0
370
    -2
100
AcDbLine
 10
-199.0684195674257
 20
3010.359696187253
 30
0.0
 11
-184.2030401041266
 21
3010.359696187253
 31
0.0
  0
LINE
  5
666D
330
666A
100
AcDbEntity
  8
寸法線
 62
     0
370
    -2
100
AcDbLine
 10
-187.2030401041266
 20
2993.999355540464
 30
0.0
 11
-187.2030401041266
 21
3007.359696187253
 31
0.0
  0
INSERT
  5
666E
330
666A
100
AcDbEntity
  8
寸法線
 62
     0
370
    -2
100
AcDbBlockReference
  2
_Closed
 10
-187.2030401041266
 20
2990.999355540464
 30
0.0
 41
3.0
 42
3.0
 43
3.0
 50
270.0
  0
INSERT
  5
666F
330
666A
100
AcDbEntity
  8
寸法線
 62
     0
370
    -2
100
AcDbBlockReference
  2
_Closed
 10
-187.2030401041266
 20
3010.359696187253
 30
0.0
 41
3.0
 42
3.0
 43
3.0
 50
90.0
  0
MTEXT
  5
6670
330
666A
100
AcDbEntity
  8
寸法線
 62
     0
100
AcDbMText
 10
-190.7035322301114
 20
3000.679525863858
 30
0.0
 40
5.0
 41
0.0
 71
     5
 72
     1
  1
20
  7
OKANO
 11
0.0000000000000001
 21
1.0
 31
0.0
 73
     1
 44
1.0
  0
POINT
  5
6671
330
666A
100
AcDbEntity
  8
Defpoints
 62
     0
100
AcDbPoint
 10
-211.0684195674257
 20
2990.999355540464
 30
0.0
  0
POINT
  5
6672
330
666A
100
AcDbEntity
  8
Defpoints
 62
     0
100
AcDbPoint
 10
-201.0684195674257
 20
3010.359696187253
 30
0.0
  0
POINT
  5
6673
330
666A
100
AcDbEntity
  8
Defpoints
 62
     0
100
AcDbPoint
 10
-187.2030401041266
 20
3010.359696187253
 30
0.0
  0
ENDBLK
  5
6675
330
666A
100
AcDbEntity
  8
0
100
AcDbBlockEnd
  0
BLOCK
  5
6680
330
6676
100
AcDbEntity
  8
0
100
AcDbBlockBegin
  2
*D7
 70
     1
 10
0.0
 20
0.0
 30
0.0
  3
*D7
  1

  0
LINE
  5
6677
330
6676
100
AcDbEntity
  8
寸法線
 62
     0
370
    -2
100
AcDbLine
 10
-199.0684195674257
 20
3010.359696187253
 30
0.0
 11
-184.2030401041266
 21
3010.359696187253
 31
0.0
  0
LINE
  5
6678
330
6676
100
AcDbEntity
  8
寸法線
 62
     0
370
    -2
100
AcDbLine
 10
-209.0684195674257
 20
3030.999355540465
 30
0.0
 11
-184.2030401041266
 21
3030.999355540465
 31
0.0
  0
LINE
  5
6679
330
6676
100
AcDbEntity
  8
寸法線
 62
     0
370
    -2
100
AcDbLine
 10
-187.2030401041266
 20
3013.359696187253
 30
0.0
 11
-187.2030401041266
 21
3027.999355540465
 31
0.0
  0
INSERT
  5
667A
330
6676
100
AcDbEntity
  8
寸法線
 62
     0
370
    -2
100
AcDbBlockReference
  2
_Closed
 10
-187.2030401041266
 20
3010.359696187253
 30
0.0
 41
3.0
 42
3.0
 43
3.0
 50
270.0
  0
INSERT
  5
667B
330
6676
100
AcDbEntity
  8
寸法線
 62
     0
370
    -2
100
AcDbBlockReference
  2
_Closed
 10
-187.2030401041266
 20
3030.999355540465
 30
0.0
 41
3.0
 42
3.0
 43
3.0
 50
90.0
  0
MTEXT
  5
667C
330
6676
100
AcDbEntity
  8
寸法線
 62
     0
100
AcDbMText
 10
-190.7035322301113
 20
3020.679525863859
 30
0.0
 40
5.0
 41
0.0
 71
     5
 72
     1
  1
20
  7
OKANO
 11
0.0000000000000001
 21
1.0
 31
0.0
 73
     1
 44
1.0
  0
POINT
  5
667D
330
6676
100
AcDbEntity
  8
Defpoints
 62
     0
100
AcDbPoint
 10
-201.0684195674257
 20
3010.359696187253
 30
0.0
  0
POINT
  5
667E
330
6676
100
AcDbEntity
  8
Defpoints
 62
     0
100
AcDbPoint
 10
-211.0684195674257
 20
3030.999355540465
 30
0.0
  0
POINT
  5
667F
330
6676
100
AcDbEntity
  8
Defpoints
 62
     0
100
AcDbPoint
 10
-187.2030401041266
 20
3030.999355540465
 30
0.0
  0
ENDBLK
  5
6681
330
6676
100
AcDbEntity
  8
0
100
AcDbBlockEnd
  0
BLOCK
  5
6698
330
6682
100
AcDbEntity
  8
0
100
AcDbBlockBegin
  2
A$C23BB43CC
 70
     0
 10
0.0
 20
0.0
 30
0.0
  3
A$C23BB43CC
  1

  0
ARC
  5
6683
330
6682
100
AcDbEntity
  8
太線
100
AcDbCircle
 10
76.00000783041469
 20
30.65141214788309
 30
0.0
 40
10.0
100
AcDbArc
 50
0.0
 51
90.0
  0
ARC
  5
6684
330
6682
100
AcDbEntity
  8
太線
100
AcDbCircle
 10
10.00000783041457
 20
30.65141214788309
 30
0.0
 40
10.0
100
AcDbArc
 50
90.0
 51
180.0
  0
LINE
  5
6685
330
6682
100
AcDbEntity
  8
太線
100
AcDbLine
 10
10.00000783041457
 20
40.65141214788309
 30
0.0
 11
76.00000783041469
 21
40.65141214788309
 31
0.0
  0
ARC
  5
6686
330
6682
100
AcDbEntity
  8
太線
100
AcDbCircle
 10
10.50000783041457
 20
20.65141214788218
 30
0.0
 40
4.5
100
AcDbArc
 50
90.0
 51
270.0
  0
ARC
  5
6687
330
6682
100
AcDbEntity
  8
太線
100
AcDbCircle
 10
15.50000783041468
 20
20.65141214788218
 30
0.0
 40
4.5
100
AcDbArc
 50
270.0
 51
90.0
  0
LINE
  5
6688
330
6682
100
AcDbEntity
  8
太線
100
AcDbLine
 10
10.50000783041457
 20
25.15141214788218
 30
0.0
 11
15.50000783041468
 21
25.15141214788218
 31
0.0
  0
LINE
  5
6689
330
6682
100
AcDbEntity
  8
太線
100
AcDbLine
 10
15.50000783041468
 20
16.15141214788309
 30
0.0
 11
10.50000783041457
 21
16.15141214788309
 31
0.0
  0
ARC
  5
668A
330
6682
100
AcDbEntity
  8
太線
100
AcDbCircle
 10
73.50000783041469
 20
20.65141214788218
 30
0.0
 40
4.5
100
AcDbArc
 50
270.0
 51
90.0
  0
ARC
  5
668B
330
6682
100
AcDbEntity
  8
太線
100
AcDbCircle
 10
68.50000783041463
 20
20.65141214788218
 30
0.0
 40
4.5
100
AcDbArc
 50
90.0
 51
270.0
  0
LINE
  5
668C
330
6682
100
AcDbEntity
  8
太線
100
AcDbLine
 10
73.50000783041469
 20
16.15141214788309
 30
0.0
 11
68.50000783041463
 21
16.15141214788309
 31
0.0
  0
LINE
  5
668D
330
6682
100
AcDbEntity
  8
太線
100
AcDbLine
 10
68.50000783041463
 20
25.15141214788218
 30
0.0
 11
73.50000783041469
 21
25.15141214788218
 31
0.0
  0
DIMENSION
  5
668E
330
6682
100
AcDbEntity
  8
寸法線
100
AcDbDimension
  2
*D5
 10
6.000007830414574
 20
3.000005028273335
 30
0.0
 11
13.00000783041457
 21
6.500005028273335
 31
0.0
 12
287.0684273978404
 22
-2990.347943392582
 32
0.0
 71
     5
 42
14.0
  3
sunpo
100
AcDbAlignedDimension
 13
20.00000783041457
 23
20.65141214788218
 33
0.0
 14
6.000007830414574
 24
20.65141214788218
 34
0.0
100
AcDbRotatedDimension
1001
ACAD
1000
DSTYLE
1002
{
1070
    40
1040
1.0
1002
}
  0
LINE
  5
668F
330
6682
100
AcDbEntity
  8
太線
100
AcDbLine
 10
0.0000078304145745
 20
20.65141214788218
 30
0.0
 11
0.0000078304145745
 21
30.65141214788309
 31
0.0
  0
LINE
  5
6690
330
6682
100
AcDbEntity
  8
太線
100
AcDbLine
 10
86.00000783041469
 20
30.65141214788309
 30
0.0
 11
86.00000783041469
 21
20.01175279467133
 31
0.0
  0
LINE
  5
6691
330
6682
100
AcDbEntity
  8
太線
100
AcDbLine
 10
0.0000078304145745
 20
20.65141214788218
 30
0.0
 11
0.0000078304145745
 21
10.65141214788218
 31
0.0
  0
ARC
  5
6692
330
6682
100
AcDbEntity
  8
太線
100
AcDbCircle
 10
10.00000783041457
 20
10.65141214788218
 30
0.0
 40
10.0
100
AcDbArc
 50
180.0
 51
270.0
  0
LINE
  5
6693
330
6682
100
AcDbEntity
  8
太線
100
AcDbLine
 10
10.00000783041457
 20
0.6514121478821835
 30
0.0
 11
76.00000783041469
 21
0.6514121478821835
 31
0.0
  0
ARC
  5
6694
330
6682
100
AcDbEntity
  8
太線
100
AcDbCircle
 10
76.00000783041469
 20
10.65141214788218
 30
0.0
 40
10.0
100
AcDbArc
 50
270.0
 51
0.0
  0
LINE
  5
6695
330
6682
100
AcDbEntity
  8
太線
100
AcDbLine
 10
86.00000783041469
 20
10.65141214788218
 30
0.0
 11
86.00000783041469
 21
20.01175279467133
 31
0.0
  0
DIMENSION
  5
6696
330
6682
100
AcDbEntity
  8
寸法線
100
AcDbDimension
  2
*D6
 10
99.86538729371382
 20
20.01175279467133
 30
0.0
 11
96.36489516772904
 21
10.33158247127676
 31
0.0
 12
287.0684273978404
 22
-2990.347943392582
 32
0.0
  1
20
 71
     5
 42
19.36034064678915
  3
sunpo
100
AcDbAlignedDimension
 13
76.00000783041469
 23
0.6514121478821835
 33
0.0
 14
86.00000783041469
 24
20.01175279467133
 34
0.0
 50
90.0
100
AcDbRotatedDimension
1001
ACAD
1000
DSTYLE
1002
{
1070
    40
1040
1.0
1002
}
  0
DIMENSION
  5
6697
330
6682
100
AcDbEntity
  8
寸法線
100
AcDbDimension
  2
*D7
 10
99.86538729371382
 20
40.65141214788309
 30
0.0
 11
96.36489516772906
 21
30.33158247127721
 31
0.0
 12
287.0684273978404
 22
-2990.347943392582
 32
0.0
  1
20
 71
     5
 42
20.63965935321175
  3
sunpo
100
AcDbAlignedDimension
 13
86.00000783041469
 23
20.01175279467133
 33
0.0
 14
76.00000783041469
 24
40.65141214788309
 34
0.0
 50
90.0
100
AcDbRotatedDimension
1001
ACAD
1000
DSTYLE
1002
{
1070
    40
1040
1.0
1070
   279
1070
     1
1002
}
  0
ENDBLK
  5
6699
330
6682
100
AcDbEntity
  8
0
100
AcDbBlockEnd
  0
BLOCK
  5
6846
330
683C
100
AcDbEntity
  8
0
100
AcDbBlockBegin
  2
*D9
 70
     1
 10
0.0
 20
0.0
 30
0.0
  3
*D9
  1

  0
LINE
  5
6848
330
683C
100
AcDbEntity
  8
寸法線
 62
     0
370
    -2
100
AcDbLine
 10
528.8694720409694
 20
834.1518988690804
 30
0.0
 11
556.0173225885373
 21
834.1518988690804
 31
0.0
  0
LINE
  5
6849
330
683C
100
AcDbEntity
  8
寸法線
 62
     0
370
    -2
100
AcDbLine
 10
530.2103498165961
 20
793.2955214929825
 30
0.0
 11
556.0173225885373
 21
793.2955214929825
 31
0.0
  0
LINE
  5
684A
330
683C
100
AcDbEntity
  8
寸法線
 62
     0
370
    -2
100
AcDbLine
 10
553.0173225885373
 20
831.1518988690805
 30
0.0
 11
553.0173225885373
 21
796.2955214929825
 31
0.0
  0
INSERT
  5
684B
330
683C
100
AcDbEntity
  8
寸法線
 62
     0
370
    -2
100
AcDbBlockReference
  2
_Closed
 10
553.0173225885373
 20
834.1518988690804
 30
0.0
 41
3.0
 42
3.0
 43
3.0
 50
90.0
  0
INSERT
  5
684C
330
683C
100
AcDbEntity
  8
寸法線
 62
     0
370
    -2
100
AcDbBlockReference
  2
_Closed
 10
553.0173225885373
 20
793.2955214929825
 30
0.0
 41
3.0
 42
3.0
 43
3.0
 50
270.0
  0
MTEXT
  5
684D
330
683C
100
AcDbEntity
  8
寸法線
 62
     0
100
AcDbMText
 10
549.5173225885371
 20
813.7237101810315
 30
0.0
 40
5.0
 41
0.0
 71
     5
 72
     1
  1
40
  7
OKANO
 11
0.0000000000000001
 21
1.0
 31
0.0
 73
     1
 44
1.0
  0
POINT
  5
684E
330
683C
100
AcDbEntity
  8
Defpoints
 62
     0
100
AcDbPoint
 10
526.8694720409694
 20
834.1518988690804
 30
0.0
  0
POINT
  5
684F
330
683C
100
AcDbEntity
  8
Defpoints
 62
     0
100
AcDbPoint
 10
528.2103498165961
 20
793.2955214929825
 30
0.0
  0
POINT
  5
6850
330
683C
100
AcDbEntity
  8
Defpoints
 62
     0
100
AcDbPoint
 10
553.0173225885373
 20
793.2955214929825
 30
0.0
  0
ENDBLK
  5
6847
330
683C
100
AcDbEntity
  8
0
100
AcDbBlockEnd
  0
BLOCK
  5
6864
330
685A
100
AcDbEntity
  8
0
100
AcDbBlockBegin
  2
*D10
 70
     1
 10
0.0
 20
0.0
 30
0.0
  3
*D10
  1

  0
LINE
  5
685B
330
685A
100
AcDbEntity
  8
寸法線
 62
     0
370
    -2
100
AcDbLine
 10
460.3125459663808
 20
977.1263675188819
 30
0.0
 11
484.989258932696
 21
977.1263675188819
 31
0.0
  0
LINE
  5
685C
330
685A
100
AcDbEntity
  8
寸法線
 62
     0
370
    -2
100
AcDbLine
 10
462.8125459663809
 20
997.126367518882
 30
0.0
 11
484.989258932696
 21
997.126367518882
 31
0.0
  0
LINE
  5
685D
330
685A
100
AcDbEntity
  8
寸法線
 62
     0
370
    -2
100
AcDbLine
 10
481.9892589326959
 20
980.126367518882
 30
0.0
 11
481.9892589326959
 21
994.1263675188819
 31
0.0
  0
INSERT
  5
685E
330
685A
100
AcDbEntity
  8
寸法線
 62
     0
370
    -2
100
AcDbBlockReference
  2
_Closed
 10
481.9892589326959
 20
977.1263675188819
 30
0.0
 41
3.0
 42
3.0
 43
3.0
 50
270.0
  0
INSERT
  5
685F
330
685A
100
AcDbEntity
  8
寸法線
 62
     0
370
    -2
100
AcDbBlockReference
  2
_Closed
 10
481.9892589326959
 20
997.126367518882
 30
0.0
 41
3.0
 42
3.0
 43
3.0
 50
90.0
  0
MTEXT
  5
6860
330
685A
100
AcDbEntity
  8
寸法線
 62
     0
100
AcDbMText
 10
478.4887668067115
 20
987.1263675188821
 30
0.0
 40
5.0
 41
0.0
 71
     5
 72
     1
  1
20
  7
OKANO
 11
0.0000000000000001
 21
1.0
 31
0.0
 73
     1
 44
1.0
  0
POINT
  5
6861
330
685A
100
AcDbEntity
  8
Defpoints
 62
     0
100
AcDbPoint
 10
458.3125459663809
 20
977.1263675188819
 30
0.0
  0
POINT
  5
6862
330
685A
100
AcDbEntity
  8
Defpoints
 62
     0
100
AcDbPoint
 10
460.8125459663808
 20
997.126367518882
 30
0.0
  0
POINT
  5
6863
330
685A
100
AcDbEntity
  8
Defpoints
 62
     0
100
AcDbPoint
 10
481.9892589326959
 20
997.126367518882
 30
0.0
  0
ENDBLK
  5
6865
330
685A
100
AcDbEntity
  8
0
100
AcDbBlockEnd
  0
BLOCK
  5
6870
330
6866
100
AcDbEntity
  8
0
100
AcDbBlockBegin
  2
*D11
 70
     1
 10
0.0
 20
0.0
 30
0.0
  3
*D11
  1

  0
LINE
  5
6867
330
6866
100
AcDbEntity
  8
寸法線
 62
     0
370
    -2
100
AcDbLine
 10
393.3125459663808
 20
977.1263675188819
 30
0.0
 11
372.2622992226283
 21
977.1263675188819
 31
0.0
  0
LINE
  5
6868
330
6866
100
AcDbEntity
  8
寸法線
 62
     0
370
    -2
100
AcDbLine
 10
382.8125459663808
 20
962.1263675188821
 30
0.0
 11
372.2622992226283
 21
962.1263675188821
 31
0.0
  0
LINE
  5
6869
330
6866
100
AcDbEntity
  8
寸法線
 62
     0
370
    -2
100
AcDbLine
 10
375.2622992226283
 20
974.126367518882
 30
0.0
 11
375.2622992226283
 21
965.126367518882
 31
0.0
  0
INSERT
  5
686A
330
6866
100
AcDbEntity
  8
寸法線
 62
     0
370
    -2
100
AcDbBlockReference
  2
_Closed
 10
375.2622992226283
 20
977.1263675188819
 30
0.0
 41
3.0
 42
3.0
 43
3.0
 50
90.0
  0
INSERT
  5
686B
330
6866
100
AcDbEntity
  8
寸法線
 62
     0
370
    -2
100
AcDbBlockReference
  2
_Closed
 10
375.2622992226283
 20
962.1263675188821
 30
0.0
 41
3.0
 42
3.0
 43
3.0
 50
270.0
  0
MTEXT
  5
686C
330
6866
100
AcDbEntity
  8
寸法線
 62
     0
100
AcDbMText
 10
371.7622992226282
 20
969.6263675188822
 30
0.0
 40
5.0
 41
0.0
 71
     5
 72
     1
  1
15
  7
OKANO
 11
0.0000000000000001
 21
1.0
 31
0.0
 73
     1
 44
1.0
  0
POINT
  5
686D
330
6866
100
AcDbEntity
  8
Defpoints
 62
     0
100
AcDbPoint
 10
395.3125459663808
 20
977.1263675188819
 30
0.0
  0
POINT
  5
686E
330
6866
100
AcDbEntity
  8
Defpoints
 62
     0
100
AcDbPoint
 10
384.8125459663808
 20
962.1263675188821
 30
0.0
  0
POINT
  5
686F
330
6866
100
AcDbEntity
  8
Defpoints
 62
     0
100
AcDbPoint
 10
375.2622992226283
 20
962.1263675188821
 30
0.0
  0
ENDBLK
  5
6871
330
6866
100
AcDbEntity
  8
0
100
AcDbBlockEnd
  0
BLOCK
  5
687C
330
6872
100
AcDbEntity
  8
0
100
AcDbBlockBegin
  2
*D12
 70
     1
 10
0.0
 20
0.0
 30
0.0
  3
*D12
  1

  0
LINE
  5
6873
330
6872
100
AcDbEntity
  8
寸法線
 62
     0
370
    -2
100
AcDbLine
 10
382.8125459663808
 20
962.1263675188821
 30
0.0
 11
372.2622992226283
 21
962.1263675188821
 31
0.0
  0
LINE
  5
6874
330
6872
100
AcDbEntity
  8
寸法線
 62
     0
370
    -2
100
AcDbLine
 10
388.8805627299111
 20
954.1118724836065
 30
0.0
 11
372.2622992226283
 21
954.1118724836065
 31
0.0
  0
LINE
  5
6875
330
6872
100
AcDbEntity
  8
寸法線
 62
     0
370
    -2
100
AcDbLine
 10
375.2622992226283
 20
959.126367518882
 30
0.0
 11
375.2622992226283
 21
957.1118724836065
 31
0.0
  0
INSERT
  5
6876
330
6872
100
AcDbEntity
  8
寸法線
 62
     0
370
    -2
100
AcDbBlockReference
  2
_Closed
 10
375.2622992226283
 20
962.1263675188821
 30
0.0
 41
3.0
 42
3.0
 43
3.0
 50
90.0
  0
INSERT
  5
6877
330
6872
100
AcDbEntity
  8
寸法線
 62
     0
370
    -2
100
AcDbBlockReference
  2
_Closed
 10
375.2622992226283
 20
954.1118724836065
 30
0.0
 41
3.0
 42
3.0
 43
3.0
 50
270.0
  0
MTEXT
  5
6878
330
6872
100
AcDbEntity
  8
寸法線
 62
     0
100
AcDbMText
 10
371.7622992226282
 20
958.1191200012444
 30
0.0
 40
5.0
 41
0.0
 71
     5
 72
     1
  1
10
  7
OKANO
 11
0.0000000000000001
 21
1.0
 31
0.0
 73
     1
 44
1.0
  0
POINT
  5
6879
330
6872
100
AcDbEntity
  8
Defpoints
 62
     0
100
AcDbPoint
 10
384.8125459663808
 20
962.1263675188821
 30
0.0
  0
POINT
  5
687A
330
6872
100
AcDbEntity
  8
Defpoints
 62
     0
100
AcDbPoint
 10
390.8805627299111
 20
954.1118724836065
 30
0.0
  0
POINT
  5
687B
330
6872
100
AcDbEntity
  8
Defpoints
 62
     0
100
AcDbPoint
 10
375.2622992226283
 20
954.1118724836065
 30
0.0
  0
ENDBLK
  5
687D
330
6872
100
AcDbEntity
  8
0
100
AcDbBlockEnd
  0
BLOCK
  5
6888
330
687E
100
AcDbEntity
  8
0
100
AcDbBlockBegin
  2
*D13
 70
     1
 10
0.0
 20
0.0
 30
0.0
  3
*D13
  1

  0
LINE
  5
687F
330
687E
100
AcDbEntity
  8
寸法線
 62
     0
370
    -2
100
AcDbLine
 10
223.9454965241318
 20
975.126367518882
 30
0.0
 11
223.9454965241318
 21
956.4749603992732
 31
0.0
  0
LINE
  5
6880
330
687E
100
AcDbEntity
  8
寸法線
 62
     0
370
    -2
100
AcDbLine
 10
209.9454965241318
 20
975.126367518882
 30
0.0
 11
209.9454965241318
 21
956.4749603992732
 31
0.0
  0
LINE
  5
6881
330
687E
100
AcDbEntity
  8
寸法線
 62
     0
370
    -2
100
AcDbLine
 10
220.9454965241318
 20
959.4749603992731
 30
0.0
 11
212.9454965241318
 21
959.4749603992731
 31
0.0
  0
INSERT
  5
6882
330
687E
100
AcDbEntity
  8
寸法線
 62
     0
370
    -2
100
AcDbBlockReference
  2
_Closed
 10
223.9454965241318
 20
959.4749603992731
 30
0.0
 41
3.0
 42
3.0
 43
3.0
  0
INSERT
  5
6883
330
687E
100
AcDbEntity
  8
寸法線
 62
     0
370
    -2
100
AcDbBlockReference
  2
_Closed
 10
209.9454965241318
 20
959.4749603992731
 30
0.0
 41
3.0
 42
3.0
 43
3.0
 50
180.0
  0
MTEXT
  5
6884
330
687E
100
AcDbEntity
  8
寸法線
 62
     0
100
AcDbMText
 10
216.9454965241318
 20
962.9749603992731
 30
0.0
 40
5.0
 41
0.0
 71
     5
 72
     1
  1
14
  7
OKANO
 73
     1
 44
1.0
  0
POINT
  5
6885
330
687E
100
AcDbEntity
  8
Defpoints
 62
     0
100
AcDbPoint
 10
223.9454965241318
 20
977.1263675188819
 30
0.0
  0
POINT
  5
6886
330
687E
100
AcDbEntity
  8
Defpoints
 62
     0
100
AcDbPoint
 10
209.9454965241318
 20
977.1263675188819
 30
0.0
  0
POINT
  5
6887
330
687E
100
AcDbEntity
  8
Defpoints
 62
     0
100
AcDbPoint
 10
209.9454965241318
 20
959.4749603992731
 30
0.0
  0
ENDBLK
  5
6889
330
687E
100
AcDbEntity
  8
0
100
AcDbBlockEnd
  0
BLOCK
  5
6894
330
688A
100
AcDbEntity
  8
0
100
AcDbBlockBegin
  2
*D14
 70
     1
 10
0.0
 20
0.0
 30
0.0
  3
*D14
  1

  0
LINE
  5
688B
330
688A
100
AcDbEntity
  8
寸法線
 62
     0
370
    -2
100
AcDbLine
 10
281.9454965241319
 20
957.126367518882
 30
0.0
 11
306.810875987431
 21
957.126367518882
 31
0.0
  0
LINE
  5
688C
330
688A
100
AcDbEntity
  8
寸法線
 62
     0
370
    -2
100
AcDbLine
 10
291.9454965241319
 20
976.4867081656712
 30
0.0
 11
306.810875987431
 21
976.4867081656712
 31
0.0
  0
LINE
  5
688D
330
688A
100
AcDbEntity
  8
寸法線
 62
     0
370
    -2
100
AcDbLine
 10
303.810875987431
 20
960.1263675188819
 30
0.0
 11
303.810875987431
 21
973.4867081656712
 31
0.0
  0
INSERT
  5
688E
330
688A
100
AcDbEntity
  8
寸法線
 62
     0
370
    -2
100
AcDbBlockReference
  2
_Closed
 10
303.810875987431
 20
957.126367518882
 30
0.0
 41
3.0
 42
3.0
 43
3.0
 50
270.0
  0
INSERT
  5
688F
330
688A
100
AcDbEntity
  8
寸法線
 62
     0
370
    -2
100
AcDbBlockReference
  2
_Closed
 10
303.810875987431
 20
976.4867081656712
 30
0.0
 41
3.0
 42
3.0
 43
3.0
 50
90.0
  0
MTEXT
  5
6890
330
688A
100
AcDbEntity
  8
寸法線
 62
     0
100
AcDbMText
 10
300.3103838614466
 20
966.8065378422767
 30
0.0
 40
5.0
 41
0.0
 71
     5
 72
     1
  1
20
  7
OKANO
 11
0.0000000000000001
 21
1.0
 31
0.0
 73
     1
 44
1.0
  0
POINT
  5
6891
330
688A
100
AcDbEntity
  8
Defpoints
 62
     0
100
AcDbPoint
 10
279.9454965241319
 20
957.126367518882
 30
0.0
  0
POINT
  5
6892
330
688A
100
AcDbEntity
  8
Defpoints
 62
     0
100
AcDbPoint
 10
289.9454965241319
 20
976.4867081656712
 30
0.0
  0
POINT
  5
6893
330
688A
100
AcDbEntity
  8
Defpoints
 62
     0
100
AcDbPoint
 10
303.810875987431
 20
976.4867081656712
 30
0.0
  0
ENDBLK
  5
6895
330
688A
100
AcDbEntity
  8
0
100
AcDbBlockEnd
  0
BLOCK
  5
68A0
330
6896
100
AcDbEntity
  8
0
100
AcDbBlockBegin
  2
*D15
 70
     1
 10
0.0
 20
0.0
 30
0.0
  3
*D15
  1

  0
LINE
  5
6897
330
6896
100
AcDbEntity
  8
寸法線
 62
     0
370
    -2
100
AcDbLine
 10
291.9454965241319
 20
976.4867081656712
 30
0.0
 11
306.810875987431
 21
976.4867081656712
 31
0.0
  0
LINE
  5
6898
330
6896
100
AcDbEntity
  8
寸法線
 62
     0
370
    -2
100
AcDbLine
 10
281.9454965241319
 20
997.1263675188829
 30
0.0
 11
306.810875987431
 21
997.1263675188829
 31
0.0
  0
LINE
  5
6899
330
6896
100
AcDbEntity
  8
寸法線
 62
     0
370
    -2
100
AcDbLine
 10
303.810875987431
 20
979.4867081656711
 30
0.0
 11
303.810875987431
 21
994.126367518883
 31
0.0
  0
INSERT
  5
689A
330
6896
100
AcDbEntity
  8
寸法線
 62
     0
370
    -2
100
AcDbBlockReference
  2
_Closed
 10
303.810875987431
 20
976.4867081656712
 30
0.0
 41
3.0
 42
3.0
 43
3.0
 50
270.0
  0
INSERT
  5
689B
330
6896
100
AcDbEntity
  8
寸法線
 62
     0
370
    -2
100
AcDbBlockReference
  2
_Closed
 10
303.810875987431
 20
997.1263675188829
 30
0.0
 41
3.0
 42
3.0
 43
3.0
 50
90.0
  0
MTEXT
  5
689C
330
6896
100
AcDbEntity
  8
寸法線
 62
     0
100
AcDbMText
 10
300.3103838614466
 20
986.8065378422771
 30
0.0
 40
5.0
 41
0.0
 71
     5
 72
     1
  1
20
  7
OKANO
 11
0.0000000000000001
 21
1.0
 31
0.0
 73
     1
 44
1.0
  0
POINT
  5
689D
330
6896
100
AcDbEntity
  8
Defpoints
 62
     0
100
AcDbPoint
 10
289.9454965241319
 20
976.4867081656712
 30
0.0
  0
POINT
  5
689E
330
6896
100
AcDbEntity
  8
Defpoints
 62
     0
100
AcDbPoint
 10
279.9454965241319
 20
997.1263675188829
 30
0.0
  0
POINT
  5
689F
330
6896
100
AcDbEntity
  8
Defpoints
 62
     0
100
AcDbPoint
 10
303.810875987431
 20
997.1263675188829
 30
0.0
  0
ENDBLK
  5
68A1
330
6896
100
AcDbEntity
  8
0
100
AcDbBlockEnd
  0
BLOCK
  5
68A9
330
68A2
100
AcDbEntity
  8
0
100
AcDbBlockBegin
  2
*D16
 70
     1
 10
0.0
 20
0.0
 30
0.0
  3
*D16
  1

  0
LINE
  5
68A3
330
68A2
100
AcDbEntity
  8
寸法線
 62
     0
370
    -2
100
AcDbLine
 10
193.2442829612326
 20
1007.371887059548
 30
0.0
 11
204.6513823044758
 21
996.215891206733
 31
0.0
  0
MTEXT
  5
68A4
330
68A2
100
AcDbEntity
  8
寸法線
 62
     0
100
AcDbMText
 10
199.8533385504695
 20
1005.803887464506
 30
0.0
 40
5.0
 41
0.0
 71
     5
 72
     1
  1
R10
  7
OKANO
 11
0.7149318630504556
 21
-0.6991941298346295
 31
0.0
 73
     1
 44
1.0
  0
LINE
  5
68A5
330
68A2
100
AcDbEntity
  8
寸法線
 62
     0
370
    -2
100
AcDbLine
 10
213.945496524132
 20
987.1263675188824
 30
0.0
 11
206.7961778936271
 21
994.1183088172291
 31
0.0
  0
INSERT
  5
68A6
330
68A2
100
AcDbEntity
  8
寸法線
 62
     0
370
    -2
100
AcDbBlockReference
  2
_Closed
 10
206.7961778936271
 20
994.1183088172291
 30
0.0
 41
3.0
 42
3.0
 43
3.0
 50
315.6376153703527
  0
POINT
  5
68A7
330
68A2
100
AcDbEntity
  8
Defpoints
 62
     0
100
AcDbPoint
 10
206.7961778936271
 20
994.1183088172291
 30
0.0
  0
POINT
  5
68A8
330
68A2
100
AcDbEntity
  8
Defpoints
 62
     0
100
AcDbPoint
 10
213.945496524132
 20
987.1263675188824
 30
0.0
  0
ENDBLK
  5
68AA
330
68A2
100
AcDbEntity
  8
0
100
AcDbBlockEnd
  0
BLOCK
  5
68B2
330
68AB
100
AcDbEntity
  8
0
100
AcDbBlockBegin
  2
*D17
 70
     1
 10
0.0
 20
0.0
 30
0.0
  3
*D17
  1

  0
LINE
  5
68AC
330
68AB
100
AcDbEntity
  8
寸法線
 62
     0
370
    -2
100
AcDbLine
 10
372.9863045194465
 20
1004.089127104793
 30
0.0
 11
384.5479581194375
 21
995.1037252476281
 31
0.0
  0
MTEXT
  5
68AD
330
68AB
100
AcDbEntity
  8
寸法線
 62
     0
100
AcDbMText
 10
379.73050595638
 20
1003.280433411396
 30
0.0
 40
5.0
 41
0.0
 71
     5
 72
     1
  1
R10
  7
OKANO
 11
0.7895836805341401
 21
-0.613642902211181
 31
0.0
 73
     1
 44
1.0
  0
LINE
  5
68AE
330
68AB
100
AcDbEntity
  8
寸法線
 62
     0
370
    -2
100
AcDbLine
 10
394.8125459663807
 20
987.1263675188831
 30
0.0
 11
386.9167091610399
 21
993.2627965409945
 31
0.0
  0
INSERT
  5
68AF
330
68AB
100
AcDbEntity
  8
寸法線
 62
     0
370
    -2
100
AcDbBlockReference
  2
_Closed
 10
386.9167091610399
 20
993.2627965409945
 30
0.0
 41
3.0
 42
3.0
 43
3.0
 50
322.1466228004848
  0
POINT
  5
68B0
330
68AB
100
AcDbEntity
  8
Defpoints
 62
     0
100
AcDbPoint
 10
386.9167091610399
 20
993.2627965409945
 30
0.0
  0
POINT
  5
68B1
330
68AB
100
AcDbEntity
  8
Defpoints
 62
     0
100
AcDbPoint
 10
394.8125459663807
 20
987.1263675188831
 30
0.0
  0
ENDBLK
  5
68B3
330
68AB
100
AcDbEntity
  8
0
100
AcDbBlockEnd
  0
BLOCK
  5
68E4
330
68B4
100
AcDbEntity
  8
0
100
AcDbBlockBegin
  2
A$C459203B4
 70
     0
 10
0.0
 20
0.0
 30
0.0
  3
A$C459203B4
  1

  0
DIMENSION
  5
68B5
330
68B4
100
AcDbEntity
  8
寸法線
100
AcDbDimension
  2
*D17
 10
201.568132971961
 20
33.01449043757861
 30
0.0
 11
184.3383428042211
 21
46.4050134482228
 31
0.0
 12
-193.2444129944197
 22
-954.1118770813046
 32
0.0
 70
     4
 71
     5
 42
9.999999999999204
  3
sunpo
100
AcDbRadialDimension
 15
193.6722961666202
 25
39.15091945968993
 35
0.0
 40
0.0
1001
ACAD
1000
DSTYLE
1002
{
1070
    40
1040
1.0
1070
   288
1070
     1
1002
}
  0
DIMENSION
  5
68B6
330
68B4
100
AcDbEntity
  8
寸法線
100
AcDbDimension
  2
*D16
 10
20.70108352971237
 20
33.01449043757793
 30
0.0
 11
4.161746101628637
 21
49.18974886252545
 31
0.0
 12
-193.2444129944197
 22
-954.1118770813046
 32
0.0
 70
   132
 71
     5
 42
10.00000000000045
  3
sunpo
100
AcDbRadialDimension
 15
13.55176489920751
 25
40.00643173592459
 35
0.0
 40
0.0
1001
ACAD
1000
DSTYLE
1002
{
1070
    40
1040
1.0
1070
   288
1070
     1
1002
}
  0
ARC
  5
68B7
330
68B4
100
AcDbEntity
  8
太線
100
AcDbCircle
 10
86.70108352971226
 20
33.01449043757838
 30
0.0
 40
10.0
100
AcDbArc
 50
0.0
 51
90.0
  0
ARC
  5
68B8
330
68B4
100
AcDbEntity
  8
太線
100
AcDbCircle
 10
20.70108352971215
 20
33.01449043757838
 30
0.0
 40
10.0
100
AcDbArc
 50
90.0
 51
180.0
  0
LINE
  5
68B9
330
68B4
100
AcDbEntity
  8
太線
100
AcDbLine
 10
20.70108352971215
 20
43.01449043757838
 30
0.0
 11
86.70108352971226
 21
43.01449043757838
 31
0.0
  0
ARC
  5
68BA
330
68B4
100
AcDbEntity
  8
太線
100
AcDbCircle
 10
21.20108352971215
 20
23.01449043757747
 30
0.0
 40
4.5
100
AcDbArc
 50
90.0
 51
270.0
  0
ARC
  5
68BB
330
68B4
100
AcDbEntity
  8
太線
100
AcDbCircle
 10
26.20108352971226
 20
23.01449043757747
 30
0.0
 40
4.5
100
AcDbArc
 50
270.0
 51
90.0
  0
LINE
  5
68BC
330
68B4
100
AcDbEntity
  8
太線
100
AcDbLine
 10
21.20108352971215
 20
27.51449043757748
 30
0.0
 11
26.20108352971226
 21
27.51449043757748
 31
0.0
  0
LINE
  5
68BD
330
68B4
100
AcDbEntity
  8
太線
100
AcDbLine
 10
26.20108352971226
 20
18.51449043757838
 30
0.0
 11
21.20108352971215
 21
18.51449043757838
 31
0.0
  0
ARC
  5
68BE
330
68B4
100
AcDbEntity
  8
太線
100
AcDbCircle
 10
84.20108352971226
 20
23.01449043757747
 30
0.0
 40
4.5
100
AcDbArc
 50
270.0
 51
90.0
  0
ARC
  5
68BF
330
68B4
100
AcDbEntity
  8
太線
100
AcDbCircle
 10
79.20108352971221
 20
23.01449043757747
 30
0.0
 40
4.5
100
AcDbArc
 50
90.0
 51
270.0
  0
LINE
  5
68C0
330
68B4
100
AcDbEntity
  8
太線
100
AcDbLine
 10
84.20108352971226
 20
18.51449043757838
 30
0.0
 11
79.20108352971221
 21
18.51449043757838
 31
0.0
  0
LINE
  5
68C1
330
68B4
100
AcDbEntity
  8
太線
100
AcDbLine
 10
79.20108352971221
 20
27.51449043757748
 30
0.0
 11
84.20108352971226
 21
27.51449043757748
 31
0.0
  0
DIMENSION
  5
68C2
330
68B4
100
AcDbEntity
  8
寸法線
100
AcDbDimension
  2
*D13
 10
16.70108352971215
 20
5.36308331796863
 30
0.0
 11
23.70108352971215
 21
8.86308331796863
 31
0.0
 12
-193.2444129944197
 22
-954.1118770813046
 32
0.0
 71
     5
 42
14.0
  3
sunpo
100
AcDbAlignedDimension
 13
30.70108352971215
 23
23.01449043757747
 33
0.0
 14
16.70108352971215
 24
23.01449043757747
 34
0.0
100
AcDbRotatedDimension
1001
ACAD
1000
DSTYLE
1002
{
1070
    40
1040
1.0
1002
}
  0
LINE
  5
68C3
330
68B4
100
AcDbEntity
  8
太線
100
AcDbLine
 10
10.70108352971214
 20
23.01449043757747
 30
0.0
 11
10.70108352971214
 21
33.01449043757838
 31
0.0
  0
LINE
  5
68C4
330
68B4
100
AcDbEntity
  8
太線
100
AcDbLine
 10
96.70108352971226
 20
33.01449043757838
 30
0.0
 11
96.70108352971226
 21
22.37483108436663
 31
0.0
  0
LINE
  5
68C5
330
68B4
100
AcDbEntity
  8
太線
100
AcDbLine
 10
10.70108352971214
 20
23.01449043757747
 30
0.0
 11
10.70108352971214
 21
13.01449043757747
 31
0.0
  0
ARC
  5
68C6
330
68B4
100
AcDbEntity
  8
太線
100
AcDbCircle
 10
20.70108352971215
 20
13.01449043757747
 30
0.0
 40
10.0
100
AcDbArc
 50
180.0
 51
270.0
  0
LINE
  5
68C7
330
68B4
100
AcDbEntity
  8
太線
100
AcDbLine
 10
20.70108352971215
 20
3.014490437577478
 30
0.0
 11
86.70108352971226
 21
3.014490437577478
 31
0.0
  0
ARC
  5
68C8
330
68B4
100
AcDbEntity
  8
太線
100
AcDbCircle
 10
86.70108352971226
 20
13.01449043757747
 30
0.0
 40
10.0
100
AcDbArc
 50
270.0
 51
0.0
  0
LINE
  5
68C9
330
68B4
100
AcDbEntity
  8
太線
100
AcDbLine
 10
96.70108352971226
 20
13.01449043757747
 30
0.0
 11
96.70108352971226
 21
22.37483108436663
 31
0.0
  0
DIMENSION
  5
68CA
330
68B4
100
AcDbEntity
  8
寸法線
100
AcDbDimension
  2
*D14
 10
110.5664629930113
 20
22.37483108436663
 30
0.0
 11
107.0659708670269
 21
12.69466076097216
 31
0.0
 12
-193.2444129944197
 22
-954.1118770813046
 32
0.0
  1
20
 71
     5
 42
19.36034064678915
  3
sunpo
100
AcDbAlignedDimension
 13
86.70108352971226
 23
3.014490437577478
 33
0.0
 14
96.70108352971226
 24
22.37483108436663
 34
0.0
 50
90.0
100
AcDbRotatedDimension
1001
ACAD
1000
DSTYLE
1002
{
1070
    40
1040
1.0
1002
}
  0
DIMENSION
  5
68CB
330
68B4
100
AcDbEntity
  8
寸法線
100
AcDbDimension
  2
*D15
 10
110.5664629930113
 20
43.01449043757838
 30
0.0
 11
107.0659708670269
 21
32.69466076097262
 31
0.0
 12
-193.2444129944197
 22
-954.1118770813046
 32
0.0
  1
20
 71
     5
 42
20.63965935321175
  3
sunpo
100
AcDbAlignedDimension
 13
96.70108352971226
 23
22.37483108436663
 33
0.0
 14
86.70108352971226
 24
43.01449043757838
 34
0.0
 50
90.0
100
AcDbRotatedDimension
1001
ACAD
1000
DSTYLE
1002
{
1070
    40
1040
1.0
1070
   279
1070
     1
1002
}
  0
LINE
  5
68CC
330
68B4
100
AcDbEntity
  8
太線
100
AcDbLine
 10
277.5681329719611
 20
22.37483108436572
 30
0.0
 11
277.5100380745955
 21
8.014490437577478
 31
0.0
  0
LINE
  5
68CD
330
68B4
100
AcDbEntity
  8
太線
100
AcDbLine
 10
191.5681329719611
 20
23.01449043757747
 30
0.0
 11
191.5681329719611
 21
8.014490437577478
 31
0.0
  0
LINE
  5
68CE
330
68B4
100
AcDbEntity
  8
太線
100
AcDbLine
 10
191.5100380745955
 20
8.014490437577478
 30
0.0
 11
277.5100380745955
 21
8.014490437577478
 31
0.0
  0
LINE
  5
68CF
330
68B4
100
AcDbEntity
  8
想像線
100
AcDbLine
 10
191.5100380745955
 20
11.01449043757747
 30
0.0
 11
277.5100380745955
 21
11.01449043757747
 31
0.0
  0
LINE
  5
68D0
330
68B4
100
AcDbEntity
  8
太線
100
AcDbLine
 10
197.6361497354914
 20
-0.00000459769808
 30
0.0
 11
269.5255310284383
 21
-0.00000459769808
 31
0.0
  0
ARC
  5
68D1
330
68B4
100
AcDbEntity
  8
太線
100
AcDbCircle
 10
200.08333610869
 20
8.219156318044269
 30
0.0
 40
8.575740627143373
100
AcDbArc
 50
181.3675325705322
 51
253.4195404704698
  0
ARC
  5
68D2
330
68B4
100
AcDbEntity
  8
太線
100
AcDbCircle
 10
264.8634130333981
 20
12.62923221088499
 30
0.0
 40
13.46227939715074
100
AcDbArc
 50
290.2617654909258
 51
339.953020805332
  0
ARC
  5
68D3
330
68B4
100
AcDbEntity
  8
太線
100
AcDbCircle
 10
267.5681329719612
 20
33.01449043757747
 30
0.0
 40
10.0
100
AcDbArc
 50
0.0
 51
90.0
  0
ARC
  5
68D4
330
68B4
100
AcDbEntity
  8
太線
100
AcDbCircle
 10
201.5681329719611
 20
33.01449043757747
 30
0.0
 40
10.0
100
AcDbArc
 50
90.0
 51
180.0
  0
LINE
  5
68D5
330
68B4
100
AcDbEntity
  8
太線
100
AcDbLine
 10
201.5681329719611
 20
43.01449043757748
 30
0.0
 11
267.5681329719612
 21
43.01449043757748
 31
0.0
  0
ARC
  5
68D6
330
68B4
100
AcDbEntity
  8
太線
100
AcDbCircle
 10
202.0681329719611
 20
23.01449043757747
 30
0.0
 40
4.5
100
AcDbArc
 50
90.0
 51
270.0
  0
ARC
  5
68D7
330
68B4
100
AcDbEntity
  8
太線
100
AcDbCircle
 10
207.0681329719611
 20
23.01449043757747
 30
0.0
 40
4.5
100
AcDbArc
 50
270.0
 51
90.0
  0
LINE
  5
68D8
330
68B4
100
AcDbEntity
  8
太線
100
AcDbLine
 10
202.0681329719611
 20
27.51449043757748
 30
0.0
 11
207.0681329719611
 21
27.51449043757748
 31
0.0
  0
LINE
  5
68D9
330
68B4
100
AcDbEntity
  8
太線
100
AcDbLine
 10
207.0681329719611
 20
18.51449043757748
 30
0.0
 11
202.0681329719611
 21
18.51449043757748
 31
0.0
  0
ARC
  5
68DA
330
68B4
100
AcDbEntity
  8
太線
100
AcDbCircle
 10
265.0681329719611
 20
23.01449043757747
 30
0.0
 40
4.5
100
AcDbArc
 50
270.0
 51
90.0
  0
ARC
  5
68DB
330
68B4
100
AcDbEntity
  8
太線
100
AcDbCircle
 10
260.0681329719611
 20
23.01449043757747
 30
0.0
 40
4.5
100
AcDbArc
 50
90.0
 51
270.0
  0
LINE
  5
68DC
330
68B4
100
AcDbEntity
  8
太線
100
AcDbLine
 10
265.0681329719611
 20
18.51449043757748
 30
0.0
 11
260.0681329719611
 21
18.51449043757748
 31
0.0
  0
LINE
  5
68DD
330
68B4
100
AcDbEntity
  8
太線
100
AcDbLine
 10
260.0681329719611
 20
27.51449043757748
 30
0.0
 11
265.0681329719611
 21
27.51449043757748
 31
0.0
  0
LINE
  5
68DE
330
68B4
100
AcDbEntity
  8
太線
100
AcDbLine
 10
191.5681329719611
 20
23.01449043757747
 30
0.0
 11
191.5681329719611
 21
33.01449043757747
 31
0.0
  0
LINE
  5
68DF
330
68B4
100
AcDbEntity
  8
太線
100
AcDbLine
 10
277.5681329719611
 20
33.01449043757747
 30
0.0
 11
277.5681329719611
 21
22.37483108436572
 31
0.0
  0
DIMENSION
  5
68E0
330
68B4
100
AcDbEntity
  8
寸法線
100
AcDbDimension
  2
*D10
 10
288.7448459382762
 20
43.01449043757748
 30
0.0
 11
285.2443538122918
 21
33.01449043757759
 31
0.0
 12
-193.2444129944197
 22
-954.1118770813046
 32
0.0
 71
     5
 42
20.0
  3
sunpo
100
AcDbAlignedDimension
 13
265.0681329719611
 23
23.01449043757747
 33
0.0
 14
267.5681329719612
 24
43.01449043757748
 34
0.0
 50
90.0
100
AcDbRotatedDimension
1001
ACAD
1000
DSTYLE
1002
{
1070
    40
1040
1.0
1002
}
  0
DIMENSION
  5
68E1
330
68B4
100
AcDbEntity
  8
寸法線
100
AcDbDimension
  2
*D11
 10
182.0178862282086
 20
8.014490437577478
 30
0.0
 11
178.5178862282085
 21
15.51449043757759
 31
0.0
 12
-193.2444129944197
 22
-954.1118770813046
 32
0.0
 71
     5
 42
15.0
  3
sunpo
100
AcDbAlignedDimension
 13
202.0681329719611
 23
23.01449043757747
 33
0.0
 14
191.5681329719611
 24
8.014490437577478
 34
0.0
 50
90.0
100
AcDbRotatedDimension
1001
ACAD
1000
DSTYLE
1002
{
1070
    40
1040
1.0
1002
}
  0
DIMENSION
  5
68E2
330
68B4
100
AcDbEntity
  8
寸法線
100
AcDbDimension
  2
*D12
 10
182.0178862282086
 20
-0.00000459769808
 30
0.0
 11
178.5178862282085
 21
4.007242919939812
 31
0.0
 12
-193.2444129944197
 22
-954.1118770813046
 32
0.0
  1
10
 71
     5
 42
8.014495035275558
  3
sunpo
100
AcDbAlignedDimension
 13
191.5681329719611
 23
8.014490437577478
 33
0.0
 14
197.6361497354914
 24
-0.00000459769808
 34
0.0
 50
90.0
100
AcDbRotatedDimension
1001
ACAD
1000
DSTYLE
1002
{
1070
    40
1040
1.0
1070
   279
1070
     1
1002
}
  0
LINE
  5
68E3
330
68B4
100
AcDbEntity
  8
構築線
100
AcDbLine
 10
234.5681329719611
 20
23.01449043757747
 30
0.0
 11
234.5681329719611
 21
61.45697983703008
 31
0.0
  0
ENDBLK
  5
68E5
330
68B4
100
AcDbEntity
  8
0
100
AcDbBlockEnd
  0
BLOCK
  5
68F0
330
68E6
100
AcDbEntity
  8
0
100
AcDbBlockBegin
  2
*D19
 70
     1
 10
0.0
 20
0.0
 30
0.0
  3
*D19
  1

  0
LINE
  5
68E7
330
68E6
100
AcDbEntity
  8
寸法線
 62
     0
370
    -2
100
AcDbLine
 10
460.3125459663808
 20
977.1263675188819
 30
0.0
 11
484.989258932696
 21
977.1263675188819
 31
0.0
  0
LINE
  5
68E8
330
68E6
100
AcDbEntity
  8
寸法線
 62
     0
370
    -2
100
AcDbLine
 10
462.8125459663809
 20
997.126367518882
 30
0.0
 11
484.989258932696
 21
997.126367518882
 31
0.0
  0
LINE
  5
68E9
330
68E6
100
AcDbEntity
  8
寸法線
 62
     0
370
    -2
100
AcDbLine
 10
481.9892589326959
 20
980.126367518882
 30
0.0
 11
481.9892589326959
 21
994.1263675188819
 31
0.0
  0
INSERT
  5
68EA
330
68E6
100
AcDbEntity
  8
寸法線
 62
     0
370
    -2
100
AcDbBlockReference
  2
_Closed
 10
481.9892589326959
 20
977.1263675188819
 30
0.0
 41
3.0
 42
3.0
 43
3.0
 50
270.0
  0
INSERT
  5
68EB
330
68E6
100
AcDbEntity
  8
寸法線
 62
     0
370
    -2
100
AcDbBlockReference
  2
_Closed
 10
481.9892589326959
 20
997.126367518882
 30
0.0
 41
3.0
 42
3.0
 43
3.0
 50
90.0
  0
MTEXT
  5
68EC
330
68E6
100
AcDbEntity
  8
寸法線
 62
     0
100
AcDbMText
 10
478.4887668067115
 20
987.1263675188821
 30
0.0
 40
5.0
 41
0.0
 71
     5
 72
     1
  1
20
  7
OKANO
 11
0.0000000000000001
 21
1.0
 31
0.0
 73
     1
 44
1.0
  0
POINT
  5
68ED
330
68E6
100
AcDbEntity
  8
Defpoints
 62
     0
100
AcDbPoint
 10
458.3125459663809
 20
977.1263675188819
 30
0.0
  0
POINT
  5
68EE
330
68E6
100
AcDbEntity
  8
Defpoints
 62
     0
100
AcDbPoint
 10
460.8125459663808
 20
997.126367518882
 30
0.0
  0
POINT
  5
68EF
330
68E6
100
AcDbEntity
  8
Defpoints
 62
     0
100
AcDbPoint
 10
481.9892589326959
 20
997.126367518882
 30
0.0
  0
ENDBLK
  5
68F1
330
68E6
100
AcDbEntity
  8
0
100
AcDbBlockEnd
  0
BLOCK
  5
68FC
330
68F2
100
AcDbEntity
  8
0
100
AcDbBlockBegin
  2
*D20
 70
     1
 10
0.0
 20
0.0
 30
0.0
  3
*D20
  1

  0
LINE
  5
68F3
330
68F2
100
AcDbEntity
  8
寸法線
 62
     0
370
    -2
100
AcDbLine
 10
393.3125459663808
 20
977.1263675188819
 30
0.0
 11
372.2622992226283
 21
977.1263675188819
 31
0.0
  0
LINE
  5
68F4
330
68F2
100
AcDbEntity
  8
寸法線
 62
     0
370
    -2
100
AcDbLine
 10
382.8125459663808
 20
962.1263675188821
 30
0.0
 11
372.2622992226283
 21
962.1263675188821
 31
0.0
  0
LINE
  5
68F5
330
68F2
100
AcDbEntity
  8
寸法線
 62
     0
370
    -2
100
AcDbLine
 10
375.2622992226283
 20
974.126367518882
 30
0.0
 11
375.2622992226283
 21
965.126367518882
 31
0.0
  0
INSERT
  5
68F6
330
68F2
100
AcDbEntity
  8
寸法線
 62
     0
370
    -2
100
AcDbBlockReference
  2
_Closed
 10
375.2622992226283
 20
977.1263675188819
 30
0.0
 41
3.0
 42
3.0
 43
3.0
 50
90.0
  0
INSERT
  5
68F7
330
68F2
100
AcDbEntity
  8
寸法線
 62
     0
370
    -2
100
AcDbBlockReference
  2
_Closed
 10
375.2622992226283
 20
962.1263675188821
 30
0.0
 41
3.0
 42
3.0
 43
3.0
 50
270.0
  0
MTEXT
  5
68F8
330
68F2
100
AcDbEntity
  8
寸法線
 62
     0
100
AcDbMText
 10
371.7622992226282
 20
969.6263675188822
 30
0.0
 40
5.0
 41
0.0
 71
     5
 72
     1
  1
15
  7
OKANO
 11
0.0000000000000001
 21
1.0
 31
0.0
 73
     1
 44
1.0
  0
POINT
  5
68F9
330
68F2
100
AcDbEntity
  8
Defpoints
 62
     0
100
AcDbPoint
 10
395.3125459663808
 20
977.1263675188819
 30
0.0
  0
POINT
  5
68FA
330
68F2
100
AcDbEntity
  8
Defpoints
 62
     0
100
AcDbPoint
 10
384.8125459663808
 20
962.1263675188821
 30
0.0
  0
POINT
  5
68FB
330
68F2
100
AcDbEntity
  8
Defpoints
 62
     0
100
AcDbPoint
 10
375.2622992226283
 20
962.1263675188821
 30
0.0
  0
ENDBLK
  5
68FD
330
68F2
100
AcDbEntity
  8
0
100
AcDbBlockEnd
  0
BLOCK
  5
6908
330
68FE
100
AcDbEntity
  8
0
100
AcDbBlockBegin
  2
*D21
 70
     1
 10
0.0
 20
0.0
 30
0.0
  3
*D21
  1

  0
LINE
  5
68FF
330
68FE
100
AcDbEntity
  8
寸法線
 62
     0
370
    -2
100
AcDbLine
 10
382.8125459663808
 20
962.1263675188821
 30
0.0
 11
372.2622992226283
 21
962.1263675188821
 31
0.0
  0
LINE
  5
6900
330
68FE
100
AcDbEntity
  8
寸法線
 62
     0
370
    -2
100
AcDbLine
 10
388.8805627299111
 20
954.1118724836065
 30
0.0
 11
372.2622992226283
 21
954.1118724836065
 31
0.0
  0
LINE
  5
6901
330
68FE
100
AcDbEntity
  8
寸法線
 62
     0
370
    -2
100
AcDbLine
 10
375.2622992226283
 20
959.126367518882
 30
0.0
 11
375.2622992226283
 21
957.1118724836065
 31
0.0
  0
INSERT
  5
6902
330
68FE
100
AcDbEntity
  8
寸法線
 62
     0
370
    -2
100
AcDbBlockReference
  2
_Closed
 10
375.2622992226283
 20
962.1263675188821
 30
0.0
 41
3.0
 42
3.0
 43
3.0
 50
90.0
  0
INSERT
  5
6903
330
68FE
100
AcDbEntity
  8
寸法線
 62
     0
370
    -2
100
AcDbBlockReference
  2
_Closed
 10
375.2622992226283
 20
954.1118724836065
 30
0.0
 41
3.0
 42
3.0
 43
3.0
 50
270.0
  0
MTEXT
  5
6904
330
68FE
100
AcDbEntity
  8
寸法線
 62
     0
100
AcDbMText
 10
371.7622992226282
 20
958.1191200012444
 30
0.0
 40
5.0
 41
0.0
 71
     5
 72
     1
  1
10
  7
OKANO
 11
0.0000000000000001
 21
1.0
 31
0.0
 73
     1
 44
1.0
  0
POINT
  5
6905
330
68FE
100
AcDbEntity
  8
Defpoints
 62
     0
100
AcDbPoint
 10
384.8125459663808
 20
962.1263675188821
 30
0.0
  0
POINT
  5
6906
330
68FE
100
AcDbEntity
  8
Defpoints
 62
     0
100
AcDbPoint
 10
390.8805627299111
 20
954.1118724836065
 30
0.0
  0
POINT
  5
6907
330
68FE
100
AcDbEntity
  8
Defpoints
 62
     0
100
AcDbPoint
 10
375.2622992226283
 20
954.1118724836065
 30
0.0
  0
ENDBLK
  5
6909
330
68FE
100
AcDbEntity
  8
0
100
AcDbBlockEnd
  0
BLOCK
  5
6914
330
690A
100
AcDbEntity
  8
0
100
AcDbBlockBegin
  2
*D22
 70
     1
 10
0.0
 20
0.0
 30
0.0
  3
*D22
  1

  0
LINE
  5
690B
330
690A
100
AcDbEntity
  8
寸法線
 62
     0
370
    -2
100
AcDbLine
 10
223.9454965241318
 20
975.126367518882
 30
0.0
 11
223.9454965241318
 21
956.4749603992732
 31
0.0
  0
LINE
  5
690C
330
690A
100
AcDbEntity
  8
寸法線
 62
     0
370
    -2
100
AcDbLine
 10
209.9454965241318
 20
975.126367518882
 30
0.0
 11
209.9454965241318
 21
956.4749603992732
 31
0.0
  0
LINE
  5
690D
330
690A
100
AcDbEntity
  8
寸法線
 62
     0
370
    -2
100
AcDbLine
 10
220.9454965241318
 20
959.4749603992731
 30
0.0
 11
212.9454965241318
 21
959.4749603992731
 31
0.0
  0
INSERT
  5
690E
330
690A
100
AcDbEntity
  8
寸法線
 62
     0
370
    -2
100
AcDbBlockReference
  2
_Closed
 10
223.9454965241318
 20
959.4749603992731
 30
0.0
 41
3.0
 42
3.0
 43
3.0
  0
INSERT
  5
690F
330
690A
100
AcDbEntity
  8
寸法線
 62
     0
370
    -2
100
AcDbBlockReference
  2
_Closed
 10
209.9454965241318
 20
959.4749603992731
 30
0.0
 41
3.0
 42
3.0
 43
3.0
 50
180.0
  0
MTEXT
  5
6910
330
690A
100
AcDbEntity
  8
寸法線
 62
     0
100
AcDbMText
 10
216.9454965241318
 20
962.9749603992731
 30
0.0
 40
5.0
 41
0.0
 71
     5
 72
     1
  1
14
  7
OKANO
 73
     1
 44
1.0
  0
POINT
  5
6911
330
690A
100
AcDbEntity
  8
Defpoints
 62
     0
100
AcDbPoint
 10
223.9454965241318
 20
977.1263675188819
 30
0.0
  0
POINT
  5
6912
330
690A
100
AcDbEntity
  8
Defpoints
 62
     0
100
AcDbPoint
 10
209.9454965241318
 20
977.1263675188819
 30
0.0
  0
POINT
  5
6913
330
690A
100
AcDbEntity
  8
Defpoints
 62
     0
100
AcDbPoint
 10
209.9454965241318
 20
959.4749603992731
 30
0.0
  0
ENDBLK
  5
6915
330
690A
100
AcDbEntity
  8
0
100
AcDbBlockEnd
  0
BLOCK
  5
6920
330
6916
100
AcDbEntity
  8
0
100
AcDbBlockBegin
  2
*D23
 70
     1
 10
0.0
 20
0.0
 30
0.0
  3
*D23
  1

  0
LINE
  5
6917
330
6916
100
AcDbEntity
  8
寸法線
 62
     0
370
    -2
100
AcDbLine
 10
281.9454965241319
 20
957.126367518882
 30
0.0
 11
306.810875987431
 21
957.126367518882
 31
0.0
  0
LINE
  5
6918
330
6916
100
AcDbEntity
  8
寸法線
 62
     0
370
    -2
100
AcDbLine
 10
291.9454965241319
 20
976.4867081656712
 30
0.0
 11
306.810875987431
 21
976.4867081656712
 31
0.0
  0
LINE
  5
6919
330
6916
100
AcDbEntity
  8
寸法線
 62
     0
370
    -2
100
AcDbLine
 10
303.810875987431
 20
960.1263675188819
 30
0.0
 11
303.810875987431
 21
973.4867081656712
 31
0.0
  0
INSERT
  5
691A
330
6916
100
AcDbEntity
  8
寸法線
 62
     0
370
    -2
100
AcDbBlockReference
  2
_Closed
 10
303.810875987431
 20
957.126367518882
 30
0.0
 41
3.0
 42
3.0
 43
3.0
 50
270.0
  0
INSERT
  5
691B
330
6916
100
AcDbEntity
  8
寸法線
 62
     0
370
    -2
100
AcDbBlockReference
  2
_Closed
 10
303.810875987431
 20
976.4867081656712
 30
0.0
 41
3.0
 42
3.0
 43
3.0
 50
90.0
  0
MTEXT
  5
691C
330
6916
100
AcDbEntity
  8
寸法線
 62
     0
100
AcDbMText
 10
300.3103838614466
 20
966.8065378422767
 30
0.0
 40
5.0
 41
0.0
 71
     5
 72
     1
  1
20
  7
OKANO
 11
0.0000000000000001
 21
1.0
 31
0.0
 73
     1
 44
1.0
  0
POINT
  5
691D
330
6916
100
AcDbEntity
  8
Defpoints
 62
     0
100
AcDbPoint
 10
279.9454965241319
 20
957.126367518882
 30
0.0
  0
POINT
  5
691E
330
6916
100
AcDbEntity
  8
Defpoints
 62
     0
100
AcDbPoint
 10
289.9454965241319
 20
976.4867081656712
 30
0.0
  0
POINT
  5
691F
330
6916
100
AcDbEntity
  8
Defpoints
 62
     0
100
AcDbPoint
 10
303.810875987431
 20
976.4867081656712
 30
0.0
  0
ENDBLK
  5
6921
330
6916
100
AcDbEntity
  8
0
100
AcDbBlockEnd
  0
BLOCK
  5
692C
330
6922
100
AcDbEntity
  8
0
100
AcDbBlockBegin
  2
*D24
 70
     1
 10
0.0
 20
0.0
 30
0.0
  3
*D24
  1

  0
LINE
  5
6923
330
6922
100
AcDbEntity
  8
寸法線
 62
     0
370
    -2
100
AcDbLine
 10
291.9454965241319
 20
976.4867081656712
 30
0.0
 11
306.810875987431
 21
976.4867081656712
 31
0.0
  0
LINE
  5
6924
330
6922
100
AcDbEntity
  8
寸法線
 62
     0
370
    -2
100
AcDbLine
 10
281.9454965241319
 20
997.1263675188829
 30
0.0
 11
306.810875987431
 21
997.1263675188829
 31
0.0
  0
LINE
  5
6925
330
6922
100
AcDbEntity
  8
寸法線
 62
     0
370
    -2
100
AcDbLine
 10
303.810875987431
 20
979.4867081656711
 30
0.0
 11
303.810875987431
 21
994.126367518883
 31
0.0
  0
INSERT
  5
6926
330
6922
100
AcDbEntity
  8
寸法線
 62
     0
370
    -2
100
AcDbBlockReference
  2
_Closed
 10
303.810875987431
 20
976.4867081656712
 30
0.0
 41
3.0
 42
3.0
 43
3.0
 50
270.0
  0
INSERT
  5
6927
330
6922
100
AcDbEntity
  8
寸法線
 62
     0
370
    -2
100
AcDbBlockReference
  2
_Closed
 10
303.810875987431
 20
997.1263675188829
 30
0.0
 41
3.0
 42
3.0
 43
3.0
 50
90.0
  0
MTEXT
  5
6928
330
6922
100
AcDbEntity
  8
寸法線
 62
     0
100
AcDbMText
 10
300.3103838614466
 20
986.8065378422771
 30
0.0
 40
5.0
 41
0.0
 71
     5
 72
     1
  1
20
  7
OKANO
 11
0.0000000000000001
 21
1.0
 31
0.0
 73
     1
 44
1.0
  0
POINT
  5
6929
330
6922
100
AcDbEntity
  8
Defpoints
 62
     0
100
AcDbPoint
 10
289.9454965241319
 20
976.4867081656712
 30
0.0
  0
POINT
  5
692A
330
6922
100
AcDbEntity
  8
Defpoints
 62
     0
100
AcDbPoint
 10
279.9454965241319
 20
997.1263675188829
 30
0.0
  0
POINT
  5
692B
330
6922
100
AcDbEntity
  8
Defpoints
 62
     0
100
AcDbPoint
 10
303.810875987431
 20
997.1263675188829
 30
0.0
  0
ENDBLK
  5
692D
330
6922
100
AcDbEntity
  8
0
100
AcDbBlockEnd
  0
BLOCK
  5
6935
330
692E
100
AcDbEntity
  8
0
100
AcDbBlockBegin
  2
*D25
 70
     1
 10
0.0
 20
0.0
 30
0.0
  3
*D25
  1

  0
LINE
  5
692F
330
692E
100
AcDbEntity
  8
寸法線
 62
     0
370
    -2
100
AcDbLine
 10
193.2442829612326
 20
1007.371887059548
 30
0.0
 11
204.6513823044758
 21
996.215891206733
 31
0.0
  0
MTEXT
  5
6930
330
692E
100
AcDbEntity
  8
寸法線
 62
     0
100
AcDbMText
 10
199.8533385504695
 20
1005.803887464506
 30
0.0
 40
5.0
 41
0.0
 71
     5
 72
     1
  1
R10
  7
OKANO
 11
0.7149318630504556
 21
-0.6991941298346295
 31
0.0
 73
     1
 44
1.0
  0
LINE
  5
6931
330
692E
100
AcDbEntity
  8
寸法線
 62
     0
370
    -2
100
AcDbLine
 10
213.945496524132
 20
987.1263675188824
 30
0.0
 11
206.7961778936271
 21
994.1183088172291
 31
0.0
  0
INSERT
  5
6932
330
692E
100
AcDbEntity
  8
寸法線
 62
     0
370
    -2
100
AcDbBlockReference
  2
_Closed
 10
206.7961778936271
 20
994.1183088172291
 30
0.0
 41
3.0
 42
3.0
 43
3.0
 50
315.6376153703527
  0
POINT
  5
6933
330
692E
100
AcDbEntity
  8
Defpoints
 62
     0
100
AcDbPoint
 10
206.7961778936271
 20
994.1183088172291
 30
0.0
  0
POINT
  5
6934
330
692E
100
AcDbEntity
  8
Defpoints
 62
     0
100
AcDbPoint
 10
213.945496524132
 20
987.1263675188824
 30
0.0
  0
ENDBLK
  5
6936
330
692E
100
AcDbEntity
  8
0
100
AcDbBlockEnd
  0
BLOCK
  5
693E
330
6937
100
AcDbEntity
  8
0
100
AcDbBlockBegin
  2
*D26
 70
     1
 10
0.0
 20
0.0
 30
0.0
  3
*D26
  1

  0
LINE
  5
6938
330
6937
100
AcDbEntity
  8
寸法線
 62
     0
370
    -2
100
AcDbLine
 10
372.9863045194465
 20
1004.089127104793
 30
0.0
 11
384.5479581194375
 21
995.1037252476281
 31
0.0
  0
MTEXT
  5
6939
330
6937
100
AcDbEntity
  8
寸法線
 62
     0
100
AcDbMText
 10
379.73050595638
 20
1003.280433411396
 30
0.0
 40
5.0
 41
0.0
 71
     5
 72
     1
  1
R10
  7
OKANO
 11
0.7895836805341401
 21
-0.613642902211181
 31
0.0
 73
     1
 44
1.0
  0
LINE
  5
693A
330
6937
100
AcDbEntity
  8
寸法線
 62
     0
370
    -2
100
AcDbLine
 10
394.8125459663807
 20
987.1263675188831
 30
0.0
 11
386.9167091610399
 21
993.2627965409945
 31
0.0
  0
INSERT
  5
693B
330
6937
100
AcDbEntity
  8
寸法線
 62
     0
370
    -2
100
AcDbBlockReference
  2
_Closed
 10
386.9167091610399
 20
993.2627965409945
 30
0.0
 41
3.0
 42
3.0
 43
3.0
 50
322.1466228004848
  0
POINT
  5
693C
330
6937
100
AcDbEntity
  8
Defpoints
 62
     0
100
AcDbPoint
 10
386.9167091610399
 20
993.2627965409945
 30
0.0
  0
POINT
  5
693D
330
6937
100
AcDbEntity
  8
Defpoints
 62
     0
100
AcDbPoint
 10
394.8125459663807
 20
987.1263675188831
 30
0.0
  0
ENDBLK
  5
693F
330
6937
100
AcDbEntity
  8
0
100
AcDbBlockEnd
  0
BLOCK
  5
6970
330
6940
100
AcDbEntity
  8
0
100
AcDbBlockBegin
  2
A$C6D5B13AF
 70
     0
 10
0.0
 20
0.0
 30
0.0
  3
A$C6D5B13AF
  1

  0
DIMENSION
  5
6941
330
6940
100
AcDbEntity
  8
寸法線
100
AcDbDimension
  2
*D26
 10
201.568132971961
 20
33.01449043757861
 30
0.0
 11
184.3383428042211
 21
46.4050134482228
 31
0.0
 12
-193.2444129944197
 22
-954.1118770813046
 32
0.0
 70
     4
 71
     5
 42
9.999999999999204
  3
sunpo
100
AcDbRadialDimension
 15
193.6722961666202
 25
39.15091945968993
 35
0.0
 40
0.0
1001
ACAD
1000
DSTYLE
1002
{
1070
    40
1040
1.0
1070
   288
1070
     1
1002
}
  0
DIMENSION
  5
6942
330
6940
100
AcDbEntity
  8
寸法線
100
AcDbDimension
  2
*D25
 10
20.70108352971237
 20
33.01449043757793
 30
0.0
 11
4.161746101628637
 21
49.18974886252545
 31
0.0
 12
-193.2444129944197
 22
-954.1118770813046
 32
0.0
 70
   132
 71
     5
 42
10.00000000000045
  3
sunpo
100
AcDbRadialDimension
 15
13.55176489920751
 25
40.00643173592459
 35
0.0
 40
0.0
1001
ACAD
1000
DSTYLE
1002
{
1070
    40
1040
1.0
1070
   288
1070
     1
1002
}
  0
ARC
  5
6943
330
6940
100
AcDbEntity
  8
太線
100
AcDbCircle
 10
86.70108352971226
 20
33.01449043757838
 30
0.0
 40
10.0
100
AcDbArc
 50
0.0
 51
90.0
  0
ARC
  5
6944
330
6940
100
AcDbEntity
  8
太線
100
AcDbCircle
 10
20.70108352971215
 20
33.01449043757838
 30
0.0
 40
10.0
100
AcDbArc
 50
90.0
 51
180.0
  0
LINE
  5
6945
330
6940
100
AcDbEntity
  8
太線
100
AcDbLine
 10
20.70108352971215
 20
43.01449043757838
 30
0.0
 11
86.70108352971226
 21
43.01449043757838
 31
0.0
  0
ARC
  5
6946
330
6940
100
AcDbEntity
  8
太線
100
AcDbCircle
 10
21.20108352971215
 20
23.01449043757747
 30
0.0
 40
4.5
100
AcDbArc
 50
90.0
 51
270.0
  0
ARC
  5
6947
330
6940
100
AcDbEntity
  8
太線
100
AcDbCircle
 10
26.20108352971226
 20
23.01449043757747
 30
0.0
 40
4.5
100
AcDbArc
 50
270.0
 51
90.0
  0
LINE
  5
6948
330
6940
100
AcDbEntity
  8
太線
100
AcDbLine
 10
21.20108352971215
 20
27.51449043757748
 30
0.0
 11
26.20108352971226
 21
27.51449043757748
 31
0.0
  0
LINE
  5
6949
330
6940
100
AcDbEntity
  8
太線
100
AcDbLine
 10
26.20108352971226
 20
18.51449043757838
 30
0.0
 11
21.20108352971215
 21
18.51449043757838
 31
0.0
  0
ARC
  5
694A
330
6940
100
AcDbEntity
  8
太線
100
AcDbCircle
 10
84.20108352971226
 20
23.01449043757747
 30
0.0
 40
4.5
100
AcDbArc
 50
270.0
 51
90.0
  0
ARC
  5
694B
330
6940
100
AcDbEntity
  8
太線
100
AcDbCircle
 10
79.20108352971221
 20
23.01449043757747
 30
0.0
 40
4.5
100
AcDbArc
 50
90.0
 51
270.0
  0
LINE
  5
694C
330
6940
100
AcDbEntity
  8
太線
100
AcDbLine
 10
84.20108352971226
 20
18.51449043757838
 30
0.0
 11
79.20108352971221
 21
18.51449043757838
 31
0.0
  0
LINE
  5
694D
330
6940
100
AcDbEntity
  8
太線
100
AcDbLine
 10
79.20108352971221
 20
27.51449043757748
 30
0.0
 11
84.20108352971226
 21
27.51449043757748
 31
0.0
  0
DIMENSION
  5
694E
330
6940
100
AcDbEntity
  8
寸法線
100
AcDbDimension
  2
*D22
 10
16.70108352971215
 20
5.36308331796863
 30
0.0
 11
23.70108352971215
 21
8.86308331796863
 31
0.0
 12
-193.2444129944197
 22
-954.1118770813046
 32
0.0
 71
     5
 42
14.0
  3
sunpo
100
AcDbAlignedDimension
 13
30.70108352971215
 23
23.01449043757747
 33
0.0
 14
16.70108352971215
 24
23.01449043757747
 34
0.0
100
AcDbRotatedDimension
1001
ACAD
1000
DSTYLE
1002
{
1070
    40
1040
1.0
1002
}
  0
LINE
  5
694F
330
6940
100
AcDbEntity
  8
太線
100
AcDbLine
 10
10.70108352971214
 20
23.01449043757747
 30
0.0
 11
10.70108352971214
 21
33.01449043757838
 31
0.0
  0
LINE
  5
6950
330
6940
100
AcDbEntity
  8
太線
100
AcDbLine
 10
96.70108352971226
 20
33.01449043757838
 30
0.0
 11
96.70108352971226
 21
22.37483108436663
 31
0.0
  0
LINE
  5
6951
330
6940
100
AcDbEntity
  8
太線
100
AcDbLine
 10
10.70108352971214
 20
23.01449043757747
 30
0.0
 11
10.70108352971214
 21
13.01449043757747
 31
0.0
  0
ARC
  5
6952
330
6940
100
AcDbEntity
  8
太線
100
AcDbCircle
 10
20.70108352971215
 20
13.01449043757747
 30
0.0
 40
10.0
100
AcDbArc
 50
180.0
 51
270.0
  0
LINE
  5
6953
330
6940
100
AcDbEntity
  8
太線
100
AcDbLine
 10
20.70108352971215
 20
3.014490437577478
 30
0.0
 11
86.70108352971226
 21
3.014490437577478
 31
0.0
  0
ARC
  5
6954
330
6940
100
AcDbEntity
  8
太線
100
AcDbCircle
 10
86.70108352971226
 20
13.01449043757747
 30
0.0
 40
10.0
100
AcDbArc
 50
270.0
 51
0.0
  0
LINE
  5
6955
330
6940
100
AcDbEntity
  8
太線
100
AcDbLine
 10
96.70108352971226
 20
13.01449043757747
 30
0.0
 11
96.70108352971226
 21
22.37483108436663
 31
0.0
  0
DIMENSION
  5
6956
330
6940
100
AcDbEntity
  8
寸法線
100
AcDbDimension
  2
*D23
 10
110.5664629930113
 20
22.37483108436663
 30
0.0
 11
107.0659708670269
 21
12.69466076097216
 31
0.0
 12
-193.2444129944197
 22
-954.1118770813046
 32
0.0
  1
20
 71
     5
 42
19.36034064678915
  3
sunpo
100
AcDbAlignedDimension
 13
86.70108352971226
 23
3.014490437577478
 33
0.0
 14
96.70108352971226
 24
22.37483108436663
 34
0.0
 50
90.0
100
AcDbRotatedDimension
1001
ACAD
1000
DSTYLE
1002
{
1070
    40
1040
1.0
1002
}
  0
DIMENSION
  5
6957
330
6940
100
AcDbEntity
  8
寸法線
100
AcDbDimension
  2
*D24
 10
110.5664629930113
 20
43.01449043757838
 30
0.0
 11
107.0659708670269
 21
32.69466076097262
 31
0.0
 12
-193.2444129944197
 22
-954.1118770813046
 32
0.0
  1
20
 71
     5
 42
20.63965935321175
  3
sunpo
100
AcDbAlignedDimension
 13
96.70108352971226
 23
22.37483108436663
 33
0.0
 14
86.70108352971226
 24
43.01449043757838
 34
0.0
 50
90.0
100
AcDbRotatedDimension
1001
ACAD
1000
DSTYLE
1002
{
1070
    40
1040
1.0
1070
   279
1070
     1
1002
}
  0
LINE
  5
6958
330
6940
100
AcDbEntity
  8
太線
100
AcDbLine
 10
277.5681329719611
 20
22.37483108436572
 30
0.0
 11
277.5100380745955
 21
8.014490437577478
 31
0.0
  0
LINE
  5
6959
330
6940
100
AcDbEntity
  8
太線
100
AcDbLine
 10
191.5681329719611
 20
23.01449043757747
 30
0.0
 11
191.5681329719611
 21
8.014490437577478
 31
0.0
  0
LINE
  5
695A
330
6940
100
AcDbEntity
  8
太線
100
AcDbLine
 10
191.5100380745955
 20
8.014490437577478
 30
0.0
 11
277.5100380745955
 21
8.014490437577478
 31
0.0
  0
LINE
  5
695B
330
6940
100
AcDbEntity
  8
想像線
100
AcDbLine
 10
191.5100380745955
 20
11.01449043757747
 30
0.0
 11
277.5100380745955
 21
11.01449043757747
 31
0.0
  0
LINE
  5
695C
330
6940
100
AcDbEntity
  8
太線
100
AcDbLine
 10
197.6361497354914
 20
-0.00000459769808
 30
0.0
 11
269.5255310284383
 21
-0.00000459769808
 31
0.0
  0
ARC
  5
695D
330
6940
100
AcDbEntity
  8
太線
100
AcDbCircle
 10
200.08333610869
 20
8.219156318044269
 30
0.0
 40
8.575740627143373
100
AcDbArc
 50
181.3675325705322
 51
253.4195404704698
  0
ARC
  5
695E
330
6940
100
AcDbEntity
  8
太線
100
AcDbCircle
 10
264.8634130333981
 20
12.62923221088499
 30
0.0
 40
13.46227939715074
100
AcDbArc
 50
290.2617654909258
 51
339.953020805332
  0
ARC
  5
695F
330
6940
100
AcDbEntity
  8
太線
100
AcDbCircle
 10
267.5681329719612
 20
33.01449043757747
 30
0.0
 40
10.0
100
AcDbArc
 50
0.0
 51
90.0
  0
ARC
  5
6960
330
6940
100
AcDbEntity
  8
太線
100
AcDbCircle
 10
201.5681329719611
 20
33.01449043757747
 30
0.0
 40
10.0
100
AcDbArc
 50
90.0
 51
180.0
  0
LINE
  5
6961
330
6940
100
AcDbEntity
  8
太線
100
AcDbLine
 10
201.5681329719611
 20
43.01449043757748
 30
0.0
 11
267.5681329719612
 21
43.01449043757748
 31
0.0
  0
ARC
  5
6962
330
6940
100
AcDbEntity
  8
太線
100
AcDbCircle
 10
202.0681329719611
 20
23.01449043757747
 30
0.0
 40
4.5
100
AcDbArc
 50
90.0
 51
270.0
  0
ARC
  5
6963
330
6940
100
AcDbEntity
  8
太線
100
AcDbCircle
 10
207.0681329719611
 20
23.01449043757747
 30
0.0
 40
4.5
100
AcDbArc
 50
270.0
 51
90.0
  0
LINE
  5
6964
330
6940
100
AcDbEntity
  8
太線
100
AcDbLine
 10
202.0681329719611
 20
27.51449043757748
 30
0.0
 11
207.0681329719611
 21
27.51449043757748
 31
0.0
  0
LINE
  5
6965
330
6940
100
AcDbEntity
  8
太線
100
AcDbLine
 10
207.0681329719611
 20
18.51449043757748
 30
0.0
 11
202.0681329719611
 21
18.51449043757748
 31
0.0
  0
ARC
  5
6966
330
6940
100
AcDbEntity
  8
太線
100
AcDbCircle
 10
265.0681329719611
 20
23.01449043757747
 30
0.0
 40
4.5
100
AcDbArc
 50
270.0
 51
90.0
  0
ARC
  5
6967
330
6940
100
AcDbEntity
  8
太線
100
AcDbCircle
 10
260.0681329719611
 20
23.01449043757747
 30
0.0
 40
4.5
100
AcDbArc
 50
90.0
 51
270.0
  0
LINE
  5
6968
330
6940
100
AcDbEntity
  8
太線
100
AcDbLine
 10
265.0681329719611
 20
18.51449043757748
 30
0.0
 11
260.0681329719611
 21
18.51449043757748
 31
0.0
  0
LINE
  5
6969
330
6940
100
AcDbEntity
  8
太線
100
AcDbLine
 10
260.0681329719611
 20
27.51449043757748
 30
0.0
 11
265.0681329719611
 21
27.51449043757748
 31
0.0
  0
LINE
  5
696A
330
6940
100
AcDbEntity
  8
太線
100
AcDbLine
 10
191.5681329719611
 20
23.01449043757747
 30
0.0
 11
191.5681329719611
 21
33.01449043757747
 31
0.0
  0
LINE
  5
696B
330
6940
100
AcDbEntity
  8
太線
100
AcDbLine
 10
277.5681329719611
 20
33.01449043757747
 30
0.0
 11
277.5681329719611
 21
22.37483108436572
 31
0.0
  0
DIMENSION
  5
696C
330
6940
100
AcDbEntity
  8
寸法線
100
AcDbDimension
  2
*D19
 10
288.7448459382762
 20
43.01449043757748
 30
0.0
 11
285.2443538122918
 21
33.01449043757759
 31
0.0
 12
-193.2444129944197
 22
-954.1118770813046
 32
0.0
 71
     5
 42
20.0
  3
sunpo
100
AcDbAlignedDimension
 13
265.0681329719611
 23
23.01449043757747
 33
0.0
 14
267.5681329719612
 24
43.01449043757748
 34
0.0
 50
90.0
100
AcDbRotatedDimension
1001
ACAD
1000
DSTYLE
1002
{
1070
    40
1040
1.0
1002
}
  0
DIMENSION
  5
696D
330
6940
100
AcDbEntity
  8
寸法線
100
AcDbDimension
  2
*D20
 10
182.0178862282086
 20
8.014490437577478
 30
0.0
 11
178.5178862282085
 21
15.51449043757759
 31
0.0
 12
-193.2444129944197
 22
-954.1118770813046
 32
0.0
 71
     5
 42
15.0
  3
sunpo
100
AcDbAlignedDimension
 13
202.0681329719611
 23
23.01449043757747
 33
0.0
 14
191.5681329719611
 24
8.014490437577478
 34
0.0
 50
90.0
100
AcDbRotatedDimension
1001
ACAD
1000
DSTYLE
1002
{
1070
    40
1040
1.0
1002
}
  0
DIMENSION
  5
696E
330
6940
100
AcDbEntity
  8
寸法線
100
AcDbDimension
  2
*D21
 10
182.0178862282086
 20
-0.00000459769808
 30
0.0
 11
178.5178862282085
 21
4.007242919939812
 31
0.0
 12
-193.2444129944197
 22
-954.1118770813046
 32
0.0
  1
10
 71
     5
 42
8.014495035275558
  3
sunpo
100
AcDbAlignedDimension
 13
191.5681329719611
 23
8.014490437577478
 33
0.0
 14
197.6361497354914
 24
-0.00000459769808
 34
0.0
 50
90.0
100
AcDbRotatedDimension
1001
ACAD
1000
DSTYLE
1002
{
1070
    40
1040
1.0
1070
   279
1070
     1
1002
}
  0
LINE
  5
696F
330
6940
100
AcDbEntity
  8
構築線
100
AcDbLine
 10
234.5681329719611
 20
23.01449043757747
 30
0.0
 11
234.5681329719611
 21
61.45697983703008
 31
0.0
  0
ENDBLK
  5
6971
330
6940
100
AcDbEntity
  8
0
100
AcDbBlockEnd
  0
BLOCK
  5
697C
330
6972
100
AcDbEntity
  8
0
100
AcDbBlockBegin
  2
*D28
 70
     1
 10
0.0
 20
0.0
 30
0.0
  3
*D28
  1

  0
LINE
  5
6973
330
6972
100
AcDbEntity
  8
寸法線
 62
     0
370
    -2
100
AcDbLine
 10
460.3125459663808
 20
977.1263675188819
 30
0.0
 11
484.989258932696
 21
977.1263675188819
 31
0.0
  0
LINE
  5
6974
330
6972
100
AcDbEntity
  8
寸法線
 62
     0
370
    -2
100
AcDbLine
 10
462.8125459663809
 20
997.126367518882
 30
0.0
 11
484.989258932696
 21
997.126367518882
 31
0.0
  0
LINE
  5
6975
330
6972
100
AcDbEntity
  8
寸法線
 62
     0
370
    -2
100
AcDbLine
 10
481.9892589326959
 20
980.126367518882
 30
0.0
 11
481.9892589326959
 21
994.1263675188819
 31
0.0
  0
INSERT
  5
6976
330
6972
100
AcDbEntity
  8
寸法線
 62
     0
370
    -2
100
AcDbBlockReference
  2
_Closed
 10
481.9892589326959
 20
977.1263675188819
 30
0.0
 41
3.0
 42
3.0
 43
3.0
 50
270.0
  0
INSERT
  5
6977
330
6972
100
AcDbEntity
  8
寸法線
 62
     0
370
    -2
100
AcDbBlockReference
  2
_Closed
 10
481.9892589326959
 20
997.126367518882
 30
0.0
 41
3.0
 42
3.0
 43
3.0
 50
90.0
  0
MTEXT
  5
6978
330
6972
100
AcDbEntity
  8
寸法線
 62
     0
100
AcDbMText
 10
478.4887668067115
 20
987.1263675188821
 30
0.0
 40
5.0
 41
0.0
 71
     5
 72
     1
  1
20
  7
OKANO
 11
0.0000000000000001
 21
1.0
 31
0.0
 73
     1
 44
1.0
  0
POINT
  5
6979
330
6972
100
AcDbEntity
  8
Defpoints
 62
     0
100
AcDbPoint
 10
458.3125459663809
 20
977.1263675188819
 30
0.0
  0
POINT
  5
697A
330
6972
100
AcDbEntity
  8
Defpoints
 62
     0
100
AcDbPoint
 10
460.8125459663808
 20
997.126367518882
 30
0.0
  0
POINT
  5
697B
330
6972
100
AcDbEntity
  8
Defpoints
 62
     0
100
AcDbPoint
 10
481.9892589326959
 20
997.126367518882
 30
0.0
  0
ENDBLK
  5
697D
330
6972
100
AcDbEntity
  8
0
100
AcDbBlockEnd
  0
BLOCK
  5
6988
330
697E
100
AcDbEntity
  8
0
100
AcDbBlockBegin
  2
*D29
 70
     1
 10
0.0
 20
0.0
 30
0.0
  3
*D29
  1

  0
LINE
  5
697F
330
697E
100
AcDbEntity
  8
寸法線
 62
     0
370
    -2
100
AcDbLine
 10
393.3125459663808
 20
977.1263675188819
 30
0.0
 11
372.2622992226283
 21
977.1263675188819
 31
0.0
  0
LINE
  5
6980
330
697E
100
AcDbEntity
  8
寸法線
 62
     0
370
    -2
100
AcDbLine
 10
382.8125459663808
 20
962.1263675188821
 30
0.0
 11
372.2622992226283
 21
962.1263675188821
 31
0.0
  0
LINE
  5
6981
330
697E
100
AcDbEntity
  8
寸法線
 62
     0
370
    -2
100
AcDbLine
 10
375.2622992226283
 20
974.126367518882
 30
0.0
 11
375.2622992226283
 21
965.126367518882
 31
0.0
  0
INSERT
  5
6982
330
697E
100
AcDbEntity
  8
寸法線
 62
     0
370
    -2
100
AcDbBlockReference
  2
_Closed
 10
375.2622992226283
 20
977.1263675188819
 30
0.0
 41
3.0
 42
3.0
 43
3.0
 50
90.0
  0
INSERT
  5
6983
330
697E
100
AcDbEntity
  8
寸法線
 62
     0
370
    -2
100
AcDbBlockReference
  2
_Closed
 10
375.2622992226283
 20
962.1263675188821
 30
0.0
 41
3.0
 42
3.0
 43
3.0
 50
270.0
  0
MTEXT
  5
6984
330
697E
100
AcDbEntity
  8
寸法線
 62
     0
100
AcDbMText
 10
371.7622992226282
 20
969.6263675188822
 30
0.0
 40
5.0
 41
0.0
 71
     5
 72
     1
  1
15
  7
OKANO
 11
0.0000000000000001
 21
1.0
 31
0.0
 73
     1
 44
1.0
  0
POINT
  5
6985
330
697E
100
AcDbEntity
  8
Defpoints
 62
     0
100
AcDbPoint
 10
395.3125459663808
 20
977.1263675188819
 30
0.0
  0
POINT
  5
6986
330
697E
100
AcDbEntity
  8
Defpoints
 62
     0
100
AcDbPoint
 10
384.8125459663808
 20
962.1263675188821
 30
0.0
  0
POINT
  5
6987
330
697E
100
AcDbEntity
  8
Defpoints
 62
     0
100
AcDbPoint
 10
375.2622992226283
 20
962.1263675188821
 30
0.0
  0
ENDBLK
  5
6989
330
697E
100
AcDbEntity
  8
0
100
AcDbBlockEnd
  0
BLOCK
  5
6994
330
698A
100
AcDbEntity
  8
0
100
AcDbBlockBegin
  2
*D30
 70
     1
 10
0.0
 20
0.0
 30
0.0
  3
*D30
  1

  0
LINE
  5
698B
330
698A
100
AcDbEntity
  8
寸法線
 62
     0
370
    -2
100
AcDbLine
 10
382.8125459663808
 20
962.1263675188821
 30
0.0
 11
372.2622992226283
 21
962.1263675188821
 31
0.0
  0
LINE
  5
698C
330
698A
100
AcDbEntity
  8
寸法線
 62
     0
370
    -2
100
AcDbLine
 10
388.8805627299111
 20
954.1118724836065
 30
0.0
 11
372.2622992226283
 21
954.1118724836065
 31
0.0
  0
LINE
  5
698D
330
698A
100
AcDbEntity
  8
寸法線
 62
     0
370
    -2
100
AcDbLine
 10
375.2622992226283
 20
959.126367518882
 30
0.0
 11
375.2622992226283
 21
957.1118724836065
 31
0.0
  0
INSERT
  5
698E
330
698A
100
AcDbEntity
  8
寸法線
 62
     0
370
    -2
100
AcDbBlockReference
  2
_Closed
 10
375.2622992226283
 20
962.1263675188821
 30
0.0
 41
3.0
 42
3.0
 43
3.0
 50
90.0
  0
INSERT
  5
698F
330
698A
100
AcDbEntity
  8
寸法線
 62
     0
370
    -2
100
AcDbBlockReference
  2
_Closed
 10
375.2622992226283
 20
954.1118724836065
 30
0.0
 41
3.0
 42
3.0
 43
3.0
 50
270.0
  0
MTEXT
  5
6990
330
698A
100
AcDbEntity
  8
寸法線
 62
     0
100
AcDbMText
 10
371.7622992226282
 20
958.1191200012444
 30
0.0
 40
5.0
 41
0.0
 71
     5
 72
     1
  1
10
  7
OKANO
 11
0.0000000000000001
 21
1.0
 31
0.0
 73
     1
 44
1.0
  0
POINT
  5
6991
330
698A
100
AcDbEntity
  8
Defpoints
 62
     0
100
AcDbPoint
 10
384.8125459663808
 20
962.1263675188821
 30
0.0
  0
POINT
  5
6992
330
698A
100
AcDbEntity
  8
Defpoints
 62
     0
100
AcDbPoint
 10
390.8805627299111
 20
954.1118724836065
 30
0.0
  0
POINT
  5
6993
330
698A
100
AcDbEntity
  8
Defpoints
 62
     0
100
AcDbPoint
 10
375.2622992226283
 20
954.1118724836065
 30
0.0
  0
ENDBLK
  5
6995
330
698A
100
AcDbEntity
  8
0
100
AcDbBlockEnd
  0
BLOCK
  5
69A0
330
6996
100
AcDbEntity
  8
0
100
AcDbBlockBegin
  2
*D31
 70
     1
 10
0.0
 20
0.0
 30
0.0
  3
*D31
  1

  0
LINE
  5
6997
330
6996
100
AcDbEntity
  8
寸法線
 62
     0
370
    -2
100
AcDbLine
 10
223.9454965241318
 20
975.126367518882
 30
0.0
 11
223.9454965241318
 21
956.4749603992732
 31
0.0
  0
LINE
  5
6998
330
6996
100
AcDbEntity
  8
寸法線
 62
     0
370
    -2
100
AcDbLine
 10
209.9454965241318
 20
975.126367518882
 30
0.0
 11
209.9454965241318
 21
956.4749603992732
 31
0.0
  0
LINE
  5
6999
330
6996
100
AcDbEntity
  8
寸法線
 62
     0
370
    -2
100
AcDbLine
 10
220.9454965241318
 20
959.4749603992731
 30
0.0
 11
212.9454965241318
 21
959.4749603992731
 31
0.0
  0
INSERT
  5
699A
330
6996
100
AcDbEntity
  8
寸法線
 62
     0
370
    -2
100
AcDbBlockReference
  2
_Closed
 10
223.9454965241318
 20
959.4749603992731
 30
0.0
 41
3.0
 42
3.0
 43
3.0
  0
INSERT
  5
699B
330
6996
100
AcDbEntity
  8
寸法線
 62
     0
370
    -2
100
AcDbBlockReference
  2
_Closed
 10
209.9454965241318
 20
959.4749603992731
 30
0.0
 41
3.0
 42
3.0
 43
3.0
 50
180.0
  0
MTEXT
  5
699C
330
6996
100
AcDbEntity
  8
寸法線
 62
     0
100
AcDbMText
 10
216.9454965241318
 20
962.9749603992731
 30
0.0
 40
5.0
 41
0.0
 71
     5
 72
     1
  1
14
  7
OKANO
 73
     1
 44
1.0
  0
POINT
  5
699D
330
6996
100
AcDbEntity
  8
Defpoints
 62
     0
100
AcDbPoint
 10
223.9454965241318
 20
977.1263675188819
 30
0.0
  0
POINT
  5
699E
330
6996
100
AcDbEntity
  8
Defpoints
 62
     0
100
AcDbPoint
 10
209.9454965241318
 20
977.1263675188819
 30
0.0
  0
POINT
  5
699F
330
6996
100
AcDbEntity
  8
Defpoints
 62
     0
100
AcDbPoint
 10
209.9454965241318
 20
959.4749603992731
 30
0.0
  0
ENDBLK
  5
69A1
330
6996
100
AcDbEntity
  8
0
100
AcDbBlockEnd
  0
BLOCK
  5
69AC
330
69A2
100
AcDbEntity
  8
0
100
AcDbBlockBegin
  2
*D32
 70
     1
 10
0.0
 20
0.0
 30
0.0
  3
*D32
  1

  0
LINE
  5
69A3
330
69A2
100
AcDbEntity
  8
寸法線
 62
     0
370
    -2
100
AcDbLine
 10
281.9454965241319
 20
957.126367518882
 30
0.0
 11
306.810875987431
 21
957.126367518882
 31
0.0
  0
LINE
  5
69A4
330
69A2
100
AcDbEntity
  8
寸法線
 62
     0
370
    -2
100
AcDbLine
 10
291.9454965241319
 20
976.4867081656712
 30
0.0
 11
306.810875987431
 21
976.4867081656712
 31
0.0
  0
LINE
  5
69A5
330
69A2
100
AcDbEntity
  8
寸法線
 62
     0
370
    -2
100
AcDbLine
 10
303.810875987431
 20
960.1263675188819
 30
0.0
 11
303.810875987431
 21
973.4867081656712
 31
0.0
  0
INSERT
  5
69A6
330
69A2
100
AcDbEntity
  8
寸法線
 62
     0
370
    -2
100
AcDbBlockReference
  2
_Closed
 10
303.810875987431
 20
957.126367518882
 30
0.0
 41
3.0
 42
3.0
 43
3.0
 50
270.0
  0
INSERT
  5
69A7
330
69A2
100
AcDbEntity
  8
寸法線
 62
     0
370
    -2
100
AcDbBlockReference
  2
_Closed
 10
303.810875987431
 20
976.4867081656712
 30
0.0
 41
3.0
 42
3.0
 43
3.0
 50
90.0
  0
MTEXT
  5
69A8
330
69A2
100
AcDbEntity
  8
寸法線
 62
     0
100
AcDbMText
 10
300.3103838614466
 20
966.8065378422767
 30
0.0
 40
5.0
 41
0.0
 71
     5
 72
     1
  1
20
  7
OKANO
 11
0.0000000000000001
 21
1.0
 31
0.0
 73
     1
 44
1.0
  0
POINT
  5
69A9
330
69A2
100
AcDbEntity
  8
Defpoints
 62
     0
100
AcDbPoint
 10
279.9454965241319
 20
957.126367518882
 30
0.0
  0
POINT
  5
69AA
330
69A2
100
AcDbEntity
  8
Defpoints
 62
     0
100
AcDbPoint
 10
289.9454965241319
 20
976.4867081656712
 30
0.0
  0
POINT
  5
69AB
330
69A2
100
AcDbEntity
  8
Defpoints
 62
     0
100
AcDbPoint
 10
303.810875987431
 20
976.4867081656712
 30
0.0
  0
ENDBLK
  5
69AD
330
69A2
100
AcDbEntity
  8
0
100
AcDbBlockEnd
  0
BLOCK
  5
69B8
330
69AE
100
AcDbEntity
  8
0
100
AcDbBlockBegin
  2
*D33
 70
     1
 10
0.0
 20
0.0
 30
0.0
  3
*D33
  1

  0
LINE
  5
69AF
330
69AE
100
AcDbEntity
  8
寸法線
 62
     0
370
    -2
100
AcDbLine
 10
291.9454965241319
 20
976.4867081656712
 30
0.0
 11
306.810875987431
 21
976.4867081656712
 31
0.0
  0
LINE
  5
69B0
330
69AE
100
AcDbEntity
  8
寸法線
 62
     0
370
    -2
100
AcDbLine
 10
281.9454965241319
 20
997.1263675188829
 30
0.0
 11
306.810875987431
 21
997.1263675188829
 31
0.0
  0
LINE
  5
69B1
330
69AE
100
AcDbEntity
  8
寸法線
 62
     0
370
    -2
100
AcDbLine
 10
303.810875987431
 20
979.4867081656711
 30
0.0
 11
303.810875987431
 21
994.126367518883
 31
0.0
  0
INSERT
  5
69B2
330
69AE
100
AcDbEntity
  8
寸法線
 62
     0
370
    -2
100
AcDbBlockReference
  2
_Closed
 10
303.810875987431
 20
976.4867081656712
 30
0.0
 41
3.0
 42
3.0
 43
3.0
 50
270.0
  0
INSERT
  5
69B3
330
69AE
100
AcDbEntity
  8
寸法線
 62
     0
370
    -2
100
AcDbBlockReference
  2
_Closed
 10
303.810875987431
 20
997.1263675188829
 30
0.0
 41
3.0
 42
3.0
 43
3.0
 50
90.0
  0
MTEXT
  5
69B4
330
69AE
100
AcDbEntity
  8
寸法線
 62
     0
100
AcDbMText
 10
300.3103838614466
 20
986.8065378422771
 30
0.0
 40
5.0
 41
0.0
 71
     5
 72
     1
  1
20
  7
OKANO
 11
0.0000000000000001
 21
1.0
 31
0.0
 73
     1
 44
1.0
  0
POINT
  5
69B5
330
69AE
100
AcDbEntity
  8
Defpoints
 62
     0
100
AcDbPoint
 10
289.9454965241319
 20
976.4867081656712
 30
0.0
  0
POINT
  5
69B6
330
69AE
100
AcDbEntity
  8
Defpoints
 62
     0
100
AcDbPoint
 10
279.9454965241319
 20
997.1263675188829
 30
0.0
  0
POINT
  5
69B7
330
69AE
100
AcDbEntity
  8
Defpoints
 62
     0
100
AcDbPoint
 10
303.810875987431
 20
997.1263675188829
 30
0.0
  0
ENDBLK
  5
69B9
330
69AE
100
AcDbEntity
  8
0
100
AcDbBlockEnd
  0
BLOCK
  5
69C1
330
69BA
100
AcDbEntity
  8
0
100
AcDbBlockBegin
  2
*D34
 70
     1
 10
0.0
 20
0.0
 30
0.0
  3
*D34
  1

  0
LINE
  5
69BB
330
69BA
100
AcDbEntity
  8
寸法線
 62
     0
370
    -2
100
AcDbLine
 10
193.2442829612326
 20
1007.371887059548
 30
0.0
 11
204.6513823044758
 21
996.215891206733
 31
0.0
  0
MTEXT
  5
69BC
330
69BA
100
AcDbEntity
  8
寸法線
 62
     0
100
AcDbMText
 10
199.8533385504695
 20
1005.803887464506
 30
0.0
 40
5.0
 41
0.0
 71
     5
 72
     1
  1
R10
  7
OKANO
 11
0.7149318630504556
 21
-0.6991941298346295
 31
0.0
 73
     1
 44
1.0
  0
LINE
  5
69BD
330
69BA
100
AcDbEntity
  8
寸法線
 62
     0
370
    -2
100
AcDbLine
 10
213.945496524132
 20
987.1263675188824
 30
0.0
 11
206.7961778936271
 21
994.1183088172291
 31
0.0
  0
INSERT
  5
69BE
330
69BA
100
AcDbEntity
  8
寸法線
 62
     0
370
    -2
100
AcDbBlockReference
  2
_Closed
 10
206.7961778936271
 20
994.1183088172291
 30
0.0
 41
3.0
 42
3.0
 43
3.0
 50
315.6376153703527
  0
POINT
  5
69BF
330
69BA
100
AcDbEntity
  8
Defpoints
 62
     0
100
AcDbPoint
 10
206.7961778936271
 20
994.1183088172291
 30
0.0
  0
POINT
  5
69C0
330
69BA
100
AcDbEntity
  8
Defpoints
 62
     0
100
AcDbPoint
 10
213.945496524132
 20
987.1263675188824
 30
0.0
  0
ENDBLK
  5
69C2
330
69BA
100
AcDbEntity
  8
0
100
AcDbBlockEnd
  0
BLOCK
  5
69CA
330
69C3
100
AcDbEntity
  8
0
100
AcDbBlockBegin
  2
*D35
 70
     1
 10
0.0
 20
0.0
 30
0.0
  3
*D35
  1

  0
LINE
  5
69C4
330
69C3
100
AcDbEntity
  8
寸法線
 62
     0
370
    -2
100
AcDbLine
 10
372.9863045194465
 20
1004.089127104793
 30
0.0
 11
384.5479581194375
 21
995.1037252476281
 31
0.0
  0
MTEXT
  5
69C5
330
69C3
100
AcDbEntity
  8
寸法線
 62
     0
100
AcDbMText
 10
379.73050595638
 20
1003.280433411396
 30
0.0
 40
5.0
 41
0.0
 71
     5
 72
     1
  1
R10
  7
OKANO
 11
0.7895836805341401
 21
-0.613642902211181
 31
0.0
 73
     1
 44
1.0
  0
LINE
  5
69C6
330
69C3
100
AcDbEntity
  8
寸法線
 62
     0
370
    -2
100
AcDbLine
 10
394.8125459663807
 20
987.1263675188831
 30
0.0
 11
386.9167091610399
 21
993.2627965409945
 31
0.0
  0
INSERT
  5
69C7
330
69C3
100
AcDbEntity
  8
寸法線
 62
     0
370
    -2
100
AcDbBlockReference
  2
_Closed
 10
386.9167091610399
 20
993.2627965409945
 30
0.0
 41
3.0
 42
3.0
 43
3.0
 50
322.1466228004848
  0
POINT
  5
69C8
330
69C3
100
AcDbEntity
  8
Defpoints
 62
     0
100
AcDbPoint
 10
386.9167091610399
 20
993.2627965409945
 30
0.0
  0
POINT
  5
69C9
330
69C3
100
AcDbEntity
  8
Defpoints
 62
     0
100
AcDbPoint
 10
394.8125459663807
 20
987.1263675188831
 30
0.0
  0
ENDBLK
  5
69CB
330
69C3
100
AcDbEntity
  8
0
100
AcDbBlockEnd
  0
BLOCK
  5
69FC
330
69CC
100
AcDbEntity
  8
0
100
AcDbBlockBegin
  2
A$C488A7D67
 70
     0
 10
0.0
 20
0.0
 30
0.0
  3
A$C488A7D67
  1

  0
DIMENSION
  5
69CD
330
69CC
100
AcDbEntity
  8
寸法線
100
AcDbDimension
  2
*D35
 10
201.568132971961
 20
33.01449043757861
 30
0.0
 11
184.3383428042211
 21
46.4050134482228
 31
0.0
 12
-193.2444129944197
 22
-954.1118770813046
 32
0.0
 70
     4
 71
     5
 42
9.999999999999204
  3
sunpo
100
AcDbRadialDimension
 15
193.6722961666202
 25
39.15091945968993
 35
0.0
 40
0.0
1001
ACAD
1000
DSTYLE
1002
{
1070
    40
1040
1.0
1070
   288
1070
     1
1002
}
  0
DIMENSION
  5
69CE
330
69CC
100
AcDbEntity
  8
寸法線
100
AcDbDimension
  2
*D34
 10
20.70108352971237
 20
33.01449043757793
 30
0.0
 11
4.161746101628637
 21
49.18974886252545
 31
0.0
 12
-193.2444129944197
 22
-954.1118770813046
 32
0.0
 70
   132
 71
     5
 42
10.00000000000045
  3
sunpo
100
AcDbRadialDimension
 15
13.55176489920751
 25
40.00643173592459
 35
0.0
 40
0.0
1001
ACAD
1000
DSTYLE
1002
{
1070
    40
1040
1.0
1070
   288
1070
     1
1002
}
  0
ARC
  5
69CF
330
69CC
100
AcDbEntity
  8
太線
100
AcDbCircle
 10
86.70108352971226
 20
33.01449043757838
 30
0.0
 40
10.0
100
AcDbArc
 50
0.0
 51
90.0
  0
ARC
  5
69D0
330
69CC
100
AcDbEntity
  8
太線
100
AcDbCircle
 10
20.70108352971215
 20
33.01449043757838
 30
0.0
 40
10.0
100
AcDbArc
 50
90.0
 51
180.0
  0
LINE
  5
69D1
330
69CC
100
AcDbEntity
  8
太線
100
AcDbLine
 10
20.70108352971215
 20
43.01449043757838
 30
0.0
 11
86.70108352971226
 21
43.01449043757838
 31
0.0
  0
ARC
  5
69D2
330
69CC
100
AcDbEntity
  8
太線
100
AcDbCircle
 10
21.20108352971215
 20
23.01449043757747
 30
0.0
 40
4.5
100
AcDbArc
 50
90.0
 51
270.0
  0
ARC
  5
69D3
330
69CC
100
AcDbEntity
  8
太線
100
AcDbCircle
 10
26.20108352971226
 20
23.01449043757747
 30
0.0
 40
4.5
100
AcDbArc
 50
270.0
 51
90.0
  0
LINE
  5
69D4
330
69CC
100
AcDbEntity
  8
太線
100
AcDbLine
 10
21.20108352971215
 20
27.51449043757748
 30
0.0
 11
26.20108352971226
 21
27.51449043757748
 31
0.0
  0
LINE
  5
69D5
330
69CC
100
AcDbEntity
  8
太線
100
AcDbLine
 10
26.20108352971226
 20
18.51449043757838
 30
0.0
 11
21.20108352971215
 21
18.51449043757838
 31
0.0
  0
ARC
  5
69D6
330
69CC
100
AcDbEntity
  8
太線
100
AcDbCircle
 10
84.20108352971226
 20
23.01449043757747
 30
0.0
 40
4.5
100
AcDbArc
 50
270.0
 51
90.0
  0
ARC
  5
69D7
330
69CC
100
AcDbEntity
  8
太線
100
AcDbCircle
 10
79.20108352971221
 20
23.01449043757747
 30
0.0
 40
4.5
100
AcDbArc
 50
90.0
 51
270.0
  0
LINE
  5
69D8
330
69CC
100
AcDbEntity
  8
太線
100
AcDbLine
 10
84.20108352971226
 20
18.51449043757838
 30
0.0
 11
79.20108352971221
 21
18.51449043757838
 31
0.0
  0
LINE
  5
69D9
330
69CC
100
AcDbEntity
  8
太線
100
AcDbLine
 10
79.20108352971221
 20
27.51449043757748
 30
0.0
 11
84.20108352971226
 21
27.51449043757748
 31
0.0
  0
DIMENSION
  5
69DA
330
69CC
100
AcDbEntity
  8
寸法線
100
AcDbDimension
  2
*D31
 10
16.70108352971215
 20
5.36308331796863
 30
0.0
 11
23.70108352971215
 21
8.86308331796863
 31
0.0
 12
-193.2444129944197
 22
-954.1118770813046
 32
0.0
 71
     5
 42
14.0
  3
sunpo
100
AcDbAlignedDimension
 13
30.70108352971215
 23
23.01449043757747
 33
0.0
 14
16.70108352971215
 24
23.01449043757747
 34
0.0
100
AcDbRotatedDimension
1001
ACAD
1000
DSTYLE
1002
{
1070
    40
1040
1.0
1002
}
  0
LINE
  5
69DB
330
69CC
100
AcDbEntity
  8
太線
100
AcDbLine
 10
10.70108352971214
 20
23.01449043757747
 30
0.0
 11
10.70108352971214
 21
33.01449043757838
 31
0.0
  0
LINE
  5
69DC
330
69CC
100
AcDbEntity
  8
太線
100
AcDbLine
 10
96.70108352971226
 20
33.01449043757838
 30
0.0
 11
96.70108352971226
 21
22.37483108436663
 31
0.0
  0
LINE
  5
69DD
330
69CC
100
AcDbEntity
  8
太線
100
AcDbLine
 10
10.70108352971214
 20
23.01449043757747
 30
0.0
 11
10.70108352971214
 21
13.01449043757747
 31
0.0
  0
ARC
  5
69DE
330
69CC
100
AcDbEntity
  8
太線
100
AcDbCircle
 10
20.70108352971215
 20
13.01449043757747
 30
0.0
 40
10.0
100
AcDbArc
 50
180.0
 51
270.0
  0
LINE
  5
69DF
330
69CC
100
AcDbEntity
  8
太線
100
AcDbLine
 10
20.70108352971215
 20
3.014490437577478
 30
0.0
 11
86.70108352971226
 21
3.014490437577478
 31
0.0
  0
ARC
  5
69E0
330
69CC
100
AcDbEntity
  8
太線
100
AcDbCircle
 10
86.70108352971226
 20
13.01449043757747
 30
0.0
 40
10.0
100
AcDbArc
 50
270.0
 51
0.0
  0
LINE
  5
69E1
330
69CC
100
AcDbEntity
  8
太線
100
AcDbLine
 10
96.70108352971226
 20
13.01449043757747
 30
0.0
 11
96.70108352971226
 21
22.37483108436663
 31
0.0
  0
DIMENSION
  5
69E2
330
69CC
100
AcDbEntity
  8
寸法線
100
AcDbDimension
  2
*D32
 10
110.5664629930113
 20
22.37483108436663
 30
0.0
 11
107.0659708670269
 21
12.69466076097216
 31
0.0
 12
-193.2444129944197
 22
-954.1118770813046
 32
0.0
  1
20
 71
     5
 42
19.36034064678915
  3
sunpo
100
AcDbAlignedDimension
 13
86.70108352971226
 23
3.014490437577478
 33
0.0
 14
96.70108352971226
 24
22.37483108436663
 34
0.0
 50
90.0
100
AcDbRotatedDimension
1001
ACAD
1000
DSTYLE
1002
{
1070
    40
1040
1.0
1002
}
  0
DIMENSION
  5
69E3
330
69CC
100
AcDbEntity
  8
寸法線
100
AcDbDimension
  2
*D33
 10
110.5664629930113
 20
43.01449043757838
 30
0.0
 11
107.0659708670269
 21
32.69466076097262
 31
0.0
 12
-193.2444129944197
 22
-954.1118770813046
 32
0.0
  1
20
 71
     5
 42
20.63965935321175
  3
sunpo
100
AcDbAlignedDimension
 13
96.70108352971226
 23
22.37483108436663
 33
0.0
 14
86.70108352971226
 24
43.01449043757838
 34
0.0
 50
90.0
100
AcDbRotatedDimension
1001
ACAD
1000
DSTYLE
1002
{
1070
    40
1040
1.0
1070
   279
1070
     1
1002
}
  0
LINE
  5
69E4
330
69CC
100
AcDbEntity
  8
太線
100
AcDbLine
 10
277.5681329719611
 20
22.37483108436572
 30
0.0
 11
277.5100380745955
 21
8.014490437577478
 31
0.0
  0
LINE
  5
69E5
330
69CC
100
AcDbEntity
  8
太線
100
AcDbLine
 10
191.5681329719611
 20
23.01449043757747
 30
0.0
 11
191.5681329719611
 21
8.014490437577478
 31
0.0
  0
LINE
  5
69E6
330
69CC
100
AcDbEntity
  8
太線
100
AcDbLine
 10
191.5100380745955
 20
8.014490437577478
 30
0.0
 11
277.5100380745955
 21
8.014490437577478
 31
0.0
  0
LINE
  5
69E7
330
69CC
100
AcDbEntity
  8
想像線
100
AcDbLine
 10
191.5100380745955
 20
11.01449043757747
 30
0.0
 11
277.5100380745955
 21
11.01449043757747
 31
0.0
  0
LINE
  5
69E8
330
69CC
100
AcDbEntity
  8
太線
100
AcDbLine
 10
197.6361497354914
 20
-0.00000459769808
 30
0.0
 11
269.5255310284383
 21
-0.00000459769808
 31
0.0
  0
ARC
  5
69E9
330
69CC
100
AcDbEntity
  8
太線
100
AcDbCircle
 10
200.08333610869
 20
8.219156318044269
 30
0.0
 40
8.575740627143373
100
AcDbArc
 50
181.3675325705322
 51
253.4195404704698
  0
ARC
  5
69EA
330
69CC
100
AcDbEntity
  8
太線
100
AcDbCircle
 10
264.8634130333981
 20
12.62923221088499
 30
0.0
 40
13.46227939715074
100
AcDbArc
 50
290.2617654909258
 51
339.953020805332
  0
ARC
  5
69EB
330
69CC
100
AcDbEntity
  8
太線
100
AcDbCircle
 10
267.5681329719612
 20
33.01449043757747
 30
0.0
 40
10.0
100
AcDbArc
 50
0.0
 51
90.0
  0
ARC
  5
69EC
330
69CC
100
AcDbEntity
  8
太線
100
AcDbCircle
 10
201.5681329719611
 20
33.01449043757747
 30
0.0
 40
10.0
100
AcDbArc
 50
90.0
 51
180.0
  0
LINE
  5
69ED
330
69CC
100
AcDbEntity
  8
太線
100
AcDbLine
 10
201.5681329719611
 20
43.01449043757748
 30
0.0
 11
267.5681329719612
 21
43.01449043757748
 31
0.0
  0
ARC
  5
69EE
330
69CC
100
AcDbEntity
  8
太線
100
AcDbCircle
 10
202.0681329719611
 20
23.01449043757747
 30
0.0
 40
4.5
100
AcDbArc
 50
90.0
 51
270.0
  0
ARC
  5
69EF
330
69CC
100
AcDbEntity
  8
太線
100
AcDbCircle
 10
207.0681329719611
 20
23.01449043757747
 30
0.0
 40
4.5
100
AcDbArc
 50
270.0
 51
90.0
  0
LINE
  5
69F0
330
69CC
100
AcDbEntity
  8
太線
100
AcDbLine
 10
202.0681329719611
 20
27.51449043757748
 30
0.0
 11
207.0681329719611
 21
27.51449043757748
 31
0.0
  0
LINE
  5
69F1
330
69CC
100
AcDbEntity
  8
太線
100
AcDbLine
 10
207.0681329719611
 20
18.51449043757748
 30
0.0
 11
202.0681329719611
 21
18.51449043757748
 31
0.0
  0
ARC
  5
69F2
330
69CC
100
AcDbEntity
  8
太線
100
AcDbCircle
 10
265.0681329719611
 20
23.01449043757747
 30
0.0
 40
4.5
100
AcDbArc
 50
270.0
 51
90.0
  0
ARC
  5
69F3
330
69CC
100
AcDbEntity
  8
太線
100
AcDbCircle
 10
260.0681329719611
 20
23.01449043757747
 30
0.0
 40
4.5
100
AcDbArc
 50
90.0
 51
270.0
  0
LINE
  5
69F4
330
69CC
100
AcDbEntity
  8
太線
100
AcDbLine
 10
265.0681329719611
 20
18.51449043757748
 30
0.0
 11
260.0681329719611
 21
18.51449043757748
 31
0.0
  0
LINE
  5
69F5
330
69CC
100
AcDbEntity
  8
太線
100
AcDbLine
 10
260.0681329719611
 20
27.51449043757748
 30
0.0
 11
265.0681329719611
 21
27.51449043757748
 31
0.0
  0
LINE
  5
69F6
330
69CC
100
AcDbEntity
  8
太線
100
AcDbLine
 10
191.5681329719611
 20
23.01449043757747
 30
0.0
 11
191.5681329719611
 21
33.01449043757747
 31
0.0
  0
LINE
  5
69F7
330
69CC
100
AcDbEntity
  8
太線
100
AcDbLine
 10
277.5681329719611
 20
33.01449043757747
 30
0.0
 11
277.5681329719611
 21
22.37483108436572
 31
0.0
  0
DIMENSION
  5
69F8
330
69CC
100
AcDbEntity
  8
寸法線
100
AcDbDimension
  2
*D28
 10
288.7448459382762
 20
43.01449043757748
 30
0.0
 11
285.2443538122918
 21
33.01449043757759
 31
0.0
 12
-193.2444129944197
 22
-954.1118770813046
 32
0.0
 71
     5
 42
20.0
  3
sunpo
100
AcDbAlignedDimension
 13
265.0681329719611
 23
23.01449043757747
 33
0.0
 14
267.5681329719612
 24
43.01449043757748
 34
0.0
 50
90.0
100
AcDbRotatedDimension
1001
ACAD
1000
DSTYLE
1002
{
1070
    40
1040
1.0
1002
}
  0
DIMENSION
  5
69F9
330
69CC
100
AcDbEntity
  8
寸法線
100
AcDbDimension
  2
*D29
 10
182.0178862282086
 20
8.014490437577478
 30
0.0
 11
178.5178862282085
 21
15.51449043757759
 31
0.0
 12
-193.2444129944197
 22
-954.1118770813046
 32
0.0
 71
     5
 42
15.0
  3
sunpo
100
AcDbAlignedDimension
 13
202.0681329719611
 23
23.01449043757747
 33
0.0
 14
191.5681329719611
 24
8.014490437577478
 34
0.0
 50
90.0
100
AcDbRotatedDimension
1001
ACAD
1000
DSTYLE
1002
{
1070
    40
1040
1.0
1002
}
  0
DIMENSION
  5
69FA
330
69CC
100
AcDbEntity
  8
寸法線
100
AcDbDimension
  2
*D30
 10
182.0178862282086
 20
-0.00000459769808
 30
0.0
 11
178.5178862282085
 21
4.007242919939812
 31
0.0
 12
-193.2444129944197
 22
-954.1118770813046
 32
0.0
  1
10
 71
     5
 42
8.014495035275558
  3
sunpo
100
AcDbAlignedDimension
 13
191.5681329719611
 23
8.014490437577478
 33
0.0
 14
197.6361497354914
 24
-0.00000459769808
 34
0.0
 50
90.0
100
AcDbRotatedDimension
1001
ACAD
1000
DSTYLE
1002
{
1070
    40
1040
1.0
1070
   279
1070
     1
1002
}
  0
LINE
  5
69FB
330
69CC
100
AcDbEntity
  8
構築線
100
AcDbLine
 10
234.5681329719611
 20
23.01449043757747
 30
0.0
 11
234.5681329719611
 21
61.45697983703008
 31
0.0
  0
ENDBLK
  5
69FD
330
69CC
100
AcDbEntity
  8
0
100
AcDbBlockEnd
  0
BLOCK
  5
6ADD
330
6AD3
100
AcDbEntity
  8
0
100
AcDbBlockBegin
  2
*D37
 70
     1
 10
0.0
 20
0.0
 30
0.0
  3
*D37
  1

  0
LINE
  5
6B39
330
6AD3
100
AcDbEntity
  8
寸法線
 62
     0
370
    -2
100
AcDbLine
 10
271.381982589636
 20
981.5594567648659
 30
0.0
 11
256.6927864614408
 21
981.5594567648659
 31
0.0
  0
LINE
  5
6B3A
330
6AD3
100
AcDbEntity
  8
寸法線
 62
     0
370
    -2
100
AcDbLine
 10
271.381982589636
 20
972.5594567648668
 30
0.0
 11
256.6927864614408
 21
972.5594567648668
 31
0.0
  0
LINE
  5
6B3B
330
6AD3
100
AcDbEntity
  8
寸法線
 62
     0
370
    -2
100
AcDbLine
 10
259.6927864614408
 20
978.5594567648658
 30
0.0
 11
259.6927864614408
 21
975.5594567648667
 31
0.0
  0
INSERT
  5
6B3C
330
6AD3
100
AcDbEntity
  8
寸法線
 62
     0
370
    -2
100
AcDbBlockReference
  2
_Closed
 10
259.6927864614408
 20
981.5594567648659
 30
0.0
 41
3.0
 42
3.0
 43
3.0
 50
90.0
  0
INSERT
  5
6B3D
330
6AD3
100
AcDbEntity
  8
寸法線
 62
     0
370
    -2
100
AcDbBlockReference
  2
_Closed
 10
259.6927864614408
 20
972.5594567648668
 30
0.0
 41
3.0
 42
3.0
 43
3.0
 50
270.0
  0
MTEXT
  5
6B3E
330
6AD3
100
AcDbEntity
  8
寸法線
 62
     0
100
AcDbMText
 10
256.1927864614407
 20
977.0594567648664
 30
0.0
 40
5.0
 41
0.0
 71
     5
 72
     1
  1
9
  7
OKANO
 11
0.0000000000000001
 21
1.0
 31
0.0
 73
     1
 44
1.0
  0
POINT
  5
6B3F
330
6AD3
100
AcDbEntity
  8
Defpoints
 62
     0
100
AcDbPoint
 10
273.381982589636
 20
981.5594567648659
 30
0.0
  0
POINT
  5
6B40
330
6AD3
100
AcDbEntity
  8
Defpoints
 62
     0
100
AcDbPoint
 10
273.381982589636
 20
972.5594567648668
 30
0.0
  0
POINT
  5
6B41
330
6AD3
100
AcDbEntity
  8
Defpoints
 62
     0
100
AcDbPoint
 10
259.6927864614408
 20
972.5594567648668
 30
0.0
  0
ENDBLK
  5
6ADE
330
6AD3
100
AcDbEntity
  8
0
100
AcDbBlockEnd
  0
BLOCK
  5
6AE9
330
6ADF
100
AcDbEntity
  8
0
100
AcDbBlockBegin
  2
*D38
 70
     1
 10
0.0
 20
0.0
 30
0.0
  3
*D38
  1

  0
LINE
  5
6B42
330
6ADF
100
AcDbEntity
  8
寸法線
 62
     0
370
    -2
100
AcDbLine
 10
473.7490320318849
 20
977.0594567648659
 30
0.0
 11
498.4568230679724
 21
977.0594567648659
 31
0.0
  0
LINE
  5
6B43
330
6ADF
100
AcDbEntity
  8
寸法線
 62
     0
370
    -2
100
AcDbLine
 10
463.749032031885
 20
1017.059456764866
 30
0.0
 11
498.4568230679724
 21
1017.059456764866
 31
0.0
  0
LINE
  5
6B44
330
6ADF
100
AcDbEntity
  8
寸法線
 62
     0
370
    -2
100
AcDbLine
 10
495.4568230679724
 20
980.0594567648658
 30
0.0
 11
495.4568230679724
 21
1014.059456764865
 31
0.0
  0
INSERT
  5
6B45
330
6ADF
100
AcDbEntity
  8
寸法線
 62
     0
370
    -2
100
AcDbBlockReference
  2
_Closed
 10
495.4568230679724
 20
977.0594567648659
 30
0.0
 41
3.0
 42
3.0
 43
3.0
 50
270.0
  0
INSERT
  5
6B46
330
6ADF
100
AcDbEntity
  8
寸法線
 62
     0
370
    -2
100
AcDbBlockReference
  2
_Closed
 10
495.4568230679724
 20
1017.059456764866
 30
0.0
 41
3.0
 42
3.0
 43
3.0
 50
90.0
  0
MTEXT
  5
6B47
330
6ADF
100
AcDbEntity
  8
寸法線
 62
     0
100
AcDbMText
 10
491.9568230679722
 20
997.059456764866
 30
0.0
 40
5.0
 41
0.0
 71
     5
 72
     1
  1
40
  7
OKANO
 11
0.0000000000000001
 21
1.0
 31
0.0
 73
     1
 44
1.0
  0
POINT
  5
6B48
330
6ADF
100
AcDbEntity
  8
Defpoints
 62
     0
100
AcDbPoint
 10
471.749032031885
 20
977.0594567648659
 30
0.0
  0
POINT
  5
6B49
330
6ADF
100
AcDbEntity
  8
Defpoints
 62
     0
100
AcDbPoint
 10
461.7490320318849
 20
1017.059456764866
 30
0.0
  0
POINT
  5
6B4A
330
6ADF
100
AcDbEntity
  8
Defpoints
 62
     0
100
AcDbPoint
 10
495.4568230679724
 20
1017.059456764866
 30
0.0
  0
ENDBLK
  5
6AEA
330
6ADF
100
AcDbEntity
  8
0
100
AcDbBlockEnd
  0
BLOCK
  5
6AF5
330
6AEB
100
AcDbEntity
  8
0
100
AcDbBlockBegin
  2
*D39
 70
     1
 10
0.0
 20
0.0
 30
0.0
  3
*D39
  1

  0
LINE
  5
6B4B
330
6AEB
100
AcDbEntity
  8
寸法線
 62
     0
370
    -2
100
AcDbLine
 10
292.881982589636
 20
976.419797411655
 30
0.0
 11
311.768399302382
 21
976.419797411655
 31
0.0
  0
LINE
  5
6B4C
330
6AEB
100
AcDbEntity
  8
寸法線
 62
     0
370
    -2
100
AcDbLine
 10
282.881982589636
 20
1017.059456764866
 30
0.0
 11
311.768399302382
 21
1017.059456764866
 31
0.0
  0
LINE
  5
6B4D
330
6AEB
100
AcDbEntity
  8
寸法線
 62
     0
370
    -2
100
AcDbLine
 10
308.768399302382
 20
979.4197974116551
 30
0.0
 11
308.768399302382
 21
1014.059456764865
 31
0.0
  0
INSERT
  5
6B4E
330
6AEB
100
AcDbEntity
  8
寸法線
 62
     0
370
    -2
100
AcDbBlockReference
  2
_Closed
 10
308.768399302382
 20
976.419797411655
 30
0.0
 41
3.0
 42
3.0
 43
3.0
 50
270.0
  0
INSERT
  5
6B4F
330
6AEB
100
AcDbEntity
  8
寸法線
 62
     0
370
    -2
100
AcDbBlockReference
  2
_Closed
 10
308.768399302382
 20
1017.059456764866
 30
0.0
 41
3.0
 42
3.0
 43
3.0
 50
90.0
  0
MTEXT
  5
6B50
330
6AEB
100
AcDbEntity
  8
寸法線
 62
     0
100
AcDbMText
 10
305.2683993023818
 20
996.7396270882606
 30
0.0
 40
5.0
 41
0.0
 71
     5
 72
     1
  1
40
  7
OKANO
 11
0.0000000000000001
 21
1.0
 31
0.0
 73
     1
 44
1.0
  0
POINT
  5
6B51
330
6AEB
100
AcDbEntity
  8
Defpoints
 62
     0
100
AcDbPoint
 10
290.881982589636
 20
976.419797411655
 30
0.0
  0
POINT
  5
6B52
330
6AEB
100
AcDbEntity
  8
Defpoints
 62
     0
100
AcDbPoint
 10
280.881982589636
 20
1017.059456764866
 30
0.0
  0
POINT
  5
6B53
330
6AEB
100
AcDbEntity
  8
Defpoints
 62
     0
100
AcDbPoint
 10
308.768399302382
 20
1017.059456764866
 30
0.0
  0
ENDBLK
  5
6AF6
330
6AEB
100
AcDbEntity
  8
0
100
AcDbBlockEnd
  0
BLOCK
  5
6B01
330
6AF7
100
AcDbEntity
  8
0
100
AcDbBlockBegin
  2
*D40
 70
     1
 10
0.0
 20
0.0
 30
0.0
  3
*D40
  1

  0
LINE
  5
6B54
330
6AF7
100
AcDbEntity
  8
寸法線
 62
     0
370
    -2
100
AcDbLine
 10
282.881982589636
 20
937.0594567648659
 30
0.0
 11
311.768399302382
 21
937.0594567648659
 31
0.0
  0
LINE
  5
6B55
330
6AF7
100
AcDbEntity
  8
寸法線
 62
     0
370
    -2
100
AcDbLine
 10
292.881982589636
 20
976.419797411655
 30
0.0
 11
311.768399302382
 21
976.419797411655
 31
0.0
  0
LINE
  5
6B56
330
6AF7
100
AcDbEntity
  8
寸法線
 62
     0
370
    -2
100
AcDbLine
 10
308.768399302382
 20
940.0594567648658
 30
0.0
 11
308.768399302382
 21
973.419797411655
 31
0.0
  0
INSERT
  5
6B57
330
6AF7
100
AcDbEntity
  8
寸法線
 62
     0
370
    -2
100
AcDbBlockReference
  2
_Closed
 10
308.768399302382
 20
937.0594567648659
 30
0.0
 41
3.0
 42
3.0
 43
3.0
 50
270.0
  0
INSERT
  5
6B58
330
6AF7
100
AcDbEntity
  8
寸法線
 62
     0
370
    -2
100
AcDbBlockReference
  2
_Closed
 10
308.768399302382
 20
976.419797411655
 30
0.0
 41
3.0
 42
3.0
 43
3.0
 50
90.0
  0
MTEXT
  5
6B59
330
6AF7
100
AcDbEntity
  8
寸法線
 62
     0
100
AcDbMText
 10
305.2683993023818
 20
956.7396270882605
 30
0.0
 40
5.0
 41
0.0
 71
     5
 72
     1
  1
40
  7
OKANO
 11
0.0000000000000001
 21
1.0
 31
0.0
 73
     1
 44
1.0
  0
POINT
  5
6B5A
330
6AF7
100
AcDbEntity
  8
Defpoints
 62
     0
100
AcDbPoint
 10
280.881982589636
 20
937.0594567648659
 30
0.0
  0
POINT
  5
6B5B
330
6AF7
100
AcDbEntity
  8
Defpoints
 62
     0
100
AcDbPoint
 10
290.881982589636
 20
976.419797411655
 30
0.0
  0
POINT
  5
6B5C
330
6AF7
100
AcDbEntity
  8
Defpoints
 62
     0
100
AcDbPoint
 10
308.768399302382
 20
976.419797411655
 30
0.0
  0
ENDBLK
  5
6B02
330
6AF7
100
AcDbEntity
  8
0
100
AcDbBlockEnd
  0
BLOCK
  5
6B0A
330
6B03
100
AcDbEntity
  8
0
100
AcDbBlockBegin
  2
*D41
 70
     1
 10
0.0
 20
0.0
 30
0.0
  3
*D41
  1

  0
LINE
  5
6B5D
330
6B03
100
AcDbEntity
  8
寸法線
 62
     0
370
    -2
100
AcDbLine
 10
370.6901196083
 20
1024.784183846804
 30
0.0
 11
385.1356547741474
 21
1014.566534970462
 31
0.0
  0
MTEXT
  5
6B5E
330
6B03
100
AcDbEntity
  8
寸法線
 62
     0
100
AcDbMText
 10
377.4638941668484
 20
1024.279984737684
 30
0.0
 40
5.0
 41
0.0
 71
     5
 72
     1
  1
R10
  7
OKANO
 11
0.8164136352105618
 21
-0.5774675542766675
 31
0.0
 73
     1
 44
1.0
  0
LINE
  5
6B5F
330
6B03
100
AcDbEntity
  8
寸法線
 62
     0
370
    -2
100
AcDbLine
 10
395.7490320318851
 20
1007.059456764865
 30
0.0
 11
387.5848956797792
 21
1012.834132307632
 31
0.0
  0
INSERT
  5
6B60
330
6B03
100
AcDbEntity
  8
寸法線
 62
     0
370
    -2
100
AcDbBlockReference
  2
_Closed
 10
387.5848956797792
 20
1012.834132307632
 30
0.0
 41
3.0
 42
3.0
 43
3.0
 50
324.7273796865476
  0
POINT
  5
6B61
330
6B03
100
AcDbEntity
  8
Defpoints
 62
     0
100
AcDbPoint
 10
387.5848956797792
 20
1012.834132307632
 30
0.0
  0
POINT
  5
6B62
330
6B03
100
AcDbEntity
  8
Defpoints
 62
     0
100
AcDbPoint
 10
395.7490320318851
 20
1007.059456764865
 30
0.0
  0
ENDBLK
  5
6B0B
330
6B03
100
AcDbEntity
  8
0
100
AcDbBlockEnd
  0
BLOCK
  5
6B13
330
6B0C
100
AcDbEntity
  8
0
100
AcDbBlockBegin
  2
*D42
 70
     1
 10
0.0
 20
0.0
 30
0.0
  3
*D42
  1

  0
LINE
  5
6B63
330
6B0C
100
AcDbEntity
  8
寸法線
 62
     0
370
    -2
100
AcDbLine
 10
194.1807690267368
 20
1027.304976305531
 30
0.0
 11
205.58786836998
 21
1016.148980452716
 31
0.0
  0
MTEXT
  5
6B64
330
6B0C
100
AcDbEntity
  8
寸法線
 62
     0
100
AcDbMText
 10
200.7898246159737
 20
1025.736976710489
 30
0.0
 40
5.0
 41
0.0
 71
     5
 72
     1
  1
R10
  7
OKANO
 11
0.7149318630504525
 21
-0.6991941298346327
 31
0.0
 73
     1
 44
1.0
  0
LINE
  5
6B65
330
6B0C
100
AcDbEntity
  8
寸法線
 62
     0
370
    -2
100
AcDbLine
 10
214.8819825896362
 20
1007.059456764865
 30
0.0
 11
207.7326639591314
 21
1014.051398063212
 31
0.0
  0
INSERT
  5
6B66
330
6B0C
100
AcDbEntity
  8
寸法線
 62
     0
370
    -2
100
AcDbBlockReference
  2
_Closed
 10
207.7326639591314
 20
1014.051398063212
 30
0.0
 41
3.0
 42
3.0
 43
3.0
 50
315.6376153703524
  0
POINT
  5
6B67
330
6B0C
100
AcDbEntity
  8
Defpoints
 62
     0
100
AcDbPoint
 10
207.7326639591314
 20
1014.051398063212
 30
0.0
  0
POINT
  5
6B68
330
6B0C
100
AcDbEntity
  8
Defpoints
 62
     0
100
AcDbPoint
 10
214.8819825896362
 20
1007.059456764865
 30
0.0
  0
ENDBLK
  5
6B14
330
6B0C
100
AcDbEntity
  8
0
100
AcDbBlockEnd
  0
BLOCK
  5
6B1F
330
6B15
100
AcDbEntity
  8
0
100
AcDbBlockBegin
  2
*D43
 70
     1
 10
0.0
 20
0.0
 30
0.0
  3
*D43
  1

  0
LINE
  5
6B69
330
6B15
100
AcDbEntity
  8
寸法線
 62
     0
370
    -2
100
AcDbLine
 10
224.8819825896359
 20
975.059456764866
 30
0.0
 11
224.8819825896359
 21
956.408049645257
 31
0.0
  0
LINE
  5
6B6A
330
6B15
100
AcDbEntity
  8
寸法線
 62
     0
370
    -2
100
AcDbLine
 10
210.8819825896359
 20
975.059456764866
 30
0.0
 11
210.8819825896359
 21
956.408049645257
 31
0.0
  0
LINE
  5
6B6B
330
6B15
100
AcDbEntity
  8
寸法線
 62
     0
370
    -2
100
AcDbLine
 10
221.881982589636
 20
959.4080496452571
 30
0.0
 11
213.8819825896359
 21
959.4080496452571
 31
0.0
  0
INSERT
  5
6B6C
330
6B15
100
AcDbEntity
  8
寸法線
 62
     0
370
    -2
100
AcDbBlockReference
  2
_Closed
 10
224.8819825896359
 20
959.4080496452571
 30
0.0
 41
3.0
 42
3.0
 43
3.0
  0
INSERT
  5
6B6D
330
6B15
100
AcDbEntity
  8
寸法線
 62
     0
370
    -2
100
AcDbBlockReference
  2
_Closed
 10
210.8819825896359
 20
959.4080496452571
 30
0.0
 41
3.0
 42
3.0
 43
3.0
 50
180.0
  0
MTEXT
  5
6B6E
330
6B15
100
AcDbEntity
  8
寸法線
 62
     0
100
AcDbMText
 10
217.881982589636
 20
962.9080496452571
 30
0.0
 40
5.0
 41
0.0
 71
     5
 72
     1
  1
14
  7
OKANO
 73
     1
 44
1.0
  0
POINT
  5
6B6F
330
6B15
100
AcDbEntity
  8
Defpoints
 62
     0
100
AcDbPoint
 10
224.8819825896359
 20
977.0594567648659
 30
0.0
  0
POINT
  5
6B70
330
6B15
100
AcDbEntity
  8
Defpoints
 62
     0
100
AcDbPoint
 10
210.8819825896359
 20
977.0594567648659
 30
0.0
  0
POINT
  5
6B71
330
6B15
100
AcDbEntity
  8
Defpoints
 62
     0
100
AcDbPoint
 10
210.8819825896359
 20
959.4080496452571
 30
0.0
  0
ENDBLK
  5
6B20
330
6B15
100
AcDbEntity
  8
0
100
AcDbBlockEnd
  0
BLOCK
  5
6B2B
330
6B21
100
AcDbEntity
  8
0
100
AcDbBlockBegin
  2
*D44
 70
     1
 10
0.0
 20
0.0
 30
0.0
  3
*D44
  1

  0
LINE
  5
6B72
330
6B21
100
AcDbEntity
  8
寸法線
 62
     0
370
    -2
100
AcDbLine
 10
394.249032031885
 20
977.0594567648659
 30
0.0
 11
373.1987852881325
 21
977.0594567648659
 31
0.0
  0
LINE
  5
6B73
330
6B21
100
AcDbEntity
  8
寸法線
 62
     0
370
    -2
100
AcDbLine
 10
383.7490320318849
 20
962.0594567648659
 30
0.0
 11
373.1987852881325
 21
962.0594567648659
 31
0.0
  0
LINE
  5
6B74
330
6B21
100
AcDbEntity
  8
寸法線
 62
     0
370
    -2
100
AcDbLine
 10
376.1987852881325
 20
974.0594567648658
 30
0.0
 11
376.1987852881325
 21
965.0594567648658
 31
0.0
  0
INSERT
  5
6B75
330
6B21
100
AcDbEntity
  8
寸法線
 62
     0
370
    -2
100
AcDbBlockReference
  2
_Closed
 10
376.1987852881325
 20
977.0594567648659
 30
0.0
 41
3.0
 42
3.0
 43
3.0
 50
90.0
  0
INSERT
  5
6B76
330
6B21
100
AcDbEntity
  8
寸法線
 62
     0
370
    -2
100
AcDbBlockReference
  2
_Closed
 10
376.1987852881325
 20
962.0594567648659
 30
0.0
 41
3.0
 42
3.0
 43
3.0
 50
270.0
  0
MTEXT
  5
6B77
330
6B21
100
AcDbEntity
  8
寸法線
 62
     0
100
AcDbMText
 10
372.6987852881323
 20
969.559456764866
 30
0.0
 40
5.0
 41
0.0
 71
     5
 72
     1
  1
15
  7
OKANO
 11
0.0000000000000001
 21
1.0
 31
0.0
 73
     1
 44
1.0
  0
POINT
  5
6B78
330
6B21
100
AcDbEntity
  8
Defpoints
 62
     0
100
AcDbPoint
 10
396.2490320318849
 20
977.0594567648659
 30
0.0
  0
POINT
  5
6B79
330
6B21
100
AcDbEntity
  8
Defpoints
 62
     0
100
AcDbPoint
 10
385.7490320318849
 20
962.0594567648659
 30
0.0
  0
POINT
  5
6B7A
330
6B21
100
AcDbEntity
  8
Defpoints
 62
     0
100
AcDbPoint
 10
376.1987852881325
 20
962.0594567648659
 30
0.0
  0
ENDBLK
  5
6B2C
330
6B21
100
AcDbEntity
  8
0
100
AcDbBlockEnd
  0
BLOCK
  5
6B37
330
6B2D
100
AcDbEntity
  8
0
100
AcDbBlockBegin
  2
*D45
 70
     1
 10
0.0
 20
0.0
 30
0.0
  3
*D45
  1

  0
LINE
  5
6B7B
330
6B2D
100
AcDbEntity
  8
寸法線
 62
     0
370
    -2
100
AcDbLine
 10
383.7490320318849
 20
962.0594567648659
 30
0.0
 11
373.1987852881325
 21
962.0594567648659
 31
0.0
  0
LINE
  5
6B7C
330
6B2D
100
AcDbEntity
  8
寸法線
 62
     0
370
    -2
100
AcDbLine
 10
389.8170487954152
 20
954.0449617295903
 30
0.0
 11
373.1987852881325
 21
954.0449617295903
 31
0.0
  0
LINE
  5
6B7D
330
6B2D
100
AcDbEntity
  8
寸法線
 62
     0
370
    -2
100
AcDbLine
 10
376.1987852881325
 20
959.0594567648659
 30
0.0
 11
376.1987852881325
 21
957.0449617295903
 31
0.0
  0
INSERT
  5
6B7E
330
6B2D
100
AcDbEntity
  8
寸法線
 62
     0
370
    -2
100
AcDbBlockReference
  2
_Closed
 10
376.1987852881325
 20
962.0594567648659
 30
0.0
 41
3.0
 42
3.0
 43
3.0
 50
90.0
  0
INSERT
  5
6B7F
330
6B2D
100
AcDbEntity
  8
寸法線
 62
     0
370
    -2
100
AcDbBlockReference
  2
_Closed
 10
376.1987852881325
 20
954.0449617295903
 30
0.0
 41
3.0
 42
3.0
 43
3.0
 50
270.0
  0
MTEXT
  5
6B80
330
6B2D
100
AcDbEntity
  8
寸法線
 62
     0
100
AcDbMText
 10
372.6987852881323
 20
958.0522092472282
 30
0.0
 40
5.0
 41
0.0
 71
     5
 72
     1
  1
10
  7
OKANO
 11
0.0000000000000001
 21
1.0
 31
0.0
 73
     1
 44
1.0
  0
POINT
  5
6B81
330
6B2D
100
AcDbEntity
  8
Defpoints
 62
     0
100
AcDbPoint
 10
385.7490320318849
 20
962.0594567648659
 30
0.0
  0
POINT
  5
6B82
330
6B2D
100
AcDbEntity
  8
Defpoints
 62
     0
100
AcDbPoint
 10
391.8170487954153
 20
954.0449617295903
 30
0.0
  0
POINT
  5
6B83
330
6B2D
100
AcDbEntity
  8
Defpoints
 62
     0
100
AcDbPoint
 10
376.1987852881325
 20
954.0449617295903
 30
0.0
  0
ENDBLK
  5
6B38
330
6B2D
100
AcDbEntity
  8
0
100
AcDbBlockEnd
  0
BLOCK
  5
6BB3
330
6BA9
100
AcDbEntity
  8
0
100
AcDbBlockBegin
  2
*D46
 70
     1
 10
0.0
 20
0.0
 30
0.0
  3
*D46
  1

  0
LINE
  5
6BAA
330
6BA9
100
AcDbEntity
  8
太線
 62
     0
370
    -2
100
AcDbLine
 10
204.8819825896359
 20
945.0594567648659
 30
0.0
 11
204.8819825896359
 21
924.0400542092102
 31
0.0
  0
LINE
  5
6BAB
330
6BA9
100
AcDbEntity
  8
太線
 62
     0
370
    -2
100
AcDbLine
 10
290.881982589636
 20
945.0594567648659
 30
0.0
 11
290.881982589636
 21
924.0400542092102
 31
0.0
  0
LINE
  5
6BAC
330
6BA9
100
AcDbEntity
  8
太線
 62
     0
370
    -2
100
AcDbLine
 10
207.8819825896359
 20
927.0400542092103
 30
0.0
 11
287.8819825896361
 21
927.0400542092103
 31
0.0
  0
INSERT
  5
6BAD
330
6BA9
100
AcDbEntity
  8
太線
 62
     0
370
    -2
100
AcDbBlockReference
  2
_Closed
 10
204.8819825896359
 20
927.0400542092103
 30
0.0
 41
3.0
 42
3.0
 43
3.0
 50
180.0
  0
INSERT
  5
6BAE
330
6BA9
100
AcDbEntity
  8
太線
 62
     0
370
    -2
100
AcDbBlockReference
  2
_Closed
 10
290.881982589636
 20
927.0400542092103
 30
0.0
 41
3.0
 42
3.0
 43
3.0
  0
MTEXT
  5
6BAF
330
6BA9
100
AcDbEntity
  8
太線
 62
     0
100
AcDbMText
 10
247.881982589636
 20
930.5400542092101
 30
0.0
 40
5.0
 41
0.0
 71
     5
 72
     1
  1
86
  7
OKANO
 73
     1
 44
1.0
  0
POINT
  5
6BB0
330
6BA9
100
AcDbEntity
  8
Defpoints
 62
     0
100
AcDbPoint
 10
204.8819825896359
 20
947.0594567648658
 30
0.0
  0
POINT
  5
6BB1
330
6BA9
100
AcDbEntity
  8
Defpoints
 62
     0
100
AcDbPoint
 10
290.881982589636
 20
947.0594567648658
 30
0.0
  0
POINT
  5
6BB2
330
6BA9
100
AcDbEntity
  8
Defpoints
 62
     0
100
AcDbPoint
 10
290.881982589636
 20
927.0400542092103
 30
0.0
  0
ENDBLK
  5
6BB4
330
6BA9
100
AcDbEntity
  8
0
100
AcDbBlockEnd
  0
BLOCK
  5
6BC9
330
6BBD
100
AcDbEntity
  8
0
100
AcDbBlockBegin
  2
*D47
 70
     1
 10
0.0
 20
0.0
 30
0.0
  3
*D47
  1

  0
LINE
  5
6BCB
330
6BBD
100
AcDbEntity
  8
寸法線
 62
     0
370
    -2
100
AcDbLine
 10
202.9454965241318
 20
907.8399995297425
 30
0.0
 11
151.0063707839581
 21
907.8399995297425
 31
0.0
  0
LINE
  5
6BCC
330
6BBD
100
AcDbEntity
  8
寸法線
 62
     0
370
    -2
100
AcDbLine
 10
202.9454965241319
 20
911.3399995297426
 30
0.0
 11
151.0063707839581
 21
911.3399995297426
 31
0.0
  0
LINE
  5
6BCD
330
6BBD
100
AcDbEntity
  8
寸法線
 62
     0
370
    -2
100
AcDbLine
 10
154.0063707839581
 20
904.8399995297424
 30
0.0
 11
154.0063707839581
 21
901.8399995297425
 31
0.0
  0
LINE
  5
6BCE
330
6BBD
100
AcDbEntity
  8
寸法線
 62
     0
370
    -2
100
AcDbLine
 10
154.0063707839581
 20
914.3399995297425
 30
0.0
 11
154.0063707839581
 21
927.2957708956825
 31
0.0
  0
LINE
  5
6BCF
330
6BBD
100
AcDbEntity
  8
寸法線
 62
     0
370
    -2
100
AcDbLine
 10
154.0063707839581
 20
907.8399995297425
 30
0.0
 11
154.0063707839581
 21
911.3399995297426
 31
0.0
  0
INSERT
  5
6BD0
330
6BBD
100
AcDbEntity
  8
寸法線
 62
     0
370
    -2
100
AcDbBlockReference
  2
_Closed
 10
154.0063707839581
 20
907.8399995297425
 30
0.0
 41
3.0
 42
3.0
 43
3.0
 50
90.0
  0
INSERT
  5
6BD1
330
6BBD
100
AcDbEntity
  8
寸法線
 62
     0
370
    -2
100
AcDbBlockReference
  2
_Closed
 10
154.0063707839581
 20
911.3399995297426
 30
0.0
 41
3.0
 42
3.0
 43
3.0
 50
270.0
  0
MTEXT
  5
6BD2
330
6BBD
100
AcDbEntity
  8
寸法線
 62
     0
100
AcDbMText
 10
150.5058786579737
 20
922.3178852127125
 30
0.0
 40
5.0
 41
0.0
 71
     5
 72
     1
  1
2.5
  7
OKANO
 11
0.0000000000000001
 21
1.0
 31
0.0
 73
     1
 44
1.0
  0
POINT
  5
6BD3
330
6BBD
100
AcDbEntity
  8
Defpoints
 62
     0
100
AcDbPoint
 10
204.9454965241318
 20
907.8399995297425
 30
0.0
  0
POINT
  5
6BD4
330
6BBD
100
AcDbEntity
  8
Defpoints
 62
     0
100
AcDbPoint
 10
204.9454965241319
 20
911.3399995297426
 30
0.0
  0
POINT
  5
6BD5
330
6BBD
100
AcDbEntity
  8
Defpoints
 62
     0
100
AcDbPoint
 10
154.0063707839581
 20
911.3399995297426
 30
0.0
  0
ENDBLK
  5
6BCA
330
6BBD
100
AcDbEntity
  8
0
100
AcDbBlockEnd
  0
BLOCK
  5
6CDF
330
6CD5
100
AcDbEntity
  8
0
100
AcDbBlockBegin
  2
*D48
 70
     1
 10
0.0
 20
0.0
 30
0.0
  3
*D48
  1

  0
LINE
  5
6E67
330
6CD5
100
AcDbEntity
  8
寸法線
 62
     0
370
    -2
100
AcDbLine
 10
512.1580704178732
 20
703.3985795282116
 30
0.0
 11
512.1580704178732
 21
686.5162025725003
 31
0.0
  0
LINE
  5
6E68
330
6CD5
100
AcDbEntity
  8
寸法線
 62
     0
370
    -2
100
AcDbLine
 10
537.1580704178732
 20
703.3985795282116
 30
0.0
 11
537.1580704178732
 21
686.5162025725003
 31
0.0
  0
LINE
  5
6E69
330
6CD5
100
AcDbEntity
  8
寸法線
 62
     0
370
    -2
100
AcDbLine
 10
515.1580704178733
 20
689.5162025725003
 30
0.0
 11
534.1580704178733
 21
689.5162025725003
 31
0.0
  0
INSERT
  5
6E6A
330
6CD5
100
AcDbEntity
  8
寸法線
 62
     0
370
    -2
100
AcDbBlockReference
  2
_Closed
 10
512.1580704178732
 20
689.5162025725003
 30
0.0
 41
3.0
 42
3.0
 43
3.0
 50
180.0
  0
INSERT
  5
6E6B
330
6CD5
100
AcDbEntity
  8
寸法線
 62
     0
370
    -2
100
AcDbBlockReference
  2
_Closed
 10
537.1580704178732
 20
689.5162025725003
 30
0.0
 41
3.0
 42
3.0
 43
3.0
  0
MTEXT
  5
6E6C
330
6CD5
100
AcDbEntity
  8
寸法線
 62
     0
100
AcDbMText
 10
524.6580704178732
 20
693.0166946984845
 30
0.0
 40
5.0
 41
0.0
 71
     5
 72
     1
  1
25
  7
OKANO
 73
     1
 44
1.0
  0
POINT
  5
6E6D
330
6CD5
100
AcDbEntity
  8
Defpoints
 62
     0
100
AcDbPoint
 10
512.1580704178732
 20
705.3985795282117
 30
0.0
  0
POINT
  5
6E6E
330
6CD5
100
AcDbEntity
  8
Defpoints
 62
     0
100
AcDbPoint
 10
537.1580704178732
 20
705.3985795282117
 30
0.0
  0
POINT
  5
6E6F
330
6CD5
100
AcDbEntity
  8
Defpoints
 62
     0
100
AcDbPoint
 10
537.1580704178732
 20
689.5162025725003
 30
0.0
  0
ENDBLK
  5
6CE0
330
6CD5
100
AcDbEntity
  8
0
100
AcDbBlockEnd
  0
BLOCK
  5
6CEB
330
6CE1
100
AcDbEntity
  8
0
100
AcDbBlockBegin
  2
*D49
 70
     1
 10
0.0
 20
0.0
 30
0.0
  3
*D49
  1

  0
LINE
  5
6E5E
330
6CE1
100
AcDbEntity
  8
寸法線
 62
     0
370
    -2
100
AcDbLine
 10
201.9813678889439
 20
692.8985795282117
 30
0.0
 11
189.288353557985
 21
692.8985795282117
 31
0.0
  0
LINE
  5
6E5F
330
6CE1
100
AcDbEntity
  8
寸法線
 62
     0
370
    -2
100
AcDbLine
 10
201.9813678889439
 20
717.8985795282117
 30
0.0
 11
189.288353557985
 21
717.8985795282117
 31
0.0
  0
LINE
  5
6E60
330
6CE1
100
AcDbEntity
  8
寸法線
 62
     0
370
    -2
100
AcDbLine
 10
192.288353557985
 20
695.8985795282117
 30
0.0
 11
192.288353557985
 21
714.8985795282117
 31
0.0
  0
INSERT
  5
6E61
330
6CE1
100
AcDbEntity
  8
寸法線
 62
     0
370
    -2
100
AcDbBlockReference
  2
_Closed
 10
192.288353557985
 20
692.8985795282117
 30
0.0
 41
3.0
 42
3.0
 43
3.0
 50
270.0
  0
INSERT
  5
6E62
330
6CE1
100
AcDbEntity
  8
寸法線
 62
     0
370
    -2
100
AcDbBlockReference
  2
_Closed
 10
192.288353557985
 20
717.8985795282117
 30
0.0
 41
3.0
 42
3.0
 43
3.0
 50
90.0
  0
MTEXT
  5
6E63
330
6CE1
100
AcDbEntity
  8
寸法線
 62
     0
100
AcDbMText
 10
188.7878614320006
 20
705.3985795282117
 30
0.0
 40
5.0
 41
0.0
 71
     5
 72
     1
  1
25
  7
OKANO
 11
0.0000000000000001
 21
1.0
 31
0.0
 73
     1
 44
1.0
  0
POINT
  5
6E64
330
6CE1
100
AcDbEntity
  8
Defpoints
 62
     0
100
AcDbPoint
 10
203.9813678889439
 20
692.8985795282117
 30
0.0
  0
POINT
  5
6E65
330
6CE1
100
AcDbEntity
  8
Defpoints
 62
     0
100
AcDbPoint
 10
203.9813678889439
 20
717.8985795282117
 30
0.0
  0
POINT
  5
6E66
330
6CE1
100
AcDbEntity
  8
Defpoints
 62
     0
100
AcDbPoint
 10
192.288353557985
 20
717.8985795282117
 30
0.0
  0
ENDBLK
  5
6CEC
330
6CE1
100
AcDbEntity
  8
0
100
AcDbBlockEnd
  0
BLOCK
  5
6CF3
330
6CED
100
AcDbEntity
  8
0
100
AcDbBlockBegin
  2
*D50
 70
     1
 10
0.0
 20
0.0
 30
0.0
  3
*D50
  1

  0
LINE
  5
6E59
330
6CED
100
AcDbEntity
  8
寸法線
 62
     0
370
    -2
100
AcDbLine
 10
427.9837948304697
 20
738.5047633143265
 30
0.0
 11
412.8467733020751
 21
724.5606344686075
 31
0.0
  0
MTEXT
  5
6E5A
330
6CED
100
AcDbEntity
  8
寸法線
 62
     0
100
AcDbMText
 10
420.4799109240809
 20
736.3516121240669
 30
0.0
 40
5.0
 41
0.0
 71
     5
 72
     1
  1
24.5
  7
OKANO
 11
0.7354934010610301
 21
0.6775318863313215
 31
0.0
 73
     1
 44
1.0
  0
INSERT
  5
6E5B
330
6CED
100
AcDbEntity
  8
寸法線
 62
     0
370
    -2
100
AcDbBlockReference
  2
_Closed
 10
410.6402930988919
 20
722.5280388096136
 30
0.0
 41
3.0
 42
3.0
 43
3.0
 50
222.6510756946225
  0
POINT
  5
6E5C
330
6CED
100
AcDbEntity
  8
Defpoints
 62
     0
100
AcDbPoint
 10
410.6402930988919
 20
722.5280388096136
 30
0.0
  0
POINT
  5
6E5D
330
6CED
100
AcDbEntity
  8
Defpoints
 62
     0
100
AcDbPoint
 10
427.7623569657289
 20
738.3007761487223
 30
0.0
  0
ENDBLK
  5
6CF4
330
6CED
100
AcDbEntity
  8
0
100
AcDbBlockEnd
  0
BLOCK
  5
6CFF
330
6CF5
100
AcDbEntity
  8
0
100
AcDbBlockBegin
  2
*D51
 70
     1
 10
0.0
 20
0.0
 30
0.0
  3
*D51
  1

  0
LINE
  5
6E50
330
6CF5
100
AcDbEntity
  8
寸法線
 62
     0
370
    -2
100
AcDbLine
 10
430.118738577231
 20
715.2220407880959
 30
0.0
 11
486.3576938962752
 21
715.2220407880959
 31
0.0
  0
LINE
  5
6E51
330
6CF5
100
AcDbEntity
  8
寸法線
 62
     0
370
    -2
100
AcDbLine
 10
472.883700996429
 20
705.5576795931067
 30
0.0
 11
486.3576938962752
 21
705.5576795931067
 31
0.0
  0
LINE
  5
6E52
330
6CF5
100
AcDbEntity
  8
寸法線
 62
     0
370
    -2
100
AcDbLine
 10
483.3576938962752
 20
712.2220407880959
 30
0.0
 11
483.3576938962752
 21
708.5576795931067
 31
0.0
  0
INSERT
  5
6E53
330
6CF5
100
AcDbEntity
  8
寸法線
 62
     0
370
    -2
100
AcDbBlockReference
  2
_Closed
 10
483.3576938962752
 20
715.2220407880959
 30
0.0
 41
3.0
 42
3.0
 43
3.0
 50
90.0
  0
INSERT
  5
6E54
330
6CF5
100
AcDbEntity
  8
寸法線
 62
     0
370
    -2
100
AcDbBlockReference
  2
_Closed
 10
483.3576938962752
 20
705.5576795931067
 30
0.0
 41
3.0
 42
3.0
 43
3.0
 50
270.0
  0
MTEXT
  5
6E55
330
6CF5
100
AcDbEntity
  8
寸法線
 62
     0
100
AcDbMText
 10
479.8576938962751
 20
710.3898601906014
 30
0.0
 40
5.0
 41
0.0
 71
     5
 72
     1
  1
10
  7
OKANO
 11
0.0000000000000001
 21
1.0
 31
0.0
 73
     1
 44
1.0
  0
POINT
  5
6E56
330
6CF5
100
AcDbEntity
  8
Defpoints
 62
     0
100
AcDbPoint
 10
428.1187385772311
 20
715.2220407880959
 30
0.0
  0
POINT
  5
6E57
330
6CF5
100
AcDbEntity
  8
Defpoints
 62
     0
100
AcDbPoint
 10
470.883700996429
 20
705.5576795931067
 30
0.0
  0
POINT
  5
6E58
330
6CF5
100
AcDbEntity
  8
Defpoints
 62
     0
100
AcDbPoint
 10
483.3576938962752
 20
705.5576795931067
 30
0.0
  0
ENDBLK
  5
6D00
330
6CF5
100
AcDbEntity
  8
0
100
AcDbBlockEnd
  0
BLOCK
  5
6D0B
330
6D01
100
AcDbEntity
  8
0
100
AcDbBlockBegin
  2
*D52
 70
     1
 10
0.0
 20
0.0
 30
0.0
  3
*D52
  1

  0
LINE
  5
6E47
330
6D01
100
AcDbEntity
  8
寸法線
 62
     0
370
    -2
100
AcDbLine
 10
382.8842886960051
 20
705.2397425211831
 30
0.0
 11
366.8003332901236
 21
705.2397425211831
 31
0.0
  0
LINE
  5
6E48
330
6D01
100
AcDbEntity
  8
寸法線
 62
     0
370
    -2
100
AcDbLine
 10
402.8052528622498
 20
726.655267310268
 30
0.0
 11
366.8003332901236
 21
726.655267310268
 31
0.0
  0
LINE
  5
6E49
330
6D01
100
AcDbEntity
  8
寸法線
 62
     0
370
    -2
100
AcDbLine
 10
369.8003332901236
 20
708.239742521183
 30
0.0
 11
369.8003332901236
 21
723.6552673102679
 31
0.0
  0
INSERT
  5
6E4A
330
6D01
100
AcDbEntity
  8
寸法線
 62
     0
370
    -2
100
AcDbBlockReference
  2
_Closed
 10
369.8003332901236
 20
705.2397425211831
 30
0.0
 41
3.0
 42
3.0
 43
3.0
 50
270.0
  0
INSERT
  5
6E4B
330
6D01
100
AcDbEntity
  8
寸法線
 62
     0
370
    -2
100
AcDbBlockReference
  2
_Closed
 10
369.8003332901236
 20
726.655267310268
 30
0.0
 41
3.0
 42
3.0
 43
3.0
 50
90.0
  0
MTEXT
  5
6E4C
330
6D01
100
AcDbEntity
  8
寸法線
 62
     0
100
AcDbMText
 10
366.2998411641392
 20
715.9475049157256
 30
0.0
 40
5.0
 41
0.0
 71
     5
 72
     1
  1
21
  7
OKANO
 11
0.0000000000000001
 21
1.0
 31
0.0
 73
     1
 44
1.0
  0
POINT
  5
6E4D
330
6D01
100
AcDbEntity
  8
Defpoints
 62
     0
100
AcDbPoint
 10
384.8842886960051
 20
705.2397425211831
 30
0.0
  0
POINT
  5
6E4E
330
6D01
100
AcDbEntity
  8
Defpoints
 62
     0
100
AcDbPoint
 10
404.8052528622498
 20
726.655267310268
 30
0.0
  0
POINT
  5
6E4F
330
6D01
100
AcDbEntity
  8
Defpoints
 62
     0
100
AcDbPoint
 10
369.8003332901236
 20
726.655267310268
 30
0.0
  0
ENDBLK
  5
6D0C
330
6D01
100
AcDbEntity
  8
0
100
AcDbBlockEnd
  0
BLOCK
  5
6D17
330
6D0D
100
AcDbEntity
  8
0
100
AcDbBlockBegin
  2
*D53
 70
     1
 10
0.0
 20
0.0
 30
0.0
  3
*D53
  1

  0
LINE
  5
6E3E
330
6D0D
100
AcDbEntity
  8
寸法線
 62
     0
370
    -2
100
AcDbLine
 10
384.8842886960051
 20
703.239742521183
 30
0.0
 11
384.8842886960051
 21
678.2077073676628
 31
0.0
  0
LINE
  5
6E3F
330
6D0D
100
AcDbEntity
  8
寸法線
 62
     0
370
    -2
100
AcDbLine
 10
470.883700996429
 20
703.5576795931067
 30
0.0
 11
470.883700996429
 21
678.2077073676628
 31
0.0
  0
LINE
  5
6E40
330
6D0D
100
AcDbEntity
  8
寸法線
 62
     0
370
    -2
100
AcDbLine
 10
387.8842886960051
 20
681.2077073676627
 30
0.0
 11
467.883700996429
 21
681.2077073676627
 31
0.0
  0
INSERT
  5
6E41
330
6D0D
100
AcDbEntity
  8
寸法線
 62
     0
370
    -2
100
AcDbBlockReference
  2
_Closed
 10
384.8842886960051
 20
681.2077073676627
 30
0.0
 41
3.0
 42
3.0
 43
3.0
 50
180.0
  0
INSERT
  5
6E42
330
6D0D
100
AcDbEntity
  8
寸法線
 62
     0
370
    -2
100
AcDbBlockReference
  2
_Closed
 10
470.883700996429
 20
681.2077073676627
 30
0.0
 41
3.0
 42
3.0
 43
3.0
  0
MTEXT
  5
6E43
330
6D0D
100
AcDbEntity
  8
寸法線
 62
     0
100
AcDbMText
 10
427.883994846217
 20
684.7077073676627
 30
0.0
 40
5.0
 41
0.0
 71
     5
 72
     1
  1
86
  7
OKANO
 73
     1
 44
1.0
  0
POINT
  5
6E44
330
6D0D
100
AcDbEntity
  8
Defpoints
 62
     0
100
AcDbPoint
 10
384.8842886960051
 20
705.2397425211831
 30
0.0
  0
POINT
  5
6E45
330
6D0D
100
AcDbEntity
  8
Defpoints
 62
     0
100
AcDbPoint
 10
470.883700996429
 20
705.5576795931067
 30
0.0
  0
POINT
  5
6E46
330
6D0D
100
AcDbEntity
  8
Defpoints
 62
     0
100
AcDbPoint
 10
470.883700996429
 20
681.2077073676627
 30
0.0
  0
ENDBLK
  5
6D18
330
6D0D
100
AcDbEntity
  8
0
100
AcDbBlockEnd
  0
BLOCK
  5
6D23
330
6D19
100
AcDbEntity
  8
0
100
AcDbBlockBegin
  2
*D54
 70
     1
 10
0.0
 20
0.0
 30
0.0
  3
*D54
  1

  0
LINE
  5
6E35
330
6D19
100
AcDbEntity
  8
寸法線
 62
     0
370
    -2
100
AcDbLine
 10
535.6580344773369
 20
705.3985795282117
 30
0.0
 11
570.8920211597534
 21
705.3985795282117
 31
0.0
  0
LINE
  5
6E36
330
6D19
100
AcDbEntity
  8
寸法線
 62
     0
370
    -2
100
AcDbLine
 10
534.1580344773369
 20
726.3985795282117
 30
0.0
 11
570.8920211597534
 21
726.3985795282117
 31
0.0
  0
LINE
  5
6E37
330
6D19
100
AcDbEntity
  8
寸法線
 62
     0
370
    -2
100
AcDbLine
 10
567.8920211597534
 20
708.3985795282117
 30
0.0
 11
567.8920211597534
 21
723.3985795282117
 31
0.0
  0
INSERT
  5
6E38
330
6D19
100
AcDbEntity
  8
寸法線
 62
     0
370
    -2
100
AcDbBlockReference
  2
_Closed
 10
567.8920211597534
 20
705.3985795282117
 30
0.0
 41
3.0
 42
3.0
 43
3.0
 50
270.0
  0
INSERT
  5
6E39
330
6D19
100
AcDbEntity
  8
寸法線
 62
     0
370
    -2
100
AcDbBlockReference
  2
_Closed
 10
567.8920211597534
 20
726.3985795282117
 30
0.0
 41
3.0
 42
3.0
 43
3.0
 50
90.0
  0
MTEXT
  5
6E3A
330
6D19
100
AcDbEntity
  8
寸法線
 62
     0
100
AcDbMText
 10
564.391529033769
 20
715.8985795282118
 30
0.0
 40
5.0
 41
0.0
 71
     5
 72
     1
  1
21
  7
OKANO
 11
0.0000000000000001
 21
1.0
 31
0.0
 73
     1
 44
1.0
  0
POINT
  5
6E3B
330
6D19
100
AcDbEntity
  8
Defpoints
 62
     0
100
AcDbPoint
 10
533.6580344773369
 20
705.3985795282117
 30
0.0
  0
POINT
  5
6E3C
330
6D19
100
AcDbEntity
  8
Defpoints
 62
     0
100
AcDbPoint
 10
532.1580344773369
 20
726.3985795282117
 30
0.0
  0
POINT
  5
6E3D
330
6D19
100
AcDbEntity
  8
Defpoints
 62
     0
100
AcDbPoint
 10
567.8920211597534
 20
726.3985795282117
 30
0.0
  0
ENDBLK
  5
6D24
330
6D19
100
AcDbEntity
  8
0
100
AcDbBlockEnd
  0
BLOCK
  5
6D2F
330
6D25
100
AcDbEntity
  8
0
100
AcDbBlockBegin
  2
*D55
 70
     1
 10
0.0
 20
0.0
 30
0.0
  3
*D55
  1

  0
LINE
  5
6E2C
330
6D25
100
AcDbEntity
  8
寸法線
 62
     0
370
    -2
100
AcDbLine
 10
277.9813678889439
 20
700.8985795282117
 30
0.0
 11
313.9549535113743
 21
700.8985795282117
 31
0.0
  0
LINE
  5
6E2D
330
6D25
100
AcDbEntity
  8
寸法線
 62
     0
370
    -2
100
AcDbLine
 10
277.9813678889439
 20
709.8985795282117
 30
0.0
 11
313.9549535113743
 21
709.8985795282117
 31
0.0
  0
LINE
  5
6E2E
330
6D25
100
AcDbEntity
  8
寸法線
 62
     0
370
    -2
100
AcDbLine
 10
310.9549535113743
 20
703.8985795282116
 30
0.0
 11
310.9549535113743
 21
706.8985795282117
 31
0.0
  0
INSERT
  5
6E2F
330
6D25
100
AcDbEntity
  8
寸法線
 62
     0
370
    -2
100
AcDbBlockReference
  2
_Closed
 10
310.9549535113743
 20
700.8985795282117
 30
0.0
 41
3.0
 42
3.0
 43
3.0
 50
270.0
  0
INSERT
  5
6E30
330
6D25
100
AcDbEntity
  8
寸法線
 62
     0
370
    -2
100
AcDbBlockReference
  2
_Closed
 10
310.9549535113743
 20
709.8985795282117
 30
0.0
 41
3.0
 42
3.0
 43
3.0
 50
90.0
  0
MTEXT
  5
6E31
330
6D25
100
AcDbEntity
  8
寸法線
 62
     0
100
AcDbMText
 10
307.4549535113742
 20
705.3985795282118
 30
0.0
 40
5.0
 41
0.0
 71
     5
 72
     1
  1
9
  7
OKANO
 11
0.0000000000000001
 21
1.0
 31
0.0
 73
     1
 44
1.0
  0
POINT
  5
6E32
330
6D25
100
AcDbEntity
  8
Defpoints
 62
     0
100
AcDbPoint
 10
275.9813678889439
 20
700.8985795282117
 30
0.0
  0
POINT
  5
6E33
330
6D25
100
AcDbEntity
  8
Defpoints
 62
     0
100
AcDbPoint
 10
275.9813678889439
 20
709.8985795282117
 30
0.0
  0
POINT
  5
6E34
330
6D25
100
AcDbEntity
  8
Defpoints
 62
     0
100
AcDbPoint
 10
310.9549535113743
 20
709.8985795282117
 30
0.0
  0
ENDBLK
  5
6D30
330
6D25
100
AcDbEntity
  8
0
100
AcDbBlockEnd
  0
BLOCK
  5
6D3B
330
6D31
100
AcDbEntity
  8
0
100
AcDbBlockBegin
  2
*D56
 70
     1
 10
0.0
 20
0.0
 30
0.0
  3
*D56
  1

  0
LINE
  5
6E23
330
6D31
100
AcDbEntity
  8
寸法線
 62
     0
370
    -2
100
AcDbLine
 10
224.9813678889439
 20
703.3985795282116
 30
0.0
 11
224.9813678889439
 21
681.7471724086019
 31
0.0
  0
LINE
  5
6E24
330
6D31
100
AcDbEntity
  8
寸法線
 62
     0
370
    -2
100
AcDbLine
 10
210.9813678889439
 20
703.3985795282116
 30
0.0
 11
210.9813678889439
 21
681.7471724086019
 31
0.0
  0
LINE
  5
6E25
330
6D31
100
AcDbEntity
  8
寸法線
 62
     0
370
    -2
100
AcDbLine
 10
221.9813678889439
 20
684.747172408602
 30
0.0
 11
213.9813678889439
 21
684.747172408602
 31
0.0
  0
INSERT
  5
6E26
330
6D31
100
AcDbEntity
  8
寸法線
 62
     0
370
    -2
100
AcDbBlockReference
  2
_Closed
 10
224.9813678889439
 20
684.747172408602
 30
0.0
 41
3.0
 42
3.0
 43
3.0
  0
INSERT
  5
6E27
330
6D31
100
AcDbEntity
  8
寸法線
 62
     0
370
    -2
100
AcDbBlockReference
  2
_Closed
 10
210.9813678889439
 20
684.747172408602
 30
0.0
 41
3.0
 42
3.0
 43
3.0
 50
180.0
  0
MTEXT
  5
6E28
330
6D31
100
AcDbEntity
  8
寸法線
 62
     0
100
AcDbMText
 10
217.9813678889439
 20
688.2471724086019
 30
0.0
 40
5.0
 41
0.0
 71
     5
 72
     1
  1
14
  7
OKANO
 73
     1
 44
1.0
  0
POINT
  5
6E29
330
6D31
100
AcDbEntity
  8
Defpoints
 62
     0
100
AcDbPoint
 10
224.9813678889439
 20
705.3985795282117
 30
0.0
  0
POINT
  5
6E2A
330
6D31
100
AcDbEntity
  8
Defpoints
 62
     0
100
AcDbPoint
 10
210.9813678889439
 20
705.3985795282117
 30
0.0
  0
POINT
  5
6E2B
330
6D31
100
AcDbEntity
  8
Defpoints
 62
     0
100
AcDbPoint
 10
210.9813678889439
 20
684.747172408602
 30
0.0
  0
ENDBLK
  5
6D3C
330
6D31
100
AcDbEntity
  8
0
100
AcDbBlockEnd
  0
BLOCK
  5
6D47
330
6D3D
100
AcDbEntity
  8
0
100
AcDbBlockBegin
  2
*D57
 70
     1
 10
0.0
 20
0.0
 30
0.0
  3
*D57
  1

  0
LINE
  5
6E1A
330
6D3D
100
AcDbEntity
  8
寸法線
 62
     0
370
    -2
100
AcDbLine
 10
217.9813678889439
 20
717.3985795282117
 30
0.0
 11
217.9813678889439
 21
731.6752869754675
 31
0.0
  0
LINE
  5
6E1B
330
6D3D
100
AcDbEntity
  8
寸法線
 62
     0
370
    -2
100
AcDbLine
 10
275.9666731544376
 20
708.6249974416583
 30
0.0
 11
275.9666731544376
 21
731.6752869754675
 31
0.0
  0
LINE
  5
6E1C
330
6D3D
100
AcDbEntity
  8
寸法線
 62
     0
370
    -2
100
AcDbLine
 10
220.9813678889439
 20
728.6752869754675
 30
0.0
 11
272.9666731544376
 21
728.6752869754675
 31
0.0
  0
INSERT
  5
6E1D
330
6D3D
100
AcDbEntity
  8
寸法線
 62
     0
370
    -2
100
AcDbBlockReference
  2
_Closed
 10
217.9813678889439
 20
728.6752869754675
 30
0.0
 41
3.0
 42
3.0
 43
3.0
 50
180.0
  0
INSERT
  5
6E1E
330
6D3D
100
AcDbEntity
  8
寸法線
 62
     0
370
    -2
100
AcDbBlockReference
  2
_Closed
 10
275.9666731544376
 20
728.6752869754675
 30
0.0
 41
3.0
 42
3.0
 43
3.0
  0
MTEXT
  5
6E1F
330
6D3D
100
AcDbEntity
  8
寸法線
 62
     0
100
AcDbMText
 10
246.9740205216908
 20
734.6752869754675
 30
0.0
 40
10.0
 41
0.0
 71
     5
 72
     1
  1
60
  7
OKANO
 73
     1
 44
1.0
  0
POINT
  5
6E20
330
6D3D
100
AcDbEntity
  8
Defpoints
 62
     0
100
AcDbPoint
 10
217.9813678889439
 20
715.3985795282117
 30
0.0
  0
POINT
  5
6E21
330
6D3D
100
AcDbEntity
  8
Defpoints
 62
     0
100
AcDbPoint
 10
275.9666731544376
 20
706.6249974416583
 30
0.0
  0
POINT
  5
6E22
330
6D3D
100
AcDbEntity
  8
Defpoints
 62
     0
100
AcDbPoint
 10
275.9666731544376
 20
728.6752869754675
 30
0.0
  0
ENDBLK
  5
6D48
330
6D3D
100
AcDbEntity
  8
0
100
AcDbBlockEnd
  0
BLOCK
  5
6D55
330
6D49
100
AcDbEntity
  8
0
100
AcDbBlockBegin
  2
*D58
 70
     1
 10
0.0
 20
0.0
 30
0.0
  3
*D58
  1

  0
LINE
  5
6E70
330
6D49
100
AcDbEntity
  8
寸法線
 62
     0
370
    -2
100
AcDbLine
 10
534.1580344773369
 20
728.3985795282116
 30
0.0
 11
534.1580344773369
 21
742.7470480975171
 31
0.0
  0
LINE
  5
6E71
330
6D49
100
AcDbEntity
  8
寸法線
 62
     0
370
    -2
100
AcDbLine
 10
536.1580704178733
 20
727.3985795282117
 30
0.0
 11
536.1580704178733
 21
742.7470480975171
 31
0.0
  0
LINE
  5
6E72
330
6D49
100
AcDbEntity
  8
寸法線
 62
     0
370
    -2
100
AcDbLine
 10
531.158034477337
 20
739.7470480975171
 30
0.0
 11
528.1580344773369
 21
739.7470480975171
 31
0.0
  0
LINE
  5
6E73
330
6D49
100
AcDbEntity
  8
寸法線
 62
     0
370
    -2
100
AcDbLine
 10
539.1580704178733
 20
739.7470480975171
 30
0.0
 11
550.1760196103044
 21
739.7470480975171
 31
0.0
  0
LINE
  5
6E74
330
6D49
100
AcDbEntity
  8
寸法線
 62
     0
370
    -2
100
AcDbLine
 10
534.1580344773369
 20
739.7470480975171
 30
0.0
 11
536.1580704178733
 21
739.7470480975171
 31
0.0
  0
INSERT
  5
6E75
330
6D49
100
AcDbEntity
  8
寸法線
 62
     0
370
    -2
100
AcDbBlockReference
  2
_Closed
 10
534.1580344773369
 20
739.7470480975171
 30
0.0
 41
3.0
 42
3.0
 43
3.0
  0
INSERT
  5
6E76
330
6D49
100
AcDbEntity
  8
寸法線
 62
     0
370
    -2
100
AcDbBlockReference
  2
_Closed
 10
536.1580704178733
 20
739.7470480975171
 30
0.0
 41
3.0
 42
3.0
 43
3.0
 50
180.0
  0
MTEXT
  5
6E77
330
6D49
100
AcDbEntity
  8
寸法線
 62
     0
100
AcDbMText
 10
546.1670450140888
 20
743.2470480975171
 30
0.0
 40
5.0
 41
0.0
 71
     5
 72
     1
  1
1.5
  7
OKANO
 73
     1
 44
1.0
  0
POINT
  5
6E78
330
6D49
100
AcDbEntity
  8
Defpoints
 62
     0
100
AcDbPoint
 10
534.1580344773369
 20
726.3985795282117
 30
0.0
  0
POINT
  5
6E79
330
6D49
100
AcDbEntity
  8
Defpoints
 62
     0
100
AcDbPoint
 10
536.1580704178733
 20
725.3985795282117
 30
0.0
  0
POINT
  5
6E7A
330
6D49
100
AcDbEntity
  8
Defpoints
 62
     0
100
AcDbPoint
 10
536.1580704178733
 20
739.7470480975171
 30
0.0
  0
ENDBLK
  5
6D56
330
6D49
100
AcDbEntity
  8
0
100
AcDbBlockEnd
  0
BLOCK
  5
6EE2
330
6ED8
100
AcDbEntity
  8
0
100
AcDbBlockBegin
  2
*D59
 70
     1
 10
0.0
 20
0.0
 30
0.0
  3
*D59
  1

  0
LINE
  5
6EE4
330
6ED8
100
AcDbEntity
  8
寸法線
 62
     0
370
    -2
100
AcDbLine
 10
484.5669447118998
 20
913.0709360909532
 30
0.0
 11
484.5669447118998
 21
925.9633441181504
 31
0.0
  0
LINE
  5
6EE5
330
6ED8
100
AcDbEntity
  8
寸法線
 62
     0
370
    -2
100
AcDbLine
 10
524.3007271552924
 20
916.3399995297424
 30
0.0
 11
524.3007271552924
 21
925.9633441181504
 31
0.0
  0
LINE
  5
6EE6
330
6ED8
100
AcDbEntity
  8
寸法線
 62
     0
370
    -2
100
AcDbLine
 10
487.5669447118998
 20
922.9633441181503
 30
0.0
 11
521.3007271552924
 21
922.9633441181503
 31
0.0
  0
INSERT
  5
6EE7
330
6ED8
100
AcDbEntity
  8
寸法線
 62
     0
370
    -2
100
AcDbBlockReference
  2
_Closed
 10
484.5669447118998
 20
922.9633441181503
 30
0.0
 41
3.0
 42
3.0
 43
3.0
 50
180.0
  0
INSERT
  5
6EE8
330
6ED8
100
AcDbEntity
  8
寸法線
 62
     0
370
    -2
100
AcDbBlockReference
  2
_Closed
 10
524.3007271552924
 20
922.9633441181503
 30
0.0
 41
3.0
 42
3.0
 43
3.0
  0
MTEXT
  5
6EE9
330
6ED8
100
AcDbEntity
  8
寸法線
 62
     0
100
AcDbMText
 10
504.4338359335961
 20
926.4633441181503
 30
0.0
 40
5.0
 41
0.0
 71
     5
 72
     1
  1
40
  7
OKANO
 73
     1
 44
1.0
  0
POINT
  5
6EEA
330
6ED8
100
AcDbEntity
  8
Defpoints
 62
     0
100
AcDbPoint
 10
484.5669447118998
 20
911.0709360909531
 30
0.0
  0
POINT
  5
6EEB
330
6ED8
100
AcDbEntity
  8
Defpoints
 62
     0
100
AcDbPoint
 10
524.3007271552924
 20
914.3399995297425
 30
0.0
  0
POINT
  5
6EEC
330
6ED8
100
AcDbEntity
  8
Defpoints
 62
     0
100
AcDbPoint
 10
524.3007271552924
 20
922.9633441181503
 30
0.0
  0
ENDBLK
  5
6EE3
330
6ED8
100
AcDbEntity
  8
0
100
AcDbBlockEnd
  0
BLOCK
  5
6EF8
330
6EEE
100
AcDbEntity
  8
0
100
AcDbBlockBegin
  2
*D60
 70
     1
 10
0.0
 20
0.0
 30
0.0
  3
*D60
  1

  0
LINE
  5
6EEF
330
6EEE
100
AcDbEntity
  8
寸法線
 62
     0
370
    -2
100
AcDbLine
 10
297.8497733180993
 20
913.3399995297425
 30
0.0
 11
297.8497733180993
 21
928.3136076507217
 31
0.0
  0
LINE
  5
6EF0
330
6EEE
100
AcDbEntity
  8
寸法線
 62
     0
370
    -2
100
AcDbLine
 10
377.8497733180993
 20
913.3399995297425
 30
0.0
 11
377.8497733180993
 21
928.3136076507217
 31
0.0
  0
LINE
  5
6EF1
330
6EEE
100
AcDbEntity
  8
寸法線
 62
     0
370
    -2
100
AcDbLine
 10
300.8497733180993
 20
925.3136076507216
 30
0.0
 11
374.8497733180993
 21
925.3136076507216
 31
0.0
  0
INSERT
  5
6EF2
330
6EEE
100
AcDbEntity
  8
寸法線
 62
     0
370
    -2
100
AcDbBlockReference
  2
_Closed
 10
297.8497733180993
 20
925.3136076507216
 30
0.0
 41
3.0
 42
3.0
 43
3.0
 50
180.0
  0
INSERT
  5
6EF3
330
6EEE
100
AcDbEntity
  8
寸法線
 62
     0
370
    -2
100
AcDbBlockReference
  2
_Closed
 10
377.8497733180993
 20
925.3136076507216
 30
0.0
 41
3.0
 42
3.0
 43
3.0
  0
MTEXT
  5
6EF4
330
6EEE
100
AcDbEntity
  8
寸法線
 62
     0
100
AcDbMText
 10
337.8497733180993
 20
928.8136076507216
 30
0.0
 40
5.0
 41
0.0
 71
     5
 72
     1
  1
80
  7
OKANO
 73
     1
 44
1.0
  0
POINT
  5
6EF5
330
6EEE
100
AcDbEntity
  8
Defpoints
 62
     0
100
AcDbPoint
 10
297.8497733180993
 20
911.3399995297426
 30
0.0
  0
POINT
  5
6EF6
330
6EEE
100
AcDbEntity
  8
Defpoints
 62
     0
100
AcDbPoint
 10
377.8497733180993
 20
911.3399995297426
 30
0.0
  0
POINT
  5
6EF7
330
6EEE
100
AcDbEntity
  8
Defpoints
 62
     0
100
AcDbPoint
 10
377.8497733180993
 20
925.3136076507216
 30
0.0
  0
ENDBLK
  5
6EF9
330
6EEE
100
AcDbEntity
  8
0
100
AcDbBlockEnd
  0
ENDSEC
  0
SECTION
  2
ENTITIES
  0
XLINE
  5
4673
330
1F
100
AcDbEntity
  8
構築線
100
AcDbXline
 10
246.9454965241318
 20
144.7597868093781
 30
0.0
 11
0.0
 21
1.0
 31
0.0
  0
TEXT
  5
49EE
330
1F
100
AcDbEntity
  8
文字
100
AcDbText
 10
225.8306686455034
 20
878.9092019807505
 30
0.0
 40
5.0
  1
ソーラーパネル
 51
15.0
  7
OKANO
100
AcDbText
  0
CIRCLE
  5
51A8
330
1F
100
AcDbEntity
  8
太線
100
AcDbCircle
 10
636.6876921285085
 20
301.1453986766348
 30
0.0
 40
40025.0
  0
XLINE
  5
54CE
330
1F
100
AcDbEntity
  8
構築線
100
AcDbXline
 10
427.8125459663808
 20
415.2012174374958
 30
0.0
 11
0.0
 21
-1.0
 31
0.0
  0
LINE
  5
5641
330
1F
100
AcDbEntity
  8
破線
100
AcDbLine
 10
298.653843286389
 20
907.8399995297425
 30
0.0
 11
184.419597760593
 21
907.8399995297425
 31
0.0
  0
LINE
  5
5643
330
1F
100
AcDbEntity
  8
破線
100
AcDbLine
 10
184.419597760593
 20
866.7389790153087
 30
0.0
 11
298.653843286389
 21
866.7389790153087
 31
0.0
  0
LINE
  5
5644
330
1F
100
AcDbEntity
  8
破線
100
AcDbLine
 10
184.419597760593
 20
907.8399995297425
 30
0.0
 11
184.419597760593
 21
872.8399995297424
 31
0.0
  0
LINE
  5
5645
330
1F
100
AcDbEntity
  8
太線
100
AcDbLine
 10
204.9454965241318
 20
907.8399995297425
 30
0.0
 11
288.9454965241318
 21
907.8399995297425
 31
0.0
  0
LINE
  5
5646
330
1F
100
AcDbEntity
  8
太線
100
AcDbLine
 10
288.9454965241317
 20
911.3399995297426
 30
0.0
 11
204.9454965241319
 21
911.3399995297426
 31
0.0
  0
LINE
  5
5647
330
1F
100
AcDbEntity
  8
太線
100
AcDbLine
 10
203.9454965241318
 20
908.8399995297425
 30
0.0
 11
203.9454965241318
 21
910.3399995297424
 31
0.0
  0
LINE
  5
5648
330
1F
100
AcDbEntity
  8
太線
100
AcDbLine
 10
289.9454965241318
 20
908.8399995297425
 30
0.0
 11
289.9454965241318
 21
910.3399995297424
 31
0.0
  0
ARC
  5
5649
330
1F
100
AcDbEntity
  8
太線
100
AcDbCircle
 10
204.9454965241318
 20
908.8399995297425
 30
0.0
 40
1.0
100
AcDbArc
 50
180.0
 51
270.0
  0
ARC
  5
564A
330
1F
100
AcDbEntity
  8
太線
100
AcDbCircle
 10
288.9454965241318
 20
908.8399995297425
 30
0.0
 40
1.0
100
AcDbArc
 50
269.9999999999999
 51
0.0
  0
ARC
  5
564B
330
1F
100
AcDbEntity
  8
太線
100
AcDbCircle
 10
204.9454965241319
 20
910.3399995297424
 30
0.0
 40
1.0
100
AcDbArc
 50
90.00000000000003
 51
180.0
  0
ARC
  5
564C
330
1F
100
AcDbEntity
  8
太線
100
AcDbCircle
 10
288.9454965241317
 20
910.3399995297424
 30
0.0
 40
1.0
100
AcDbArc
 50
0.0
 51
90.00000000000003
  0
LINE
  5
564D
330
1F
100
AcDbEntity
  8
破線
100
AcDbLine
 10
210.9454965241318
 20
911.3399995297426
 30
0.0
 11
210.9454965241318
 21
907.8399995297425
 31
0.0
  0
LINE
  5
564E
330
1F
100
AcDbEntity
  8
破線
100
AcDbLine
 10
282.9454965241318
 20
907.8399995297425
 30
0.0
 11
282.9454965241318
 21
911.3399995297426
 31
0.0
  0
CIRCLE
  5
569D
330
1F
100
AcDbEntity
  8
破線
100
AcDbCircle
 10
246.9454965241318
 20
842.0948877401082
 30
0.0
 40
24.5
  0
LINE
  5
56FF
330
1F
100
AcDbEntity
  8
太線
100
AcDbLine
 10
279.9454965241318
 20
820.9824589612603
 30
0.0
 11
279.9454965241318
 21
866.7389790153087
 31
0.0
  0
LINE
  5
5700
330
1F
100
AcDbEntity
  8
太線
100
AcDbLine
 10
271.9454965241318
 20
866.7389790153087
 30
0.0
 11
271.9454965241318
 21
826.5766852093996
 31
0.0
  0
LINE
  5
5701
330
1F
100
AcDbEntity
  8
太線
100
AcDbLine
 10
221.9454965241318
 20
826.8717060127471
 30
0.0
 11
221.9454965241318
 21
866.7389790153087
 31
0.0
  0
LINE
  5
5702
330
1F
100
AcDbEntity
  8
太線
100
AcDbLine
 10
213.9454965241318
 20
866.7389790153087
 30
0.0
 11
213.9454965241318
 21
820.9824589612603
 31
0.0
  0
LINE
  5
5956
330
1F
100
AcDbEntity
  8
想像線
100
AcDbLine
 10
271.9454965241318
 20
907.8399995297425
 30
0.0
 11
271.9454965241318
 21
908.3399995297424
 31
0.0
  0
LINE
  5
5958
330
1F
100
AcDbEntity
  8
想像線
100
AcDbLine
 10
279.9454965241318
 20
907.8399995297425
 30
0.0
 11
279.9454965241318
 21
911.3399995297426
 31
0.0
  0
LINE
  5
5959
330
1F
100
AcDbEntity
  8
太線
100
AcDbLine
 10
279.9454965241318
 20
911.3399995297426
 30
0.0
 11
279.9454965241318
 21
913.3399995297423
 31
0.0
  0
LINE
  5
595A
330
1F
100
AcDbEntity
  8
太線
100
AcDbLine
 10
274.9454965241318
 20
918.3399995297424
 30
0.0
 11
269.9454965241318
 21
918.3399995297424
 31
0.0
  0
ARC
  5
595B
330
1F
100
AcDbEntity
  8
太線
100
AcDbCircle
 10
274.9454965241318
 20
913.3399995297423
 30
0.0
 40
5.0
100
AcDbArc
 50
0.0
 51
90.0
  0
ARC
  5
595D
330
1F
100
AcDbEntity
  8
想像線
100
AcDbCircle
 10
268.9454965241318
 20
908.3399995297424
 30
0.0
 40
3.0
100
AcDbArc
 50
0.0
 51
90.0
  0
ARC
  5
595E
330
1F
100
AcDbEntity
  8
太線
100
AcDbCircle
 10
218.9454965241318
 20
913.3399995297423
 30
0.0
 40
5.0
100
AcDbArc
 50
90.0
 51
180.0
  0
ARC
  5
595F
330
1F
100
AcDbEntity
  8
想像線
100
AcDbCircle
 10
224.9454965241318
 20
908.3399995297424
 30
0.0
 40
3.0
100
AcDbArc
 50
90.0
 51
180.0
  0
LINE
  5
5960
330
1F
100
AcDbEntity
  8
太線
100
AcDbLine
 10
218.9454965241318
 20
918.3399995297424
 30
0.0
 11
269.9454965241318
 21
918.3399995297424
 31
0.0
  0
LINE
  5
5961
330
1F
100
AcDbEntity
  8
太線
100
AcDbLine
 10
213.9454965241318
 20
913.3399995297423
 30
0.0
 11
213.9454965241318
 21
911.3399995297426
 31
0.0
  0
LINE
  5
5962
330
1F
100
AcDbEntity
  8
太線
100
AcDbLine
 10
224.9454965241318
 20
911.3399995297426
 30
0.0
 11
268.9454965241318
 21
911.3399995297426
 31
0.0
  0
LINE
  5
5963
330
1F
100
AcDbEntity
  8
想像線
100
AcDbLine
 10
221.9454965241318
 20
908.3399995297424
 30
0.0
 11
221.9454965241318
 21
907.8399995297424
 31
0.0
  0
LINE
  5
5964
330
1F
100
AcDbEntity
  8
想像線
100
AcDbLine
 10
213.9454965241318
 20
911.3399995297426
 30
0.0
 11
213.9454965241318
 21
907.8399995297425
 31
0.0
  0
LINE
  5
5965
330
1F
100
AcDbEntity
  8
想像線
100
AcDbLine
 10
213.9454965241318
 20
907.8399995297425
 30
0.0
 11
213.9454965241318
 21
866.7389790153086
 31
0.0
  0
LINE
  5
5966
330
1F
100
AcDbEntity
  8
想像線
100
AcDbLine
 10
221.9454965241318
 20
907.8399995297424
 30
0.0
 11
221.9454965241318
 21
866.7389790153086
 31
0.0
  0
LINE
  5
5967
330
1F
100
AcDbEntity
  8
想像線
100
AcDbLine
 10
271.9454965241318
 20
907.8399995297425
 30
0.0
 11
271.9454965241317
 21
866.7389790153086
 31
0.0
  0
LINE
  5
5968
330
1F
100
AcDbEntity
  8
想像線
100
AcDbLine
 10
279.9454965241318
 20
907.8399995297425
 30
0.0
 11
279.9454965241318
 21
866.7389790153086
 31
0.0
  0
LINE
  5
5BA5
330
1F
100
AcDbEntity
  8
太線
100
AcDbLine
 10
528.3007271552924
 20
821.0834794756941
 30
0.0
 11
528.3007271552924
 21
866.8399995297425
 31
0.0
  0
LINE
  5
5BA6
330
1F
100
AcDbEntity
  8
太線
100
AcDbLine
 10
520.3007271552924
 20
866.8399995297425
 30
0.0
 11
520.3007271552924
 21
821.0834794756941
 31
0.0
  0
LINE
  5
5BAC
330
1F
100
AcDbEntity
  8
太線
100
AcDbLine
 10
520.3007271552924
 20
907.9410200441763
 30
0.0
 11
520.3007271552924
 21
872.9410200441762
 31
0.0
  0
LINE
  5
5BAD
330
1F
100
AcDbEntity
  8
太線
100
AcDbLine
 10
528.3007271552924
 20
907.9410200441762
 30
0.0
 11
528.3007271552924
 21
865.6347793544776
 31
0.0
  0
ARC
  5
5BBF
330
1F
100
AcDbEntity
  8
太線
100
AcDbCircle
 10
524.3007271552924
 20
914.3399995297425
 30
0.0
 40
4.0
100
AcDbArc
 50
0.0
 51
180.0
  0
LINE
  5
5BC0
330
1F
100
AcDbEntity
  8
太線
100
AcDbLine
 10
528.3007271552924
 20
907.9410200441762
 30
0.0
 11
528.3007271552924
 21
908.3399995297424
 31
0.0
  0
LINE
  5
5BC1
330
1F
100
AcDbEntity
  8
太線
100
AcDbLine
 10
520.3007271552924
 20
907.9410200441763
 30
0.0
 11
520.3007271552924
 21
908.3399995297424
 31
0.0
  0
LINE
  5
5CC2
330
1F
100
AcDbEntity
  8
太線
100
AcDbLine
 10
504.3007271552924
 20
911.3399995297426
 30
0.0
 11
537.3007271552924
 21
911.3399995297426
 31
0.0
  0
LINE
  5
5CC3
330
1F
100
AcDbEntity
  8
太線
100
AcDbLine
 10
537.3007271552924
 20
911.3399995297426
 30
0.0
 11
537.3007271552924
 21
870.2389790153088
 31
0.0
  0
LINE
  5
5CC4
330
1F
100
AcDbEntity
  8
太線
100
AcDbLine
 10
537.3007271552924
 20
870.2389790153088
 30
0.0
 11
549.3007271552924
 21
870.2389790153088
 31
0.0
  0
LINE
  5
5CC5
330
1F
100
AcDbEntity
  8
太線
100
AcDbLine
 10
504.3007271552924
 20
908.3399995297424
 30
0.0
 11
534.3007271552924
 21
908.3399995297424
 31
0.0
  0
LINE
  5
5CC6
330
1F
100
AcDbEntity
  8
太線
100
AcDbLine
 10
534.3007271552924
 20
908.3399995297424
 30
0.0
 11
534.3007271552924
 21
867.2389790153088
 31
0.0
  0
LINE
  5
5CC7
330
1F
100
AcDbEntity
  8
太線
100
AcDbLine
 10
534.3007271552924
 20
867.2389790153086
 30
0.0
 11
549.3007271552924
 21
867.2389790153086
 31
0.0
  0
LINE
  5
5CC8
330
1F
100
AcDbEntity
  8
太線
100
AcDbLine
 10
549.3007271552924
 20
867.2389790153086
 30
0.0
 11
549.3007271552924
 21
870.2389790153088
 31
0.0
  0
LINE
  5
5CFA
330
1F
100
AcDbEntity
  8
寸法線
100
AcDbLine
 10
534.3007271552924
 20
867.2389790153086
 30
0.0
 11
549.3007271552924
 21
867.2389790153086
 31
0.0
  0
TEXT
  5
5D62
330
1F
100
AcDbEntity
  8
文字
100
AcDbText
 10
1046.206962600699
 20
1521.405617238604
 30
0.0
 40
5.0
  1
31-1U-20
 51
15.0
  7
OKANO
100
AcDbText
  0
TEXT
  5
5D65
330
1F
100
AcDbEntity
  8
文字
100
AcDbText
 10
490.3915501392329
 20
756.795957608214
 30
0.0
 40
5.0
  1
Ｍ8
 51
15.0
  7
OKANO
100
AcDbText
  0
XLINE
  5
5D7F
330
1F
100
AcDbEntity
  8
構築線
100
AcDbXline
 10
140.7799199748551
 20
977.1263675188819
 30
0.0
 11
1.0
 21
0.0
 31
0.0
  0
XLINE
  5
5D80
330
1F
100
AcDbEntity
  8
構築線
100
AcDbXline
 10
503.6122662302566
 20
705.3985795282117
 30
0.0
 11
1.0
 21
0.0
 31
0.0
  0
TEXT
  5
5DAB
330
1F
100
AcDbEntity
  8
文字
100
AcDbText
 10
399.3444736598176
 20
1032.475187404168
 30
0.0
 40
10.0
  1
30-ＱＳ-40-40
 51
15.0
  7
OKANO
100
AcDbText
  0
TEXT
  5
5DEB
330
1F
100
AcDbEntity
  8
文字
100
AcDbText
 10
189.7979518363135
 20
1033.857388384145
 30
0.0
 40
10.0
  1
30-ＱＷ-40-40
 51
15.0
  7
OKANO
100
AcDbText
  0
LINE
  5
5F4A
330
1F
100
AcDbEntity
  8
太線
100
AcDbLine
 10
317.3104485687515
 20
911.3399995297426
 30
0.0
 11
350.3104485687515
 21
911.3399995297426
 31
0.0
  0
ARC
  5
5F4E
330
1F
100
AcDbEntity
  8
太線
100
AcDbCircle
 10
337.3104485687515
 20
914.3399995297425
 30
0.0
 40
4.0
100
AcDbArc
 50
0.0
 51
180.0
  0
LINE
  5
5F59
330
1F
100
AcDbEntity
  8
太線
100
AcDbLine
 10
341.3104485687515
 20
907.9410200441762
 30
0.0
 11
341.3104485687515
 21
872.9410200441762
 31
0.0
  0
LINE
  5
5F5A
330
1F
100
AcDbEntity
  8
太線
100
AcDbLine
 10
333.3104485687515
 20
907.9410200441763
 30
0.0
 11
333.3104485687515
 21
865.6347793544775
 31
0.0
  0
LINE
  5
5F5B
330
1F
100
AcDbEntity
  8
太線
100
AcDbLine
 10
333.3104485687515
 20
866.8399995297425
 30
0.0
 11
333.3104485687515
 21
817.2389790153086
 31
0.0
  0
LINE
  5
5F5C
330
1F
100
AcDbEntity
  8
太線
100
AcDbLine
 10
341.3104485687515
 20
817.2389790153086
 30
0.0
 11
341.3104485687515
 21
866.8399995297425
 31
0.0
  0
LINE
  5
5F7E
330
1F
100
AcDbEntity
  8
太線
100
AcDbLine
 10
350.3104485687515
 20
911.3399995297426
 30
0.0
 11
357.3104485687515
 21
911.3399995297426
 31
0.0
  0
LINE
  5
5F83
330
1F
100
AcDbEntity
  8
太線
100
AcDbLine
 10
341.3104485687515
 20
911.3399995297426
 30
0.0
 11
341.3104485687515
 21
914.3399995297425
 31
0.0
  0
LINE
  5
5F84
330
1F
100
AcDbEntity
  8
太線
100
AcDbLine
 10
333.3104485687515
 20
911.3399995297426
 30
0.0
 11
333.3104485687515
 21
914.3399995297425
 31
0.0
  0
LINE
  5
5F85
330
1F
100
AcDbEntity
  8
太線
100
AcDbLine
 10
520.3007271552924
 20
911.3399995297426
 30
0.0
 11
520.3007271552924
 21
914.3399995297425
 31
0.0
  0
LINE
  5
5F86
330
1F
100
AcDbEntity
  8
太線
100
AcDbLine
 10
528.3007271552924
 20
911.3399995297426
 30
0.0
 11
528.3007271552924
 21
914.3399995297425
 31
0.0
  0
LINE
  5
5F8B
330
1F
100
AcDbEntity
  8
破線
100
AcDbLine
 10
331.3157000102219
 20
908.3399995297424
 30
0.0
 11
331.3157000102219
 21
865.6347793544775
 31
0.0
  0
LINE
  5
5F8E
330
1F
100
AcDbEntity
  8
破線
100
AcDbLine
 10
518.1183516110177
 20
908.3399995297424
 30
0.0
 11
518.1183516110177
 21
867.2389790153086
 31
0.0
  0
LINE
  5
5F8F
330
1F
100
AcDbEntity
  8
破線
100
AcDbLine
 10
518.1183516110177
 20
867.2389790153086
 30
0.0
 11
336.209529763495
 21
867.2389790153086
 31
0.0
  0
LINE
  5
5F90
330
1F
100
AcDbEntity
  8
破線
100
AcDbLine
 10
343.5744818081147
 20
867.2389790153086
 30
0.0
 11
343.5744818081147
 21
908.3399995297424
 31
0.0
  0
TEXT
  5
5F92
330
1F
100
AcDbEntity
  8
文字
100
AcDbText
 10
371.874284496007
 20
932.3056882553792
 30
0.0
 40
5.0
  1
Φ7
 51
15.0
  7
OKANO
100
AcDbText
  0
LINE
  5
5FB6
330
1F
100
AcDbEntity
  8
想像線
100
AcDbLine
 10
460.8125459663808
 20
820.9824589612603
 30
0.0
 11
460.8125459663808
 21
819.2781896900958
 31
0.0
  0
LINE
  5
5FC4
330
1F
100
AcDbEntity
  8
想像線
100
AcDbLine
 10
460.8125459663808
 20
907.8399995297425
 30
0.0
 11
460.8125459663808
 21
867.2389790153086
 31
0.0
  0
LINE
  5
5FC5
330
1F
100
AcDbEntity
  8
想像線
100
AcDbLine
 10
452.8125459663808
 20
907.8399995297425
 30
0.0
 11
452.8125459663808
 21
867.2389790153086
 31
0.0
  0
LINE
  5
5FC6
330
1F
100
AcDbEntity
  8
想像線
100
AcDbLine
 10
402.8125459663808
 20
907.8399995297424
 30
0.0
 11
402.8125459663808
 21
867.2389790153086
 31
0.0
  0
LINE
  5
5FC7
330
1F
100
AcDbEntity
  8
想像線
100
AcDbLine
 10
394.8125459663808
 20
907.8399995297425
 30
0.0
 11
394.8125459663808
 21
867.2389790153086
 31
0.0
  0
LINE
  5
5FC8
330
1F
100
AcDbEntity
  8
想像線
100
AcDbLine
 10
394.8125459663808
 20
911.3399995297426
 30
0.0
 11
394.8125459663808
 21
907.8399995297425
 31
0.0
  0
LINE
  5
5FC9
330
1F
100
AcDbEntity
  8
想像線
100
AcDbLine
 10
402.8125459663808
 20
908.3399995297424
 30
0.0
 11
402.8125459663808
 21
907.8399995297424
 31
0.0
  0
LINE
  5
5FCA
330
1F
100
AcDbEntity
  8
太線
100
AcDbLine
 10
405.8125459663808
 20
911.3399995297426
 30
0.0
 11
449.8125459663809
 21
911.3399995297426
 31
0.0
  0
LINE
  5
5FCB
330
1F
100
AcDbEntity
  8
太線
100
AcDbLine
 10
394.8125459663808
 20
913.3399995297423
 30
0.0
 11
394.8125459663808
 21
911.3399995297426
 31
0.0
  0
LINE
  5
5FCC
330
1F
100
AcDbEntity
  8
太線
100
AcDbLine
 10
399.8125459663808
 20
918.3399995297424
 30
0.0
 11
450.8125459663808
 21
918.3399995297424
 31
0.0
  0
ARC
  5
5FCD
330
1F
100
AcDbEntity
  8
想像線
100
AcDbCircle
 10
405.8125459663808
 20
908.3399995297424
 30
0.0
 40
3.0
100
AcDbArc
 50
90.0
 51
180.0
  0
ARC
  5
5FCE
330
1F
100
AcDbEntity
  8
太線
100
AcDbCircle
 10
399.8125459663808
 20
913.3399995297423
 30
0.0
 40
5.0
100
AcDbArc
 50
90.0
 51
180.0
  0
ARC
  5
5FCF
330
1F
100
AcDbEntity
  8
想像線
100
AcDbCircle
 10
449.8125459663809
 20
908.3399995297424
 30
0.0
 40
3.0
100
AcDbArc
 50
0.0
 51
90.0
  0
ARC
  5
5FD0
330
1F
100
AcDbEntity
  8
太線
100
AcDbCircle
 10
455.8125459663808
 20
913.3399995297423
 30
0.0
 40
5.0
100
AcDbArc
 50
0.0
 51
90.0
  0
LINE
  5
5FD1
330
1F
100
AcDbEntity
  8
太線
100
AcDbLine
 10
455.8125459663808
 20
918.3399995297424
 30
0.0
 11
450.8125459663808
 21
918.3399995297424
 31
0.0
  0
LINE
  5
5FD2
330
1F
100
AcDbEntity
  8
太線
100
AcDbLine
 10
460.8125459663808
 20
911.3399995297426
 30
0.0
 11
460.8125459663808
 21
913.3399995297423
 31
0.0
  0
LINE
  5
5FD3
330
1F
100
AcDbEntity
  8
想像線
100
AcDbLine
 10
460.8125459663808
 20
907.8399995297425
 30
0.0
 11
460.8125459663808
 21
911.3399995297426
 31
0.0
  0
LINE
  5
5FD4
330
1F
100
AcDbEntity
  8
想像線
100
AcDbLine
 10
452.8125459663808
 20
907.8399995297425
 30
0.0
 11
452.8125459663808
 21
908.3399995297424
 31
0.0
  0
DIMENSION
  5
5FD5
330
1F
100
AcDbEntity
  8
寸法線
100
AcDbDimension
  2
*D2
 10
398.8125459663809
 20
781.786471901527
 30
0.0
 11
427.8125459663808
 21
785.286471901527
 31
0.0
 70
    32
  1
60
 71
     5
 42
58.0
  3
sunpo
100
AcDbAlignedDimension
 13
456.8125459663808
 23
792.7389790153086
 33
0.0
 14
398.8125459663809
 24
792.7389790153086
 34
0.0
100
AcDbRotatedDimension
1001
ACAD
1000
DSTYLE
1002
{
1070
    40
1040
1.0
1002
}
  0
LINE
  5
5FD6
330
1F
100
AcDbEntity
  8
細線
100
AcDbLine
 10
460.8125459663808
 20
793.2389790153087
 30
0.0
 11
461.3125459663808
 21
794.2389790153087
 31
0.0
  0
LINE
  5
5FD7
330
1F
100
AcDbEntity
  8
細線
100
AcDbLine
 10
452.3125459663808
 20
794.2389790153087
 30
0.0
 11
452.8125459663808
 21
793.2389790153087
 31
0.0
  0
LINE
  5
5FD8
330
1F
100
AcDbEntity
  8
太線
100
AcDbLine
 10
460.8125459663808
 20
793.2389790153087
 30
0.0
 11
452.8125459663808
 21
793.2389790153087
 31
0.0
  0
LINE
  5
5FDB
330
1F
100
AcDbEntity
  8
太線
100
AcDbLine
 10
452.8125459663808
 20
866.7389790153087
 30
0.0
 11
452.8125459663808
 21
826.5766852093999
 31
0.0
  0
LINE
  5
5FDC
330
1F
100
AcDbEntity
  8
太線
100
AcDbLine
 10
460.8125459663808
 20
820.9824589612603
 30
0.0
 11
460.8125459663808
 21
866.7389790153087
 31
0.0
  0
LINE
  5
5FE2
330
1F
100
AcDbEntity
  8
太線
100
AcDbLine
 10
452.3125459663809
 20
827.0328411793562
 30
0.0
 11
452.3125459663808
 21
831.5985067487128
 31
0.0
  0
LINE
  5
5FE3
330
1F
100
AcDbEntity
  8
細線
100
AcDbLine
 10
452.3125459663808
 20
831.5985067487128
 30
0.0
 11
452.8125459663808
 21
833.5985067487127
 31
0.0
  0
LINE
  5
5FE4
330
1F
100
AcDbEntity
  8
太線
100
AcDbLine
 10
452.8125459663808
 20
833.5985067487127
 30
0.0
 11
460.8125459663808
 21
833.5985067487127
 31
0.0
  0
LINE
  5
5FE5
330
1F
100
AcDbEntity
  8
細線
100
AcDbLine
 10
460.8125459663808
 20
833.5985067487127
 30
0.0
 11
461.3125459663808
 21
831.5985067487128
 31
0.0
  0
LINE
  5
5FE6
330
1F
100
AcDbEntity
  8
太線
100
AcDbLine
 10
461.3125459663808
 20
831.598506748713
 30
0.0
 11
461.3125459663808
 21
818.8220337201393
 31
0.0
  0
LINE
  5
5FE8
330
1F
100
AcDbEntity
  8
太線
100
AcDbLine
 10
452.8125459663808
 20
794.2389790153087
 30
0.0
 11
452.8125459663809
 21
800.0793883626078
 31
0.0
  0
LINE
  5
5FE9
330
1F
100
AcDbEntity
  8
太線
100
AcDbLine
 10
460.8125459663808
 20
794.2389790153087
 30
0.0
 11
460.8125459663808
 21
800.0793883626078
 31
0.0
  0
LINE
  5
5FEC
330
1F
100
AcDbEntity
  8
細線
100
AcDbLine
 10
452.3125459663808
 20
794.2389790153088
 30
0.0
 11
452.3125459663808
 21
800.0793883626078
 31
0.0
  0
LINE
  5
5FED
330
1F
100
AcDbEntity
  8
細線
100
AcDbLine
 10
461.3125459663808
 20
794.2389790153088
 30
0.0
 11
461.3125459663808
 21
800.0793883626078
 31
0.0
  0
LINE
  5
5FEE
330
1F
100
AcDbEntity
  8
細線
100
AcDbLine
 10
452.3125459663808
 20
794.2389790153087
 30
0.0
 11
461.3125459663808
 21
794.2389790153087
 31
0.0
  0
ARC
  5
5FF0
330
1F
100
AcDbEntity
  8
太線
100
AcDbCircle
 10
427.8125459663808
 20
840.3745852086878
 30
0.0
 40
23.2796974685795
100
AcDbArc
 50
210.7486871587841
 51
329.2513128412158
  0
CIRCLE
  5
5FFE
330
1F
100
AcDbEntity
  8
破線
100
AcDbCircle
 10
427.8125459663808
 20
842.0948877401082
 30
0.0
 40
24.5
  0
LINE
  5
5FFF
330
1F
100
AcDbEntity
  8
破線
100
AcDbLine
 10
463.8125459663808
 20
907.8399995297425
 30
0.0
 11
463.8125459663808
 21
911.3399995297426
 31
0.0
  0
LINE
  5
6000
330
1F
100
AcDbEntity
  8
破線
100
AcDbLine
 10
391.8125459663808
 20
911.3399995297426
 30
0.0
 11
391.8125459663808
 21
907.8399995297425
 31
0.0
  0
ARC
  5
6001
330
1F
100
AcDbEntity
  8
太線
100
AcDbCircle
 10
469.8125459663808
 20
910.3399995297424
 30
0.0
 40
1.0
100
AcDbArc
 50
0.0
 51
90.00000000000003
  0
ARC
  5
6002
330
1F
100
AcDbEntity
  8
太線
100
AcDbCircle
 10
385.8125459663809
 20
910.3399995297424
 30
0.0
 40
1.0
100
AcDbArc
 50
90.00000000000003
 51
180.0
  0
ARC
  5
6003
330
1F
100
AcDbEntity
  8
太線
100
AcDbCircle
 10
469.8125459663808
 20
908.8399995297425
 30
0.0
 40
1.0
100
AcDbArc
 50
269.9999999999999
 51
0.0
  0
ARC
  5
6004
330
1F
100
AcDbEntity
  8
太線
100
AcDbCircle
 10
385.8125459663808
 20
908.8399995297425
 30
0.0
 40
1.0
100
AcDbArc
 50
180.0
 51
270.0
  0
LINE
  5
6005
330
1F
100
AcDbEntity
  8
太線
100
AcDbLine
 10
470.8125459663809
 20
908.8399995297425
 30
0.0
 11
470.8125459663808
 21
910.3399995297424
 31
0.0
  0
LINE
  5
6006
330
1F
100
AcDbEntity
  8
太線
100
AcDbLine
 10
384.8125459663808
 20
908.8399995297425
 30
0.0
 11
384.8125459663809
 21
910.3399995297424
 31
0.0
  0
LINE
  5
6007
330
1F
100
AcDbEntity
  8
太線
100
AcDbLine
 10
469.8125459663808
 20
911.3399995297426
 30
0.0
 11
385.8125459663809
 21
911.3399995297426
 31
0.0
  0
LINE
  5
6008
330
1F
100
AcDbEntity
  8
太線
100
AcDbLine
 10
385.8125459663808
 20
907.8399995297425
 30
0.0
 11
469.8125459663808
 21
907.8399995297425
 31
0.0
  0
TEXT
  5
6009
330
1F
100
AcDbEntity
  8
文字
100
AcDbText
 10
408.8610305055567
 20
878.9092019807505
 30
0.0
 40
5.0
  1
ソーラーパネル
 51
15.0
  7
OKANO
100
AcDbText
  0
LEADER
  5
601F
330
1F
100
AcDbEntity
  8
寸法線
100
AcDbLeader
  3
sunpo
 76
     2
 10
413.3175682372529
 20
916.0901745471056
 30
0.0
 10
380.8537352411658
 20
929.8913096827455
 30
0.0
1001
ACAD
1000
DSTYLE
1002
{
1070
   147
1040
1.0
1070
    77
1070
     0
1002
}
  0
LEADER
  5
6020
330
1F
100
AcDbEntity
  8
寸法線
100
AcDbLeader
  3
sunpo
 76
     2
 10
457.9320732163032
 20
798.3555502347955
 30
0.0
 10
487.7988946142722
 20
761.7615183564268
 30
0.0
1001
ACAD
1000
DSTYLE
1002
{
1070
   147
1040
1.0
1070
    77
1070
     0
1002
}
  0
LINE
  5
6054
330
1F
100
AcDbEntity
  8
太線
100
AcDbLine
 10
534.3007271552924
 20
825.4722952722044
 30
0.0
 11
534.3007271552924
 21
825.4722952722044
 31
0.0
  0
LINE
  5
6056
330
1F
100
AcDbEntity
  8
構築線
100
AcDbLine
 10
534.3007271552924
 20
825.4722952722044
 30
0.0
 11
534.3007271552924
 21
828.4722952722045
 31
0.0
  0
LINE
  5
6058
330
1F
100
AcDbEntity
  8
想像線
100
AcDbLine
 10
520.5183353985777
 20
799.6082596747862
 30
0.0
 11
520.5183353985776
 21
795.2092801892197
 31
0.0
  0
LINE
  5
6059
330
1F
100
AcDbEntity
  8
太線
100
AcDbLine
 10
520.5183353985777
 20
799.6082596747862
 30
0.0
 11
520.5183353985776
 21
795.2092801892197
 31
0.0
  0
LINE
  5
605D
330
1F
100
AcDbEntity
  8
細線
100
AcDbLine
 10
528.5183353985776
 20
794.2092801892195
 30
0.0
 11
529.0183353985776
 21
795.2092801892196
 31
0.0
  0
LINE
  5
605E
330
1F
100
AcDbEntity
  8
細線
100
AcDbLine
 10
520.0183353985776
 20
795.2092801892196
 30
0.0
 11
520.5183353985776
 21
794.2092801892195
 31
0.0
  0
LINE
  5
605F
330
1F
100
AcDbEntity
  8
太線
100
AcDbLine
 10
528.5183353985776
 20
794.2092801892195
 30
0.0
 11
520.5183353985776
 21
794.2092801892195
 31
0.0
  0
LINE
  5
6060
330
1F
100
AcDbEntity
  8
太線
100
AcDbLine
 10
520.0183353985776
 20
795.2092801892196
 30
0.0
 11
529.0183353985776
 21
795.2092801892196
 31
0.0
  0
LINE
  5
6061
330
1F
100
AcDbEntity
  8
太線
100
AcDbLine
 10
529.0183353985776
 20
795.2092801892198
 30
0.0
 11
529.0183353985776
 21
799.6082596747862
 31
0.0
  0
LINE
  5
6062
330
1F
100
AcDbEntity
  8
太線
100
AcDbLine
 10
520.0183353985776
 20
795.2092801892197
 30
0.0
 11
520.0183353985776
 21
799.6082596747862
 31
0.0
  0
LINE
  5
6063
330
1F
100
AcDbEntity
  8
太線
100
AcDbLine
 10
528.5183353985776
 20
795.2092801892197
 30
0.0
 11
528.5183353985776
 21
799.6082596747862
 31
0.0
  0
LINE
  5
6064
330
1F
100
AcDbEntity
  8
太線
100
AcDbLine
 10
519.8007271552923
 20
831.6995272631466
 30
0.0
 11
519.8007271552923
 21
817.2389790153086
 31
0.0
  0
LINE
  5
6065
330
1F
100
AcDbEntity
  8
細線
100
AcDbLine
 10
520.3007271552924
 20
833.6995272631465
 30
0.0
 11
519.8007271552923
 21
831.6995272631466
 31
0.0
  0
LINE
  5
6066
330
1F
100
AcDbEntity
  8
太線
100
AcDbLine
 10
528.3007271552924
 20
833.6995272631465
 30
0.0
 11
520.3007271552924
 21
833.6995272631465
 31
0.0
  0
LINE
  5
6067
330
1F
100
AcDbEntity
  8
太線
100
AcDbLine
 10
528.8007271552924
 20
831.6995272631466
 30
0.0
 11
528.3007271552924
 21
833.6995272631465
 31
0.0
  0
LINE
  5
6068
330
1F
100
AcDbEntity
  8
太線
100
AcDbLine
 10
528.8007271552926
 20
817.2389790153086
 30
0.0
 11
528.8007271552924
 21
831.6995272631467
 31
0.0
  0
LINE
  5
6069
330
1F
100
AcDbEntity
  8
太線
100
AcDbLine
 10
520.3007271552924
 20
833.6995272631465
 30
0.0
 11
520.3007271552924
 21
828.4722952722045
 31
0.0
  0
LINE
  5
606A
330
1F
100
AcDbEntity
  8
想像線
100
AcDbLine
 10
520.3007271552924
 20
833.6995272631465
 30
0.0
 11
520.3007271552924
 21
828.4722952722045
 31
0.0
  0
LINE
  5
606F
330
1F
100
AcDbEntity
  8
破線
100
AcDbLine
 10
325.3856446829114
 20
817.2389790153086
 30
0.0
 11
306.0187953310087
 21
817.2389790153086
 31
0.0
  0
LINE
  5
6071
330
1F
100
AcDbEntity
  8
破線
100
AcDbLine
 10
331.3157000102219
 20
867.2389790153086
 30
0.0
 11
306.0187953310087
 21
867.2389790153086
 31
0.0
  0
LINE
  5
6073
330
1F
100
AcDbEntity
  8
破線
100
AcDbLine
 10
306.0187953310087
 20
865.6347793544775
 30
0.0
 11
333.3104485687515
 21
865.6347793544775
 31
0.0
  0
LINE
  5
6074
330
1F
100
AcDbEntity
  8
破線
100
AcDbLine
 10
341.3104485687515
 20
865.6347793544775
 30
0.0
 11
381.7582348290016
 21
865.6347793544775
 31
0.0
  0
LINE
  5
6075
330
1F
100
AcDbEntity
  8
破線
100
AcDbLine
 10
350.3856446829114
 20
817.2389790153086
 30
0.0
 11
381.7582348290016
 21
817.2389790153086
 31
0.0
  0
ARC
  5
6076
330
1F
100
AcDbEntity
  8
破線
100
AcDbCircle
 10
335.9820742384816
 20
829.2027130205067
 30
0.0
 40
32.26343153221832
100
AcDbArc
 50
159.0805330045533
 51
201.7658311696099
  0
ARC
  5
6077
330
1F
100
AcDbEntity
  8
破線
100
AcDbCircle
 10
294.4818542196147
 20
853.1417714409096
 30
0.0
 40
17.00518323736129
100
AcDbArc
 50
311.3418335518356
 51
47.27839501028782
  0
ARC
  5
6078
330
1F
100
AcDbEntity
  8
破線
100
AcDbCircle
 10
326.5511510582214
 20
852.7556135189097
 30
0.0
 40
24.23737907301136
100
AcDbArc
 50
147.9015151908757
 51
210.7187133712467
  0
ARC
  5
6079
330
1F
100
AcDbEntity
  8
破線
100
AcDbCircle
 10
325.8629261855919
 20
851.6972993035748
 30
0.0
 40
21.08650945674944
100
AcDbArc
 50
148.1400720497831
 51
205.9293802481058
  0
ARC
  5
607A
330
1F
100
AcDbEntity
  8
破線
100
AcDbCircle
 10
371.3922893863361
 20
853.0046822815826
 30
0.0
 40
16.33928324594025
100
AcDbArc
 50
309.3768775352742
 51
50.62312246472567
  0
ARC
  5
607B
330
1F
100
AcDbEntity
  8
破線
100
AcDbCircle
 10
391.6243417645267
 20
828.8067821119982
 30
0.0
 40
15.2037539623278
100
AcDbArc
 50
130.4606543981836
 51
229.5393456018163
  0
ARC
  5
607C
330
1F
100
AcDbEntity
  8
破線
100
AcDbCircle
 10
369.284217959127
 20
828.8067821119984
 30
0.0
 40
17.0122063634821
100
AcDbArc
 50
317.1586408826422
 51
42.84135911735722
  0
ARC
  5
607D
330
1F
100
AcDbEntity
  8
破線
100
AcDbCircle
 10
368.6862080776642
 20
829.183201001361
 30
0.0
 40
15.25296799368536
100
AcDbArc
 50
319.7068012469318
 51
38.20768649586063
  0
LINE
  5
6095
330
1F
100
AcDbEntity
  8
破線
100
AcDbLine
 10
518.1183516110177
 20
865.6347793544775
 30
0.0
 11
480.733456914565
 21
865.6347793544775
 31
0.0
  0
LINE
  5
6096
330
1F
100
AcDbEntity
  8
破線
100
AcDbLine
 10
512.1580704178732
 20
817.2389790153086
 30
0.0
 11
480.733456914565
 21
817.2389790153086
 31
0.0
  0
LINE
  5
6097
330
1F
100
AcDbEntity
  8
破線
100
AcDbLine
 10
528.3007271552924
 20
865.6347793544775
 30
0.0
 11
562.5217850466724
 21
865.6347793544773
 31
0.0
  0
LINE
  5
6098
330
1F
100
AcDbEntity
  8
破線
100
AcDbLine
 10
534.3007271552924
 20
817.2389790153086
 30
0.0
 11
534.6580704178733
 21
817.2389790153086
 31
0.0
  0
ARC
  5
6099
330
1F
100
AcDbEntity
  8
破線
100
AcDbCircle
 10
499.1771301267662
 20
828.6527607494925
 30
0.0
 40
21.68970942714666
100
AcDbArc
 50
149.4960451344054
 51
211.7511016726787
  0
ARC
  5
609A
330
1F
100
AcDbEntity
  8
破線
100
AcDbCircle
 10
458.7991709858763
 20
852.8535567938265
 30
0.0
 40
25.38646390000696
100
AcDbArc
 50
328.6936782097743
 51
30.22957781478023
  0
ARC
  5
609B
330
1F
100
AcDbEntity
  8
破線
100
AcDbCircle
 10
480.7334569145647
 20
865.6347793544773
 30
0.0
 40
0.000000000000364
100
AcDbArc
 50
38.65774614320865
 51
338.1985905136482
  0
ARC
  5
609C
330
1F
100
AcDbEntity
  8
破線
100
AcDbCircle
 10
500.506186066564
 20
852.5294318649899
 30
0.0
 40
23.72152927065439
100
AcDbArc
 50
146.463617723158
 51
210.7508407704295
  0
ARC
  5
609D
330
1F
100
AcDbEntity
  8
破線
100
AcDbCircle
 10
515.2486955351784
 20
852.1056671867921
 30
0.0
 40
34.90328502184022
100
AcDbArc
 50
163.2431606761428
 51
196.7568393238575
  0
LINE
  5
609F
330
1F
100
AcDbEntity
  8
破線
100
AcDbLine
 10
562.5217850466724
 20
865.6347793544775
 30
0.0
 11
562.5217850466724
 21
817.2389790153086
 31
0.0
  0
TEXT
  5
6144
330
1F
100
AcDbEntity
  8
文字
100
AcDbText
 10
488.7927999686216
 20
837.5982415153485
 30
0.0
 40
10.0
  1
単管
 51
15.0
  7
OKANO
100
AcDbText
  0
TEXT
  5
614C
330
1F
100
AcDbEntity
  8
文字
100
AcDbText
 10
187.4908171045826
 20
1055.973535968514
 30
0.0
 40
10.0
  1
中間押さえ40mm用
 51
15.0
  7
OKANO
100
AcDbText
  0
TEXT
  5
6154
330
1F
100
AcDbEntity
  8
文字
100
AcDbText
 10
399.3444736598176
 20
1057.35573694852
 30
0.0
 40
10.0
  1
端用押さえ40mm用
 51
15.0
  7
OKANO
100
AcDbText
  0
LINE
  5
6258
330
1F
100
AcDbEntity
  8
想像線
100
AcDbLine
 10
1270.71268534931
 20
815.694096937838
 30
0.0
 11
1184.71268534931
 21
815.694096937838
 31
0.0
  0
LINE
  5
6274
330
1F
100
AcDbEntity
  8
太線
100
AcDbLine
 10
1254.21268534931
 20
812.6940969378379
 30
0.0
 11
1259.21268534931
 21
812.6940969378379
 31
0.0
  0
LINE
  5
6279
330
1F
100
AcDbEntity
  8
太線
100
AcDbLine
 10
1196.21268534931
 20
812.6940969378379
 30
0.0
 11
1201.21268534931
 21
812.6940969378379
 31
0.0
  0
LINE
  5
627B
330
1F
100
AcDbEntity
  8
太線
100
AcDbLine
 10
1184.71268534931
 20
818.1940969378381
 30
0.0
 11
1270.71268534931
 21
818.1940969378381
 31
0.0
  0
XLINE
  5
631E
330
1F
100
AcDbEntity
  8
構築線
100
AcDbXline
 10
665.0000521970512
 20
714.7137583323929
 30
0.0
 11
-0.0000003473175631
 21
0.9999999999999397
 31
0.0
  0
XLINE
  5
6321
330
1F
100
AcDbEntity
  8
構築線
100
AcDbXline
 10
936.0792791620777
 20
702.2137583323929
 30
0.0
 11
0.0
 21
-1.0
 31
0.0
  0
XLINE
  5
6322
330
1F
100
AcDbEntity
  8
構築線
100
AcDbXline
 10
708.0000521970486
 20
714.713773267048
 30
0.0
 11
-0.0000003473175631
 21
0.9999999999999397
 31
0.0
  0
XLINE
  5
6323
330
1F
100
AcDbEntity
  8
構築線
100
AcDbXline
 10
893.0792791620776
 20
702.2137583323929
 30
0.0
 11
0.0
 21
-1.0
 31
0.0
  0
LINE
  5
6340
330
1F
100
AcDbEntity
  8
想像線
100
AcDbLine
 10
470.8385872748749
 20
810.131312494296
 30
0.0
 11
384.839174974451
 21
809.8133754223724
 31
0.0
  0
LINE
  5
6341
330
1F
100
AcDbEntity
  8
太線
100
AcDbLine
 10
470.8478296316169
 20
807.631329578586
 30
0.0
 11
469.8478364653328
 21
807.6276326358891
 31
0.0
  0
LINE
  5
6342
330
1F
100
AcDbEntity
  8
太線
100
AcDbLine
 10
470.8385872748749
 20
810.131312494296
 30
0.0
 11
470.8478296316169
 21
807.631329578586
 31
0.0
  0
LINE
  5
6343
330
1F
100
AcDbEntity
  8
太線
100
AcDbLine
 10
450.2690705633596
 20
828.897128188451
 30
0.0
 11
470.8385872748749
 21
810.131312494296
 31
0.0
  0
LINE
  5
6344
330
1F
100
AcDbEntity
  8
太線
100
AcDbLine
 10
384.839174974451
 20
809.8133754223724
 30
0.0
 11
404.7693814974377
 21
828.7289172957471
 31
0.0
  0
LINE
  5
6345
330
1F
100
AcDbEntity
  8
太線
100
AcDbLine
 10
384.848417331193
 20
807.3133925066624
 30
0.0
 11
384.839174974451
 21
809.8133754223724
 31
0.0
  0
LINE
  5
6346
330
1F
100
AcDbEntity
  8
太線
100
AcDbLine
 10
407.5629819958813
 20
828.7392451472852
 30
0.0
 11
404.7693814974377
 21
828.7289172957471
 31
0.0
  0
LINE
  5
6347
330
1F
100
AcDbEntity
  8
太線
100
AcDbLine
 10
450.2690705633596
 20
828.897128188451
 30
0.0
 11
447.9754666480581
 21
828.8886488082614
 31
0.0
  0
ARC
  5
6348
330
1F
100
AcDbEntity
  8
太線
100
AcDbCircle
 10
427.7264856009167
 20
840.3744261342023
 30
0.0
 40
23.2796974685795
100
AcDbArc
 50
209.9867354356142
 51
330.4369039566517
  0
LINE
  5
6349
330
1F
100
AcDbEntity
  8
太線
100
AcDbLine
 10
469.8478364653328
 20
807.6276326358891
 30
0.0
 11
385.848410497477
 21
807.3170894493591
 31
0.0
  0
XLINE
  5
634E
330
1F
100
AcDbEntity
  8
構築線
100
AcDbXline
 10
524.6221990530612
 20
823.2305354893615
 30
0.0
 11
0.0
 21
1.0
 31
0.0
  0
LINE
  5
636F
330
1F
100
AcDbEntity
  8
構築線
100
AcDbLine
 10
528.8007271552926
 20
817.2389790153086
 30
0.0
 11
528.8007271552924
 21
807.2389790153085
 31
0.0
  0
LINE
  5
6371
330
1F
100
AcDbEntity
  8
太線
100
AcDbLine
 10
528.8007271552925
 20
809.7389790153087
 30
0.0
 11
528.8007271552926
 21
817.2389790153086
 31
0.0
  0
LINE
  5
6372
330
1F
100
AcDbEntity
  8
太線
100
AcDbLine
 10
519.8007271552923
 20
809.7389790153087
 30
0.0
 11
519.8007271552923
 21
817.2389790153086
 31
0.0
  0
LINE
  5
6373
330
1F
100
AcDbEntity
  8
太線
100
AcDbLine
 10
528.3007271552924
 20
821.0834794756941
 30
0.0
 11
528.3007271552921
 21
809.7389790153087
 31
0.0
  0
LINE
  5
6374
330
1F
100
AcDbEntity
  8
太線
100
AcDbLine
 10
520.3007271552924
 20
821.0834794756941
 30
0.0
 11
520.3007271552924
 21
809.7389790153087
 31
0.0
  0
ARC
  5
6376
330
1F
100
AcDbEntity
  8
太線
100
AcDbCircle
 10
531.3398072963464
 20
800.6082596747861
 30
0.0
 40
1.0
100
AcDbArc
 50
270.0
 51
0.0
  0
ARC
  5
6377
330
1F
100
AcDbEntity
  8
太線
100
AcDbCircle
 10
518.3398072963464
 20
800.6082596747861
 30
0.0
 40
1.0
100
AcDbArc
 50
180.0
 51
270.0
  0
ARC
  5
6378
330
1F
100
AcDbEntity
  8
太線
100
AcDbCircle
 10
532.4816649371722
 20
806.6082596747861
 30
0.0
 40
1.0
100
AcDbArc
 50
270.0
 51
0.0
  0
ARC
  5
6379
330
1F
100
AcDbEntity
  8
太線
100
AcDbCircle
 10
517.1979496555207
 20
806.6082596747861
 30
0.0
 40
1.0
100
AcDbArc
 50
180.0
 51
270.0
  0
ARC
  5
637A
330
1F
100
AcDbEntity
  8
太線
100
AcDbCircle
 10
530.5898072963464
 20
801.6365732446782
 30
0.0
 40
2.029760773594802
100
AcDbArc
 50
210.4388252364164
 51
329.5611747635835
  0
ARC
  5
637B
330
1F
100
AcDbEntity
  8
太線
100
AcDbCircle
 10
519.0898072963464
 20
801.5465687864098
 30
0.0
 40
1.985679729703703
100
AcDbArc
 50
208.1991695866887
 51
331.8008304133112
  0
ARC
  5
637C
330
1F
100
AcDbEntity
  8
太線
100
AcDbCircle
 10
524.8398072963464
 20
808.1082596747858
 30
0.0
 40
8.499999999999836
100
AcDbArc
 50
241.9275130641455
 51
298.0724869358544
  0
LINE
  5
637D
330
1F
100
AcDbEntity
  8
太線
100
AcDbLine
 10
528.8398072963464
 20
800.6082596747861
 30
0.0
 11
528.8398072963464
 21
805.6082596747861
 31
0.0
  0
LINE
  5
637E
330
1F
100
AcDbEntity
  8
太線
100
AcDbLine
 10
520.8398072963464
 20
800.6082596747861
 30
0.0
 11
520.8398072963464
 21
805.6082596747861
 31
0.0
  0
LINE
  5
637F
330
1F
100
AcDbEntity
  8
太線
100
AcDbLine
 10
517.3398072963464
 20
805.6082596747861
 30
0.0
 11
532.3398072963463
 21
805.6082596747861
 31
0.0
  0
LINE
  5
6380
330
1F
100
AcDbEntity
  8
太線
100
AcDbLine
 10
533.4816649371722
 20
806.6082596747861
 30
0.0
 11
533.4816649371722
 21
807.1082596747862
 31
0.0
  0
LINE
  5
6381
330
1F
100
AcDbEntity
  8
太線
100
AcDbLine
 10
532.3398072963463
 20
805.6082596747861
 30
0.0
 11
532.4816649371722
 21
805.6082596747861
 31
0.0
  0
LINE
  5
6382
330
1F
100
AcDbEntity
  8
太線
100
AcDbLine
 10
532.3398072963463
 20
800.6082596747861
 30
0.0
 11
532.3398072963463
 21
805.6082596747861
 31
0.0
  0
LINE
  5
6383
330
1F
100
AcDbEntity
  8
太線
100
AcDbLine
 10
518.3398072963464
 20
799.6082596747862
 30
0.0
 11
531.3398072963464
 21
799.6082596747862
 31
0.0
  0
LINE
  5
6384
330
1F
100
AcDbEntity
  8
太線
100
AcDbLine
 10
517.3398072963464
 20
805.6082596747861
 30
0.0
 11
517.3398072963465
 21
800.6082596747861
 31
0.0
  0
LINE
  5
6385
330
1F
100
AcDbEntity
  8
太線
100
AcDbLine
 10
517.1979496555206
 20
805.6082596747861
 30
0.0
 11
517.3398072963464
 21
805.6082596747861
 31
0.0
  0
LINE
  5
6386
330
1F
100
AcDbEntity
  8
太線
100
AcDbLine
 10
516.1979496555205
 20
807.1082596747862
 30
0.0
 11
516.1979496555205
 21
806.6082596747861
 31
0.0
  0
LINE
  5
6387
330
1F
100
AcDbEntity
  8
太線
100
AcDbLine
 10
516.1979496555205
 20
807.1082596747862
 30
0.0
 11
533.4816649371722
 21
807.1082596747862
 31
0.0
  0
XLINE
  5
6388
330
1F
100
AcDbEntity
  8
構築線
100
AcDbXline
 10
456.7981498592416
 20
813.5705982467042
 30
0.0
 11
0.0
 21
-1.0
 31
0.0
  0
XLINE
  5
6389
330
1F
100
AcDbEntity
  8
構築線
100
AcDbXline
 10
399.0405919463956
 20
812.0051848121219
 30
0.0
 11
0.0
 21
-1.0
 31
0.0
  0
ARC
  5
638A
330
1F
100
AcDbEntity
  8
太線
100
AcDbCircle
 10
464.0724429721306
 20
801.0793883626078
 30
0.0
 40
1.0
100
AcDbArc
 50
270.0
 51
0.0
  0
ARC
  5
638B
330
1F
100
AcDbEntity
  8
太線
100
AcDbCircle
 10
451.0724429721307
 20
801.0793883626078
 30
0.0
 40
1.0
100
AcDbArc
 50
180.0
 51
270.0
  0
ARC
  5
638C
330
1F
100
AcDbEntity
  8
太線
100
AcDbCircle
 10
465.2143006129564
 20
807.0793883626077
 30
0.0
 40
1.0
100
AcDbArc
 50
270.0
 51
0.0
  0
ARC
  5
638D
330
1F
100
AcDbEntity
  8
太線
100
AcDbCircle
 10
449.9305853313049
 20
807.0793883626077
 30
0.0
 40
1.0
100
AcDbArc
 50
180.0
 51
270.0
  0
ARC
  5
638E
330
1F
100
AcDbEntity
  8
太線
100
AcDbCircle
 10
463.3224429721305
 20
802.1077019324998
 30
0.0
 40
2.029760773594802
100
AcDbArc
 50
210.4388252364164
 51
329.5611747635835
  0
ARC
  5
638F
330
1F
100
AcDbEntity
  8
太線
100
AcDbCircle
 10
451.8224429721306
 20
802.0176974742316
 30
0.0
 40
1.985679729703703
100
AcDbArc
 50
208.1991695866887
 51
331.8008304133112
  0
ARC
  5
6390
330
1F
100
AcDbEntity
  8
太線
100
AcDbCircle
 10
457.5724429721305
 20
808.5793883626076
 30
0.0
 40
8.499999999999836
100
AcDbArc
 50
241.9275130641455
 51
298.0724869358544
  0
LINE
  5
6391
330
1F
100
AcDbEntity
  8
太線
100
AcDbLine
 10
461.5724429721305
 20
801.0793883626078
 30
0.0
 11
461.5724429721305
 21
806.0793883626077
 31
0.0
  0
LINE
  5
6392
330
1F
100
AcDbEntity
  8
太線
100
AcDbLine
 10
453.5724429721305
 20
801.0793883626078
 30
0.0
 11
453.5724429721305
 21
806.0793883626077
 31
0.0
  0
LINE
  5
6393
330
1F
100
AcDbEntity
  8
太線
100
AcDbLine
 10
450.0724429721306
 20
806.0793883626077
 30
0.0
 11
465.0724429721305
 21
806.0793883626077
 31
0.0
  0
LINE
  5
6394
330
1F
100
AcDbEntity
  8
太線
100
AcDbLine
 10
466.2143006129564
 20
807.0793883626077
 30
0.0
 11
466.2143006129564
 21
807.5793883626078
 31
0.0
  0
LINE
  5
6395
330
1F
100
AcDbEntity
  8
太線
100
AcDbLine
 10
465.0724429721305
 20
806.0793883626077
 30
0.0
 11
465.2143006129564
 21
806.0793883626077
 31
0.0
  0
LINE
  5
6396
330
1F
100
AcDbEntity
  8
太線
100
AcDbLine
 10
465.0724429721305
 20
801.0793883626078
 30
0.0
 11
465.0724429721305
 21
806.0793883626077
 31
0.0
  0
LINE
  5
6397
330
1F
100
AcDbEntity
  8
太線
100
AcDbLine
 10
451.0724429721307
 20
800.0793883626078
 30
0.0
 11
464.0724429721306
 21
800.0793883626078
 31
0.0
  0
LINE
  5
6398
330
1F
100
AcDbEntity
  8
太線
100
AcDbLine
 10
450.0724429721306
 20
806.0793883626077
 30
0.0
 11
450.0724429721307
 21
801.0793883626078
 31
0.0
  0
LINE
  5
6399
330
1F
100
AcDbEntity
  8
太線
100
AcDbLine
 10
449.9305853313047
 20
806.0793883626077
 30
0.0
 11
450.0724429721306
 21
806.0793883626077
 31
0.0
  0
LINE
  5
639A
330
1F
100
AcDbEntity
  8
太線
100
AcDbLine
 10
448.9305853313047
 20
807.5793883626078
 30
0.0
 11
448.9305853313047
 21
807.0793883626077
 31
0.0
  0
LINE
  5
639B
330
1F
100
AcDbEntity
  8
太線
100
AcDbLine
 10
448.9305853313047
 20
807.5793883626078
 30
0.0
 11
466.2143006129564
 21
807.5793883626078
 31
0.0
  0
LINE
  5
639D
330
1F
100
AcDbEntity
  8
太線
100
AcDbLine
 10
391.1730274184586
 20
807.0888337537375
 30
0.0
 11
391.1730274184586
 21
806.5888337537375
 31
0.0
  0
LINE
  5
639E
330
1F
100
AcDbEntity
  8
太線
100
AcDbLine
 10
392.1730274184586
 20
805.5888337537375
 30
0.0
 11
392.3148850592845
 21
805.5888337537375
 31
0.0
  0
LINE
  5
639F
330
1F
100
AcDbEntity
  8
太線
100
AcDbLine
 10
392.3148850592845
 20
805.5888337537375
 30
0.0
 11
392.3148850592846
 21
800.5888337537374
 31
0.0
  0
LINE
  5
63A0
330
1F
100
AcDbEntity
  8
太線
100
AcDbLine
 10
393.3148850592846
 20
799.5888337537374
 30
0.0
 11
406.3148850592845
 21
799.5888337537374
 31
0.0
  0
LINE
  5
63A1
330
1F
100
AcDbEntity
  8
太線
100
AcDbLine
 10
407.3148850592844
 20
800.5888337537374
 30
0.0
 11
407.3148850592844
 21
805.5888337537375
 31
0.0
  0
LINE
  5
63A2
330
1F
100
AcDbEntity
  8
太線
100
AcDbLine
 10
407.3148850592844
 20
805.5888337537375
 30
0.0
 11
407.4567427001103
 21
805.5888337537375
 31
0.0
  0
LINE
  5
63A3
330
1F
100
AcDbEntity
  8
太線
100
AcDbLine
 10
408.4567427001103
 20
806.5888337537375
 30
0.0
 11
408.4567427001103
 21
807.0888337537375
 31
0.0
  0
LINE
  5
63A4
330
1F
100
AcDbEntity
  8
太線
100
AcDbLine
 10
392.3148850592845
 20
805.5888337537375
 30
0.0
 11
407.3148850592844
 21
805.5888337537375
 31
0.0
  0
LINE
  5
63A5
330
1F
100
AcDbEntity
  8
太線
100
AcDbLine
 10
395.8148850592845
 20
800.5888337537374
 30
0.0
 11
395.8148850592845
 21
805.5888337537375
 31
0.0
  0
LINE
  5
63A6
330
1F
100
AcDbEntity
  8
太線
100
AcDbLine
 10
403.8148850592845
 20
800.5888337537374
 30
0.0
 11
403.8148850592845
 21
805.5888337537375
 31
0.0
  0
ARC
  5
63A7
330
1F
100
AcDbEntity
  8
太線
100
AcDbCircle
 10
399.8148850592844
 20
808.0888337537372
 30
0.0
 40
8.499999999999836
100
AcDbArc
 50
241.9275130641455
 51
298.0724869358544
  0
ARC
  5
63A8
330
1F
100
AcDbEntity
  8
太線
100
AcDbCircle
 10
394.0648850592845
 20
801.5271428653612
 30
0.0
 40
1.985679729703703
100
AcDbArc
 50
208.1991695866887
 51
331.8008304133112
  0
ARC
  5
63A9
330
1F
100
AcDbEntity
  8
太線
100
AcDbCircle
 10
405.5648850592844
 20
801.6171473236294
 30
0.0
 40
2.029760773594802
100
AcDbArc
 50
210.4388252364164
 51
329.5611747635835
  0
ARC
  5
63AA
330
1F
100
AcDbEntity
  8
太線
100
AcDbCircle
 10
392.1730274184588
 20
806.5888337537375
 30
0.0
 40
1.0
100
AcDbArc
 50
180.0
 51
270.0
  0
ARC
  5
63AB
330
1F
100
AcDbEntity
  8
太線
100
AcDbCircle
 10
407.4567427001103
 20
806.5888337537375
 30
0.0
 40
1.0
100
AcDbArc
 50
270.0
 51
0.0
  0
ARC
  5
63AC
330
1F
100
AcDbEntity
  8
太線
100
AcDbCircle
 10
393.3148850592846
 20
800.5888337537374
 30
0.0
 40
1.0
100
AcDbArc
 50
180.0
 51
270.0
  0
ARC
  5
63AD
330
1F
100
AcDbEntity
  8
太線
100
AcDbCircle
 10
406.3148850592845
 20
800.5888337537374
 30
0.0
 40
1.0
100
AcDbArc
 50
270.0
 51
0.0
  0
LINE
  5
63B1
330
1F
100
AcDbEntity
  8
細線
100
AcDbLine
 10
394.5549880535347
 20
793.7484244064384
 30
0.0
 11
403.5549880535347
 21
793.7484244064384
 31
0.0
  0
LINE
  5
63B2
330
1F
100
AcDbEntity
  8
細線
100
AcDbLine
 10
403.5549880535347
 20
793.7484244064385
 30
0.0
 11
403.5549880535347
 21
799.5888337537376
 31
0.0
  0
LINE
  5
63B3
330
1F
100
AcDbEntity
  8
細線
100
AcDbLine
 10
394.5549880535347
 20
793.7484244064385
 30
0.0
 11
394.5549880535347
 21
799.5888337537376
 31
0.0
  0
LINE
  5
63B4
330
1F
100
AcDbEntity
  8
太線
100
AcDbLine
 10
403.0549880535347
 20
793.7484244064384
 30
0.0
 11
403.0549880535347
 21
799.5888337537374
 31
0.0
  0
LINE
  5
63B5
330
1F
100
AcDbEntity
  8
太線
100
AcDbLine
 10
395.0549880535347
 20
793.7484244064384
 30
0.0
 11
395.0549880535348
 21
799.5888337537374
 31
0.0
  0
LINE
  5
63B6
330
1F
100
AcDbEntity
  8
太線
100
AcDbLine
 10
403.5549880535347
 20
831.598506748713
 30
0.0
 11
403.5549880535347
 21
827.576349708833
 31
0.0
  0
LINE
  5
63B7
330
1F
100
AcDbEntity
  8
細線
100
AcDbLine
 10
403.0549880535347
 20
833.5985067487127
 30
0.0
 11
403.5549880535347
 21
831.5985067487128
 31
0.0
  0
LINE
  5
63B8
330
1F
100
AcDbEntity
  8
太線
100
AcDbLine
 10
395.0549880535347
 20
833.5985067487127
 30
0.0
 11
403.0549880535347
 21
833.5985067487127
 31
0.0
  0
LINE
  5
63B9
330
1F
100
AcDbEntity
  8
細線
100
AcDbLine
 10
394.5549880535347
 20
831.5985067487128
 30
0.0
 11
395.0549880535347
 21
833.5985067487127
 31
0.0
  0
LINE
  5
63BA
330
1F
100
AcDbEntity
  8
太線
100
AcDbLine
 10
394.5549880535347
 20
819.0345477629261
 30
0.0
 11
394.5549880535347
 21
831.5985067487128
 31
0.0
  0
LINE
  5
63BB
330
1F
100
AcDbEntity
  8
太線
100
AcDbLine
 10
403.0549880535347
 20
827.1018051562828
 30
0.0
 11
403.0549880535347
 21
866.7389790153087
 31
0.0
  0
LINE
  5
63BC
330
1F
100
AcDbEntity
  8
太線
100
AcDbLine
 10
395.0549880535347
 20
866.7389790153087
 30
0.0
 11
395.0549880535347
 21
820.9824589612603
 31
0.0
  0
LINE
  5
63BD
330
1F
100
AcDbEntity
  8
太線
100
AcDbLine
 10
403.0549880535347
 20
792.7484244064384
 30
0.0
 11
395.0549880535347
 21
792.7484244064384
 31
0.0
  0
LINE
  5
63BE
330
1F
100
AcDbEntity
  8
細線
100
AcDbLine
 10
394.5549880535347
 20
793.7484244064384
 30
0.0
 11
395.0549880535347
 21
792.7484244064384
 31
0.0
  0
LINE
  5
63BF
330
1F
100
AcDbEntity
  8
細線
100
AcDbLine
 10
403.0549880535347
 20
792.7484244064384
 30
0.0
 11
403.5549880535347
 21
793.7484244064384
 31
0.0
  0
LINE
  5
63C5
330
1F
100
AcDbEntity
  8
想像線
100
AcDbLine
 10
395.0549880535347
 20
820.9824589612603
 30
0.0
 11
395.0549880535347
 21
819.5090923154765
 31
0.0
  0
XLINE
  5
63C6
330
1F
100
AcDbEntity
  8
構築線
100
AcDbXline
 10
330.4848212734796
 20
846.3851976180448
 30
0.0
 11
0.0
 21
-1.0
 31
0.0
  0
LINE
  5
63C8
330
1F
100
AcDbEntity
  8
太線
100
AcDbLine
 10
329.2941516590573
 20
807.2692927986633
 30
0.0
 11
329.2941516590573
 21
806.7692927986632
 31
0.0
  0
LINE
  5
63C9
330
1F
100
AcDbEntity
  8
太線
100
AcDbLine
 10
330.2941516590573
 20
805.7692927986632
 30
0.0
 11
330.4360092998831
 21
805.7692927986632
 31
0.0
  0
LINE
  5
63CA
330
1F
100
AcDbEntity
  8
太線
100
AcDbLine
 10
330.4360092998831
 20
805.7692927986632
 30
0.0
 11
330.4360092998832
 21
800.7692927986633
 31
0.0
  0
LINE
  5
63CB
330
1F
100
AcDbEntity
  8
太線
100
AcDbLine
 10
331.4360092998832
 20
799.7692927986633
 30
0.0
 11
344.4360092998831
 21
799.7692927986633
 31
0.0
  0
LINE
  5
63CC
330
1F
100
AcDbEntity
  8
太線
100
AcDbLine
 10
345.4360092998831
 20
800.7692927986633
 30
0.0
 11
345.4360092998831
 21
805.7692927986632
 31
0.0
  0
LINE
  5
63CD
330
1F
100
AcDbEntity
  8
太線
100
AcDbLine
 10
345.4360092998831
 20
805.7692927986632
 30
0.0
 11
345.5778669407089
 21
805.7692927986632
 31
0.0
  0
LINE
  5
63CE
330
1F
100
AcDbEntity
  8
太線
100
AcDbLine
 10
346.577866940709
 20
806.7692927986632
 30
0.0
 11
346.577866940709
 21
807.2692927986633
 31
0.0
  0
LINE
  5
63CF
330
1F
100
AcDbEntity
  8
太線
100
AcDbLine
 10
330.4360092998831
 20
805.7692927986632
 30
0.0
 11
345.4360092998831
 21
805.7692927986632
 31
0.0
  0
LINE
  5
63D0
330
1F
100
AcDbEntity
  8
太線
100
AcDbLine
 10
333.9360092998831
 20
800.7692927986633
 30
0.0
 11
333.9360092998831
 21
805.7692927986632
 31
0.0
  0
LINE
  5
63D1
330
1F
100
AcDbEntity
  8
太線
100
AcDbLine
 10
341.9360092998831
 20
800.7692927986633
 30
0.0
 11
341.9360092998831
 21
805.7692927986632
 31
0.0
  0
ARC
  5
63D2
330
1F
100
AcDbEntity
  8
太線
100
AcDbCircle
 10
337.9360092998831
 20
808.2692927986631
 30
0.0
 40
8.499999999999836
100
AcDbArc
 50
241.9275130641455
 51
298.0724869358544
  0
ARC
  5
63D3
330
1F
100
AcDbEntity
  8
太線
100
AcDbCircle
 10
332.1860092998831
 20
801.7076019102869
 30
0.0
 40
1.985679729703703
100
AcDbArc
 50
208.1991695866887
 51
331.8008304133112
  0
ARC
  5
63D4
330
1F
100
AcDbEntity
  8
太線
100
AcDbCircle
 10
343.6860092998831
 20
801.7976063685553
 30
0.0
 40
2.029760773594802
100
AcDbArc
 50
210.4388252364164
 51
329.5611747635835
  0
ARC
  5
63D5
330
1F
100
AcDbEntity
  8
太線
100
AcDbCircle
 10
330.2941516590574
 20
806.7692927986632
 30
0.0
 40
1.0
100
AcDbArc
 50
180.0
 51
270.0
  0
ARC
  5
63D6
330
1F
100
AcDbEntity
  8
太線
100
AcDbCircle
 10
345.5778669407089
 20
806.7692927986632
 30
0.0
 40
1.0
100
AcDbArc
 50
270.0
 51
0.0
  0
ARC
  5
63D7
330
1F
100
AcDbEntity
  8
太線
100
AcDbCircle
 10
331.4360092998832
 20
800.7692927986633
 30
0.0
 40
1.0
100
AcDbArc
 50
180.0
 51
270.0
  0
ARC
  5
63D8
330
1F
100
AcDbEntity
  8
太線
100
AcDbCircle
 10
344.4360092998831
 20
800.7692927986633
 30
0.0
 40
1.0
100
AcDbArc
 50
270.0
 51
0.0
  0
LINE
  5
63DA
330
1F
100
AcDbEntity
  8
太線
100
AcDbLine
 10
333.3104485687515
 20
821.0834794756941
 30
0.0
 11
333.3104485687515
 21
809.7389790153087
 31
0.0
  0
LINE
  5
63DB
330
1F
100
AcDbEntity
  8
太線
100
AcDbLine
 10
341.3104485687515
 20
821.0834794756941
 30
0.0
 11
341.3104485687512
 21
809.7389790153087
 31
0.0
  0
LINE
  5
63DC
330
1F
100
AcDbEntity
  8
太線
100
AcDbLine
 10
332.8104485687514
 20
809.7389790153087
 30
0.0
 11
332.8104485687514
 21
817.2389790153086
 31
0.0
  0
LINE
  5
63DD
330
1F
100
AcDbEntity
  8
太線
100
AcDbLine
 10
341.8104485687516
 20
809.7389790153087
 30
0.0
 11
341.8104485687517
 21
817.2389790153086
 31
0.0
  0
LINE
  5
63DE
330
1F
100
AcDbEntity
  8
構築線
100
AcDbLine
 10
342.0283014203307
 20
817.2389790153086
 30
0.0
 11
342.0283014203305
 21
807.2389790153085
 31
0.0
  0
LINE
  5
63EF
330
1F
100
AcDbEntity
  8
太線
100
AcDbLine
 10
330.2024513468579
 20
800.8703133130968
 30
0.0
 11
330.3443089876838
 21
800.8703133130968
 31
0.0
  0
LINE
  5
63F2
330
1F
100
AcDbEntity
  8
想像線
100
AcDbLine
 10
333.3104485687515
 20
833.6995272631465
 30
0.0
 11
333.3104485687515
 21
828.4722952722045
 31
0.0
  0
LINE
  5
63F3
330
1F
100
AcDbEntity
  8
太線
100
AcDbLine
 10
333.3104485687515
 20
833.6995272631465
 30
0.0
 11
333.3104485687515
 21
828.4722952722045
 31
0.0
  0
LINE
  5
63F4
330
1F
100
AcDbEntity
  8
太線
100
AcDbLine
 10
341.8104485687517
 20
817.2389790153086
 30
0.0
 11
341.8104485687515
 21
831.6995272631467
 31
0.0
  0
LINE
  5
63F5
330
1F
100
AcDbEntity
  8
太線
100
AcDbLine
 10
341.8104485687515
 20
831.6995272631466
 30
0.0
 11
341.3104485687515
 21
833.6995272631465
 31
0.0
  0
LINE
  5
63F6
330
1F
100
AcDbEntity
  8
太線
100
AcDbLine
 10
341.3104485687515
 20
833.6995272631465
 30
0.0
 11
333.3104485687515
 21
833.6995272631465
 31
0.0
  0
LINE
  5
63F7
330
1F
100
AcDbEntity
  8
細線
100
AcDbLine
 10
333.3104485687515
 20
833.6995272631465
 30
0.0
 11
332.8104485687514
 21
831.6995272631466
 31
0.0
  0
LINE
  5
63F8
330
1F
100
AcDbEntity
  8
太線
100
AcDbLine
 10
332.8104485687514
 20
831.6995272631466
 30
0.0
 11
332.8104485687514
 21
817.2389790153086
 31
0.0
  0
LINE
  5
63F9
330
1F
100
AcDbEntity
  8
太線
100
AcDbLine
 10
341.6145374021143
 20
795.3703133130968
 30
0.0
 11
341.6145374021143
 21
799.7692927986633
 31
0.0
  0
LINE
  5
63FA
330
1F
100
AcDbEntity
  8
太線
100
AcDbLine
 10
333.1145374021143
 20
795.3703133130968
 30
0.0
 11
333.1145374021144
 21
799.7692927986633
 31
0.0
  0
LINE
  5
63FB
330
1F
100
AcDbEntity
  8
太線
100
AcDbLine
 10
342.1145374021143
 20
795.370313313097
 30
0.0
 11
342.1145374021143
 21
799.7692927986633
 31
0.0
  0
LINE
  5
63FC
330
1F
100
AcDbEntity
  8
太線
100
AcDbLine
 10
333.1145374021143
 20
795.3703133130967
 30
0.0
 11
342.1145374021143
 21
795.3703133130967
 31
0.0
  0
LINE
  5
63FD
330
1F
100
AcDbEntity
  8
太線
100
AcDbLine
 10
341.6145374021143
 20
794.3703133130967
 30
0.0
 11
333.6145374021143
 21
794.3703133130967
 31
0.0
  0
LINE
  5
63FE
330
1F
100
AcDbEntity
  8
細線
100
AcDbLine
 10
333.1145374021143
 20
795.3703133130967
 30
0.0
 11
333.6145374021143
 21
794.3703133130967
 31
0.0
  0
LINE
  5
63FF
330
1F
100
AcDbEntity
  8
細線
100
AcDbLine
 10
341.6145374021143
 20
794.3703133130967
 30
0.0
 11
342.1145374021143
 21
795.3703133130967
 31
0.0
  0
LINE
  5
6401
330
1F
100
AcDbEntity
  8
太線
100
AcDbLine
 10
333.6145374021143
 20
799.7692927986633
 30
0.0
 11
333.6145374021143
 21
795.3703133130968
 31
0.0
  0
LINE
  5
6402
330
1F
100
AcDbEntity
  8
想像線
100
AcDbLine
 10
333.6145374021143
 20
799.7692927986633
 30
0.0
 11
333.6145374021143
 21
795.3703133130968
 31
0.0
  0
XLINE
  5
6543
330
1F
100
AcDbEntity
  8
構築線
100
AcDbXline
 10
246.9454965241318
 20
848.195908254542
 30
0.0
 11
1.0
 21
0.0
 31
0.0
  0
LINE
  5
6544
330
1F
100
AcDbEntity
  8
想像線
100
AcDbLine
 10
214.1879386112857
 20
820.9824589612603
 30
0.0
 11
214.1879386112857
 21
819.5090923154765
 31
0.0
  0
LINE
  5
654A
330
1F
100
AcDbEntity
  8
細線
100
AcDbLine
 10
222.2818807871378
 20
792.8634214405159
 30
0.0
 11
222.7818807871378
 21
793.8634214405159
 31
0.0
  0
LINE
  5
654B
330
1F
100
AcDbEntity
  8
細線
100
AcDbLine
 10
213.7818807871378
 20
793.8634214405159
 30
0.0
 11
214.2818807871378
 21
792.8634214405159
 31
0.0
  0
LINE
  5
654C
330
1F
100
AcDbEntity
  8
太線
100
AcDbLine
 10
222.2818807871378
 20
792.8634214405159
 30
0.0
 11
214.2818807871378
 21
792.8634214405159
 31
0.0
  0
LINE
  5
654D
330
1F
100
AcDbEntity
  8
太線
100
AcDbLine
 10
213.6879386112857
 20
819.0345477629261
 30
0.0
 11
213.6879386112857
 21
831.5985067487128
 31
0.0
  0
LINE
  5
654E
330
1F
100
AcDbEntity
  8
細線
100
AcDbLine
 10
213.6879386112857
 20
831.5985067487128
 30
0.0
 11
214.1879386112857
 21
833.5985067487127
 31
0.0
  0
LINE
  5
654F
330
1F
100
AcDbEntity
  8
太線
100
AcDbLine
 10
214.1879386112857
 20
833.5985067487127
 30
0.0
 11
222.1879386112857
 21
833.5985067487127
 31
0.0
  0
LINE
  5
6550
330
1F
100
AcDbEntity
  8
細線
100
AcDbLine
 10
222.1879386112857
 20
833.5985067487127
 30
0.0
 11
222.6879386112857
 21
831.5985067487128
 31
0.0
  0
LINE
  5
6551
330
1F
100
AcDbEntity
  8
太線
100
AcDbLine
 10
222.6879386112857
 20
831.598506748713
 30
0.0
 11
222.6879386112857
 21
827.576349708833
 31
0.0
  0
LINE
  5
6552
330
1F
100
AcDbEntity
  8
太線
100
AcDbLine
 10
214.2818807871378
 20
793.8634214405159
 30
0.0
 11
214.2818807871379
 21
799.703830787815
 31
0.0
  0
LINE
  5
6553
330
1F
100
AcDbEntity
  8
太線
100
AcDbLine
 10
222.2818807871378
 20
793.8634214405159
 30
0.0
 11
222.2818807871378
 21
799.703830787815
 31
0.0
  0
LINE
  5
6554
330
1F
100
AcDbEntity
  8
細線
100
AcDbLine
 10
213.7818807871378
 20
793.863421440516
 30
0.0
 11
213.7818807871378
 21
799.7038307878151
 31
0.0
  0
LINE
  5
6555
330
1F
100
AcDbEntity
  8
細線
100
AcDbLine
 10
222.7818807871378
 20
793.863421440516
 30
0.0
 11
222.7818807871378
 21
799.7038307878151
 31
0.0
  0
LINE
  5
6556
330
1F
100
AcDbEntity
  8
細線
100
AcDbLine
 10
213.7818807871378
 20
793.8634214405159
 30
0.0
 11
222.7818807871378
 21
793.8634214405159
 31
0.0
  0
ARC
  5
6559
330
1F
100
AcDbEntity
  8
太線
100
AcDbCircle
 10
224.7382326363585
 20
800.7038307878151
 30
0.0
 40
1.0
100
AcDbArc
 50
270.0
 51
0.0
  0
ARC
  5
655A
330
1F
100
AcDbEntity
  8
太線
100
AcDbCircle
 10
211.7382326363586
 20
800.7038307878151
 30
0.0
 40
1.0
100
AcDbArc
 50
180.0
 51
270.0
  0
ARC
  5
655B
330
1F
100
AcDbEntity
  8
太線
100
AcDbCircle
 10
225.8800902771844
 20
806.7038307878149
 30
0.0
 40
1.0
100
AcDbArc
 50
270.0
 51
0.0
  0
ARC
  5
655C
330
1F
100
AcDbEntity
  8
太線
100
AcDbCircle
 10
210.5963749955328
 20
806.7038307878149
 30
0.0
 40
1.0
100
AcDbArc
 50
180.0
 51
270.0
  0
ARC
  5
655D
330
1F
100
AcDbEntity
  8
太線
100
AcDbCircle
 10
223.9882326363586
 20
801.732144357707
 30
0.0
 40
2.029760773594802
100
AcDbArc
 50
210.4388252364164
 51
329.5611747635835
  0
ARC
  5
655E
330
1F
100
AcDbEntity
  8
太線
100
AcDbCircle
 10
212.4882326363585
 20
801.6421398994388
 30
0.0
 40
1.985679729703703
100
AcDbArc
 50
208.1991695866887
 51
331.8008304133112
  0
ARC
  5
655F
330
1F
100
AcDbEntity
  8
太線
100
AcDbCircle
 10
218.2382326363585
 20
808.2038307878148
 30
0.0
 40
8.499999999999836
100
AcDbArc
 50
241.9275130641455
 51
298.0724869358544
  0
LINE
  5
6560
330
1F
100
AcDbEntity
  8
太線
100
AcDbLine
 10
222.2382326363586
 20
800.7038307878151
 30
0.0
 11
222.2382326363586
 21
805.703830787815
 31
0.0
  0
LINE
  5
6561
330
1F
100
AcDbEntity
  8
太線
100
AcDbLine
 10
214.2382326363585
 20
800.7038307878151
 30
0.0
 11
214.2382326363585
 21
805.703830787815
 31
0.0
  0
LINE
  5
6562
330
1F
100
AcDbEntity
  8
太線
100
AcDbLine
 10
210.7382326363585
 20
805.703830787815
 30
0.0
 11
225.7382326363586
 21
805.703830787815
 31
0.0
  0
LINE
  5
6563
330
1F
100
AcDbEntity
  8
太線
100
AcDbLine
 10
226.8800902771844
 20
806.7038307878149
 30
0.0
 11
226.8800902771844
 21
807.203830787815
 31
0.0
  0
LINE
  5
6564
330
1F
100
AcDbEntity
  8
太線
100
AcDbLine
 10
225.7382326363586
 20
805.703830787815
 30
0.0
 11
225.8800902771844
 21
805.703830787815
 31
0.0
  0
LINE
  5
6565
330
1F
100
AcDbEntity
  8
太線
100
AcDbLine
 10
225.7382326363586
 20
800.7038307878151
 30
0.0
 11
225.7382326363586
 21
805.703830787815
 31
0.0
  0
LINE
  5
6566
330
1F
100
AcDbEntity
  8
太線
100
AcDbLine
 10
211.7382326363586
 20
799.703830787815
 30
0.0
 11
224.7382326363585
 21
799.703830787815
 31
0.0
  0
LINE
  5
6567
330
1F
100
AcDbEntity
  8
太線
100
AcDbLine
 10
210.7382326363585
 20
805.703830787815
 30
0.0
 11
210.7382326363587
 21
800.7038307878151
 31
0.0
  0
LINE
  5
6568
330
1F
100
AcDbEntity
  8
太線
100
AcDbLine
 10
210.5963749955327
 20
805.703830787815
 30
0.0
 11
210.7382326363585
 21
805.703830787815
 31
0.0
  0
LINE
  5
6569
330
1F
100
AcDbEntity
  8
太線
100
AcDbLine
 10
209.5963749955327
 20
807.203830787815
 30
0.0
 11
209.5963749955327
 21
806.7038307878149
 31
0.0
  0
LINE
  5
656B
330
1F
100
AcDbEntity
  8
太線
100
AcDbLine
 10
268.0635358890557
 20
807.5793883626078
 30
0.0
 11
285.3472511707074
 21
807.5793883626078
 31
0.0
  0
LINE
  5
656C
330
1F
100
AcDbEntity
  8
太線
100
AcDbLine
 10
268.0635358890557
 20
807.5793883626078
 30
0.0
 11
268.0635358890557
 21
807.0793883626077
 31
0.0
  0
LINE
  5
656D
330
1F
100
AcDbEntity
  8
太線
100
AcDbLine
 10
269.0635358890557
 20
806.0793883626077
 30
0.0
 11
269.2053935298815
 21
806.0793883626077
 31
0.0
  0
LINE
  5
656E
330
1F
100
AcDbEntity
  8
太線
100
AcDbLine
 10
269.2053935298815
 20
806.0793883626077
 30
0.0
 11
269.2053935298817
 21
801.0793883626078
 31
0.0
  0
LINE
  5
656F
330
1F
100
AcDbEntity
  8
太線
100
AcDbLine
 10
270.2053935298816
 20
800.0793883626078
 30
0.0
 11
283.2053935298815
 21
800.0793883626078
 31
0.0
  0
LINE
  5
6570
330
1F
100
AcDbEntity
  8
太線
100
AcDbLine
 10
284.2053935298815
 20
801.0793883626078
 30
0.0
 11
284.2053935298815
 21
806.0793883626077
 31
0.0
  0
LINE
  5
6571
330
1F
100
AcDbEntity
  8
太線
100
AcDbLine
 10
284.2053935298815
 20
806.0793883626077
 30
0.0
 11
284.3472511707074
 21
806.0793883626077
 31
0.0
  0
LINE
  5
6572
330
1F
100
AcDbEntity
  8
太線
100
AcDbLine
 10
285.3472511707074
 20
807.0793883626077
 30
0.0
 11
285.3472511707074
 21
807.5793883626078
 31
0.0
  0
LINE
  5
6573
330
1F
100
AcDbEntity
  8
太線
100
AcDbLine
 10
269.2053935298815
 20
806.0793883626077
 30
0.0
 11
284.2053935298815
 21
806.0793883626077
 31
0.0
  0
LINE
  5
6574
330
1F
100
AcDbEntity
  8
太線
100
AcDbLine
 10
272.7053935298815
 20
801.0793883626078
 30
0.0
 11
272.7053935298815
 21
806.0793883626077
 31
0.0
  0
LINE
  5
6575
330
1F
100
AcDbEntity
  8
太線
100
AcDbLine
 10
280.7053935298815
 20
801.0793883626078
 30
0.0
 11
280.7053935298815
 21
806.0793883626077
 31
0.0
  0
ARC
  5
6576
330
1F
100
AcDbEntity
  8
太線
100
AcDbCircle
 10
276.7053935298815
 20
808.5793883626076
 30
0.0
 40
8.499999999999836
100
AcDbArc
 50
241.9275130641455
 51
298.0724869358544
  0
ARC
  5
6577
330
1F
100
AcDbEntity
  8
太線
100
AcDbCircle
 10
270.9553935298815
 20
802.0176974742316
 30
0.0
 40
1.985679729703703
100
AcDbArc
 50
208.1991695866887
 51
331.8008304133112
  0
ARC
  5
6578
330
1F
100
AcDbEntity
  8
太線
100
AcDbCircle
 10
282.4553935298815
 20
802.1077019324998
 30
0.0
 40
2.029760773594802
100
AcDbArc
 50
210.4388252364164
 51
329.5611747635835
  0
ARC
  5
6579
330
1F
100
AcDbEntity
  8
太線
100
AcDbCircle
 10
269.0635358890558
 20
807.0793883626077
 30
0.0
 40
1.0
100
AcDbArc
 50
180.0
 51
270.0
  0
ARC
  5
657A
330
1F
100
AcDbEntity
  8
太線
100
AcDbCircle
 10
284.3472511707074
 20
807.0793883626077
 30
0.0
 40
1.0
100
AcDbArc
 50
270.0
 51
0.0
  0
ARC
  5
657B
330
1F
100
AcDbEntity
  8
太線
100
AcDbCircle
 10
270.2053935298816
 20
801.0793883626078
 30
0.0
 40
1.0
100
AcDbArc
 50
180.0
 51
270.0
  0
ARC
  5
657C
330
1F
100
AcDbEntity
  8
太線
100
AcDbCircle
 10
283.2053935298815
 20
801.0793883626078
 30
0.0
 40
1.0
100
AcDbArc
 50
270.0
 51
0.0
  0
LINE
  5
6581
330
1F
100
AcDbEntity
  8
太線
100
AcDbLine
 10
288.9807870230838
 20
807.6276326358891
 30
0.0
 11
204.9813610552279
 21
807.3170894493591
 31
0.0
  0
ARC
  5
6582
330
1F
100
AcDbEntity
  8
太線
100
AcDbCircle
 10
246.8594361586676
 20
840.3744261342023
 30
0.0
 40
23.2796974685795
100
AcDbArc
 50
209.9867354356142
 51
330.4369039566517
  0
LINE
  5
6583
330
1F
100
AcDbEntity
  8
太線
100
AcDbLine
 10
269.4020211211106
 20
828.897128188451
 30
0.0
 11
267.1084172058091
 21
828.8886488082614
 31
0.0
  0
LINE
  5
6584
330
1F
100
AcDbEntity
  8
太線
100
AcDbLine
 10
226.6959325536322
 20
828.7392451472852
 30
0.0
 11
223.9023320551887
 21
828.7289172957471
 31
0.0
  0
LINE
  5
6585
330
1F
100
AcDbEntity
  8
太線
100
AcDbLine
 10
203.9813678889439
 20
807.3133925066624
 30
0.0
 11
203.972125532202
 21
809.8133754223724
 31
0.0
  0
LINE
  5
6586
330
1F
100
AcDbEntity
  8
太線
100
AcDbLine
 10
203.972125532202
 20
809.8133754223724
 30
0.0
 11
223.9023320551887
 21
828.7289172957471
 31
0.0
  0
LINE
  5
6587
330
1F
100
AcDbEntity
  8
太線
100
AcDbLine
 10
269.4020211211106
 20
828.897128188451
 30
0.0
 11
289.9715378326259
 21
810.131312494296
 31
0.0
  0
LINE
  5
6588
330
1F
100
AcDbEntity
  8
太線
100
AcDbLine
 10
289.9715378326259
 20
810.131312494296
 30
0.0
 11
289.9807801893678
 21
807.631329578586
 31
0.0
  0
LINE
  5
6589
330
1F
100
AcDbEntity
  8
太線
100
AcDbLine
 10
289.9807801893678
 20
807.631329578586
 30
0.0
 11
288.9807870230838
 21
807.6276326358891
 31
0.0
  0
LINE
  5
658A
330
1F
100
AcDbEntity
  8
想像線
100
AcDbLine
 10
289.9715378326259
 20
810.131312494296
 30
0.0
 11
203.972125532202
 21
809.8133754223724
 31
0.0
  0
ARC
  5
658B
330
1F
100
AcDbEntity
  8
太線
100
AcDbCircle
 10
246.9454965241318
 20
840.3745852086878
 30
0.0
 40
23.2796974685795
100
AcDbArc
 50
210.7486871587841
 51
329.2513128412158
  0
LINE
  5
658C
330
1F
100
AcDbEntity
  8
細線
100
AcDbLine
 10
271.4454965241318
 20
794.2389790153087
 30
0.0
 11
280.4454965241318
 21
794.2389790153087
 31
0.0
  0
LINE
  5
658D
330
1F
100
AcDbEntity
  8
細線
100
AcDbLine
 10
280.4454965241318
 20
794.2389790153088
 30
0.0
 11
280.4454965241318
 21
800.0793883626078
 31
0.0
  0
LINE
  5
658E
330
1F
100
AcDbEntity
  8
細線
100
AcDbLine
 10
271.4454965241318
 20
794.2389790153088
 30
0.0
 11
271.4454965241318
 21
800.0793883626078
 31
0.0
  0
LINE
  5
658F
330
1F
100
AcDbEntity
  8
太線
100
AcDbLine
 10
279.9454965241318
 20
794.2389790153087
 30
0.0
 11
279.9454965241318
 21
800.0793883626078
 31
0.0
  0
LINE
  5
6590
330
1F
100
AcDbEntity
  8
太線
100
AcDbLine
 10
271.9454965241318
 20
794.2389790153087
 30
0.0
 11
271.9454965241318
 21
800.0793883626078
 31
0.0
  0
LINE
  5
6591
330
1F
100
AcDbEntity
  8
太線
100
AcDbLine
 10
280.4454965241318
 20
831.598506748713
 30
0.0
 11
280.4454965241318
 21
818.8220337201395
 31
0.0
  0
LINE
  5
6592
330
1F
100
AcDbEntity
  8
細線
100
AcDbLine
 10
279.9454965241318
 20
833.5985067487127
 30
0.0
 11
280.4454965241318
 21
831.5985067487128
 31
0.0
  0
LINE
  5
6593
330
1F
100
AcDbEntity
  8
太線
100
AcDbLine
 10
271.9454965241318
 20
833.5985067487127
 30
0.0
 11
279.9454965241318
 21
833.5985067487127
 31
0.0
  0
LINE
  5
6594
330
1F
100
AcDbEntity
  8
細線
100
AcDbLine
 10
271.4454965241318
 20
831.5985067487128
 30
0.0
 11
271.9454965241318
 21
833.5985067487127
 31
0.0
  0
LINE
  5
6595
330
1F
100
AcDbEntity
  8
太線
100
AcDbLine
 10
271.4454965241318
 20
827.0328411793563
 30
0.0
 11
271.4454965241318
 21
831.5985067487128
 31
0.0
  0
LINE
  5
6596
330
1F
100
AcDbEntity
  8
太線
100
AcDbLine
 10
279.9454965241318
 20
793.2389790153087
 30
0.0
 11
271.9454965241318
 21
793.2389790153087
 31
0.0
  0
LINE
  5
6597
330
1F
100
AcDbEntity
  8
細線
100
AcDbLine
 10
271.4454965241318
 20
794.2389790153087
 30
0.0
 11
271.9454965241318
 21
793.2389790153087
 31
0.0
  0
LINE
  5
6598
330
1F
100
AcDbEntity
  8
細線
100
AcDbLine
 10
279.9454965241318
 20
793.2389790153087
 30
0.0
 11
280.4454965241318
 21
794.2389790153087
 31
0.0
  0
LINE
  5
659E
330
1F
100
AcDbEntity
  8
想像線
100
AcDbLine
 10
279.9454965241318
 20
820.9824589612603
 30
0.0
 11
279.9454965241318
 21
819.2781896900958
 31
0.0
  0
TEXT
  5
65CB
330
1F
100
AcDbEntity
  8
文字
100
AcDbText
 10
237.45197632903
 20
837.5982415153485
 30
0.0
 40
10.0
  1
単管
 51
15.0
  7
OKANO
100
AcDbText
  0
XLINE
  5
6612
330
1F
100
AcDbEntity
  8
構築線
100
AcDbXline
 10
218.9454965241318
 20
793.3399995297423
 30
0.0
 11
1.0
 21
0.0
 31
0.0
  0
LINE
  5
6625
330
1F
100
AcDbEntity
  8
太線
100
AcDbLine
 10
341.3104485687515
 20
872.9410200441762
 30
0.0
 11
341.3104485687515
 21
866.8399995297425
 31
0.0
  0
LINE
  5
6626
330
1F
100
AcDbEntity
  8
太線
100
AcDbLine
 10
520.3007271552924
 20
872.9410200441762
 30
0.0
 11
520.3007271552924
 21
866.8399995297425
 31
0.0
  0
LINE
  5
6627
330
1F
100
AcDbEntity
  8
細線
100
AcDbLine
 10
184.419597760593
 20
872.8399995297424
 30
0.0
 11
184.419597760593
 21
866.7389790153087
 31
0.0
  0
DIMENSION
  5
6628
330
1F
100
AcDbEntity
  8
寸法線
100
AcDbDimension
  2
*D3
 10
570.0279688294394
 20
867.2389790153086
 30
0.0
 11
566.5279688294392
 21
887.7894892725258
 31
0.0
 70
    32
  1
40
 71
     5
 42
41.10102051443379
  3
sunpo
100
AcDbAlignedDimension
 13
534.3007271552924
 23
908.3399995297424
 33
0.0
 14
549.3007271552924
 24
867.2389790153086
 34
0.0
 50
90.0
100
AcDbRotatedDimension
1001
ACAD
1000
DSTYLE
1002
{
1070
    40
1040
1.0
1002
}
  0
TEXT
  5
663E
330
1F
100
AcDbEntity
  8
文字
100
AcDbText
 10
235.6592749022231
 20
890.1368163671286
 30
40.0
 40
7.0
  1
40ｍｍ
 51
15.0
  7
OKANO
100
AcDbText
  0
TEXT
  5
663F
330
1F
100
AcDbEntity
  8
文字
100
AcDbText
 10
413.178769015619
 20
892.7191241580585
 30
40.0
 40
7.0
  1
40ｍｍ
 51
15.0
  7
OKANO
100
AcDbText
  0
DIMENSION
  5
6641
330
1F
100
AcDbEntity
  8
寸法線
100
AcDbDimension
  2
*D4
 10
168.8624897836125
 20
793.3399995297423
 30
0.0
 11
165.3619976576282
 21
855.8399995297424
 31
0.0
 70
    32
  1
125
 71
     5
 42
125.0
  3
sunpo
100
AcDbAlignedDimension
 13
214.2295522808142
 23
918.3399995297424
 33
0.0
 14
217.8697506784607
 24
793.3399995297423
 34
0.0
 50
90.0
100
AcDbRotatedDimension
1001
ACAD
1000
DSTYLE
1002
{
1070
    40
1040
1.0
1002
}
  0
DIMENSION
  5
683B
330
1F
100
AcDbEntity
  8
寸法線
100
AcDbDimension
  2
*D9
 10
553.0173225885373
 20
793.2955214929825
 30
0.0
 11
549.5173225885371
 21
813.7237101810315
 31
0.0
 70
    32
  1
40
 71
     5
 42
40.85637737609795
  3
sunpo
100
AcDbAlignedDimension
 13
526.8694720409694
 23
834.1518988690804
 33
0.0
 14
528.2103498165961
 24
793.2955214929825
 34
0.0
 50
90.0
100
AcDbRotatedDimension
1001
ACAD
1000
DSTYLE
1002
{
1070
    40
1040
1.0
1002
}
  0
DIMENSION
  5
6A9E
330
1F
100
AcDbEntity
  8
寸法線
100
AcDbDimension
  2
*D37
 10
259.6927864614408
 20
972.5594567648668
 30
0.0
 11
256.1927864614407
 21
977.0594567648664
 31
0.0
 70
    32
 71
     5
 42
8.99999999999909
  3
sunpo
100
AcDbAlignedDimension
 13
273.381982589636
 23
981.5594567648659
 33
0.0
 14
273.381982589636
 24
972.5594567648668
 34
0.0
 50
90.0
100
AcDbRotatedDimension
1001
ACAD
1000
DSTYLE
1002
{
1070
    40
1040
1.0
1002
}
  0
DIMENSION
  5
6A9F
330
1F
100
AcDbEntity
  8
寸法線
100
AcDbDimension
  2
*D38
 10
495.4568230679724
 20
1017.059456764866
 30
0.0
 11
491.9568230679722
 21
997.059456764866
 31
0.0
 70
    32
 71
     5
 42
40.0
  3
sunpo
100
AcDbAlignedDimension
 13
471.749032031885
 23
977.0594567648659
 33
0.0
 14
461.7490320318849
 24
1017.059456764866
 34
0.0
 50
90.0
100
AcDbRotatedDimension
1001
ACAD
1000
DSTYLE
1002
{
1070
    40
1040
1.0
1002
}
  0
DIMENSION
  5
6AA0
330
1F
100
AcDbEntity
  8
寸法線
100
AcDbDimension
  2
*D39
 10
308.768399302382
 20
1017.059456764866
 30
0.0
 11
305.2683993023818
 21
996.7396270882606
 31
0.0
 70
    32
  1
40
 71
     5
 42
40.63965935321085
  3
sunpo
100
AcDbAlignedDimension
 13
290.881982589636
 23
976.419797411655
 33
0.0
 14
280.881982589636
 24
1017.059456764866
 34
0.0
 50
90.0
100
AcDbRotatedDimension
1001
ACAD
1000
DSTYLE
1002
{
1070
    40
1040
1.0
1070
   279
1070
     1
1002
}
  0
DIMENSION
  5
6AA1
330
1F
100
AcDbEntity
  8
寸法線
100
AcDbDimension
  2
*D40
 10
308.768399302382
 20
976.419797411655
 30
0.0
 11
305.2683993023818
 21
956.7396270882605
 31
0.0
 70
    32
  1
40
 71
     5
 42
39.36034064678915
  3
sunpo
100
AcDbAlignedDimension
 13
280.881982589636
 23
937.0594567648659
 33
0.0
 14
290.881982589636
 24
976.419797411655
 34
0.0
 50
90.0
100
AcDbRotatedDimension
1001
ACAD
1000
DSTYLE
1002
{
1070
    40
1040
1.0
1002
}
  0
LINE
  5
6AA2
330
1F
100
AcDbEntity
  8
太線
100
AcDbLine
 10
385.7490320318849
 20
1007.059456764865
 30
0.0
 11
385.7490320318849
 21
987.0594567648659
 31
0.0
  0
LINE
  5
6AA3
330
1F
100
AcDbEntity
  8
太線
100
AcDbLine
 10
471.749032031885
 20
1007.059456764865
 30
0.0
 11
471.749032031885
 21
987.0594567648659
 31
0.0
  0
DIMENSION
  5
6AA4
330
1F
100
AcDbEntity
  8
寸法線
100
AcDbDimension
  2
*D41
 10
395.7490320318851
 20
1007.059456764865
 30
0.0
 11
375.44275772688
 21
1021.422537014447
 31
0.0
 70
   164
 71
     5
 42
10.00000000000034
  3
sunpo
100
AcDbRadialDimension
 15
387.5848956797792
 25
1012.834132307632
 35
0.0
 40
0.0
1001
ACAD
1000
DSTYLE
1002
{
1070
    40
1040
1.0
1070
   288
1070
     1
1002
}
  0
LINE
  5
6AA5
330
1F
100
AcDbEntity
  8
太線
100
AcDbLine
 10
204.8819825896359
 20
967.0594567648659
 30
0.0
 11
204.8819825896359
 21
947.0594567648658
 31
0.0
  0
LINE
  5
6AA6
330
1F
100
AcDbEntity
  8
太線
100
AcDbLine
 10
204.8819825896359
 20
1007.059456764865
 30
0.0
 11
204.8819825896359
 21
987.0594567648668
 31
0.0
  0
LINE
  5
6AA7
330
1F
100
AcDbEntity
  8
太線
100
AcDbLine
 10
290.881982589636
 20
967.0594567648659
 30
0.0
 11
290.881982589636
 21
947.0594567648658
 31
0.0
  0
LINE
  5
6AA8
330
1F
100
AcDbEntity
  8
太線
100
AcDbLine
 10
290.881982589636
 20
1007.059456764865
 30
0.0
 11
290.881982589636
 21
987.0594567648668
 31
0.0
  0
DIMENSION
  5
6AA9
330
1F
100
AcDbEntity
  8
寸法線
100
AcDbDimension
  2
*D42
 10
214.8819825896362
 20
1007.059456764865
 30
0.0
 11
198.3426451615525
 21
1023.234715189813
 31
0.0
 70
   164
 71
     5
 42
10.00000000000034
  3
sunpo
100
AcDbRadialDimension
 15
207.7326639591314
 25
1014.051398063212
 35
0.0
 40
0.0
1001
ACAD
1000
DSTYLE
1002
{
1070
    40
1040
1.0
1070
   288
1070
     1
1002
}
  0
ARC
  5
6AAA
330
1F
100
AcDbEntity
  8
太線
100
AcDbCircle
 10
280.881982589636
 20
1007.059456764865
 30
0.0
 40
10.0
100
AcDbArc
 50
0.0
 51
90.0
  0
ARC
  5
6AAB
330
1F
100
AcDbEntity
  8
太線
100
AcDbCircle
 10
214.8819825896359
 20
1007.059456764865
 30
0.0
 40
10.0
100
AcDbArc
 50
90.0
 51
180.0
  0
LINE
  5
6AAC
330
1F
100
AcDbEntity
  8
太線
100
AcDbLine
 10
214.8819825896359
 20
1017.059456764866
 30
0.0
 11
280.881982589636
 21
1017.059456764866
 31
0.0
  0
ARC
  5
6AAD
330
1F
100
AcDbEntity
  8
太線
100
AcDbCircle
 10
215.3819825896359
 20
977.0594567648659
 30
0.0
 40
4.5
100
AcDbArc
 50
90.0
 51
270.0
  0
ARC
  5
6AAE
330
1F
100
AcDbEntity
  8
太線
100
AcDbCircle
 10
220.381982589636
 20
977.0594567648659
 30
0.0
 40
4.5
100
AcDbArc
 50
270.0
 51
90.0
  0
LINE
  5
6AAF
330
1F
100
AcDbEntity
  8
太線
100
AcDbLine
 10
215.3819825896359
 20
981.5594567648659
 30
0.0
 11
220.381982589636
 21
981.5594567648659
 31
0.0
  0
LINE
  5
6AB0
330
1F
100
AcDbEntity
  8
太線
100
AcDbLine
 10
220.381982589636
 20
972.5594567648668
 30
0.0
 11
215.3819825896359
 21
972.5594567648668
 31
0.0
  0
ARC
  5
6AB1
330
1F
100
AcDbEntity
  8
太線
100
AcDbCircle
 10
278.381982589636
 20
977.0594567648659
 30
0.0
 40
4.5
100
AcDbArc
 50
270.0
 51
90.0
  0
ARC
  5
6AB2
330
1F
100
AcDbEntity
  8
太線
100
AcDbCircle
 10
273.381982589636
 20
977.0594567648659
 30
0.0
 40
4.5
100
AcDbArc
 50
90.0
 51
270.0
  0
LINE
  5
6AB3
330
1F
100
AcDbEntity
  8
太線
100
AcDbLine
 10
278.381982589636
 20
972.5594567648668
 30
0.0
 11
273.381982589636
 21
972.5594567648668
 31
0.0
  0
LINE
  5
6AB4
330
1F
100
AcDbEntity
  8
太線
100
AcDbLine
 10
273.381982589636
 20
981.5594567648659
 30
0.0
 11
278.381982589636
 21
981.5594567648659
 31
0.0
  0
DIMENSION
  5
6AB5
330
1F
100
AcDbEntity
  8
寸法線
100
AcDbDimension
  2
*D43
 10
210.8819825896359
 20
959.4080496452571
 30
0.0
 11
217.881982589636
 21
962.9080496452571
 31
0.0
 70
    32
 71
     5
 42
14.0
  3
sunpo
100
AcDbAlignedDimension
 13
224.8819825896359
 23
977.0594567648659
 33
0.0
 14
210.8819825896359
 24
977.0594567648659
 34
0.0
100
AcDbRotatedDimension
1001
ACAD
1000
DSTYLE
1002
{
1070
    40
1040
1.0
1002
}
  0
LINE
  5
6AB6
330
1F
100
AcDbEntity
  8
太線
100
AcDbLine
 10
204.8819825896359
 20
977.0594567648659
 30
0.0
 11
204.8819825896359
 21
987.0594567648668
 31
0.0
  0
LINE
  5
6AB7
330
1F
100
AcDbEntity
  8
太線
100
AcDbLine
 10
290.881982589636
 20
987.0594567648668
 30
0.0
 11
290.881982589636
 21
976.419797411655
 31
0.0
  0
LINE
  5
6AB8
330
1F
100
AcDbEntity
  8
太線
100
AcDbLine
 10
204.8819825896359
 20
977.0594567648659
 30
0.0
 11
204.8819825896359
 21
967.0594567648659
 31
0.0
  0
ARC
  5
6AB9
330
1F
100
AcDbEntity
  8
太線
100
AcDbCircle
 10
214.8819825896359
 20
947.0594567648658
 30
0.0
 40
10.0
100
AcDbArc
 50
180.0
 51
270.0
  0
LINE
  5
6ABA
330
1F
100
AcDbEntity
  8
太線
100
AcDbLine
 10
214.8819825896359
 20
937.0594567648659
 30
0.0
 11
280.881982589636
 21
937.0594567648659
 31
0.0
  0
ARC
  5
6ABB
330
1F
100
AcDbEntity
  8
太線
100
AcDbCircle
 10
280.881982589636
 20
947.0594567648658
 30
0.0
 40
10.0
100
AcDbArc
 50
270.0
 51
0.0
  0
LINE
  5
6ABC
330
1F
100
AcDbEntity
  8
太線
100
AcDbLine
 10
290.881982589636
 20
967.0594567648659
 30
0.0
 11
290.881982589636
 21
976.419797411655
 31
0.0
  0
LINE
  5
6ABD
330
1F
100
AcDbEntity
  8
太線
100
AcDbLine
 10
471.749032031885
 20
976.4197974116541
 30
0.0
 11
471.6909371345193
 21
962.0594567648659
 31
0.0
  0
LINE
  5
6ABE
330
1F
100
AcDbEntity
  8
太線
100
AcDbLine
 10
385.7490320318849
 20
977.0594567648659
 30
0.0
 11
385.7490320318849
 21
962.0594567648659
 31
0.0
  0
LINE
  5
6ABF
330
1F
100
AcDbEntity
  8
太線
100
AcDbLine
 10
385.6909371345193
 20
962.0594567648659
 30
0.0
 11
471.6909371345193
 21
962.0594567648659
 31
0.0
  0
LINE
  5
6AC0
330
1F
100
AcDbEntity
  8
想像線
100
AcDbLine
 10
385.6909371345193
 20
965.0594567648658
 30
0.0
 11
471.6909371345193
 21
965.0594567648658
 31
0.0
  0
LINE
  5
6AC1
330
1F
100
AcDbEntity
  8
太線
100
AcDbLine
 10
391.8170487954153
 20
954.0449617295903
 30
0.0
 11
463.7064300883621
 21
954.0449617295903
 31
0.0
  0
ARC
  5
6AC2
330
1F
100
AcDbEntity
  8
太線
100
AcDbCircle
 10
394.2642351686139
 20
962.2641226453326
 30
0.0
 40
8.575740627143373
100
AcDbArc
 50
181.3675325705322
 51
253.4195404704698
  0
ARC
  5
6AC3
330
1F
100
AcDbEntity
  8
太線
100
AcDbCircle
 10
459.044312093322
 20
966.6741985381733
 30
0.0
 40
13.46227939715074
100
AcDbArc
 50
290.2617654909258
 51
339.953020805332
  0
ARC
  5
6AC4
330
1F
100
AcDbEntity
  8
太線
100
AcDbCircle
 10
461.7490320318849
 20
1007.059456764865
 30
0.0
 40
10.0
100
AcDbArc
 50
0.0
 51
90.0
  0
ARC
  5
6AC5
330
1F
100
AcDbEntity
  8
太線
100
AcDbCircle
 10
395.749032031885
 20
1007.059456764865
 30
0.0
 40
10.0
100
AcDbArc
 50
90.0
 51
180.0
  0
LINE
  5
6AC6
330
1F
100
AcDbEntity
  8
太線
100
AcDbLine
 10
395.749032031885
 20
1017.059456764866
 30
0.0
 11
461.7490320318849
 21
1017.059456764866
 31
0.0
  0
ARC
  5
6AC7
330
1F
100
AcDbEntity
  8
太線
100
AcDbCircle
 10
396.2490320318849
 20
977.0594567648659
 30
0.0
 40
4.5
100
AcDbArc
 50
90.0
 51
270.0
  0
ARC
  5
6AC8
330
1F
100
AcDbEntity
  8
太線
100
AcDbCircle
 10
401.249032031885
 20
977.0594567648659
 30
0.0
 40
4.5
100
AcDbArc
 50
270.0
 51
90.0
  0
LINE
  5
6AC9
330
1F
100
AcDbEntity
  8
太線
100
AcDbLine
 10
396.2490320318849
 20
981.5594567648659
 30
0.0
 11
401.249032031885
 21
981.5594567648659
 31
0.0
  0
LINE
  5
6ACA
330
1F
100
AcDbEntity
  8
太線
100
AcDbLine
 10
401.249032031885
 20
972.5594567648659
 30
0.0
 11
396.2490320318849
 21
972.5594567648659
 31
0.0
  0
ARC
  5
6ACB
330
1F
100
AcDbEntity
  8
太線
100
AcDbCircle
 10
459.249032031885
 20
977.0594567648659
 30
0.0
 40
4.5
100
AcDbArc
 50
270.0
 51
90.0
  0
ARC
  5
6ACC
330
1F
100
AcDbEntity
  8
太線
100
AcDbCircle
 10
454.249032031885
 20
977.0594567648659
 30
0.0
 40
4.5
100
AcDbArc
 50
90.0
 51
270.0
  0
LINE
  5
6ACD
330
1F
100
AcDbEntity
  8
太線
100
AcDbLine
 10
459.249032031885
 20
972.5594567648659
 30
0.0
 11
454.249032031885
 21
972.5594567648659
 31
0.0
  0
LINE
  5
6ACE
330
1F
100
AcDbEntity
  8
太線
100
AcDbLine
 10
454.249032031885
 20
981.5594567648659
 30
0.0
 11
459.249032031885
 21
981.5594567648659
 31
0.0
  0
LINE
  5
6ACF
330
1F
100
AcDbEntity
  8
太線
100
AcDbLine
 10
385.7490320318849
 20
977.0594567648659
 30
0.0
 11
385.7490320318849
 21
987.0594567648659
 31
0.0
  0
LINE
  5
6AD0
330
1F
100
AcDbEntity
  8
太線
100
AcDbLine
 10
471.749032031885
 20
987.0594567648659
 30
0.0
 11
471.749032031885
 21
976.4197974116541
 31
0.0
  0
DIMENSION
  5
6AD1
330
1F
100
AcDbEntity
  8
寸法線
100
AcDbDimension
  2
*D44
 10
376.1987852881325
 20
962.0594567648659
 30
0.0
 11
372.6987852881323
 21
969.559456764866
 31
0.0
 70
    32
 71
     5
 42
15.0
  3
sunpo
100
AcDbAlignedDimension
 13
396.2490320318849
 23
977.0594567648659
 33
0.0
 14
385.7490320318849
 24
962.0594567648659
 34
0.0
 50
90.0
100
AcDbRotatedDimension
1001
ACAD
1000
DSTYLE
1002
{
1070
    40
1040
1.0
1002
}
  0
DIMENSION
  5
6AD2
330
1F
100
AcDbEntity
  8
寸法線
100
AcDbDimension
  2
*D45
 10
376.1987852881325
 20
954.0449617295903
 30
0.0
 11
372.6987852881323
 21
958.0522092472282
 31
0.0
 70
    32
  1
10
 71
     5
 42
8.014495035275558
  3
sunpo
100
AcDbAlignedDimension
 13
385.7490320318849
 23
962.0594567648659
 33
0.0
 14
391.8170487954153
 24
954.0449617295903
 34
0.0
 50
90.0
100
AcDbRotatedDimension
1001
ACAD
1000
DSTYLE
1002
{
1070
    40
1040
1.0
1070
   279
1070
     1
1002
}
  0
DIMENSION
  5
6BA8
330
1F
100
AcDbEntity
  8
太線
100
AcDbDimension
  2
*D46
 10
290.881982589636
 20
927.0400542092103
 30
0.0
 11
247.881982589636
 21
930.5400542092101
 31
0.0
 70
    32
 71
     5
 42
86.00000000000012
  3
sunpo
100
AcDbAlignedDimension
 13
204.8819825896359
 23
947.0594567648658
 33
0.0
 14
290.881982589636
 24
947.0594567648658
 34
0.0
100
AcDbRotatedDimension
1001
ACAD
1000
DSTYLE
1002
{
1070
    40
1040
1.0
1002
}
  0
DIMENSION
  5
6BBC
330
1F
100
AcDbEntity
  8
寸法線
100
AcDbDimension
  2
*D47
 10
154.0063707839581
 20
911.3399995297426
 30
0.0
 11
150.5058786579737
 21
922.3178852127125
 31
0.0
 70
    32
  1
2.5
 71
     5
 42
3.5
  3
sunpo
100
AcDbAlignedDimension
 13
204.9454965241318
 23
907.8399995297425
 33
0.0
 14
204.9454965241319
 24
911.3399995297426
 34
0.0
 50
90.0
100
AcDbRotatedDimension
1001
ACAD
1000
DSTYLE
1002
{
1070
    40
1040
1.0
1002
}
  0
XLINE
  5
6BD6
330
1F
100
AcDbEntity
  8
構築線
100
AcDbXline
 10
203.9813678889439
 20
807.3133925066624
 30
0.0
 11
0.0
 21
-1.0
 31
0.0
  0
DIMENSION
  5
6C99
330
1F
100
AcDbEntity
  8
寸法線
100
AcDbDimension
  2
*D48
 10
537.1580704178732
 20
689.5162025725003
 30
0.0
 11
524.6580704178732
 21
693.0166946984845
 31
0.0
 70
    32
 71
     5
 42
25.0
  3
sunpo
100
AcDbAlignedDimension
 13
512.1580704178732
 23
705.3985795282117
 33
0.0
 14
537.1580704178732
 24
705.3985795282117
 34
0.0
100
AcDbRotatedDimension
1001
ACAD
1000
DSTYLE
1002
{
1070
    40
1040
1.0
1002
}
  0
LINE
  5
6C9A
330
1F
100
AcDbEntity
  8
太線
100
AcDbLine
 10
533.6580344773369
 20
705.3985795282118
 30
0.0
 11
535.6580344773369
 21
705.3985795282117
 31
0.0
  0
LINE
  5
6C9B
330
1F
100
AcDbEntity
  8
太線
100
AcDbLine
 10
513.1580704178733
 20
705.3985795282117
 30
0.0
 11
515.6580344773369
 21
705.3985795282118
 31
0.0
  0
LINE
  5
6C9C
330
1F
100
AcDbEntity
  8
太線
100
AcDbLine
 10
531.158034477337
 20
707.8985795282116
 30
0.0
 11
533.6580704178733
 21
707.8985795282116
 31
0.0
  0
LINE
  5
6C9D
330
1F
100
AcDbEntity
  8
太線
100
AcDbLine
 10
515.6580704178733
 20
707.8985795282116
 30
0.0
 11
518.158034477337
 21
707.8985795282116
 31
0.0
  0
ARC
  5
6C9E
330
1F
100
AcDbEntity
  8
太線
100
AcDbCircle
 10
533.6580704178733
 20
708.8985795282117
 30
0.0
 40
1.0
100
AcDbArc
 50
270.0
 51
0.0
  0
DIMENSION
  5
6C9F
330
1F
100
AcDbEntity
  8
寸法線
100
AcDbDimension
  2
*D49
 10
192.288353557985
 20
717.8985795282117
 30
0.0
 11
188.7878614320006
 21
705.3985795282117
 31
0.0
 70
    32
 71
     5
 42
25.0
  3
sunpo
100
AcDbAlignedDimension
 13
203.9813678889439
 23
692.8985795282117
 33
0.0
 14
203.9813678889439
 24
717.8985795282117
 34
0.0
 50
90.0
100
AcDbRotatedDimension
1001
ACAD
1000
DSTYLE
1002
{
1070
    40
1040
1.0
1002
}
  0
DIMENSION
  5
6CA0
330
1F
100
AcDbEntity
  8
寸法線
100
AcDbDimension
  2
*D50
 10
427.7623569657289
 20
738.3007761487223
 30
0.0
 11
422.851605957287
 21
733.7770232649394
 31
0.0
 70
   164
  1
24.5
 71
     5
 42
23.27969746857888
  3
sunpo
100
AcDbRadialDimension
 15
410.6402930988919
 25
722.5280388096136
 35
0.0
 40
0.0
1001
ACAD
1000
DSTYLE
1002
{
1070
    40
1040
1.0
1070
   288
1070
     1
1002
}
  0
DIMENSION
  5
6CA1
330
1F
100
AcDbEntity
  8
寸法線
100
AcDbDimension
  2
*D51
 10
483.3576938962752
 20
705.5576795931067
 30
0.0
 11
479.8576938962751
 21
710.3898601906014
 31
0.0
 70
    32
  1
10
 71
     5
 42
9.664361194989169
  3
sunpo
100
AcDbAlignedDimension
 13
428.1187385772311
 23
715.2220407880959
 33
0.0
 14
470.883700996429
 24
705.5576795931067
 34
0.0
 50
90.0
100
AcDbRotatedDimension
1001
ACAD
1000
DSTYLE
1002
{
1070
    40
1040
1.0
1002
}
  0
DIMENSION
  5
6CA2
330
1F
100
AcDbEntity
  8
寸法線
100
AcDbDimension
  2
*D52
 10
369.8003332901236
 20
726.655267310268
 30
0.0
 11
366.2998411641392
 21
715.9475049157256
 31
0.0
 70
    32
  1
21
 71
     5
 42
21.41552478908488
  3
sunpo
100
AcDbAlignedDimension
 13
384.8842886960051
 23
705.2397425211831
 33
0.0
 14
404.8052528622498
 24
726.655267310268
 34
0.0
 50
90.0
100
AcDbRotatedDimension
1001
ACAD
1000
DSTYLE
1002
{
1070
    40
1040
1.0
1002
}
  0
DIMENSION
  5
6CA3
330
1F
100
AcDbEntity
  8
寸法線
100
AcDbDimension
  2
*D53
 10
470.883700996429
 20
681.2077073676627
 30
0.0
 11
427.883994846217
 21
684.7077073676627
 31
0.0
 70
    32
 71
     5
 42
85.99941230042389
  3
sunpo
100
AcDbAlignedDimension
 13
384.8842886960051
 23
705.2397425211831
 33
0.0
 14
470.883700996429
 24
705.5576795931067
 34
0.0
100
AcDbRotatedDimension
1001
ACAD
1000
DSTYLE
1002
{
1070
    40
1040
1.0
1002
}
  0
DIMENSION
  5
6CA4
330
1F
100
AcDbEntity
  8
寸法線
100
AcDbDimension
  2
*D54
 10
567.8920211597534
 20
726.3985795282117
 30
0.0
 11
564.391529033769
 21
715.8985795282118
 31
0.0
 70
    32
 71
     5
 42
21.0
  3
sunpo
100
AcDbAlignedDimension
 13
533.6580344773369
 23
705.3985795282117
 33
0.0
 14
532.1580344773369
 24
726.3985795282117
 34
0.0
 50
90.0
100
AcDbRotatedDimension
1001
ACAD
1000
DSTYLE
1002
{
1070
    40
1040
1.0
1002
}
  0
LINE
  5
6CA5
330
1F
100
AcDbEntity
  8
寸法線
100
AcDbLine
 10
537.1580704178732
 20
706.3985795282118
 30
0.0
 11
537.1580704178732
 21
725.3985795282117
 31
0.0
  0
LINE
  5
6CA6
330
1F
100
AcDbEntity
  8
想像線
100
AcDbLine
 10
203.9813678889439
 20
695.3985795282116
 30
0.0
 11
289.9813678889439
 21
695.3985795282116
 31
0.0
  0
LINE
  5
6CA7
330
1F
100
AcDbEntity
  8
想像線
100
AcDbLine
 10
289.9813678889439
 20
715.3985795282117
 30
0.0
 11
203.9813678889439
 21
715.3985795282117
 31
0.0
  0
LINE
  5
6CA8
330
1F
100
AcDbEntity
  8
太線
100
AcDbLine
 10
289.9813678889439
 20
717.8985795282117
 30
0.0
 11
289.9813678889439
 21
692.8985795282117
 31
0.0
  0
LINE
  5
6CA9
330
1F
100
AcDbEntity
  8
太線
100
AcDbLine
 10
203.9813678889439
 20
717.8985795282117
 30
0.0
 11
203.9813678889439
 21
692.8985795282117
 31
0.0
  0
DIMENSION
  5
6CAA
330
1F
100
AcDbEntity
  8
寸法線
100
AcDbDimension
  2
*D55
 10
310.9549535113743
 20
709.8985795282117
 30
0.0
 11
307.4549535113742
 21
705.3985795282118
 31
0.0
 70
    32
 71
     5
 42
9.0
  3
sunpo
100
AcDbAlignedDimension
 13
275.9813678889439
 23
700.8985795282117
 33
0.0
 14
275.9813678889439
 24
709.8985795282117
 34
0.0
 50
90.0
100
AcDbRotatedDimension
1001
ACAD
1000
DSTYLE
1002
{
1070
    40
1040
1.0
1002
}
  0
DIMENSION
  5
6CAB
330
1F
100
AcDbEntity
  8
寸法線
100
AcDbDimension
  2
*D56
 10
210.9813678889439
 20
684.747172408602
 30
0.0
 11
217.9813678889439
 21
688.2471724086019
 31
0.0
 70
    32
 71
     5
 42
14.0
  3
sunpo
100
AcDbAlignedDimension
 13
224.9813678889439
 23
705.3985795282117
 33
0.0
 14
210.9813678889439
 24
705.3985795282117
 34
0.0
100
AcDbRotatedDimension
1001
ACAD
1000
DSTYLE
1002
{
1070
    40
1040
1.0
1002
}
  0
DIMENSION
  5
6CAC
330
1F
100
AcDbEntity
  8
寸法線
100
AcDbDimension
  2
*D57
 10
275.9666731544376
 20
728.6752869754675
 30
0.0
 11
246.9740205216908
 21
734.6752869754675
 31
0.0
 70
    32
  1
60
 71
     5
 42
57.9853052654937
  3
sunpo
100
AcDbAlignedDimension
 13
217.9813678889439
 23
715.3985795282117
 33
0.0
 14
275.9666731544376
 24
706.6249974416583
 34
0.0
100
AcDbRotatedDimension
1001
ACAD
1000
DSTYLE
1002
{
1070
   140
1040
10.0
1070
    40
1040
1.0
1002
}
  0
LINE
  5
6CAD
330
1F
100
AcDbEntity
  8
太線
100
AcDbLine
 10
273.4813678889439
 20
709.8985795282117
 30
0.0
 11
278.4813678889439
 21
709.8985795282117
 31
0.0
  0
LINE
  5
6CAE
330
1F
100
AcDbEntity
  8
太線
100
AcDbLine
 10
278.4813678889439
 20
700.8985795282117
 30
0.0
 11
273.4813678889439
 21
700.8985795282117
 31
0.0
  0
ARC
  5
6CAF
330
1F
100
AcDbEntity
  8
太線
100
AcDbCircle
 10
273.4813678889439
 20
705.3985795282117
 30
0.0
 40
4.5
100
AcDbArc
 50
90.0
 51
270.0
  0
ARC
  5
6CB0
330
1F
100
AcDbEntity
  8
太線
100
AcDbCircle
 10
278.4813678889439
 20
705.3985795282117
 30
0.0
 40
4.5
100
AcDbArc
 50
270.0
 51
90.0
  0
LINE
  5
6CB1
330
1F
100
AcDbEntity
  8
太線
100
AcDbLine
 10
220.4813678889439
 20
700.8985795282117
 30
0.0
 11
215.4813678889439
 21
700.8985795282117
 31
0.0
  0
LINE
  5
6CB2
330
1F
100
AcDbEntity
  8
太線
100
AcDbLine
 10
215.4813678889439
 20
709.8985795282117
 30
0.0
 11
220.4813678889439
 21
709.8985795282117
 31
0.0
  0
LINE
  5
6CB3
330
1F
100
AcDbEntity
  8
太線
100
AcDbLine
 10
203.9813678889439
 20
692.8985795282117
 30
0.0
 11
289.9813678889439
 21
692.8985795282117
 31
0.0
  0
LINE
  5
6CB4
330
1F
100
AcDbEntity
  8
太線
100
AcDbLine
 10
203.9813678889439
 20
717.8985795282117
 30
0.0
 11
289.9813678889439
 21
717.8985795282117
 31
0.0
  0
ARC
  5
6CB5
330
1F
100
AcDbEntity
  8
太線
100
AcDbCircle
 10
220.4813678889439
 20
705.3985795282117
 30
0.0
 40
4.5
100
AcDbArc
 50
270.0
 51
90.0
  0
ARC
  5
6CB6
330
1F
100
AcDbEntity
  8
太線
100
AcDbCircle
 10
215.4813678889439
 20
705.3985795282117
 30
0.0
 40
4.5
100
AcDbArc
 50
90.0
 51
270.0
  0
LINE
  5
6CB7
330
1F
100
AcDbEntity
  8
太線
100
AcDbLine
 10
512.1580704178732
 20
725.3985795282117
 30
0.0
 11
512.1580704178732
 21
706.3985795282118
 31
0.0
  0
LINE
  5
6CB8
330
1F
100
AcDbEntity
  8
太線
100
AcDbLine
 10
515.6580344773369
 20
705.3985795282118
 30
0.0
 11
533.6580344773369
 21
705.3985795282118
 31
0.0
  0
LINE
  5
6CB9
330
1F
100
AcDbEntity
  8
太線
100
AcDbLine
 10
537.1580704178732
 20
706.3985795282118
 30
0.0
 11
537.1580704178732
 21
725.3985795282117
 31
0.0
  0
LINE
  5
6CBA
330
1F
100
AcDbEntity
  8
太線
100
AcDbLine
 10
536.1580704178733
 20
726.3985795282117
 30
0.0
 11
534.6580704178733
 21
726.3985795282117
 31
0.0
  0
LINE
  5
6CBB
330
1F
100
AcDbEntity
  8
太線
100
AcDbLine
 10
534.6580704178733
 20
726.3985795282117
 30
0.0
 11
534.6580704178733
 21
708.8985795282117
 31
0.0
  0
LINE
  5
6CBC
330
1F
100
AcDbEntity
  8
太線
100
AcDbLine
 10
531.158034477337
 20
707.8985795282116
 30
0.0
 11
518.158034477337
 21
707.8985795282116
 31
0.0
  0
LINE
  5
6CBD
330
1F
100
AcDbEntity
  8
太線
100
AcDbLine
 10
514.6580704178733
 20
708.8985795282117
 30
0.0
 11
514.6580704178733
 21
726.3985795282117
 31
0.0
  0
LINE
  5
6CBE
330
1F
100
AcDbEntity
  8
太線
100
AcDbLine
 10
514.6580704178733
 20
726.3985795282117
 30
0.0
 11
513.1580704178733
 21
726.3985795282117
 31
0.0
  0
LINE
  5
6CBF
330
1F
100
AcDbEntity
  8
想像線
100
AcDbLine
 10
520.1580344773369
 20
705.3985795282117
 30
0.0
 11
520.1580344773369
 21
707.8985795282116
 31
0.0
  0
LINE
  5
6CC0
330
1F
100
AcDbEntity
  8
想像線
100
AcDbLine
 10
529.1580344773369
 20
705.3985795282117
 30
0.0
 11
529.1580344773369
 21
707.8985795282116
 31
0.0
  0
ARC
  5
6CC1
330
1F
100
AcDbEntity
  8
太線
100
AcDbCircle
 10
513.1580704178733
 20
706.3985795282118
 30
0.0
 40
1.0
100
AcDbArc
 50
180.0
 51
270.0
  0
ARC
  5
6CC2
330
1F
100
AcDbEntity
  8
太線
100
AcDbCircle
 10
536.1580704178733
 20
706.3985795282118
 30
0.0
 40
1.0
100
AcDbArc
 50
270.0
 51
0.0
  0
ARC
  5
6CC3
330
1F
100
AcDbEntity
  8
太線
100
AcDbCircle
 10
515.6580704178733
 20
708.8985795282117
 30
0.0
 40
1.0
100
AcDbArc
 50
180.0
 51
270.0
  0
ARC
  5
6CC4
330
1F
100
AcDbEntity
  8
太線
100
AcDbCircle
 10
513.1580704178733
 20
725.3985795282117
 30
0.0
 40
1.0
100
AcDbArc
 50
90.0
 51
180.0
  0
ARC
  5
6CC5
330
1F
100
AcDbEntity
  8
太線
100
AcDbCircle
 10
536.1580704178733
 20
725.3985795282117
 30
0.0
 40
1.0
100
AcDbArc
 50
0.0
 51
90.0
  0
LINE
  5
6CC6
330
1F
100
AcDbEntity
  8
想像線
100
AcDbLine
 10
470.874458639687
 20
708.0576625088167
 30
0.0
 11
384.8750463392631
 21
707.739725436893
 31
0.0
  0
LINE
  5
6CC7
330
1F
100
AcDbEntity
  8
太線
100
AcDbLine
 10
470.883700996429
 20
705.5576795931067
 30
0.0
 11
469.8837078301449
 21
705.5539826504099
 31
0.0
  0
LINE
  5
6CC8
330
1F
100
AcDbEntity
  8
太線
100
AcDbLine
 10
470.874458639687
 20
708.0576625088167
 30
0.0
 11
470.883700996429
 21
705.5576795931067
 31
0.0
  0
LINE
  5
6CC9
330
1F
100
AcDbEntity
  8
太線
100
AcDbLine
 10
450.3049419281717
 20
726.8234782029717
 30
0.0
 11
470.874458639687
 21
708.0576625088167
 31
0.0
  0
LINE
  5
6CCA
330
1F
100
AcDbEntity
  8
太線
100
AcDbLine
 10
384.8750463392631
 20
707.739725436893
 30
0.0
 11
404.8052528622498
 21
726.655267310268
 31
0.0
  0
LINE
  5
6CCB
330
1F
100
AcDbEntity
  8
太線
100
AcDbLine
 10
384.8842886960051
 20
705.2397425211831
 30
0.0
 11
384.8750463392631
 21
707.739725436893
 31
0.0
  0
LINE
  5
6CCC
330
1F
100
AcDbEntity
  8
太線
100
AcDbLine
 10
407.5988533606934
 20
726.6655951618059
 30
0.0
 11
404.8052528622498
 21
726.655267310268
 31
0.0
  0
LINE
  5
6CCD
330
1F
100
AcDbEntity
  8
太線
100
AcDbLine
 10
450.3049419281717
 20
726.8234782029717
 30
0.0
 11
448.0113380128702
 21
726.814998822782
 31
0.0
  0
ARC
  5
6CCE
330
1F
100
AcDbEntity
  8
太線
100
AcDbCircle
 10
427.7623569657288
 20
738.3007761487229
 30
0.0
 40
23.2796974685795
100
AcDbArc
 50
209.9867354356147
 51
330.4369039566483
  0
LINE
  5
6CCF
330
1F
100
AcDbEntity
  8
太線
100
AcDbLine
 10
469.8837078301449
 20
705.5539826504099
 30
0.0
 11
385.8842818622891
 21
705.2434394638798
 31
0.0
  0
LINE
  5
6CD0
330
1F
100
AcDbEntity
  8
破線
100
AcDbLine
 10
392.3842374431351
 20
705.2674695914089
 30
0.0
 11
392.3749950863932
 21
707.7674525071189
 31
0.0
  0
LINE
  5
6CD1
330
1F
100
AcDbEntity
  8
破線
100
AcDbLine
 10
404.8841520216851
 20
705.3136813751187
 30
0.0
 11
404.8749096649431
 21
707.8136642908288
 31
0.0
  0
LINE
  5
6CD2
330
1F
100
AcDbEntity
  8
破線
100
AcDbLine
 10
450.383841087607
 20
705.4818922678225
 30
0.0
 11
450.3745987308651
 21
707.9818751835325
 31
0.0
  0
LINE
  5
6CD3
330
1F
100
AcDbEntity
  8
破線
100
AcDbLine
 10
463.383752249299
 20
705.5299525228808
 30
0.0
 11
463.3745098925571
 21
708.0299354385909
 31
0.0
  0
DIMENSION
  5
6CD4
330
1F
100
AcDbEntity
  8
寸法線
100
AcDbDimension
  2
*D58
 10
536.1580704178733
 20
739.7470480975171
 30
0.0
 11
546.1670450140888
 21
743.2470480975171
 31
0.0
 70
    32
  1
1.5
 71
     5
 42
2.000035940536349
  3
sunpo
100
AcDbAlignedDimension
 13
534.1580344773369
 23
726.3985795282117
 33
0.0
 14
536.1580704178733
 24
725.3985795282117
 34
0.0
100
AcDbRotatedDimension
1001
ACAD
1000
DSTYLE
1002
{
1070
    40
1040
1.0
1002
}
  0
XLINE
  5
6E19
330
1F
100
AcDbEntity
  8
構築線
100
AcDbXline
 10
503.6122662302566
 20
717.8985795282117
 30
0.0
 11
1.0
 21
0.0
 31
0.0
  0
XLINE
  5
6E7C
330
1F
100
AcDbEntity
  8
構築線
100
AcDbXline
 10
524.6221990530612
 20
807.1082596747862
 30
0.0
 11
1.0
 21
0.0
 31
0.0
  0
ARC
  5
6E7D
330
1F
100
AcDbEntity
  8
太線
100
AcDbCircle
 10
536.1580704178733
 20
827.1082596747861
 30
0.0
 40
1.0
100
AcDbArc
 50
0.0
 51
90.0
  0
ARC
  5
6E7E
330
1F
100
AcDbEntity
  8
太線
100
AcDbCircle
 10
513.1580704178733
 20
827.1082596747861
 30
0.0
 40
1.0
100
AcDbArc
 50
90.0
 51
180.0
  0
ARC
  5
6E7F
330
1F
100
AcDbEntity
  8
太線
100
AcDbCircle
 10
515.6580704178733
 20
810.6082596747862
 30
0.0
 40
1.0
100
AcDbArc
 50
180.0
 51
270.0
  0
ARC
  5
6E80
330
1F
100
AcDbEntity
  8
太線
100
AcDbCircle
 10
536.1580704178733
 20
808.1082596747862
 30
0.0
 40
1.0
100
AcDbArc
 50
270.0
 51
0.0
  0
ARC
  5
6E81
330
1F
100
AcDbEntity
  8
太線
100
AcDbCircle
 10
513.1580704178733
 20
808.1082596747862
 30
0.0
 40
1.0
100
AcDbArc
 50
180.0
 51
270.0
  0
LINE
  5
6E82
330
1F
100
AcDbEntity
  8
想像線
100
AcDbLine
 10
529.1580344773369
 20
807.1082596747862
 30
0.0
 11
529.1580344773369
 21
809.608259674786
 31
0.0
  0
LINE
  5
6E83
330
1F
100
AcDbEntity
  8
想像線
100
AcDbLine
 10
520.1580344773369
 20
807.1082596747862
 30
0.0
 11
520.1580344773369
 21
809.608259674786
 31
0.0
  0
LINE
  5
6E84
330
1F
100
AcDbEntity
  8
太線
100
AcDbLine
 10
514.6580704178733
 20
828.1082596747861
 30
0.0
 11
513.1580704178733
 21
828.1082596747861
 31
0.0
  0
LINE
  5
6E85
330
1F
100
AcDbEntity
  8
太線
100
AcDbLine
 10
514.6580704178733
 20
810.6082596747862
 30
0.0
 11
514.6580704178733
 21
828.1082596747861
 31
0.0
  0
LINE
  5
6E86
330
1F
100
AcDbEntity
  8
太線
100
AcDbLine
 10
531.158034477337
 20
809.608259674786
 30
0.0
 11
518.158034477337
 21
809.608259674786
 31
0.0
  0
LINE
  5
6E87
330
1F
100
AcDbEntity
  8
太線
100
AcDbLine
 10
534.6580704178733
 20
828.1082596747861
 30
0.0
 11
534.6580704178733
 21
810.6082596747862
 31
0.0
  0
LINE
  5
6E88
330
1F
100
AcDbEntity
  8
太線
100
AcDbLine
 10
536.1580704178733
 20
828.1082596747861
 30
0.0
 11
534.6580704178733
 21
828.1082596747861
 31
0.0
  0
LINE
  5
6E89
330
1F
100
AcDbEntity
  8
太線
100
AcDbLine
 10
537.1580704178732
 20
808.1082596747862
 30
0.0
 11
537.1580704178732
 21
827.1082596747861
 31
0.0
  0
LINE
  5
6E8A
330
1F
100
AcDbEntity
  8
太線
100
AcDbLine
 10
515.6580344773369
 20
807.1082596747862
 30
0.0
 11
533.6580344773369
 21
807.1082596747862
 31
0.0
  0
LINE
  5
6E8B
330
1F
100
AcDbEntity
  8
太線
100
AcDbLine
 10
512.1580704178732
 20
827.1082596747861
 30
0.0
 11
512.1580704178732
 21
808.1082596747862
 31
0.0
  0
LINE
  5
6E8C
330
1F
100
AcDbEntity
  8
寸法線
100
AcDbLine
 10
537.1580704178732
 20
808.1082596747862
 30
0.0
 11
537.1580704178732
 21
827.1082596747861
 31
0.0
  0
ARC
  5
6E8D
330
1F
100
AcDbEntity
  8
太線
100
AcDbCircle
 10
533.6580704178733
 20
810.6082596747862
 30
0.0
 40
1.0
100
AcDbArc
 50
270.0
 51
0.0
  0
LINE
  5
6E8E
330
1F
100
AcDbEntity
  8
太線
100
AcDbLine
 10
515.6580704178733
 20
809.608259674786
 30
0.0
 11
518.158034477337
 21
809.608259674786
 31
0.0
  0
LINE
  5
6E8F
330
1F
100
AcDbEntity
  8
太線
100
AcDbLine
 10
531.158034477337
 20
809.608259674786
 30
0.0
 11
533.6580704178733
 21
809.608259674786
 31
0.0
  0
LINE
  5
6E90
330
1F
100
AcDbEntity
  8
太線
100
AcDbLine
 10
513.1580704178733
 20
807.1082596747862
 30
0.0
 11
515.6580344773369
 21
807.1082596747862
 31
0.0
  0
LINE
  5
6E91
330
1F
100
AcDbEntity
  8
太線
100
AcDbLine
 10
533.6580344773369
 20
807.1082596747862
 30
0.0
 11
535.6580344773369
 21
807.1082596747862
 31
0.0
  0
ARC
  5
6E92
330
1F
100
AcDbEntity
  8
太線
100
AcDbCircle
 10
349.3856446829114
 20
827.1082596747859
 30
0.0
 40
1.0
100
AcDbArc
 50
0.0
 51
90.0
  0
ARC
  5
6E93
330
1F
100
AcDbEntity
  8
太線
100
AcDbCircle
 10
326.3856446829114
 20
827.1082596747859
 30
0.0
 40
1.0
100
AcDbArc
 50
90.0
 51
180.0
  0
ARC
  5
6E94
330
1F
100
AcDbEntity
  8
太線
100
AcDbCircle
 10
328.8856446829114
 20
810.608259674786
 30
0.0
 40
1.0
100
AcDbArc
 50
180.0
 51
270.0
  0
ARC
  5
6E95
330
1F
100
AcDbEntity
  8
太線
100
AcDbCircle
 10
349.3856446829114
 20
808.1082596747862
 30
0.0
 40
1.0
100
AcDbArc
 50
270.0
 51
0.0
  0
ARC
  5
6E96
330
1F
100
AcDbEntity
  8
太線
100
AcDbCircle
 10
326.3856446829114
 20
808.1082596747862
 30
0.0
 40
1.0
100
AcDbArc
 50
180.0
 51
270.0
  0
LINE
  5
6E97
330
1F
100
AcDbEntity
  8
想像線
100
AcDbLine
 10
342.3856087423751
 20
807.108259674786
 30
0.0
 11
342.3856087423751
 21
809.608259674786
 31
0.0
  0
LINE
  5
6E98
330
1F
100
AcDbEntity
  8
想像線
100
AcDbLine
 10
333.385608742375
 20
807.108259674786
 30
0.0
 11
333.385608742375
 21
809.608259674786
 31
0.0
  0
LINE
  5
6E99
330
1F
100
AcDbEntity
  8
太線
100
AcDbLine
 10
327.8856446829114
 20
828.1082596747861
 30
0.0
 11
326.3856446829114
 21
828.1082596747861
 31
0.0
  0
LINE
  5
6E9A
330
1F
100
AcDbEntity
  8
太線
100
AcDbLine
 10
327.8856446829114
 20
810.608259674786
 30
0.0
 11
327.8856446829114
 21
828.1082596747861
 31
0.0
  0
LINE
  5
6E9B
330
1F
100
AcDbEntity
  8
太線
100
AcDbLine
 10
344.3856087423751
 20
809.608259674786
 30
0.0
 11
331.3856087423751
 21
809.608259674786
 31
0.0
  0
LINE
  5
6E9C
330
1F
100
AcDbEntity
  8
太線
100
AcDbLine
 10
347.8856446829114
 20
828.1082596747861
 30
0.0
 11
347.8856446829114
 21
810.608259674786
 31
0.0
  0
LINE
  5
6E9D
330
1F
100
AcDbEntity
  8
太線
100
AcDbLine
 10
349.3856446829114
 20
828.1082596747861
 30
0.0
 11
347.8856446829114
 21
828.1082596747861
 31
0.0
  0
LINE
  5
6E9E
330
1F
100
AcDbEntity
  8
太線
100
AcDbLine
 10
350.3856446829114
 20
808.1082596747862
 30
0.0
 11
350.3856446829114
 21
827.1082596747859
 31
0.0
  0
LINE
  5
6E9F
330
1F
100
AcDbEntity
  8
太線
100
AcDbLine
 10
328.885608742375
 20
807.1082596747862
 30
0.0
 11
346.8856087423751
 21
807.1082596747862
 31
0.0
  0
LINE
  5
6EA0
330
1F
100
AcDbEntity
  8
太線
100
AcDbLine
 10
325.3856446829114
 20
827.1082596747859
 30
0.0
 11
325.3856446829114
 21
808.1082596747862
 31
0.0
  0
LINE
  5
6EA1
330
1F
100
AcDbEntity
  8
寸法線
100
AcDbLine
 10
350.3856446829114
 20
808.1082596747862
 30
0.0
 11
350.3856446829114
 21
827.1082596747859
 31
0.0
  0
ARC
  5
6EA2
330
1F
100
AcDbEntity
  8
太線
100
AcDbCircle
 10
346.8856446829114
 20
810.608259674786
 30
0.0
 40
1.0
100
AcDbArc
 50
270.0
 51
0.0
  0
LINE
  5
6EA3
330
1F
100
AcDbEntity
  8
太線
100
AcDbLine
 10
328.8856446829114
 20
809.608259674786
 30
0.0
 11
331.3856087423751
 21
809.608259674786
 31
0.0
  0
LINE
  5
6EA4
330
1F
100
AcDbEntity
  8
太線
100
AcDbLine
 10
344.3856087423751
 20
809.608259674786
 30
0.0
 11
346.8856446829114
 21
809.608259674786
 31
0.0
  0
LINE
  5
6EA5
330
1F
100
AcDbEntity
  8
太線
100
AcDbLine
 10
326.3856446829114
 20
807.108259674786
 30
0.0
 11
328.885608742375
 21
807.1082596747862
 31
0.0
  0
LINE
  5
6EA6
330
1F
100
AcDbEntity
  8
太線
100
AcDbLine
 10
346.8856087423751
 20
807.1082596747862
 30
0.0
 11
348.8856087423751
 21
807.108259674786
 31
0.0
  0
LINE
  5
6EA7
330
1F
100
AcDbEntity
  8
破線
100
AcDbLine
 10
514.6580704178733
 20
817.2389790153088
 30
0.0
 11
519.8007271552923
 21
817.2389790153088
 31
0.0
  0
LINE
  5
6EA8
330
1F
100
AcDbEntity
  8
破線
100
AcDbLine
 10
528.8007271552926
 20
817.2389790153086
 30
0.0
 11
534.6580704178733
 21
817.2389790153086
 31
0.0
  0
LINE
  5
6EA9
330
1F
100
AcDbEntity
  8
破線
100
AcDbLine
 10
537.1580704178732
 20
817.2389790153086
 30
0.0
 11
562.5217850466724
 21
817.2389790153086
 31
0.0
  0
LINE
  5
6EAA
330
1F
100
AcDbEntity
  8
破線
100
AcDbLine
 10
327.8856446829114
 20
817.2389790153086
 30
0.0
 11
332.8104485687514
 21
817.2389790153086
 31
0.0
  0
LINE
  5
6EAB
330
1F
100
AcDbEntity
  8
破線
100
AcDbLine
 10
341.8104485687517
 20
817.2389790153086
 30
0.0
 11
347.8856446829114
 21
817.2389790153086
 31
0.0
  0
TEXT
  5
6EB8
330
1F
100
AcDbEntity
  8
文字
100
AcDbText
 10
214.4605169846586
 20
1084.390789819168
 30
0.0
 40
10.0
  1
パネル裏側止め金具：オールステンレス（SUS304)
 51
15.0
  7
OKANO
100
AcDbText
  0
XLINE
  5
6EC9
330
1F
100
AcDbEntity
  8
構築線
100
AcDbXline
 10
384.8497733180993
 20
908.3046703216679
 30
0.0
 11
0.0
 21
-1.0
 31
0.0
  0
XLINE
  5
6ECA
330
1F
100
AcDbEntity
  8
構築線
100
AcDbXline
 10
337.8497733180993
 20
908.3046703216679
 30
0.0
 11
0.0
 21
-1.0
 31
0.0
  0
XLINE
  5
6ECB
330
1F
100
AcDbEntity
  8
構築線
100
AcDbXline
 10
297.8497733180993
 20
908.3046703216679
 30
0.0
 11
0.0
 21
-1.0
 31
0.0
  0
XLINE
  5
6ECC
330
1F
100
AcDbEntity
  8
構築線
100
AcDbXline
 10
377.8497733180993
 20
908.3046703216679
 30
0.0
 11
0.0
 21
-1.0
 31
0.0
  0
XLINE
  5
6ECD
330
1F
100
AcDbEntity
  8
構築線
100
AcDbXline
 10
349.9454965241318
 20
911.3399995297426
 30
0.0
 11
1.0
 21
0.0
 31
0.0
  0
LINE
  5
6ECE
330
1F
100
AcDbEntity
  8
太線
100
AcDbLine
 10
317.3104485687515
 20
911.3399995297426
 30
0.0
 11
297.8497733180993
 21
911.3399995297426
 31
0.0
  0
LINE
  5
6ECF
330
1F
100
AcDbEntity
  8
太線
100
AcDbLine
 10
297.8497733180993
 20
911.3399995297426
 30
0.0
 11
297.8497733180993
 21
907.8399995297425
 31
0.0
  0
LINE
  5
6ED0
330
1F
100
AcDbEntity
  8
太線
100
AcDbLine
 10
297.8497733180993
 20
907.8399995297425
 30
0.0
 11
377.8497733180993
 21
908.3399995297424
 31
0.0
  0
LINE
  5
6ED1
330
1F
100
AcDbEntity
  8
太線
100
AcDbLine
 10
377.8497733180993
 20
908.3399995297424
 30
0.0
 11
377.8497733180993
 21
911.3399995297426
 31
0.0
  0
LINE
  5
6ED2
330
1F
100
AcDbEntity
  8
太線
100
AcDbLine
 10
377.8497733180993
 20
911.3399995297426
 30
0.0
 11
357.3104485687515
 21
911.3399995297426
 31
0.0
  0
XLINE
  5
6ED3
330
1F
100
AcDbEntity
  8
構築線
100
AcDbXline
 10
484.6221990530612
 20
823.2305354893615
 30
0.0
 11
0.0
 21
1.0
 31
0.0
  0
LINE
  5
6ED4
330
1F
100
AcDbEntity
  8
太線
100
AcDbLine
 10
504.3007271552924
 20
911.3399995297426
 30
0.0
 11
484.6221990530612
 21
911.3399995297426
 31
0.0
  0
LINE
  5
6ED5
330
1F
100
AcDbEntity
  8
太線
100
AcDbLine
 10
504.3007271552924
 20
908.3399995297424
 30
0.0
 11
484.5669447118998
 21
908.3399995297424
 31
0.0
  0
LINE
  5
6ED6
330
1F
100
AcDbEntity
  8
太線
100
AcDbLine
 10
484.5669447118998
 20
908.3399995297424
 30
0.0
 11
484.5669447118998
 21
911.0709360909531
 31
0.0
  0
DIMENSION
  5
6ED7
330
1F
100
AcDbEntity
  8
寸法線
100
AcDbDimension
  2
*D59
 10
524.3007271552924
 20
922.9633441181503
 30
0.0
 11
504.4338359335961
 21
926.4633441181503
 31
0.0
 70
    32
  1
40
 71
     5
 42
39.73378244339255
  3
sunpo
100
AcDbAlignedDimension
 13
484.5669447118998
 23
911.0709360909531
 33
0.0
 14
524.3007271552924
 24
914.3399995297425
 34
0.0
100
AcDbRotatedDimension
1001
ACAD
1000
DSTYLE
1002
{
1070
    40
1040
1.0
1002
}
  0
DIMENSION
  5
6EED
330
1F
100
AcDbEntity
  8
寸法線
100
AcDbDimension
  2
*D60
 10
377.8497733180993
 20
925.3136076507216
 30
0.0
 11
337.8497733180993
 21
928.8136076507216
 31
0.0
 70
    32
 71
     5
 42
80.0
  3
sunpo
100
AcDbAlignedDimension
 13
297.8497733180993
 23
911.3399995297426
 33
0.0
 14
377.8497733180993
 24
911.3399995297426
 34
0.0
100
AcDbRotatedDimension
1001
ACAD
1000
DSTYLE
1002
{
1070
    40
1040
1.0
1002
}
  0
LINE
  5
6EFA
330
1F
100
AcDbEntity
  8
破線
100
AcDbLine
 10
518.1183516110177
 20
908.3399995297424
 30
0.0
 11
343.5744818081147
 21
908.1257789578051
 31
0.0
  0
LEADER
  5
7064
330
1F
100
AcDbEntity
  8
寸法線
100
AcDbLeader
  3
sunpo
 76
     2
 10
665.9147445502521
 20
891.5484784174438
 30
0.0
 10
666.1220939607655
 20
878.4988340354736
 30
0.0
211
-1.0
221
0.0000000000000001
231
0.0
1001
ACAD
1000
DSTYLE
1002
{
1070
   147
1040
1.0
1070
    77
1070
     0
1002
}
  0
TEXT
  5
7065
330
1F
100
AcDbEntity
  8
文字
100
AcDbText
 10
603.5287140211874
 20
921.1624175561453
 30
0.0
 40
6.0
  1
強度は設計基準を参照
 51
15.0
  7
OKANO
100
AcDbText
  0
TEXT
  5
7066
330
1F
100
AcDbEntity
  8
文字
100
AcDbText
 10
589.2036321431578
 20
894.3328826223885
 30
0.0
 40
6.0
  1
荷重1000Ｎ
 51
15.0
  7
OKANO
100
AcDbText
  0
LEADER
  5
7067
330
1F
100
AcDbEntity
  8
寸法線
100
AcDbLeader
  3
sunpo
 76
     2
 10
608.4795420403235
 20
891.9834663366829
 30
0.0
 10
608.4795420403235
 20
878.9338219547127
 30
0.0
211
-1.0
221
0.0000000000000001
231
0.0
1001
ACAD
1000
DSTYLE
1002
{
1070
   147
1040
1.0
1070
    77
1070
     0
1002
}
  0
LINE
  5
7068
330
1F
100
AcDbEntity
  8
想像線
100
AcDbLine
 10
604.8904568310794
 20
847.5543934217583
 30
0.0
 11
604.8904568310794
 21
849.2586626929227
 31
0.0
  0
LINE
  5
7069
330
1F
100
AcDbEntity
  8
細線
100
AcDbLine
 10
604.8904568310794
 20
875.29787336771
 30
0.0
 11
604.3904568310794
 21
874.29787336771
 31
0.0
  0
LINE
  5
706A
330
1F
100
AcDbEntity
  8
細線
100
AcDbLine
 10
613.3904568310794
 20
874.29787336771
 30
0.0
 11
612.8904568310794
 21
875.29787336771
 31
0.0
  0
LINE
  5
706B
330
1F
100
AcDbEntity
  8
太線
100
AcDbLine
 10
604.8904568310794
 20
875.29787336771
 30
0.0
 11
612.8904568310794
 21
875.29787336771
 31
0.0
  0
LINE
  5
706C
330
1F
100
AcDbEntity
  8
太線
100
AcDbLine
 10
613.3904568310794
 20
841.5040112036622
 30
0.0
 11
613.3904568310794
 21
836.9383456343058
 31
0.0
  0
LINE
  5
706D
330
1F
100
AcDbEntity
  8
細線
100
AcDbLine
 10
613.3904568310794
 20
836.9383456343058
 30
0.0
 11
612.8904568310794
 21
834.9383456343058
 31
0.0
  0
LINE
  5
706E
330
1F
100
AcDbEntity
  8
太線
100
AcDbLine
 10
612.8904568310794
 20
834.9383456343058
 30
0.0
 11
604.8904568310794
 21
834.9383456343058
 31
0.0
  0
LINE
  5
706F
330
1F
100
AcDbEntity
  8
細線
100
AcDbLine
 10
604.8904568310794
 20
834.9383456343058
 30
0.0
 11
604.3904568310794
 21
836.9383456343058
 31
0.0
  0
LINE
  5
7070
330
1F
100
AcDbEntity
  8
太線
100
AcDbLine
 10
604.3904568310794
 20
836.9383456343056
 30
0.0
 11
604.3904568310794
 21
849.7148186628795
 31
0.0
  0
LINE
  5
7071
330
1F
100
AcDbEntity
  8
太線
100
AcDbLine
 10
612.8904568310794
 20
874.29787336771
 30
0.0
 11
612.8904568310794
 21
868.4574640204107
 31
0.0
  0
LINE
  5
7072
330
1F
100
AcDbEntity
  8
太線
100
AcDbLine
 10
604.8904568310794
 20
874.29787336771
 30
0.0
 11
604.8904568310794
 21
868.4574640204107
 31
0.0
  0
LINE
  5
7073
330
1F
100
AcDbEntity
  8
細線
100
AcDbLine
 10
613.3904568310794
 20
874.2978733677098
 30
0.0
 11
613.3904568310794
 21
868.4574640204107
 31
0.0
  0
LINE
  5
7074
330
1F
100
AcDbEntity
  8
細線
100
AcDbLine
 10
604.3904568310794
 20
874.2978733677098
 30
0.0
 11
604.3904568310794
 21
868.4574640204107
 31
0.0
  0
LINE
  5
7075
330
1F
100
AcDbEntity
  8
細線
100
AcDbLine
 10
613.3904568310794
 20
874.29787336771
 30
0.0
 11
604.3904568310794
 21
874.29787336771
 31
0.0
  0
ARC
  5
7076
330
1F
100
AcDbEntity
  8
太線
100
AcDbCircle
 10
637.8904568310794
 20
828.1622671743308
 30
0.0
 40
23.2796974685795
100
AcDbArc
 50
30.7486871587825
 51
149.2513128412175
  0
LINE
  5
7077
330
1F
100
AcDbEntity
  8
想像線
100
AcDbLine
 10
594.8644155225853
 20
858.4055398887226
 30
0.0
 11
680.8638278230092
 21
858.7234769606462
 31
0.0
  0
LINE
  5
7078
330
1F
100
AcDbEntity
  8
太線
100
AcDbLine
 10
594.8551731658434
 20
860.9055228044326
 30
0.0
 11
595.8551663321274
 21
860.9092197471294
 31
0.0
  0
LINE
  5
7079
330
1F
100
AcDbEntity
  8
太線
100
AcDbLine
 10
594.8644155225853
 20
858.4055398887226
 30
0.0
 11
594.8551731658434
 21
860.9055228044326
 31
0.0
  0
LINE
  5
707A
330
1F
100
AcDbEntity
  8
太線
100
AcDbLine
 10
615.4339322341005
 20
839.6397241945676
 30
0.0
 11
594.8644155225853
 21
858.4055398887226
 31
0.0
  0
LINE
  5
707B
330
1F
100
AcDbEntity
  8
太線
100
AcDbLine
 10
680.8638278230092
 20
858.7234769606462
 30
0.0
 11
660.9336213000225
 21
839.8079350872714
 31
0.0
  0
LINE
  5
707C
330
1F
100
AcDbEntity
  8
太線
100
AcDbLine
 10
680.8545854662672
 20
861.2234598763562
 30
0.0
 11
680.8638278230092
 21
858.7234769606462
 31
0.0
  0
LINE
  5
707D
330
1F
100
AcDbEntity
  8
太線
100
AcDbLine
 10
658.1400208015789
 20
839.7976072357334
 30
0.0
 11
660.9336213000225
 21
839.8079350872714
 31
0.0
  0
LINE
  5
707E
330
1F
100
AcDbEntity
  8
太線
100
AcDbLine
 10
615.4339322341005
 20
839.6397241945676
 30
0.0
 11
617.7275361494021
 21
839.6482035747572
 31
0.0
  0
ARC
  5
707F
330
1F
100
AcDbEntity
  8
太線
370
    60
100
AcDbCircle
 10
637.9765171965435
 20
828.1624262488163
 30
0.0
 40
23.2796974685795
100
AcDbArc
 50
29.98673543561478
 51
150.4369039566483
  0
LINE
  5
7080
330
1F
100
AcDbEntity
  8
太線
100
AcDbLine
 10
595.8551663321274
 20
860.9092197471294
 30
0.0
 11
679.8545922999831
 21
861.2197629336595
 31
0.0
  0
ARC
  5
7081
330
1F
100
AcDbEntity
  8
太線
100
AcDbCircle
 10
601.6305598253296
 20
867.4574640204108
 30
0.0
 40
1.0
100
AcDbArc
 50
90.0
 51
180.0
  0
ARC
  5
7082
330
1F
100
AcDbEntity
  8
太線
100
AcDbCircle
 10
614.6305598253295
 20
867.4574640204108
 30
0.0
 40
1.0
100
AcDbArc
 50
0.0
 51
90.0
  0
ARC
  5
7083
330
1F
100
AcDbEntity
  8
太線
100
AcDbCircle
 10
600.4887021845038
 20
861.4574640204109
 30
0.0
 40
1.0
100
AcDbArc
 50
90.0
 51
180.0
  0
ARC
  5
7084
330
1F
100
AcDbEntity
  8
太線
100
AcDbCircle
 10
615.7724174661553
 20
861.4574640204109
 30
0.0
 40
1.0
100
AcDbArc
 50
0.0
 51
90.0
  0
ARC
  5
7085
330
1F
100
AcDbEntity
  8
太線
100
AcDbCircle
 10
602.3805598253296
 20
866.4291504505188
 30
0.0
 40
2.029760773594802
100
AcDbArc
 50
30.43882523641641
 51
149.5611747635836
  0
ARC
  5
7086
330
1F
100
AcDbEntity
  8
太線
100
AcDbCircle
 10
613.8805598253297
 20
866.519154908787
 30
0.0
 40
1.985679729703703
100
AcDbArc
 50
28.19916958668873
 51
151.8008304133112
  0
ARC
  5
7087
330
1F
100
AcDbEntity
  8
太線
100
AcDbCircle
 10
608.1305598253297
 20
859.957464020411
 30
0.0
 40
8.499999999999836
100
AcDbArc
 50
61.9275130641455
 51
118.0724869358545
  0
LINE
  5
7088
330
1F
100
AcDbEntity
  8
太線
100
AcDbLine
 10
604.1305598253297
 20
867.4574640204108
 30
0.0
 11
604.1305598253297
 21
862.4574640204109
 31
0.0
  0
LINE
  5
7089
330
1F
100
AcDbEntity
  8
太線
100
AcDbLine
 10
612.1305598253297
 20
867.4574640204108
 30
0.0
 11
612.1305598253297
 21
862.4574640204109
 31
0.0
  0
LINE
  5
708A
330
1F
100
AcDbEntity
  8
太線
100
AcDbLine
 10
615.6305598253297
 20
862.4574640204109
 30
0.0
 11
600.6305598253296
 21
862.4574640204109
 31
0.0
  0
LINE
  5
708B
330
1F
100
AcDbEntity
  8
太線
100
AcDbLine
 10
599.4887021845038
 20
861.4574640204109
 30
0.0
 11
599.4887021845038
 21
860.9574640204108
 31
0.0
  0
LINE
  5
708C
330
1F
100
AcDbEntity
  8
太線
100
AcDbLine
 10
600.6305598253296
 20
862.4574640204109
 30
0.0
 11
600.4887021845038
 21
862.4574640204109
 31
0.0
  0
LINE
  5
708D
330
1F
100
AcDbEntity
  8
太線
100
AcDbLine
 10
600.6305598253296
 20
867.4574640204108
 30
0.0
 11
600.6305598253296
 21
862.4574640204109
 31
0.0
  0
LINE
  5
708E
330
1F
100
AcDbEntity
  8
太線
100
AcDbLine
 10
614.6305598253295
 20
868.4574640204107
 30
0.0
 11
601.6305598253296
 21
868.4574640204107
 31
0.0
  0
LINE
  5
708F
330
1F
100
AcDbEntity
  8
太線
100
AcDbLine
 10
615.6305598253297
 20
862.4574640204109
 30
0.0
 11
615.6305598253295
 21
867.4574640204108
 31
0.0
  0
LINE
  5
7090
330
1F
100
AcDbEntity
  8
太線
100
AcDbLine
 10
615.7724174661555
 20
862.4574640204109
 30
0.0
 11
615.6305598253297
 21
862.4574640204109
 31
0.0
  0
LINE
  5
7091
330
1F
100
AcDbEntity
  8
太線
100
AcDbLine
 10
616.7724174661555
 20
860.9574640204108
 30
0.0
 11
616.7724174661555
 21
861.4574640204109
 31
0.0
  0
LINE
  5
7092
330
1F
100
AcDbEntity
  8
太線
100
AcDbLine
 10
616.7724174661555
 20
860.9574640204108
 30
0.0
 11
599.4887021845038
 21
860.9574640204108
 31
0.0
  0
LINE
  5
7093
330
1F
100
AcDbEntity
  8
太線
100
AcDbLine
 10
675.3335205355305
 20
860.9574640204108
 30
0.0
 11
658.0498052538789
 21
860.9574640204108
 31
0.0
  0
LINE
  5
7094
330
1F
100
AcDbEntity
  8
太線
100
AcDbLine
 10
675.3335205355305
 20
860.9574640204108
 30
0.0
 11
675.3335205355305
 21
861.4574640204109
 31
0.0
  0
LINE
  5
7095
330
1F
100
AcDbEntity
  8
太線
100
AcDbLine
 10
674.3335205355306
 20
862.4574640204109
 30
0.0
 11
674.1916628947048
 21
862.4574640204109
 31
0.0
  0
LINE
  5
7096
330
1F
100
AcDbEntity
  8
太線
100
AcDbLine
 10
674.1916628947048
 20
862.4574640204109
 30
0.0
 11
674.1916628947047
 21
867.4574640204108
 31
0.0
  0
LINE
  5
7097
330
1F
100
AcDbEntity
  8
太線
100
AcDbLine
 10
673.1916628947047
 20
868.4574640204107
 30
0.0
 11
660.1916628947048
 21
868.4574640204107
 31
0.0
  0
LINE
  5
7098
330
1F
100
AcDbEntity
  8
太線
100
AcDbLine
 10
659.1916628947047
 20
867.4574640204108
 30
0.0
 11
659.1916628947047
 21
862.4574640204109
 31
0.0
  0
LINE
  5
7099
330
1F
100
AcDbEntity
  8
太線
100
AcDbLine
 10
659.1916628947047
 20
862.4574640204109
 30
0.0
 11
659.0498052538789
 21
862.4574640204109
 31
0.0
  0
LINE
  5
709A
330
1F
100
AcDbEntity
  8
太線
100
AcDbLine
 10
658.0498052538789
 20
861.4574640204109
 30
0.0
 11
658.0498052538789
 21
860.9574640204108
 31
0.0
  0
LINE
  5
709B
330
1F
100
AcDbEntity
  8
太線
100
AcDbLine
 10
674.1916628947048
 20
862.4574640204109
 30
0.0
 11
659.1916628947047
 21
862.4574640204109
 31
0.0
  0
LINE
  5
709C
330
1F
100
AcDbEntity
  8
太線
100
AcDbLine
 10
670.6916628947047
 20
867.4574640204108
 30
0.0
 11
670.6916628947047
 21
862.4574640204109
 31
0.0
  0
LINE
  5
709D
330
1F
100
AcDbEntity
  8
太線
100
AcDbLine
 10
662.6916628947047
 20
867.4574640204108
 30
0.0
 11
662.6916628947047
 21
862.4574640204109
 31
0.0
  0
ARC
  5
709E
330
1F
100
AcDbEntity
  8
太線
100
AcDbCircle
 10
666.6916628947047
 20
859.957464020411
 30
0.0
 40
8.499999999999836
100
AcDbArc
 50
61.9275130641455
 51
118.0724869358545
  0
ARC
  5
709F
330
1F
100
AcDbEntity
  8
太線
100
AcDbCircle
 10
672.4416628947047
 20
866.519154908787
 30
0.0
 40
1.985679729703703
100
AcDbArc
 50
28.19916958668873
 51
151.8008304133112
  0
ARC
  5
70A0
330
1F
100
AcDbEntity
  8
太線
100
AcDbCircle
 10
660.9416628947047
 20
866.4291504505188
 30
0.0
 40
2.029760773594802
100
AcDbArc
 50
30.43882523641641
 51
149.5611747635836
  0
ARC
  5
70A1
330
1F
100
AcDbEntity
  8
太線
100
AcDbCircle
 10
674.3335205355305
 20
861.4574640204109
 30
0.0
 40
1.0
100
AcDbArc
 50
0.0
 51
90.0
  0
ARC
  5
70A2
330
1F
100
AcDbEntity
  8
太線
100
AcDbCircle
 10
659.0498052538789
 20
861.4574640204109
 30
0.0
 40
1.0
100
AcDbArc
 50
90.0
 51
180.0
  0
ARC
  5
70A3
330
1F
100
AcDbEntity
  8
太線
100
AcDbCircle
 10
673.1916628947047
 20
867.4574640204108
 30
0.0
 40
1.0
100
AcDbArc
 50
0.0
 51
90.0
  0
ARC
  5
70A4
330
1F
100
AcDbEntity
  8
太線
100
AcDbCircle
 10
660.1916628947048
 20
867.4574640204108
 30
0.0
 40
1.0
100
AcDbArc
 50
90.0
 51
180.0
  0
LINE
  5
70A5
330
1F
100
AcDbEntity
  8
細線
100
AcDbLine
 10
671.1480147439255
 20
874.29787336771
 30
0.0
 11
662.1480147439255
 21
874.29787336771
 31
0.0
  0
LINE
  5
70A6
330
1F
100
AcDbEntity
  8
細線
100
AcDbLine
 10
662.1480147439255
 20
874.2978733677098
 30
0.0
 11
662.1480147439255
 21
868.4574640204107
 31
0.0
  0
LINE
  5
70A7
330
1F
100
AcDbEntity
  8
細線
100
AcDbLine
 10
671.1480147439255
 20
874.2978733677098
 30
0.0
 11
671.1480147439255
 21
868.4574640204107
 31
0.0
  0
LINE
  5
70A8
330
1F
100
AcDbEntity
  8
太線
100
AcDbLine
 10
662.6480147439255
 20
874.29787336771
 30
0.0
 11
662.6480147439255
 21
868.4574640204107
 31
0.0
  0
LINE
  5
70A9
330
1F
100
AcDbEntity
  8
太線
100
AcDbLine
 10
670.6480147439255
 20
874.29787336771
 30
0.0
 11
670.6480147439255
 21
868.4574640204107
 31
0.0
  0
LINE
  5
70AA
330
1F
100
AcDbEntity
  8
太線
100
AcDbLine
 10
662.1480147439255
 20
836.9383456343056
 30
0.0
 11
662.1480147439255
 21
840.9605026741854
 31
0.0
  0
LINE
  5
70AB
330
1F
100
AcDbEntity
  8
細線
100
AcDbLine
 10
662.6480147439255
 20
834.9383456343058
 30
0.0
 11
662.1480147439255
 21
836.9383456343058
 31
0.0
  0
LINE
  5
70AC
330
1F
100
AcDbEntity
  8
太線
100
AcDbLine
 10
670.6480147439255
 20
834.9383456343058
 30
0.0
 11
662.6480147439255
 21
834.9383456343058
 31
0.0
  0
LINE
  5
70AD
330
1F
100
AcDbEntity
  8
細線
100
AcDbLine
 10
671.1480147439255
 20
836.9383456343058
 30
0.0
 11
670.6480147439255
 21
834.9383456343058
 31
0.0
  0
LINE
  5
70AE
330
1F
100
AcDbEntity
  8
太線
100
AcDbLine
 10
671.1480147439255
 20
849.5023046200923
 30
0.0
 11
671.1480147439255
 21
836.9383456343058
 31
0.0
  0
LINE
  5
70AF
330
1F
100
AcDbEntity
  8
太線
100
AcDbLine
 10
662.6480147439255
 20
875.29787336771
 30
0.0
 11
670.6480147439255
 21
875.29787336771
 31
0.0
  0
LINE
  5
70B0
330
1F
100
AcDbEntity
  8
細線
100
AcDbLine
 10
671.1480147439255
 20
874.29787336771
 30
0.0
 11
670.6480147439255
 21
875.29787336771
 31
0.0
  0
LINE
  5
70B1
330
1F
100
AcDbEntity
  8
細線
100
AcDbLine
 10
662.6480147439255
 20
875.29787336771
 30
0.0
 11
662.1480147439255
 21
874.29787336771
 31
0.0
  0
LINE
  5
70B2
330
1F
100
AcDbEntity
  8
想像線
100
AcDbLine
 10
670.6480147439255
 20
847.5543934217583
 30
0.0
 11
670.6480147439255
 21
849.0277600675419
 31
0.0
  0
LINE
  5
70B3
330
1F
100
AcDbEntity
  8
太線
100
AcDbLine
 10
670.8904568310794
 20
801.7978733677098
 30
0.0
 11
670.8904568310794
 21
847.5543934217583
 31
0.0
  0
LINE
  5
70B4
330
1F
100
AcDbEntity
  8
太線
100
AcDbLine
 10
662.8904568310794
 20
841.6651463702715
 30
0.0
 11
662.8904568310794
 21
801.7978733677098
 31
0.0
  0
LINE
  5
70B5
330
1F
100
AcDbEntity
  8
太線
100
AcDbLine
 10
612.8904568310794
 20
801.7978733677098
 30
0.0
 11
612.8904568310794
 21
841.960167173619
 31
0.0
  0
LINE
  5
70B6
330
1F
100
AcDbEntity
  8
太線
100
AcDbLine
 10
604.8904568310794
 20
847.5543934217583
 30
0.0
 11
604.8904568310794
 21
801.7978733677098
 31
0.0
  0
CIRCLE
  5
70B7
330
1F
100
AcDbEntity
  8
破線
100
AcDbCircle
 10
637.8904568310794
 20
826.4419646429104
 30
0.0
 40
24.5
  0
TEXT
  5
70B8
330
1F
100
AcDbEntity
  8
文字
100
AcDbText
 10
652.8886888988845
 20
894.3328826223885
 30
0.0
 40
6.0
  1
荷重1000Ｎ
 51
15.0
  7
OKANO
100
AcDbText
  0
LEADER
  5
70B9
330
1F
100
AcDbEntity
  8
寸法線
100
AcDbLeader
  3
sunpo
 76
     2
 10
649.7473258781893
 20
850.1264944029252
 30
0.0
 10
649.7473258781893
 20
858.4079582842102
 30
0.0
1001
ACAD
1000
DSTYLE
1002
{
1070
   147
1040
1.0
1070
    77
1070
     0
1002
}
  0
LEADER
  5
70BA
330
1F
100
AcDbEntity
  8
寸法線
100
AcDbLeader
  3
sunpo
 76
     2
 10
623.6302476869377
 20
848.6771962880018
 30
0.0
 10
623.6302476869377
 20
857.7867506431509
 30
0.0
1001
ACAD
1000
DSTYLE
1002
{
1070
   147
1040
1.0
1070
    77
1070
     0
1002
}
  0
LEADER
  5
70BB
330
1F
100
AcDbEntity
  8
寸法線
100
AcDbLeader
  3
sunpo
 76
     2
 10
608.2914486104336
 20
854.0602503203414
 30
0.0
 10
608.2914486104336
 20
860.8924160867033
 30
0.0
1001
ACAD
1000
DSTYLE
1002
{
1070
   147
1040
1.0
1070
    77
1070
     0
1002
}
  0
LEADER
  5
70BC
330
1F
100
AcDbEntity
  8
寸法線
100
AcDbLeader
  3
sunpo
 76
     3
 10
667.1584519901726
 20
854.6812715804996
 30
0.0
 10
667.1584519901726
 20
861.0994853004092
 30
0.0
 10
666.7441421923641
 20
861.0994853004092
 30
0.0
1001
ACAD
1000
DSTYLE
1002
{
1070
   147
1040
1.0
1070
    77
1070
     0
1002
}
  0
TEXT
  5
70BD
330
1F
100
AcDbEntity
  8
文字
100
AcDbText
 10
627.5142694019077
 20
823.6656209495711
 30
0.0
 40
10.0
  1
単管
 51
15.0
  7
OKANO
100
AcDbText
  0
TEXT
  5
70BE
330
1F
100
AcDbEntity
  8
文字
100
AcDbText
 10
125.2994312615037
 20
648.4374044931944
 30
0.0
 40
10.0
  1
台座設計基準　荷重：P(止め金具へ垂直の荷重）Uボルトへかかる荷重1000Ｎ
 51
15.0
  7
OKANO
100
AcDbText
  0
TEXT
  5
70BF
330
1F
100
AcDbEntity
  8
文字
100
AcDbText
 10
125.2994312615037
 20
630.4825320945099
 30
0.0
 40
10.0
  1
M8ボルト2本止め：2×1000＝2000Ｎ
 51
15.0
  7
OKANO
100
AcDbText
  0
TEXT
  5
70C0
330
1F
100
AcDbEntity
  8
文字
100
AcDbText
 10
125.2994312615037
 20
615.7261946904916
 30
0.0
 40
10.0
  1
安全率（使用環境に応じて設定）ここでは静荷重として安全率3を設定しています。2000/3＝667N（約65kg)
 51
15.0
  7
OKANO
100
AcDbText
  0
VIEWPORT
  5
2E
330
1B
100
AcDbEntity
 67
     1
  8
0
100
AcDbViewport
 10
225.5177471081057
 20
93.18595648171493
 30
0.0
 40
460.2101108113244
 41
181.676967779813
 68
     1
 69
     1
 12
225.5177471081057
 22
93.18595648171493
 13
0.0
 23
0.0
 14
10.0
 24
10.0
 15
10.0
 25
10.0
 16
0.0
 26
0.0
 36
1.0
 17
0.0
 27
0.0
 37
0.0
 42
50.0
 43
0.0
 44
0.0
 45
181.676967779813
 50
0.0
 51
0.0
 72
   100
 90
    32800
  1

281
     0
 71
     1
 74
     0
110
0.0
120
0.0
130
0.0
111
1.0
121
0.0
131
0.0
112
0.0
122
1.0
132
0.0
 79
     0
146
0.0
  0
VIEWPORT
  5
30
330
1B
100
AcDbEntity
 67
     1
  8
70-0-CON
100
AcDbViewport
 10
141.8594093064315
 20
100.3480256368386
 30
0.0
 40
261.6199023344245
 41
192.6196987113174
 68
     2
 69
     2
 12
490.9736677770561
 22
853.2377333320228
 13
0.0
 23
0.0
 14
5.0
 24
5.0
 15
10.0
 25
10.0
 16
0.0
 26
0.0
 36
1.0
 17
0.0
 27
0.0
 37
0.0
 42
50.0
 43
0.0
 44
0.0
 45
560.4472827832161
 50
0.0
 51
0.0
 72
   100
 90
    32864
  1

281
     0
 71
     1
 74
     0
110
0.0
120
0.0
130
0.0
111
1.0
121
0.0
131
0.0
112
0.0
122
1.0
132
0.0
 79
     0
146
0.0
  0
LWPOLYLINE
  5
45
330
1B
100
AcDbEntity
 67
     1
  8
50-0-CON
100
AcDbPolyline
 90
        4
 70
     1
 43
0.0
 10
11.04945813921926
 20
4.038176281179858
 10
272.2125713060605
 20
4.033520706629644
 10
273.4987754093466
 20
195.9297862125246
 10
11.04945813921926
 20
196.6578749924973
  0
LINE
  5
4A
330
1B
100
AcDbEntity
 67
     1
  8
50-0-CON
100
AcDbLine
 10
10.38768783662635
 20
100.3480256368386
 30
0.0
 11
-4.391850629656119
 21
100.3480256368386
 31
0.0
  0
LINE
  5
4B
330
1B
100
AcDbEntity
 67
     1
  8
50-0-CON
100
AcDbLine
 10
141.8594093064315
 20
197.098652626247
 30
0.0
 11
141.8594093064315
 21
202.387980773708
 31
0.0
  0
LINE
  5
4C
330
1B
100
AcDbEntity
 67
     1
  8
50-0-CON
100
AcDbLine
 10
272.4487699456857
 20
100.7888032705883
 30
0.0
 11
278.8458837249377
 21
100.7888032705883
 31
0.0
  0
LINE
  5
4D
330
1B
100
AcDbEntity
 67
     1
  8
50-0-CON
100
AcDbLine
 10
140.9770484758805
 20
4.038176281179858
 30
0.0
 11
140.9770484758805
 21
-3.455038652015446
 31
0.0
  0
ENDSEC
  0
SECTION
  2
OBJECTS
  0
DICTIONARY
  5
C
330
0
100
AcDbDictionary
281
     1
  3
ACAD_GROUP
350
D
  3
ACAD_LAYOUT
350
1A
  3
ACAD_MLINESTYLE
350
17
  3
ACAD_PLOTSETTINGS
350
19
  3
ACAD_PLOTSTYLENAME
350
E
  3
AcadDim
350
4D1E
  3
AcDbVariableDictionary
350
6AD
  3
DWGPROPS
350
4AEC
  0
DICTIONARY
  5
D
102
{ACAD_REACTORS
330
C
102
}
330
C
100
AcDbDictionary
281
     1
  0
DICTIONARY
  5
1A
102
{ACAD_REACTORS
330
C
102
}
330
C
100
AcDbDictionary
281
     1
  3
A4
350
1E
  3
Model
350
22
  0
DICTIONARY
  5
17
102
{ACAD_REACTORS
330
C
102
}
330
C
100
AcDbDictionary
281
     1
  3
Standard
350
18
  0
DICTIONARY
  5
19
102
{ACAD_REACTORS
330
C
102
}
330
C
100
AcDbDictionary
281
     1
  0
ACDBDICTIONARYWDFLT
  5
E
102
{ACAD_REACTORS
330
C
102
}
330
C
100
AcDbDictionary
281
     1
  3
Normal
350
F
100
AcDbDictionaryWithDefault
340
F
  0
XRECORD
  5
4D1E
102
{ACAD_REACTORS
330
C
102
}
330
C
100
AcDbXrecord
280
     1
 90
   990106
  3

 60
     0
 61
     0
 62
     1
 63
     3
 64
     0
 65
     0
 66
     0
 67
     3
 68
     1
 69
     0
 70
     0
 71
     0
 72
     0
 40
17.67629709740177
170
     0
  0
DICTIONARY
  5
6AD
102
{ACAD_REACTORS
330
C
102
}
330
C
100
AcDbDictionary
281
     1
  3
SORTENTS
350
6AE
  0
XRECORD
  5
4AEC
102
{ACAD_REACTORS
330
C
102
}
330
C
100
AcDbXrecord
280
     1
  1
DWGPROPS COOKIE
  2

  3

  4

  6

  7

  8

  9

300
=
301
=
302
=
303
=
304
=
305
=
306
=
307
=
308
=
309
=
 40
3.342131759259259
 41
2452362.482225463
 42
2455527.444288414
  1

 90
        0
  0
LAYOUT
  5
1E
102
{ACAD_REACTORS
330
1A
102
}
330
1A
100
AcDbPlotSettings
  1

  2
none_device
  4
ISO_A4_(210.00_x_297.00_MM)
  6

 40
7.5
 41
20.0
 42
7.5
 43
20.0
 44
210.0
 45
297.0
 46
0.0
 47
0.0
 48
0.0
 49
0.0
140
0.0
141
0.0
142
1.0
143
1.0
 70
   656
 72
     1
 73
     1
 74
     5
  7

 75
    16
147
1.0
148
0.0
149
0.0
100
AcDbLayout
  1
A4
 70
     1
 71
     1
 10
-20.0
 20
-7.5
 11
277.0
 21
202.4999999999999
 12
0.0
 22
0.0
 32
0.0
 14
-4.391850629656119
 24
-3.455038652015446
 34
0.0
 15
278.8458837249377
 25
202.387980773708
 35
0.0
146
0.0
 13
0.0
 23
0.0
 33
0.0
 16
1.0
 26
0.0
 36
0.0
 17
0.0
 27
1.0
 37
0.0
 76
     0
330
1B
331
2E
  0
LAYOUT
  5
22
102
{ACAD_REACTORS
330
1A
102
}
330
1A
100
AcDbPlotSettings
  1

  2
EPSON PM-920C
  4
A4
  6

 40
3.757083177566528
 41
14.7637300491333
 42
3.757080078125
 43
3.757080078125
 44
209.9733276367187
 45
296.9683227539062
 46
0.0
 47
0.0
 48
0.0
 49
0.0
140
0.0
141
0.0
142
1.0
143
1.0
 70
 11952
 72
     1
 73
     1
 74
     0
  7
C:\Program Files\ACAD LT 2000\Plot Styles\JOINT.ctb
 75
     0
147
1.0
148
-45.64199848979289
149
-84.48806419330498
100
AcDbLayout
  1
Model
 70
     1
 71
     0
 10
0.0
 20
0.0
 11
12.0
 21
9.0
 12
0.0
 22
0.0
 32
0.0
 14
0.0
 24
0.0
 34
0.0
 15
0.0
 25
0.0
 35
0.0
146
0.0
 13
0.0
 23
0.0
 33
0.0
 16
1.0
 26
0.0
 36
0.0
 17
0.0
 27
1.0
 37
0.0
 76
     0
330
1F
  0
MLINESTYLE
  5
18
102
{ACAD_REACTORS
330
17
102
}
330
17
100
AcDbMlineStyle
  2
STANDARD
 70
     0
  3

 62
   256
 51
90.0
 52
90.0
 71
     2
 49
0.5
 62
   256
  6
BYLAYER
 49
-0.5
 62
   256
  6
BYLAYER
  0
ACDBPLACEHOLDER
  5
F
102
{ACAD_REACTORS
330
E
102
}
330
E
  0
DICTIONARYVAR
  5
6AE
102
{ACAD_REACTORS
330
6AD
102
}
330
6AD
100
DictionaryVariables
280
     0
  1
119
  0
ENDSEC
  0
EOF
