  0
SECTION
  2
HEADER
  9
$ACADVER
  1
AC1015
  9
$ACADMAINTVER
 70
     6
  9
$DWGCODEPAGE
  3
ANSI_932
  9
$INSBASE
 10
0.0
 20
0.0
 30
0.0
  9
$EXTMIN
 10
-39388.31230787149
 20
-39723.85460132336
 30
0.0
  9
$EXTMAX
 10
40661.6876921285
 20
40326.14539867664
 30
40.0
  9
$LIMMIN
 10
0.0
 20
0.0
  9
$LIMMAX
 10
420.0
 20
297.0
  9
$ORTHOMODE
 70
     1
  9
$REGENMODE
 70
     1
  9
$FILLMODE
 70
     1
  9
$QTEXTMODE
 70
     0
  9
$MIRRTEXT
 70
     1
  9
$LTSCALE
 40
1.0
  9
$ATTMODE
 70
     1
  9
$TEXTSIZE
 40
5.0
  9
$TRACEWID
 40
1.0
  9
$TEXTSTYLE
  7
OKANO
  9
$CLAYER
  8
寸法線
  9
$CELTYPE
  6
ByLayer
  9
$CECOLOR
 62
   256
  9
$CELTSCALE
 40
1.0
  9
$DISPSILH
 70
     0
  9
$DIMSCALE
 40
0.0
  9
$DIMASZ
 40
3.0
  9
$DIMEXO
 40
2.0
  9
$DIMDLI
 40
8.0
  9
$DIMRND
 40
0.0
  9
$DIMDLE
 40
0.0
  9
$DIMEXE
 40
3.0
  9
$DIMTP
 40
0.0
  9
$DIMTM
 40
0.0
  9
$DIMTXT
 40
5.0
  9
$DIMCEN
 40
2.5
  9
$DIMTSZ
 40
0.0
  9
$DIMTOL
 70
     0
  9
$DIMLIM
 70
     0
  9
$DIMTIH
 70
     0
  9
$DIMTOH
 70
     0
  9
$DIMSE1
 70
     0
  9
$DIMSE2
 70
     0
  9
$DIMTAD
 70
     1
  9
$DIMZIN
 70
     8
  9
$DIMBLK
  1
Closed
  9
$DIMASO
 70
     1
  9
$DIMSHO
 70
     1
  9
$DIMPOST
  1

  9
$DIMAPOST
  1

  9
$DIMALT
 70
     0
  9
$DIMALTD
 70
     3
  9
$DIMALTF
 40
0.03937007874016
  9
$DIMLFAC
 40
1.0
  9
$DIMTOFL
 70
     1
  9
$DIMTVP
 40
0.0
  9
$DIMTIX
 70
     0
  9
$DIMSOXD
 70
     0
  9
$DIMSAH
 70
     0
  9
$DIMBLK1
  1

  9
$DIMBLK2
  1

  9
$DIMSTYLE
  2
sunpo
  9
$DIMCLRD
 70
     0
  9
$DIMCLRE
 70
     0
  9
$DIMCLRT
 70
     0
  9
$DIMTFAC
 40
1.0
  9
$DIMGAP
 40
1.0
  9
$DIMJUST
 70
     0
  9
$DIMSD1
 70
     0
  9
$DIMSD2
 70
     0
  9
$DIMTOLJ
 70
     0
  9
$DIMTZIN
 70
     8
  9
$DIMALTZ
 70
     0
  9
$DIMALTTZ
 70
     0
  9
$DIMUPT
 70
     0
  9
$DIMDEC
 70
     2
  9
$DIMTDEC
 70
     2
  9
$DIMALTU
 70
     2
  9
$DIMALTTD
 70
     3
  9
$DIMTXSTY
  7
OKANO
  9
$DIMAUNIT
 70
     0
  9
$DIMADEC
 70
     0
  9
$DIMALTRND
 40
0.0
  9
$DIMAZIN
 70
     0
  9
$DIMDSEP
 70
    46
  9
$DIMATFIT
 70
     3
  9
$DIMFRAC
 70
     0
  9
$DIMLDRBLK
  1
Closed
  9
$DIMLUNIT
 70
     2
  9
$DIMLWD
 70
    -2
  9
$DIMLWE
 70
    -2
  9
$DIMTMOVE
 70
     0
  9
$LUNITS
 70
     2
  9
$LUPREC
 70
     2
  9
$SKETCHINC
 40
1.0
  9
$FILLETRAD
 40
3.0
  9
$AUNITS
 70
     0
  9
$AUPREC
 70
     0
  9
$MENU
  1
.
  9
$ELEVATION
 40
0.0
  9
$PELEVATION
 40
0.0
  9
$THICKNESS
 40
0.0
  9
$LIMCHECK
 70
     0
  9
$CHAMFERA
 40
10.0
  9
$CHAMFERB
 40
10.0
  9
$CHAMFERC
 40
20.0
  9
$CHAMFERD
 40
0.0
  9
$SKPOLY
 70
     0
  9
$TDCREATE
 40
2452362.482225463
  9
$TDUCREATE
 40
2452362.107225463
  9
$TDUPDATE
 40
2456631.535565844
  9
$TDUUPDATE
 40
2456631.160565844
  9
$TDINDWG
 40
4.0852465162
  9
$TDUSRTIMER
 40
4.0852465162
  9
$USRTIMER
 70
     1
  9
$ANGBASE
 50
0.0
  9
$ANGDIR
 70
     0
  9
$PDMODE
 70
     0
  9
$PDSIZE
 40
0.0
  9
$PLINEWID
 40
0.0
  9
$SPLFRAME
 70
     0
  9
$SPLINETYPE
 70
     6
  9
$SPLINESEGS
 70
     8
  9
$HANDSEED
  5
6BFB
  9
$SURFTAB1
 70
     6
  9
$SURFTAB2
 70
     6
  9
$SURFTYPE
 70
     6
  9
$SURFU
 70
     6
  9
$SURFV
 70
     6
  9
$UCSBASE
  2

  9
$UCSNAME
  2

  9
$UCSORG
 10
0.0
 20
0.0
 30
0.0
  9
$UCSXDIR
 10
1.0
 20
0.0
 30
0.0
  9
$UCSYDIR
 10
0.0
 20
1.0
 30
0.0
  9
$UCSORTHOREF
  2

  9
$UCSORTHOVIEW
 70
     0
  9
$UCSORGTOP
 10
0.0
 20
0.0
 30
0.0
  9
$UCSORGBOTTOM
 10
0.0
 20
0.0
 30
0.0
  9
$UCSORGLEFT
 10
0.0
 20
0.0
 30
0.0
  9
$UCSORGRIGHT
 10
0.0
 20
0.0
 30
0.0
  9
$UCSORGFRONT
 10
0.0
 20
0.0
 30
0.0
  9
$UCSORGBACK
 10
0.0
 20
0.0
 30
0.0
  9
$PUCSBASE
  2

  9
$PUCSNAME
  2

  9
$PUCSORG
 10
0.0
 20
0.0
 30
0.0
  9
$PUCSXDIR
 10
1.0
 20
0.0
 30
0.0
  9
$PUCSYDIR
 10
0.0
 20
1.0
 30
0.0
  9
$PUCSORTHOREF
  2

  9
$PUCSORTHOVIEW
 70
     0
  9
$PUCSORGTOP
 10
0.0
 20
0.0
 30
0.0
  9
$PUCSORGBOTTOM
 10
0.0
 20
0.0
 30
0.0
  9
$PUCSORGLEFT
 10
0.0
 20
0.0
 30
0.0
  9
$PUCSORGRIGHT
 10
0.0
 20
0.0
 30
0.0
  9
$PUCSORGFRONT
 10
0.0
 20
0.0
 30
0.0
  9
$PUCSORGBACK
 10
0.0
 20
0.0
 30
0.0
  9
$USERI1
 70
     0
  9
$USERI2
 70
     0
  9
$USERI3
 70
     0
  9
$USERI4
 70
     0
  9
$USERI5
 70
     0
  9
$USERR1
 40
0.0
  9
$USERR2
 40
0.0
  9
$USERR3
 40
0.0
  9
$USERR4
 40
0.0
  9
$USERR5
 40
0.0
  9
$WORLDVIEW
 70
     1
  9
$SHADEDGE
 70
     3
  9
$SHADEDIF
 70
    70
  9
$TILEMODE
 70
     0
  9
$MAXACTVP
 70
    64
  9
$PINSBASE
 10
0.0
 20
0.0
 30
0.0
  9
$PLIMCHECK
 70
     0
  9
$PEXTMIN
 10
-4.391850629656119
 20
-3.455038652015446
 30
0.0
  9
$PEXTMAX
 10
278.8458837249377
 20
202.387980773708
 30
0.0
  9
$PLIMMIN
 10
-20.0
 20
-7.5
  9
$PLIMMAX
 10
277.0
 20
202.4999999999999
  9
$UNITMODE
 70
     0
  9
$VISRETAIN
 70
     1
  9
$PLINEGEN
 70
     0
  9
$PSLTSCALE
 70
     1
  9
$TREEDEPTH
 70
  3020
  9
$CMLSTYLE
  2
Standard
  9
$CMLJUST
 70
     0
  9
$CMLSCALE
 40
20.0
  9
$PROXYGRAPHICS
 70
     1
  9
$MEASUREMENT
 70
     1
  9
$CELWEIGHT
370
    -1
  9
$ENDCAPS
280
     0
  9
$JOINSTYLE
280
     0
  9
$LWDISPLAY
290
     0
  9
$INSUNITS
 70
     4
  9
$HYPERLINKBASE
  1

  9
$STYLESHEET
  1

  9
$XEDIT
290
     1
  9
$CEPSNTYPE
380
     0
  9
$PSTYLEMODE
290
     1
  9
$FINGERPRINTGUID
  2
{FF7F33C3-4233-11D6-AEE0-0000F45FD7F4}
  9
$VERSIONGUID
  2
{5D222490-6F6B-4B42-B438-F8218FEC7CD3}
  9
$EXTNAMES
290
     1
  9
$PSVPSCALE
 40
0.0
  9
$OLESTARTUP
290
     0
  0
ENDSEC
  0
SECTION
  2
CLASSES
  0
CLASS
  1
ACDBDICTIONARYWDFLT
  2
AcDbDictionaryWithDefault
  3
AutoCAD 2000
 90
        0
280
     0
281
     0
  0
CLASS
  1
ACDBPLACEHOLDER
  2
AcDbPlaceHolder
  3
AutoCAD 2000
 90
        0
280
     0
281
     0
  0
CLASS
  1
LAYOUT
  2
AcDbLayout
  3
AutoCAD 2000
 90
        0
280
     0
281
     0
  0
CLASS
  1
DICTIONARYVAR
  2
AcDbDictionaryVar
  3
AutoCAD 2000
 90
        0
280
     0
281
     0
  0
ENDSEC
  0
SECTION
  2
TABLES
  0
TABLE
  2
VPORT
  5
8
330
0
100
AcDbSymbolTable
 70
     1
  0
VPORT
  5
6BF4
330
8
100
AcDbSymbolTableRecord
100
AcDbViewportTableRecord
  2
*Active
 70
     0
 10
0.0
 20
0.0
 11
1.0
 21
1.0
 12
361.6099113375163
 22
794.1959277678397
 13
0.0
 23
0.0
 14
5.0
 24
5.0
 15
10.0
 25
10.0
 16
0.0
 26
0.0
 36
1.0
 17
0.0
 27
0.0
 37
0.0
 40
757.7484469001647
 41
2.08724832214765
 42
50.0
 43
0.0
 44
0.0
 50
0.0
 51
0.0
 71
     0
 72
   100
 73
     1
 74
     3
 75
     0
 76
     0
 77
     0
 78
     0
281
     0
 65
     1
110
0.0
120
0.0
130
0.0
111
1.0
121
0.0
131
0.0
112
0.0
122
1.0
132
0.0
 79
     0
146
0.0
  0
ENDTAB
  0
TABLE
  2
LTYPE
  5
5
330
0
100
AcDbSymbolTable
 70
     5
  0
LTYPE
  5
14
330
5
100
AcDbSymbolTableRecord
100
AcDbLinetypeTableRecord
  2
ByBlock
 70
     0
  3

 72
    65
 73
     0
 40
0.0
  0
LTYPE
  5
15
330
5
100
AcDbSymbolTableRecord
100
AcDbLinetypeTableRecord
  2
ByLayer
 70
     0
  3

 72
    65
 73
     0
 40
0.0
  0
LTYPE
  5
16
330
5
100
AcDbSymbolTableRecord
100
AcDbLinetypeTableRecord
  2
Continuous
 70
     0
  3
Solid line
 72
    65
 73
     0
 40
0.0
  0
LTYPE
  5
33
330
5
100
AcDbSymbolTableRecord
100
AcDbLinetypeTableRecord
  2
DASHED2
 70
     0
  3
Dashed (.5x) _ _ _ _ _ _ _ _ _ _ _ _ _ _ _ _ _
 72
    65
 73
     2
 40
9.524999999999998
 49
6.349999999999999
 74
     0
 49
-3.174999999999999
 74
     0
  0
LTYPE
  5
34
330
5
100
AcDbSymbolTableRecord
100
AcDbLinetypeTableRecord
  2
CENTER2
 70
     0
  3
Center (.5x) ___ _ ___ _ ___ _ ___ _ ___ _ ___
 72
    65
 73
     4
 40
28.57499999999999
 49
19.05
 74
     0
 49
-3.174999999999999
 74
     0
 49
3.174999999999999
 74
     0
 49
-3.174999999999999
 74
     0
  0
LTYPE
  5
35
330
5
100
AcDbSymbolTableRecord
100
AcDbLinetypeTableRecord
  2
PHANTOM2
 70
     0
  3
Phantom (.5x) ___ _ _ ___ _ _ ___ _ _ ___ _ _
 72
    65
 73
     6
 40
31.75
 49
15.875
 74
     0
 49
-3.174999999999999
 74
     0
 49
3.174999999999999
 74
     0
 49
-3.174999999999999
 74
     0
 49
3.174999999999999
 74
     0
 49
-3.174999999999999
 74
     0
  0
LTYPE
  5
36
330
5
100
AcDbSymbolTableRecord
100
AcDbLinetypeTableRecord
  2
HIDDEN2
 70
     0
  3
Hidden (.5x) _ _ _ _ _ _ _ _ _ _ _ _ _ _ _ _ _
 72
    65
 73
     2
 40
4.762499999999999
 49
3.174999999999999
 74
     0
 49
-1.587499999999999
 74
     0
  0
ENDTAB
  0
TABLE
  2
LAYER
  5
2
330
0
100
AcDbSymbolTable
 70
    13
  0
LAYER
  5
10
330
2
100
AcDbSymbolTableRecord
100
AcDbLayerTableRecord
  2
0
 70
     0
 62
     7
  6
Continuous
370
    -3
390
F
  0
LAYER
  5
40
330
2
100
AcDbSymbolTableRecord
100
AcDbLayerTableRecord
  2
50-0-CON
 70
     0
 62
     4
  6
Continuous
370
    50
390
F
  0
LAYER
  5
41
330
2
100
AcDbSymbolTableRecord
100
AcDbLayerTableRecord
  2
70-0-CON
 70
     0
 62
   202
  6
Continuous
370
    70
390
F
  0
LAYER
  5
4E
330
2
100
AcDbSymbolTableRecord
100
AcDbLayerTableRecord
  2
極太線
 70
     0
 62
     7
  6
Continuous
370
    70
390
F
  0
LAYER
  5
4F
330
2
100
AcDbSymbolTableRecord
100
AcDbLayerTableRecord
  2
細線
 70
     0
 62
     8
  6
Continuous
370
    18
390
F
  0
LAYER
  5
AB
330
2
100
AcDbSymbolTableRecord
100
AcDbLayerTableRecord
  2
構築線
 70
     0
 62
    -2
  6
Continuous
370
    18
390
F
  0
LAYER
  5
B8
330
2
100
AcDbSymbolTableRecord
100
AcDbLayerTableRecord
  2
太線
 70
     0
 62
     7
  6
Continuous
370
    35
390
F
  0
LAYER
  5
B9
330
2
100
AcDbSymbolTableRecord
100
AcDbLayerTableRecord
  2
寸法線
 70
     0
 62
     5
  6
Continuous
370
    18
390
F
  0
LAYER
  5
BA
330
2
100
AcDbSymbolTableRecord
100
AcDbLayerTableRecord
  2
破線
 70
     0
 62
     8
  6
HIDDEN2
370
    18
390
F
  0
LAYER
  5
BB
330
2
100
AcDbSymbolTableRecord
100
AcDbLayerTableRecord
  2
中心線
 70
     0
 62
     1
  6
CENTER2
370
    18
390
F
  0
LAYER
  5
BC
330
2
100
AcDbSymbolTableRecord
100
AcDbLayerTableRecord
  2
想像線
 70
     0
 62
     8
  6
PHANTOM2
370
    18
390
F
  0
LAYER
  5
BD
330
2
100
AcDbSymbolTableRecord
100
AcDbLayerTableRecord
  2
文字
 70
     0
 62
     7
  6
Continuous
370
    18
390
F
  0
LAYER
  5
180
330
2
100
AcDbSymbolTableRecord
100
AcDbLayerTableRecord
  2
Defpoints
 70
     0
 62
     7
  6
Continuous
290
     0
370
    -3
390
F
  0
ENDTAB
  0
TABLE
  2
STYLE
  5
3
330
0
100
AcDbSymbolTable
 70
     3
  0
STYLE
  5
11
330
3
100
AcDbSymbolTableRecord
100
AcDbTextStyleTableRecord
  2
Standard
 70
     0
 40
0.0
 41
1.0
 50
0.0
 71
     0
 42
3.0
  3
txt
  4

  0
STYLE
  5
32
330
3
100
AcDbSymbolTableRecord
100
AcDbTextStyleTableRecord
  2

 70
     1
 40
0.0
 41
1.0
 50
0.0
 71
     0
 42
2.5
  3
ltypeshp.shx
  4

  0
STYLE
  5
50
330
3
100
AcDbSymbolTableRecord
100
AcDbTextStyleTableRecord
  2
OKANO
 70
     0
 40
0.0
 41
1.0
 50
15.0
 71
     0
 42
5.0
  3
isocp.shx
  4
bigfont.shx
  0
ENDTAB
  0
TABLE
  2
VIEW
  5
6
330
0
100
AcDbSymbolTable
 70
     0
  0
ENDTAB
  0
TABLE
  2
UCS
  5
7
330
0
100
AcDbSymbolTable
 70
     0
  0
ENDTAB
  0
TABLE
  2
APPID
  5
9
330
0
100
AcDbSymbolTable
 70
     1
  0
APPID
  5
12
330
9
100
AcDbSymbolTableRecord
100
AcDbRegAppTableRecord
  2
ACAD
 70
     0
  0
ENDTAB
  0
TABLE
  2
DIMSTYLE
  5
A
330
0
100
AcDbSymbolTable
 70
     2
100
AcDbDimStyleTable
 71
     2
340
A2
340
27
  0
DIMSTYLE
105
27
330
A
100
AcDbSymbolTableRecord
100
AcDbDimStyleTableRecord
  2
ISO-25
 70
     0
 41
2.5
 42
0.625
 43
3.75
 44
1.25
 73
     0
 74
     0
 77
     1
 78
     8
140
2.5
141
2.5
143
0.03937007874016
147
0.625
171
     3
172
     1
271
     2
272
     2
274
     3
283
     0
284
     8
340
11
  0
DIMSTYLE
105
A2
102
{ACAD_REACTORS
330
5CED
330
5FD5
330
607E
330
6628
330
6641
330
6727
330
6728
330
6734
330
673C
330
673D
330
6752
330
6753
330
6754
330
683B
330
691E
330
6924
330
6925
330
6926
330
6927
330
6928
330
6929
330
692F
330
6930
330
6931
330
6ABD
330
6AD7
102
}
330
A
100
AcDbSymbolTableRecord
100
AcDbDimStyleTableRecord
  2
sunpo
 70
     0
 40
0.0
 41
3.0
 42
2.0
 43
8.0
 44
3.0
 73
     0
 74
     0
 77
     1
 78
     8
140
5.0
141
2.5
143
0.03937007874016
147
1.0
171
     3
172
     1
271
     2
272
     2
274
     3
283
     0
284
     8
340
50
341
9B
342
9B
  0
ENDTAB
  0
TABLE
  2
BLOCK_RECORD
  5
1
330
0
100
AcDbSymbolTable
 70
    33
  0
BLOCK_RECORD
  5
1F
330
1
100
AcDbSymbolTableRecord
100
AcDbBlockTableRecord
  2
*Model_Space
340
22
  0
BLOCK_RECORD
  5
1B
330
1
100
AcDbSymbolTableRecord
100
AcDbBlockTableRecord
  2
*Paper_Space
340
1E
  0
BLOCK_RECORD
  5
9B
330
1
100
AcDbSymbolTableRecord
100
AcDbBlockTableRecord
  2
_Closed
340
0
102
{BLKREFS
331
5CF2
331
5CF3
331
608E
331
608F
331
6601
331
6602
331
661F
331
6620
331
6638
331
6639
331
6662
331
6663
331
666E
331
666F
331
667A
331
667B
331
67F5
331
67F6
331
67FE
331
67FF
331
6807
331
6808
331
6810
331
6816
331
6817
331
681F
331
6820
331
6828
331
6829
331
6831
331
684B
331
684C
331
685D
331
685E
331
6A2A
331
6A2B
331
6A33
331
6A34
331
6A3C
331
6A3D
331
6A45
331
6A46
331
6A4E
331
6A4F
331
6A57
331
6A58
331
6A60
331
6A61
331
6A68
331
6A6E
331
6A6F
331
6A77
331
6A78
331
6AD1
331
6AD2
331
6ADE
331
6ADF
102
}
  0
BLOCK_RECORD
  5
1510
330
1
100
AcDbSymbolTableRecord
100
AcDbBlockTableRecord
  2
A$C10A573AC
340
0
  0
BLOCK_RECORD
  5
5CEE
330
1
100
AcDbSymbolTableRecord
100
AcDbBlockTableRecord
  2
*D2
340
0
  0
BLOCK_RECORD
  5
600A
330
1
100
AcDbSymbolTableRecord
100
AcDbBlockTableRecord
  2
*D3
340
0
  0
BLOCK_RECORD
  5
607F
330
1
100
AcDbSymbolTableRecord
100
AcDbBlockTableRecord
  2
*D4
340
0
  0
BLOCK_RECORD
  5
6629
330
1
100
AcDbSymbolTableRecord
100
AcDbBlockTableRecord
  2
*D6
340
0
  0
BLOCK_RECORD
  5
6642
330
1
100
AcDbSymbolTableRecord
100
AcDbBlockTableRecord
  2
*D7
340
0
  0
BLOCK_RECORD
  5
665E
330
1
100
AcDbSymbolTableRecord
100
AcDbBlockTableRecord
  2
*D8
340
0
  0
BLOCK_RECORD
  5
666A
330
1
100
AcDbSymbolTableRecord
100
AcDbBlockTableRecord
  2
*D9
340
0
  0
BLOCK_RECORD
  5
6676
330
1
100
AcDbSymbolTableRecord
100
AcDbBlockTableRecord
  2
*D10
340
0
  0
BLOCK_RECORD
  5
6682
330
1
100
AcDbSymbolTableRecord
100
AcDbBlockTableRecord
  2
A$C23BB43CC
340
0
  0
BLOCK_RECORD
  5
6756
330
1
100
AcDbSymbolTableRecord
100
AcDbBlockTableRecord
  2
*D12
340
0
  0
BLOCK_RECORD
  5
675F
330
1
100
AcDbSymbolTableRecord
100
AcDbBlockTableRecord
  2
*D13
340
0
  0
BLOCK_RECORD
  5
6768
330
1
100
AcDbSymbolTableRecord
100
AcDbBlockTableRecord
  2
*D14
340
0
  0
BLOCK_RECORD
  5
6774
330
1
100
AcDbSymbolTableRecord
100
AcDbBlockTableRecord
  2
*D15
340
0
  0
BLOCK_RECORD
  5
6780
330
1
100
AcDbSymbolTableRecord
100
AcDbBlockTableRecord
  2
*D16
340
0
  0
BLOCK_RECORD
  5
678C
330
1
100
AcDbSymbolTableRecord
100
AcDbBlockTableRecord
  2
*D17
340
0
  0
BLOCK_RECORD
  5
6798
330
1
100
AcDbSymbolTableRecord
100
AcDbBlockTableRecord
  2
*D18
340
0
  0
BLOCK_RECORD
  5
67A4
330
1
100
AcDbSymbolTableRecord
100
AcDbBlockTableRecord
  2
*D19
340
0
  0
BLOCK_RECORD
  5
683C
330
1
100
AcDbSymbolTableRecord
100
AcDbBlockTableRecord
  2
*D20
340
0
  0
BLOCK_RECORD
  5
6959
330
1
100
AcDbSymbolTableRecord
100
AcDbBlockTableRecord
  2
*D21
340
0
  0
BLOCK_RECORD
  5
6965
330
1
100
AcDbSymbolTableRecord
100
AcDbBlockTableRecord
  2
*D22
340
0
  0
BLOCK_RECORD
  5
6971
330
1
100
AcDbSymbolTableRecord
100
AcDbBlockTableRecord
  2
*D23
340
0
  0
BLOCK_RECORD
  5
6979
330
1
100
AcDbSymbolTableRecord
100
AcDbBlockTableRecord
  2
*D24
340
0
  0
BLOCK_RECORD
  5
6985
330
1
100
AcDbSymbolTableRecord
100
AcDbBlockTableRecord
  2
*D25
340
0
  0
BLOCK_RECORD
  5
6991
330
1
100
AcDbSymbolTableRecord
100
AcDbBlockTableRecord
  2
*D26
340
0
  0
BLOCK_RECORD
  5
699D
330
1
100
AcDbSymbolTableRecord
100
AcDbBlockTableRecord
  2
*D27
340
0
  0
BLOCK_RECORD
  5
69A9
330
1
100
AcDbSymbolTableRecord
100
AcDbBlockTableRecord
  2
*D28
340
0
  0
BLOCK_RECORD
  5
69B5
330
1
100
AcDbSymbolTableRecord
100
AcDbBlockTableRecord
  2
*D29
340
0
  0
BLOCK_RECORD
  5
69C1
330
1
100
AcDbSymbolTableRecord
100
AcDbBlockTableRecord
  2
*D30
340
0
  0
BLOCK_RECORD
  5
6ABE
330
1
100
AcDbSymbolTableRecord
100
AcDbBlockTableRecord
  2
*D31
340
0
  0
BLOCK_RECORD
  5
6AD8
330
1
100
AcDbSymbolTableRecord
100
AcDbBlockTableRecord
  2
*D32
340
0
  0
ENDTAB
  0
ENDSEC
  0
SECTION
  2
BLOCKS
  0
BLOCK
  5
20
330
1F
100
AcDbEntity
  8
0
100
AcDbBlockBegin
  2
*Model_Space
 70
     0
 10
0.0
 20
0.0
 30
0.0
  3
*Model_Space
  1

  0
ENDBLK
  5
21
330
1F
100
AcDbEntity
  8
0
100
AcDbBlockEnd
  0
BLOCK
  5
1C
330
1B
100
AcDbEntity
 67
     1
  8
0
100
AcDbBlockBegin
  2
*Paper_Space
 70
     0
 10
0.0
 20
0.0
 30
0.0
  3
*Paper_Space
  1

  0
ENDBLK
  5
1D
330
1B
100
AcDbEntity
 67
     1
  8
0
100
AcDbBlockEnd
  0
BLOCK
  5
A0
330
9B
100
AcDbEntity
  8
0
100
AcDbBlockBegin
  2
_Closed
 70
     0
 10
0.0
 20
0.0
 30
0.0
  3
_Closed
  1

  0
LINE
  5
9C
330
9B
100
AcDbEntity
  8
0
 62
     0
370
    -2
100
AcDbLine
 10
-1.0
 20
0.1666666666666666
 30
0.0
 11
0.0
 21
0.0
 31
0.0
  0
LINE
  5
9D
330
9B
100
AcDbEntity
  8
0
 62
     0
370
    -2
100
AcDbLine
 10
0.0
 20
0.0
 30
0.0
 11
-1.0
 21
-0.1666666666666666
 31
0.0
  0
LINE
  5
9E
330
9B
100
AcDbEntity
  8
0
 62
     0
370
    -2
100
AcDbLine
 10
-1.0
 20
0.1666666666666666
 30
0.0
 11
-1.0
 21
-0.1666666666666666
 31
0.0
  0
LINE
  5
9F
330
9B
100
AcDbEntity
  8
0
 62
     0
370
    -2
100
AcDbLine
 10
0.0
 20
0.0
 30
0.0
 11
-1.0
 21
0.0
 31
0.0
  0
ENDBLK
  5
A1
330
9B
100
AcDbEntity
  8
0
100
AcDbBlockEnd
  0
BLOCK
  5
155B
330
1510
100
AcDbEntity
  8
0
100
AcDbBlockBegin
  2
A$C10A573AC
 70
     0
 10
0.0
 20
0.0
 30
0.0
  3
A$C10A573AC
  1

  0
TEXT
  5
1511
330
1510
100
AcDbEntity
  8
文字
100
AcDbText
 10
0.9844302777919438
 20
5.224957122252135
 30
0.0
 40
3.0
  1
Materal : Steel.
 51
15.0
  7
OKANO
100
AcDbText
  0
TEXT
  5
1512
330
1510
100
AcDbEntity
  8
文字
100
AcDbText
 10
-0.1141909619694843
 20
0.7500001922403499
 30
0.0
 40
3.0
  1
Surface treatment : Electro galvanized.
 51
15.0
  7
OKANO
100
AcDbText
  0
TEXT
  5
1513
330
1510
100
AcDbEntity
  8
文字
100
AcDbText
 10
-0.4901926332574931
 20
9.159967445193728
 30
0.0
 40
3.0
  1
5 TORGUE SCREW  M5-6
 51
15.0
  7
OKANO
100
AcDbText
  0
TEXT
  5
1514
330
1510
100
AcDbEntity
  8
文字
100
AcDbText
 10
1.364713526390005
 20
78.88822913323082
 30
0.0
 40
3.0
  1
Special standard,
 51
15.0
  7
OKANO
100
AcDbText
  0
TEXT
  5
1515
330
1510
100
AcDbEntity
  8
文字
100
AcDbText
 10
92.88160823408942
 20
89.92753849837379
 30
0.0
 40
3.0
  1
Screw Type
 51
15.0
  7
OKANO
100
AcDbText
  0
LINE
  5
1516
330
1510
100
AcDbEntity
  8
太線
100
AcDbLine
 10
113.9464587597784
 20
81.93930390144641
 30
0.0
 11
112.4464587597784
 21
81.93930390144641
 31
0.0
  0
LINE
  5
1517
330
1510
100
AcDbEntity
  8
太線
100
AcDbLine
 10
112.4464587597784
 20
76.9393039014464
 30
0.0
 11
121.4644995438761
 21
76.9393039014464
 31
0.0
  0
TEXT
  5
1518
330
1510
100
AcDbEntity
  8
文字
100
AcDbText
 10
93.46068240437217
 20
77.96976862235396
 30
0.0
 40
2.0
  1
17-30
 51
15.0
  7
OKANO
100
AcDbText
  0
LINE
  5
1519
330
1510
100
AcDbEntity
  8
太線
100
AcDbLine
 10
111.9464587597784
 20
81.43930390144641
 30
0.0
 11
111.9464587597784
 21
77.4393039014464
 31
0.0
  0
LINE
  5
151A
330
1510
100
AcDbEntity
  8
太線
100
AcDbLine
 10
91.94645875977846
 20
81.43930390144641
 30
0.0
 11
91.94645875977846
 21
77.43930390144639
 31
0.0
  0
LINE
  5
151B
330
1510
100
AcDbEntity
  8
太線
100
AcDbLine
 10
101.9644995438761
 20
77.4393039014464
 30
0.0
 11
101.9644995438761
 21
81.43930390144641
 31
0.0
  0
LINE
  5
151C
330
1510
100
AcDbEntity
  8
太線
100
AcDbLine
 10
92.44645875977846
 20
76.9393039014464
 30
0.0
 11
101.4644995438761
 21
76.9393039014464
 31
0.0
  0
ARC
  5
151D
330
1510
100
AcDbEntity
  8
太線
100
AcDbCircle
 10
92.44645875977846
 20
77.43930390144639
 30
0.0
 40
0.5
100
AcDbArc
 50
180.0
 51
270.0
  0
ARC
  5
151E
330
1510
100
AcDbEntity
  8
太線
100
AcDbCircle
 10
101.4644995438761
 20
77.4393039014464
 30
0.0
 40
0.5
100
AcDbArc
 50
270.0
 51
0.0
  0
ARC
  5
151F
330
1510
100
AcDbEntity
  8
太線
100
AcDbCircle
 10
112.4464587597784
 20
77.4393039014464
 30
0.0
 40
0.5
100
AcDbArc
 50
180.0
 51
270.0
  0
LINE
  5
1520
330
1510
100
AcDbEntity
  8
想像線
100
AcDbLine
 10
93.94645875977847
 20
81.93930390144641
 30
0.0
 11
99.96449954387617
 21
81.93930390144641
 31
0.0
  0
LINE
  5
1521
330
1510
100
AcDbEntity
  8
極太線
100
AcDbLine
 10
96.38762957111168
 20
85.43930390144641
 30
0.0
 11
97.50528794844525
 21
85.43930390144641
 31
0.0
  0
CIRCLE
  5
1522
330
1510
100
AcDbEntity
  8
太線
100
AcDbCircle
 10
96.94645875977847
 20
85.43930390144641
 30
0.0
 40
0.5588291886667776
  0
LINE
  5
1523
330
1510
100
AcDbEntity
  8
太線
100
AcDbLine
 10
99.46449954387617
 20
86.93930390144641
 30
0.0
 11
94.44645875977846
 21
86.93930390144641
 31
0.0
  0
LINE
  5
1524
330
1510
100
AcDbEntity
  8
太線
100
AcDbLine
 10
93.94645875977847
 20
86.43930390144641
 30
0.0
 11
93.94645875977847
 21
81.93930390144641
 31
0.0
  0
ARC
  5
1525
330
1510
100
AcDbEntity
  8
太線
100
AcDbCircle
 10
92.44645875977846
 20
81.43930390144641
 30
0.0
 40
0.5
100
AcDbArc
 50
90.0
 51
180.0
  0
LINE
  5
1526
330
1510
100
AcDbEntity
  8
太線
100
AcDbLine
 10
93.94645875977847
 20
81.93930390144641
 30
0.0
 11
92.44645875977846
 21
81.93930390144641
 31
0.0
  0
ARC
  5
1527
330
1510
100
AcDbEntity
  8
太線
100
AcDbCircle
 10
94.44645875977846
 20
86.43930390144641
 30
0.0
 40
0.5
100
AcDbArc
 50
90.0
 51
180.0
  0
LINE
  5
1528
330
1510
100
AcDbEntity
  8
太線
100
AcDbLine
 10
99.96449954387617
 20
81.93930390144641
 30
0.0
 11
99.96449954387617
 21
86.43930390144641
 31
0.0
  0
LINE
  5
1529
330
1510
100
AcDbEntity
  8
太線
100
AcDbLine
 10
101.4644995438761
 20
81.93930390144641
 30
0.0
 11
99.96449954387617
 21
81.93930390144641
 31
0.0
  0
ARC
  5
152A
330
1510
100
AcDbEntity
  8
太線
100
AcDbCircle
 10
101.4644995438761
 20
81.43930390144641
 30
0.0
 40
0.5
100
AcDbArc
 50
0.0
 51
90.0
  0
ARC
  5
152B
330
1510
100
AcDbEntity
  8
太線
100
AcDbCircle
 10
99.46449954387617
 20
86.43930390144641
 30
0.0
 40
0.5
100
AcDbArc
 50
0.0
 51
90.0
  0
LINE
  5
152C
330
1510
100
AcDbEntity
  8
極太線
100
AcDbLine
 10
96.94645875977847
 20
85.99813309011318
 30
0.0
 11
96.94645875977847
 21
84.88047471277964
 31
0.0
  0
ARC
  5
152D
330
1510
100
AcDbEntity
  8
太線
100
AcDbCircle
 10
112.4464587597784
 20
81.43930390144641
 30
0.0
 40
0.5
100
AcDbArc
 50
90.0
 51
180.0
  0
TEXT
  5
152E
330
1510
100
AcDbEntity
  8
文字
100
AcDbText
 10
134.3819212586066
 20
78.16263579228063
 30
0.0
 40
2.0
  1
101
 51
15.0
  7
OKANO
100
AcDbText
  0
TEXT
  5
152F
330
1510
100
AcDbEntity
  8
文字
100
AcDbText
 10
113.3422276612066
 20
77.96976862235396
 30
0.0
 40
2.0
  1
38-83
 51
15.0
  7
OKANO
100
AcDbText
  0
LINE
  5
1530
330
1510
100
AcDbEntity
  8
太線
100
AcDbLine
 10
141.9825403279738
 20
77.4393039014464
 30
0.0
 11
141.9825403279738
 21
81.43930390144641
 31
0.0
  0
LINE
  5
1531
330
1510
100
AcDbEntity
  8
太線
100
AcDbLine
 10
131.9644995438761
 20
81.43930390144641
 30
0.0
 11
131.9644995438761
 21
77.4393039014464
 31
0.0
  0
LINE
  5
1532
330
1510
100
AcDbEntity
  8
太線
100
AcDbLine
 10
121.9644995438761
 20
77.4393039014464
 30
0.0
 11
121.9644995438761
 21
81.43930390144641
 31
0.0
  0
ARC
  5
1533
330
1510
100
AcDbEntity
  8
太線
100
AcDbCircle
 10
121.4644995438761
 20
77.4393039014464
 30
0.0
 40
0.5
100
AcDbArc
 50
270.0
 51
0.0
  0
LINE
  5
1534
330
1510
100
AcDbEntity
  8
太線
100
AcDbLine
 10
132.4644995438761
 20
76.9393039014464
 30
0.0
 11
141.4825403279738
 21
76.9393039014464
 31
0.0
  0
ARC
  5
1535
330
1510
100
AcDbEntity
  8
太線
100
AcDbCircle
 10
132.4644995438761
 20
77.4393039014464
 30
0.0
 40
0.5
100
AcDbArc
 50
180.0
 51
270.0
  0
ARC
  5
1536
330
1510
100
AcDbEntity
  8
太線
100
AcDbCircle
 10
141.4825403279738
 20
77.4393039014464
 30
0.0
 40
0.5
100
AcDbArc
 50
270.0
 51
0.0
  0
ARC
  5
1537
330
1510
100
AcDbEntity
  8
太線
100
AcDbCircle
 10
121.4644995438761
 20
81.43930390144641
 30
0.0
 40
0.5
100
AcDbArc
 50
0.0
 51
90.0
  0
LINE
  5
1538
330
1510
100
AcDbEntity
  8
太線
100
AcDbLine
 10
119.9644995438761
 20
81.93930390144641
 30
0.0
 11
119.9644995438761
 21
86.43930390144641
 31
0.0
  0
LINE
  5
1539
330
1510
100
AcDbEntity
  8
太線
100
AcDbLine
 10
113.9464587597784
 20
86.43930390144641
 30
0.0
 11
113.9464587597784
 21
81.93930390144641
 31
0.0
  0
LINE
  5
153A
330
1510
100
AcDbEntity
  8
想像線
100
AcDbLine
 10
113.9464587597784
 20
81.93930390144641
 30
0.0
 11
119.9644995438761
 21
81.93930390144641
 31
0.0
  0
LINE
  5
153B
330
1510
100
AcDbEntity
  8
太線
100
AcDbLine
 10
121.4644995438761
 20
81.93930390144641
 30
0.0
 11
119.9644995438761
 21
81.93930390144641
 31
0.0
  0
LINE
  5
153C
330
1510
100
AcDbEntity
  8
太線
100
AcDbLine
 10
119.4644995438761
 20
86.93930390144641
 30
0.0
 11
114.4464587597784
 21
86.93930390144641
 31
0.0
  0
ARC
  5
153D
330
1510
100
AcDbEntity
  8
太線
100
AcDbCircle
 10
114.4464587597784
 20
86.43930390144641
 30
0.0
 40
0.5
100
AcDbArc
 50
90.0
 51
180.0
  0
CIRCLE
  5
153E
330
1510
100
AcDbEntity
  8
太線
100
AcDbCircle
 10
115.4464587597784
 20
85.43930390144641
 30
0.0
 40
0.5588291886667776
  0
LINE
  5
153F
330
1510
100
AcDbEntity
  8
極太線
100
AcDbLine
 10
115.4464587597784
 20
85.99813309011318
 30
0.0
 11
115.4464587597784
 21
84.88047471277964
 31
0.0
  0
LINE
  5
1540
330
1510
100
AcDbEntity
  8
極太線
100
AcDbLine
 10
114.8876295711116
 20
85.43930390144641
 30
0.0
 11
116.0052879484452
 21
85.43930390144641
 31
0.0
  0
ARC
  5
1541
330
1510
100
AcDbEntity
  8
太線
100
AcDbCircle
 10
119.4644995438761
 20
86.43930390144641
 30
0.0
 40
0.5
100
AcDbArc
 50
0.0
 51
90.0
  0
LINE
  5
1542
330
1510
100
AcDbEntity
  8
極太線
100
AcDbLine
 10
117.9056703552094
 20
85.43930390144641
 30
0.0
 11
119.0233287325429
 21
85.43930390144641
 31
0.0
  0
LINE
  5
1543
330
1510
100
AcDbEntity
  8
極太線
100
AcDbLine
 10
118.4644995438761
 20
85.99813309011318
 30
0.0
 11
118.4644995438761
 21
84.88047471277964
 31
0.0
  0
CIRCLE
  5
1544
330
1510
100
AcDbEntity
  8
太線
100
AcDbCircle
 10
118.4644995438761
 20
85.43930390144641
 30
0.0
 40
0.5588291886667776
  0
LINE
  5
1545
330
1510
100
AcDbEntity
  8
想像線
100
AcDbLine
 10
133.9644995438761
 20
81.93930390144641
 30
0.0
 11
139.9825403279738
 21
81.93930390144641
 31
0.0
  0
LINE
  5
1546
330
1510
100
AcDbEntity
  8
極太線
100
AcDbLine
 10
137.9237111393071
 20
85.43930390144641
 30
0.0
 11
139.0413695166406
 21
85.43930390144641
 31
0.0
  0
CIRCLE
  5
1547
330
1510
100
AcDbEntity
  8
太線
100
AcDbCircle
 10
138.4825403279738
 20
85.43930390144641
 30
0.0
 40
0.5588291886667776
  0
CIRCLE
  5
1548
330
1510
100
AcDbEntity
  8
太線
100
AcDbCircle
 10
138.4825403279738
 20
83.26342923362075
 30
0.0
 40
0.5588291886667776
  0
LINE
  5
1549
330
1510
100
AcDbEntity
  8
極太線
100
AcDbLine
 10
137.9237111393071
 20
83.26342923362075
 30
0.0
 11
139.0413695166406
 21
83.26342923362075
 31
0.0
  0
LINE
  5
154A
330
1510
100
AcDbEntity
  8
太線
100
AcDbLine
 10
139.4825403279738
 20
86.93930390144641
 30
0.0
 11
134.4644995438761
 21
86.93930390144641
 31
0.0
  0
LINE
  5
154B
330
1510
100
AcDbEntity
  8
太線
100
AcDbLine
 10
133.9644995438761
 20
86.43930390144641
 30
0.0
 11
133.9644995438761
 21
81.93930390144641
 31
0.0
  0
ARC
  5
154C
330
1510
100
AcDbEntity
  8
太線
100
AcDbCircle
 10
132.4644995438761
 20
81.43930390144641
 30
0.0
 40
0.5
100
AcDbArc
 50
90.0
 51
180.0
  0
LINE
  5
154D
330
1510
100
AcDbEntity
  8
太線
100
AcDbLine
 10
133.9644995438761
 20
81.93930390144641
 30
0.0
 11
132.4644995438761
 21
81.93930390144641
 31
0.0
  0
LINE
  5
154E
330
1510
100
AcDbEntity
  8
極太線
100
AcDbLine
 10
134.9056703552093
 20
83.26342923362075
 30
0.0
 11
136.0233287325429
 21
83.26342923362075
 31
0.0
  0
LINE
  5
154F
330
1510
100
AcDbEntity
  8
極太線
100
AcDbLine
 10
135.4644995438761
 20
83.82225842228752
 30
0.0
 11
135.4644995438761
 21
82.70460004495395
 31
0.0
  0
CIRCLE
  5
1550
330
1510
100
AcDbEntity
  8
太線
100
AcDbCircle
 10
135.4644995438761
 20
83.26342923362075
 30
0.0
 40
0.5588291886667776
  0
ARC
  5
1551
330
1510
100
AcDbEntity
  8
太線
100
AcDbCircle
 10
134.4644995438761
 20
86.43930390144641
 30
0.0
 40
0.5
100
AcDbArc
 50
90.0
 51
180.0
  0
CIRCLE
  5
1552
330
1510
100
AcDbEntity
  8
太線
100
AcDbCircle
 10
135.4644995438761
 20
85.43930390144641
 30
0.0
 40
0.5588291886667776
  0
LINE
  5
1553
330
1510
100
AcDbEntity
  8
極太線
100
AcDbLine
 10
135.4644995438761
 20
85.99813309011318
 30
0.0
 11
135.4644995438761
 21
84.88047471277964
 31
0.0
  0
LINE
  5
1554
330
1510
100
AcDbEntity
  8
極太線
100
AcDbLine
 10
134.9056703552093
 20
85.43930390144641
 30
0.0
 11
136.0233287325429
 21
85.43930390144641
 31
0.0
  0
LINE
  5
1555
330
1510
100
AcDbEntity
  8
太線
100
AcDbLine
 10
139.9825403279738
 20
81.93930390144641
 30
0.0
 11
139.9825403279738
 21
86.43930390144641
 31
0.0
  0
ARC
  5
1556
330
1510
100
AcDbEntity
  8
太線
100
AcDbCircle
 10
141.4825403279738
 20
81.43930390144641
 30
0.0
 40
0.5
100
AcDbArc
 50
0.0
 51
90.0
  0
LINE
  5
1557
330
1510
100
AcDbEntity
  8
極太線
100
AcDbLine
 10
138.4825403279738
 20
83.82225842228752
 30
0.0
 11
138.4825403279738
 21
82.70460004495395
 31
0.0
  0
LINE
  5
1558
330
1510
100
AcDbEntity
  8
太線
100
AcDbLine
 10
141.4825403279738
 20
81.93930390144641
 30
0.0
 11
139.9825403279738
 21
81.93930390144641
 31
0.0
  0
ARC
  5
1559
330
1510
100
AcDbEntity
  8
太線
100
AcDbCircle
 10
139.4825403279738
 20
86.43930390144641
 30
0.0
 40
0.5
100
AcDbArc
 50
0.0
 51
90.0
  0
LINE
  5
155A
330
1510
100
AcDbEntity
  8
極太線
100
AcDbLine
 10
138.4825403279738
 20
85.99813309011318
 30
0.0
 11
138.4825403279738
 21
84.88047471277964
 31
0.0
  0
ENDBLK
  5
155C
330
1510
100
AcDbEntity
  8
0
100
AcDbBlockEnd
  0
BLOCK
  5
5CF8
330
5CEE
100
AcDbEntity
  8
0
100
AcDbBlockBegin
  2
*D2
 70
     1
 10
0.0
 20
0.0
 30
0.0
  3
*D2
  1

  0
LINE
  5
5CEF
330
5CEE
100
AcDbEntity
  8
寸法線
 62
     0
370
    -2
100
AcDbLine
 10
504.3007271552924
 20
913.3399995297425
 30
0.0
 11
504.3007271552924
 21
937.6990057828953
 31
0.0
  0
LINE
  5
5CF0
330
5CEE
100
AcDbEntity
  8
寸法線
 62
     0
370
    -2
100
AcDbLine
 10
549.3007271552924
 20
878.3399995297425
 30
0.0
 11
549.3007271552924
 21
937.6990057828953
 31
0.0
  0
LINE
  5
5CF1
330
5CEE
100
AcDbEntity
  8
寸法線
 62
     0
370
    -2
100
AcDbLine
 10
507.3007271552923
 20
934.6990057828952
 30
0.0
 11
546.3007271552924
 21
934.6990057828952
 31
0.0
  0
INSERT
  5
5CF2
330
5CEE
100
AcDbEntity
  8
寸法線
 62
     0
370
    -2
100
AcDbBlockReference
  2
_Closed
 10
504.3007271552924
 20
934.6990057828952
 30
0.0
 41
3.0
 42
3.0
 43
3.0
 50
180.0
  0
INSERT
  5
5CF3
330
5CEE
100
AcDbEntity
  8
寸法線
 62
     0
370
    -2
100
AcDbBlockReference
  2
_Closed
 10
549.3007271552924
 20
934.6990057828952
 30
0.0
 41
3.0
 42
3.0
 43
3.0
  0
MTEXT
  5
5CF4
330
5CEE
100
AcDbEntity
  8
寸法線
 62
     0
100
AcDbMText
 10
526.8007271552924
 20
938.1990057828952
 30
0.0
 40
5.0
 41
0.0
 71
     5
 72
     1
  1
45
  7
OKANO
 73
     1
 44
1.0
  0
POINT
  5
5CF5
330
5CEE
100
AcDbEntity
  8
Defpoints
 62
     0
100
AcDbPoint
 10
504.3007271552924
 20
911.3399995297426
 30
0.0
  0
POINT
  5
5CF6
330
5CEE
100
AcDbEntity
  8
Defpoints
 62
     0
100
AcDbPoint
 10
549.3007271552924
 20
876.3399995297424
 30
0.0
  0
POINT
  5
5CF7
330
5CEE
100
AcDbEntity
  8
Defpoints
 62
     0
100
AcDbPoint
 10
549.3007271552924
 20
934.6990057828952
 30
0.0
  0
ENDBLK
  5
5CF9
330
5CEE
100
AcDbEntity
  8
0
100
AcDbBlockEnd
  0
BLOCK
  5
6014
330
600A
100
AcDbEntity
  8
0
100
AcDbBlockBegin
  2
*D3
 70
     1
 10
0.0
 20
0.0
 30
0.0
  3
*D3
  1

  0
LINE
  5
661C
330
600A
100
AcDbEntity
  8
寸法線
 62
     0
370
    -2
100
AcDbLine
 10
456.8125459663808
 20
790.7389790153087
 30
0.0
 11
456.8125459663808
 21
778.7864719015271
 31
0.0
  0
LINE
  5
661D
330
600A
100
AcDbEntity
  8
寸法線
 62
     0
370
    -2
100
AcDbLine
 10
398.8125459663809
 20
790.7389790153087
 30
0.0
 11
398.8125459663809
 21
778.7864719015271
 31
0.0
  0
LINE
  5
661E
330
600A
100
AcDbEntity
  8
寸法線
 62
     0
370
    -2
100
AcDbLine
 10
453.8125459663809
 20
781.786471901527
 30
0.0
 11
401.8125459663808
 21
781.786471901527
 31
0.0
  0
INSERT
  5
661F
330
600A
100
AcDbEntity
  8
寸法線
 62
     0
370
    -2
100
AcDbBlockReference
  2
_Closed
 10
456.8125459663808
 20
781.786471901527
 30
0.0
 41
3.0
 42
3.0
 43
3.0
  0
INSERT
  5
6620
330
600A
100
AcDbEntity
  8
寸法線
 62
     0
370
    -2
100
AcDbBlockReference
  2
_Closed
 10
398.8125459663809
 20
781.786471901527
 30
0.0
 41
3.0
 42
3.0
 43
3.0
 50
180.0
  0
MTEXT
  5
6621
330
600A
100
AcDbEntity
  8
寸法線
 62
     0
100
AcDbMText
 10
427.8125459663808
 20
785.286471901527
 30
0.0
 40
5.0
 41
0.0
 71
     5
 72
     1
  1
60
  7
OKANO
 73
     1
 44
1.0
  0
POINT
  5
6622
330
600A
100
AcDbEntity
  8
Defpoints
 62
     0
100
AcDbPoint
 10
456.8125459663808
 20
792.7389790153086
 30
0.0
  0
POINT
  5
6623
330
600A
100
AcDbEntity
  8
Defpoints
 62
     0
100
AcDbPoint
 10
398.8125459663809
 20
792.7389790153086
 30
0.0
  0
POINT
  5
6624
330
600A
100
AcDbEntity
  8
Defpoints
 62
     0
100
AcDbPoint
 10
398.8125459663809
 20
781.786471901527
 30
0.0
  0
ENDBLK
  5
6015
330
600A
100
AcDbEntity
  8
0
100
AcDbBlockEnd
  0
BLOCK
  5
6089
330
607F
100
AcDbEntity
  8
0
100
AcDbBlockBegin
  2
*D4
 70
     1
 10
0.0
 20
0.0
 30
0.0
  3
*D4
  1

  0
LINE
  5
608B
330
607F
100
AcDbEntity
  8
破線
 62
     0
370
    -2
100
AcDbLine
 10
533.9578255208325
 20
909.7427318164555
 30
0.0
 11
533.9578255208325
 21
925.6349409187677
 31
0.0
  0
LINE
  5
608C
330
607F
100
AcDbEntity
  8
破線
 62
     0
370
    -2
100
AcDbLine
 10
549.861848514236
 20
877.9726111791678
 30
0.0
 11
549.861848514236
 21
925.6349409187677
 31
0.0
  0
LINE
  5
608D
330
607F
100
AcDbEntity
  8
破線
 62
     0
370
    -2
100
AcDbLine
 10
536.9578255208325
 20
922.6349409187678
 30
0.0
 11
546.861848514236
 21
922.6349409187678
 31
0.0
  0
INSERT
  5
608E
330
607F
100
AcDbEntity
  8
破線
 62
     0
370
    -2
100
AcDbBlockReference
  2
_Closed
 10
533.9578255208325
 20
922.6349409187678
 30
0.0
 41
3.0
 42
3.0
 43
3.0
 50
180.0
  0
INSERT
  5
608F
330
607F
100
AcDbEntity
  8
破線
 62
     0
370
    -2
100
AcDbBlockReference
  2
_Closed
 10
549.861848514236
 20
922.6349409187678
 30
0.0
 41
3.0
 42
3.0
 43
3.0
  0
MTEXT
  5
6090
330
607F
100
AcDbEntity
  8
破線
 62
     0
100
AcDbMText
 10
541.9098370175342
 20
926.1349409187678
 30
0.0
 40
5.0
 41
0.0
 71
     5
 72
     1
  1
15
  7
OKANO
 73
     1
 44
1.0
  0
POINT
  5
6091
330
607F
100
AcDbEntity
  8
Defpoints
 62
     0
100
AcDbPoint
 10
533.9578255208325
 20
907.7427318164554
 30
0.0
  0
POINT
  5
6092
330
607F
100
AcDbEntity
  8
Defpoints
 62
     0
100
AcDbPoint
 10
549.861848514236
 20
875.9726111791678
 30
0.0
  0
POINT
  5
6093
330
607F
100
AcDbEntity
  8
Defpoints
 62
     0
100
AcDbPoint
 10
549.861848514236
 20
922.6349409187678
 30
0.0
  0
ENDBLK
  5
608A
330
607F
100
AcDbEntity
  8
0
100
AcDbBlockEnd
  0
BLOCK
  5
6633
330
6629
100
AcDbEntity
  8
0
100
AcDbBlockBegin
  2
*D6
 70
     1
 10
0.0
 20
0.0
 30
0.0
  3
*D6
  1

  0
LINE
  5
6635
330
6629
100
AcDbEntity
  8
寸法線
 62
     0
370
    -2
100
AcDbLine
 10
536.3007271552923
 20
908.3399995297424
 30
0.0
 11
573.0279688294395
 21
908.3399995297424
 31
0.0
  0
LINE
  5
6636
330
6629
100
AcDbEntity
  8
寸法線
 62
     0
370
    -2
100
AcDbLine
 10
551.3007271552924
 20
867.2389790153086
 30
0.0
 11
573.0279688294395
 21
867.2389790153086
 31
0.0
  0
LINE
  5
6637
330
6629
100
AcDbEntity
  8
寸法線
 62
     0
370
    -2
100
AcDbLine
 10
570.0279688294394
 20
905.3399995297425
 30
0.0
 11
570.0279688294394
 21
870.2389790153088
 31
0.0
  0
INSERT
  5
6638
330
6629
100
AcDbEntity
  8
寸法線
 62
     0
370
    -2
100
AcDbBlockReference
  2
_Closed
 10
570.0279688294394
 20
908.3399995297424
 30
0.0
 41
3.0
 42
3.0
 43
3.0
 50
90.0
  0
INSERT
  5
6639
330
6629
100
AcDbEntity
  8
寸法線
 62
     0
370
    -2
100
AcDbBlockReference
  2
_Closed
 10
570.0279688294394
 20
867.2389790153086
 30
0.0
 41
3.0
 42
3.0
 43
3.0
 50
270.0
  0
MTEXT
  5
663A
330
6629
100
AcDbEntity
  8
寸法線
 62
     0
100
AcDbMText
 10
566.5279688294392
 20
887.7894892725258
 30
0.0
 40
5.0
 41
0.0
 71
     5
 72
     1
  1
40
  7
OKANO
 11
0.0000000000000001
 21
1.0
 31
0.0
 73
     1
 44
1.0
  0
POINT
  5
663B
330
6629
100
AcDbEntity
  8
Defpoints
 62
     0
100
AcDbPoint
 10
534.3007271552924
 20
908.3399995297424
 30
0.0
  0
POINT
  5
663C
330
6629
100
AcDbEntity
  8
Defpoints
 62
     0
100
AcDbPoint
 10
549.3007271552924
 20
867.2389790153086
 30
0.0
  0
POINT
  5
663D
330
6629
100
AcDbEntity
  8
Defpoints
 62
     0
100
AcDbPoint
 10
570.0279688294394
 20
867.2389790153086
 30
0.0
  0
ENDBLK
  5
6634
330
6629
100
AcDbEntity
  8
0
100
AcDbBlockEnd
  0
BLOCK
  5
664C
330
6642
100
AcDbEntity
  8
0
100
AcDbBlockBegin
  2
*D7
 70
     1
 10
0.0
 20
0.0
 30
0.0
  3
*D7
  1

  0
LINE
  5
685A
330
6642
100
AcDbEntity
  8
寸法線
 62
     0
370
    -2
100
AcDbLine
 10
212.2295522808142
 20
918.3399995297424
 30
0.0
 11
165.8624897836125
 21
918.3399995297424
 31
0.0
  0
LINE
  5
685B
330
6642
100
AcDbEntity
  8
寸法線
 62
     0
370
    -2
100
AcDbLine
 10
215.8697506784607
 20
793.3399995297423
 30
0.0
 11
165.8624897836125
 21
793.3399995297423
 31
0.0
  0
LINE
  5
685C
330
6642
100
AcDbEntity
  8
寸法線
 62
     0
370
    -2
100
AcDbLine
 10
168.8624897836125
 20
915.3399995297423
 30
0.0
 11
168.8624897836125
 21
796.3399995297423
 31
0.0
  0
INSERT
  5
685D
330
6642
100
AcDbEntity
  8
寸法線
 62
     0
370
    -2
100
AcDbBlockReference
  2
_Closed
 10
168.8624897836125
 20
918.3399995297424
 30
0.0
 41
3.0
 42
3.0
 43
3.0
 50
90.0
  0
INSERT
  5
685E
330
6642
100
AcDbEntity
  8
寸法線
 62
     0
370
    -2
100
AcDbBlockReference
  2
_Closed
 10
168.8624897836125
 20
793.3399995297423
 30
0.0
 41
3.0
 42
3.0
 43
3.0
 50
270.0
  0
MTEXT
  5
685F
330
6642
100
AcDbEntity
  8
寸法線
 62
     0
100
AcDbMText
 10
165.3619976576282
 20
855.8399995297424
 30
0.0
 40
5.0
 41
0.0
 71
     5
 72
     1
  1
120
  7
OKANO
 11
0.0000000000000001
 21
1.0
 31
0.0
 73
     1
 44
1.0
  0
POINT
  5
6860
330
6642
100
AcDbEntity
  8
Defpoints
 62
     0
100
AcDbPoint
 10
214.2295522808142
 20
918.3399995297424
 30
0.0
  0
POINT
  5
6861
330
6642
100
AcDbEntity
  8
Defpoints
 62
     0
100
AcDbPoint
 10
217.8697506784607
 20
793.3399995297423
 30
0.0
  0
POINT
  5
6862
330
6642
100
AcDbEntity
  8
Defpoints
 62
     0
100
AcDbPoint
 10
168.8624897836125
 20
793.3399995297423
 30
0.0
  0
ENDBLK
  5
664D
330
6642
100
AcDbEntity
  8
0
100
AcDbBlockEnd
  0
BLOCK
  5
6668
330
665E
100
AcDbEntity
  8
0
100
AcDbBlockBegin
  2
*D8
 70
     1
 10
0.0
 20
0.0
 30
0.0
  3
*D8
  1

  0
LINE
  5
665F
330
665E
100
AcDbEntity
  8
寸法線
 62
     0
370
    -2
100
AcDbLine
 10
-267.0684195674258
 20
3008.999355540464
 30
0.0
 11
-267.0684195674258
 21
2990.347948420856
 31
0.0
  0
LINE
  5
6660
330
665E
100
AcDbEntity
  8
寸法線
 62
     0
370
    -2
100
AcDbLine
 10
-281.0684195674258
 20
3008.999355540464
 30
0.0
 11
-281.0684195674258
 21
2990.347948420856
 31
0.0
  0
LINE
  5
6661
330
665E
100
AcDbEntity
  8
寸法線
 62
     0
370
    -2
100
AcDbLine
 10
-270.0684195674258
 20
2993.347948420856
 30
0.0
 11
-278.0684195674258
 21
2993.347948420856
 31
0.0
  0
INSERT
  5
6662
330
665E
100
AcDbEntity
  8
寸法線
 62
     0
370
    -2
100
AcDbBlockReference
  2
_Closed
 10
-267.0684195674258
 20
2993.347948420856
 30
0.0
 41
3.0
 42
3.0
 43
3.0
  0
INSERT
  5
6663
330
665E
100
AcDbEntity
  8
寸法線
 62
     0
370
    -2
100
AcDbBlockReference
  2
_Closed
 10
-281.0684195674258
 20
2993.347948420856
 30
0.0
 41
3.0
 42
3.0
 43
3.0
 50
180.0
  0
MTEXT
  5
6664
330
665E
100
AcDbEntity
  8
寸法線
 62
     0
100
AcDbMText
 10
-274.0684195674258
 20
2996.847948420855
 30
0.0
 40
5.0
 41
0.0
 71
     5
 72
     1
  1
14
  7
OKANO
 73
     1
 44
1.0
  0
POINT
  5
6665
330
665E
100
AcDbEntity
  8
Defpoints
 62
     0
100
AcDbPoint
 10
-267.0684195674258
 20
3010.999355540464
 30
0.0
  0
POINT
  5
6666
330
665E
100
AcDbEntity
  8
Defpoints
 62
     0
100
AcDbPoint
 10
-281.0684195674258
 20
3010.999355540464
 30
0.0
  0
POINT
  5
6667
330
665E
100
AcDbEntity
  8
Defpoints
 62
     0
100
AcDbPoint
 10
-281.0684195674258
 20
2993.347948420856
 30
0.0
  0
ENDBLK
  5
6669
330
665E
100
AcDbEntity
  8
0
100
AcDbBlockEnd
  0
BLOCK
  5
6674
330
666A
100
AcDbEntity
  8
0
100
AcDbBlockBegin
  2
*D9
 70
     1
 10
0.0
 20
0.0
 30
0.0
  3
*D9
  1

  0
LINE
  5
666B
330
666A
100
AcDbEntity
  8
寸法線
 62
     0
370
    -2
100
AcDbLine
 10
-209.0684195674257
 20
2990.999355540464
 30
0.0
 11
-184.2030401041266
 21
2990.999355540464
 31
0.0
  0
LINE
  5
666C
330
666A
100
AcDbEntity
  8
寸法線
 62
     0
370
    -2
100
AcDbLine
 10
-199.0684195674257
 20
3010.359696187253
 30
0.0
 11
-184.2030401041266
 21
3010.359696187253
 31
0.0
  0
LINE
  5
666D
330
666A
100
AcDbEntity
  8
寸法線
 62
     0
370
    -2
100
AcDbLine
 10
-187.2030401041266
 20
2993.999355540464
 30
0.0
 11
-187.2030401041266
 21
3007.359696187253
 31
0.0
  0
INSERT
  5
666E
330
666A
100
AcDbEntity
  8
寸法線
 62
     0
370
    -2
100
AcDbBlockReference
  2
_Closed
 10
-187.2030401041266
 20
2990.999355540464
 30
0.0
 41
3.0
 42
3.0
 43
3.0
 50
270.0
  0
INSERT
  5
666F
330
666A
100
AcDbEntity
  8
寸法線
 62
     0
370
    -2
100
AcDbBlockReference
  2
_Closed
 10
-187.2030401041266
 20
3010.359696187253
 30
0.0
 41
3.0
 42
3.0
 43
3.0
 50
90.0
  0
MTEXT
  5
6670
330
666A
100
AcDbEntity
  8
寸法線
 62
     0
100
AcDbMText
 10
-190.7035322301114
 20
3000.679525863858
 30
0.0
 40
5.0
 41
0.0
 71
     5
 72
     1
  1
20
  7
OKANO
 11
0.0000000000000001
 21
1.0
 31
0.0
 73
     1
 44
1.0
  0
POINT
  5
6671
330
666A
100
AcDbEntity
  8
Defpoints
 62
     0
100
AcDbPoint
 10
-211.0684195674257
 20
2990.999355540464
 30
0.0
  0
POINT
  5
6672
330
666A
100
AcDbEntity
  8
Defpoints
 62
     0
100
AcDbPoint
 10
-201.0684195674257
 20
3010.359696187253
 30
0.0
  0
POINT
  5
6673
330
666A
100
AcDbEntity
  8
Defpoints
 62
     0
100
AcDbPoint
 10
-187.2030401041266
 20
3010.359696187253
 30
0.0
  0
ENDBLK
  5
6675
330
666A
100
AcDbEntity
  8
0
100
AcDbBlockEnd
  0
BLOCK
  5
6680
330
6676
100
AcDbEntity
  8
0
100
AcDbBlockBegin
  2
*D10
 70
     1
 10
0.0
 20
0.0
 30
0.0
  3
*D10
  1

  0
LINE
  5
6677
330
6676
100
AcDbEntity
  8
寸法線
 62
     0
370
    -2
100
AcDbLine
 10
-199.0684195674257
 20
3010.359696187253
 30
0.0
 11
-184.2030401041266
 21
3010.359696187253
 31
0.0
  0
LINE
  5
6678
330
6676
100
AcDbEntity
  8
寸法線
 62
     0
370
    -2
100
AcDbLine
 10
-209.0684195674257
 20
3030.999355540465
 30
0.0
 11
-184.2030401041266
 21
3030.999355540465
 31
0.0
  0
LINE
  5
6679
330
6676
100
AcDbEntity
  8
寸法線
 62
     0
370
    -2
100
AcDbLine
 10
-187.2030401041266
 20
3013.359696187253
 30
0.0
 11
-187.2030401041266
 21
3027.999355540465
 31
0.0
  0
INSERT
  5
667A
330
6676
100
AcDbEntity
  8
寸法線
 62
     0
370
    -2
100
AcDbBlockReference
  2
_Closed
 10
-187.2030401041266
 20
3010.359696187253
 30
0.0
 41
3.0
 42
3.0
 43
3.0
 50
270.0
  0
INSERT
  5
667B
330
6676
100
AcDbEntity
  8
寸法線
 62
     0
370
    -2
100
AcDbBlockReference
  2
_Closed
 10
-187.2030401041266
 20
3030.999355540465
 30
0.0
 41
3.0
 42
3.0
 43
3.0
 50
90.0
  0
MTEXT
  5
667C
330
6676
100
AcDbEntity
  8
寸法線
 62
     0
100
AcDbMText
 10
-190.7035322301113
 20
3020.679525863859
 30
0.0
 40
5.0
 41
0.0
 71
     5
 72
     1
  1
20
  7
OKANO
 11
0.0000000000000001
 21
1.0
 31
0.0
 73
     1
 44
1.0
  0
POINT
  5
667D
330
6676
100
AcDbEntity
  8
Defpoints
 62
     0
100
AcDbPoint
 10
-201.0684195674257
 20
3010.359696187253
 30
0.0
  0
POINT
  5
667E
330
6676
100
AcDbEntity
  8
Defpoints
 62
     0
100
AcDbPoint
 10
-211.0684195674257
 20
3030.999355540465
 30
0.0
  0
POINT
  5
667F
330
6676
100
AcDbEntity
  8
Defpoints
 62
     0
100
AcDbPoint
 10
-187.2030401041266
 20
3030.999355540465
 30
0.0
  0
ENDBLK
  5
6681
330
6676
100
AcDbEntity
  8
0
100
AcDbBlockEnd
  0
BLOCK
  5
6698
330
6682
100
AcDbEntity
  8
0
100
AcDbBlockBegin
  2
A$C23BB43CC
 70
     0
 10
0.0
 20
0.0
 30
0.0
  3
A$C23BB43CC
  1

  0
ARC
  5
6683
330
6682
100
AcDbEntity
  8
太線
100
AcDbCircle
 10
76.00000783041469
 20
30.65141214788309
 30
0.0
 40
10.0
100
AcDbArc
 50
0.0
 51
90.0
  0
ARC
  5
6684
330
6682
100
AcDbEntity
  8
太線
100
AcDbCircle
 10
10.00000783041457
 20
30.65141214788309
 30
0.0
 40
10.0
100
AcDbArc
 50
90.0
 51
180.0
  0
LINE
  5
6685
330
6682
100
AcDbEntity
  8
太線
100
AcDbLine
 10
10.00000783041457
 20
40.65141214788309
 30
0.0
 11
76.00000783041469
 21
40.65141214788309
 31
0.0
  0
ARC
  5
6686
330
6682
100
AcDbEntity
  8
太線
100
AcDbCircle
 10
10.50000783041457
 20
20.65141214788218
 30
0.0
 40
4.5
100
AcDbArc
 50
90.0
 51
270.0
  0
ARC
  5
6687
330
6682
100
AcDbEntity
  8
太線
100
AcDbCircle
 10
15.50000783041468
 20
20.65141214788218
 30
0.0
 40
4.5
100
AcDbArc
 50
270.0
 51
90.0
  0
LINE
  5
6688
330
6682
100
AcDbEntity
  8
太線
100
AcDbLine
 10
10.50000783041457
 20
25.15141214788218
 30
0.0
 11
15.50000783041468
 21
25.15141214788218
 31
0.0
  0
LINE
  5
6689
330
6682
100
AcDbEntity
  8
太線
100
AcDbLine
 10
15.50000783041468
 20
16.15141214788309
 30
0.0
 11
10.50000783041457
 21
16.15141214788309
 31
0.0
  0
ARC
  5
668A
330
6682
100
AcDbEntity
  8
太線
100
AcDbCircle
 10
73.50000783041469
 20
20.65141214788218
 30
0.0
 40
4.5
100
AcDbArc
 50
270.0
 51
90.0
  0
ARC
  5
668B
330
6682
100
AcDbEntity
  8
太線
100
AcDbCircle
 10
68.50000783041463
 20
20.65141214788218
 30
0.0
 40
4.5
100
AcDbArc
 50
90.0
 51
270.0
  0
LINE
  5
668C
330
6682
100
AcDbEntity
  8
太線
100
AcDbLine
 10
73.50000783041469
 20
16.15141214788309
 30
0.0
 11
68.50000783041463
 21
16.15141214788309
 31
0.0
  0
LINE
  5
668D
330
6682
100
AcDbEntity
  8
太線
100
AcDbLine
 10
68.50000783041463
 20
25.15141214788218
 30
0.0
 11
73.50000783041469
 21
25.15141214788218
 31
0.0
  0
DIMENSION
  5
668E
330
6682
100
AcDbEntity
  8
寸法線
100
AcDbDimension
  2
*D8
 10
6.000007830414574
 20
3.000005028273335
 30
0.0
 11
13.00000783041457
 21
6.500005028273335
 31
0.0
 12
287.0684273978404
 22
-2990.347943392582
 32
0.0
 71
     5
 42
14.0
  3
sunpo
100
AcDbAlignedDimension
 13
20.00000783041457
 23
20.65141214788218
 33
0.0
 14
6.000007830414574
 24
20.65141214788218
 34
0.0
100
AcDbRotatedDimension
1001
ACAD
1000
DSTYLE
1002
{
1070
    40
1040
1.0
1002
}
  0
LINE
  5
668F
330
6682
100
AcDbEntity
  8
太線
100
AcDbLine
 10
0.0000078304145745
 20
20.65141214788218
 30
0.0
 11
0.0000078304145745
 21
30.65141214788309
 31
0.0
  0
LINE
  5
6690
330
6682
100
AcDbEntity
  8
太線
100
AcDbLine
 10
86.00000783041469
 20
30.65141214788309
 30
0.0
 11
86.00000783041469
 21
20.01175279467133
 31
0.0
  0
LINE
  5
6691
330
6682
100
AcDbEntity
  8
太線
100
AcDbLine
 10
0.0000078304145745
 20
20.65141214788218
 30
0.0
 11
0.0000078304145745
 21
10.65141214788218
 31
0.0
  0
ARC
  5
6692
330
6682
100
AcDbEntity
  8
太線
100
AcDbCircle
 10
10.00000783041457
 20
10.65141214788218
 30
0.0
 40
10.0
100
AcDbArc
 50
180.0
 51
270.0
  0
LINE
  5
6693
330
6682
100
AcDbEntity
  8
太線
100
AcDbLine
 10
10.00000783041457
 20
0.6514121478821835
 30
0.0
 11
76.00000783041469
 21
0.6514121478821835
 31
0.0
  0
ARC
  5
6694
330
6682
100
AcDbEntity
  8
太線
100
AcDbCircle
 10
76.00000783041469
 20
10.65141214788218
 30
0.0
 40
10.0
100
AcDbArc
 50
270.0
 51
0.0
  0
LINE
  5
6695
330
6682
100
AcDbEntity
  8
太線
100
AcDbLine
 10
86.00000783041469
 20
10.65141214788218
 30
0.0
 11
86.00000783041469
 21
20.01175279467133
 31
0.0
  0
DIMENSION
  5
6696
330
6682
100
AcDbEntity
  8
寸法線
100
AcDbDimension
  2
*D9
 10
99.86538729371382
 20
20.01175279467133
 30
0.0
 11
96.36489516772904
 21
10.33158247127676
 31
0.0
 12
287.0684273978404
 22
-2990.347943392582
 32
0.0
  1
20
 71
     5
 42
19.36034064678915
  3
sunpo
100
AcDbAlignedDimension
 13
76.00000783041469
 23
0.6514121478821835
 33
0.0
 14
86.00000783041469
 24
20.01175279467133
 34
0.0
 50
90.0
100
AcDbRotatedDimension
1001
ACAD
1000
DSTYLE
1002
{
1070
    40
1040
1.0
1002
}
  0
DIMENSION
  5
6697
330
6682
100
AcDbEntity
  8
寸法線
100
AcDbDimension
  2
*D10
 10
99.86538729371382
 20
40.65141214788309
 30
0.0
 11
96.36489516772906
 21
30.33158247127721
 31
0.0
 12
287.0684273978404
 22
-2990.347943392582
 32
0.0
  1
20
 71
     5
 42
20.63965935321175
  3
sunpo
100
AcDbAlignedDimension
 13
86.00000783041469
 23
20.01175279467133
 33
0.0
 14
76.00000783041469
 24
40.65141214788309
 34
0.0
 50
90.0
100
AcDbRotatedDimension
1001
ACAD
1000
DSTYLE
1002
{
1070
    40
1040
1.0
1070
   279
1070
     1
1002
}
  0
ENDBLK
  5
6699
330
6682
100
AcDbEntity
  8
0
100
AcDbBlockEnd
  0
BLOCK
  5
675D
330
6756
100
AcDbEntity
  8
0
100
AcDbBlockBegin
  2
*D12
 70
     1
 10
0.0
 20
0.0
 30
0.0
  3
*D12
  1

  0
LINE
  5
680D
330
6756
100
AcDbEntity
  8
寸法線
 62
     0
370
    -2
100
AcDbLine
 10
375.6178497312752
 20
1003.961463438614
 30
0.0
 11
387.1795033312662
 21
994.9760615814492
 31
0.0
  0
MTEXT
  5
680E
330
6756
100
AcDbEntity
  8
寸法線
 62
     0
100
AcDbMText
 10
382.3620511682087
 20
1003.152769745218
 30
0.0
 40
5.0
 41
0.0
 71
     5
 72
     1
  1
R10
  7
OKANO
 11
0.7895836805341401
 21
-0.613642902211181
 31
0.0
 73
     1
 44
1.0
  0
LINE
  5
680F
330
6756
100
AcDbEntity
  8
寸法線
 62
     0
370
    -2
100
AcDbLine
 10
397.4440911782094
 20
986.9987038527044
 30
0.0
 11
389.5482543728686
 21
993.1351328748158
 31
0.0
  0
INSERT
  5
6810
330
6756
100
AcDbEntity
  8
寸法線
 62
     0
370
    -2
100
AcDbBlockReference
  2
_Closed
 10
389.5482543728686
 20
993.1351328748158
 30
0.0
 41
3.0
 42
3.0
 43
3.0
 50
322.1466228004848
  0
POINT
  5
6811
330
6756
100
AcDbEntity
  8
Defpoints
 62
     0
100
AcDbPoint
 10
389.5482543728686
 20
993.1351328748158
 30
0.0
  0
POINT
  5
6812
330
6756
100
AcDbEntity
  8
Defpoints
 62
     0
100
AcDbPoint
 10
397.4440911782094
 20
986.9987038527044
 30
0.0
  0
ENDBLK
  5
675E
330
6756
100
AcDbEntity
  8
0
100
AcDbBlockEnd
  0
BLOCK
  5
6766
330
675F
100
AcDbEntity
  8
0
100
AcDbBlockBegin
  2
*D13
 70
     1
 10
0.0
 20
0.0
 30
0.0
  3
*D13
  1

  0
LINE
  5
682E
330
675F
100
AcDbEntity
  8
寸法線
 62
     0
370
    -2
100
AcDbLine
 10
192.6047322530565
 20
1009.695319009319
 30
0.0
 11
204.0118315962997
 21
998.5393231565046
 31
0.0
  0
MTEXT
  5
682F
330
675F
100
AcDbEntity
  8
寸法線
 62
     0
100
AcDbMText
 10
199.2137878422935
 20
1008.127319414278
 30
0.0
 40
5.0
 41
0.0
 71
     5
 72
     1
  1
R10
  7
OKANO
 11
0.7149318630504556
 21
-0.6991941298346295
 31
0.0
 73
     1
 44
1.0
  0
LINE
  5
6830
330
675F
100
AcDbEntity
  8
寸法線
 62
     0
370
    -2
100
AcDbLine
 10
213.305945815956
 20
989.449799468654
 30
0.0
 11
206.1566271854511
 21
996.4417407670007
 31
0.0
  0
INSERT
  5
6831
330
675F
100
AcDbEntity
  8
寸法線
 62
     0
370
    -2
100
AcDbBlockReference
  2
_Closed
 10
206.1566271854511
 20
996.4417407670007
 30
0.0
 41
3.0
 42
3.0
 43
3.0
 50
315.6376153703527
  0
POINT
  5
6832
330
675F
100
AcDbEntity
  8
Defpoints
 62
     0
100
AcDbPoint
 10
206.1566271854511
 20
996.4417407670007
 30
0.0
  0
POINT
  5
6833
330
675F
100
AcDbEntity
  8
Defpoints
 62
     0
100
AcDbPoint
 10
213.305945815956
 20
989.449799468654
 30
0.0
  0
ENDBLK
  5
6767
330
675F
100
AcDbEntity
  8
0
100
AcDbBlockEnd
  0
BLOCK
  5
6772
330
6768
100
AcDbEntity
  8
0
100
AcDbBlockBegin
  2
*D14
 70
     1
 10
0.0
 20
0.0
 30
0.0
  3
*D14
  1

  0
LINE
  5
6825
330
6768
100
AcDbEntity
  8
寸法線
 62
     0
370
    -2
100
AcDbLine
 10
223.3059458159557
 20
977.4497994686536
 30
0.0
 11
223.3059458159557
 21
958.7983923490446
 31
0.0
  0
LINE
  5
6826
330
6768
100
AcDbEntity
  8
寸法線
 62
     0
370
    -2
100
AcDbLine
 10
209.3059458159557
 20
977.4497994686536
 30
0.0
 11
209.3059458159557
 21
958.7983923490446
 31
0.0
  0
LINE
  5
6827
330
6768
100
AcDbEntity
  8
寸法線
 62
     0
370
    -2
100
AcDbLine
 10
220.3059458159557
 20
961.7983923490447
 30
0.0
 11
212.3059458159557
 21
961.7983923490447
 31
0.0
  0
INSERT
  5
6828
330
6768
100
AcDbEntity
  8
寸法線
 62
     0
370
    -2
100
AcDbBlockReference
  2
_Closed
 10
223.3059458159557
 20
961.7983923490447
 30
0.0
 41
3.0
 42
3.0
 43
3.0
  0
INSERT
  5
6829
330
6768
100
AcDbEntity
  8
寸法線
 62
     0
370
    -2
100
AcDbBlockReference
  2
_Closed
 10
209.3059458159557
 20
961.7983923490447
 30
0.0
 41
3.0
 42
3.0
 43
3.0
 50
180.0
  0
MTEXT
  5
682A
330
6768
100
AcDbEntity
  8
寸法線
 62
     0
100
AcDbMText
 10
216.3059458159557
 20
965.2983923490447
 30
0.0
 40
5.0
 41
0.0
 71
     5
 72
     1
  1
14
  7
OKANO
 73
     1
 44
1.0
  0
POINT
  5
682B
330
6768
100
AcDbEntity
  8
Defpoints
 62
     0
100
AcDbPoint
 10
223.3059458159557
 20
979.4497994686535
 30
0.0
  0
POINT
  5
682C
330
6768
100
AcDbEntity
  8
Defpoints
 62
     0
100
AcDbPoint
 10
209.3059458159557
 20
979.4497994686535
 30
0.0
  0
POINT
  5
682D
330
6768
100
AcDbEntity
  8
Defpoints
 62
     0
100
AcDbPoint
 10
209.3059458159557
 20
961.7983923490447
 30
0.0
  0
ENDBLK
  5
6773
330
6768
100
AcDbEntity
  8
0
100
AcDbBlockEnd
  0
BLOCK
  5
677E
330
6774
100
AcDbEntity
  8
0
100
AcDbBlockBegin
  2
*D15
 70
     1
 10
0.0
 20
0.0
 30
0.0
  3
*D15
  1

  0
LINE
  5
681C
330
6774
100
AcDbEntity
  8
寸法線
 62
     0
370
    -2
100
AcDbLine
 10
281.3059458159558
 20
959.4497994686534
 30
0.0
 11
306.1713252792549
 21
959.4497994686534
 31
0.0
  0
LINE
  5
681D
330
6774
100
AcDbEntity
  8
寸法線
 62
     0
370
    -2
100
AcDbLine
 10
291.3059458159558
 20
978.8101401154426
 30
0.0
 11
306.1713252792549
 21
978.8101401154426
 31
0.0
  0
LINE
  5
681E
330
6774
100
AcDbEntity
  8
寸法線
 62
     0
370
    -2
100
AcDbLine
 10
303.1713252792549
 20
962.4497994686535
 30
0.0
 11
303.1713252792549
 21
975.8101401154426
 31
0.0
  0
INSERT
  5
681F
330
6774
100
AcDbEntity
  8
寸法線
 62
     0
370
    -2
100
AcDbBlockReference
  2
_Closed
 10
303.1713252792549
 20
959.4497994686534
 30
0.0
 41
3.0
 42
3.0
 43
3.0
 50
270.0
  0
INSERT
  5
6820
330
6774
100
AcDbEntity
  8
寸法線
 62
     0
370
    -2
100
AcDbBlockReference
  2
_Closed
 10
303.1713252792549
 20
978.8101401154426
 30
0.0
 41
3.0
 42
3.0
 43
3.0
 50
90.0
  0
MTEXT
  5
6821
330
6774
100
AcDbEntity
  8
寸法線
 62
     0
100
AcDbMText
 10
299.6708331532705
 20
969.1299697920483
 30
0.0
 40
5.0
 41
0.0
 71
     5
 72
     1
  1
20
  7
OKANO
 11
0.0000000000000001
 21
1.0
 31
0.0
 73
     1
 44
1.0
  0
POINT
  5
6822
330
6774
100
AcDbEntity
  8
Defpoints
 62
     0
100
AcDbPoint
 10
279.3059458159558
 20
959.4497994686534
 30
0.0
  0
POINT
  5
6823
330
6774
100
AcDbEntity
  8
Defpoints
 62
     0
100
AcDbPoint
 10
289.3059458159558
 20
978.8101401154426
 30
0.0
  0
POINT
  5
6824
330
6774
100
AcDbEntity
  8
Defpoints
 62
     0
100
AcDbPoint
 10
303.1713252792549
 20
978.8101401154426
 30
0.0
  0
ENDBLK
  5
677F
330
6774
100
AcDbEntity
  8
0
100
AcDbBlockEnd
  0
BLOCK
  5
678A
330
6780
100
AcDbEntity
  8
0
100
AcDbBlockBegin
  2
*D16
 70
     1
 10
0.0
 20
0.0
 30
0.0
  3
*D16
  1

  0
LINE
  5
6813
330
6780
100
AcDbEntity
  8
寸法線
 62
     0
370
    -2
100
AcDbLine
 10
291.3059458159558
 20
978.8101401154426
 30
0.0
 11
306.1713252792549
 21
978.8101401154426
 31
0.0
  0
LINE
  5
6814
330
6780
100
AcDbEntity
  8
寸法線
 62
     0
370
    -2
100
AcDbLine
 10
281.3059458159558
 20
999.4497994686543
 30
0.0
 11
306.1713252792549
 21
999.4497994686543
 31
0.0
  0
LINE
  5
6815
330
6780
100
AcDbEntity
  8
寸法線
 62
     0
370
    -2
100
AcDbLine
 10
303.1713252792549
 20
981.8101401154427
 30
0.0
 11
303.1713252792549
 21
996.4497994686544
 31
0.0
  0
INSERT
  5
6816
330
6780
100
AcDbEntity
  8
寸法線
 62
     0
370
    -2
100
AcDbBlockReference
  2
_Closed
 10
303.1713252792549
 20
978.8101401154426
 30
0.0
 41
3.0
 42
3.0
 43
3.0
 50
270.0
  0
INSERT
  5
6817
330
6780
100
AcDbEntity
  8
寸法線
 62
     0
370
    -2
100
AcDbBlockReference
  2
_Closed
 10
303.1713252792549
 20
999.4497994686543
 30
0.0
 41
3.0
 42
3.0
 43
3.0
 50
90.0
  0
MTEXT
  5
6818
330
6780
100
AcDbEntity
  8
寸法線
 62
     0
100
AcDbMText
 10
299.6708331532705
 20
989.1299697920485
 30
0.0
 40
5.0
 41
0.0
 71
     5
 72
     1
  1
20
  7
OKANO
 11
0.0000000000000001
 21
1.0
 31
0.0
 73
     1
 44
1.0
  0
POINT
  5
6819
330
6780
100
AcDbEntity
  8
Defpoints
 62
     0
100
AcDbPoint
 10
289.3059458159558
 20
978.8101401154426
 30
0.0
  0
POINT
  5
681A
330
6780
100
AcDbEntity
  8
Defpoints
 62
     0
100
AcDbPoint
 10
279.3059458159558
 20
999.4497994686543
 30
0.0
  0
POINT
  5
681B
330
6780
100
AcDbEntity
  8
Defpoints
 62
     0
100
AcDbPoint
 10
303.1713252792549
 20
999.4497994686543
 30
0.0
  0
ENDBLK
  5
678B
330
6780
100
AcDbEntity
  8
0
100
AcDbBlockEnd
  0
BLOCK
  5
6796
330
678C
100
AcDbEntity
  8
0
100
AcDbBlockBegin
  2
*D17
 70
     1
 10
0.0
 20
0.0
 30
0.0
  3
*D17
  1

  0
LINE
  5
6804
330
678C
100
AcDbEntity
  8
寸法線
 62
     0
370
    -2
100
AcDbLine
 10
462.9440911782096
 20
976.9987038527032
 30
0.0
 11
487.6208041445247
 21
976.9987038527032
 31
0.0
  0
LINE
  5
6805
330
678C
100
AcDbEntity
  8
寸法線
 62
     0
370
    -2
100
AcDbLine
 10
465.4440911782096
 20
996.9987038527033
 30
0.0
 11
487.6208041445247
 21
996.9987038527033
 31
0.0
  0
LINE
  5
6806
330
678C
100
AcDbEntity
  8
寸法線
 62
     0
370
    -2
100
AcDbLine
 10
484.6208041445247
 20
979.9987038527033
 30
0.0
 11
484.6208041445247
 21
993.9987038527034
 31
0.0
  0
INSERT
  5
6807
330
678C
100
AcDbEntity
  8
寸法線
 62
     0
370
    -2
100
AcDbBlockReference
  2
_Closed
 10
484.6208041445247
 20
976.9987038527032
 30
0.0
 41
3.0
 42
3.0
 43
3.0
 50
270.0
  0
INSERT
  5
6808
330
678C
100
AcDbEntity
  8
寸法線
 62
     0
370
    -2
100
AcDbBlockReference
  2
_Closed
 10
484.6208041445247
 20
996.9987038527033
 30
0.0
 41
3.0
 42
3.0
 43
3.0
 50
90.0
  0
MTEXT
  5
6809
330
678C
100
AcDbEntity
  8
寸法線
 62
     0
100
AcDbMText
 10
481.1203120185403
 20
986.9987038527034
 30
0.0
 40
5.0
 41
0.0
 71
     5
 72
     1
  1
20
  7
OKANO
 11
0.0000000000000001
 21
1.0
 31
0.0
 73
     1
 44
1.0
  0
POINT
  5
680A
330
678C
100
AcDbEntity
  8
Defpoints
 62
     0
100
AcDbPoint
 10
460.9440911782096
 20
976.9987038527032
 30
0.0
  0
POINT
  5
680B
330
678C
100
AcDbEntity
  8
Defpoints
 62
     0
100
AcDbPoint
 10
463.4440911782096
 20
996.9987038527033
 30
0.0
  0
POINT
  5
680C
330
678C
100
AcDbEntity
  8
Defpoints
 62
     0
100
AcDbPoint
 10
484.6208041445247
 20
996.9987038527033
 30
0.0
  0
ENDBLK
  5
6797
330
678C
100
AcDbEntity
  8
0
100
AcDbBlockEnd
  0
BLOCK
  5
67A2
330
6798
100
AcDbEntity
  8
0
100
AcDbBlockBegin
  2
*D18
 70
     1
 10
0.0
 20
0.0
 30
0.0
  3
*D18
  1

  0
LINE
  5
67FB
330
6798
100
AcDbEntity
  8
寸法線
 62
     0
370
    -2
100
AcDbLine
 10
395.9440911782096
 20
976.9987038527032
 30
0.0
 11
374.8938444344571
 21
976.9987038527032
 31
0.0
  0
LINE
  5
67FC
330
6798
100
AcDbEntity
  8
寸法線
 62
     0
370
    -2
100
AcDbLine
 10
385.4440911782096
 20
961.9987038527034
 30
0.0
 11
374.8938444344571
 21
961.9987038527034
 31
0.0
  0
LINE
  5
67FD
330
6798
100
AcDbEntity
  8
寸法線
 62
     0
370
    -2
100
AcDbLine
 10
377.8938444344571
 20
973.9987038527033
 30
0.0
 11
377.8938444344571
 21
964.9987038527033
 31
0.0
  0
INSERT
  5
67FE
330
6798
100
AcDbEntity
  8
寸法線
 62
     0
370
    -2
100
AcDbBlockReference
  2
_Closed
 10
377.8938444344571
 20
976.9987038527032
 30
0.0
 41
3.0
 42
3.0
 43
3.0
 50
90.0
  0
INSERT
  5
67FF
330
6798
100
AcDbEntity
  8
寸法線
 62
     0
370
    -2
100
AcDbBlockReference
  2
_Closed
 10
377.8938444344571
 20
961.9987038527034
 30
0.0
 41
3.0
 42
3.0
 43
3.0
 50
270.0
  0
MTEXT
  5
6800
330
6798
100
AcDbEntity
  8
寸法線
 62
     0
100
AcDbMText
 10
374.393844434457
 20
969.4987038527035
 30
0.0
 40
5.0
 41
0.0
 71
     5
 72
     1
  1
15
  7
OKANO
 11
0.0000000000000001
 21
1.0
 31
0.0
 73
     1
 44
1.0
  0
POINT
  5
6801
330
6798
100
AcDbEntity
  8
Defpoints
 62
     0
100
AcDbPoint
 10
397.9440911782096
 20
976.9987038527032
 30
0.0
  0
POINT
  5
6802
330
6798
100
AcDbEntity
  8
Defpoints
 62
     0
100
AcDbPoint
 10
387.4440911782096
 20
961.9987038527034
 30
0.0
  0
POINT
  5
6803
330
6798
100
AcDbEntity
  8
Defpoints
 62
     0
100
AcDbPoint
 10
377.8938444344571
 20
961.9987038527034
 30
0.0
  0
ENDBLK
  5
67A3
330
6798
100
AcDbEntity
  8
0
100
AcDbBlockEnd
  0
BLOCK
  5
67AE
330
67A4
100
AcDbEntity
  8
0
100
AcDbBlockBegin
  2
*D19
 70
     1
 10
0.0
 20
0.0
 30
0.0
  3
*D19
  1

  0
LINE
  5
67F2
330
67A4
100
AcDbEntity
  8
寸法線
 62
     0
370
    -2
100
AcDbLine
 10
385.4440911782096
 20
961.9987038527034
 30
0.0
 11
374.8938444344571
 21
961.9987038527034
 31
0.0
  0
LINE
  5
67F3
330
67A4
100
AcDbEntity
  8
寸法線
 62
     0
370
    -2
100
AcDbLine
 10
391.5121079417399
 20
953.9842088174278
 30
0.0
 11
374.8938444344571
 21
953.9842088174278
 31
0.0
  0
LINE
  5
67F4
330
67A4
100
AcDbEntity
  8
寸法線
 62
     0
370
    -2
100
AcDbLine
 10
377.8938444344571
 20
958.9987038527032
 30
0.0
 11
377.8938444344571
 21
956.9842088174278
 31
0.0
  0
INSERT
  5
67F5
330
67A4
100
AcDbEntity
  8
寸法線
 62
     0
370
    -2
100
AcDbBlockReference
  2
_Closed
 10
377.8938444344571
 20
961.9987038527034
 30
0.0
 41
3.0
 42
3.0
 43
3.0
 50
90.0
  0
INSERT
  5
67F6
330
67A4
100
AcDbEntity
  8
寸法線
 62
     0
370
    -2
100
AcDbBlockReference
  2
_Closed
 10
377.8938444344571
 20
953.9842088174278
 30
0.0
 41
3.0
 42
3.0
 43
3.0
 50
270.0
  0
MTEXT
  5
67F7
330
67A4
100
AcDbEntity
  8
寸法線
 62
     0
100
AcDbMText
 10
374.393844434457
 20
957.9914563350657
 30
0.0
 40
5.0
 41
0.0
 71
     5
 72
     1
  1
10
  7
OKANO
 11
0.0000000000000001
 21
1.0
 31
0.0
 73
     1
 44
1.0
  0
POINT
  5
67F8
330
67A4
100
AcDbEntity
  8
Defpoints
 62
     0
100
AcDbPoint
 10
387.4440911782096
 20
961.9987038527034
 30
0.0
  0
POINT
  5
67F9
330
67A4
100
AcDbEntity
  8
Defpoints
 62
     0
100
AcDbPoint
 10
393.5121079417399
 20
953.9842088174278
 30
0.0
  0
POINT
  5
67FA
330
67A4
100
AcDbEntity
  8
Defpoints
 62
     0
100
AcDbPoint
 10
377.8938444344571
 20
953.9842088174278
 30
0.0
  0
ENDBLK
  5
67AF
330
67A4
100
AcDbEntity
  8
0
100
AcDbBlockEnd
  0
BLOCK
  5
6846
330
683C
100
AcDbEntity
  8
0
100
AcDbBlockBegin
  2
*D20
 70
     1
 10
0.0
 20
0.0
 30
0.0
  3
*D20
  1

  0
LINE
  5
6848
330
683C
100
AcDbEntity
  8
寸法線
 62
     0
370
    -2
100
AcDbLine
 10
528.8694720409694
 20
834.1518988690804
 30
0.0
 11
556.0173225885373
 21
834.1518988690804
 31
0.0
  0
LINE
  5
6849
330
683C
100
AcDbEntity
  8
寸法線
 62
     0
370
    -2
100
AcDbLine
 10
530.2103498165961
 20
793.2955214929825
 30
0.0
 11
556.0173225885373
 21
793.2955214929825
 31
0.0
  0
LINE
  5
684A
330
683C
100
AcDbEntity
  8
寸法線
 62
     0
370
    -2
100
AcDbLine
 10
553.0173225885373
 20
831.1518988690805
 30
0.0
 11
553.0173225885373
 21
796.2955214929825
 31
0.0
  0
INSERT
  5
684B
330
683C
100
AcDbEntity
  8
寸法線
 62
     0
370
    -2
100
AcDbBlockReference
  2
_Closed
 10
553.0173225885373
 20
834.1518988690804
 30
0.0
 41
3.0
 42
3.0
 43
3.0
 50
90.0
  0
INSERT
  5
684C
330
683C
100
AcDbEntity
  8
寸法線
 62
     0
370
    -2
100
AcDbBlockReference
  2
_Closed
 10
553.0173225885373
 20
793.2955214929825
 30
0.0
 41
3.0
 42
3.0
 43
3.0
 50
270.0
  0
MTEXT
  5
684D
330
683C
100
AcDbEntity
  8
寸法線
 62
     0
100
AcDbMText
 10
549.5173225885371
 20
813.7237101810315
 30
0.0
 40
5.0
 41
0.0
 71
     5
 72
     1
  1
40
  7
OKANO
 11
0.0000000000000001
 21
1.0
 31
0.0
 73
     1
 44
1.0
  0
POINT
  5
684E
330
683C
100
AcDbEntity
  8
Defpoints
 62
     0
100
AcDbPoint
 10
526.8694720409694
 20
834.1518988690804
 30
0.0
  0
POINT
  5
684F
330
683C
100
AcDbEntity
  8
Defpoints
 62
     0
100
AcDbPoint
 10
528.2103498165961
 20
793.2955214929825
 30
0.0
  0
POINT
  5
6850
330
683C
100
AcDbEntity
  8
Defpoints
 62
     0
100
AcDbPoint
 10
553.0173225885373
 20
793.2955214929825
 30
0.0
  0
ENDBLK
  5
6847
330
683C
100
AcDbEntity
  8
0
100
AcDbBlockEnd
  0
BLOCK
  5
6963
330
6959
100
AcDbEntity
  8
0
100
AcDbBlockBegin
  2
*D21
 70
     1
 10
0.0
 20
0.0
 30
0.0
  3
*D21
  1

  0
LINE
  5
6A74
330
6959
100
AcDbEntity
  8
寸法線
 62
     0
370
    -2
100
AcDbLine
 10
512.1221990530612
 20
701.7546997217343
 30
0.0
 11
512.1221990530612
 21
684.8723227660229
 31
0.0
  0
LINE
  5
6A75
330
6959
100
AcDbEntity
  8
寸法線
 62
     0
370
    -2
100
AcDbLine
 10
537.1221990530612
 20
701.7546997217343
 30
0.0
 11
537.1221990530612
 21
684.8723227660229
 31
0.0
  0
LINE
  5
6A76
330
6959
100
AcDbEntity
  8
寸法線
 62
     0
370
    -2
100
AcDbLine
 10
515.1221990530611
 20
687.872322766023
 30
0.0
 11
534.1221990530612
 21
687.872322766023
 31
0.0
  0
INSERT
  5
6A77
330
6959
100
AcDbEntity
  8
寸法線
 62
     0
370
    -2
100
AcDbBlockReference
  2
_Closed
 10
512.1221990530612
 20
687.872322766023
 30
0.0
 41
3.0
 42
3.0
 43
3.0
 50
180.0
  0
INSERT
  5
6A78
330
6959
100
AcDbEntity
  8
寸法線
 62
     0
370
    -2
100
AcDbBlockReference
  2
_Closed
 10
537.1221990530612
 20
687.872322766023
 30
0.0
 41
3.0
 42
3.0
 43
3.0
  0
MTEXT
  5
6A79
330
6959
100
AcDbEntity
  8
寸法線
 62
     0
100
AcDbMText
 10
524.6221990530612
 20
691.3728148920072
 30
0.0
 40
5.0
 41
0.0
 71
     5
 72
     1
  1
25
  7
OKANO
 73
     1
 44
1.0
  0
POINT
  5
6A7A
330
6959
100
AcDbEntity
  8
Defpoints
 62
     0
100
AcDbPoint
 10
512.1221990530612
 20
703.7546997217344
 30
0.0
  0
POINT
  5
6A7B
330
6959
100
AcDbEntity
  8
Defpoints
 62
     0
100
AcDbPoint
 10
537.1221990530612
 20
703.7546997217344
 30
0.0
  0
POINT
  5
6A7C
330
6959
100
AcDbEntity
  8
Defpoints
 62
     0
100
AcDbPoint
 10
537.1221990530612
 20
687.872322766023
 30
0.0
  0
ENDBLK
  5
6964
330
6959
100
AcDbEntity
  8
0
100
AcDbBlockEnd
  0
BLOCK
  5
696F
330
6965
100
AcDbEntity
  8
0
100
AcDbBlockBegin
  2
*D22
 70
     1
 10
0.0
 20
0.0
 30
0.0
  3
*D22
  1

  0
LINE
  5
6A6B
330
6965
100
AcDbEntity
  8
寸法線
 62
     0
370
    -2
100
AcDbLine
 10
201.9454965241318
 20
691.2546997217344
 30
0.0
 11
189.2524821931729
 21
691.2546997217344
 31
0.0
  0
LINE
  5
6A6C
330
6965
100
AcDbEntity
  8
寸法線
 62
     0
370
    -2
100
AcDbLine
 10
201.9454965241318
 20
716.2546997217344
 30
0.0
 11
189.2524821931729
 21
716.2546997217344
 31
0.0
  0
LINE
  5
6A6D
330
6965
100
AcDbEntity
  8
寸法線
 62
     0
370
    -2
100
AcDbLine
 10
192.2524821931729
 20
694.2546997217343
 30
0.0
 11
192.2524821931729
 21
713.2546997217343
 31
0.0
  0
INSERT
  5
6A6E
330
6965
100
AcDbEntity
  8
寸法線
 62
     0
370
    -2
100
AcDbBlockReference
  2
_Closed
 10
192.2524821931729
 20
691.2546997217344
 30
0.0
 41
3.0
 42
3.0
 43
3.0
 50
270.0
  0
INSERT
  5
6A6F
330
6965
100
AcDbEntity
  8
寸法線
 62
     0
370
    -2
100
AcDbBlockReference
  2
_Closed
 10
192.2524821931729
 20
716.2546997217344
 30
0.0
 41
3.0
 42
3.0
 43
3.0
 50
90.0
  0
MTEXT
  5
6A70
330
6965
100
AcDbEntity
  8
寸法線
 62
     0
100
AcDbMText
 10
188.7519900671885
 20
703.7546997217344
 30
0.0
 40
5.0
 41
0.0
 71
     5
 72
     1
  1
25
  7
OKANO
 11
0.0000000000000001
 21
1.0
 31
0.0
 73
     1
 44
1.0
  0
POINT
  5
6A71
330
6965
100
AcDbEntity
  8
Defpoints
 62
     0
100
AcDbPoint
 10
203.9454965241318
 20
691.2546997217344
 30
0.0
  0
POINT
  5
6A72
330
6965
100
AcDbEntity
  8
Defpoints
 62
     0
100
AcDbPoint
 10
203.9454965241318
 20
716.2546997217344
 30
0.0
  0
POINT
  5
6A73
330
6965
100
AcDbEntity
  8
Defpoints
 62
     0
100
AcDbPoint
 10
192.2524821931729
 20
716.2546997217344
 30
0.0
  0
ENDBLK
  5
6970
330
6965
100
AcDbEntity
  8
0
100
AcDbBlockEnd
  0
BLOCK
  5
6977
330
6971
100
AcDbEntity
  8
0
100
AcDbBlockBegin
  2
*D23
 70
     1
 10
0.0
 20
0.0
 30
0.0
  3
*D23
  1

  0
LINE
  5
6A66
330
6971
100
AcDbEntity
  8
寸法線
 62
     0
370
    -2
100
AcDbLine
 10
427.9479234656575
 20
736.8608835078492
 30
0.0
 11
412.8109019372629
 21
722.9167546621303
 31
0.0
  0
MTEXT
  5
6A67
330
6971
100
AcDbEntity
  8
寸法線
 62
     0
100
AcDbMText
 10
420.4440395592688
 20
734.7077323175897
 30
0.0
 40
5.0
 41
0.0
 71
     5
 72
     1
  1
24.5
  7
OKANO
 11
0.7354934010610253
 21
0.6775318863313268
 31
0.0
 73
     1
 44
1.0
  0
INSERT
  5
6A68
330
6971
100
AcDbEntity
  8
寸法線
 62
     0
370
    -2
100
AcDbBlockReference
  2
_Closed
 10
410.60442173408
 20
720.8841590031362
 30
0.0
 41
3.0
 42
3.0
 43
3.0
 50
222.651075694623
  0
POINT
  5
6A69
330
6971
100
AcDbEntity
  8
Defpoints
 62
     0
100
AcDbPoint
 10
410.60442173408
 20
720.8841590031362
 30
0.0
  0
POINT
  5
6A6A
330
6971
100
AcDbEntity
  8
Defpoints
 62
     0
100
AcDbPoint
 10
427.7264856009168
 20
736.6568963422451
 30
0.0
  0
ENDBLK
  5
6978
330
6971
100
AcDbEntity
  8
0
100
AcDbBlockEnd
  0
BLOCK
  5
6983
330
6979
100
AcDbEntity
  8
0
100
AcDbBlockBegin
  2
*D24
 70
     1
 10
0.0
 20
0.0
 30
0.0
  3
*D24
  1

  0
LINE
  5
6A5D
330
6979
100
AcDbEntity
  8
寸法線
 62
     0
370
    -2
100
AcDbLine
 10
430.0828672124189
 20
713.5781609816185
 30
0.0
 11
486.3218225314631
 21
713.5781609816185
 31
0.0
  0
LINE
  5
6A5E
330
6979
100
AcDbEntity
  8
寸法線
 62
     0
370
    -2
100
AcDbLine
 10
472.8478296316169
 20
703.9137997866293
 30
0.0
 11
486.3218225314631
 21
703.9137997866293
 31
0.0
  0
LINE
  5
6A5F
330
6979
100
AcDbEntity
  8
寸法線
 62
     0
370
    -2
100
AcDbLine
 10
483.3218225314631
 20
710.5781609816185
 30
0.0
 11
483.3218225314631
 21
706.9137997866294
 31
0.0
  0
INSERT
  5
6A60
330
6979
100
AcDbEntity
  8
寸法線
 62
     0
370
    -2
100
AcDbBlockReference
  2
_Closed
 10
483.3218225314631
 20
713.5781609816185
 30
0.0
 41
3.0
 42
3.0
 43
3.0
 50
90.0
  0
INSERT
  5
6A61
330
6979
100
AcDbEntity
  8
寸法線
 62
     0
370
    -2
100
AcDbBlockReference
  2
_Closed
 10
483.3218225314631
 20
703.9137997866293
 30
0.0
 41
3.0
 42
3.0
 43
3.0
 50
270.0
  0
MTEXT
  5
6A62
330
6979
100
AcDbEntity
  8
寸法線
 62
     0
100
AcDbMText
 10
479.821822531463
 20
708.7459803841241
 30
0.0
 40
5.0
 41
0.0
 71
     5
 72
     1
  1
10
  7
OKANO
 11
0.0000000000000001
 21
1.0
 31
0.0
 73
     1
 44
1.0
  0
POINT
  5
6A63
330
6979
100
AcDbEntity
  8
Defpoints
 62
     0
100
AcDbPoint
 10
428.0828672124189
 20
713.5781609816185
 30
0.0
  0
POINT
  5
6A64
330
6979
100
AcDbEntity
  8
Defpoints
 62
     0
100
AcDbPoint
 10
470.8478296316169
 20
703.9137997866293
 30
0.0
  0
POINT
  5
6A65
330
6979
100
AcDbEntity
  8
Defpoints
 62
     0
100
AcDbPoint
 10
483.3218225314631
 20
703.9137997866293
 30
0.0
  0
ENDBLK
  5
6984
330
6979
100
AcDbEntity
  8
0
100
AcDbBlockEnd
  0
BLOCK
  5
698F
330
6985
100
AcDbEntity
  8
0
100
AcDbBlockBegin
  2
*D25
 70
     1
 10
0.0
 20
0.0
 30
0.0
  3
*D25
  1

  0
LINE
  5
6A54
330
6985
100
AcDbEntity
  8
寸法線
 62
     0
370
    -2
100
AcDbLine
 10
382.848417331193
 20
703.5958627147057
 30
0.0
 11
366.7644619253114
 21
703.5958627147057
 31
0.0
  0
LINE
  5
6A55
330
6985
100
AcDbEntity
  8
寸法線
 62
     0
370
    -2
100
AcDbLine
 10
402.7693814974377
 20
725.0113875037905
 30
0.0
 11
366.7644619253114
 21
725.0113875037905
 31
0.0
  0
LINE
  5
6A56
330
6985
100
AcDbEntity
  8
寸法線
 62
     0
370
    -2
100
AcDbLine
 10
369.7644619253114
 20
706.5958627147057
 30
0.0
 11
369.7644619253114
 21
722.0113875037906
 31
0.0
  0
INSERT
  5
6A57
330
6985
100
AcDbEntity
  8
寸法線
 62
     0
370
    -2
100
AcDbBlockReference
  2
_Closed
 10
369.7644619253114
 20
703.5958627147057
 30
0.0
 41
3.0
 42
3.0
 43
3.0
 50
270.0
  0
INSERT
  5
6A58
330
6985
100
AcDbEntity
  8
寸法線
 62
     0
370
    -2
100
AcDbBlockReference
  2
_Closed
 10
369.7644619253114
 20
725.0113875037905
 30
0.0
 41
3.0
 42
3.0
 43
3.0
 50
90.0
  0
MTEXT
  5
6A59
330
6985
100
AcDbEntity
  8
寸法線
 62
     0
100
AcDbMText
 10
366.2639697993271
 20
714.3036251092483
 30
0.0
 40
5.0
 41
0.0
 71
     5
 72
     1
  1
21
  7
OKANO
 11
0.0000000000000001
 21
1.0
 31
0.0
 73
     1
 44
1.0
  0
POINT
  5
6A5A
330
6985
100
AcDbEntity
  8
Defpoints
 62
     0
100
AcDbPoint
 10
384.848417331193
 20
703.5958627147057
 30
0.0
  0
POINT
  5
6A5B
330
6985
100
AcDbEntity
  8
Defpoints
 62
     0
100
AcDbPoint
 10
404.7693814974377
 20
725.0113875037905
 30
0.0
  0
POINT
  5
6A5C
330
6985
100
AcDbEntity
  8
Defpoints
 62
     0
100
AcDbPoint
 10
369.7644619253114
 20
725.0113875037905
 30
0.0
  0
ENDBLK
  5
6990
330
6985
100
AcDbEntity
  8
0
100
AcDbBlockEnd
  0
BLOCK
  5
699B
330
6991
100
AcDbEntity
  8
0
100
AcDbBlockBegin
  2
*D26
 70
     1
 10
0.0
 20
0.0
 30
0.0
  3
*D26
  1

  0
LINE
  5
6A4B
330
6991
100
AcDbEntity
  8
寸法線
 62
     0
370
    -2
100
AcDbLine
 10
384.848417331193
 20
701.5958627147057
 30
0.0
 11
384.848417331193
 21
676.5638275611855
 31
0.0
  0
LINE
  5
6A4C
330
6991
100
AcDbEntity
  8
寸法線
 62
     0
370
    -2
100
AcDbLine
 10
470.8478296316169
 20
701.9137997866294
 30
0.0
 11
470.8478296316169
 21
676.5638275611855
 31
0.0
  0
LINE
  5
6A4D
330
6991
100
AcDbEntity
  8
寸法線
 62
     0
370
    -2
100
AcDbLine
 10
387.848417331193
 20
679.5638275611854
 30
0.0
 11
467.8478296316169
 21
679.5638275611854
 31
0.0
  0
INSERT
  5
6A4E
330
6991
100
AcDbEntity
  8
寸法線
 62
     0
370
    -2
100
AcDbBlockReference
  2
_Closed
 10
384.848417331193
 20
679.5638275611854
 30
0.0
 41
3.0
 42
3.0
 43
3.0
 50
180.0
  0
INSERT
  5
6A4F
330
6991
100
AcDbEntity
  8
寸法線
 62
     0
370
    -2
100
AcDbBlockReference
  2
_Closed
 10
470.8478296316169
 20
679.5638275611854
 30
0.0
 41
3.0
 42
3.0
 43
3.0
  0
MTEXT
  5
6A50
330
6991
100
AcDbEntity
  8
寸法線
 62
     0
100
AcDbMText
 10
427.848123481405
 20
683.0638275611854
 30
0.0
 40
5.0
 41
0.0
 71
     5
 72
     1
  1
86
  7
OKANO
 73
     1
 44
1.0
  0
POINT
  5
6A51
330
6991
100
AcDbEntity
  8
Defpoints
 62
     0
100
AcDbPoint
 10
384.848417331193
 20
703.5958627147057
 30
0.0
  0
POINT
  5
6A52
330
6991
100
AcDbEntity
  8
Defpoints
 62
     0
100
AcDbPoint
 10
470.8478296316169
 20
703.9137997866293
 30
0.0
  0
POINT
  5
6A53
330
6991
100
AcDbEntity
  8
Defpoints
 62
     0
100
AcDbPoint
 10
470.8478296316169
 20
679.5638275611854
 30
0.0
  0
ENDBLK
  5
699C
330
6991
100
AcDbEntity
  8
0
100
AcDbBlockEnd
  0
BLOCK
  5
69A7
330
699D
100
AcDbEntity
  8
0
100
AcDbBlockBegin
  2
*D27
 70
     1
 10
0.0
 20
0.0
 30
0.0
  3
*D27
  1

  0
LINE
  5
6A42
330
699D
100
AcDbEntity
  8
寸法線
 62
     0
370
    -2
100
AcDbLine
 10
535.6221631125248
 20
703.7546997217344
 30
0.0
 11
570.8561497949412
 21
703.7546997217344
 31
0.0
  0
LINE
  5
6A43
330
699D
100
AcDbEntity
  8
寸法線
 62
     0
370
    -2
100
AcDbLine
 10
534.1221631125248
 20
724.7546997217344
 30
0.0
 11
570.8561497949412
 21
724.7546997217344
 31
0.0
  0
LINE
  5
6A44
330
699D
100
AcDbEntity
  8
寸法線
 62
     0
370
    -2
100
AcDbLine
 10
567.8561497949413
 20
706.7546997217343
 30
0.0
 11
567.8561497949413
 21
721.7546997217343
 31
0.0
  0
INSERT
  5
6A45
330
699D
100
AcDbEntity
  8
寸法線
 62
     0
370
    -2
100
AcDbBlockReference
  2
_Closed
 10
567.8561497949413
 20
703.7546997217344
 30
0.0
 41
3.0
 42
3.0
 43
3.0
 50
270.0
  0
INSERT
  5
6A46
330
699D
100
AcDbEntity
  8
寸法線
 62
     0
370
    -2
100
AcDbBlockReference
  2
_Closed
 10
567.8561497949413
 20
724.7546997217344
 30
0.0
 41
3.0
 42
3.0
 43
3.0
 50
90.0
  0
MTEXT
  5
6A47
330
699D
100
AcDbEntity
  8
寸法線
 62
     0
100
AcDbMText
 10
564.3556576689569
 20
714.2546997217344
 30
0.0
 40
5.0
 41
0.0
 71
     5
 72
     1
  1
21
  7
OKANO
 11
0.0000000000000001
 21
1.0
 31
0.0
 73
     1
 44
1.0
  0
POINT
  5
6A48
330
699D
100
AcDbEntity
  8
Defpoints
 62
     0
100
AcDbPoint
 10
533.6221631125248
 20
703.7546997217344
 30
0.0
  0
POINT
  5
6A49
330
699D
100
AcDbEntity
  8
Defpoints
 62
     0
100
AcDbPoint
 10
532.1221631125248
 20
724.7546997217344
 30
0.0
  0
POINT
  5
6A4A
330
699D
100
AcDbEntity
  8
Defpoints
 62
     0
100
AcDbPoint
 10
567.8561497949413
 20
724.7546997217344
 30
0.0
  0
ENDBLK
  5
69A8
330
699D
100
AcDbEntity
  8
0
100
AcDbBlockEnd
  0
BLOCK
  5
69B3
330
69A9
100
AcDbEntity
  8
0
100
AcDbBlockBegin
  2
*D28
 70
     1
 10
0.0
 20
0.0
 30
0.0
  3
*D28
  1

  0
LINE
  5
6A39
330
69A9
100
AcDbEntity
  8
寸法線
 62
     0
370
    -2
100
AcDbLine
 10
277.9454965241318
 20
699.2546997217344
 30
0.0
 11
313.9190821465622
 21
699.2546997217344
 31
0.0
  0
LINE
  5
6A3A
330
69A9
100
AcDbEntity
  8
寸法線
 62
     0
370
    -2
100
AcDbLine
 10
277.9454965241318
 20
708.2546997217344
 30
0.0
 11
313.9190821465622
 21
708.2546997217344
 31
0.0
  0
LINE
  5
6A3B
330
69A9
100
AcDbEntity
  8
寸法線
 62
     0
370
    -2
100
AcDbLine
 10
310.9190821465622
 20
702.2546997217343
 30
0.0
 11
310.9190821465622
 21
705.2546997217343
 31
0.0
  0
INSERT
  5
6A3C
330
69A9
100
AcDbEntity
  8
寸法線
 62
     0
370
    -2
100
AcDbBlockReference
  2
_Closed
 10
310.9190821465622
 20
699.2546997217344
 30
0.0
 41
3.0
 42
3.0
 43
3.0
 50
270.0
  0
INSERT
  5
6A3D
330
69A9
100
AcDbEntity
  8
寸法線
 62
     0
370
    -2
100
AcDbBlockReference
  2
_Closed
 10
310.9190821465622
 20
708.2546997217344
 30
0.0
 41
3.0
 42
3.0
 43
3.0
 50
90.0
  0
MTEXT
  5
6A3E
330
69A9
100
AcDbEntity
  8
寸法線
 62
     0
100
AcDbMText
 10
307.4190821465621
 20
703.7546997217345
 30
0.0
 40
5.0
 41
0.0
 71
     5
 72
     1
  1
9
  7
OKANO
 11
0.0000000000000001
 21
1.0
 31
0.0
 73
     1
 44
1.0
  0
POINT
  5
6A3F
330
69A9
100
AcDbEntity
  8
Defpoints
 62
     0
100
AcDbPoint
 10
275.9454965241318
 20
699.2546997217344
 30
0.0
  0
POINT
  5
6A40
330
69A9
100
AcDbEntity
  8
Defpoints
 62
     0
100
AcDbPoint
 10
275.9454965241318
 20
708.2546997217344
 30
0.0
  0
POINT
  5
6A41
330
69A9
100
AcDbEntity
  8
Defpoints
 62
     0
100
AcDbPoint
 10
310.9190821465622
 20
708.2546997217344
 30
0.0
  0
ENDBLK
  5
69B4
330
69A9
100
AcDbEntity
  8
0
100
AcDbBlockEnd
  0
BLOCK
  5
69BF
330
69B5
100
AcDbEntity
  8
0
100
AcDbBlockBegin
  2
*D29
 70
     1
 10
0.0
 20
0.0
 30
0.0
  3
*D29
  1

  0
LINE
  5
6A30
330
69B5
100
AcDbEntity
  8
寸法線
 62
     0
370
    -2
100
AcDbLine
 10
224.9454965241318
 20
701.7546997217343
 30
0.0
 11
224.9454965241318
 21
680.1032926021246
 31
0.0
  0
LINE
  5
6A31
330
69B5
100
AcDbEntity
  8
寸法線
 62
     0
370
    -2
100
AcDbLine
 10
210.9454965241318
 20
701.7546997217343
 30
0.0
 11
210.9454965241318
 21
680.1032926021246
 31
0.0
  0
LINE
  5
6A32
330
69B5
100
AcDbEntity
  8
寸法線
 62
     0
370
    -2
100
AcDbLine
 10
221.9454965241318
 20
683.1032926021245
 30
0.0
 11
213.9454965241318
 21
683.1032926021245
 31
0.0
  0
INSERT
  5
6A33
330
69B5
100
AcDbEntity
  8
寸法線
 62
     0
370
    -2
100
AcDbBlockReference
  2
_Closed
 10
224.9454965241318
 20
683.1032926021245
 30
0.0
 41
3.0
 42
3.0
 43
3.0
  0
INSERT
  5
6A34
330
69B5
100
AcDbEntity
  8
寸法線
 62
     0
370
    -2
100
AcDbBlockReference
  2
_Closed
 10
210.9454965241318
 20
683.1032926021245
 30
0.0
 41
3.0
 42
3.0
 43
3.0
 50
180.0
  0
MTEXT
  5
6A35
330
69B5
100
AcDbEntity
  8
寸法線
 62
     0
100
AcDbMText
 10
217.9454965241318
 20
686.6032926021246
 30
0.0
 40
5.0
 41
0.0
 71
     5
 72
     1
  1
14
  7
OKANO
 73
     1
 44
1.0
  0
POINT
  5
6A36
330
69B5
100
AcDbEntity
  8
Defpoints
 62
     0
100
AcDbPoint
 10
224.9454965241318
 20
703.7546997217344
 30
0.0
  0
POINT
  5
6A37
330
69B5
100
AcDbEntity
  8
Defpoints
 62
     0
100
AcDbPoint
 10
210.9454965241318
 20
703.7546997217344
 30
0.0
  0
POINT
  5
6A38
330
69B5
100
AcDbEntity
  8
Defpoints
 62
     0
100
AcDbPoint
 10
210.9454965241318
 20
683.1032926021245
 30
0.0
  0
ENDBLK
  5
69C0
330
69B5
100
AcDbEntity
  8
0
100
AcDbBlockEnd
  0
BLOCK
  5
69CB
330
69C1
100
AcDbEntity
  8
0
100
AcDbBlockBegin
  2
*D30
 70
     1
 10
0.0
 20
0.0
 30
0.0
  3
*D30
  1

  0
LINE
  5
6A27
330
69C1
100
AcDbEntity
  8
寸法線
 62
     0
370
    -2
100
AcDbLine
 10
217.9454965241318
 20
715.7546997217344
 30
0.0
 11
217.9454965241318
 21
730.0314071689902
 31
0.0
  0
LINE
  5
6A28
330
69C1
100
AcDbEntity
  8
寸法線
 62
     0
370
    -2
100
AcDbLine
 10
275.9308017896255
 20
706.981117635181
 30
0.0
 11
275.9308017896255
 21
730.0314071689902
 31
0.0
  0
LINE
  5
6A29
330
69C1
100
AcDbEntity
  8
寸法線
 62
     0
370
    -2
100
AcDbLine
 10
220.9454965241318
 20
727.0314071689901
 30
0.0
 11
272.9308017896255
 21
727.0314071689901
 31
0.0
  0
INSERT
  5
6A2A
330
69C1
100
AcDbEntity
  8
寸法線
 62
     0
370
    -2
100
AcDbBlockReference
  2
_Closed
 10
217.9454965241318
 20
727.0314071689901
 30
0.0
 41
3.0
 42
3.0
 43
3.0
 50
180.0
  0
INSERT
  5
6A2B
330
69C1
100
AcDbEntity
  8
寸法線
 62
     0
370
    -2
100
AcDbBlockReference
  2
_Closed
 10
275.9308017896255
 20
727.0314071689901
 30
0.0
 41
3.0
 42
3.0
 43
3.0
  0
MTEXT
  5
6A2C
330
69C1
100
AcDbEntity
  8
寸法線
 62
     0
100
AcDbMText
 10
246.9381491568786
 20
733.0314071689902
 30
0.0
 40
10.0
 41
0.0
 71
     5
 72
     1
  1
60
  7
OKANO
 73
     1
 44
1.0
  0
POINT
  5
6A2D
330
69C1
100
AcDbEntity
  8
Defpoints
 62
     0
100
AcDbPoint
 10
217.9454965241318
 20
713.7546997217343
 30
0.0
  0
POINT
  5
6A2E
330
69C1
100
AcDbEntity
  8
Defpoints
 62
     0
100
AcDbPoint
 10
275.9308017896255
 20
704.981117635181
 30
0.0
  0
POINT
  5
6A2F
330
69C1
100
AcDbEntity
  8
Defpoints
 62
     0
100
AcDbPoint
 10
275.9308017896255
 20
727.0314071689901
 30
0.0
  0
ENDBLK
  5
69CC
330
69C1
100
AcDbEntity
  8
0
100
AcDbBlockEnd
  0
BLOCK
  5
6ACA
330
6ABE
100
AcDbEntity
  8
0
100
AcDbBlockBegin
  2
*D31
 70
     1
 10
0.0
 20
0.0
 30
0.0
  3
*D31
  1

  0
LINE
  5
6ACC
330
6ABE
100
AcDbEntity
  8
寸法線
 62
     0
370
    -2
100
AcDbLine
 10
534.1221631125248
 20
726.7546997217343
 30
0.0
 11
534.1221631125248
 21
741.6745818097697
 31
0.0
  0
LINE
  5
6ACD
330
6ABE
100
AcDbEntity
  8
寸法線
 62
     0
370
    -2
100
AcDbLine
 10
537.1221990530612
 20
725.7546997217343
 30
0.0
 11
537.1221990530612
 21
741.6745818097697
 31
0.0
  0
LINE
  5
6ACE
330
6ABE
100
AcDbEntity
  8
寸法線
 62
     0
370
    -2
100
AcDbLine
 10
531.1221631125248
 20
738.6745818097697
 30
0.0
 11
528.1221631125248
 21
738.6745818097697
 31
0.0
  0
LINE
  5
6ACF
330
6ABE
100
AcDbEntity
  8
寸法線
 62
     0
370
    -2
100
AcDbLine
 10
540.1221990530611
 20
738.6745818097697
 30
0.0
 11
551.1401482454923
 21
738.6745818097697
 31
0.0
  0
LINE
  5
6AD0
330
6ABE
100
AcDbEntity
  8
寸法線
 62
     0
370
    -2
100
AcDbLine
 10
534.1221631125248
 20
738.6745818097697
 30
0.0
 11
537.1221990530612
 21
738.6745818097697
 31
0.0
  0
INSERT
  5
6AD1
330
6ABE
100
AcDbEntity
  8
寸法線
 62
     0
370
    -2
100
AcDbBlockReference
  2
_Closed
 10
534.1221631125248
 20
738.6745818097697
 30
0.0
 41
3.0
 42
3.0
 43
3.0
  0
INSERT
  5
6AD2
330
6ABE
100
AcDbEntity
  8
寸法線
 62
     0
370
    -2
100
AcDbBlockReference
  2
_Closed
 10
537.1221990530612
 20
738.6745818097697
 30
0.0
 41
3.0
 42
3.0
 43
3.0
 50
180.0
  0
MTEXT
  5
6AD3
330
6ABE
100
AcDbEntity
  8
寸法線
 62
     0
100
AcDbMText
 10
547.1311736492768
 20
742.1745818097697
 30
0.0
 40
5.0
 41
0.0
 71
     5
 72
     1
  1
1.5
  7
OKANO
 73
     1
 44
1.0
  0
POINT
  5
6AD4
330
6ABE
100
AcDbEntity
  8
Defpoints
 62
     0
100
AcDbPoint
 10
534.1221631125248
 20
724.7546997217344
 30
0.0
  0
POINT
  5
6AD5
330
6ABE
100
AcDbEntity
  8
Defpoints
 62
     0
100
AcDbPoint
 10
537.1221990530612
 20
723.7546997217343
 30
0.0
  0
POINT
  5
6AD6
330
6ABE
100
AcDbEntity
  8
Defpoints
 62
     0
100
AcDbPoint
 10
537.1221990530612
 20
738.6745818097697
 30
0.0
  0
ENDBLK
  5
6ACB
330
6ABE
100
AcDbEntity
  8
0
100
AcDbBlockEnd
  0
BLOCK
  5
6AE4
330
6AD8
100
AcDbEntity
  8
0
100
AcDbBlockBegin
  2
*D32
 70
     1
 10
0.0
 20
0.0
 30
0.0
  3
*D32
  1

  0
LINE
  5
6AD9
330
6AD8
100
AcDbEntity
  8
寸法線
 62
     0
370
    -2
100
AcDbLine
 10
202.9454965241318
 20
907.8399995297425
 30
0.0
 11
146.0503557987976
 21
907.8399995297425
 31
0.0
  0
LINE
  5
6ADA
330
6AD8
100
AcDbEntity
  8
寸法線
 62
     0
370
    -2
100
AcDbLine
 10
201.9454965241318
 20
910.3399995297424
 30
0.0
 11
146.0503557987976
 21
910.3399995297424
 31
0.0
  0
LINE
  5
6ADB
330
6AD8
100
AcDbEntity
  8
寸法線
 62
     0
370
    -2
100
AcDbLine
 10
149.0503557987976
 20
904.8399995297424
 30
0.0
 11
149.0503557987976
 21
901.8399995297425
 31
0.0
  0
LINE
  5
6ADC
330
6AD8
100
AcDbEntity
  8
寸法線
 62
     0
370
    -2
100
AcDbLine
 10
149.0503557987976
 20
913.3399995297425
 30
0.0
 11
149.0503557987976
 21
926.2957708956825
 31
0.0
  0
LINE
  5
6ADD
330
6AD8
100
AcDbEntity
  8
寸法線
 62
     0
370
    -2
100
AcDbLine
 10
149.0503557987976
 20
907.8399995297425
 30
0.0
 11
149.0503557987976
 21
910.3399995297424
 31
0.0
  0
INSERT
  5
6ADE
330
6AD8
100
AcDbEntity
  8
寸法線
 62
     0
370
    -2
100
AcDbBlockReference
  2
_Closed
 10
149.0503557987976
 20
907.8399995297425
 30
0.0
 41
3.0
 42
3.0
 43
3.0
 50
90.0
  0
INSERT
  5
6ADF
330
6AD8
100
AcDbEntity
  8
寸法線
 62
     0
370
    -2
100
AcDbBlockReference
  2
_Closed
 10
149.0503557987976
 20
910.3399995297424
 30
0.0
 41
3.0
 42
3.0
 43
3.0
 50
270.0
  0
MTEXT
  5
6AE0
330
6AD8
100
AcDbEntity
  8
寸法線
 62
     0
100
AcDbMText
 10
145.5498636728132
 20
921.3178852127125
 30
0.0
 40
5.0
 41
0.0
 71
     5
 72
     1
  1
2.5
  7
OKANO
 11
0.0000000000000001
 21
1.0
 31
0.0
 73
     1
 44
1.0
  0
POINT
  5
6AE1
330
6AD8
100
AcDbEntity
  8
Defpoints
 62
     0
100
AcDbPoint
 10
204.9454965241318
 20
907.8399995297425
 30
0.0
  0
POINT
  5
6AE2
330
6AD8
100
AcDbEntity
  8
Defpoints
 62
     0
100
AcDbPoint
 10
203.9454965241318
 20
910.3399995297424
 30
0.0
  0
POINT
  5
6AE3
330
6AD8
100
AcDbEntity
  8
Defpoints
 62
     0
100
AcDbPoint
 10
149.0503557987976
 20
910.3399995297424
 30
0.0
  0
ENDBLK
  5
6AE5
330
6AD8
100
AcDbEntity
  8
0
100
AcDbBlockEnd
  0
ENDSEC
  0
SECTION
  2
ENTITIES
  0
XLINE
  5
4673
330
1F
100
AcDbEntity
  8
構築線
100
AcDbXline
 10
246.9454965241318
 20
144.7597868093781
 30
0.0
 11
0.0
 21
1.0
 31
0.0
  0
TEXT
  5
49EE
330
1F
100
AcDbEntity
  8
文字
100
AcDbText
 10
225.8306686455034
 20
878.9092019807505
 30
0.0
 40
5.0
  1
ソーラーパネル
 51
15.0
  7
OKANO
100
AcDbText
  0
CIRCLE
  5
51A8
330
1F
100
AcDbEntity
  8
太線
100
AcDbCircle
 10
636.6876921285085
 20
301.1453986766348
 30
0.0
 40
40025.0
  0
XLINE
  5
54CE
330
1F
100
AcDbEntity
  8
構築線
100
AcDbXline
 10
427.8125459663808
 20
415.2012174374958
 30
0.0
 11
0.0
 21
-1.0
 31
0.0
  0
LINE
  5
5641
330
1F
100
AcDbEntity
  8
破線
100
AcDbLine
 10
298.653843286389
 20
907.8399995297425
 30
0.0
 11
184.419597760593
 21
907.8399995297425
 31
0.0
  0
LINE
  5
5643
330
1F
100
AcDbEntity
  8
破線
100
AcDbLine
 10
184.419597760593
 20
866.7389790153087
 30
0.0
 11
298.653843286389
 21
866.7389790153087
 31
0.0
  0
LINE
  5
5644
330
1F
100
AcDbEntity
  8
破線
100
AcDbLine
 10
184.419597760593
 20
907.8399995297425
 30
0.0
 11
184.419597760593
 21
872.8399995297424
 31
0.0
  0
LINE
  5
5645
330
1F
100
AcDbEntity
  8
太線
100
AcDbLine
 10
204.9454965241318
 20
907.8399995297425
 30
0.0
 11
288.9454965241318
 21
907.8399995297425
 31
0.0
  0
LINE
  5
5646
330
1F
100
AcDbEntity
  8
太線
100
AcDbLine
 10
288.9454965241317
 20
911.3399995297426
 30
0.0
 11
204.9454965241319
 21
911.3399995297426
 31
0.0
  0
LINE
  5
5647
330
1F
100
AcDbEntity
  8
太線
100
AcDbLine
 10
203.9454965241318
 20
908.8399995297425
 30
0.0
 11
203.9454965241318
 21
910.3399995297424
 31
0.0
  0
LINE
  5
5648
330
1F
100
AcDbEntity
  8
太線
100
AcDbLine
 10
289.9454965241318
 20
908.8399995297425
 30
0.0
 11
289.9454965241318
 21
910.3399995297424
 31
0.0
  0
ARC
  5
5649
330
1F
100
AcDbEntity
  8
太線
100
AcDbCircle
 10
204.9454965241318
 20
908.8399995297425
 30
0.0
 40
1.0
100
AcDbArc
 50
180.0
 51
270.0
  0
ARC
  5
564A
330
1F
100
AcDbEntity
  8
太線
100
AcDbCircle
 10
288.9454965241318
 20
908.8399995297425
 30
0.0
 40
1.0
100
AcDbArc
 50
269.9999999999999
 51
0.0
  0
ARC
  5
564B
330
1F
100
AcDbEntity
  8
太線
100
AcDbCircle
 10
204.9454965241319
 20
910.3399995297424
 30
0.0
 40
1.0
100
AcDbArc
 50
90.00000000000003
 51
180.0
  0
ARC
  5
564C
330
1F
100
AcDbEntity
  8
太線
100
AcDbCircle
 10
288.9454965241317
 20
910.3399995297424
 30
0.0
 40
1.0
100
AcDbArc
 50
0.0
 51
90.00000000000003
  0
LINE
  5
564D
330
1F
100
AcDbEntity
  8
破線
100
AcDbLine
 10
210.9454965241318
 20
911.3399995297426
 30
0.0
 11
210.9454965241318
 21
907.8399995297425
 31
0.0
  0
LINE
  5
564E
330
1F
100
AcDbEntity
  8
破線
100
AcDbLine
 10
282.9454965241318
 20
907.8399995297425
 30
0.0
 11
282.9454965241318
 21
911.3399995297426
 31
0.0
  0
CIRCLE
  5
569D
330
1F
100
AcDbEntity
  8
破線
100
AcDbCircle
 10
246.9454965241318
 20
842.0948877401082
 30
0.0
 40
24.5
  0
LINE
  5
56FF
330
1F
100
AcDbEntity
  8
太線
100
AcDbLine
 10
279.9454965241318
 20
820.9824589612603
 30
0.0
 11
279.9454965241318
 21
866.7389790153087
 31
0.0
  0
LINE
  5
5700
330
1F
100
AcDbEntity
  8
太線
100
AcDbLine
 10
271.9454965241318
 20
866.7389790153087
 30
0.0
 11
271.9454965241318
 21
826.5766852093996
 31
0.0
  0
LINE
  5
5701
330
1F
100
AcDbEntity
  8
太線
100
AcDbLine
 10
221.9454965241318
 20
826.8717060127471
 30
0.0
 11
221.9454965241318
 21
866.7389790153087
 31
0.0
  0
LINE
  5
5702
330
1F
100
AcDbEntity
  8
太線
100
AcDbLine
 10
213.9454965241318
 20
866.7389790153087
 30
0.0
 11
213.9454965241318
 21
820.9824589612603
 31
0.0
  0
LINE
  5
5956
330
1F
100
AcDbEntity
  8
想像線
100
AcDbLine
 10
271.9454965241318
 20
907.8399995297425
 30
0.0
 11
271.9454965241318
 21
908.3399995297424
 31
0.0
  0
LINE
  5
5958
330
1F
100
AcDbEntity
  8
想像線
100
AcDbLine
 10
279.9454965241318
 20
907.8399995297425
 30
0.0
 11
279.9454965241318
 21
911.3399995297426
 31
0.0
  0
LINE
  5
5959
330
1F
100
AcDbEntity
  8
太線
100
AcDbLine
 10
279.9454965241318
 20
911.3399995297426
 30
0.0
 11
279.9454965241318
 21
913.3399995297423
 31
0.0
  0
LINE
  5
595A
330
1F
100
AcDbEntity
  8
太線
100
AcDbLine
 10
274.9454965241318
 20
918.3399995297424
 30
0.0
 11
269.9454965241318
 21
918.3399995297424
 31
0.0
  0
ARC
  5
595B
330
1F
100
AcDbEntity
  8
太線
100
AcDbCircle
 10
274.9454965241318
 20
913.3399995297423
 30
0.0
 40
5.0
100
AcDbArc
 50
0.0
 51
90.0
  0
ARC
  5
595D
330
1F
100
AcDbEntity
  8
想像線
100
AcDbCircle
 10
268.9454965241318
 20
908.3399995297424
 30
0.0
 40
3.0
100
AcDbArc
 50
0.0
 51
90.0
  0
ARC
  5
595E
330
1F
100
AcDbEntity
  8
太線
100
AcDbCircle
 10
218.9454965241318
 20
913.3399995297423
 30
0.0
 40
5.0
100
AcDbArc
 50
90.0
 51
180.0
  0
ARC
  5
595F
330
1F
100
AcDbEntity
  8
想像線
100
AcDbCircle
 10
224.9454965241318
 20
908.3399995297424
 30
0.0
 40
3.0
100
AcDbArc
 50
90.0
 51
180.0
  0
LINE
  5
5960
330
1F
100
AcDbEntity
  8
太線
100
AcDbLine
 10
218.9454965241318
 20
918.3399995297424
 30
0.0
 11
269.9454965241318
 21
918.3399995297424
 31
0.0
  0
LINE
  5
5961
330
1F
100
AcDbEntity
  8
太線
100
AcDbLine
 10
213.9454965241318
 20
913.3399995297423
 30
0.0
 11
213.9454965241318
 21
911.3399995297426
 31
0.0
  0
LINE
  5
5962
330
1F
100
AcDbEntity
  8
太線
100
AcDbLine
 10
224.9454965241318
 20
911.3399995297426
 30
0.0
 11
268.9454965241318
 21
911.3399995297426
 31
0.0
  0
LINE
  5
5963
330
1F
100
AcDbEntity
  8
想像線
100
AcDbLine
 10
221.9454965241318
 20
908.3399995297424
 30
0.0
 11
221.9454965241318
 21
907.8399995297424
 31
0.0
  0
LINE
  5
5964
330
1F
100
AcDbEntity
  8
想像線
100
AcDbLine
 10
213.9454965241318
 20
911.3399995297426
 30
0.0
 11
213.9454965241318
 21
907.8399995297425
 31
0.0
  0
LINE
  5
5965
330
1F
100
AcDbEntity
  8
想像線
100
AcDbLine
 10
213.9454965241318
 20
907.8399995297425
 30
0.0
 11
213.9454965241318
 21
866.7389790153086
 31
0.0
  0
LINE
  5
5966
330
1F
100
AcDbEntity
  8
想像線
100
AcDbLine
 10
221.9454965241318
 20
907.8399995297424
 30
0.0
 11
221.9454965241318
 21
866.7389790153086
 31
0.0
  0
LINE
  5
5967
330
1F
100
AcDbEntity
  8
想像線
100
AcDbLine
 10
271.9454965241318
 20
907.8399995297425
 30
0.0
 11
271.9454965241317
 21
866.7389790153086
 31
0.0
  0
LINE
  5
5968
330
1F
100
AcDbEntity
  8
想像線
100
AcDbLine
 10
279.9454965241318
 20
907.8399995297425
 30
0.0
 11
279.9454965241318
 21
866.7389790153086
 31
0.0
  0
LINE
  5
5BA5
330
1F
100
AcDbEntity
  8
太線
100
AcDbLine
 10
528.3007271552924
 20
809.7389790153087
 30
0.0
 11
528.3007271552924
 21
866.8399995297425
 31
0.0
  0
LINE
  5
5BA6
330
1F
100
AcDbEntity
  8
太線
100
AcDbLine
 10
520.3007271552924
 20
866.8399995297425
 30
0.0
 11
520.3007271552924
 21
809.7389790153087
 31
0.0
  0
LINE
  5
5BAC
330
1F
100
AcDbEntity
  8
太線
100
AcDbLine
 10
520.3007271552924
 20
907.9410200441763
 30
0.0
 11
520.3007271552924
 21
872.9410200441762
 31
0.0
  0
LINE
  5
5BAD
330
1F
100
AcDbEntity
  8
太線
100
AcDbLine
 10
528.3007271552924
 20
907.9410200441762
 30
0.0
 11
528.3007271552924
 21
865.6347793544776
 31
0.0
  0
ARC
  5
5BBF
330
1F
100
AcDbEntity
  8
太線
100
AcDbCircle
 10
524.3007271552924
 20
914.3399995297425
 30
0.0
 40
4.0
100
AcDbArc
 50
0.0
 51
180.0
  0
LINE
  5
5BC0
330
1F
100
AcDbEntity
  8
太線
100
AcDbLine
 10
528.3007271552924
 20
907.9410200441762
 30
0.0
 11
528.3007271552924
 21
908.3399995297424
 31
0.0
  0
LINE
  5
5BC1
330
1F
100
AcDbEntity
  8
太線
100
AcDbLine
 10
520.3007271552924
 20
907.9410200441763
 30
0.0
 11
520.3007271552924
 21
908.3399995297424
 31
0.0
  0
LINE
  5
5CC1
330
1F
100
AcDbEntity
  8
太線
100
AcDbLine
 10
504.3007271552924
 20
908.3399995297424
 30
0.0
 11
504.3007271552924
 21
911.3399995297426
 31
0.0
  0
LINE
  5
5CC2
330
1F
100
AcDbEntity
  8
太線
100
AcDbLine
 10
504.3007271552924
 20
911.3399995297426
 30
0.0
 11
537.3007271552924
 21
911.3399995297426
 31
0.0
  0
LINE
  5
5CC3
330
1F
100
AcDbEntity
  8
太線
100
AcDbLine
 10
537.3007271552924
 20
911.3399995297426
 30
0.0
 11
537.3007271552924
 21
870.2389790153088
 31
0.0
  0
LINE
  5
5CC4
330
1F
100
AcDbEntity
  8
太線
100
AcDbLine
 10
537.3007271552924
 20
870.2389790153088
 30
0.0
 11
549.3007271552924
 21
870.2389790153088
 31
0.0
  0
LINE
  5
5CC5
330
1F
100
AcDbEntity
  8
太線
100
AcDbLine
 10
504.3007271552924
 20
908.3399995297424
 30
0.0
 11
534.3007271552924
 21
908.3399995297424
 31
0.0
  0
LINE
  5
5CC6
330
1F
100
AcDbEntity
  8
太線
100
AcDbLine
 10
534.3007271552924
 20
908.3399995297424
 30
0.0
 11
534.3007271552924
 21
867.2389790153088
 31
0.0
  0
LINE
  5
5CC7
330
1F
100
AcDbEntity
  8
太線
100
AcDbLine
 10
534.3007271552924
 20
867.2389790153086
 30
0.0
 11
549.3007271552924
 21
867.2389790153086
 31
0.0
  0
LINE
  5
5CC8
330
1F
100
AcDbEntity
  8
太線
100
AcDbLine
 10
549.3007271552924
 20
867.2389790153086
 30
0.0
 11
549.3007271552924
 21
870.2389790153088
 31
0.0
  0
DIMENSION
  5
5CED
330
1F
100
AcDbEntity
  8
寸法線
100
AcDbDimension
  2
*D2
 10
549.3007271552924
 20
934.6990057828952
 30
0.0
 11
526.8007271552924
 21
938.1990057828952
 31
0.0
 70
    32
 71
     5
 42
45.0
  3
sunpo
100
AcDbAlignedDimension
 13
504.3007271552924
 23
911.3399995297426
 33
0.0
 14
549.3007271552924
 24
876.3399995297424
 34
0.0
100
AcDbRotatedDimension
1001
ACAD
1000
DSTYLE
1002
{
1070
    40
1040
1.0
1002
}
  0
LINE
  5
5CFA
330
1F
100
AcDbEntity
  8
寸法線
100
AcDbLine
 10
534.3007271552924
 20
867.2389790153086
 30
0.0
 11
549.3007271552924
 21
867.2389790153086
 31
0.0
  0
TEXT
  5
5D62
330
1F
100
AcDbEntity
  8
文字
100
AcDbText
 10
1046.206962600699
 20
1521.405617238604
 30
0.0
 40
5.0
  1
31-1U-20
 51
15.0
  7
OKANO
100
AcDbText
  0
TEXT
  5
5D65
330
1F
100
AcDbEntity
  8
文字
100
AcDbText
 10
499.9832947051036
 20
773.9119047294662
 30
0.0
 40
5.0
  1
Ｍ8
 51
15.0
  7
OKANO
100
AcDbText
  0
XLINE
  5
5D7F
330
1F
100
AcDbEntity
  8
構築線
100
AcDbXline
 10
140.7799199748551
 20
977.1263675188819
 30
0.0
 11
1.0
 21
0.0
 31
0.0
  0
LINE
  5
5D92
330
1F
100
AcDbEntity
  8
構築線
100
AcDbLine
 10
427.8125459663808
 20
977.1263675188819
 30
0.0
 11
427.8125459663808
 21
1015.568856918334
 31
0.0
  0
TEXT
  5
5DAB
330
1F
100
AcDbEntity
  8
文字
100
AcDbText
 10
399.3444736598176
 20
1032.475187404168
 30
0.0
 40
10.0
  1
30-ＱＳ-20-40
 51
15.0
  7
OKANO
100
AcDbText
  0
TEXT
  5
5DEB
330
1F
100
AcDbEntity
  8
文字
100
AcDbText
 10
189.7979518363135
 20
1033.857388384145
 30
0.0
 40
10.0
  1
30-ＱＷ-20-40
 51
15.0
  7
OKANO
100
AcDbText
  0
LINE
  5
5F47
330
1F
100
AcDbEntity
  8
太線
100
AcDbLine
 10
309.9454965241318
 20
908.3399995297424
 30
0.0
 11
339.9454965241318
 21
908.3399995297424
 31
0.0
  0
LINE
  5
5F4A
330
1F
100
AcDbEntity
  8
太線
100
AcDbLine
 10
309.9454965241318
 20
911.3399995297426
 30
0.0
 11
342.9454965241318
 21
911.3399995297426
 31
0.0
  0
LINE
  5
5F4B
330
1F
100
AcDbEntity
  8
太線
100
AcDbLine
 10
309.9454965241318
 20
908.3399995297424
 30
0.0
 11
309.9454965241318
 21
911.3399995297426
 31
0.0
  0
LINE
  5
5F4C
330
1F
100
AcDbEntity
  8
太線
100
AcDbLine
 10
325.9454965241318
 20
907.9410200441763
 30
0.0
 11
325.9454965241318
 21
908.3399995297424
 31
0.0
  0
LINE
  5
5F4D
330
1F
100
AcDbEntity
  8
太線
100
AcDbLine
 10
333.9454965241318
 20
907.9410200441762
 30
0.0
 11
333.9454965241318
 21
908.3399995297424
 31
0.0
  0
ARC
  5
5F4E
330
1F
100
AcDbEntity
  8
太線
100
AcDbCircle
 10
329.9454965241318
 20
914.3399995297425
 30
0.0
 40
4.0
100
AcDbArc
 50
0.0
 51
180.0
  0
LINE
  5
5F59
330
1F
100
AcDbEntity
  8
太線
100
AcDbLine
 10
333.9454965241318
 20
907.9410200441762
 30
0.0
 11
333.9454965241318
 21
872.9410200441762
 31
0.0
  0
LINE
  5
5F5A
330
1F
100
AcDbEntity
  8
太線
100
AcDbLine
 10
325.9454965241318
 20
907.9410200441763
 30
0.0
 11
325.9454965241318
 21
865.6347793544775
 31
0.0
  0
LINE
  5
5F5B
330
1F
100
AcDbEntity
  8
太線
100
AcDbLine
 10
325.9454965241318
 20
866.8399995297425
 30
0.0
 11
325.9454965241317
 21
809.7389790153087
 31
0.0
  0
LINE
  5
5F5C
330
1F
100
AcDbEntity
  8
太線
100
AcDbLine
 10
333.9454965241317
 20
809.7389790153087
 30
0.0
 11
333.9454965241318
 21
866.8399995297425
 31
0.0
  0
LINE
  5
5F7E
330
1F
100
AcDbEntity
  8
太線
100
AcDbLine
 10
342.9454965241318
 20
911.3399995297426
 30
0.0
 11
349.9454965241318
 21
911.3399995297426
 31
0.0
  0
LINE
  5
5F7F
330
1F
100
AcDbEntity
  8
太線
100
AcDbLine
 10
349.9454965241318
 20
911.3399995297426
 30
0.0
 11
349.9454965241318
 21
908.3399995297424
 31
0.0
  0
LINE
  5
5F80
330
1F
100
AcDbEntity
  8
太線
100
AcDbLine
 10
349.9454965241318
 20
908.3399995297424
 30
0.0
 11
339.9454965241318
 21
908.3399995297424
 31
0.0
  0
LINE
  5
5F83
330
1F
100
AcDbEntity
  8
太線
100
AcDbLine
 10
333.9454965241318
 20
911.3399995297426
 30
0.0
 11
333.9454965241318
 21
914.3399995297425
 31
0.0
  0
LINE
  5
5F84
330
1F
100
AcDbEntity
  8
太線
100
AcDbLine
 10
325.9454965241318
 20
911.3399995297426
 30
0.0
 11
325.9454965241318
 21
914.3399995297425
 31
0.0
  0
LINE
  5
5F85
330
1F
100
AcDbEntity
  8
太線
100
AcDbLine
 10
520.3007271552924
 20
911.3399995297426
 30
0.0
 11
520.3007271552924
 21
914.3399995297425
 31
0.0
  0
LINE
  5
5F86
330
1F
100
AcDbEntity
  8
太線
100
AcDbLine
 10
528.3007271552924
 20
911.3399995297426
 30
0.0
 11
528.3007271552924
 21
914.3399995297425
 31
0.0
  0
LINE
  5
5F8A
330
1F
100
AcDbEntity
  8
破線
100
AcDbLine
 10
298.653843286389
 20
907.8399995297425
 30
0.0
 11
323.9507479656022
 21
908.3399995297424
 31
0.0
  0
LINE
  5
5F8B
330
1F
100
AcDbEntity
  8
破線
100
AcDbLine
 10
323.9507479656022
 20
908.3399995297424
 30
0.0
 11
323.9507479656022
 21
865.6347793544775
 31
0.0
  0
LINE
  5
5F8D
330
1F
100
AcDbEntity
  8
破線
100
AcDbLine
 10
336.209529763495
 20
908.3399995297424
 30
0.0
 11
518.1183516110177
 21
908.3399995297424
 31
0.0
  0
LINE
  5
5F8E
330
1F
100
AcDbEntity
  8
破線
100
AcDbLine
 10
518.1183516110177
 20
908.3399995297424
 30
0.0
 11
518.1183516110177
 21
867.2389790153086
 31
0.0
  0
LINE
  5
5F8F
330
1F
100
AcDbEntity
  8
破線
100
AcDbLine
 10
518.1183516110177
 20
867.2389790153086
 30
0.0
 11
336.209529763495
 21
867.2389790153086
 31
0.0
  0
LINE
  5
5F90
330
1F
100
AcDbEntity
  8
破線
100
AcDbLine
 10
336.209529763495
 20
867.2389790153086
 30
0.0
 11
336.209529763495
 21
908.3399995297424
 31
0.0
  0
TEXT
  5
5F92
330
1F
100
AcDbEntity
  8
文字
100
AcDbText
 10
371.874284496007
 20
932.3056882553792
 30
0.0
 40
5.0
  1
Φ7
 51
15.0
  7
OKANO
100
AcDbText
  0
LINE
  5
5FB6
330
1F
100
AcDbEntity
  8
想像線
100
AcDbLine
 10
460.8125459663808
 20
820.9824589612603
 30
0.0
 11
460.8125459663808
 21
819.2781896900958
 31
0.0
  0
LINE
  5
5FC4
330
1F
100
AcDbEntity
  8
想像線
100
AcDbLine
 10
460.8125459663808
 20
907.8399995297425
 30
0.0
 11
460.8125459663808
 21
867.2389790153086
 31
0.0
  0
LINE
  5
5FC5
330
1F
100
AcDbEntity
  8
想像線
100
AcDbLine
 10
452.8125459663808
 20
907.8399995297425
 30
0.0
 11
452.8125459663808
 21
867.2389790153086
 31
0.0
  0
LINE
  5
5FC6
330
1F
100
AcDbEntity
  8
想像線
100
AcDbLine
 10
402.8125459663808
 20
907.8399995297424
 30
0.0
 11
402.8125459663808
 21
867.2389790153086
 31
0.0
  0
LINE
  5
5FC7
330
1F
100
AcDbEntity
  8
想像線
100
AcDbLine
 10
394.8125459663808
 20
907.8399995297425
 30
0.0
 11
394.8125459663808
 21
867.2389790153086
 31
0.0
  0
LINE
  5
5FC8
330
1F
100
AcDbEntity
  8
想像線
100
AcDbLine
 10
394.8125459663808
 20
911.3399995297426
 30
0.0
 11
394.8125459663808
 21
907.8399995297425
 31
0.0
  0
LINE
  5
5FC9
330
1F
100
AcDbEntity
  8
想像線
100
AcDbLine
 10
402.8125459663808
 20
908.3399995297424
 30
0.0
 11
402.8125459663808
 21
907.8399995297424
 31
0.0
  0
LINE
  5
5FCA
330
1F
100
AcDbEntity
  8
太線
100
AcDbLine
 10
405.8125459663808
 20
911.3399995297426
 30
0.0
 11
449.8125459663809
 21
911.3399995297426
 31
0.0
  0
LINE
  5
5FCB
330
1F
100
AcDbEntity
  8
太線
100
AcDbLine
 10
394.8125459663808
 20
913.3399995297423
 30
0.0
 11
394.8125459663808
 21
911.3399995297426
 31
0.0
  0
LINE
  5
5FCC
330
1F
100
AcDbEntity
  8
太線
100
AcDbLine
 10
399.8125459663808
 20
918.3399995297424
 30
0.0
 11
450.8125459663808
 21
918.3399995297424
 31
0.0
  0
ARC
  5
5FCD
330
1F
100
AcDbEntity
  8
想像線
100
AcDbCircle
 10
405.8125459663808
 20
908.3399995297424
 30
0.0
 40
3.0
100
AcDbArc
 50
90.0
 51
180.0
  0
ARC
  5
5FCE
330
1F
100
AcDbEntity
  8
太線
100
AcDbCircle
 10
399.8125459663808
 20
913.3399995297423
 30
0.0
 40
5.0
100
AcDbArc
 50
90.0
 51
180.0
  0
ARC
  5
5FCF
330
1F
100
AcDbEntity
  8
想像線
100
AcDbCircle
 10
449.8125459663809
 20
908.3399995297424
 30
0.0
 40
3.0
100
AcDbArc
 50
0.0
 51
90.0
  0
ARC
  5
5FD0
330
1F
100
AcDbEntity
  8
太線
100
AcDbCircle
 10
455.8125459663808
 20
913.3399995297423
 30
0.0
 40
5.0
100
AcDbArc
 50
0.0
 51
90.0
  0
LINE
  5
5FD1
330
1F
100
AcDbEntity
  8
太線
100
AcDbLine
 10
455.8125459663808
 20
918.3399995297424
 30
0.0
 11
450.8125459663808
 21
918.3399995297424
 31
0.0
  0
LINE
  5
5FD2
330
1F
100
AcDbEntity
  8
太線
100
AcDbLine
 10
460.8125459663808
 20
911.3399995297426
 30
0.0
 11
460.8125459663808
 21
913.3399995297423
 31
0.0
  0
LINE
  5
5FD3
330
1F
100
AcDbEntity
  8
想像線
100
AcDbLine
 10
460.8125459663808
 20
907.8399995297425
 30
0.0
 11
460.8125459663808
 21
911.3399995297426
 31
0.0
  0
LINE
  5
5FD4
330
1F
100
AcDbEntity
  8
想像線
100
AcDbLine
 10
452.8125459663808
 20
907.8399995297425
 30
0.0
 11
452.8125459663808
 21
908.3399995297424
 31
0.0
  0
DIMENSION
  5
5FD5
330
1F
100
AcDbEntity
  8
寸法線
100
AcDbDimension
  2
*D3
 10
398.8125459663809
 20
781.786471901527
 30
0.0
 11
427.8125459663808
 21
785.286471901527
 31
0.0
 70
    32
  1
60
 71
     5
 42
58.0
  3
sunpo
100
AcDbAlignedDimension
 13
456.8125459663808
 23
792.7389790153086
 33
0.0
 14
398.8125459663809
 24
792.7389790153086
 34
0.0
100
AcDbRotatedDimension
1001
ACAD
1000
DSTYLE
1002
{
1070
    40
1040
1.0
1002
}
  0
LINE
  5
5FD6
330
1F
100
AcDbEntity
  8
細線
100
AcDbLine
 10
460.8125459663808
 20
793.2389790153087
 30
0.0
 11
461.3125459663808
 21
794.2389790153087
 31
0.0
  0
LINE
  5
5FD7
330
1F
100
AcDbEntity
  8
細線
100
AcDbLine
 10
452.3125459663808
 20
794.2389790153087
 30
0.0
 11
452.8125459663808
 21
793.2389790153087
 31
0.0
  0
LINE
  5
5FD8
330
1F
100
AcDbEntity
  8
太線
100
AcDbLine
 10
460.8125459663808
 20
793.2389790153087
 30
0.0
 11
452.8125459663808
 21
793.2389790153087
 31
0.0
  0
LINE
  5
5FDB
330
1F
100
AcDbEntity
  8
太線
100
AcDbLine
 10
452.8125459663808
 20
866.7389790153087
 30
0.0
 11
452.8125459663808
 21
826.5766852093999
 31
0.0
  0
LINE
  5
5FDC
330
1F
100
AcDbEntity
  8
太線
100
AcDbLine
 10
460.8125459663808
 20
820.9824589612603
 30
0.0
 11
460.8125459663808
 21
866.7389790153087
 31
0.0
  0
LINE
  5
5FE2
330
1F
100
AcDbEntity
  8
太線
100
AcDbLine
 10
452.3125459663809
 20
827.0328411793562
 30
0.0
 11
452.3125459663808
 21
831.5985067487128
 31
0.0
  0
LINE
  5
5FE3
330
1F
100
AcDbEntity
  8
細線
100
AcDbLine
 10
452.3125459663808
 20
831.5985067487128
 30
0.0
 11
452.8125459663808
 21
833.5985067487127
 31
0.0
  0
LINE
  5
5FE4
330
1F
100
AcDbEntity
  8
太線
100
AcDbLine
 10
452.8125459663808
 20
833.5985067487127
 30
0.0
 11
460.8125459663808
 21
833.5985067487127
 31
0.0
  0
LINE
  5
5FE5
330
1F
100
AcDbEntity
  8
細線
100
AcDbLine
 10
460.8125459663808
 20
833.5985067487127
 30
0.0
 11
461.3125459663808
 21
831.5985067487128
 31
0.0
  0
LINE
  5
5FE6
330
1F
100
AcDbEntity
  8
太線
100
AcDbLine
 10
461.3125459663808
 20
831.598506748713
 30
0.0
 11
461.3125459663808
 21
818.8220337201393
 31
0.0
  0
LINE
  5
5FE8
330
1F
100
AcDbEntity
  8
太線
100
AcDbLine
 10
452.8125459663808
 20
794.2389790153087
 30
0.0
 11
452.8125459663809
 21
800.0793883626078
 31
0.0
  0
LINE
  5
5FE9
330
1F
100
AcDbEntity
  8
太線
100
AcDbLine
 10
460.8125459663808
 20
794.2389790153087
 30
0.0
 11
460.8125459663808
 21
800.0793883626078
 31
0.0
  0
LINE
  5
5FEC
330
1F
100
AcDbEntity
  8
細線
100
AcDbLine
 10
452.3125459663808
 20
794.2389790153088
 30
0.0
 11
452.3125459663808
 21
800.0793883626078
 31
0.0
  0
LINE
  5
5FED
330
1F
100
AcDbEntity
  8
細線
100
AcDbLine
 10
461.3125459663808
 20
794.2389790153088
 30
0.0
 11
461.3125459663808
 21
800.0793883626078
 31
0.0
  0
LINE
  5
5FEE
330
1F
100
AcDbEntity
  8
細線
100
AcDbLine
 10
452.3125459663808
 20
794.2389790153087
 30
0.0
 11
461.3125459663808
 21
794.2389790153087
 31
0.0
  0
ARC
  5
5FF0
330
1F
100
AcDbEntity
  8
太線
100
AcDbCircle
 10
427.8125459663808
 20
840.3745852086878
 30
0.0
 40
23.2796974685795
100
AcDbArc
 50
210.7486871587841
 51
329.2513128412158
  0
CIRCLE
  5
5FFE
330
1F
100
AcDbEntity
  8
破線
100
AcDbCircle
 10
427.8125459663808
 20
842.0948877401082
 30
0.0
 40
24.5
  0
LINE
  5
5FFF
330
1F
100
AcDbEntity
  8
破線
100
AcDbLine
 10
463.8125459663808
 20
907.8399995297425
 30
0.0
 11
463.8125459663808
 21
911.3399995297426
 31
0.0
  0
LINE
  5
6000
330
1F
100
AcDbEntity
  8
破線
100
AcDbLine
 10
391.8125459663808
 20
911.3399995297426
 30
0.0
 11
391.8125459663808
 21
907.8399995297425
 31
0.0
  0
ARC
  5
6001
330
1F
100
AcDbEntity
  8
太線
100
AcDbCircle
 10
469.8125459663808
 20
910.3399995297424
 30
0.0
 40
1.0
100
AcDbArc
 50
0.0
 51
90.00000000000003
  0
ARC
  5
6002
330
1F
100
AcDbEntity
  8
太線
100
AcDbCircle
 10
385.8125459663809
 20
910.3399995297424
 30
0.0
 40
1.0
100
AcDbArc
 50
90.00000000000003
 51
180.0
  0
ARC
  5
6003
330
1F
100
AcDbEntity
  8
太線
100
AcDbCircle
 10
469.8125459663808
 20
908.8399995297425
 30
0.0
 40
1.0
100
AcDbArc
 50
269.9999999999999
 51
0.0
  0
ARC
  5
6004
330
1F
100
AcDbEntity
  8
太線
100
AcDbCircle
 10
385.8125459663808
 20
908.8399995297425
 30
0.0
 40
1.0
100
AcDbArc
 50
180.0
 51
270.0
  0
LINE
  5
6005
330
1F
100
AcDbEntity
  8
太線
100
AcDbLine
 10
470.8125459663809
 20
908.8399995297425
 30
0.0
 11
470.8125459663808
 21
910.3399995297424
 31
0.0
  0
LINE
  5
6006
330
1F
100
AcDbEntity
  8
太線
100
AcDbLine
 10
384.8125459663808
 20
908.8399995297425
 30
0.0
 11
384.8125459663809
 21
910.3399995297424
 31
0.0
  0
LINE
  5
6007
330
1F
100
AcDbEntity
  8
太線
100
AcDbLine
 10
469.8125459663808
 20
911.3399995297426
 30
0.0
 11
385.8125459663809
 21
911.3399995297426
 31
0.0
  0
LINE
  5
6008
330
1F
100
AcDbEntity
  8
太線
100
AcDbLine
 10
385.8125459663808
 20
907.8399995297425
 30
0.0
 11
469.8125459663808
 21
907.8399995297425
 31
0.0
  0
TEXT
  5
6009
330
1F
100
AcDbEntity
  8
文字
100
AcDbText
 10
408.8610305055567
 20
878.9092019807505
 30
0.0
 40
5.0
  1
ソーラーパネル
 51
15.0
  7
OKANO
100
AcDbText
  0
LEADER
  5
601F
330
1F
100
AcDbEntity
  8
寸法線
100
AcDbLeader
  3
sunpo
 76
     2
 10
413.3175682372529
 20
916.0901745471056
 30
0.0
 10
380.8537352411658
 20
929.8913096827455
 30
0.0
1001
ACAD
1000
DSTYLE
1002
{
1070
   147
1040
1.0
1070
    77
1070
     0
1002
}
  0
LEADER
  5
6020
330
1F
100
AcDbEntity
  8
寸法線
100
AcDbLeader
  3
sunpo
 76
     2
 10
457.9320732163032
 20
798.3555502347955
 30
0.0
 10
492.6910333047271
 20
777.886291689705
 30
0.0
1001
ACAD
1000
DSTYLE
1002
{
1070
   147
1040
1.0
1070
    77
1070
     0
1002
}
  0
LINE
  5
6058
330
1F
100
AcDbEntity
  8
想像線
100
AcDbLine
 10
520.5183353985777
 20
799.6082596747862
 30
0.0
 11
520.5183353985776
 21
795.2092801892197
 31
0.0
  0
LINE
  5
6059
330
1F
100
AcDbEntity
  8
太線
100
AcDbLine
 10
520.5183353985777
 20
799.6082596747862
 30
0.0
 11
520.5183353985776
 21
795.2092801892197
 31
0.0
  0
LINE
  5
605D
330
1F
100
AcDbEntity
  8
細線
100
AcDbLine
 10
528.5183353985776
 20
794.2092801892195
 30
0.0
 11
529.0183353985776
 21
795.2092801892196
 31
0.0
  0
LINE
  5
605E
330
1F
100
AcDbEntity
  8
細線
100
AcDbLine
 10
520.0183353985776
 20
795.2092801892196
 30
0.0
 11
520.5183353985776
 21
794.2092801892195
 31
0.0
  0
LINE
  5
605F
330
1F
100
AcDbEntity
  8
太線
100
AcDbLine
 10
528.5183353985776
 20
794.2092801892195
 30
0.0
 11
520.5183353985776
 21
794.2092801892195
 31
0.0
  0
LINE
  5
6060
330
1F
100
AcDbEntity
  8
太線
100
AcDbLine
 10
520.0183353985776
 20
795.2092801892196
 30
0.0
 11
529.0183353985776
 21
795.2092801892196
 31
0.0
  0
LINE
  5
6061
330
1F
100
AcDbEntity
  8
太線
100
AcDbLine
 10
529.0183353985776
 20
795.2092801892198
 30
0.0
 11
529.0183353985776
 21
799.6082596747862
 31
0.0
  0
LINE
  5
6062
330
1F
100
AcDbEntity
  8
太線
100
AcDbLine
 10
520.0183353985776
 20
795.2092801892197
 30
0.0
 11
520.0183353985776
 21
799.6082596747862
 31
0.0
  0
LINE
  5
6063
330
1F
100
AcDbEntity
  8
太線
100
AcDbLine
 10
528.5183353985776
 20
795.2092801892197
 30
0.0
 11
528.5183353985776
 21
799.6082596747862
 31
0.0
  0
LINE
  5
6064
330
1F
100
AcDbEntity
  8
太線
100
AcDbLine
 10
519.8007271552923
 20
831.6995272631466
 30
0.0
 11
519.8007271552923
 21
809.7389790153087
 31
0.0
  0
LINE
  5
6065
330
1F
100
AcDbEntity
  8
細線
100
AcDbLine
 10
520.3007271552924
 20
833.6995272631465
 30
0.0
 11
519.8007271552923
 21
831.6995272631466
 31
0.0
  0
LINE
  5
6066
330
1F
100
AcDbEntity
  8
太線
100
AcDbLine
 10
528.3007271552924
 20
833.6995272631465
 30
0.0
 11
520.3007271552924
 21
833.6995272631465
 31
0.0
  0
LINE
  5
6067
330
1F
100
AcDbEntity
  8
太線
100
AcDbLine
 10
528.8007271552924
 20
831.6995272631466
 30
0.0
 11
528.3007271552924
 21
833.6995272631465
 31
0.0
  0
LINE
  5
6068
330
1F
100
AcDbEntity
  8
太線
100
AcDbLine
 10
528.8007271552928
 20
809.7389790153087
 30
0.0
 11
528.8007271552924
 21
831.6995272631467
 31
0.0
  0
LINE
  5
6069
330
1F
100
AcDbEntity
  8
太線
100
AcDbLine
 10
520.3007271552924
 20
833.6995272631465
 30
0.0
 11
520.3007271552924
 21
828.4722952722045
 31
0.0
  0
LINE
  5
606A
330
1F
100
AcDbEntity
  8
想像線
100
AcDbLine
 10
520.3007271552924
 20
833.6995272631465
 30
0.0
 11
520.3007271552924
 21
828.4722952722045
 31
0.0
  0
LINE
  5
606F
330
1F
100
AcDbEntity
  8
破線
100
AcDbLine
 10
317.9848212734796
 20
817.2389790153086
 30
0.0
 11
298.653843286389
 21
817.2389790153086
 31
0.0
  0
LINE
  5
6071
330
1F
100
AcDbEntity
  8
破線
100
AcDbLine
 10
323.9507479656022
 20
867.2389790153086
 30
0.0
 11
298.653843286389
 21
867.2389790153086
 31
0.0
  0
LINE
  5
6073
330
1F
100
AcDbEntity
  8
破線
100
AcDbLine
 10
298.653843286389
 20
865.6347793544775
 30
0.0
 11
325.9454965241318
 21
865.6347793544775
 31
0.0
  0
LINE
  5
6074
330
1F
100
AcDbEntity
  8
破線
100
AcDbLine
 10
333.9454965241318
 20
865.6347793544775
 30
0.0
 11
374.3932827843818
 21
865.6347793544775
 31
0.0
  0
LINE
  5
6075
330
1F
100
AcDbEntity
  8
破線
100
AcDbLine
 10
342.9848212734795
 20
817.2389790153086
 30
0.0
 11
374.3932827843818
 21
817.2389790153086
 31
0.0
  0
ARC
  5
6076
330
1F
100
AcDbEntity
  8
破線
100
AcDbCircle
 10
328.6171221938619
 20
829.2027130205067
 30
0.0
 40
32.26343153221832
100
AcDbArc
 50
159.0805330045533
 51
201.7658311696099
  0
ARC
  5
6077
330
1F
100
AcDbEntity
  8
破線
100
AcDbCircle
 10
287.116902174995
 20
853.1417714409096
 30
0.0
 40
17.00518323736129
100
AcDbArc
 50
311.3418335518356
 51
47.27839501028782
  0
ARC
  5
6078
330
1F
100
AcDbEntity
  8
破線
100
AcDbCircle
 10
319.1861990136017
 20
852.7556135189097
 30
0.0
 40
24.23737907301136
100
AcDbArc
 50
147.9015151908757
 51
210.7187133712467
  0
ARC
  5
6079
330
1F
100
AcDbEntity
  8
破線
100
AcDbCircle
 10
318.4979741409721
 20
851.6972993035748
 30
0.0
 40
21.08650945674944
100
AcDbArc
 50
148.1400720497831
 51
205.9293802481058
  0
ARC
  5
607A
330
1F
100
AcDbEntity
  8
破線
100
AcDbCircle
 10
364.0273373417164
 20
853.0046822815826
 30
0.0
 40
16.33928324594025
100
AcDbArc
 50
309.3768775352742
 51
50.62312246472567
  0
ARC
  5
607B
330
1F
100
AcDbEntity
  8
破線
100
AcDbCircle
 10
384.259389719907
 20
828.8067821119982
 30
0.0
 40
15.2037539623278
100
AcDbArc
 50
130.4606543981836
 51
229.5393456018163
  0
ARC
  5
607C
330
1F
100
AcDbEntity
  8
破線
100
AcDbCircle
 10
361.9192659145072
 20
828.8067821119984
 30
0.0
 40
17.0122063634821
100
AcDbArc
 50
317.1586408826422
 51
42.84135911735722
  0
ARC
  5
607D
330
1F
100
AcDbEntity
  8
破線
100
AcDbCircle
 10
361.3212560330445
 20
829.183201001361
 30
0.0
 40
15.25296799368536
100
AcDbArc
 50
319.7068012469318
 51
38.20768649586063
  0
DIMENSION
  5
607E
330
1F
100
AcDbEntity
  8
破線
100
AcDbDimension
  2
*D4
 10
549.861848514236
 20
922.6349409187678
 30
0.0
 11
541.9098370175342
 21
926.1349409187678
 31
0.0
 70
    32
  1
15
 71
     5
 42
15.90402299340348
  3
sunpo
100
AcDbAlignedDimension
 13
533.9578255208325
 23
907.7427318164554
 33
0.0
 14
549.861848514236
 24
875.9726111791678
 34
0.0
100
AcDbRotatedDimension
1001
ACAD
1000
DSTYLE
1002
{
1070
    40
1040
1.0
1002
}
  0
LINE
  5
6095
330
1F
100
AcDbEntity
  8
破線
100
AcDbLine
 10
518.1183516110177
 20
865.6347793544775
 30
0.0
 11
480.733456914565
 21
865.6347793544775
 31
0.0
  0
LINE
  5
6096
330
1F
100
AcDbEntity
  8
破線
100
AcDbLine
 10
512.1221990530612
 20
817.2389790153086
 30
0.0
 11
480.733456914565
 21
817.2389790153086
 31
0.0
  0
LINE
  5
6097
330
1F
100
AcDbEntity
  8
破線
100
AcDbLine
 10
528.3007271552924
 20
865.6347793544775
 30
0.0
 11
562.5217850466724
 21
865.6347793544773
 31
0.0
  0
LINE
  5
6098
330
1F
100
AcDbEntity
  8
破線
100
AcDbLine
 10
537.1221990530612
 20
817.2389790153086
 30
0.0
 11
562.5217850466724
 21
817.2389790153086
 31
0.0
  0
ARC
  5
6099
330
1F
100
AcDbEntity
  8
破線
100
AcDbCircle
 10
499.1771301267662
 20
828.6527607494925
 30
0.0
 40
21.68970942714666
100
AcDbArc
 50
149.4960451344054
 51
211.7511016726787
  0
ARC
  5
609A
330
1F
100
AcDbEntity
  8
破線
100
AcDbCircle
 10
458.7991709858763
 20
852.8535567938265
 30
0.0
 40
25.38646390000696
100
AcDbArc
 50
328.6936782097743
 51
30.22957781478023
  0
ARC
  5
609B
330
1F
100
AcDbEntity
  8
破線
100
AcDbCircle
 10
480.7334569145647
 20
865.6347793544773
 30
0.0
 40
0.000000000000364
100
AcDbArc
 50
38.65774614320865
 51
338.1985905136482
  0
ARC
  5
609C
330
1F
100
AcDbEntity
  8
破線
100
AcDbCircle
 10
500.506186066564
 20
852.5294318649899
 30
0.0
 40
23.72152927065439
100
AcDbArc
 50
146.463617723158
 51
210.7508407704295
  0
ARC
  5
609D
330
1F
100
AcDbEntity
  8
破線
100
AcDbCircle
 10
515.2486955351784
 20
852.1056671867921
 30
0.0
 40
34.90328502184022
100
AcDbArc
 50
163.2431606761428
 51
196.7568393238575
  0
LINE
  5
609F
330
1F
100
AcDbEntity
  8
破線
100
AcDbLine
 10
562.5217850466724
 20
865.6347793544775
 30
0.0
 11
562.5217850466724
 21
817.2389790153086
 31
0.0
  0
TEXT
  5
6144
330
1F
100
AcDbEntity
  8
文字
100
AcDbText
 10
488.7927999686216
 20
837.5982415153485
 30
0.0
 40
10.0
  1
単管
 51
15.0
  7
OKANO
100
AcDbText
  0
TEXT
  5
614C
330
1F
100
AcDbEntity
  8
文字
100
AcDbText
 10
187.4908171045826
 20
1055.973535968514
 30
0.0
 40
10.0
  1
中間押さえ20mm用
 51
15.0
  7
OKANO
100
AcDbText
  0
TEXT
  5
6154
330
1F
100
AcDbEntity
  8
文字
100
AcDbText
 10
399.3444736598176
 20
1057.35573694852
 30
0.0
 40
10.0
  1
端用押さえ20mm用
 51
15.0
  7
OKANO
100
AcDbText
  0
LINE
  5
6258
330
1F
100
AcDbEntity
  8
想像線
100
AcDbLine
 10
1270.71268534931
 20
815.694096937838
 30
0.0
 11
1184.71268534931
 21
815.694096937838
 31
0.0
  0
LINE
  5
6274
330
1F
100
AcDbEntity
  8
太線
100
AcDbLine
 10
1254.21268534931
 20
812.6940969378379
 30
0.0
 11
1259.21268534931
 21
812.6940969378379
 31
0.0
  0
LINE
  5
6279
330
1F
100
AcDbEntity
  8
太線
100
AcDbLine
 10
1196.21268534931
 20
812.6940969378379
 30
0.0
 11
1201.21268534931
 21
812.6940969378379
 31
0.0
  0
LINE
  5
627B
330
1F
100
AcDbEntity
  8
太線
100
AcDbLine
 10
1184.71268534931
 20
818.1940969378381
 30
0.0
 11
1270.71268534931
 21
818.1940969378381
 31
0.0
  0
XLINE
  5
631E
330
1F
100
AcDbEntity
  8
構築線
100
AcDbXline
 10
665.0000521970512
 20
714.7137583323929
 30
0.0
 11
-0.0000003473175631
 21
0.9999999999999397
 31
0.0
  0
XLINE
  5
6321
330
1F
100
AcDbEntity
  8
構築線
100
AcDbXline
 10
936.0792791620777
 20
702.2137583323929
 30
0.0
 11
0.0
 21
-1.0
 31
0.0
  0
XLINE
  5
6322
330
1F
100
AcDbEntity
  8
構築線
100
AcDbXline
 10
708.0000521970486
 20
714.713773267048
 30
0.0
 11
-0.0000003473175631
 21
0.9999999999999397
 31
0.0
  0
XLINE
  5
6323
330
1F
100
AcDbEntity
  8
構築線
100
AcDbXline
 10
893.0792791620776
 20
702.2137583323929
 30
0.0
 11
0.0
 21
-1.0
 31
0.0
  0
LINE
  5
6340
330
1F
100
AcDbEntity
  8
想像線
100
AcDbLine
 10
470.8385872748749
 20
810.131312494296
 30
0.0
 11
384.839174974451
 21
809.8133754223724
 31
0.0
  0
LINE
  5
6341
330
1F
100
AcDbEntity
  8
太線
100
AcDbLine
 10
470.8478296316169
 20
807.631329578586
 30
0.0
 11
469.8478364653328
 21
807.6276326358891
 31
0.0
  0
LINE
  5
6342
330
1F
100
AcDbEntity
  8
太線
100
AcDbLine
 10
470.8385872748749
 20
810.131312494296
 30
0.0
 11
470.8478296316169
 21
807.631329578586
 31
0.0
  0
LINE
  5
6343
330
1F
100
AcDbEntity
  8
太線
100
AcDbLine
 10
450.2690705633596
 20
828.897128188451
 30
0.0
 11
470.8385872748749
 21
810.131312494296
 31
0.0
  0
LINE
  5
6344
330
1F
100
AcDbEntity
  8
太線
100
AcDbLine
 10
384.839174974451
 20
809.8133754223724
 30
0.0
 11
404.7693814974377
 21
828.7289172957471
 31
0.0
  0
LINE
  5
6345
330
1F
100
AcDbEntity
  8
太線
100
AcDbLine
 10
384.848417331193
 20
807.3133925066624
 30
0.0
 11
384.839174974451
 21
809.8133754223724
 31
0.0
  0
LINE
  5
6346
330
1F
100
AcDbEntity
  8
太線
100
AcDbLine
 10
407.5629819958813
 20
828.7392451472852
 30
0.0
 11
404.7693814974377
 21
828.7289172957471
 31
0.0
  0
LINE
  5
6347
330
1F
100
AcDbEntity
  8
太線
100
AcDbLine
 10
450.2690705633596
 20
828.897128188451
 30
0.0
 11
447.9754666480581
 21
828.8886488082614
 31
0.0
  0
ARC
  5
6348
330
1F
100
AcDbEntity
  8
太線
100
AcDbCircle
 10
427.7264856009167
 20
840.3744261342023
 30
0.0
 40
23.2796974685795
100
AcDbArc
 50
209.9867354356142
 51
330.4369039566517
  0
LINE
  5
6349
330
1F
100
AcDbEntity
  8
太線
100
AcDbLine
 10
469.8478364653328
 20
807.6276326358891
 30
0.0
 11
385.848410497477
 21
807.3170894493591
 31
0.0
  0
XLINE
  5
634E
330
1F
100
AcDbEntity
  8
構築線
100
AcDbXline
 10
524.6221990530612
 20
823.2305354893615
 30
0.0
 11
0.0
 21
1.0
 31
0.0
  0
ARC
  5
6376
330
1F
100
AcDbEntity
  8
太線
100
AcDbCircle
 10
531.3398072963464
 20
800.6082596747861
 30
0.0
 40
1.0
100
AcDbArc
 50
270.0
 51
0.0
  0
ARC
  5
6377
330
1F
100
AcDbEntity
  8
太線
100
AcDbCircle
 10
518.3398072963464
 20
800.6082596747861
 30
0.0
 40
1.0
100
AcDbArc
 50
180.0
 51
270.0
  0
ARC
  5
6378
330
1F
100
AcDbEntity
  8
太線
100
AcDbCircle
 10
532.4816649371722
 20
806.6082596747861
 30
0.0
 40
1.0
100
AcDbArc
 50
270.0
 51
0.0
  0
ARC
  5
6379
330
1F
100
AcDbEntity
  8
太線
100
AcDbCircle
 10
517.1979496555207
 20
806.6082596747861
 30
0.0
 40
1.0
100
AcDbArc
 50
180.0
 51
270.0
  0
ARC
  5
637A
330
1F
100
AcDbEntity
  8
太線
100
AcDbCircle
 10
530.5898072963464
 20
801.6365732446782
 30
0.0
 40
2.029760773594802
100
AcDbArc
 50
210.4388252364164
 51
329.5611747635835
  0
ARC
  5
637B
330
1F
100
AcDbEntity
  8
太線
100
AcDbCircle
 10
519.0898072963464
 20
801.5465687864098
 30
0.0
 40
1.985679729703703
100
AcDbArc
 50
208.1991695866887
 51
331.8008304133112
  0
ARC
  5
637C
330
1F
100
AcDbEntity
  8
太線
100
AcDbCircle
 10
524.8398072963464
 20
808.1082596747858
 30
0.0
 40
8.499999999999836
100
AcDbArc
 50
241.9275130641455
 51
298.0724869358544
  0
LINE
  5
637D
330
1F
100
AcDbEntity
  8
太線
100
AcDbLine
 10
528.8398072963464
 20
800.6082596747861
 30
0.0
 11
528.8398072963464
 21
805.6082596747861
 31
0.0
  0
LINE
  5
637E
330
1F
100
AcDbEntity
  8
太線
100
AcDbLine
 10
520.8398072963464
 20
800.6082596747861
 30
0.0
 11
520.8398072963464
 21
805.6082596747861
 31
0.0
  0
LINE
  5
637F
330
1F
100
AcDbEntity
  8
太線
100
AcDbLine
 10
517.3398072963464
 20
805.6082596747861
 30
0.0
 11
532.3398072963463
 21
805.6082596747861
 31
0.0
  0
LINE
  5
6381
330
1F
100
AcDbEntity
  8
太線
100
AcDbLine
 10
532.3398072963463
 20
805.6082596747861
 30
0.0
 11
532.4816649371722
 21
805.6082596747861
 31
0.0
  0
LINE
  5
6382
330
1F
100
AcDbEntity
  8
太線
100
AcDbLine
 10
532.3398072963463
 20
800.6082596747861
 30
0.0
 11
532.3398072963463
 21
805.6082596747861
 31
0.0
  0
LINE
  5
6383
330
1F
100
AcDbEntity
  8
太線
100
AcDbLine
 10
518.3398072963464
 20
799.6082596747862
 30
0.0
 11
531.3398072963464
 21
799.6082596747862
 31
0.0
  0
LINE
  5
6384
330
1F
100
AcDbEntity
  8
太線
100
AcDbLine
 10
517.3398072963464
 20
805.6082596747861
 30
0.0
 11
517.3398072963465
 21
800.6082596747861
 31
0.0
  0
LINE
  5
6385
330
1F
100
AcDbEntity
  8
太線
100
AcDbLine
 10
517.1979496555206
 20
805.6082596747861
 30
0.0
 11
517.3398072963464
 21
805.6082596747861
 31
0.0
  0
XLINE
  5
6388
330
1F
100
AcDbEntity
  8
構築線
100
AcDbXline
 10
456.7981498592416
 20
813.5705982467042
 30
0.0
 11
0.0
 21
-1.0
 31
0.0
  0
XLINE
  5
6389
330
1F
100
AcDbEntity
  8
構築線
100
AcDbXline
 10
399.0405919463956
 20
812.0051848121219
 30
0.0
 11
0.0
 21
-1.0
 31
0.0
  0
ARC
  5
638A
330
1F
100
AcDbEntity
  8
太線
100
AcDbCircle
 10
464.0724429721306
 20
801.0793883626078
 30
0.0
 40
1.0
100
AcDbArc
 50
270.0
 51
0.0
  0
ARC
  5
638B
330
1F
100
AcDbEntity
  8
太線
100
AcDbCircle
 10
451.0724429721307
 20
801.0793883626078
 30
0.0
 40
1.0
100
AcDbArc
 50
180.0
 51
270.0
  0
ARC
  5
638C
330
1F
100
AcDbEntity
  8
太線
100
AcDbCircle
 10
465.2143006129564
 20
807.0793883626077
 30
0.0
 40
1.0
100
AcDbArc
 50
270.0
 51
0.0
  0
ARC
  5
638D
330
1F
100
AcDbEntity
  8
太線
100
AcDbCircle
 10
449.9305853313049
 20
807.0793883626077
 30
0.0
 40
1.0
100
AcDbArc
 50
180.0
 51
270.0
  0
ARC
  5
638E
330
1F
100
AcDbEntity
  8
太線
100
AcDbCircle
 10
463.3224429721305
 20
802.1077019324998
 30
0.0
 40
2.029760773594802
100
AcDbArc
 50
210.4388252364164
 51
329.5611747635835
  0
ARC
  5
638F
330
1F
100
AcDbEntity
  8
太線
100
AcDbCircle
 10
451.8224429721306
 20
802.0176974742316
 30
0.0
 40
1.985679729703703
100
AcDbArc
 50
208.1991695866887
 51
331.8008304133112
  0
ARC
  5
6390
330
1F
100
AcDbEntity
  8
太線
100
AcDbCircle
 10
457.5724429721305
 20
808.5793883626076
 30
0.0
 40
8.499999999999836
100
AcDbArc
 50
241.9275130641455
 51
298.0724869358544
  0
LINE
  5
6391
330
1F
100
AcDbEntity
  8
太線
100
AcDbLine
 10
461.5724429721305
 20
801.0793883626078
 30
0.0
 11
461.5724429721305
 21
806.0793883626077
 31
0.0
  0
LINE
  5
6392
330
1F
100
AcDbEntity
  8
太線
100
AcDbLine
 10
453.5724429721305
 20
801.0793883626078
 30
0.0
 11
453.5724429721305
 21
806.0793883626077
 31
0.0
  0
LINE
  5
6393
330
1F
100
AcDbEntity
  8
太線
100
AcDbLine
 10
450.0724429721306
 20
806.0793883626077
 30
0.0
 11
465.0724429721305
 21
806.0793883626077
 31
0.0
  0
LINE
  5
6394
330
1F
100
AcDbEntity
  8
太線
100
AcDbLine
 10
466.2143006129564
 20
807.0793883626077
 30
0.0
 11
466.2143006129564
 21
807.5793883626078
 31
0.0
  0
LINE
  5
6395
330
1F
100
AcDbEntity
  8
太線
100
AcDbLine
 10
465.0724429721305
 20
806.0793883626077
 30
0.0
 11
465.2143006129564
 21
806.0793883626077
 31
0.0
  0
LINE
  5
6396
330
1F
100
AcDbEntity
  8
太線
100
AcDbLine
 10
465.0724429721305
 20
801.0793883626078
 30
0.0
 11
465.0724429721305
 21
806.0793883626077
 31
0.0
  0
LINE
  5
6397
330
1F
100
AcDbEntity
  8
太線
100
AcDbLine
 10
451.0724429721307
 20
800.0793883626078
 30
0.0
 11
464.0724429721306
 21
800.0793883626078
 31
0.0
  0
LINE
  5
6398
330
1F
100
AcDbEntity
  8
太線
100
AcDbLine
 10
450.0724429721306
 20
806.0793883626077
 30
0.0
 11
450.0724429721307
 21
801.0793883626078
 31
0.0
  0
LINE
  5
6399
330
1F
100
AcDbEntity
  8
太線
100
AcDbLine
 10
449.9305853313047
 20
806.0793883626077
 30
0.0
 11
450.0724429721306
 21
806.0793883626077
 31
0.0
  0
LINE
  5
639A
330
1F
100
AcDbEntity
  8
太線
100
AcDbLine
 10
448.9305853313047
 20
807.5793883626078
 30
0.0
 11
448.9305853313047
 21
807.0793883626077
 31
0.0
  0
LINE
  5
639B
330
1F
100
AcDbEntity
  8
太線
100
AcDbLine
 10
448.9305853313047
 20
807.5793883626078
 30
0.0
 11
466.2143006129564
 21
807.5793883626078
 31
0.0
  0
LINE
  5
639D
330
1F
100
AcDbEntity
  8
太線
100
AcDbLine
 10
391.1730274184586
 20
807.0888337537375
 30
0.0
 11
391.1730274184586
 21
806.5888337537375
 31
0.0
  0
LINE
  5
639E
330
1F
100
AcDbEntity
  8
太線
100
AcDbLine
 10
392.1730274184586
 20
805.5888337537375
 30
0.0
 11
392.3148850592845
 21
805.5888337537375
 31
0.0
  0
LINE
  5
639F
330
1F
100
AcDbEntity
  8
太線
100
AcDbLine
 10
392.3148850592845
 20
805.5888337537375
 30
0.0
 11
392.3148850592846
 21
800.5888337537374
 31
0.0
  0
LINE
  5
63A0
330
1F
100
AcDbEntity
  8
太線
100
AcDbLine
 10
393.3148850592846
 20
799.5888337537374
 30
0.0
 11
406.3148850592845
 21
799.5888337537374
 31
0.0
  0
LINE
  5
63A1
330
1F
100
AcDbEntity
  8
太線
100
AcDbLine
 10
407.3148850592844
 20
800.5888337537374
 30
0.0
 11
407.3148850592844
 21
805.5888337537375
 31
0.0
  0
LINE
  5
63A2
330
1F
100
AcDbEntity
  8
太線
100
AcDbLine
 10
407.3148850592844
 20
805.5888337537375
 30
0.0
 11
407.4567427001103
 21
805.5888337537375
 31
0.0
  0
LINE
  5
63A3
330
1F
100
AcDbEntity
  8
太線
100
AcDbLine
 10
408.4567427001103
 20
806.5888337537375
 30
0.0
 11
408.4567427001103
 21
807.0888337537375
 31
0.0
  0
LINE
  5
63A4
330
1F
100
AcDbEntity
  8
太線
100
AcDbLine
 10
392.3148850592845
 20
805.5888337537375
 30
0.0
 11
407.3148850592844
 21
805.5888337537375
 31
0.0
  0
LINE
  5
63A5
330
1F
100
AcDbEntity
  8
太線
100
AcDbLine
 10
395.8148850592845
 20
800.5888337537374
 30
0.0
 11
395.8148850592845
 21
805.5888337537375
 31
0.0
  0
LINE
  5
63A6
330
1F
100
AcDbEntity
  8
太線
100
AcDbLine
 10
403.8148850592845
 20
800.5888337537374
 30
0.0
 11
403.8148850592845
 21
805.5888337537375
 31
0.0
  0
ARC
  5
63A7
330
1F
100
AcDbEntity
  8
太線
100
AcDbCircle
 10
399.8148850592844
 20
808.0888337537372
 30
0.0
 40
8.499999999999836
100
AcDbArc
 50
241.9275130641455
 51
298.0724869358544
  0
ARC
  5
63A8
330
1F
100
AcDbEntity
  8
太線
100
AcDbCircle
 10
394.0648850592845
 20
801.5271428653612
 30
0.0
 40
1.985679729703703
100
AcDbArc
 50
208.1991695866887
 51
331.8008304133112
  0
ARC
  5
63A9
330
1F
100
AcDbEntity
  8
太線
100
AcDbCircle
 10
405.5648850592844
 20
801.6171473236294
 30
0.0
 40
2.029760773594802
100
AcDbArc
 50
210.4388252364164
 51
329.5611747635835
  0
ARC
  5
63AA
330
1F
100
AcDbEntity
  8
太線
100
AcDbCircle
 10
392.1730274184588
 20
806.5888337537375
 30
0.0
 40
1.0
100
AcDbArc
 50
180.0
 51
270.0
  0
ARC
  5
63AB
330
1F
100
AcDbEntity
  8
太線
100
AcDbCircle
 10
407.4567427001103
 20
806.5888337537375
 30
0.0
 40
1.0
100
AcDbArc
 50
270.0
 51
0.0
  0
ARC
  5
63AC
330
1F
100
AcDbEntity
  8
太線
100
AcDbCircle
 10
393.3148850592846
 20
800.5888337537374
 30
0.0
 40
1.0
100
AcDbArc
 50
180.0
 51
270.0
  0
ARC
  5
63AD
330
1F
100
AcDbEntity
  8
太線
100
AcDbCircle
 10
406.3148850592845
 20
800.5888337537374
 30
0.0
 40
1.0
100
AcDbArc
 50
270.0
 51
0.0
  0
LINE
  5
63B1
330
1F
100
AcDbEntity
  8
細線
100
AcDbLine
 10
394.5549880535347
 20
793.7484244064384
 30
0.0
 11
403.5549880535347
 21
793.7484244064384
 31
0.0
  0
LINE
  5
63B2
330
1F
100
AcDbEntity
  8
細線
100
AcDbLine
 10
403.5549880535347
 20
793.7484244064385
 30
0.0
 11
403.5549880535347
 21
799.5888337537376
 31
0.0
  0
LINE
  5
63B3
330
1F
100
AcDbEntity
  8
細線
100
AcDbLine
 10
394.5549880535347
 20
793.7484244064385
 30
0.0
 11
394.5549880535347
 21
799.5888337537376
 31
0.0
  0
LINE
  5
63B4
330
1F
100
AcDbEntity
  8
太線
100
AcDbLine
 10
403.0549880535347
 20
793.7484244064384
 30
0.0
 11
403.0549880535347
 21
799.5888337537374
 31
0.0
  0
LINE
  5
63B5
330
1F
100
AcDbEntity
  8
太線
100
AcDbLine
 10
395.0549880535347
 20
793.7484244064384
 30
0.0
 11
395.0549880535348
 21
799.5888337537374
 31
0.0
  0
LINE
  5
63B6
330
1F
100
AcDbEntity
  8
太線
100
AcDbLine
 10
403.5549880535347
 20
831.598506748713
 30
0.0
 11
403.5549880535347
 21
827.576349708833
 31
0.0
  0
LINE
  5
63B7
330
1F
100
AcDbEntity
  8
細線
100
AcDbLine
 10
403.0549880535347
 20
833.5985067487127
 30
0.0
 11
403.5549880535347
 21
831.5985067487128
 31
0.0
  0
LINE
  5
63B8
330
1F
100
AcDbEntity
  8
太線
100
AcDbLine
 10
395.0549880535347
 20
833.5985067487127
 30
0.0
 11
403.0549880535347
 21
833.5985067487127
 31
0.0
  0
LINE
  5
63B9
330
1F
100
AcDbEntity
  8
細線
100
AcDbLine
 10
394.5549880535347
 20
831.5985067487128
 30
0.0
 11
395.0549880535347
 21
833.5985067487127
 31
0.0
  0
LINE
  5
63BA
330
1F
100
AcDbEntity
  8
太線
100
AcDbLine
 10
394.5549880535347
 20
819.0345477629261
 30
0.0
 11
394.5549880535347
 21
831.5985067487128
 31
0.0
  0
LINE
  5
63BB
330
1F
100
AcDbEntity
  8
太線
100
AcDbLine
 10
403.0549880535347
 20
827.1018051562828
 30
0.0
 11
403.0549880535347
 21
866.7389790153087
 31
0.0
  0
LINE
  5
63BC
330
1F
100
AcDbEntity
  8
太線
100
AcDbLine
 10
395.0549880535347
 20
866.7389790153087
 30
0.0
 11
395.0549880535347
 21
820.9824589612603
 31
0.0
  0
LINE
  5
63BD
330
1F
100
AcDbEntity
  8
太線
100
AcDbLine
 10
403.0549880535347
 20
792.7484244064384
 30
0.0
 11
395.0549880535347
 21
792.7484244064384
 31
0.0
  0
LINE
  5
63BE
330
1F
100
AcDbEntity
  8
細線
100
AcDbLine
 10
394.5549880535347
 20
793.7484244064384
 30
0.0
 11
395.0549880535347
 21
792.7484244064384
 31
0.0
  0
LINE
  5
63BF
330
1F
100
AcDbEntity
  8
細線
100
AcDbLine
 10
403.0549880535347
 20
792.7484244064384
 30
0.0
 11
403.5549880535347
 21
793.7484244064384
 31
0.0
  0
LINE
  5
63C5
330
1F
100
AcDbEntity
  8
想像線
100
AcDbLine
 10
395.0549880535347
 20
820.9824589612603
 30
0.0
 11
395.0549880535347
 21
819.5090923154765
 31
0.0
  0
XLINE
  5
63C6
330
1F
100
AcDbEntity
  8
構築線
100
AcDbXline
 10
330.4848212734796
 20
846.3851976180448
 30
0.0
 11
0.0
 21
-1.0
 31
0.0
  0
LINE
  5
63C8
330
1F
100
AcDbEntity
  8
太線
100
AcDbLine
 10
321.9291996144376
 20
807.2692927986633
 30
0.0
 11
321.9291996144376
 21
806.7692927986632
 31
0.0
  0
LINE
  5
63C9
330
1F
100
AcDbEntity
  8
太線
100
AcDbLine
 10
322.9291996144376
 20
805.7692927986632
 30
0.0
 11
323.0710572552634
 21
805.7692927986632
 31
0.0
  0
LINE
  5
63CA
330
1F
100
AcDbEntity
  8
太線
100
AcDbLine
 10
323.0710572552634
 20
805.7692927986632
 30
0.0
 11
323.0710572552635
 21
800.7692927986633
 31
0.0
  0
LINE
  5
63CB
330
1F
100
AcDbEntity
  8
太線
100
AcDbLine
 10
324.0710572552635
 20
799.7692927986633
 30
0.0
 11
337.0710572552634
 21
799.7692927986633
 31
0.0
  0
LINE
  5
63CC
330
1F
100
AcDbEntity
  8
太線
100
AcDbLine
 10
338.0710572552634
 20
800.7692927986633
 30
0.0
 11
338.0710572552634
 21
805.7692927986632
 31
0.0
  0
LINE
  5
63CD
330
1F
100
AcDbEntity
  8
太線
100
AcDbLine
 10
338.0710572552634
 20
805.7692927986632
 30
0.0
 11
338.2129148960892
 21
805.7692927986632
 31
0.0
  0
LINE
  5
63CE
330
1F
100
AcDbEntity
  8
太線
100
AcDbLine
 10
339.2129148960892
 20
806.7692927986632
 30
0.0
 11
339.2129148960892
 21
807.2692927986633
 31
0.0
  0
LINE
  5
63CF
330
1F
100
AcDbEntity
  8
太線
100
AcDbLine
 10
323.0710572552634
 20
805.7692927986632
 30
0.0
 11
338.0710572552634
 21
805.7692927986632
 31
0.0
  0
LINE
  5
63D0
330
1F
100
AcDbEntity
  8
太線
100
AcDbLine
 10
326.5710572552634
 20
800.7692927986633
 30
0.0
 11
326.5710572552634
 21
805.7692927986632
 31
0.0
  0
LINE
  5
63D1
330
1F
100
AcDbEntity
  8
太線
100
AcDbLine
 10
334.5710572552634
 20
800.7692927986633
 30
0.0
 11
334.5710572552634
 21
805.7692927986632
 31
0.0
  0
ARC
  5
63D2
330
1F
100
AcDbEntity
  8
太線
100
AcDbCircle
 10
330.5710572552634
 20
808.2692927986631
 30
0.0
 40
8.499999999999836
100
AcDbArc
 50
241.9275130641455
 51
298.0724869358544
  0
ARC
  5
63D3
330
1F
100
AcDbEntity
  8
太線
100
AcDbCircle
 10
324.8210572552634
 20
801.7076019102869
 30
0.0
 40
1.985679729703703
100
AcDbArc
 50
208.1991695866887
 51
331.8008304133112
  0
ARC
  5
63D4
330
1F
100
AcDbEntity
  8
太線
100
AcDbCircle
 10
336.3210572552634
 20
801.7976063685553
 30
0.0
 40
2.029760773594802
100
AcDbArc
 50
210.4388252364164
 51
329.5611747635835
  0
ARC
  5
63D5
330
1F
100
AcDbEntity
  8
太線
100
AcDbCircle
 10
322.9291996144377
 20
806.7692927986632
 30
0.0
 40
1.0
100
AcDbArc
 50
180.0
 51
270.0
  0
ARC
  5
63D6
330
1F
100
AcDbEntity
  8
太線
100
AcDbCircle
 10
338.2129148960892
 20
806.7692927986632
 30
0.0
 40
1.0
100
AcDbArc
 50
270.0
 51
0.0
  0
ARC
  5
63D7
330
1F
100
AcDbEntity
  8
太線
100
AcDbCircle
 10
324.0710572552635
 20
800.7692927986633
 30
0.0
 40
1.0
100
AcDbArc
 50
180.0
 51
270.0
  0
ARC
  5
63D8
330
1F
100
AcDbEntity
  8
太線
100
AcDbCircle
 10
337.0710572552634
 20
800.7692927986633
 30
0.0
 40
1.0
100
AcDbArc
 50
270.0
 51
0.0
  0
LINE
  5
63DE
330
1F
100
AcDbEntity
  8
構築線
100
AcDbLine
 10
334.663349375711
 20
817.2389790153086
 30
0.0
 11
334.6633493757108
 21
807.2389790153085
 31
0.0
  0
LINE
  5
63E0
330
1F
100
AcDbEntity
  8
太線
100
AcDbLine
 10
321.4847853329432
 20
807.2389790153088
 30
0.0
 11
339.4847853329432
 21
807.2389790153088
 31
0.0
  0
ARC
  5
63E9
330
1F
100
AcDbEntity
  8
太線
100
AcDbCircle
 10
321.4847853329432
 20
808.2389790153088
 30
0.0
 40
1.0
100
AcDbArc
 50
180.0
 51
270.0
  0
ARC
  5
63EA
330
1F
100
AcDbEntity
  8
太線
100
AcDbCircle
 10
339.4847853329432
 20
808.2389790153088
 30
0.0
 40
1.0
100
AcDbArc
 50
270.0
 51
0.0
  0
LINE
  5
63EF
330
1F
100
AcDbEntity
  8
太線
100
AcDbLine
 10
322.8374993022382
 20
800.8703133130968
 30
0.0
 11
322.979356943064
 21
800.8703133130968
 31
0.0
  0
LINE
  5
63F4
330
1F
100
AcDbEntity
  8
太線
100
AcDbLine
 10
334.663349375711
 20
817.2389790153086
 30
0.0
 11
334.6633493757108
 21
831.6995272631467
 31
0.0
  0
LINE
  5
63F5
330
1F
100
AcDbEntity
  8
太線
100
AcDbLine
 10
334.6633493757108
 20
831.6995272631466
 30
0.0
 11
334.1633493757108
 21
833.6995272631465
 31
0.0
  0
LINE
  5
63F6
330
1F
100
AcDbEntity
  8
太線
100
AcDbLine
 10
334.1633493757108
 20
833.6995272631465
 30
0.0
 11
326.1633493757108
 21
833.6995272631465
 31
0.0
  0
LINE
  5
63F7
330
1F
100
AcDbEntity
  8
細線
100
AcDbLine
 10
326.1633493757108
 20
833.6995272631465
 30
0.0
 11
325.6633493757108
 21
831.6995272631466
 31
0.0
  0
LINE
  5
63F8
330
1F
100
AcDbEntity
  8
太線
100
AcDbLine
 10
325.6633493757108
 20
831.6995272631466
 30
0.0
 11
325.6633493757108
 21
817.2389790153086
 31
0.0
  0
LINE
  5
63F9
330
1F
100
AcDbEntity
  8
太線
100
AcDbLine
 10
334.2495853574946
 20
795.3703133130968
 30
0.0
 11
334.2495853574946
 21
799.7692927986633
 31
0.0
  0
LINE
  5
63FA
330
1F
100
AcDbEntity
  8
太線
100
AcDbLine
 10
325.7495853574946
 20
795.3703133130968
 30
0.0
 11
325.7495853574947
 21
799.7692927986633
 31
0.0
  0
LINE
  5
63FB
330
1F
100
AcDbEntity
  8
太線
100
AcDbLine
 10
334.7495853574946
 20
795.370313313097
 30
0.0
 11
334.7495853574946
 21
799.7692927986633
 31
0.0
  0
LINE
  5
63FC
330
1F
100
AcDbEntity
  8
太線
100
AcDbLine
 10
325.7495853574946
 20
795.3703133130967
 30
0.0
 11
334.7495853574946
 21
795.3703133130967
 31
0.0
  0
LINE
  5
63FD
330
1F
100
AcDbEntity
  8
太線
100
AcDbLine
 10
334.2495853574946
 20
794.3703133130967
 30
0.0
 11
326.2495853574946
 21
794.3703133130967
 31
0.0
  0
LINE
  5
63FE
330
1F
100
AcDbEntity
  8
細線
100
AcDbLine
 10
325.7495853574946
 20
795.3703133130967
 30
0.0
 11
326.2495853574946
 21
794.3703133130967
 31
0.0
  0
LINE
  5
63FF
330
1F
100
AcDbEntity
  8
細線
100
AcDbLine
 10
334.2495853574946
 20
794.3703133130967
 30
0.0
 11
334.7495853574946
 21
795.3703133130967
 31
0.0
  0
LINE
  5
6401
330
1F
100
AcDbEntity
  8
太線
100
AcDbLine
 10
326.2495853574946
 20
799.7692927986633
 30
0.0
 11
326.2495853574946
 21
795.3703133130968
 31
0.0
  0
LINE
  5
6402
330
1F
100
AcDbEntity
  8
想像線
100
AcDbLine
 10
326.2495853574946
 20
799.7692927986633
 30
0.0
 11
326.2495853574946
 21
795.3703133130968
 31
0.0
  0
XLINE
  5
64D7
330
1F
100
AcDbEntity
  8
構築線
100
AcDbXline
 10
220.4454965241318
 20
715.3985795282117
 30
0.0
 11
1.0
 21
0.0
 31
0.0
  0
XLINE
  5
6541
330
1F
100
AcDbEntity
  8
構築線
100
AcDbXline
 10
218.9454965241318
 20
918.3399995297424
 30
0.0
 11
1.0
 21
0.0
 31
0.0
  0
XLINE
  5
6543
330
1F
100
AcDbEntity
  8
構築線
100
AcDbXline
 10
246.9454965241318
 20
848.195908254542
 30
0.0
 11
1.0
 21
0.0
 31
0.0
  0
LINE
  5
6544
330
1F
100
AcDbEntity
  8
想像線
100
AcDbLine
 10
214.1879386112857
 20
820.9824589612603
 30
0.0
 11
214.1879386112857
 21
819.5090923154765
 31
0.0
  0
LINE
  5
654A
330
1F
100
AcDbEntity
  8
細線
100
AcDbLine
 10
222.2818807871378
 20
792.8634214405159
 30
0.0
 11
222.7818807871378
 21
793.8634214405159
 31
0.0
  0
LINE
  5
654B
330
1F
100
AcDbEntity
  8
細線
100
AcDbLine
 10
213.7818807871378
 20
793.8634214405159
 30
0.0
 11
214.2818807871378
 21
792.8634214405159
 31
0.0
  0
LINE
  5
654C
330
1F
100
AcDbEntity
  8
太線
100
AcDbLine
 10
222.2818807871378
 20
792.8634214405159
 30
0.0
 11
214.2818807871378
 21
792.8634214405159
 31
0.0
  0
LINE
  5
654D
330
1F
100
AcDbEntity
  8
太線
100
AcDbLine
 10
213.6879386112857
 20
819.0345477629261
 30
0.0
 11
213.6879386112857
 21
831.5985067487128
 31
0.0
  0
LINE
  5
654E
330
1F
100
AcDbEntity
  8
細線
100
AcDbLine
 10
213.6879386112857
 20
831.5985067487128
 30
0.0
 11
214.1879386112857
 21
833.5985067487127
 31
0.0
  0
LINE
  5
654F
330
1F
100
AcDbEntity
  8
太線
100
AcDbLine
 10
214.1879386112857
 20
833.5985067487127
 30
0.0
 11
222.1879386112857
 21
833.5985067487127
 31
0.0
  0
LINE
  5
6550
330
1F
100
AcDbEntity
  8
細線
100
AcDbLine
 10
222.1879386112857
 20
833.5985067487127
 30
0.0
 11
222.6879386112857
 21
831.5985067487128
 31
0.0
  0
LINE
  5
6551
330
1F
100
AcDbEntity
  8
太線
100
AcDbLine
 10
222.6879386112857
 20
831.598506748713
 30
0.0
 11
222.6879386112857
 21
827.576349708833
 31
0.0
  0
LINE
  5
6552
330
1F
100
AcDbEntity
  8
太線
100
AcDbLine
 10
214.2818807871378
 20
793.8634214405159
 30
0.0
 11
214.2818807871379
 21
799.703830787815
 31
0.0
  0
LINE
  5
6553
330
1F
100
AcDbEntity
  8
太線
100
AcDbLine
 10
222.2818807871378
 20
793.8634214405159
 30
0.0
 11
222.2818807871378
 21
799.703830787815
 31
0.0
  0
LINE
  5
6554
330
1F
100
AcDbEntity
  8
細線
100
AcDbLine
 10
213.7818807871378
 20
793.863421440516
 30
0.0
 11
213.7818807871378
 21
799.7038307878151
 31
0.0
  0
LINE
  5
6555
330
1F
100
AcDbEntity
  8
細線
100
AcDbLine
 10
222.7818807871378
 20
793.863421440516
 30
0.0
 11
222.7818807871378
 21
799.7038307878151
 31
0.0
  0
LINE
  5
6556
330
1F
100
AcDbEntity
  8
細線
100
AcDbLine
 10
213.7818807871378
 20
793.8634214405159
 30
0.0
 11
222.7818807871378
 21
793.8634214405159
 31
0.0
  0
ARC
  5
6559
330
1F
100
AcDbEntity
  8
太線
100
AcDbCircle
 10
224.7382326363585
 20
800.7038307878151
 30
0.0
 40
1.0
100
AcDbArc
 50
270.0
 51
0.0
  0
ARC
  5
655A
330
1F
100
AcDbEntity
  8
太線
100
AcDbCircle
 10
211.7382326363586
 20
800.7038307878151
 30
0.0
 40
1.0
100
AcDbArc
 50
180.0
 51
270.0
  0
ARC
  5
655B
330
1F
100
AcDbEntity
  8
太線
100
AcDbCircle
 10
225.8800902771844
 20
806.7038307878149
 30
0.0
 40
1.0
100
AcDbArc
 50
270.0
 51
0.0
  0
ARC
  5
655C
330
1F
100
AcDbEntity
  8
太線
100
AcDbCircle
 10
210.5963749955328
 20
806.7038307878149
 30
0.0
 40
1.0
100
AcDbArc
 50
180.0
 51
270.0
  0
ARC
  5
655D
330
1F
100
AcDbEntity
  8
太線
100
AcDbCircle
 10
223.9882326363586
 20
801.732144357707
 30
0.0
 40
2.029760773594802
100
AcDbArc
 50
210.4388252364164
 51
329.5611747635835
  0
ARC
  5
655E
330
1F
100
AcDbEntity
  8
太線
100
AcDbCircle
 10
212.4882326363585
 20
801.6421398994388
 30
0.0
 40
1.985679729703703
100
AcDbArc
 50
208.1991695866887
 51
331.8008304133112
  0
ARC
  5
655F
330
1F
100
AcDbEntity
  8
太線
100
AcDbCircle
 10
218.2382326363585
 20
808.2038307878148
 30
0.0
 40
8.499999999999836
100
AcDbArc
 50
241.9275130641455
 51
298.0724869358544
  0
LINE
  5
6560
330
1F
100
AcDbEntity
  8
太線
100
AcDbLine
 10
222.2382326363586
 20
800.7038307878151
 30
0.0
 11
222.2382326363586
 21
805.703830787815
 31
0.0
  0
LINE
  5
6561
330
1F
100
AcDbEntity
  8
太線
100
AcDbLine
 10
214.2382326363585
 20
800.7038307878151
 30
0.0
 11
214.2382326363585
 21
805.703830787815
 31
0.0
  0
LINE
  5
6562
330
1F
100
AcDbEntity
  8
太線
100
AcDbLine
 10
210.7382326363585
 20
805.703830787815
 30
0.0
 11
225.7382326363586
 21
805.703830787815
 31
0.0
  0
LINE
  5
6563
330
1F
100
AcDbEntity
  8
太線
100
AcDbLine
 10
226.8800902771844
 20
806.7038307878149
 30
0.0
 11
226.8800902771844
 21
807.203830787815
 31
0.0
  0
LINE
  5
6564
330
1F
100
AcDbEntity
  8
太線
100
AcDbLine
 10
225.7382326363586
 20
805.703830787815
 30
0.0
 11
225.8800902771844
 21
805.703830787815
 31
0.0
  0
LINE
  5
6565
330
1F
100
AcDbEntity
  8
太線
100
AcDbLine
 10
225.7382326363586
 20
800.7038307878151
 30
0.0
 11
225.7382326363586
 21
805.703830787815
 31
0.0
  0
LINE
  5
6566
330
1F
100
AcDbEntity
  8
太線
100
AcDbLine
 10
211.7382326363586
 20
799.703830787815
 30
0.0
 11
224.7382326363585
 21
799.703830787815
 31
0.0
  0
LINE
  5
6567
330
1F
100
AcDbEntity
  8
太線
100
AcDbLine
 10
210.7382326363585
 20
805.703830787815
 30
0.0
 11
210.7382326363587
 21
800.7038307878151
 31
0.0
  0
LINE
  5
6568
330
1F
100
AcDbEntity
  8
太線
100
AcDbLine
 10
210.5963749955327
 20
805.703830787815
 30
0.0
 11
210.7382326363585
 21
805.703830787815
 31
0.0
  0
LINE
  5
6569
330
1F
100
AcDbEntity
  8
太線
100
AcDbLine
 10
209.5963749955327
 20
807.203830787815
 30
0.0
 11
209.5963749955327
 21
806.7038307878149
 31
0.0
  0
LINE
  5
656B
330
1F
100
AcDbEntity
  8
太線
100
AcDbLine
 10
268.0635358890557
 20
807.5793883626078
 30
0.0
 11
285.3472511707074
 21
807.5793883626078
 31
0.0
  0
LINE
  5
656C
330
1F
100
AcDbEntity
  8
太線
100
AcDbLine
 10
268.0635358890557
 20
807.5793883626078
 30
0.0
 11
268.0635358890557
 21
807.0793883626077
 31
0.0
  0
LINE
  5
656D
330
1F
100
AcDbEntity
  8
太線
100
AcDbLine
 10
269.0635358890557
 20
806.0793883626077
 30
0.0
 11
269.2053935298815
 21
806.0793883626077
 31
0.0
  0
LINE
  5
656E
330
1F
100
AcDbEntity
  8
太線
100
AcDbLine
 10
269.2053935298815
 20
806.0793883626077
 30
0.0
 11
269.2053935298817
 21
801.0793883626078
 31
0.0
  0
LINE
  5
656F
330
1F
100
AcDbEntity
  8
太線
100
AcDbLine
 10
270.2053935298816
 20
800.0793883626078
 30
0.0
 11
283.2053935298815
 21
800.0793883626078
 31
0.0
  0
LINE
  5
6570
330
1F
100
AcDbEntity
  8
太線
100
AcDbLine
 10
284.2053935298815
 20
801.0793883626078
 30
0.0
 11
284.2053935298815
 21
806.0793883626077
 31
0.0
  0
LINE
  5
6571
330
1F
100
AcDbEntity
  8
太線
100
AcDbLine
 10
284.2053935298815
 20
806.0793883626077
 30
0.0
 11
284.3472511707074
 21
806.0793883626077
 31
0.0
  0
LINE
  5
6572
330
1F
100
AcDbEntity
  8
太線
100
AcDbLine
 10
285.3472511707074
 20
807.0793883626077
 30
0.0
 11
285.3472511707074
 21
807.5793883626078
 31
0.0
  0
LINE
  5
6573
330
1F
100
AcDbEntity
  8
太線
100
AcDbLine
 10
269.2053935298815
 20
806.0793883626077
 30
0.0
 11
284.2053935298815
 21
806.0793883626077
 31
0.0
  0
LINE
  5
6574
330
1F
100
AcDbEntity
  8
太線
100
AcDbLine
 10
272.7053935298815
 20
801.0793883626078
 30
0.0
 11
272.7053935298815
 21
806.0793883626077
 31
0.0
  0
LINE
  5
6575
330
1F
100
AcDbEntity
  8
太線
100
AcDbLine
 10
280.7053935298815
 20
801.0793883626078
 30
0.0
 11
280.7053935298815
 21
806.0793883626077
 31
0.0
  0
ARC
  5
6576
330
1F
100
AcDbEntity
  8
太線
100
AcDbCircle
 10
276.7053935298815
 20
808.5793883626076
 30
0.0
 40
8.499999999999836
100
AcDbArc
 50
241.9275130641455
 51
298.0724869358544
  0
ARC
  5
6577
330
1F
100
AcDbEntity
  8
太線
100
AcDbCircle
 10
270.9553935298815
 20
802.0176974742316
 30
0.0
 40
1.985679729703703
100
AcDbArc
 50
208.1991695866887
 51
331.8008304133112
  0
ARC
  5
6578
330
1F
100
AcDbEntity
  8
太線
100
AcDbCircle
 10
282.4553935298815
 20
802.1077019324998
 30
0.0
 40
2.029760773594802
100
AcDbArc
 50
210.4388252364164
 51
329.5611747635835
  0
ARC
  5
6579
330
1F
100
AcDbEntity
  8
太線
100
AcDbCircle
 10
269.0635358890558
 20
807.0793883626077
 30
0.0
 40
1.0
100
AcDbArc
 50
180.0
 51
270.0
  0
ARC
  5
657A
330
1F
100
AcDbEntity
  8
太線
100
AcDbCircle
 10
284.3472511707074
 20
807.0793883626077
 30
0.0
 40
1.0
100
AcDbArc
 50
270.0
 51
0.0
  0
ARC
  5
657B
330
1F
100
AcDbEntity
  8
太線
100
AcDbCircle
 10
270.2053935298816
 20
801.0793883626078
 30
0.0
 40
1.0
100
AcDbArc
 50
180.0
 51
270.0
  0
ARC
  5
657C
330
1F
100
AcDbEntity
  8
太線
100
AcDbCircle
 10
283.2053935298815
 20
801.0793883626078
 30
0.0
 40
1.0
100
AcDbArc
 50
270.0
 51
0.0
  0
LINE
  5
6581
330
1F
100
AcDbEntity
  8
太線
100
AcDbLine
 10
288.9807870230838
 20
807.6276326358891
 30
0.0
 11
204.9813610552279
 21
807.3170894493591
 31
0.0
  0
ARC
  5
6582
330
1F
100
AcDbEntity
  8
太線
100
AcDbCircle
 10
246.8594361586676
 20
840.3744261342023
 30
0.0
 40
23.2796974685795
100
AcDbArc
 50
209.9867354356142
 51
330.4369039566517
  0
LINE
  5
6583
330
1F
100
AcDbEntity
  8
太線
100
AcDbLine
 10
269.4020211211106
 20
828.897128188451
 30
0.0
 11
267.1084172058091
 21
828.8886488082614
 31
0.0
  0
LINE
  5
6584
330
1F
100
AcDbEntity
  8
太線
100
AcDbLine
 10
226.6959325536322
 20
828.7392451472852
 30
0.0
 11
223.9023320551887
 21
828.7289172957471
 31
0.0
  0
LINE
  5
6585
330
1F
100
AcDbEntity
  8
太線
100
AcDbLine
 10
203.9813678889439
 20
807.3133925066624
 30
0.0
 11
203.972125532202
 21
809.8133754223724
 31
0.0
  0
LINE
  5
6586
330
1F
100
AcDbEntity
  8
太線
100
AcDbLine
 10
203.972125532202
 20
809.8133754223724
 30
0.0
 11
223.9023320551887
 21
828.7289172957471
 31
0.0
  0
LINE
  5
6587
330
1F
100
AcDbEntity
  8
太線
100
AcDbLine
 10
269.4020211211106
 20
828.897128188451
 30
0.0
 11
289.9715378326259
 21
810.131312494296
 31
0.0
  0
LINE
  5
6588
330
1F
100
AcDbEntity
  8
太線
100
AcDbLine
 10
289.9715378326259
 20
810.131312494296
 30
0.0
 11
289.9807801893678
 21
807.631329578586
 31
0.0
  0
LINE
  5
6589
330
1F
100
AcDbEntity
  8
太線
100
AcDbLine
 10
289.9807801893678
 20
807.631329578586
 30
0.0
 11
288.9807870230838
 21
807.6276326358891
 31
0.0
  0
LINE
  5
658A
330
1F
100
AcDbEntity
  8
想像線
100
AcDbLine
 10
289.9715378326259
 20
810.131312494296
 30
0.0
 11
203.972125532202
 21
809.8133754223724
 31
0.0
  0
ARC
  5
658B
330
1F
100
AcDbEntity
  8
太線
100
AcDbCircle
 10
246.9454965241318
 20
840.3745852086878
 30
0.0
 40
23.2796974685795
100
AcDbArc
 50
210.7486871587841
 51
329.2513128412158
  0
LINE
  5
658C
330
1F
100
AcDbEntity
  8
細線
100
AcDbLine
 10
271.4454965241318
 20
794.2389790153087
 30
0.0
 11
280.4454965241318
 21
794.2389790153087
 31
0.0
  0
LINE
  5
658D
330
1F
100
AcDbEntity
  8
細線
100
AcDbLine
 10
280.4454965241318
 20
794.2389790153088
 30
0.0
 11
280.4454965241318
 21
800.0793883626078
 31
0.0
  0
LINE
  5
658E
330
1F
100
AcDbEntity
  8
細線
100
AcDbLine
 10
271.4454965241318
 20
794.2389790153088
 30
0.0
 11
271.4454965241318
 21
800.0793883626078
 31
0.0
  0
LINE
  5
658F
330
1F
100
AcDbEntity
  8
太線
100
AcDbLine
 10
279.9454965241318
 20
794.2389790153087
 30
0.0
 11
279.9454965241318
 21
800.0793883626078
 31
0.0
  0
LINE
  5
6590
330
1F
100
AcDbEntity
  8
太線
100
AcDbLine
 10
271.9454965241318
 20
794.2389790153087
 30
0.0
 11
271.9454965241318
 21
800.0793883626078
 31
0.0
  0
LINE
  5
6591
330
1F
100
AcDbEntity
  8
太線
100
AcDbLine
 10
280.4454965241318
 20
831.598506748713
 30
0.0
 11
280.4454965241318
 21
818.8220337201395
 31
0.0
  0
LINE
  5
6592
330
1F
100
AcDbEntity
  8
細線
100
AcDbLine
 10
279.9454965241318
 20
833.5985067487127
 30
0.0
 11
280.4454965241318
 21
831.5985067487128
 31
0.0
  0
LINE
  5
6593
330
1F
100
AcDbEntity
  8
太線
100
AcDbLine
 10
271.9454965241318
 20
833.5985067487127
 30
0.0
 11
279.9454965241318
 21
833.5985067487127
 31
0.0
  0
LINE
  5
6594
330
1F
100
AcDbEntity
  8
細線
100
AcDbLine
 10
271.4454965241318
 20
831.5985067487128
 30
0.0
 11
271.9454965241318
 21
833.5985067487127
 31
0.0
  0
LINE
  5
6595
330
1F
100
AcDbEntity
  8
太線
100
AcDbLine
 10
271.4454965241318
 20
827.0328411793563
 30
0.0
 11
271.4454965241318
 21
831.5985067487128
 31
0.0
  0
LINE
  5
6596
330
1F
100
AcDbEntity
  8
太線
100
AcDbLine
 10
279.9454965241318
 20
793.2389790153087
 30
0.0
 11
271.9454965241318
 21
793.2389790153087
 31
0.0
  0
LINE
  5
6597
330
1F
100
AcDbEntity
  8
細線
100
AcDbLine
 10
271.4454965241318
 20
794.2389790153087
 30
0.0
 11
271.9454965241318
 21
793.2389790153087
 31
0.0
  0
LINE
  5
6598
330
1F
100
AcDbEntity
  8
細線
100
AcDbLine
 10
279.9454965241318
 20
793.2389790153087
 30
0.0
 11
280.4454965241318
 21
794.2389790153087
 31
0.0
  0
LINE
  5
659E
330
1F
100
AcDbEntity
  8
想像線
100
AcDbLine
 10
279.9454965241318
 20
820.9824589612603
 30
0.0
 11
279.9454965241318
 21
819.2781896900958
 31
0.0
  0
TEXT
  5
65CB
330
1F
100
AcDbEntity
  8
文字
100
AcDbText
 10
237.45197632903
 20
837.5982415153485
 30
0.0
 40
10.0
  1
単管
 51
15.0
  7
OKANO
100
AcDbText
  0
XLINE
  5
6612
330
1F
100
AcDbEntity
  8
構築線
100
AcDbXline
 10
218.9454965241318
 20
793.3399995297423
 30
0.0
 11
1.0
 21
0.0
 31
0.0
  0
LINE
  5
6625
330
1F
100
AcDbEntity
  8
太線
100
AcDbLine
 10
333.9454965241318
 20
872.9410200441762
 30
0.0
 11
333.9454965241318
 21
866.8399995297425
 31
0.0
  0
LINE
  5
6626
330
1F
100
AcDbEntity
  8
太線
100
AcDbLine
 10
520.3007271552924
 20
872.9410200441762
 30
0.0
 11
520.3007271552924
 21
866.8399995297425
 31
0.0
  0
LINE
  5
6627
330
1F
100
AcDbEntity
  8
細線
100
AcDbLine
 10
184.419597760593
 20
872.8399995297424
 30
0.0
 11
184.419597760593
 21
866.7389790153087
 31
0.0
  0
DIMENSION
  5
6628
330
1F
100
AcDbEntity
  8
寸法線
100
AcDbDimension
  2
*D6
 10
570.0279688294394
 20
867.2389790153086
 30
0.0
 11
566.5279688294392
 21
887.7894892725258
 31
0.0
 70
    32
  1
40
 71
     5
 42
41.10102051443379
  3
sunpo
100
AcDbAlignedDimension
 13
534.3007271552924
 23
908.3399995297424
 33
0.0
 14
549.3007271552924
 24
867.2389790153086
 34
0.0
 50
90.0
100
AcDbRotatedDimension
1001
ACAD
1000
DSTYLE
1002
{
1070
    40
1040
1.0
1002
}
  0
TEXT
  5
663E
330
1F
100
AcDbEntity
  8
文字
100
AcDbText
 10
235.6592749022231
 20
890.1368163671286
 30
40.0
 40
7.0
  1
40ｍｍ
 51
15.0
  7
OKANO
100
AcDbText
  0
TEXT
  5
663F
330
1F
100
AcDbEntity
  8
文字
100
AcDbText
 10
413.178769015619
 20
892.7191241580585
 30
40.0
 40
7.0
  1
40ｍｍ
 51
15.0
  7
OKANO
100
AcDbText
  0
DIMENSION
  5
6641
330
1F
100
AcDbEntity
  8
寸法線
100
AcDbDimension
  2
*D7
 10
168.8624897836125
 20
793.3399995297423
 30
0.0
 11
165.3619976576282
 21
855.8399995297424
 31
0.0
 70
    32
  1
120
 71
     5
 42
125.0
  3
sunpo
100
AcDbAlignedDimension
 13
214.2295522808142
 23
918.3399995297424
 33
0.0
 14
217.8697506784607
 24
793.3399995297423
 34
0.0
 50
90.0
100
AcDbRotatedDimension
1001
ACAD
1000
DSTYLE
1002
{
1070
    40
1040
1.0
1002
}
  0
DIMENSION
  5
6727
330
1F
100
AcDbEntity
  8
寸法線
100
AcDbDimension
  2
*D12
 10
397.4440911782094
 20
986.9987038527044
 30
0.0
 11
382.3620511682087
 21
1003.152769745218
 31
0.0
 70
    36
 71
     5
 42
9.999999999999204
  3
sunpo
100
AcDbRadialDimension
 15
389.5482543728686
 25
993.1351328748158
 35
0.0
 40
0.0
1001
ACAD
1000
DSTYLE
1002
{
1070
    40
1040
1.0
1070
   288
1070
     1
1002
}
  0
DIMENSION
  5
6728
330
1F
100
AcDbEntity
  8
寸法線
100
AcDbDimension
  2
*D13
 10
213.305945815956
 20
989.449799468654
 30
0.0
 11
196.7666083878723
 21
1005.625057893601
 31
0.0
 70
   164
 71
     5
 42
10.00000000000056
  3
sunpo
100
AcDbRadialDimension
 15
206.1566271854511
 25
996.4417407670007
 35
0.0
 40
0.0
1001
ACAD
1000
DSTYLE
1002
{
1070
    40
1040
1.0
1070
   288
1070
     1
1002
}
  0
ARC
  5
6729
330
1F
100
AcDbEntity
  8
太線
100
AcDbCircle
 10
279.3059458159558
 20
989.4497994686544
 30
0.0
 40
10.0
100
AcDbArc
 50
0.0
 51
90.0
  0
ARC
  5
672A
330
1F
100
AcDbEntity
  8
太線
100
AcDbCircle
 10
213.3059458159557
 20
989.4497994686544
 30
0.0
 40
10.0
100
AcDbArc
 50
90.0
 51
180.0
  0
LINE
  5
672B
330
1F
100
AcDbEntity
  8
太線
100
AcDbLine
 10
213.3059458159557
 20
999.4497994686543
 30
0.0
 11
279.3059458159558
 21
999.4497994686543
 31
0.0
  0
ARC
  5
672C
330
1F
100
AcDbEntity
  8
太線
100
AcDbCircle
 10
213.8059458159557
 20
979.4497994686535
 30
0.0
 40
4.5
100
AcDbArc
 50
90.0
 51
270.0
  0
ARC
  5
672D
330
1F
100
AcDbEntity
  8
太線
100
AcDbCircle
 10
218.8059458159558
 20
979.4497994686535
 30
0.0
 40
4.5
100
AcDbArc
 50
270.0
 51
90.0
  0
LINE
  5
672E
330
1F
100
AcDbEntity
  8
太線
100
AcDbLine
 10
213.8059458159557
 20
983.9497994686535
 30
0.0
 11
218.8059458159558
 21
983.9497994686535
 31
0.0
  0
LINE
  5
672F
330
1F
100
AcDbEntity
  8
太線
100
AcDbLine
 10
218.8059458159558
 20
974.9497994686544
 30
0.0
 11
213.8059458159557
 21
974.9497994686544
 31
0.0
  0
ARC
  5
6730
330
1F
100
AcDbEntity
  8
太線
100
AcDbCircle
 10
276.8059458159558
 20
979.4497994686535
 30
0.0
 40
4.5
100
AcDbArc
 50
270.0
 51
90.0
  0
ARC
  5
6731
330
1F
100
AcDbEntity
  8
太線
100
AcDbCircle
 10
271.8059458159558
 20
979.4497994686535
 30
0.0
 40
4.5
100
AcDbArc
 50
90.0
 51
270.0
  0
LINE
  5
6732
330
1F
100
AcDbEntity
  8
太線
100
AcDbLine
 10
276.8059458159558
 20
974.9497994686544
 30
0.0
 11
271.8059458159558
 21
974.9497994686544
 31
0.0
  0
LINE
  5
6733
330
1F
100
AcDbEntity
  8
太線
100
AcDbLine
 10
271.8059458159558
 20
983.9497994686535
 30
0.0
 11
276.8059458159558
 21
983.9497994686535
 31
0.0
  0
DIMENSION
  5
6734
330
1F
100
AcDbEntity
  8
寸法線
100
AcDbDimension
  2
*D14
 10
209.3059458159557
 20
961.7983923490447
 30
0.0
 11
216.3059458159557
 21
965.2983923490447
 31
0.0
 70
    32
 71
     5
 42
14.0
  3
sunpo
100
AcDbAlignedDimension
 13
223.3059458159557
 23
979.4497994686535
 33
0.0
 14
209.3059458159557
 24
979.4497994686535
 34
0.0
100
AcDbRotatedDimension
1001
ACAD
1000
DSTYLE
1002
{
1070
    40
1040
1.0
1002
}
  0
LINE
  5
6735
330
1F
100
AcDbEntity
  8
太線
100
AcDbLine
 10
203.3059458159557
 20
979.4497994686535
 30
0.0
 11
203.3059458159557
 21
989.4497994686544
 31
0.0
  0
LINE
  5
6736
330
1F
100
AcDbEntity
  8
太線
100
AcDbLine
 10
289.3059458159558
 20
989.4497994686544
 30
0.0
 11
289.3059458159558
 21
978.8101401154426
 31
0.0
  0
LINE
  5
6737
330
1F
100
AcDbEntity
  8
太線
100
AcDbLine
 10
203.3059458159557
 20
979.4497994686535
 30
0.0
 11
203.3059458159557
 21
969.4497994686535
 31
0.0
  0
ARC
  5
6738
330
1F
100
AcDbEntity
  8
太線
100
AcDbCircle
 10
213.3059458159557
 20
969.4497994686535
 30
0.0
 40
10.0
100
AcDbArc
 50
180.0
 51
270.0
  0
LINE
  5
6739
330
1F
100
AcDbEntity
  8
太線
100
AcDbLine
 10
213.3059458159557
 20
959.4497994686534
 30
0.0
 11
279.3059458159558
 21
959.4497994686534
 31
0.0
  0
ARC
  5
673A
330
1F
100
AcDbEntity
  8
太線
100
AcDbCircle
 10
279.3059458159558
 20
969.4497994686535
 30
0.0
 40
10.0
100
AcDbArc
 50
270.0
 51
0.0
  0
LINE
  5
673B
330
1F
100
AcDbEntity
  8
太線
100
AcDbLine
 10
289.3059458159558
 20
969.4497994686535
 30
0.0
 11
289.3059458159558
 21
978.8101401154426
 31
0.0
  0
DIMENSION
  5
673C
330
1F
100
AcDbEntity
  8
寸法線
100
AcDbDimension
  2
*D15
 10
303.1713252792549
 20
978.8101401154426
 30
0.0
 11
299.6708331532705
 21
969.1299697920483
 31
0.0
 70
    32
  1
20
 71
     5
 42
19.36034064678915
  3
sunpo
100
AcDbAlignedDimension
 13
279.3059458159558
 23
959.4497994686534
 33
0.0
 14
289.3059458159558
 24
978.8101401154426
 34
0.0
 50
90.0
100
AcDbRotatedDimension
1001
ACAD
1000
DSTYLE
1002
{
1070
    40
1040
1.0
1002
}
  0
DIMENSION
  5
673D
330
1F
100
AcDbEntity
  8
寸法線
100
AcDbDimension
  2
*D16
 10
303.1713252792549
 20
999.4497994686543
 30
0.0
 11
299.6708331532705
 21
989.1299697920485
 31
0.0
 70
    32
  1
20
 71
     5
 42
20.63965935321175
  3
sunpo
100
AcDbAlignedDimension
 13
289.3059458159558
 23
978.8101401154426
 33
0.0
 14
279.3059458159558
 24
999.4497994686543
 34
0.0
 50
90.0
100
AcDbRotatedDimension
1001
ACAD
1000
DSTYLE
1002
{
1070
    40
1040
1.0
1070
   279
1070
     1
1002
}
  0
LINE
  5
673E
330
1F
100
AcDbEntity
  8
太線
100
AcDbLine
 10
473.4440911782096
 20
976.3590444994916
 30
0.0
 11
473.3859962808439
 21
961.9987038527034
 31
0.0
  0
LINE
  5
673F
330
1F
100
AcDbEntity
  8
太線
100
AcDbLine
 10
387.4440911782096
 20
976.9987038527032
 30
0.0
 11
387.4440911782096
 21
961.9987038527034
 31
0.0
  0
LINE
  5
6740
330
1F
100
AcDbEntity
  8
太線
100
AcDbLine
 10
387.385996280844
 20
961.9987038527034
 30
0.0
 11
473.3859962808439
 21
961.9987038527034
 31
0.0
  0
LINE
  5
6741
330
1F
100
AcDbEntity
  8
想像線
100
AcDbLine
 10
387.385996280844
 20
964.9987038527033
 30
0.0
 11
473.3859962808439
 21
964.9987038527033
 31
0.0
  0
LINE
  5
6742
330
1F
100
AcDbEntity
  8
太線
100
AcDbLine
 10
393.5121079417399
 20
953.9842088174278
 30
0.0
 11
465.4014892346867
 21
953.9842088174278
 31
0.0
  0
ARC
  5
6743
330
1F
100
AcDbEntity
  8
太線
100
AcDbCircle
 10
395.9592943149385
 20
962.2033697331701
 30
0.0
 40
8.575740627143373
100
AcDbArc
 50
181.3675325705322
 51
253.4195404704698
  0
ARC
  5
6744
330
1F
100
AcDbEntity
  8
太線
100
AcDbCircle
 10
460.7393712396466
 20
966.6134456260108
 30
0.0
 40
13.46227939715074
100
AcDbArc
 50
290.2617654909258
 51
339.953020805332
  0
ARC
  5
6745
330
1F
100
AcDbEntity
  8
太線
100
AcDbCircle
 10
463.4440911782096
 20
986.9987038527034
 30
0.0
 40
10.0
100
AcDbArc
 50
0.0
 51
90.0
  0
ARC
  5
6746
330
1F
100
AcDbEntity
  8
太線
100
AcDbCircle
 10
397.4440911782096
 20
986.9987038527034
 30
0.0
 40
10.0
100
AcDbArc
 50
90.0
 51
180.0
  0
LINE
  5
6747
330
1F
100
AcDbEntity
  8
太線
100
AcDbLine
 10
397.4440911782096
 20
996.9987038527033
 30
0.0
 11
463.4440911782096
 21
996.9987038527033
 31
0.0
  0
ARC
  5
6748
330
1F
100
AcDbEntity
  8
太線
100
AcDbCircle
 10
397.9440911782096
 20
976.9987038527032
 30
0.0
 40
4.5
100
AcDbArc
 50
90.0
 51
270.0
  0
ARC
  5
6749
330
1F
100
AcDbEntity
  8
太線
100
AcDbCircle
 10
402.9440911782096
 20
976.9987038527032
 30
0.0
 40
4.5
100
AcDbArc
 50
270.0
 51
90.0
  0
LINE
  5
674A
330
1F
100
AcDbEntity
  8
太線
100
AcDbLine
 10
397.9440911782096
 20
981.4987038527034
 30
0.0
 11
402.9440911782096
 21
981.4987038527034
 31
0.0
  0
LINE
  5
674B
330
1F
100
AcDbEntity
  8
太線
100
AcDbLine
 10
402.9440911782096
 20
972.4987038527032
 30
0.0
 11
397.9440911782096
 21
972.4987038527032
 31
0.0
  0
ARC
  5
674C
330
1F
100
AcDbEntity
  8
太線
100
AcDbCircle
 10
460.9440911782096
 20
976.9987038527032
 30
0.0
 40
4.5
100
AcDbArc
 50
270.0
 51
90.0
  0
ARC
  5
674D
330
1F
100
AcDbEntity
  8
太線
100
AcDbCircle
 10
455.9440911782096
 20
976.9987038527032
 30
0.0
 40
4.5
100
AcDbArc
 50
90.0
 51
270.0
  0
LINE
  5
674E
330
1F
100
AcDbEntity
  8
太線
100
AcDbLine
 10
460.9440911782096
 20
972.4987038527032
 30
0.0
 11
455.9440911782096
 21
972.4987038527032
 31
0.0
  0
LINE
  5
674F
330
1F
100
AcDbEntity
  8
太線
100
AcDbLine
 10
455.9440911782096
 20
981.4987038527034
 30
0.0
 11
460.9440911782096
 21
981.4987038527034
 31
0.0
  0
LINE
  5
6750
330
1F
100
AcDbEntity
  8
太線
100
AcDbLine
 10
387.4440911782096
 20
976.9987038527032
 30
0.0
 11
387.4440911782096
 21
986.9987038527034
 31
0.0
  0
LINE
  5
6751
330
1F
100
AcDbEntity
  8
太線
100
AcDbLine
 10
473.4440911782096
 20
986.9987038527034
 30
0.0
 11
473.4440911782096
 21
976.3590444994916
 31
0.0
  0
DIMENSION
  5
6752
330
1F
100
AcDbEntity
  8
寸法線
100
AcDbDimension
  2
*D17
 10
484.6208041445247
 20
996.9987038527033
 30
0.0
 11
481.1203120185403
 21
986.9987038527034
 31
0.0
 70
    32
 71
     5
 42
20.0
  3
sunpo
100
AcDbAlignedDimension
 13
460.9440911782096
 23
976.9987038527032
 33
0.0
 14
463.4440911782096
 24
996.9987038527033
 34
0.0
 50
90.0
100
AcDbRotatedDimension
1001
ACAD
1000
DSTYLE
1002
{
1070
    40
1040
1.0
1002
}
  0
DIMENSION
  5
6753
330
1F
100
AcDbEntity
  8
寸法線
100
AcDbDimension
  2
*D18
 10
377.8938444344571
 20
961.9987038527034
 30
0.0
 11
374.393844434457
 21
969.4987038527035
 31
0.0
 70
    32
 71
     5
 42
15.0
  3
sunpo
100
AcDbAlignedDimension
 13
397.9440911782096
 23
976.9987038527032
 33
0.0
 14
387.4440911782096
 24
961.9987038527034
 34
0.0
 50
90.0
100
AcDbRotatedDimension
1001
ACAD
1000
DSTYLE
1002
{
1070
    40
1040
1.0
1002
}
  0
DIMENSION
  5
6754
330
1F
100
AcDbEntity
  8
寸法線
100
AcDbDimension
  2
*D19
 10
377.8938444344571
 20
953.9842088174278
 30
0.0
 11
374.393844434457
 21
957.9914563350657
 31
0.0
 70
    32
  1
10
 71
     5
 42
8.014495035275558
  3
sunpo
100
AcDbAlignedDimension
 13
387.4440911782096
 23
961.9987038527034
 33
0.0
 14
393.5121079417399
 24
953.9842088174278
 34
0.0
 50
90.0
100
AcDbRotatedDimension
1001
ACAD
1000
DSTYLE
1002
{
1070
    40
1040
1.0
1070
   279
1070
     1
1002
}
  0
LINE
  5
6755
330
1F
100
AcDbEntity
  8
構築線
100
AcDbLine
 10
430.4440911782096
 20
976.9987038527032
 30
0.0
 11
430.4440911782096
 21
1015.441193252156
 31
0.0
  0
DIMENSION
  5
683B
330
1F
100
AcDbEntity
  8
寸法線
100
AcDbDimension
  2
*D20
 10
553.0173225885373
 20
793.2955214929825
 30
0.0
 11
549.5173225885371
 21
813.7237101810315
 31
0.0
 70
    32
  1
40
 71
     5
 42
40.85637737609795
  3
sunpo
100
AcDbAlignedDimension
 13
526.8694720409694
 23
834.1518988690804
 33
0.0
 14
528.2103498165961
 24
793.2955214929825
 34
0.0
 50
90.0
100
AcDbRotatedDimension
1001
ACAD
1000
DSTYLE
1002
{
1070
    40
1040
1.0
1002
}
  0
DIMENSION
  5
691E
330
1F
100
AcDbEntity
  8
寸法線
100
AcDbDimension
  2
*D21
 10
537.1221990530612
 20
687.872322766023
 30
0.0
 11
524.6221990530612
 21
691.3728148920072
 31
0.0
 70
    32
 71
     5
 42
25.0
  3
sunpo
100
AcDbAlignedDimension
 13
512.1221990530612
 23
703.7546997217344
 33
0.0
 14
537.1221990530612
 24
703.7546997217344
 34
0.0
100
AcDbRotatedDimension
1001
ACAD
1000
DSTYLE
1002
{
1070
    40
1040
1.0
1002
}
  0
LINE
  5
691F
330
1F
100
AcDbEntity
  8
太線
100
AcDbLine
 10
533.6221631125248
 20
703.7546997217345
 30
0.0
 11
535.6221631125248
 21
703.7546997217344
 31
0.0
  0
LINE
  5
6920
330
1F
100
AcDbEntity
  8
太線
100
AcDbLine
 10
513.1221990530612
 20
703.7546997217344
 30
0.0
 11
515.6221631125248
 21
703.7546997217345
 31
0.0
  0
LINE
  5
6921
330
1F
100
AcDbEntity
  8
太線
100
AcDbLine
 10
531.1221631125248
 20
706.2546997217343
 30
0.0
 11
533.6221990530612
 21
706.2546997217343
 31
0.0
  0
LINE
  5
6922
330
1F
100
AcDbEntity
  8
太線
100
AcDbLine
 10
515.6221990530611
 20
706.2546997217343
 30
0.0
 11
518.1221631125248
 21
706.2546997217343
 31
0.0
  0
ARC
  5
6923
330
1F
100
AcDbEntity
  8
太線
100
AcDbCircle
 10
533.6221990530612
 20
707.2546997217344
 30
0.0
 40
1.0
100
AcDbArc
 50
270.0
 51
0.0
  0
DIMENSION
  5
6924
330
1F
100
AcDbEntity
  8
寸法線
100
AcDbDimension
  2
*D22
 10
192.2524821931729
 20
716.2546997217344
 30
0.0
 11
188.7519900671885
 21
703.7546997217344
 31
0.0
 70
    32
 71
     5
 42
25.0
  3
sunpo
100
AcDbAlignedDimension
 13
203.9454965241318
 23
691.2546997217344
 33
0.0
 14
203.9454965241318
 24
716.2546997217344
 34
0.0
 50
90.0
100
AcDbRotatedDimension
1001
ACAD
1000
DSTYLE
1002
{
1070
    40
1040
1.0
1002
}
  0
DIMENSION
  5
6925
330
1F
100
AcDbEntity
  8
寸法線
100
AcDbDimension
  2
*D23
 10
427.7264856009168
 20
736.6568963422451
 30
0.0
 11
422.8157345924748
 21
732.1331434584622
 31
0.0
 70
   164
  1
24.5
 71
     5
 42
23.27969746857888
  3
sunpo
100
AcDbRadialDimension
 15
410.60442173408
 25
720.8841590031362
 35
0.0
 40
0.0
1001
ACAD
1000
DSTYLE
1002
{
1070
    40
1040
1.0
1070
   288
1070
     1
1002
}
  0
DIMENSION
  5
6926
330
1F
100
AcDbEntity
  8
寸法線
100
AcDbDimension
  2
*D24
 10
483.3218225314631
 20
703.9137997866293
 30
0.0
 11
479.821822531463
 21
708.7459803841241
 31
0.0
 70
    32
  1
10
 71
     5
 42
9.664361194989169
  3
sunpo
100
AcDbAlignedDimension
 13
428.0828672124189
 23
713.5781609816185
 33
0.0
 14
470.8478296316169
 24
703.9137997866293
 34
0.0
 50
90.0
100
AcDbRotatedDimension
1001
ACAD
1000
DSTYLE
1002
{
1070
    40
1040
1.0
1002
}
  0
DIMENSION
  5
6927
330
1F
100
AcDbEntity
  8
寸法線
100
AcDbDimension
  2
*D25
 10
369.7644619253114
 20
725.0113875037905
 30
0.0
 11
366.2639697993271
 21
714.3036251092483
 31
0.0
 70
    32
  1
21
 71
     5
 42
21.41552478908488
  3
sunpo
100
AcDbAlignedDimension
 13
384.848417331193
 23
703.5958627147057
 33
0.0
 14
404.7693814974377
 24
725.0113875037905
 34
0.0
 50
90.0
100
AcDbRotatedDimension
1001
ACAD
1000
DSTYLE
1002
{
1070
    40
1040
1.0
1002
}
  0
DIMENSION
  5
6928
330
1F
100
AcDbEntity
  8
寸法線
100
AcDbDimension
  2
*D26
 10
470.8478296316169
 20
679.5638275611854
 30
0.0
 11
427.848123481405
 21
683.0638275611854
 31
0.0
 70
    32
 71
     5
 42
85.99941230042395
  3
sunpo
100
AcDbAlignedDimension
 13
384.848417331193
 23
703.5958627147057
 33
0.0
 14
470.8478296316169
 24
703.9137997866293
 34
0.0
100
AcDbRotatedDimension
1001
ACAD
1000
DSTYLE
1002
{
1070
    40
1040
1.0
1002
}
  0
DIMENSION
  5
6929
330
1F
100
AcDbEntity
  8
寸法線
100
AcDbDimension
  2
*D27
 10
567.8561497949413
 20
724.7546997217344
 30
0.0
 11
564.3556576689569
 21
714.2546997217344
 31
0.0
 70
    32
 71
     5
 42
21.0
  3
sunpo
100
AcDbAlignedDimension
 13
533.6221631125248
 23
703.7546997217344
 33
0.0
 14
532.1221631125248
 24
724.7546997217344
 34
0.0
 50
90.0
100
AcDbRotatedDimension
1001
ACAD
1000
DSTYLE
1002
{
1070
    40
1040
1.0
1002
}
  0
LINE
  5
692A
330
1F
100
AcDbEntity
  8
寸法線
100
AcDbLine
 10
537.1221990530612
 20
704.7546997217344
 30
0.0
 11
537.1221990530612
 21
723.7546997217343
 31
0.0
  0
LINE
  5
692B
330
1F
100
AcDbEntity
  8
想像線
100
AcDbLine
 10
203.9454965241318
 20
693.7546997217343
 30
0.0
 11
289.9454965241318
 21
693.7546997217343
 31
0.0
  0
LINE
  5
692C
330
1F
100
AcDbEntity
  8
想像線
100
AcDbLine
 10
289.9454965241318
 20
713.7546997217343
 30
0.0
 11
203.9454965241318
 21
713.7546997217343
 31
0.0
  0
LINE
  5
692D
330
1F
100
AcDbEntity
  8
太線
100
AcDbLine
 10
289.9454965241318
 20
716.2546997217344
 30
0.0
 11
289.9454965241318
 21
691.2546997217344
 31
0.0
  0
LINE
  5
692E
330
1F
100
AcDbEntity
  8
太線
100
AcDbLine
 10
203.9454965241318
 20
716.2546997217344
 30
0.0
 11
203.9454965241318
 21
691.2546997217344
 31
0.0
  0
DIMENSION
  5
692F
330
1F
100
AcDbEntity
  8
寸法線
100
AcDbDimension
  2
*D28
 10
310.9190821465622
 20
708.2546997217344
 30
0.0
 11
307.4190821465621
 21
703.7546997217345
 31
0.0
 70
    32
 71
     5
 42
9.0
  3
sunpo
100
AcDbAlignedDimension
 13
275.9454965241318
 23
699.2546997217344
 33
0.0
 14
275.9454965241318
 24
708.2546997217344
 34
0.0
 50
90.0
100
AcDbRotatedDimension
1001
ACAD
1000
DSTYLE
1002
{
1070
    40
1040
1.0
1002
}
  0
DIMENSION
  5
6930
330
1F
100
AcDbEntity
  8
寸法線
100
AcDbDimension
  2
*D29
 10
210.9454965241318
 20
683.1032926021245
 30
0.0
 11
217.9454965241318
 21
686.6032926021246
 31
0.0
 70
    32
 71
     5
 42
14.0
  3
sunpo
100
AcDbAlignedDimension
 13
224.9454965241318
 23
703.7546997217344
 33
0.0
 14
210.9454965241318
 24
703.7546997217344
 34
0.0
100
AcDbRotatedDimension
1001
ACAD
1000
DSTYLE
1002
{
1070
    40
1040
1.0
1002
}
  0
DIMENSION
  5
6931
330
1F
100
AcDbEntity
  8
寸法線
100
AcDbDimension
  2
*D30
 10
275.9308017896255
 20
727.0314071689901
 30
0.0
 11
246.9381491568786
 21
733.0314071689902
 31
0.0
 70
    32
  1
60
 71
     5
 42
57.98530526549368
  3
sunpo
100
AcDbAlignedDimension
 13
217.9454965241318
 23
713.7546997217343
 33
0.0
 14
275.9308017896255
 24
704.981117635181
 34
0.0
100
AcDbRotatedDimension
1001
ACAD
1000
DSTYLE
1002
{
1070
   140
1040
10.0
1070
    40
1040
1.0
1002
}
  0
LINE
  5
6932
330
1F
100
AcDbEntity
  8
太線
100
AcDbLine
 10
273.4454965241318
 20
708.2546997217344
 30
0.0
 11
278.4454965241318
 21
708.2546997217344
 31
0.0
  0
LINE
  5
6933
330
1F
100
AcDbEntity
  8
太線
100
AcDbLine
 10
278.4454965241318
 20
699.2546997217344
 30
0.0
 11
273.4454965241318
 21
699.2546997217344
 31
0.0
  0
ARC
  5
6934
330
1F
100
AcDbEntity
  8
太線
100
AcDbCircle
 10
273.4454965241318
 20
703.7546997217344
 30
0.0
 40
4.5
100
AcDbArc
 50
90.0
 51
270.0
  0
ARC
  5
6935
330
1F
100
AcDbEntity
  8
太線
100
AcDbCircle
 10
278.4454965241318
 20
703.7546997217344
 30
0.0
 40
4.5
100
AcDbArc
 50
270.0
 51
90.0
  0
LINE
  5
6936
330
1F
100
AcDbEntity
  8
太線
100
AcDbLine
 10
220.4454965241318
 20
699.2546997217344
 30
0.0
 11
215.4454965241318
 21
699.2546997217344
 31
0.0
  0
LINE
  5
6937
330
1F
100
AcDbEntity
  8
太線
100
AcDbLine
 10
215.4454965241318
 20
708.2546997217344
 30
0.0
 11
220.4454965241318
 21
708.2546997217344
 31
0.0
  0
LINE
  5
6938
330
1F
100
AcDbEntity
  8
太線
100
AcDbLine
 10
203.9454965241318
 20
691.2546997217344
 30
0.0
 11
289.9454965241318
 21
691.2546997217344
 31
0.0
  0
LINE
  5
6939
330
1F
100
AcDbEntity
  8
太線
100
AcDbLine
 10
203.9454965241318
 20
716.2546997217344
 30
0.0
 11
289.9454965241318
 21
716.2546997217344
 31
0.0
  0
ARC
  5
693A
330
1F
100
AcDbEntity
  8
太線
100
AcDbCircle
 10
220.4454965241318
 20
703.7546997217344
 30
0.0
 40
4.5
100
AcDbArc
 50
270.0
 51
90.0
  0
ARC
  5
693B
330
1F
100
AcDbEntity
  8
太線
100
AcDbCircle
 10
215.4454965241318
 20
703.7546997217344
 30
0.0
 40
4.5
100
AcDbArc
 50
90.0
 51
270.0
  0
LINE
  5
693C
330
1F
100
AcDbEntity
  8
太線
100
AcDbLine
 10
512.1221990530612
 20
723.7546997217343
 30
0.0
 11
512.1221990530612
 21
704.7546997217344
 31
0.0
  0
LINE
  5
693D
330
1F
100
AcDbEntity
  8
太線
100
AcDbLine
 10
515.6221631125248
 20
703.7546997217345
 30
0.0
 11
533.6221631125248
 21
703.7546997217345
 31
0.0
  0
LINE
  5
693E
330
1F
100
AcDbEntity
  8
太線
100
AcDbLine
 10
537.1221990530612
 20
704.7546997217344
 30
0.0
 11
537.1221990530612
 21
723.7546997217343
 31
0.0
  0
LINE
  5
693F
330
1F
100
AcDbEntity
  8
太線
100
AcDbLine
 10
536.1221990530611
 20
724.7546997217344
 30
0.0
 11
534.6221990530612
 21
724.7546997217344
 31
0.0
  0
LINE
  5
6940
330
1F
100
AcDbEntity
  8
太線
100
AcDbLine
 10
534.6221990530612
 20
724.7546997217344
 30
0.0
 11
534.6221990530612
 21
707.2546997217344
 31
0.0
  0
LINE
  5
6941
330
1F
100
AcDbEntity
  8
太線
100
AcDbLine
 10
531.1221631125248
 20
706.2546997217343
 30
0.0
 11
518.1221631125248
 21
706.2546997217343
 31
0.0
  0
LINE
  5
6942
330
1F
100
AcDbEntity
  8
太線
100
AcDbLine
 10
514.6221990530611
 20
707.2546997217344
 30
0.0
 11
514.6221990530611
 21
724.7546997217344
 31
0.0
  0
LINE
  5
6943
330
1F
100
AcDbEntity
  8
太線
100
AcDbLine
 10
514.6221990530611
 20
724.7546997217344
 30
0.0
 11
513.1221990530612
 21
724.7546997217344
 31
0.0
  0
LINE
  5
6944
330
1F
100
AcDbEntity
  8
想像線
100
AcDbLine
 10
520.1221631125248
 20
703.7546997217344
 30
0.0
 11
520.1221631125248
 21
706.2546997217343
 31
0.0
  0
LINE
  5
6945
330
1F
100
AcDbEntity
  8
想像線
100
AcDbLine
 10
529.1221631125248
 20
703.7546997217344
 30
0.0
 11
529.1221631125248
 21
706.2546997217343
 31
0.0
  0
ARC
  5
6946
330
1F
100
AcDbEntity
  8
太線
100
AcDbCircle
 10
513.1221990530612
 20
704.7546997217344
 30
0.0
 40
1.0
100
AcDbArc
 50
180.0
 51
270.0
  0
ARC
  5
6947
330
1F
100
AcDbEntity
  8
太線
100
AcDbCircle
 10
536.1221990530611
 20
704.7546997217344
 30
0.0
 40
1.0
100
AcDbArc
 50
270.0
 51
0.0
  0
ARC
  5
6948
330
1F
100
AcDbEntity
  8
太線
100
AcDbCircle
 10
515.6221990530611
 20
707.2546997217344
 30
0.0
 40
1.0
100
AcDbArc
 50
180.0
 51
270.0
  0
ARC
  5
6949
330
1F
100
AcDbEntity
  8
太線
100
AcDbCircle
 10
513.1221990530612
 20
723.7546997217343
 30
0.0
 40
1.0
100
AcDbArc
 50
90.0
 51
180.0
  0
ARC
  5
694A
330
1F
100
AcDbEntity
  8
太線
100
AcDbCircle
 10
536.1221990530611
 20
723.7546997217343
 30
0.0
 40
1.0
100
AcDbArc
 50
0.0
 51
90.0
  0
LINE
  5
694B
330
1F
100
AcDbEntity
  8
想像線
100
AcDbLine
 10
470.8385872748749
 20
706.4137827023394
 30
0.0
 11
384.8391749744511
 21
706.0958456304157
 31
0.0
  0
LINE
  5
694C
330
1F
100
AcDbEntity
  8
太線
100
AcDbLine
 10
470.8478296316169
 20
703.9137997866293
 30
0.0
 11
469.8478364653328
 21
703.9101028439326
 31
0.0
  0
LINE
  5
694D
330
1F
100
AcDbEntity
  8
太線
100
AcDbLine
 10
470.8385872748749
 20
706.4137827023394
 30
0.0
 11
470.8478296316169
 21
703.9137997866293
 31
0.0
  0
LINE
  5
694E
330
1F
100
AcDbEntity
  8
太線
100
AcDbLine
 10
450.2690705633597
 20
725.1795983964943
 30
0.0
 11
470.8385872748749
 21
706.4137827023394
 31
0.0
  0
LINE
  5
694F
330
1F
100
AcDbEntity
  8
太線
100
AcDbLine
 10
384.8391749744511
 20
706.0958456304157
 30
0.0
 11
404.7693814974377
 21
725.0113875037905
 31
0.0
  0
LINE
  5
6950
330
1F
100
AcDbEntity
  8
太線
100
AcDbLine
 10
384.848417331193
 20
703.5958627147057
 30
0.0
 11
384.8391749744511
 21
706.0958456304157
 31
0.0
  0
LINE
  5
6951
330
1F
100
AcDbEntity
  8
太線
100
AcDbLine
 10
407.5629819958813
 20
725.0217153553286
 30
0.0
 11
404.7693814974377
 21
725.0113875037905
 31
0.0
  0
LINE
  5
6952
330
1F
100
AcDbEntity
  8
太線
100
AcDbLine
 10
450.2690705633597
 20
725.1795983964943
 30
0.0
 11
447.9754666480581
 21
725.1711190163047
 31
0.0
  0
ARC
  5
6953
330
1F
100
AcDbEntity
  8
太線
100
AcDbCircle
 10
427.7264856009167
 20
736.6568963422456
 30
0.0
 40
23.2796974685795
100
AcDbArc
 50
209.9867354356147
 51
330.4369039566483
  0
LINE
  5
6954
330
1F
100
AcDbEntity
  8
太線
100
AcDbLine
 10
469.8478364653328
 20
703.9101028439326
 30
0.0
 11
385.848410497477
 21
703.5995596574025
 31
0.0
  0
LINE
  5
6955
330
1F
100
AcDbEntity
  8
破線
100
AcDbLine
 10
392.348366078323
 20
703.6235897849316
 30
0.0
 11
392.3391237215811
 21
706.1235727006415
 31
0.0
  0
LINE
  5
6956
330
1F
100
AcDbEntity
  8
破線
100
AcDbLine
 10
404.848280656873
 20
703.6698015686414
 30
0.0
 11
404.839038300131
 21
706.1697844843514
 31
0.0
  0
LINE
  5
6957
330
1F
100
AcDbEntity
  8
破線
100
AcDbLine
 10
450.3479697227949
 20
703.8380124613452
 30
0.0
 11
450.338727366053
 21
706.3379953770552
 31
0.0
  0
LINE
  5
6958
330
1F
100
AcDbEntity
  8
破線
100
AcDbLine
 10
463.3478808844869
 20
703.8860727164035
 30
0.0
 11
463.338638527745
 21
706.3860556321135
 31
0.0
  0
XLINE
  5
6A23
330
1F
100
AcDbEntity
  8
構築線
100
AcDbXline
 10
203.9454965241318
 20
910.3399995297424
 30
0.0
 11
0.0
 21
-1.0
 31
0.0
  0
XLINE
  5
6A24
330
1F
100
AcDbEntity
  8
構築線
100
AcDbXline
 10
217.9454965241318
 20
790.7389790153087
 30
0.0
 11
0.0
 21
-1.0
 31
0.0
  0
XLINE
  5
6A25
330
1F
100
AcDbEntity
  8
構築線
100
AcDbXline
 10
220.4454965241318
 20
702.8985795282117
 30
0.0
 11
1.0
 21
0.0
 31
0.0
  0
XLINE
  5
6A26
330
1F
100
AcDbEntity
  8
構築線
100
AcDbXline
 10
220.4454965241318
 20
690.3985795282117
 30
0.0
 11
1.0
 21
0.0
 31
0.0
  0
XLINE
  5
6A7D
330
1F
100
AcDbEntity
  8
構築線
100
AcDbXline
 10
524.6221990530612
 20
809.7389790153087
 30
0.0
 11
1.0
 21
0.0
 31
0.0
  0
ARC
  5
6A7E
330
1F
100
AcDbEntity
  8
太線
100
AcDbCircle
 10
536.1221990530611
 20
827.2389790153086
 30
0.0
 40
1.0
100
AcDbArc
 50
0.0
 51
90.0
  0
ARC
  5
6A7F
330
1F
100
AcDbEntity
  8
太線
100
AcDbCircle
 10
513.1221990530612
 20
827.2389790153086
 30
0.0
 40
1.0
100
AcDbArc
 50
90.0
 51
180.0
  0
ARC
  5
6A80
330
1F
100
AcDbEntity
  8
太線
100
AcDbCircle
 10
515.6221990530611
 20
810.7389790153087
 30
0.0
 40
1.0
100
AcDbArc
 50
180.0
 51
270.0
  0
ARC
  5
6A81
330
1F
100
AcDbEntity
  8
太線
100
AcDbCircle
 10
536.1221990530611
 20
808.2389790153088
 30
0.0
 40
1.0
100
AcDbArc
 50
270.0
 51
0.0
  0
ARC
  5
6A82
330
1F
100
AcDbEntity
  8
太線
100
AcDbCircle
 10
513.1221990530612
 20
808.2389790153088
 30
0.0
 40
1.0
100
AcDbArc
 50
180.0
 51
270.0
  0
LINE
  5
6A83
330
1F
100
AcDbEntity
  8
想像線
100
AcDbLine
 10
529.1221631125248
 20
807.2389790153087
 30
0.0
 11
529.1221631125248
 21
809.7389790153087
 31
0.0
  0
LINE
  5
6A84
330
1F
100
AcDbEntity
  8
想像線
100
AcDbLine
 10
520.1221631125248
 20
807.2389790153087
 30
0.0
 11
520.1221631125248
 21
809.7389790153087
 31
0.0
  0
LINE
  5
6A85
330
1F
100
AcDbEntity
  8
太線
100
AcDbLine
 10
514.6221990530611
 20
828.2389790153086
 30
0.0
 11
513.1221990530612
 21
828.2389790153086
 31
0.0
  0
LINE
  5
6A86
330
1F
100
AcDbEntity
  8
太線
100
AcDbLine
 10
514.6221990530611
 20
810.7389790153087
 30
0.0
 11
514.6221990530611
 21
828.2389790153086
 31
0.0
  0
LINE
  5
6A87
330
1F
100
AcDbEntity
  8
太線
100
AcDbLine
 10
531.1221631125248
 20
809.7389790153087
 30
0.0
 11
518.1221631125248
 21
809.7389790153087
 31
0.0
  0
LINE
  5
6A88
330
1F
100
AcDbEntity
  8
太線
100
AcDbLine
 10
534.6221990530612
 20
828.2389790153086
 30
0.0
 11
534.6221990530612
 21
810.7389790153087
 31
0.0
  0
LINE
  5
6A89
330
1F
100
AcDbEntity
  8
太線
100
AcDbLine
 10
536.1221990530611
 20
828.2389790153086
 30
0.0
 11
534.6221990530612
 21
828.2389790153086
 31
0.0
  0
LINE
  5
6A8A
330
1F
100
AcDbEntity
  8
太線
100
AcDbLine
 10
537.1221990530612
 20
808.2389790153088
 30
0.0
 11
537.1221990530612
 21
827.2389790153086
 31
0.0
  0
LINE
  5
6A8B
330
1F
100
AcDbEntity
  8
太線
100
AcDbLine
 10
515.6221631125248
 20
807.2389790153088
 30
0.0
 11
533.6221631125248
 21
807.2389790153088
 31
0.0
  0
LINE
  5
6A8C
330
1F
100
AcDbEntity
  8
太線
100
AcDbLine
 10
512.1221990530612
 20
827.2389790153086
 30
0.0
 11
512.1221990530612
 21
808.2389790153088
 31
0.0
  0
LINE
  5
6A8D
330
1F
100
AcDbEntity
  8
寸法線
100
AcDbLine
 10
537.1221990530612
 20
808.2389790153088
 30
0.0
 11
537.1221990530612
 21
827.2389790153086
 31
0.0
  0
ARC
  5
6A8E
330
1F
100
AcDbEntity
  8
太線
100
AcDbCircle
 10
533.6221990530612
 20
810.7389790153087
 30
0.0
 40
1.0
100
AcDbArc
 50
270.0
 51
0.0
  0
LINE
  5
6A8F
330
1F
100
AcDbEntity
  8
太線
100
AcDbLine
 10
515.6221990530611
 20
809.7389790153087
 30
0.0
 11
518.1221631125248
 21
809.7389790153087
 31
0.0
  0
LINE
  5
6A90
330
1F
100
AcDbEntity
  8
太線
100
AcDbLine
 10
531.1221631125248
 20
809.7389790153087
 30
0.0
 11
533.6221990530612
 21
809.7389790153087
 31
0.0
  0
LINE
  5
6A91
330
1F
100
AcDbEntity
  8
太線
100
AcDbLine
 10
513.1221990530612
 20
807.2389790153087
 30
0.0
 11
515.6221631125248
 21
807.2389790153088
 31
0.0
  0
LINE
  5
6A92
330
1F
100
AcDbEntity
  8
太線
100
AcDbLine
 10
533.6221631125248
 20
807.2389790153088
 30
0.0
 11
535.6221631125248
 21
807.2389790153087
 31
0.0
  0
LINE
  5
6A93
330
1F
100
AcDbEntity
  8
太線
100
AcDbLine
 10
339.4847853329432
 20
807.2389790153088
 30
0.0
 11
341.4847853329432
 21
807.2389790153087
 31
0.0
  0
LINE
  5
6A94
330
1F
100
AcDbEntity
  8
太線
100
AcDbLine
 10
318.9848212734796
 20
807.2389790153087
 30
0.0
 11
321.4847853329432
 21
807.2389790153088
 31
0.0
  0
LINE
  5
6A95
330
1F
100
AcDbEntity
  8
太線
100
AcDbLine
 10
336.9847853329432
 20
809.7389790153087
 30
0.0
 11
339.4848212734796
 21
809.7389790153087
 31
0.0
  0
LINE
  5
6A96
330
1F
100
AcDbEntity
  8
太線
100
AcDbLine
 10
321.4848212734796
 20
809.7389790153087
 30
0.0
 11
323.9847853329432
 21
809.7389790153087
 31
0.0
  0
ARC
  5
6A97
330
1F
100
AcDbEntity
  8
太線
100
AcDbCircle
 10
339.4848212734796
 20
810.7389790153087
 30
0.0
 40
1.0
100
AcDbArc
 50
270.0
 51
0.0
  0
LINE
  5
6A98
330
1F
100
AcDbEntity
  8
寸法線
100
AcDbLine
 10
342.9848212734796
 20
808.2389790153088
 30
0.0
 11
342.9848212734796
 21
827.2389790153086
 31
0.0
  0
LINE
  5
6A99
330
1F
100
AcDbEntity
  8
太線
100
AcDbLine
 10
317.9848212734796
 20
827.2389790153086
 30
0.0
 11
317.9848212734796
 21
808.2389790153088
 31
0.0
  0
LINE
  5
6A9A
330
1F
100
AcDbEntity
  8
太線
100
AcDbLine
 10
321.4847853329432
 20
807.2389790153088
 30
0.0
 11
339.4847853329432
 21
807.2389790153088
 31
0.0
  0
LINE
  5
6A9B
330
1F
100
AcDbEntity
  8
太線
100
AcDbLine
 10
342.9848212734796
 20
808.2389790153088
 30
0.0
 11
342.9848212734796
 21
827.2389790153086
 31
0.0
  0
LINE
  5
6A9C
330
1F
100
AcDbEntity
  8
太線
100
AcDbLine
 10
341.9848212734796
 20
828.2389790153086
 30
0.0
 11
340.4848212734796
 21
828.2389790153086
 31
0.0
  0
LINE
  5
6A9D
330
1F
100
AcDbEntity
  8
太線
100
AcDbLine
 10
340.4848212734796
 20
828.2389790153086
 30
0.0
 11
340.4848212734796
 21
810.7389790153087
 31
0.0
  0
LINE
  5
6A9E
330
1F
100
AcDbEntity
  8
太線
100
AcDbLine
 10
336.9847853329432
 20
809.7389790153087
 30
0.0
 11
323.9847853329432
 21
809.7389790153087
 31
0.0
  0
LINE
  5
6A9F
330
1F
100
AcDbEntity
  8
太線
100
AcDbLine
 10
320.4848212734796
 20
810.7389790153087
 30
0.0
 11
320.4848212734796
 21
828.2389790153086
 31
0.0
  0
LINE
  5
6AA0
330
1F
100
AcDbEntity
  8
太線
100
AcDbLine
 10
320.4848212734796
 20
828.2389790153086
 30
0.0
 11
318.9848212734796
 21
828.2389790153086
 31
0.0
  0
LINE
  5
6AA1
330
1F
100
AcDbEntity
  8
想像線
100
AcDbLine
 10
325.9847853329432
 20
807.2389790153087
 30
0.0
 11
325.9847853329432
 21
809.7389790153087
 31
0.0
  0
LINE
  5
6AA2
330
1F
100
AcDbEntity
  8
想像線
100
AcDbLine
 10
334.9847853329432
 20
807.2389790153087
 30
0.0
 11
334.9847853329432
 21
809.7389790153087
 31
0.0
  0
ARC
  5
6AA3
330
1F
100
AcDbEntity
  8
太線
100
AcDbCircle
 10
318.9848212734796
 20
808.2389790153088
 30
0.0
 40
1.0
100
AcDbArc
 50
180.0
 51
270.0
  0
ARC
  5
6AA4
330
1F
100
AcDbEntity
  8
太線
100
AcDbCircle
 10
341.9848212734796
 20
808.2389790153088
 30
0.0
 40
1.0
100
AcDbArc
 50
270.0
 51
0.0
  0
ARC
  5
6AA5
330
1F
100
AcDbEntity
  8
太線
100
AcDbCircle
 10
321.4848212734796
 20
810.7389790153087
 30
0.0
 40
1.0
100
AcDbArc
 50
180.0
 51
270.0
  0
ARC
  5
6AA6
330
1F
100
AcDbEntity
  8
太線
100
AcDbCircle
 10
318.9848212734796
 20
827.2389790153086
 30
0.0
 40
1.0
100
AcDbArc
 50
90.0
 51
180.0
  0
ARC
  5
6AA7
330
1F
100
AcDbEntity
  8
太線
100
AcDbCircle
 10
341.9848212734796
 20
827.2389790153086
 30
0.0
 40
1.0
100
AcDbArc
 50
0.0
 51
90.0
  0
LINE
  5
6AA8
330
1F
100
AcDbEntity
  8
太線
100
AcDbLine
 10
334.6633493757112
 20
809.7389790153087
 30
0.0
 11
334.6633493757108
 21
831.6995272631467
 31
0.0
  0
LINE
  5
6AA9
330
1F
100
AcDbEntity
  8
太線
100
AcDbLine
 10
325.6633493757108
 20
831.6995272631466
 30
0.0
 11
325.6633493757108
 21
809.7389790153087
 31
0.0
  0
LINE
  5
6AB2
330
1F
100
AcDbEntity
  8
破線
100
AcDbLine
 10
514.6221990530611
 20
817.2389790153086
 30
0.0
 11
519.8007271552923
 21
817.2389790153086
 31
0.0
  0
LINE
  5
6AB3
330
1F
100
AcDbEntity
  8
破線
100
AcDbLine
 10
528.8007271552927
 20
817.2389790153086
 30
0.0
 11
534.6221990530612
 21
817.2389790153086
 31
0.0
  0
LINE
  5
6AB4
330
1F
100
AcDbEntity
  8
破線
100
AcDbLine
 10
320.4848212734796
 20
817.2389790153085
 30
0.0
 11
325.6633493757108
 21
817.2389790153086
 31
0.0
  0
LINE
  5
6AB5
330
1F
100
AcDbEntity
  8
破線
100
AcDbLine
 10
334.6633493757111
 20
817.2389790153086
 30
0.0
 11
340.4848212734796
 21
817.2389790153086
 31
0.0
  0
DIMENSION
  5
6ABD
330
1F
100
AcDbEntity
  8
寸法線
100
AcDbDimension
  2
*D31
 10
537.1221990530612
 20
738.6745818097697
 30
0.0
 11
547.1311736492768
 21
742.1745818097697
 31
0.0
 70
    32
  1
1.5
 71
     5
 42
3.000035940536349
  3
sunpo
100
AcDbAlignedDimension
 13
534.1221631125248
 23
724.7546997217344
 33
0.0
 14
537.1221990530612
 24
723.7546997217343
 34
0.0
100
AcDbRotatedDimension
1001
ACAD
1000
DSTYLE
1002
{
1070
    40
1040
1.0
1002
}
  0
DIMENSION
  5
6AD7
330
1F
100
AcDbEntity
  8
寸法線
100
AcDbDimension
  2
*D32
 10
149.0503557987976
 20
910.3399995297424
 30
0.0
 11
145.5498636728132
 21
921.3178852127125
 31
0.0
 70
    32
 71
     5
 42
2.5
  3
sunpo
100
AcDbAlignedDimension
 13
204.9454965241318
 23
907.8399995297425
 33
0.0
 14
203.9454965241318
 24
910.3399995297424
 34
0.0
 50
90.0
100
AcDbRotatedDimension
1001
ACAD
1000
DSTYLE
1002
{
1070
    40
1040
1.0
1002
}
  0
TEXT
  5
6AF2
330
1F
100
AcDbEntity
  8
文字
100
AcDbText
 10
214.3273099150069
 20
1083.500261733614
 30
0.0
 40
10.0
  1
パネル裏側止め金具：オールステンレス（SUS304)
 51
15.0
  7
OKANO
100
AcDbText
  0
LEADER
  5
6B97
330
1F
100
AcDbEntity
  8
寸法線
100
AcDbLeader
  3
sunpo
 76
     2
 10
709.3608250952739
 20
897.4580585782202
 30
0.0
 10
709.5681745057873
 20
884.4084141962499
 30
0.0
211
-1.0
221
0.0000000000000001
231
0.0
1001
ACAD
1000
DSTYLE
1002
{
1070
   147
1040
1.0
1070
    77
1070
     0
1002
}
  0
TEXT
  5
6B98
330
1F
100
AcDbEntity
  8
文字
100
AcDbText
 10
646.974794566209
 20
927.0719977169218
 30
0.0
 40
6.0
  1
強度は設計基準を参照
 51
15.0
  7
OKANO
100
AcDbText
  0
TEXT
  5
6B99
330
1F
100
AcDbEntity
  8
文字
100
AcDbText
 10
632.6497126881795
 20
900.2424627831649
 30
0.0
 40
6.0
  1
荷重1000Ｎ
 51
15.0
  7
OKANO
100
AcDbText
  0
LEADER
  5
6B9A
330
1F
100
AcDbEntity
  8
寸法線
100
AcDbLeader
  3
sunpo
 76
     2
 10
651.9256225853451
 20
897.8930464974594
 30
0.0
 10
651.9256225853451
 20
884.843402115489
 30
0.0
211
-1.0
221
0.0000000000000001
231
0.0
1001
ACAD
1000
DSTYLE
1002
{
1070
   147
1040
1.0
1070
    77
1070
     0
1002
}
  0
LINE
  5
6B9B
330
1F
100
AcDbEntity
  8
想像線
100
AcDbLine
 10
648.336537376101
 20
853.4639735825347
 30
0.0
 11
648.336537376101
 21
855.1682428536992
 31
0.0
  0
LINE
  5
6B9C
330
1F
100
AcDbEntity
  8
細線
100
AcDbLine
 10
648.336537376101
 20
881.2074535284862
 30
0.0
 11
647.836537376101
 21
880.2074535284862
 31
0.0
  0
LINE
  5
6B9D
330
1F
100
AcDbEntity
  8
細線
100
AcDbLine
 10
656.8365373761011
 20
880.2074535284862
 30
0.0
 11
656.336537376101
 21
881.2074535284862
 31
0.0
  0
LINE
  5
6B9E
330
1F
100
AcDbEntity
  8
太線
100
AcDbLine
 10
648.336537376101
 20
881.2074535284862
 30
0.0
 11
656.336537376101
 21
881.2074535284862
 31
0.0
  0
LINE
  5
6B9F
330
1F
100
AcDbEntity
  8
太線
100
AcDbLine
 10
656.8365373761011
 20
847.4135913644387
 30
0.0
 11
656.8365373761011
 21
842.8479257950822
 31
0.0
  0
LINE
  5
6BA0
330
1F
100
AcDbEntity
  8
細線
100
AcDbLine
 10
656.8365373761011
 20
842.8479257950822
 30
0.0
 11
656.336537376101
 21
840.8479257950823
 31
0.0
  0
LINE
  5
6BA1
330
1F
100
AcDbEntity
  8
太線
100
AcDbLine
 10
656.336537376101
 20
840.8479257950823
 30
0.0
 11
648.336537376101
 21
840.8479257950823
 31
0.0
  0
LINE
  5
6BA2
330
1F
100
AcDbEntity
  8
細線
100
AcDbLine
 10
648.336537376101
 20
840.8479257950823
 30
0.0
 11
647.836537376101
 21
842.8479257950822
 31
0.0
  0
LINE
  5
6BA3
330
1F
100
AcDbEntity
  8
太線
100
AcDbLine
 10
647.836537376101
 20
842.847925795082
 30
0.0
 11
647.836537376101
 21
855.6243988236557
 31
0.0
  0
LINE
  5
6BA4
330
1F
100
AcDbEntity
  8
太線
100
AcDbLine
 10
656.336537376101
 20
880.2074535284862
 30
0.0
 11
656.336537376101
 21
874.3670441811872
 31
0.0
  0
LINE
  5
6BA5
330
1F
100
AcDbEntity
  8
太線
100
AcDbLine
 10
648.336537376101
 20
880.2074535284862
 30
0.0
 11
648.336537376101
 21
874.3670441811872
 31
0.0
  0
LINE
  5
6BA6
330
1F
100
AcDbEntity
  8
細線
100
AcDbLine
 10
656.8365373761011
 20
880.2074535284862
 30
0.0
 11
656.8365373761011
 21
874.3670441811872
 31
0.0
  0
LINE
  5
6BA7
330
1F
100
AcDbEntity
  8
細線
100
AcDbLine
 10
647.836537376101
 20
880.2074535284862
 30
0.0
 11
647.836537376101
 21
874.3670441811872
 31
0.0
  0
LINE
  5
6BA8
330
1F
100
AcDbEntity
  8
細線
100
AcDbLine
 10
656.8365373761011
 20
880.2074535284862
 30
0.0
 11
647.836537376101
 21
880.2074535284862
 31
0.0
  0
ARC
  5
6BA9
330
1F
100
AcDbEntity
  8
太線
100
AcDbCircle
 10
681.336537376101
 20
834.0718473351072
 30
0.0
 40
23.2796974685795
100
AcDbArc
 50
30.7486871587825
 51
149.2513128412175
  0
LINE
  5
6BAA
330
1F
100
AcDbEntity
  8
想像線
100
AcDbLine
 10
638.310496067607
 20
864.315120049499
 30
0.0
 11
724.3099083680309
 21
864.6330571214226
 31
0.0
  0
LINE
  5
6BAB
330
1F
100
AcDbEntity
  8
太線
100
AcDbLine
 10
638.3012537108651
 20
866.815102965209
 30
0.0
 11
639.301246877149
 21
866.8187999079059
 31
0.0
  0
LINE
  5
6BAC
330
1F
100
AcDbEntity
  8
太線
100
AcDbLine
 10
638.310496067607
 20
864.315120049499
 30
0.0
 11
638.3012537108651
 21
866.815102965209
 31
0.0
  0
LINE
  5
6BAD
330
1F
100
AcDbEntity
  8
太線
100
AcDbLine
 10
658.8800127791222
 20
845.549304355344
 30
0.0
 11
638.310496067607
 21
864.315120049499
 31
0.0
  0
LINE
  5
6BAE
330
1F
100
AcDbEntity
  8
太線
100
AcDbLine
 10
724.3099083680309
 20
864.6330571214226
 30
0.0
 11
704.3797018450442
 21
845.7175152480477
 31
0.0
  0
LINE
  5
6BAF
330
1F
100
AcDbEntity
  8
太線
100
AcDbLine
 10
724.3006660112889
 20
867.1330400371326
 30
0.0
 11
724.3099083680309
 21
864.6330571214226
 31
0.0
  0
LINE
  5
6BB0
330
1F
100
AcDbEntity
  8
太線
100
AcDbLine
 10
701.5861013466007
 20
845.7071873965098
 30
0.0
 11
704.3797018450442
 21
845.7175152480477
 31
0.0
  0
LINE
  5
6BB1
330
1F
100
AcDbEntity
  8
太線
100
AcDbLine
 10
658.8800127791222
 20
845.549304355344
 30
0.0
 11
661.1736166944238
 21
845.5577837355336
 31
0.0
  0
ARC
  5
6BB2
330
1F
100
AcDbEntity
  8
太線
370
    60
100
AcDbCircle
 10
681.4225977415652
 20
834.0720064095927
 30
0.0
 40
23.2796974685795
100
AcDbArc
 50
29.98673543561478
 51
150.4369039566483
  0
LINE
  5
6BB3
330
1F
100
AcDbEntity
  8
太線
100
AcDbLine
 10
639.301246877149
 20
866.8187999079059
 30
0.0
 11
723.3006728450049
 21
867.1293430944357
 31
0.0
  0
ARC
  5
6BB4
330
1F
100
AcDbEntity
  8
太線
100
AcDbCircle
 10
645.0766403703513
 20
873.3670441811872
 30
0.0
 40
1.0
100
AcDbArc
 50
90.0
 51
180.0
  0
ARC
  5
6BB5
330
1F
100
AcDbEntity
  8
太線
100
AcDbCircle
 10
658.0766403703512
 20
873.3670441811872
 30
0.0
 40
1.0
100
AcDbArc
 50
0.0
 51
90.0
  0
ARC
  5
6BB6
330
1F
100
AcDbEntity
  8
太線
100
AcDbCircle
 10
643.9347827295255
 20
867.3670441811871
 30
0.0
 40
1.0
100
AcDbArc
 50
90.0
 51
180.0
  0
ARC
  5
6BB7
330
1F
100
AcDbEntity
  8
太線
100
AcDbCircle
 10
659.218498011177
 20
867.3670441811871
 30
0.0
 40
1.0
100
AcDbArc
 50
0.0
 51
90.0
  0
ARC
  5
6BB8
330
1F
100
AcDbEntity
  8
太線
100
AcDbCircle
 10
645.8266403703513
 20
872.3387306112952
 30
0.0
 40
2.029760773594802
100
AcDbArc
 50
30.43882523641641
 51
149.5611747635836
  0
ARC
  5
6BB9
330
1F
100
AcDbEntity
  8
太線
100
AcDbCircle
 10
657.3266403703513
 20
872.4287350695634
 30
0.0
 40
1.985679729703703
100
AcDbArc
 50
28.19916958668873
 51
151.8008304133112
  0
ARC
  5
6BBA
330
1F
100
AcDbEntity
  8
太線
100
AcDbCircle
 10
651.5766403703513
 20
865.8670441811874
 30
0.0
 40
8.499999999999836
100
AcDbArc
 50
61.9275130641455
 51
118.0724869358545
  0
LINE
  5
6BBB
330
1F
100
AcDbEntity
  8
太線
100
AcDbLine
 10
647.5766403703513
 20
873.3670441811872
 30
0.0
 11
647.5766403703513
 21
868.3670441811871
 31
0.0
  0
LINE
  5
6BBC
330
1F
100
AcDbEntity
  8
太線
100
AcDbLine
 10
655.5766403703513
 20
873.3670441811872
 30
0.0
 11
655.5766403703513
 21
868.3670441811871
 31
0.0
  0
LINE
  5
6BBD
330
1F
100
AcDbEntity
  8
太線
100
AcDbLine
 10
659.0766403703513
 20
868.3670441811871
 30
0.0
 11
644.0766403703513
 21
868.3670441811871
 31
0.0
  0
LINE
  5
6BBE
330
1F
100
AcDbEntity
  8
太線
100
AcDbLine
 10
642.9347827295255
 20
867.3670441811871
 30
0.0
 11
642.9347827295255
 21
866.8670441811872
 31
0.0
  0
LINE
  5
6BBF
330
1F
100
AcDbEntity
  8
太線
100
AcDbLine
 10
644.0766403703513
 20
868.3670441811871
 30
0.0
 11
643.9347827295255
 21
868.3670441811871
 31
0.0
  0
LINE
  5
6BC0
330
1F
100
AcDbEntity
  8
太線
100
AcDbLine
 10
644.0766403703513
 20
873.3670441811872
 30
0.0
 11
644.0766403703513
 21
868.3670441811871
 31
0.0
  0
LINE
  5
6BC1
330
1F
100
AcDbEntity
  8
太線
100
AcDbLine
 10
658.0766403703512
 20
874.3670441811872
 30
0.0
 11
645.0766403703513
 21
874.3670441811872
 31
0.0
  0
LINE
  5
6BC2
330
1F
100
AcDbEntity
  8
太線
100
AcDbLine
 10
659.0766403703513
 20
868.3670441811871
 30
0.0
 11
659.0766403703512
 21
873.3670441811872
 31
0.0
  0
LINE
  5
6BC3
330
1F
100
AcDbEntity
  8
太線
100
AcDbLine
 10
659.2184980111771
 20
868.3670441811871
 30
0.0
 11
659.0766403703513
 21
868.3670441811871
 31
0.0
  0
LINE
  5
6BC4
330
1F
100
AcDbEntity
  8
太線
100
AcDbLine
 10
660.2184980111772
 20
866.8670441811872
 30
0.0
 11
660.2184980111772
 21
867.3670441811871
 31
0.0
  0
LINE
  5
6BC5
330
1F
100
AcDbEntity
  8
太線
100
AcDbLine
 10
660.2184980111772
 20
866.8670441811872
 30
0.0
 11
642.9347827295255
 21
866.8670441811872
 31
0.0
  0
LINE
  5
6BC6
330
1F
100
AcDbEntity
  8
太線
100
AcDbLine
 10
718.7796010805523
 20
866.8670441811872
 30
0.0
 11
701.4958857989006
 21
866.8670441811872
 31
0.0
  0
LINE
  5
6BC7
330
1F
100
AcDbEntity
  8
太線
100
AcDbLine
 10
718.7796010805523
 20
866.8670441811872
 30
0.0
 11
718.7796010805523
 21
867.3670441811871
 31
0.0
  0
LINE
  5
6BC8
330
1F
100
AcDbEntity
  8
太線
100
AcDbLine
 10
717.7796010805523
 20
868.3670441811871
 30
0.0
 11
717.6377434397265
 21
868.3670441811871
 31
0.0
  0
LINE
  5
6BC9
330
1F
100
AcDbEntity
  8
太線
100
AcDbLine
 10
717.6377434397265
 20
868.3670441811871
 30
0.0
 11
717.6377434397263
 21
873.3670441811872
 31
0.0
  0
LINE
  5
6BCA
330
1F
100
AcDbEntity
  8
太線
100
AcDbLine
 10
716.6377434397263
 20
874.3670441811872
 30
0.0
 11
703.6377434397264
 21
874.3670441811872
 31
0.0
  0
LINE
  5
6BCB
330
1F
100
AcDbEntity
  8
太線
100
AcDbLine
 10
702.6377434397264
 20
873.3670441811872
 30
0.0
 11
702.6377434397264
 21
868.3670441811871
 31
0.0
  0
LINE
  5
6BCC
330
1F
100
AcDbEntity
  8
太線
100
AcDbLine
 10
702.6377434397264
 20
868.3670441811871
 30
0.0
 11
702.4958857989006
 21
868.3670441811871
 31
0.0
  0
LINE
  5
6BCD
330
1F
100
AcDbEntity
  8
太線
100
AcDbLine
 10
701.4958857989006
 20
867.3670441811871
 30
0.0
 11
701.4958857989006
 21
866.8670441811872
 31
0.0
  0
LINE
  5
6BCE
330
1F
100
AcDbEntity
  8
太線
100
AcDbLine
 10
717.6377434397265
 20
868.3670441811871
 30
0.0
 11
702.6377434397264
 21
868.3670441811871
 31
0.0
  0
LINE
  5
6BCF
330
1F
100
AcDbEntity
  8
太線
100
AcDbLine
 10
714.1377434397265
 20
873.3670441811872
 30
0.0
 11
714.1377434397265
 21
868.3670441811871
 31
0.0
  0
LINE
  5
6BD0
330
1F
100
AcDbEntity
  8
太線
100
AcDbLine
 10
706.1377434397265
 20
873.3670441811872
 30
0.0
 11
706.1377434397265
 21
868.3670441811871
 31
0.0
  0
ARC
  5
6BD1
330
1F
100
AcDbEntity
  8
太線
100
AcDbCircle
 10
710.1377434397265
 20
865.8670441811874
 30
0.0
 40
8.499999999999836
100
AcDbArc
 50
61.9275130641455
 51
118.0724869358545
  0
ARC
  5
6BD2
330
1F
100
AcDbEntity
  8
太線
100
AcDbCircle
 10
715.8877434397265
 20
872.4287350695634
 30
0.0
 40
1.985679729703703
100
AcDbArc
 50
28.19916958668873
 51
151.8008304133112
  0
ARC
  5
6BD3
330
1F
100
AcDbEntity
  8
太線
100
AcDbCircle
 10
704.3877434397264
 20
872.3387306112952
 30
0.0
 40
2.029760773594802
100
AcDbArc
 50
30.43882523641641
 51
149.5611747635836
  0
ARC
  5
6BD4
330
1F
100
AcDbEntity
  8
太線
100
AcDbCircle
 10
717.7796010805522
 20
867.3670441811871
 30
0.0
 40
1.0
100
AcDbArc
 50
0.0
 51
90.0
  0
ARC
  5
6BD5
330
1F
100
AcDbEntity
  8
太線
100
AcDbCircle
 10
702.4958857989006
 20
867.3670441811871
 30
0.0
 40
1.0
100
AcDbArc
 50
90.0
 51
180.0
  0
ARC
  5
6BD6
330
1F
100
AcDbEntity
  8
太線
100
AcDbCircle
 10
716.6377434397263
 20
873.3670441811872
 30
0.0
 40
1.0
100
AcDbArc
 50
0.0
 51
90.0
  0
ARC
  5
6BD7
330
1F
100
AcDbEntity
  8
太線
100
AcDbCircle
 10
703.6377434397264
 20
873.3670441811872
 30
0.0
 40
1.0
100
AcDbArc
 50
90.0
 51
180.0
  0
LINE
  5
6BD8
330
1F
100
AcDbEntity
  8
細線
100
AcDbLine
 10
714.5940952889471
 20
880.2074535284862
 30
0.0
 11
705.5940952889471
 21
880.2074535284862
 31
0.0
  0
LINE
  5
6BD9
330
1F
100
AcDbEntity
  8
細線
100
AcDbLine
 10
705.5940952889471
 20
880.2074535284862
 30
0.0
 11
705.5940952889471
 21
874.3670441811872
 31
0.0
  0
LINE
  5
6BDA
330
1F
100
AcDbEntity
  8
細線
100
AcDbLine
 10
714.5940952889471
 20
880.2074535284862
 30
0.0
 11
714.5940952889471
 21
874.3670441811872
 31
0.0
  0
LINE
  5
6BDB
330
1F
100
AcDbEntity
  8
太線
100
AcDbLine
 10
706.0940952889471
 20
880.2074535284862
 30
0.0
 11
706.0940952889471
 21
874.3670441811872
 31
0.0
  0
LINE
  5
6BDC
330
1F
100
AcDbEntity
  8
太線
100
AcDbLine
 10
714.0940952889471
 20
880.2074535284862
 30
0.0
 11
714.0940952889471
 21
874.3670441811872
 31
0.0
  0
LINE
  5
6BDD
330
1F
100
AcDbEntity
  8
太線
100
AcDbLine
 10
705.5940952889471
 20
842.847925795082
 30
0.0
 11
705.5940952889471
 21
846.8700828349618
 31
0.0
  0
LINE
  5
6BDE
330
1F
100
AcDbEntity
  8
細線
100
AcDbLine
 10
706.0940952889471
 20
840.8479257950823
 30
0.0
 11
705.5940952889471
 21
842.8479257950822
 31
0.0
  0
LINE
  5
6BDF
330
1F
100
AcDbEntity
  8
太線
100
AcDbLine
 10
714.0940952889471
 20
840.8479257950823
 30
0.0
 11
706.0940952889471
 21
840.8479257950823
 31
0.0
  0
LINE
  5
6BE0
330
1F
100
AcDbEntity
  8
細線
100
AcDbLine
 10
714.5940952889471
 20
842.8479257950822
 30
0.0
 11
714.0940952889471
 21
840.8479257950823
 31
0.0
  0
LINE
  5
6BE1
330
1F
100
AcDbEntity
  8
太線
100
AcDbLine
 10
714.5940952889471
 20
855.4118847808688
 30
0.0
 11
714.5940952889471
 21
842.8479257950822
 31
0.0
  0
LINE
  5
6BE2
330
1F
100
AcDbEntity
  8
太線
100
AcDbLine
 10
706.0940952889471
 20
881.2074535284862
 30
0.0
 11
714.0940952889471
 21
881.2074535284862
 31
0.0
  0
LINE
  5
6BE3
330
1F
100
AcDbEntity
  8
細線
100
AcDbLine
 10
714.5940952889471
 20
880.2074535284862
 30
0.0
 11
714.0940952889471
 21
881.2074535284862
 31
0.0
  0
LINE
  5
6BE4
330
1F
100
AcDbEntity
  8
細線
100
AcDbLine
 10
706.0940952889471
 20
881.2074535284862
 30
0.0
 11
705.5940952889471
 21
880.2074535284862
 31
0.0
  0
LINE
  5
6BE5
330
1F
100
AcDbEntity
  8
想像線
100
AcDbLine
 10
714.0940952889471
 20
853.4639735825347
 30
0.0
 11
714.0940952889471
 21
854.9373402283183
 31
0.0
  0
LINE
  5
6BE6
330
1F
100
AcDbEntity
  8
太線
100
AcDbLine
 10
714.336537376101
 20
807.7074535284863
 30
0.0
 11
714.336537376101
 21
853.4639735825347
 31
0.0
  0
LINE
  5
6BE7
330
1F
100
AcDbEntity
  8
太線
100
AcDbLine
 10
706.336537376101
 20
847.5747265310479
 30
0.0
 11
706.336537376101
 21
807.7074535284863
 31
0.0
  0
LINE
  5
6BE8
330
1F
100
AcDbEntity
  8
太線
100
AcDbLine
 10
656.336537376101
 20
807.7074535284863
 30
0.0
 11
656.336537376101
 21
847.8697473343952
 31
0.0
  0
LINE
  5
6BE9
330
1F
100
AcDbEntity
  8
太線
100
AcDbLine
 10
648.336537376101
 20
853.4639735825347
 30
0.0
 11
648.336537376101
 21
807.7074535284863
 31
0.0
  0
CIRCLE
  5
6BEA
330
1F
100
AcDbEntity
  8
破線
100
AcDbCircle
 10
681.336537376101
 20
832.3515448036868
 30
0.0
 40
24.5
  0
TEXT
  5
6BEB
330
1F
100
AcDbEntity
  8
文字
100
AcDbText
 10
696.3347694439062
 20
900.2424627831649
 30
0.0
 40
6.0
  1
荷重1000Ｎ
 51
15.0
  7
OKANO
100
AcDbText
  0
LEADER
  5
6BEC
330
1F
100
AcDbEntity
  8
寸法線
100
AcDbLeader
  3
sunpo
 76
     2
 10
693.1934064232109
 20
856.0360745637014
 30
0.0
 10
693.1934064232109
 20
864.3175384449866
 30
0.0
1001
ACAD
1000
DSTYLE
1002
{
1070
   147
1040
1.0
1070
    77
1070
     0
1002
}
  0
LEADER
  5
6BED
330
1F
100
AcDbEntity
  8
寸法線
100
AcDbLeader
  3
sunpo
 76
     2
 10
667.0763282319594
 20
854.5867764487782
 30
0.0
 10
667.0763282319594
 20
863.6963308039273
 30
0.0
1001
ACAD
1000
DSTYLE
1002
{
1070
   147
1040
1.0
1070
    77
1070
     0
1002
}
  0
LEADER
  5
6BEE
330
1F
100
AcDbEntity
  8
寸法線
100
AcDbLeader
  3
sunpo
 76
     2
 10
651.7375291554554
 20
859.9698304811179
 30
0.0
 10
651.7375291554554
 20
866.8019962474797
 30
0.0
1001
ACAD
1000
DSTYLE
1002
{
1070
   147
1040
1.0
1070
    77
1070
     0
1002
}
  0
LEADER
  5
6BEF
330
1F
100
AcDbEntity
  8
寸法線
100
AcDbLeader
  3
sunpo
 76
     3
 10
710.6045325351942
 20
860.590851741276
 30
0.0
 10
710.6045325351942
 20
867.0090654611856
 30
0.0
 10
710.1902227373857
 20
867.0090654611856
 30
0.0
1001
ACAD
1000
DSTYLE
1002
{
1070
   147
1040
1.0
1070
    77
1070
     0
1002
}
  0
TEXT
  5
6BF0
330
1F
100
AcDbEntity
  8
文字
100
AcDbText
 10
670.9603499469294
 20
829.5752011103475
 30
0.0
 40
10.0
  1
単管
 51
15.0
  7
OKANO
100
AcDbText
  0
TEXT
  5
6BF1
330
1F
100
AcDbEntity
  8
文字
100
AcDbText
 10
168.7455118065254
 20
654.3469846539708
 30
0.0
 40
10.0
  1
台座設計基準　荷重：P(止め金具へ垂直の荷重）Uボルトへかかる荷重1000Ｎ
 51
15.0
  7
OKANO
100
AcDbText
  0
TEXT
  5
6BF2
330
1F
100
AcDbEntity
  8
文字
100
AcDbText
 10
168.7455118065254
 20
636.3921122552863
 30
0.0
 40
10.0
  1
M8ボルト2本止め：2×1000＝2000Ｎ
 51
15.0
  7
OKANO
100
AcDbText
  0
TEXT
  5
6BF3
330
1F
100
AcDbEntity
  8
文字
100
AcDbText
 10
168.7455118065254
 20
621.635774851268
 30
0.0
 40
10.0
  1
安全率（使用環境に応じて設定）ここでは静荷重として安全率3を設定しています。2000/3＝667N（約65kg)
 51
15.0
  7
OKANO
100
AcDbText
  0
VIEWPORT
  5
2E
330
1B
100
AcDbEntity
 67
     1
  8
0
100
AcDbViewport
 10
190.6099666471861
 20
123.9354121129587
 30
0.0
 40
531.5323432183843
 41
248.5917968830779
 68
     1
 69
     1
 12
190.6099666471861
 22
123.9354121129587
 13
0.0
 23
0.0
 14
10.0
 24
10.0
 15
10.0
 25
10.0
 16
0.0
 26
0.0
 36
1.0
 17
0.0
 27
0.0
 37
0.0
 42
50.0
 43
0.0
 44
0.0
 45
248.5917968830779
 50
0.0
 51
0.0
 72
   100
 90
    32800
  1

281
     0
 71
     1
 74
     0
110
0.0
120
0.0
130
0.0
111
1.0
121
0.0
131
0.0
112
0.0
122
1.0
132
0.0
 79
     0
146
0.0
  0
VIEWPORT
  5
30
330
1B
100
AcDbEntity
 67
     1
  8
70-0-CON
100
AcDbViewport
 10
141.8594093064315
 20
100.3480256368386
 30
0.0
 40
261.6199023344245
 41
192.6196987113174
 68
     2
 69
     2
 12
466.224758766999
 22
868.726586556837
 13
0.0
 23
0.0
 14
5.0
 24
5.0
 15
10.0
 25
10.0
 16
0.0
 26
0.0
 36
1.0
 17
0.0
 27
0.0
 37
0.0
 42
50.0
 43
0.0
 44
0.0
 45
556.8470375000483
 50
0.0
 51
0.0
 72
   100
 90
    32864
  1

281
     0
 71
     1
 74
     0
110
0.0
120
0.0
130
0.0
111
1.0
121
0.0
131
0.0
112
0.0
122
1.0
132
0.0
 79
     0
146
0.0
  0
LWPOLYLINE
  5
45
330
1B
100
AcDbEntity
 67
     1
  8
50-0-CON
100
AcDbPolyline
 90
        4
 70
     1
 43
0.0
 10
11.04945813921926
 20
4.038176281179858
 10
272.2125713060605
 20
4.033520706629644
 10
273.4987754093466
 20
195.9297862125246
 10
11.04945813921926
 20
196.6578749924973
  0
LINE
  5
4A
330
1B
100
AcDbEntity
 67
     1
  8
50-0-CON
100
AcDbLine
 10
10.38768783662635
 20
100.3480256368386
 30
0.0
 11
-4.391850629656119
 21
100.3480256368386
 31
0.0
  0
LINE
  5
4B
330
1B
100
AcDbEntity
 67
     1
  8
50-0-CON
100
AcDbLine
 10
141.8594093064315
 20
197.098652626247
 30
0.0
 11
141.8594093064315
 21
202.387980773708
 31
0.0
  0
LINE
  5
4C
330
1B
100
AcDbEntity
 67
     1
  8
50-0-CON
100
AcDbLine
 10
272.4487699456857
 20
100.7888032705883
 30
0.0
 11
278.8458837249377
 21
100.7888032705883
 31
0.0
  0
LINE
  5
4D
330
1B
100
AcDbEntity
 67
     1
  8
50-0-CON
100
AcDbLine
 10
140.9770484758805
 20
4.038176281179858
 30
0.0
 11
140.9770484758805
 21
-3.455038652015446
 31
0.0
  0
ENDSEC
  0
SECTION
  2
OBJECTS
  0
DICTIONARY
  5
C
330
0
100
AcDbDictionary
281
     1
  3
ACAD_GROUP
350
D
  3
ACAD_LAYOUT
350
1A
  3
ACAD_MLINESTYLE
350
17
  3
ACAD_PLOTSETTINGS
350
19
  3
ACAD_PLOTSTYLENAME
350
E
  3
AcadDim
350
4D1E
  3
AcDbVariableDictionary
350
6AD
  3
DWGPROPS
350
4AEC
  0
DICTIONARY
  5
D
102
{ACAD_REACTORS
330
C
102
}
330
C
100
AcDbDictionary
281
     1
  0
DICTIONARY
  5
1A
102
{ACAD_REACTORS
330
C
102
}
330
C
100
AcDbDictionary
281
     1
  3
A4
350
1E
  3
Model
350
22
  0
DICTIONARY
  5
17
102
{ACAD_REACTORS
330
C
102
}
330
C
100
AcDbDictionary
281
     1
  3
Standard
350
18
  0
DICTIONARY
  5
19
102
{ACAD_REACTORS
330
C
102
}
330
C
100
AcDbDictionary
281
     1
  0
ACDBDICTIONARYWDFLT
  5
E
102
{ACAD_REACTORS
330
C
102
}
330
C
100
AcDbDictionary
281
     1
  3
Normal
350
F
100
AcDbDictionaryWithDefault
340
F
  0
XRECORD
  5
4D1E
102
{ACAD_REACTORS
330
C
102
}
330
C
100
AcDbXrecord
280
     1
 90
   990106
  3

 60
     0
 61
     0
 62
     1
 63
     3
 64
     0
 65
     0
 66
     0
 67
     3
 68
     1
 69
     0
 70
     0
 71
     0
 72
     0
 40
17.67629709740177
170
     0
  0
DICTIONARY
  5
6AD
102
{ACAD_REACTORS
330
C
102
}
330
C
100
AcDbDictionary
281
     1
  3
SORTENTS
350
6AE
  0
XRECORD
  5
4AEC
102
{ACAD_REACTORS
330
C
102
}
330
C
100
AcDbXrecord
280
     1
  1
DWGPROPS COOKIE
  2

  3

  4

  6

  7

  8

  9

300
=
301
=
302
=
303
=
304
=
305
=
306
=
307
=
308
=
309
=
 40
3.342131759259259
 41
2452362.482225463
 42
2455527.444288414
  1

 90
        0
  0
LAYOUT
  5
1E
102
{ACAD_REACTORS
330
1A
102
}
330
1A
100
AcDbPlotSettings
  1

  2
none_device
  4
ISO_A4_(210.00_x_297.00_MM)
  6

 40
7.5
 41
20.0
 42
7.5
 43
20.0
 44
210.0
 45
297.0
 46
0.0
 47
0.0
 48
0.0
 49
0.0
140
0.0
141
0.0
142
1.0
143
1.0
 70
   656
 72
     1
 73
     1
 74
     5
  7

 75
    16
147
1.0
148
0.0
149
0.0
100
AcDbLayout
  1
A4
 70
     1
 71
     1
 10
-20.0
 20
-7.5
 11
277.0
 21
202.4999999999999
 12
0.0
 22
0.0
 32
0.0
 14
-4.391850629656119
 24
-3.455038652015446
 34
0.0
 15
278.8458837249377
 25
202.387980773708
 35
0.0
146
0.0
 13
0.0
 23
0.0
 33
0.0
 16
1.0
 26
0.0
 36
0.0
 17
0.0
 27
1.0
 37
0.0
 76
     0
330
1B
331
2E
  0
LAYOUT
  5
22
102
{ACAD_REACTORS
330
1A
102
}
330
1A
100
AcDbPlotSettings
  1

  2
EPSON PM-920C
  4
A4
  6

 40
3.757083177566528
 41
14.7637300491333
 42
3.757080078125
 43
3.757080078125
 44
209.9733276367187
 45
296.9683227539062
 46
0.0
 47
0.0
 48
0.0
 49
0.0
140
0.0
141
0.0
142
1.0
143
1.0
 70
 11952
 72
     1
 73
     1
 74
     0
  7
C:\Program Files\ACAD LT 2000\Plot Styles\JOINT.ctb
 75
     0
147
1.0
148
-45.64199848979289
149
-84.48806419330498
100
AcDbLayout
  1
Model
 70
     1
 71
     0
 10
0.0
 20
0.0
 11
12.0
 21
9.0
 12
0.0
 22
0.0
 32
0.0
 14
0.0
 24
0.0
 34
0.0
 15
0.0
 25
0.0
 35
0.0
146
0.0
 13
0.0
 23
0.0
 33
0.0
 16
1.0
 26
0.0
 36
0.0
 17
0.0
 27
1.0
 37
0.0
 76
     0
330
1F
  0
MLINESTYLE
  5
18
102
{ACAD_REACTORS
330
17
102
}
330
17
100
AcDbMlineStyle
  2
STANDARD
 70
     0
  3

 62
   256
 51
90.0
 52
90.0
 71
     2
 49
0.5
 62
   256
  6
BYLAYER
 49
-0.5
 62
   256
  6
BYLAYER
  0
ACDBPLACEHOLDER
  5
F
102
{ACAD_REACTORS
330
E
102
}
330
E
  0
DICTIONARYVAR
  5
6AE
102
{ACAD_REACTORS
330
6AD
102
}
330
6AD
100
DictionaryVariables
280
     0
  1
119
  0
ENDSEC
  0
EOF
