  0
SECTION
  2
HEADER
  9
$ACADVER
  1
AC1015
  9
$ACADMAINTVER
 70
     6
  9
$DWGCODEPAGE
  3
ANSI_932
  9
$INSBASE
 10
0.0
 20
0.0
 30
0.0
  9
$EXTMIN
 10
-39388.31230787149
 20
-39723.85460132336
 30
0.0
  9
$EXTMAX
 10
40661.6876921285
 20
40326.14539867664
 30
40.0
  9
$LIMMIN
 10
0.0
 20
0.0
  9
$LIMMAX
 10
420.0
 20
297.0
  9
$ORTHOMODE
 70
     0
  9
$REGENMODE
 70
     1
  9
$FILLMODE
 70
     1
  9
$QTEXTMODE
 70
     0
  9
$MIRRTEXT
 70
     1
  9
$LTSCALE
 40
1.0
  9
$ATTMODE
 70
     1
  9
$TEXTSIZE
 40
5.0
  9
$TRACEWID
 40
1.0
  9
$TEXTSTYLE
  7
OKANO
  9
$CLAYER
  8
寸法線
  9
$CELTYPE
  6
ByLayer
  9
$CECOLOR
 62
   256
  9
$CELTSCALE
 40
1.0
  9
$DISPSILH
 70
     0
  9
$DIMSCALE
 40
0.0
  9
$DIMASZ
 40
3.0
  9
$DIMEXO
 40
2.0
  9
$DIMDLI
 40
8.0
  9
$DIMRND
 40
0.0
  9
$DIMDLE
 40
0.0
  9
$DIMEXE
 40
3.0
  9
$DIMTP
 40
0.0
  9
$DIMTM
 40
0.0
  9
$DIMTXT
 40
5.0
  9
$DIMCEN
 40
2.5
  9
$DIMTSZ
 40
0.0
  9
$DIMTOL
 70
     0
  9
$DIMLIM
 70
     0
  9
$DIMTIH
 70
     0
  9
$DIMTOH
 70
     0
  9
$DIMSE1
 70
     0
  9
$DIMSE2
 70
     0
  9
$DIMTAD
 70
     1
  9
$DIMZIN
 70
     8
  9
$DIMBLK
  1
Closed
  9
$DIMASO
 70
     1
  9
$DIMSHO
 70
     1
  9
$DIMPOST
  1

  9
$DIMAPOST
  1

  9
$DIMALT
 70
     0
  9
$DIMALTD
 70
     3
  9
$DIMALTF
 40
0.03937007874016
  9
$DIMLFAC
 40
1.0
  9
$DIMTOFL
 70
     1
  9
$DIMTVP
 40
0.0
  9
$DIMTIX
 70
     0
  9
$DIMSOXD
 70
     0
  9
$DIMSAH
 70
     0
  9
$DIMBLK1
  1

  9
$DIMBLK2
  1

  9
$DIMSTYLE
  2
sunpo
  9
$DIMCLRD
 70
     0
  9
$DIMCLRE
 70
     0
  9
$DIMCLRT
 70
     0
  9
$DIMTFAC
 40
1.0
  9
$DIMGAP
 40
1.0
  9
$DIMJUST
 70
     0
  9
$DIMSD1
 70
     0
  9
$DIMSD2
 70
     0
  9
$DIMTOLJ
 70
     0
  9
$DIMTZIN
 70
     8
  9
$DIMALTZ
 70
     0
  9
$DIMALTTZ
 70
     0
  9
$DIMUPT
 70
     0
  9
$DIMDEC
 70
     2
  9
$DIMTDEC
 70
     2
  9
$DIMALTU
 70
     2
  9
$DIMALTTD
 70
     3
  9
$DIMTXSTY
  7
OKANO
  9
$DIMAUNIT
 70
     0
  9
$DIMADEC
 70
     0
  9
$DIMALTRND
 40
0.0
  9
$DIMAZIN
 70
     0
  9
$DIMDSEP
 70
    46
  9
$DIMATFIT
 70
     3
  9
$DIMFRAC
 70
     0
  9
$DIMLDRBLK
  1
Closed
  9
$DIMLUNIT
 70
     2
  9
$DIMLWD
 70
    -2
  9
$DIMLWE
 70
    -2
  9
$DIMTMOVE
 70
     0
  9
$LUNITS
 70
     2
  9
$LUPREC
 70
     2
  9
$SKETCHINC
 40
1.0
  9
$FILLETRAD
 40
3.0
  9
$AUNITS
 70
     0
  9
$AUPREC
 70
     0
  9
$MENU
  1
.
  9
$ELEVATION
 40
0.0
  9
$PELEVATION
 40
0.0
  9
$THICKNESS
 40
0.0
  9
$LIMCHECK
 70
     0
  9
$CHAMFERA
 40
10.0
  9
$CHAMFERB
 40
10.0
  9
$CHAMFERC
 40
20.0
  9
$CHAMFERD
 40
0.0
  9
$SKPOLY
 70
     0
  9
$TDCREATE
 40
2452362.482225463
  9
$TDUCREATE
 40
2452362.107225463
  9
$TDUPDATE
 40
2456631.535327650
  9
$TDUUPDATE
 40
2456631.160327650
  9
$TDINDWG
 40
4.1271520255
  9
$TDUSRTIMER
 40
4.1271520255
  9
$USRTIMER
 70
     1
  9
$ANGBASE
 50
0.0
  9
$ANGDIR
 70
     0
  9
$PDMODE
 70
     0
  9
$PDSIZE
 40
0.0
  9
$PLINEWID
 40
0.0
  9
$SPLFRAME
 70
     0
  9
$SPLINETYPE
 70
     6
  9
$SPLINESEGS
 70
     8
  9
$HANDSEED
  5
6C85
  9
$SURFTAB1
 70
     6
  9
$SURFTAB2
 70
     6
  9
$SURFTYPE
 70
     6
  9
$SURFU
 70
     6
  9
$SURFV
 70
     6
  9
$UCSBASE
  2

  9
$UCSNAME
  2

  9
$UCSORG
 10
0.0
 20
0.0
 30
0.0
  9
$UCSXDIR
 10
1.0
 20
0.0
 30
0.0
  9
$UCSYDIR
 10
0.0
 20
1.0
 30
0.0
  9
$UCSORTHOREF
  2

  9
$UCSORTHOVIEW
 70
     0
  9
$UCSORGTOP
 10
0.0
 20
0.0
 30
0.0
  9
$UCSORGBOTTOM
 10
0.0
 20
0.0
 30
0.0
  9
$UCSORGLEFT
 10
0.0
 20
0.0
 30
0.0
  9
$UCSORGRIGHT
 10
0.0
 20
0.0
 30
0.0
  9
$UCSORGFRONT
 10
0.0
 20
0.0
 30
0.0
  9
$UCSORGBACK
 10
0.0
 20
0.0
 30
0.0
  9
$PUCSBASE
  2

  9
$PUCSNAME
  2

  9
$PUCSORG
 10
0.0
 20
0.0
 30
0.0
  9
$PUCSXDIR
 10
1.0
 20
0.0
 30
0.0
  9
$PUCSYDIR
 10
0.0
 20
1.0
 30
0.0
  9
$PUCSORTHOREF
  2

  9
$PUCSORTHOVIEW
 70
     0
  9
$PUCSORGTOP
 10
0.0
 20
0.0
 30
0.0
  9
$PUCSORGBOTTOM
 10
0.0
 20
0.0
 30
0.0
  9
$PUCSORGLEFT
 10
0.0
 20
0.0
 30
0.0
  9
$PUCSORGRIGHT
 10
0.0
 20
0.0
 30
0.0
  9
$PUCSORGFRONT
 10
0.0
 20
0.0
 30
0.0
  9
$PUCSORGBACK
 10
0.0
 20
0.0
 30
0.0
  9
$USERI1
 70
     0
  9
$USERI2
 70
     0
  9
$USERI3
 70
     0
  9
$USERI4
 70
     0
  9
$USERI5
 70
     0
  9
$USERR1
 40
0.0
  9
$USERR2
 40
0.0
  9
$USERR3
 40
0.0
  9
$USERR4
 40
0.0
  9
$USERR5
 40
0.0
  9
$WORLDVIEW
 70
     1
  9
$SHADEDGE
 70
     3
  9
$SHADEDIF
 70
    70
  9
$TILEMODE
 70
     0
  9
$MAXACTVP
 70
    64
  9
$PINSBASE
 10
0.0
 20
0.0
 30
0.0
  9
$PLIMCHECK
 70
     0
  9
$PEXTMIN
 10
-4.391850629656119
 20
-3.455038652015446
 30
0.0
  9
$PEXTMAX
 10
278.8458837249377
 20
202.387980773708
 30
0.0
  9
$PLIMMIN
 10
-20.0
 20
-7.5
  9
$PLIMMAX
 10
277.0
 20
202.4999999999999
  9
$UNITMODE
 70
     0
  9
$VISRETAIN
 70
     1
  9
$PLINEGEN
 70
     0
  9
$PSLTSCALE
 70
     1
  9
$TREEDEPTH
 70
  3020
  9
$CMLSTYLE
  2
Standard
  9
$CMLJUST
 70
     0
  9
$CMLSCALE
 40
20.0
  9
$PROXYGRAPHICS
 70
     1
  9
$MEASUREMENT
 70
     1
  9
$CELWEIGHT
370
    -1
  9
$ENDCAPS
280
     0
  9
$JOINSTYLE
280
     0
  9
$LWDISPLAY
290
     0
  9
$INSUNITS
 70
     4
  9
$HYPERLINKBASE
  1

  9
$STYLESHEET
  1

  9
$XEDIT
290
     1
  9
$CEPSNTYPE
380
     0
  9
$PSTYLEMODE
290
     1
  9
$FINGERPRINTGUID
  2
{FF7F33C3-4233-11D6-AEE0-0000F45FD7F4}
  9
$VERSIONGUID
  2
{B55A5E2C-80FE-4FA8-AF1C-047CD202E0A3}
  9
$EXTNAMES
290
     1
  9
$PSVPSCALE
 40
0.0
  9
$OLESTARTUP
290
     0
  0
ENDSEC
  0
SECTION
  2
CLASSES
  0
CLASS
  1
ACDBDICTIONARYWDFLT
  2
AcDbDictionaryWithDefault
  3
AutoCAD 2000
 90
        0
280
     0
281
     0
  0
CLASS
  1
ACDBPLACEHOLDER
  2
AcDbPlaceHolder
  3
AutoCAD 2000
 90
        0
280
     0
281
     0
  0
CLASS
  1
LAYOUT
  2
AcDbLayout
  3
AutoCAD 2000
 90
        0
280
     0
281
     0
  0
CLASS
  1
DICTIONARYVAR
  2
AcDbDictionaryVar
  3
AutoCAD 2000
 90
        0
280
     0
281
     0
  0
ENDSEC
  0
SECTION
  2
TABLES
  0
TABLE
  2
VPORT
  5
8
330
0
100
AcDbSymbolTable
 70
     1
  0
VPORT
  5
6C7E
330
8
100
AcDbSymbolTableRecord
100
AcDbViewportTableRecord
  2
*Active
 70
     0
 10
0.0
 20
0.0
 11
1.0
 21
1.0
 12
388.0787532581922
 22
833.4015099596804
 13
0.0
 23
0.0
 14
5.0
 24
5.0
 15
10.0
 25
10.0
 16
0.0
 26
0.0
 36
1.0
 17
0.0
 27
0.0
 37
0.0
 40
714.064818623462
 41
2.138173302107728
 42
50.0
 43
0.0
 44
0.0
 50
0.0
 51
0.0
 71
     0
 72
   100
 73
     1
 74
     3
 75
     0
 76
     0
 77
     0
 78
     0
281
     0
 65
     1
110
0.0
120
0.0
130
0.0
111
1.0
121
0.0
131
0.0
112
0.0
122
1.0
132
0.0
 79
     0
146
0.0
  0
ENDTAB
  0
TABLE
  2
LTYPE
  5
5
330
0
100
AcDbSymbolTable
 70
     5
  0
LTYPE
  5
14
330
5
100
AcDbSymbolTableRecord
100
AcDbLinetypeTableRecord
  2
ByBlock
 70
     0
  3

 72
    65
 73
     0
 40
0.0
  0
LTYPE
  5
15
330
5
100
AcDbSymbolTableRecord
100
AcDbLinetypeTableRecord
  2
ByLayer
 70
     0
  3

 72
    65
 73
     0
 40
0.0
  0
LTYPE
  5
16
330
5
100
AcDbSymbolTableRecord
100
AcDbLinetypeTableRecord
  2
Continuous
 70
     0
  3
Solid line
 72
    65
 73
     0
 40
0.0
  0
LTYPE
  5
33
330
5
100
AcDbSymbolTableRecord
100
AcDbLinetypeTableRecord
  2
DASHED2
 70
     0
  3
Dashed (.5x) _ _ _ _ _ _ _ _ _ _ _ _ _ _ _ _ _
 72
    65
 73
     2
 40
9.524999999999998
 49
6.349999999999999
 74
     0
 49
-3.174999999999999
 74
     0
  0
LTYPE
  5
34
330
5
100
AcDbSymbolTableRecord
100
AcDbLinetypeTableRecord
  2
CENTER2
 70
     0
  3
Center (.5x) ___ _ ___ _ ___ _ ___ _ ___ _ ___
 72
    65
 73
     4
 40
28.57499999999999
 49
19.05
 74
     0
 49
-3.174999999999999
 74
     0
 49
3.174999999999999
 74
     0
 49
-3.174999999999999
 74
     0
  0
LTYPE
  5
35
330
5
100
AcDbSymbolTableRecord
100
AcDbLinetypeTableRecord
  2
PHANTOM2
 70
     0
  3
Phantom (.5x) ___ _ _ ___ _ _ ___ _ _ ___ _ _
 72
    65
 73
     6
 40
31.75
 49
15.875
 74
     0
 49
-3.174999999999999
 74
     0
 49
3.174999999999999
 74
     0
 49
-3.174999999999999
 74
     0
 49
3.174999999999999
 74
     0
 49
-3.174999999999999
 74
     0
  0
LTYPE
  5
36
330
5
100
AcDbSymbolTableRecord
100
AcDbLinetypeTableRecord
  2
HIDDEN2
 70
     0
  3
Hidden (.5x) _ _ _ _ _ _ _ _ _ _ _ _ _ _ _ _ _
 72
    65
 73
     2
 40
4.762499999999999
 49
3.174999999999999
 74
     0
 49
-1.587499999999999
 74
     0
  0
ENDTAB
  0
TABLE
  2
LAYER
  5
2
330
0
100
AcDbSymbolTable
 70
    13
  0
LAYER
  5
10
330
2
100
AcDbSymbolTableRecord
100
AcDbLayerTableRecord
  2
0
 70
     0
 62
     7
  6
Continuous
370
    -3
390
F
  0
LAYER
  5
40
330
2
100
AcDbSymbolTableRecord
100
AcDbLayerTableRecord
  2
50-0-CON
 70
     0
 62
     4
  6
Continuous
370
    50
390
F
  0
LAYER
  5
41
330
2
100
AcDbSymbolTableRecord
100
AcDbLayerTableRecord
  2
70-0-CON
 70
     0
 62
   202
  6
Continuous
370
    70
390
F
  0
LAYER
  5
4E
330
2
100
AcDbSymbolTableRecord
100
AcDbLayerTableRecord
  2
極太線
 70
     0
 62
     7
  6
Continuous
370
    70
390
F
  0
LAYER
  5
4F
330
2
100
AcDbSymbolTableRecord
100
AcDbLayerTableRecord
  2
細線
 70
     0
 62
     8
  6
Continuous
370
    18
390
F
  0
LAYER
  5
AB
330
2
100
AcDbSymbolTableRecord
100
AcDbLayerTableRecord
  2
構築線
 70
     0
 62
    -2
  6
Continuous
370
    18
390
F
  0
LAYER
  5
B8
330
2
100
AcDbSymbolTableRecord
100
AcDbLayerTableRecord
  2
太線
 70
     0
 62
     7
  6
Continuous
370
    35
390
F
  0
LAYER
  5
B9
330
2
100
AcDbSymbolTableRecord
100
AcDbLayerTableRecord
  2
寸法線
 70
     0
 62
     5
  6
Continuous
370
    18
390
F
  0
LAYER
  5
BA
330
2
100
AcDbSymbolTableRecord
100
AcDbLayerTableRecord
  2
破線
 70
     0
 62
     8
  6
HIDDEN2
370
    18
390
F
  0
LAYER
  5
BB
330
2
100
AcDbSymbolTableRecord
100
AcDbLayerTableRecord
  2
中心線
 70
     0
 62
     1
  6
CENTER2
370
    18
390
F
  0
LAYER
  5
BC
330
2
100
AcDbSymbolTableRecord
100
AcDbLayerTableRecord
  2
想像線
 70
     0
 62
     8
  6
PHANTOM2
370
    18
390
F
  0
LAYER
  5
BD
330
2
100
AcDbSymbolTableRecord
100
AcDbLayerTableRecord
  2
文字
 70
     0
 62
     7
  6
Continuous
370
    18
390
F
  0
LAYER
  5
180
330
2
100
AcDbSymbolTableRecord
100
AcDbLayerTableRecord
  2
Defpoints
 70
     0
 62
     7
  6
Continuous
290
     0
370
    -3
390
F
  0
ENDTAB
  0
TABLE
  2
STYLE
  5
3
330
0
100
AcDbSymbolTable
 70
     3
  0
STYLE
  5
11
330
3
100
AcDbSymbolTableRecord
100
AcDbTextStyleTableRecord
  2
Standard
 70
     0
 40
0.0
 41
1.0
 50
0.0
 71
     0
 42
3.0
  3
txt
  4

  0
STYLE
  5
32
330
3
100
AcDbSymbolTableRecord
100
AcDbTextStyleTableRecord
  2

 70
     1
 40
0.0
 41
1.0
 50
0.0
 71
     0
 42
2.5
  3
ltypeshp.shx
  4

  0
STYLE
  5
50
330
3
100
AcDbSymbolTableRecord
100
AcDbTextStyleTableRecord
  2
OKANO
 70
     0
 40
0.0
 41
1.0
 50
15.0
 71
     0
 42
5.0
  3
isocp.shx
  4
bigfont.shx
  0
ENDTAB
  0
TABLE
  2
VIEW
  5
6
330
0
100
AcDbSymbolTable
 70
     0
  0
ENDTAB
  0
TABLE
  2
UCS
  5
7
330
0
100
AcDbSymbolTable
 70
     0
  0
ENDTAB
  0
TABLE
  2
APPID
  5
9
330
0
100
AcDbSymbolTable
 70
     1
  0
APPID
  5
12
330
9
100
AcDbSymbolTableRecord
100
AcDbRegAppTableRecord
  2
ACAD
 70
     0
  0
ENDTAB
  0
TABLE
  2
DIMSTYLE
  5
A
330
0
100
AcDbSymbolTable
 70
     2
100
AcDbDimStyleTable
 71
     2
340
A2
340
27
  0
DIMSTYLE
105
27
330
A
100
AcDbSymbolTableRecord
100
AcDbDimStyleTableRecord
  2
ISO-25
 70
     0
 41
2.5
 42
0.625
 43
3.75
 44
1.25
 73
     0
 74
     0
 77
     1
 78
     8
140
2.5
141
2.5
143
0.03937007874016
147
0.625
171
     3
172
     1
271
     2
272
     2
274
     3
283
     0
284
     8
340
11
  0
DIMSTYLE
105
A2
102
{ACAD_REACTORS
330
5CED
330
5D96
330
5D95
330
5D94
330
5FD5
330
607E
330
6671
330
667F
330
680A
330
67FE
330
67F6
330
67F5
330
68A3
330
699F
330
69A5
330
69A6
330
69A7
330
69A8
330
69A9
330
69AA
330
69B0
330
69B1
330
69B2
330
6B2C
330
6B4D
102
}
330
A
100
AcDbSymbolTableRecord
100
AcDbDimStyleTableRecord
  2
sunpo
 70
     0
 40
0.0
 41
3.0
 42
2.0
 43
8.0
 44
3.0
 73
     0
 74
     0
 77
     1
 78
     8
140
5.0
141
2.5
143
0.03937007874016
147
1.0
171
     3
172
     1
271
     2
272
     2
274
     3
283
     0
284
     8
340
50
341
9B
342
9B
  0
ENDTAB
  0
TABLE
  2
BLOCK_RECORD
  5
1
330
0
100
AcDbSymbolTable
 70
    28
  0
BLOCK_RECORD
  5
1F
330
1
100
AcDbSymbolTableRecord
100
AcDbBlockTableRecord
  2
*Model_Space
340
22
  0
BLOCK_RECORD
  5
1B
330
1
100
AcDbSymbolTableRecord
100
AcDbBlockTableRecord
  2
*Paper_Space
340
1E
  0
BLOCK_RECORD
  5
9B
330
1
100
AcDbSymbolTableRecord
100
AcDbBlockTableRecord
  2
_Closed
340
0
102
{BLKREFS
331
5CF2
331
5CF3
331
5DD3
331
5DD4
331
5DDC
331
5DDD
331
5DE5
331
5DE6
331
6601
331
6602
331
6665
331
6666
331
6676
331
6677
331
687E
331
6884
331
6885
331
688D
331
688E
331
6896
331
6897
331
68B3
331
68B4
331
68CD
331
68CE
331
68E6
331
68E7
331
6AA7
331
6AA8
331
6AB0
331
6AB1
331
6AB9
331
6ABA
331
6AC2
331
6AC3
331
6ACB
331
6ACC
331
6AD4
331
6AD5
331
6ADD
331
6ADE
331
6AE5
331
6AEB
331
6AEC
331
6AF4
331
6AF5
331
6B40
331
6B41
331
6B61
331
6B62
102
}
  0
BLOCK_RECORD
  5
1510
330
1
100
AcDbSymbolTableRecord
100
AcDbBlockTableRecord
  2
A$C10A573AC
340
0
  0
BLOCK_RECORD
  5
5CEE
330
1
100
AcDbSymbolTableRecord
100
AcDbBlockTableRecord
  2
*D2
340
0
  0
BLOCK_RECORD
  5
5DAC
330
1
100
AcDbSymbolTableRecord
100
AcDbBlockTableRecord
  2
*D3
340
0
  0
BLOCK_RECORD
  5
5DB8
330
1
100
AcDbSymbolTableRecord
100
AcDbBlockTableRecord
  2
*D4
340
0
  0
BLOCK_RECORD
  5
5DC4
330
1
100
AcDbSymbolTableRecord
100
AcDbBlockTableRecord
  2
*D5
340
0
  0
BLOCK_RECORD
  5
600A
330
1
100
AcDbSymbolTableRecord
100
AcDbBlockTableRecord
  2
*D6
340
0
  0
BLOCK_RECORD
  5
607F
330
1
100
AcDbSymbolTableRecord
100
AcDbBlockTableRecord
  2
*D7
340
0
  0
BLOCK_RECORD
  5
6672
330
1
100
AcDbSymbolTableRecord
100
AcDbBlockTableRecord
  2
*D9
340
0
  0
BLOCK_RECORD
  5
6680
330
1
100
AcDbSymbolTableRecord
100
AcDbBlockTableRecord
  2
*D10
340
0
  0
BLOCK_RECORD
  5
680B
330
1
100
AcDbSymbolTableRecord
100
AcDbBlockTableRecord
  2
*D11
340
0
  0
BLOCK_RECORD
  5
6814
330
1
100
AcDbSymbolTableRecord
100
AcDbBlockTableRecord
  2
*D12
340
0
  0
BLOCK_RECORD
  5
6820
330
1
100
AcDbSymbolTableRecord
100
AcDbBlockTableRecord
  2
*D13
340
0
  0
BLOCK_RECORD
  5
682C
330
1
100
AcDbSymbolTableRecord
100
AcDbBlockTableRecord
  2
*D14
340
0
  0
BLOCK_RECORD
  5
68A4
330
1
100
AcDbSymbolTableRecord
100
AcDbBlockTableRecord
  2
*D15
340
0
  0
BLOCK_RECORD
  5
69DA
330
1
100
AcDbSymbolTableRecord
100
AcDbBlockTableRecord
  2
*D16
340
0
  0
BLOCK_RECORD
  5
69E6
330
1
100
AcDbSymbolTableRecord
100
AcDbBlockTableRecord
  2
*D17
340
0
  0
BLOCK_RECORD
  5
69F2
330
1
100
AcDbSymbolTableRecord
100
AcDbBlockTableRecord
  2
*D18
340
0
  0
BLOCK_RECORD
  5
69FA
330
1
100
AcDbSymbolTableRecord
100
AcDbBlockTableRecord
  2
*D19
340
0
  0
BLOCK_RECORD
  5
6A06
330
1
100
AcDbSymbolTableRecord
100
AcDbBlockTableRecord
  2
*D20
340
0
  0
BLOCK_RECORD
  5
6A12
330
1
100
AcDbSymbolTableRecord
100
AcDbBlockTableRecord
  2
*D21
340
0
  0
BLOCK_RECORD
  5
6A1E
330
1
100
AcDbSymbolTableRecord
100
AcDbBlockTableRecord
  2
*D22
340
0
  0
BLOCK_RECORD
  5
6A2A
330
1
100
AcDbSymbolTableRecord
100
AcDbBlockTableRecord
  2
*D23
340
0
  0
BLOCK_RECORD
  5
6A36
330
1
100
AcDbSymbolTableRecord
100
AcDbBlockTableRecord
  2
*D24
340
0
  0
BLOCK_RECORD
  5
6A42
330
1
100
AcDbSymbolTableRecord
100
AcDbBlockTableRecord
  2
*D25
340
0
  0
BLOCK_RECORD
  5
6B2D
330
1
100
AcDbSymbolTableRecord
100
AcDbBlockTableRecord
  2
*D26
340
0
  0
BLOCK_RECORD
  5
6B4E
330
1
100
AcDbSymbolTableRecord
100
AcDbBlockTableRecord
  2
*D27
340
0
  0
ENDTAB
  0
ENDSEC
  0
SECTION
  2
BLOCKS
  0
BLOCK
  5
20
330
1F
100
AcDbEntity
  8
0
100
AcDbBlockBegin
  2
*Model_Space
 70
     0
 10
0.0
 20
0.0
 30
0.0
  3
*Model_Space
  1

  0
ENDBLK
  5
21
330
1F
100
AcDbEntity
  8
0
100
AcDbBlockEnd
  0
BLOCK
  5
1C
330
1B
100
AcDbEntity
 67
     1
  8
0
100
AcDbBlockBegin
  2
*Paper_Space
 70
     0
 10
0.0
 20
0.0
 30
0.0
  3
*Paper_Space
  1

  0
ENDBLK
  5
1D
330
1B
100
AcDbEntity
 67
     1
  8
0
100
AcDbBlockEnd
  0
BLOCK
  5
A0
330
9B
100
AcDbEntity
  8
0
100
AcDbBlockBegin
  2
_Closed
 70
     0
 10
0.0
 20
0.0
 30
0.0
  3
_Closed
  1

  0
LINE
  5
9C
330
9B
100
AcDbEntity
  8
0
 62
     0
370
    -2
100
AcDbLine
 10
-1.0
 20
0.1666666666666666
 30
0.0
 11
0.0
 21
0.0
 31
0.0
  0
LINE
  5
9D
330
9B
100
AcDbEntity
  8
0
 62
     0
370
    -2
100
AcDbLine
 10
0.0
 20
0.0
 30
0.0
 11
-1.0
 21
-0.1666666666666666
 31
0.0
  0
LINE
  5
9E
330
9B
100
AcDbEntity
  8
0
 62
     0
370
    -2
100
AcDbLine
 10
-1.0
 20
0.1666666666666666
 30
0.0
 11
-1.0
 21
-0.1666666666666666
 31
0.0
  0
LINE
  5
9F
330
9B
100
AcDbEntity
  8
0
 62
     0
370
    -2
100
AcDbLine
 10
0.0
 20
0.0
 30
0.0
 11
-1.0
 21
0.0
 31
0.0
  0
ENDBLK
  5
A1
330
9B
100
AcDbEntity
  8
0
100
AcDbBlockEnd
  0
BLOCK
  5
155B
330
1510
100
AcDbEntity
  8
0
100
AcDbBlockBegin
  2
A$C10A573AC
 70
     0
 10
0.0
 20
0.0
 30
0.0
  3
A$C10A573AC
  1

  0
TEXT
  5
1511
330
1510
100
AcDbEntity
  8
文字
100
AcDbText
 10
0.9844302777919438
 20
5.224957122252135
 30
0.0
 40
3.0
  1
Materal : Steel.
 51
15.0
  7
OKANO
100
AcDbText
  0
TEXT
  5
1512
330
1510
100
AcDbEntity
  8
文字
100
AcDbText
 10
-0.1141909619694843
 20
0.7500001922403499
 30
0.0
 40
3.0
  1
Surface treatment : Electro galvanized.
 51
15.0
  7
OKANO
100
AcDbText
  0
TEXT
  5
1513
330
1510
100
AcDbEntity
  8
文字
100
AcDbText
 10
-0.4901926332574931
 20
9.159967445193728
 30
0.0
 40
3.0
  1
5 TORGUE SCREW  M5-6
 51
15.0
  7
OKANO
100
AcDbText
  0
TEXT
  5
1514
330
1510
100
AcDbEntity
  8
文字
100
AcDbText
 10
1.364713526390005
 20
78.88822913323082
 30
0.0
 40
3.0
  1
Special standard,
 51
15.0
  7
OKANO
100
AcDbText
  0
TEXT
  5
1515
330
1510
100
AcDbEntity
  8
文字
100
AcDbText
 10
92.88160823408942
 20
89.92753849837379
 30
0.0
 40
3.0
  1
Screw Type
 51
15.0
  7
OKANO
100
AcDbText
  0
LINE
  5
1516
330
1510
100
AcDbEntity
  8
太線
100
AcDbLine
 10
113.9464587597784
 20
81.93930390144641
 30
0.0
 11
112.4464587597784
 21
81.93930390144641
 31
0.0
  0
LINE
  5
1517
330
1510
100
AcDbEntity
  8
太線
100
AcDbLine
 10
112.4464587597784
 20
76.9393039014464
 30
0.0
 11
121.4644995438761
 21
76.9393039014464
 31
0.0
  0
TEXT
  5
1518
330
1510
100
AcDbEntity
  8
文字
100
AcDbText
 10
93.46068240437217
 20
77.96976862235396
 30
0.0
 40
2.0
  1
17-30
 51
15.0
  7
OKANO
100
AcDbText
  0
LINE
  5
1519
330
1510
100
AcDbEntity
  8
太線
100
AcDbLine
 10
111.9464587597784
 20
81.43930390144641
 30
0.0
 11
111.9464587597784
 21
77.4393039014464
 31
0.0
  0
LINE
  5
151A
330
1510
100
AcDbEntity
  8
太線
100
AcDbLine
 10
91.94645875977846
 20
81.43930390144641
 30
0.0
 11
91.94645875977846
 21
77.43930390144639
 31
0.0
  0
LINE
  5
151B
330
1510
100
AcDbEntity
  8
太線
100
AcDbLine
 10
101.9644995438761
 20
77.4393039014464
 30
0.0
 11
101.9644995438761
 21
81.43930390144641
 31
0.0
  0
LINE
  5
151C
330
1510
100
AcDbEntity
  8
太線
100
AcDbLine
 10
92.44645875977846
 20
76.9393039014464
 30
0.0
 11
101.4644995438761
 21
76.9393039014464
 31
0.0
  0
ARC
  5
151D
330
1510
100
AcDbEntity
  8
太線
100
AcDbCircle
 10
92.44645875977846
 20
77.43930390144639
 30
0.0
 40
0.5
100
AcDbArc
 50
180.0
 51
270.0
  0
ARC
  5
151E
330
1510
100
AcDbEntity
  8
太線
100
AcDbCircle
 10
101.4644995438761
 20
77.4393039014464
 30
0.0
 40
0.5
100
AcDbArc
 50
270.0
 51
0.0
  0
ARC
  5
151F
330
1510
100
AcDbEntity
  8
太線
100
AcDbCircle
 10
112.4464587597784
 20
77.4393039014464
 30
0.0
 40
0.5
100
AcDbArc
 50
180.0
 51
270.0
  0
LINE
  5
1520
330
1510
100
AcDbEntity
  8
想像線
100
AcDbLine
 10
93.94645875977847
 20
81.93930390144641
 30
0.0
 11
99.96449954387617
 21
81.93930390144641
 31
0.0
  0
LINE
  5
1521
330
1510
100
AcDbEntity
  8
極太線
100
AcDbLine
 10
96.38762957111168
 20
85.43930390144641
 30
0.0
 11
97.50528794844525
 21
85.43930390144641
 31
0.0
  0
CIRCLE
  5
1522
330
1510
100
AcDbEntity
  8
太線
100
AcDbCircle
 10
96.94645875977847
 20
85.43930390144641
 30
0.0
 40
0.5588291886667776
  0
LINE
  5
1523
330
1510
100
AcDbEntity
  8
太線
100
AcDbLine
 10
99.46449954387617
 20
86.93930390144641
 30
0.0
 11
94.44645875977846
 21
86.93930390144641
 31
0.0
  0
LINE
  5
1524
330
1510
100
AcDbEntity
  8
太線
100
AcDbLine
 10
93.94645875977847
 20
86.43930390144641
 30
0.0
 11
93.94645875977847
 21
81.93930390144641
 31
0.0
  0
ARC
  5
1525
330
1510
100
AcDbEntity
  8
太線
100
AcDbCircle
 10
92.44645875977846
 20
81.43930390144641
 30
0.0
 40
0.5
100
AcDbArc
 50
90.0
 51
180.0
  0
LINE
  5
1526
330
1510
100
AcDbEntity
  8
太線
100
AcDbLine
 10
93.94645875977847
 20
81.93930390144641
 30
0.0
 11
92.44645875977846
 21
81.93930390144641
 31
0.0
  0
ARC
  5
1527
330
1510
100
AcDbEntity
  8
太線
100
AcDbCircle
 10
94.44645875977846
 20
86.43930390144641
 30
0.0
 40
0.5
100
AcDbArc
 50
90.0
 51
180.0
  0
LINE
  5
1528
330
1510
100
AcDbEntity
  8
太線
100
AcDbLine
 10
99.96449954387617
 20
81.93930390144641
 30
0.0
 11
99.96449954387617
 21
86.43930390144641
 31
0.0
  0
LINE
  5
1529
330
1510
100
AcDbEntity
  8
太線
100
AcDbLine
 10
101.4644995438761
 20
81.93930390144641
 30
0.0
 11
99.96449954387617
 21
81.93930390144641
 31
0.0
  0
ARC
  5
152A
330
1510
100
AcDbEntity
  8
太線
100
AcDbCircle
 10
101.4644995438761
 20
81.43930390144641
 30
0.0
 40
0.5
100
AcDbArc
 50
0.0
 51
90.0
  0
ARC
  5
152B
330
1510
100
AcDbEntity
  8
太線
100
AcDbCircle
 10
99.46449954387617
 20
86.43930390144641
 30
0.0
 40
0.5
100
AcDbArc
 50
0.0
 51
90.0
  0
LINE
  5
152C
330
1510
100
AcDbEntity
  8
極太線
100
AcDbLine
 10
96.94645875977847
 20
85.99813309011318
 30
0.0
 11
96.94645875977847
 21
84.88047471277964
 31
0.0
  0
ARC
  5
152D
330
1510
100
AcDbEntity
  8
太線
100
AcDbCircle
 10
112.4464587597784
 20
81.43930390144641
 30
0.0
 40
0.5
100
AcDbArc
 50
90.0
 51
180.0
  0
TEXT
  5
152E
330
1510
100
AcDbEntity
  8
文字
100
AcDbText
 10
134.3819212586066
 20
78.16263579228063
 30
0.0
 40
2.0
  1
101
 51
15.0
  7
OKANO
100
AcDbText
  0
TEXT
  5
152F
330
1510
100
AcDbEntity
  8
文字
100
AcDbText
 10
113.3422276612066
 20
77.96976862235396
 30
0.0
 40
2.0
  1
38-83
 51
15.0
  7
OKANO
100
AcDbText
  0
LINE
  5
1530
330
1510
100
AcDbEntity
  8
太線
100
AcDbLine
 10
141.9825403279738
 20
77.4393039014464
 30
0.0
 11
141.9825403279738
 21
81.43930390144641
 31
0.0
  0
LINE
  5
1531
330
1510
100
AcDbEntity
  8
太線
100
AcDbLine
 10
131.9644995438761
 20
81.43930390144641
 30
0.0
 11
131.9644995438761
 21
77.4393039014464
 31
0.0
  0
LINE
  5
1532
330
1510
100
AcDbEntity
  8
太線
100
AcDbLine
 10
121.9644995438761
 20
77.4393039014464
 30
0.0
 11
121.9644995438761
 21
81.43930390144641
 31
0.0
  0
ARC
  5
1533
330
1510
100
AcDbEntity
  8
太線
100
AcDbCircle
 10
121.4644995438761
 20
77.4393039014464
 30
0.0
 40
0.5
100
AcDbArc
 50
270.0
 51
0.0
  0
LINE
  5
1534
330
1510
100
AcDbEntity
  8
太線
100
AcDbLine
 10
132.4644995438761
 20
76.9393039014464
 30
0.0
 11
141.4825403279738
 21
76.9393039014464
 31
0.0
  0
ARC
  5
1535
330
1510
100
AcDbEntity
  8
太線
100
AcDbCircle
 10
132.4644995438761
 20
77.4393039014464
 30
0.0
 40
0.5
100
AcDbArc
 50
180.0
 51
270.0
  0
ARC
  5
1536
330
1510
100
AcDbEntity
  8
太線
100
AcDbCircle
 10
141.4825403279738
 20
77.4393039014464
 30
0.0
 40
0.5
100
AcDbArc
 50
270.0
 51
0.0
  0
ARC
  5
1537
330
1510
100
AcDbEntity
  8
太線
100
AcDbCircle
 10
121.4644995438761
 20
81.43930390144641
 30
0.0
 40
0.5
100
AcDbArc
 50
0.0
 51
90.0
  0
LINE
  5
1538
330
1510
100
AcDbEntity
  8
太線
100
AcDbLine
 10
119.9644995438761
 20
81.93930390144641
 30
0.0
 11
119.9644995438761
 21
86.43930390144641
 31
0.0
  0
LINE
  5
1539
330
1510
100
AcDbEntity
  8
太線
100
AcDbLine
 10
113.9464587597784
 20
86.43930390144641
 30
0.0
 11
113.9464587597784
 21
81.93930390144641
 31
0.0
  0
LINE
  5
153A
330
1510
100
AcDbEntity
  8
想像線
100
AcDbLine
 10
113.9464587597784
 20
81.93930390144641
 30
0.0
 11
119.9644995438761
 21
81.93930390144641
 31
0.0
  0
LINE
  5
153B
330
1510
100
AcDbEntity
  8
太線
100
AcDbLine
 10
121.4644995438761
 20
81.93930390144641
 30
0.0
 11
119.9644995438761
 21
81.93930390144641
 31
0.0
  0
LINE
  5
153C
330
1510
100
AcDbEntity
  8
太線
100
AcDbLine
 10
119.4644995438761
 20
86.93930390144641
 30
0.0
 11
114.4464587597784
 21
86.93930390144641
 31
0.0
  0
ARC
  5
153D
330
1510
100
AcDbEntity
  8
太線
100
AcDbCircle
 10
114.4464587597784
 20
86.43930390144641
 30
0.0
 40
0.5
100
AcDbArc
 50
90.0
 51
180.0
  0
CIRCLE
  5
153E
330
1510
100
AcDbEntity
  8
太線
100
AcDbCircle
 10
115.4464587597784
 20
85.43930390144641
 30
0.0
 40
0.5588291886667776
  0
LINE
  5
153F
330
1510
100
AcDbEntity
  8
極太線
100
AcDbLine
 10
115.4464587597784
 20
85.99813309011318
 30
0.0
 11
115.4464587597784
 21
84.88047471277964
 31
0.0
  0
LINE
  5
1540
330
1510
100
AcDbEntity
  8
極太線
100
AcDbLine
 10
114.8876295711116
 20
85.43930390144641
 30
0.0
 11
116.0052879484452
 21
85.43930390144641
 31
0.0
  0
ARC
  5
1541
330
1510
100
AcDbEntity
  8
太線
100
AcDbCircle
 10
119.4644995438761
 20
86.43930390144641
 30
0.0
 40
0.5
100
AcDbArc
 50
0.0
 51
90.0
  0
LINE
  5
1542
330
1510
100
AcDbEntity
  8
極太線
100
AcDbLine
 10
117.9056703552094
 20
85.43930390144641
 30
0.0
 11
119.0233287325429
 21
85.43930390144641
 31
0.0
  0
LINE
  5
1543
330
1510
100
AcDbEntity
  8
極太線
100
AcDbLine
 10
118.4644995438761
 20
85.99813309011318
 30
0.0
 11
118.4644995438761
 21
84.88047471277964
 31
0.0
  0
CIRCLE
  5
1544
330
1510
100
AcDbEntity
  8
太線
100
AcDbCircle
 10
118.4644995438761
 20
85.43930390144641
 30
0.0
 40
0.5588291886667776
  0
LINE
  5
1545
330
1510
100
AcDbEntity
  8
想像線
100
AcDbLine
 10
133.9644995438761
 20
81.93930390144641
 30
0.0
 11
139.9825403279738
 21
81.93930390144641
 31
0.0
  0
LINE
  5
1546
330
1510
100
AcDbEntity
  8
極太線
100
AcDbLine
 10
137.9237111393071
 20
85.43930390144641
 30
0.0
 11
139.0413695166406
 21
85.43930390144641
 31
0.0
  0
CIRCLE
  5
1547
330
1510
100
AcDbEntity
  8
太線
100
AcDbCircle
 10
138.4825403279738
 20
85.43930390144641
 30
0.0
 40
0.5588291886667776
  0
CIRCLE
  5
1548
330
1510
100
AcDbEntity
  8
太線
100
AcDbCircle
 10
138.4825403279738
 20
83.26342923362075
 30
0.0
 40
0.5588291886667776
  0
LINE
  5
1549
330
1510
100
AcDbEntity
  8
極太線
100
AcDbLine
 10
137.9237111393071
 20
83.26342923362075
 30
0.0
 11
139.0413695166406
 21
83.26342923362075
 31
0.0
  0
LINE
  5
154A
330
1510
100
AcDbEntity
  8
太線
100
AcDbLine
 10
139.4825403279738
 20
86.93930390144641
 30
0.0
 11
134.4644995438761
 21
86.93930390144641
 31
0.0
  0
LINE
  5
154B
330
1510
100
AcDbEntity
  8
太線
100
AcDbLine
 10
133.9644995438761
 20
86.43930390144641
 30
0.0
 11
133.9644995438761
 21
81.93930390144641
 31
0.0
  0
ARC
  5
154C
330
1510
100
AcDbEntity
  8
太線
100
AcDbCircle
 10
132.4644995438761
 20
81.43930390144641
 30
0.0
 40
0.5
100
AcDbArc
 50
90.0
 51
180.0
  0
LINE
  5
154D
330
1510
100
AcDbEntity
  8
太線
100
AcDbLine
 10
133.9644995438761
 20
81.93930390144641
 30
0.0
 11
132.4644995438761
 21
81.93930390144641
 31
0.0
  0
LINE
  5
154E
330
1510
100
AcDbEntity
  8
極太線
100
AcDbLine
 10
134.9056703552093
 20
83.26342923362075
 30
0.0
 11
136.0233287325429
 21
83.26342923362075
 31
0.0
  0
LINE
  5
154F
330
1510
100
AcDbEntity
  8
極太線
100
AcDbLine
 10
135.4644995438761
 20
83.82225842228752
 30
0.0
 11
135.4644995438761
 21
82.70460004495395
 31
0.0
  0
CIRCLE
  5
1550
330
1510
100
AcDbEntity
  8
太線
100
AcDbCircle
 10
135.4644995438761
 20
83.26342923362075
 30
0.0
 40
0.5588291886667776
  0
ARC
  5
1551
330
1510
100
AcDbEntity
  8
太線
100
AcDbCircle
 10
134.4644995438761
 20
86.43930390144641
 30
0.0
 40
0.5
100
AcDbArc
 50
90.0
 51
180.0
  0
CIRCLE
  5
1552
330
1510
100
AcDbEntity
  8
太線
100
AcDbCircle
 10
135.4644995438761
 20
85.43930390144641
 30
0.0
 40
0.5588291886667776
  0
LINE
  5
1553
330
1510
100
AcDbEntity
  8
極太線
100
AcDbLine
 10
135.4644995438761
 20
85.99813309011318
 30
0.0
 11
135.4644995438761
 21
84.88047471277964
 31
0.0
  0
LINE
  5
1554
330
1510
100
AcDbEntity
  8
極太線
100
AcDbLine
 10
134.9056703552093
 20
85.43930390144641
 30
0.0
 11
136.0233287325429
 21
85.43930390144641
 31
0.0
  0
LINE
  5
1555
330
1510
100
AcDbEntity
  8
太線
100
AcDbLine
 10
139.9825403279738
 20
81.93930390144641
 30
0.0
 11
139.9825403279738
 21
86.43930390144641
 31
0.0
  0
ARC
  5
1556
330
1510
100
AcDbEntity
  8
太線
100
AcDbCircle
 10
141.4825403279738
 20
81.43930390144641
 30
0.0
 40
0.5
100
AcDbArc
 50
0.0
 51
90.0
  0
LINE
  5
1557
330
1510
100
AcDbEntity
  8
極太線
100
AcDbLine
 10
138.4825403279738
 20
83.82225842228752
 30
0.0
 11
138.4825403279738
 21
82.70460004495395
 31
0.0
  0
LINE
  5
1558
330
1510
100
AcDbEntity
  8
太線
100
AcDbLine
 10
141.4825403279738
 20
81.93930390144641
 30
0.0
 11
139.9825403279738
 21
81.93930390144641
 31
0.0
  0
ARC
  5
1559
330
1510
100
AcDbEntity
  8
太線
100
AcDbCircle
 10
139.4825403279738
 20
86.43930390144641
 30
0.0
 40
0.5
100
AcDbArc
 50
0.0
 51
90.0
  0
LINE
  5
155A
330
1510
100
AcDbEntity
  8
極太線
100
AcDbLine
 10
138.4825403279738
 20
85.99813309011318
 30
0.0
 11
138.4825403279738
 21
84.88047471277964
 31
0.0
  0
ENDBLK
  5
155C
330
1510
100
AcDbEntity
  8
0
100
AcDbBlockEnd
  0
BLOCK
  5
5CF8
330
5CEE
100
AcDbEntity
  8
0
100
AcDbBlockBegin
  2
*D2
 70
     1
 10
0.0
 20
0.0
 30
0.0
  3
*D2
  1

  0
LINE
  5
5CEF
330
5CEE
100
AcDbEntity
  8
寸法線
 62
     0
370
    -2
100
AcDbLine
 10
504.3007271552924
 20
913.3399995297425
 30
0.0
 11
504.3007271552924
 21
937.6990057828953
 31
0.0
  0
LINE
  5
5CF0
330
5CEE
100
AcDbEntity
  8
寸法線
 62
     0
370
    -2
100
AcDbLine
 10
549.3007271552924
 20
878.3399995297425
 30
0.0
 11
549.3007271552924
 21
937.6990057828953
 31
0.0
  0
LINE
  5
5CF1
330
5CEE
100
AcDbEntity
  8
寸法線
 62
     0
370
    -2
100
AcDbLine
 10
507.3007271552923
 20
934.6990057828952
 30
0.0
 11
546.3007271552924
 21
934.6990057828952
 31
0.0
  0
INSERT
  5
5CF2
330
5CEE
100
AcDbEntity
  8
寸法線
 62
     0
370
    -2
100
AcDbBlockReference
  2
_Closed
 10
504.3007271552924
 20
934.6990057828952
 30
0.0
 41
3.0
 42
3.0
 43
3.0
 50
180.0
  0
INSERT
  5
5CF3
330
5CEE
100
AcDbEntity
  8
寸法線
 62
     0
370
    -2
100
AcDbBlockReference
  2
_Closed
 10
549.3007271552924
 20
934.6990057828952
 30
0.0
 41
3.0
 42
3.0
 43
3.0
  0
MTEXT
  5
5CF4
330
5CEE
100
AcDbEntity
  8
寸法線
 62
     0
100
AcDbMText
 10
526.8007271552924
 20
938.1990057828952
 30
0.0
 40
5.0
 41
0.0
 71
     5
 72
     1
  1
45
  7
OKANO
 73
     1
 44
1.0
  0
POINT
  5
5CF5
330
5CEE
100
AcDbEntity
  8
Defpoints
 62
     0
100
AcDbPoint
 10
504.3007271552924
 20
911.3399995297426
 30
0.0
  0
POINT
  5
5CF6
330
5CEE
100
AcDbEntity
  8
Defpoints
 62
     0
100
AcDbPoint
 10
549.3007271552924
 20
876.3399995297424
 30
0.0
  0
POINT
  5
5CF7
330
5CEE
100
AcDbEntity
  8
Defpoints
 62
     0
100
AcDbPoint
 10
549.3007271552924
 20
934.6990057828952
 30
0.0
  0
ENDBLK
  5
5CF9
330
5CEE
100
AcDbEntity
  8
0
100
AcDbBlockEnd
  0
BLOCK
  5
5DB6
330
5DAC
100
AcDbEntity
  8
0
100
AcDbBlockBegin
  2
*D3
 70
     1
 10
0.0
 20
0.0
 30
0.0
  3
*D3
  1

  0
LINE
  5
5DD0
330
5DAC
100
AcDbEntity
  8
寸法線
 62
     0
370
    -2
100
AcDbLine
 10
460.3125459663808
 20
977.1263675188819
 30
0.0
 11
484.989258932696
 21
977.1263675188819
 31
0.0
  0
LINE
  5
5DD1
330
5DAC
100
AcDbEntity
  8
寸法線
 62
     0
370
    -2
100
AcDbLine
 10
462.8125459663809
 20
997.126367518882
 30
0.0
 11
484.989258932696
 21
997.126367518882
 31
0.0
  0
LINE
  5
5DD2
330
5DAC
100
AcDbEntity
  8
寸法線
 62
     0
370
    -2
100
AcDbLine
 10
481.9892589326959
 20
980.126367518882
 30
0.0
 11
481.9892589326959
 21
994.1263675188819
 31
0.0
  0
INSERT
  5
5DD3
330
5DAC
100
AcDbEntity
  8
寸法線
 62
     0
370
    -2
100
AcDbBlockReference
  2
_Closed
 10
481.9892589326959
 20
977.1263675188819
 30
0.0
 41
3.0
 42
3.0
 43
3.0
 50
270.0
  0
INSERT
  5
5DD4
330
5DAC
100
AcDbEntity
  8
寸法線
 62
     0
370
    -2
100
AcDbBlockReference
  2
_Closed
 10
481.9892589326959
 20
997.126367518882
 30
0.0
 41
3.0
 42
3.0
 43
3.0
 50
90.0
  0
MTEXT
  5
5DD5
330
5DAC
100
AcDbEntity
  8
寸法線
 62
     0
100
AcDbMText
 10
478.4887668067115
 20
987.1263675188821
 30
0.0
 40
5.0
 41
0.0
 71
     5
 72
     1
  1
20
  7
OKANO
 11
0.0000000000000001
 21
1.0
 31
0.0
 73
     1
 44
1.0
  0
POINT
  5
5DD6
330
5DAC
100
AcDbEntity
  8
Defpoints
 62
     0
100
AcDbPoint
 10
458.3125459663809
 20
977.1263675188819
 30
0.0
  0
POINT
  5
5DD7
330
5DAC
100
AcDbEntity
  8
Defpoints
 62
     0
100
AcDbPoint
 10
460.8125459663808
 20
997.126367518882
 30
0.0
  0
POINT
  5
5DD8
330
5DAC
100
AcDbEntity
  8
Defpoints
 62
     0
100
AcDbPoint
 10
481.9892589326959
 20
997.126367518882
 30
0.0
  0
ENDBLK
  5
5DB7
330
5DAC
100
AcDbEntity
  8
0
100
AcDbBlockEnd
  0
BLOCK
  5
5DC2
330
5DB8
100
AcDbEntity
  8
0
100
AcDbBlockBegin
  2
*D4
 70
     1
 10
0.0
 20
0.0
 30
0.0
  3
*D4
  1

  0
LINE
  5
5DD9
330
5DB8
100
AcDbEntity
  8
寸法線
 62
     0
370
    -2
100
AcDbLine
 10
393.3125459663808
 20
977.1263675188819
 30
0.0
 11
372.2622992226283
 21
977.1263675188819
 31
0.0
  0
LINE
  5
5DDA
330
5DB8
100
AcDbEntity
  8
寸法線
 62
     0
370
    -2
100
AcDbLine
 10
382.8125459663808
 20
962.1263675188821
 30
0.0
 11
372.2622992226283
 21
962.1263675188821
 31
0.0
  0
LINE
  5
5DDB
330
5DB8
100
AcDbEntity
  8
寸法線
 62
     0
370
    -2
100
AcDbLine
 10
375.2622992226283
 20
974.126367518882
 30
0.0
 11
375.2622992226283
 21
965.126367518882
 31
0.0
  0
INSERT
  5
5DDC
330
5DB8
100
AcDbEntity
  8
寸法線
 62
     0
370
    -2
100
AcDbBlockReference
  2
_Closed
 10
375.2622992226283
 20
977.1263675188819
 30
0.0
 41
3.0
 42
3.0
 43
3.0
 50
90.0
  0
INSERT
  5
5DDD
330
5DB8
100
AcDbEntity
  8
寸法線
 62
     0
370
    -2
100
AcDbBlockReference
  2
_Closed
 10
375.2622992226283
 20
962.1263675188821
 30
0.0
 41
3.0
 42
3.0
 43
3.0
 50
270.0
  0
MTEXT
  5
5DDE
330
5DB8
100
AcDbEntity
  8
寸法線
 62
     0
100
AcDbMText
 10
371.7622992226282
 20
969.6263675188822
 30
0.0
 40
5.0
 41
0.0
 71
     5
 72
     1
  1
15
  7
OKANO
 11
0.0000000000000001
 21
1.0
 31
0.0
 73
     1
 44
1.0
  0
POINT
  5
5DDF
330
5DB8
100
AcDbEntity
  8
Defpoints
 62
     0
100
AcDbPoint
 10
395.3125459663808
 20
977.1263675188819
 30
0.0
  0
POINT
  5
5DE0
330
5DB8
100
AcDbEntity
  8
Defpoints
 62
     0
100
AcDbPoint
 10
384.8125459663808
 20
962.1263675188821
 30
0.0
  0
POINT
  5
5DE1
330
5DB8
100
AcDbEntity
  8
Defpoints
 62
     0
100
AcDbPoint
 10
375.2622992226283
 20
962.1263675188821
 30
0.0
  0
ENDBLK
  5
5DC3
330
5DB8
100
AcDbEntity
  8
0
100
AcDbBlockEnd
  0
BLOCK
  5
5DCE
330
5DC4
100
AcDbEntity
  8
0
100
AcDbBlockBegin
  2
*D5
 70
     1
 10
0.0
 20
0.0
 30
0.0
  3
*D5
  1

  0
LINE
  5
5DE2
330
5DC4
100
AcDbEntity
  8
寸法線
 62
     0
370
    -2
100
AcDbLine
 10
382.8125459663808
 20
962.1263675188821
 30
0.0
 11
372.2622992226283
 21
962.1263675188821
 31
0.0
  0
LINE
  5
5DE3
330
5DC4
100
AcDbEntity
  8
寸法線
 62
     0
370
    -2
100
AcDbLine
 10
388.8805627299111
 20
954.1118724836065
 30
0.0
 11
372.2622992226283
 21
954.1118724836065
 31
0.0
  0
LINE
  5
5DE4
330
5DC4
100
AcDbEntity
  8
寸法線
 62
     0
370
    -2
100
AcDbLine
 10
375.2622992226283
 20
959.126367518882
 30
0.0
 11
375.2622992226283
 21
957.1118724836065
 31
0.0
  0
INSERT
  5
5DE5
330
5DC4
100
AcDbEntity
  8
寸法線
 62
     0
370
    -2
100
AcDbBlockReference
  2
_Closed
 10
375.2622992226283
 20
962.1263675188821
 30
0.0
 41
3.0
 42
3.0
 43
3.0
 50
90.0
  0
INSERT
  5
5DE6
330
5DC4
100
AcDbEntity
  8
寸法線
 62
     0
370
    -2
100
AcDbBlockReference
  2
_Closed
 10
375.2622992226283
 20
954.1118724836065
 30
0.0
 41
3.0
 42
3.0
 43
3.0
 50
270.0
  0
MTEXT
  5
5DE7
330
5DC4
100
AcDbEntity
  8
寸法線
 62
     0
100
AcDbMText
 10
371.7622992226282
 20
958.1191200012444
 30
0.0
 40
5.0
 41
0.0
 71
     5
 72
     1
  1
10
  7
OKANO
 11
0.0000000000000001
 21
1.0
 31
0.0
 73
     1
 44
1.0
  0
POINT
  5
5DE8
330
5DC4
100
AcDbEntity
  8
Defpoints
 62
     0
100
AcDbPoint
 10
384.8125459663808
 20
962.1263675188821
 30
0.0
  0
POINT
  5
5DE9
330
5DC4
100
AcDbEntity
  8
Defpoints
 62
     0
100
AcDbPoint
 10
390.8805627299111
 20
954.1118724836065
 30
0.0
  0
POINT
  5
5DEA
330
5DC4
100
AcDbEntity
  8
Defpoints
 62
     0
100
AcDbPoint
 10
375.2622992226283
 20
954.1118724836065
 30
0.0
  0
ENDBLK
  5
5DCF
330
5DC4
100
AcDbEntity
  8
0
100
AcDbBlockEnd
  0
BLOCK
  5
6014
330
600A
100
AcDbEntity
  8
0
100
AcDbBlockBegin
  2
*D6
 70
     1
 10
0.0
 20
0.0
 30
0.0
  3
*D6
  1

  0
LINE
  5
6662
330
600A
100
AcDbEntity
  8
寸法線
 62
     0
370
    -2
100
AcDbLine
 10
456.8853499343338
 20
785.8399995297424
 30
0.0
 11
456.8853499343338
 21
773.8874924159607
 31
0.0
  0
LINE
  5
6663
330
600A
100
AcDbEntity
  8
寸法線
 62
     0
370
    -2
100
AcDbLine
 10
398.8853499343338
 20
785.8399995297424
 30
0.0
 11
398.8853499343338
 21
773.8874924159607
 31
0.0
  0
LINE
  5
6664
330
600A
100
AcDbEntity
  8
寸法線
 62
     0
370
    -2
100
AcDbLine
 10
453.8853499343338
 20
776.8874924159607
 30
0.0
 11
401.8853499343338
 21
776.8874924159607
 31
0.0
  0
INSERT
  5
6665
330
600A
100
AcDbEntity
  8
寸法線
 62
     0
370
    -2
100
AcDbBlockReference
  2
_Closed
 10
456.8853499343338
 20
776.8874924159607
 30
0.0
 41
3.0
 42
3.0
 43
3.0
  0
INSERT
  5
6666
330
600A
100
AcDbEntity
  8
寸法線
 62
     0
370
    -2
100
AcDbBlockReference
  2
_Closed
 10
398.8853499343338
 20
776.8874924159607
 30
0.0
 41
3.0
 42
3.0
 43
3.0
 50
180.0
  0
MTEXT
  5
6667
330
600A
100
AcDbEntity
  8
寸法線
 62
     0
100
AcDbMText
 10
427.8853499343338
 20
780.3874924159607
 30
0.0
 40
5.0
 41
0.0
 71
     5
 72
     1
  1
60
  7
OKANO
 73
     1
 44
1.0
  0
POINT
  5
6668
330
600A
100
AcDbEntity
  8
Defpoints
 62
     0
100
AcDbPoint
 10
456.8853499343338
 20
787.8399995297423
 30
0.0
  0
POINT
  5
6669
330
600A
100
AcDbEntity
  8
Defpoints
 62
     0
100
AcDbPoint
 10
398.8853499343338
 20
787.8399995297423
 30
0.0
  0
POINT
  5
666A
330
600A
100
AcDbEntity
  8
Defpoints
 62
     0
100
AcDbPoint
 10
398.8853499343338
 20
776.8874924159607
 30
0.0
  0
ENDBLK
  5
6015
330
600A
100
AcDbEntity
  8
0
100
AcDbBlockEnd
  0
BLOCK
  5
6089
330
607F
100
AcDbEntity
  8
0
100
AcDbBlockBegin
  2
*D7
 70
     1
 10
0.0
 20
0.0
 30
0.0
  3
*D7
  1

  0
LINE
  5
68E3
330
607F
100
AcDbEntity
  8
寸法線
 62
     0
370
    -2
100
AcDbLine
 10
533.9578255208325
 20
909.7427318164555
 30
0.0
 11
533.9578255208325
 21
925.7284611452584
 31
0.0
  0
LINE
  5
68E4
330
607F
100
AcDbEntity
  8
寸法線
 62
     0
370
    -2
100
AcDbLine
 10
549.861848514236
 20
877.9726111791678
 30
0.0
 11
549.861848514236
 21
925.7284611452584
 31
0.0
  0
LINE
  5
68E5
330
607F
100
AcDbEntity
  8
寸法線
 62
     0
370
    -2
100
AcDbLine
 10
536.9578255208325
 20
922.7284611452583
 30
0.0
 11
546.861848514236
 21
922.7284611452583
 31
0.0
  0
INSERT
  5
68E6
330
607F
100
AcDbEntity
  8
寸法線
 62
     0
370
    -2
100
AcDbBlockReference
  2
_Closed
 10
533.9578255208325
 20
922.7284611452583
 30
0.0
 41
3.0
 42
3.0
 43
3.0
 50
180.0
  0
INSERT
  5
68E7
330
607F
100
AcDbEntity
  8
寸法線
 62
     0
370
    -2
100
AcDbBlockReference
  2
_Closed
 10
549.861848514236
 20
922.7284611452583
 30
0.0
 41
3.0
 42
3.0
 43
3.0
  0
MTEXT
  5
68E8
330
607F
100
AcDbEntity
  8
寸法線
 62
     0
100
AcDbMText
 10
541.9098370175342
 20
926.2284611452583
 30
0.0
 40
5.0
 41
0.0
 71
     5
 72
     1
  1
15
  7
OKANO
 73
     1
 44
1.0
  0
POINT
  5
68E9
330
607F
100
AcDbEntity
  8
Defpoints
 62
     0
100
AcDbPoint
 10
533.9578255208325
 20
907.7427318164554
 30
0.0
  0
POINT
  5
68EA
330
607F
100
AcDbEntity
  8
Defpoints
 62
     0
100
AcDbPoint
 10
549.861848514236
 20
875.9726111791678
 30
0.0
  0
POINT
  5
68EB
330
607F
100
AcDbEntity
  8
Defpoints
 62
     0
100
AcDbPoint
 10
549.861848514236
 20
922.7284611452583
 30
0.0
  0
ENDBLK
  5
608A
330
607F
100
AcDbEntity
  8
0
100
AcDbBlockEnd
  0
BLOCK
  5
667C
330
6672
100
AcDbEntity
  8
0
100
AcDbBlockBegin
  2
*D9
 70
     1
 10
0.0
 20
0.0
 30
0.0
  3
*D9
  1

  0
LINE
  5
6673
330
6672
100
AcDbEntity
  8
寸法線
 62
     0
370
    -2
100
AcDbLine
 10
536.3007271552923
 20
908.3399995297424
 30
0.0
 11
581.5608055471675
 21
908.3399995297424
 31
0.0
  0
LINE
  5
6674
330
6672
100
AcDbEntity
  8
寸法線
 62
     0
370
    -2
100
AcDbLine
 10
551.3735311232453
 20
862.3399995297424
 30
0.0
 11
581.5608055471675
 21
862.3399995297424
 31
0.0
  0
LINE
  5
6675
330
6672
100
AcDbEntity
  8
寸法線
 62
     0
370
    -2
100
AcDbLine
 10
578.5608055471676
 20
905.3399995297425
 30
0.0
 11
578.5608055471676
 21
865.3399995297423
 31
0.0
  0
INSERT
  5
6676
330
6672
100
AcDbEntity
  8
寸法線
 62
     0
370
    -2
100
AcDbBlockReference
  2
_Closed
 10
578.5608055471676
 20
908.3399995297424
 30
0.0
 41
3.0
 42
3.0
 43
3.0
 50
90.0
  0
INSERT
  5
6677
330
6672
100
AcDbEntity
  8
寸法線
 62
     0
370
    -2
100
AcDbBlockReference
  2
_Closed
 10
578.5608055471676
 20
862.3399995297424
 30
0.0
 41
3.0
 42
3.0
 43
3.0
 50
270.0
  0
MTEXT
  5
6678
330
6672
100
AcDbEntity
  8
寸法線
 62
     0
100
AcDbMText
 10
575.0608055471673
 20
885.3399995297424
 30
0.0
 40
5.0
 41
0.0
 71
     5
 72
     1
  1
46
  7
OKANO
 11
0.0000000000000001
 21
1.0
 31
0.0
 73
     1
 44
1.0
  0
POINT
  5
6679
330
6672
100
AcDbEntity
  8
Defpoints
 62
     0
100
AcDbPoint
 10
534.3007271552924
 20
908.3399995297424
 30
0.0
  0
POINT
  5
667A
330
6672
100
AcDbEntity
  8
Defpoints
 62
     0
100
AcDbPoint
 10
549.3735311232454
 20
862.3399995297424
 30
0.0
  0
POINT
  5
667B
330
6672
100
AcDbEntity
  8
Defpoints
 62
     0
100
AcDbPoint
 10
578.5608055471676
 20
862.3399995297424
 30
0.0
  0
ENDBLK
  5
667D
330
6672
100
AcDbEntity
  8
0
100
AcDbBlockEnd
  0
BLOCK
  5
668A
330
6680
100
AcDbEntity
  8
0
100
AcDbBlockBegin
  2
*D10
 70
     1
 10
0.0
 20
0.0
 30
0.0
  3
*D10
  1

  0
LINE
  5
68CA
330
6680
100
AcDbEntity
  8
寸法線
 62
     0
370
    -2
100
AcDbLine
 10
212.2295522808142
 20
918.3399995297424
 30
0.0
 11
175.1760962329572
 21
918.3399995297424
 31
0.0
  0
LINE
  5
68CB
330
6680
100
AcDbEntity
  8
寸法線
 62
     0
370
    -2
100
AcDbLine
 10
216.0153586143665
 20
787.8172268051712
 30
0.0
 11
175.1760962329572
 21
787.8172268051712
 31
0.0
  0
LINE
  5
68CC
330
6680
100
AcDbEntity
  8
寸法線
 62
     0
370
    -2
100
AcDbLine
 10
178.1760962329572
 20
915.3399995297423
 30
0.0
 11
178.1760962329571
 21
790.8172268051712
 31
0.0
  0
INSERT
  5
68CD
330
6680
100
AcDbEntity
  8
寸法線
 62
     0
370
    -2
100
AcDbBlockReference
  2
_Closed
 10
178.1760962329572
 20
918.3399995297424
 30
0.0
 41
3.0
 42
3.0
 43
3.0
 50
90.0
  0
INSERT
  5
68CE
330
6680
100
AcDbEntity
  8
寸法線
 62
     0
370
    -2
100
AcDbBlockReference
  2
_Closed
 10
178.1760962329571
 20
787.8172268051712
 30
0.0
 41
3.0
 42
3.0
 43
3.0
 50
270.0
  0
MTEXT
  5
68CF
330
6680
100
AcDbEntity
  8
寸法線
 62
     0
100
AcDbMText
 10
174.6756041069728
 20
853.0786131674567
 30
0.0
 40
5.0
 41
0.0
 71
     5
 72
     1
  1
125
  7
OKANO
 11
0.0000000000000001
 21
1.0
 31
0.0
 73
     1
 44
1.0
  0
POINT
  5
68D0
330
6680
100
AcDbEntity
  8
Defpoints
 62
     0
100
AcDbPoint
 10
214.2295522808142
 20
918.3399995297424
 30
0.0
  0
POINT
  5
68D1
330
6680
100
AcDbEntity
  8
Defpoints
 62
     0
100
AcDbPoint
 10
218.0153586143665
 20
787.8172268051712
 30
0.0
  0
POINT
  5
68D2
330
6680
100
AcDbEntity
  8
Defpoints
 62
     0
100
AcDbPoint
 10
178.1760962329571
 20
787.8172268051712
 30
0.0
  0
ENDBLK
  5
668B
330
6680
100
AcDbEntity
  8
0
100
AcDbBlockEnd
  0
BLOCK
  5
6812
330
680B
100
AcDbEntity
  8
0
100
AcDbBlockBegin
  2
*D11
 70
     1
 10
0.0
 20
0.0
 30
0.0
  3
*D11
  1

  0
LINE
  5
687B
330
680B
100
AcDbEntity
  8
寸法線
 62
     0
370
    -2
100
AcDbLine
 10
192.8613751334104
 20
1007.142459405368
 30
0.0
 11
204.2684744766539
 21
995.9864635525532
 31
0.0
  0
MTEXT
  5
687C
330
680B
100
AcDbEntity
  8
寸法線
 62
     0
100
AcDbMText
 10
199.4704307226474
 20
1005.574459810327
 30
0.0
 40
5.0
 41
0.0
 71
     5
 72
     1
  1
R10
  7
OKANO
 11
0.7149318630504612
 21
-0.6991941298346239
 31
0.0
 73
     1
 44
1.0
  0
LINE
  5
687D
330
680B
100
AcDbEntity
  8
寸法線
 62
     0
370
    -2
100
AcDbLine
 10
213.5625886963101
 20
986.8969398647028
 30
0.0
 11
206.4132700658053
 21
993.8888811630492
 31
0.0
  0
INSERT
  5
687E
330
680B
100
AcDbEntity
  8
寸法線
 62
     0
370
    -2
100
AcDbBlockReference
  2
_Closed
 10
206.4132700658053
 20
993.8888811630492
 30
0.0
 41
3.0
 42
3.0
 43
3.0
 50
315.6376153703531
  0
POINT
  5
687F
330
680B
100
AcDbEntity
  8
Defpoints
 62
     0
100
AcDbPoint
 10
206.4132700658053
 20
993.8888811630492
 30
0.0
  0
POINT
  5
6880
330
680B
100
AcDbEntity
  8
Defpoints
 62
     0
100
AcDbPoint
 10
213.5625886963101
 20
986.8969398647028
 30
0.0
  0
ENDBLK
  5
6813
330
680B
100
AcDbEntity
  8
0
100
AcDbBlockEnd
  0
BLOCK
  5
681E
330
6814
100
AcDbEntity
  8
0
100
AcDbBlockBegin
  2
*D12
 70
     1
 10
0.0
 20
0.0
 30
0.0
  3
*D12
  1

  0
LINE
  5
6881
330
6814
100
AcDbEntity
  8
寸法線
 62
     0
370
    -2
100
AcDbLine
 10
223.5625886963098
 20
974.8969398647023
 30
0.0
 11
223.5625886963098
 21
956.2455327450933
 31
0.0
  0
LINE
  5
6882
330
6814
100
AcDbEntity
  8
寸法線
 62
     0
370
    -2
100
AcDbLine
 10
209.5625886963098
 20
974.8969398647023
 30
0.0
 11
209.5625886963098
 21
956.2455327450933
 31
0.0
  0
LINE
  5
6883
330
6814
100
AcDbEntity
  8
寸法線
 62
     0
370
    -2
100
AcDbLine
 10
220.5625886963098
 20
959.2455327450934
 30
0.0
 11
212.5625886963098
 21
959.2455327450934
 31
0.0
  0
INSERT
  5
6884
330
6814
100
AcDbEntity
  8
寸法線
 62
     0
370
    -2
100
AcDbBlockReference
  2
_Closed
 10
223.5625886963098
 20
959.2455327450934
 30
0.0
 41
3.0
 42
3.0
 43
3.0
  0
INSERT
  5
6885
330
6814
100
AcDbEntity
  8
寸法線
 62
     0
370
    -2
100
AcDbBlockReference
  2
_Closed
 10
209.5625886963098
 20
959.2455327450934
 30
0.0
 41
3.0
 42
3.0
 43
3.0
 50
180.0
  0
MTEXT
  5
6886
330
6814
100
AcDbEntity
  8
寸法線
 62
     0
100
AcDbMText
 10
216.5625886963098
 20
962.7455327450935
 30
0.0
 40
5.0
 41
0.0
 71
     5
 72
     1
  1
14
  7
OKANO
 73
     1
 44
1.0
  0
POINT
  5
6887
330
6814
100
AcDbEntity
  8
Defpoints
 62
     0
100
AcDbPoint
 10
223.5625886963098
 20
976.8969398647023
 30
0.0
  0
POINT
  5
6888
330
6814
100
AcDbEntity
  8
Defpoints
 62
     0
100
AcDbPoint
 10
209.5625886963098
 20
976.8969398647023
 30
0.0
  0
POINT
  5
6889
330
6814
100
AcDbEntity
  8
Defpoints
 62
     0
100
AcDbPoint
 10
209.5625886963098
 20
959.2455327450934
 30
0.0
  0
ENDBLK
  5
681F
330
6814
100
AcDbEntity
  8
0
100
AcDbBlockEnd
  0
BLOCK
  5
682A
330
6820
100
AcDbEntity
  8
0
100
AcDbBlockBegin
  2
*D13
 70
     1
 10
0.0
 20
0.0
 30
0.0
  3
*D13
  1

  0
LINE
  5
688A
330
6820
100
AcDbEntity
  8
寸法線
 62
     0
370
    -2
100
AcDbLine
 10
281.5625886963099
 20
956.8969398647023
 30
0.0
 11
306.427968159609
 21
956.8969398647023
 31
0.0
  0
LINE
  5
688B
330
6820
100
AcDbEntity
  8
寸法線
 62
     0
370
    -2
100
AcDbLine
 10
291.5625886963099
 20
976.2572805114913
 30
0.0
 11
306.427968159609
 21
976.2572805114913
 31
0.0
  0
LINE
  5
688C
330
6820
100
AcDbEntity
  8
寸法線
 62
     0
370
    -2
100
AcDbLine
 10
303.4279681596089
 20
959.8969398647023
 30
0.0
 11
303.4279681596089
 21
973.2572805114914
 31
0.0
  0
INSERT
  5
688D
330
6820
100
AcDbEntity
  8
寸法線
 62
     0
370
    -2
100
AcDbBlockReference
  2
_Closed
 10
303.4279681596089
 20
956.8969398647023
 30
0.0
 41
3.0
 42
3.0
 43
3.0
 50
270.0
  0
INSERT
  5
688E
330
6820
100
AcDbEntity
  8
寸法線
 62
     0
370
    -2
100
AcDbBlockReference
  2
_Closed
 10
303.4279681596089
 20
976.2572805114913
 30
0.0
 41
3.0
 42
3.0
 43
3.0
 50
90.0
  0
MTEXT
  5
688F
330
6820
100
AcDbEntity
  8
寸法線
 62
     0
100
AcDbMText
 10
299.9274760336246
 20
966.577110188097
 30
0.0
 40
5.0
 41
0.0
 71
     5
 72
     1
  1
20
  7
OKANO
 11
0.0000000000000001
 21
1.0
 31
0.0
 73
     1
 44
1.0
  0
POINT
  5
6890
330
6820
100
AcDbEntity
  8
Defpoints
 62
     0
100
AcDbPoint
 10
279.5625886963099
 20
956.8969398647023
 30
0.0
  0
POINT
  5
6891
330
6820
100
AcDbEntity
  8
Defpoints
 62
     0
100
AcDbPoint
 10
289.5625886963099
 20
976.2572805114913
 30
0.0
  0
POINT
  5
6892
330
6820
100
AcDbEntity
  8
Defpoints
 62
     0
100
AcDbPoint
 10
303.4279681596089
 20
976.2572805114913
 30
0.0
  0
ENDBLK
  5
682B
330
6820
100
AcDbEntity
  8
0
100
AcDbBlockEnd
  0
BLOCK
  5
6836
330
682C
100
AcDbEntity
  8
0
100
AcDbBlockBegin
  2
*D14
 70
     1
 10
0.0
 20
0.0
 30
0.0
  3
*D14
  1

  0
LINE
  5
6893
330
682C
100
AcDbEntity
  8
寸法線
 62
     0
370
    -2
100
AcDbLine
 10
291.5625886963099
 20
976.2572805114913
 30
0.0
 11
306.427968159609
 21
976.2572805114913
 31
0.0
  0
LINE
  5
6894
330
682C
100
AcDbEntity
  8
寸法線
 62
     0
370
    -2
100
AcDbLine
 10
281.5625886963099
 20
996.8969398647031
 30
0.0
 11
306.427968159609
 21
996.8969398647031
 31
0.0
  0
LINE
  5
6895
330
682C
100
AcDbEntity
  8
寸法線
 62
     0
370
    -2
100
AcDbLine
 10
303.4279681596089
 20
979.2572805114915
 30
0.0
 11
303.4279681596089
 21
993.8969398647031
 31
0.0
  0
INSERT
  5
6896
330
682C
100
AcDbEntity
  8
寸法線
 62
     0
370
    -2
100
AcDbBlockReference
  2
_Closed
 10
303.4279681596089
 20
976.2572805114913
 30
0.0
 41
3.0
 42
3.0
 43
3.0
 50
270.0
  0
INSERT
  5
6897
330
682C
100
AcDbEntity
  8
寸法線
 62
     0
370
    -2
100
AcDbBlockReference
  2
_Closed
 10
303.4279681596089
 20
996.8969398647031
 30
0.0
 41
3.0
 42
3.0
 43
3.0
 50
90.0
  0
MTEXT
  5
6898
330
682C
100
AcDbEntity
  8
寸法線
 62
     0
100
AcDbMText
 10
299.9274760336246
 20
986.5771101880975
 30
0.0
 40
5.0
 41
0.0
 71
     5
 72
     1
  1
20
  7
OKANO
 11
0.0000000000000001
 21
1.0
 31
0.0
 73
     1
 44
1.0
  0
POINT
  5
6899
330
682C
100
AcDbEntity
  8
Defpoints
 62
     0
100
AcDbPoint
 10
289.5625886963099
 20
976.2572805114913
 30
0.0
  0
POINT
  5
689A
330
682C
100
AcDbEntity
  8
Defpoints
 62
     0
100
AcDbPoint
 10
279.5625886963099
 20
996.8969398647031
 30
0.0
  0
POINT
  5
689B
330
682C
100
AcDbEntity
  8
Defpoints
 62
     0
100
AcDbPoint
 10
303.4279681596089
 20
996.8969398647031
 30
0.0
  0
ENDBLK
  5
6837
330
682C
100
AcDbEntity
  8
0
100
AcDbBlockEnd
  0
BLOCK
  5
68AE
330
68A4
100
AcDbEntity
  8
0
100
AcDbBlockBegin
  2
*D15
 70
     1
 10
0.0
 20
0.0
 30
0.0
  3
*D15
  1

  0
LINE
  5
68B0
330
68A4
100
AcDbEntity
  8
寸法線
 62
     0
370
    -2
100
AcDbLine
 10
530.3735311232453
 20
828.8005477775802
 30
0.0
 11
555.6327468061353
 21
828.8005477775802
 31
0.0
  0
LINE
  5
68B1
330
68A4
100
AcDbEntity
  8
寸法線
 62
     0
370
    -2
100
AcDbLine
 10
530.3735311232453
 20
788.441020044176
 30
0.0
 11
555.6327468061353
 21
788.441020044176
 31
0.0
  0
LINE
  5
68B2
330
68A4
100
AcDbEntity
  8
寸法線
 62
     0
370
    -2
100
AcDbLine
 10
552.6327468061354
 20
825.8005477775803
 30
0.0
 11
552.6327468061354
 21
791.4410200441761
 31
0.0
  0
INSERT
  5
68B3
330
68A4
100
AcDbEntity
  8
寸法線
 62
     0
370
    -2
100
AcDbBlockReference
  2
_Closed
 10
552.6327468061354
 20
828.8005477775802
 30
0.0
 41
3.0
 42
3.0
 43
3.0
 50
90.0
  0
INSERT
  5
68B4
330
68A4
100
AcDbEntity
  8
寸法線
 62
     0
370
    -2
100
AcDbBlockReference
  2
_Closed
 10
552.6327468061354
 20
788.441020044176
 30
0.0
 41
3.0
 42
3.0
 43
3.0
 50
270.0
  0
MTEXT
  5
68B5
330
68A4
100
AcDbEntity
  8
寸法線
 62
     0
100
AcDbMText
 10
549.1327468061351
 20
808.6207839108784
 30
0.0
 40
5.0
 41
0.0
 71
     5
 72
     1
  1
40
  7
OKANO
 11
0.0000000000000001
 21
1.0
 31
0.0
 73
     1
 44
1.0
  0
POINT
  5
68B6
330
68A4
100
AcDbEntity
  8
Defpoints
 62
     0
100
AcDbPoint
 10
528.3735311232454
 20
828.8005477775802
 30
0.0
  0
POINT
  5
68B7
330
68A4
100
AcDbEntity
  8
Defpoints
 62
     0
100
AcDbPoint
 10
528.3735311232454
 20
788.441020044176
 30
0.0
  0
POINT
  5
68B8
330
68A4
100
AcDbEntity
  8
Defpoints
 62
     0
100
AcDbPoint
 10
552.6327468061354
 20
788.441020044176
 30
0.0
  0
ENDBLK
  5
68AF
330
68A4
100
AcDbEntity
  8
0
100
AcDbBlockEnd
  0
BLOCK
  5
69E4
330
69DA
100
AcDbEntity
  8
0
100
AcDbBlockBegin
  2
*D16
 70
     1
 10
0.0
 20
0.0
 30
0.0
  3
*D16
  1

  0
LINE
  5
6AF1
330
69DA
100
AcDbEntity
  8
寸法線
 62
     0
370
    -2
100
AcDbLine
 10
511.7392912252391
 20
700.8985795282117
 30
0.0
 11
511.7392912252391
 21
684.0162025725003
 31
0.0
  0
LINE
  5
6AF2
330
69DA
100
AcDbEntity
  8
寸法線
 62
     0
370
    -2
100
AcDbLine
 10
536.7392912252391
 20
700.8985795282117
 30
0.0
 11
536.7392912252391
 21
684.0162025725003
 31
0.0
  0
LINE
  5
6AF3
330
69DA
100
AcDbEntity
  8
寸法線
 62
     0
370
    -2
100
AcDbLine
 10
514.7392912252391
 20
687.0162025725003
 30
0.0
 11
533.7392912252392
 21
687.0162025725003
 31
0.0
  0
INSERT
  5
6AF4
330
69DA
100
AcDbEntity
  8
寸法線
 62
     0
370
    -2
100
AcDbBlockReference
  2
_Closed
 10
511.7392912252391
 20
687.0162025725003
 30
0.0
 41
3.0
 42
3.0
 43
3.0
 50
180.0
  0
INSERT
  5
6AF5
330
69DA
100
AcDbEntity
  8
寸法線
 62
     0
370
    -2
100
AcDbBlockReference
  2
_Closed
 10
536.7392912252391
 20
687.0162025725003
 30
0.0
 41
3.0
 42
3.0
 43
3.0
  0
MTEXT
  5
6AF6
330
69DA
100
AcDbEntity
  8
寸法線
 62
     0
100
AcDbMText
 10
524.2392912252391
 20
690.5166946984845
 30
0.0
 40
5.0
 41
0.0
 71
     5
 72
     1
  1
25
  7
OKANO
 73
     1
 44
1.0
  0
POINT
  5
6AF7
330
69DA
100
AcDbEntity
  8
Defpoints
 62
     0
100
AcDbPoint
 10
511.7392912252391
 20
702.8985795282117
 30
0.0
  0
POINT
  5
6AF8
330
69DA
100
AcDbEntity
  8
Defpoints
 62
     0
100
AcDbPoint
 10
536.7392912252391
 20
702.8985795282117
 30
0.0
  0
POINT
  5
6AF9
330
69DA
100
AcDbEntity
  8
Defpoints
 62
     0
100
AcDbPoint
 10
536.7392912252391
 20
687.0162025725003
 30
0.0
  0
ENDBLK
  5
69E5
330
69DA
100
AcDbEntity
  8
0
100
AcDbBlockEnd
  0
BLOCK
  5
69F0
330
69E6
100
AcDbEntity
  8
0
100
AcDbBlockBegin
  2
*D17
 70
     1
 10
0.0
 20
0.0
 30
0.0
  3
*D17
  1

  0
LINE
  5
6AE8
330
69E6
100
AcDbEntity
  8
寸法線
 62
     0
370
    -2
100
AcDbLine
 10
201.5625886963098
 20
690.3985795282117
 30
0.0
 11
188.8695743653508
 21
690.3985795282117
 31
0.0
  0
LINE
  5
6AE9
330
69E6
100
AcDbEntity
  8
寸法線
 62
     0
370
    -2
100
AcDbLine
 10
201.5625886963098
 20
715.3985795282117
 30
0.0
 11
188.8695743653508
 21
715.3985795282117
 31
0.0
  0
LINE
  5
6AEA
330
69E6
100
AcDbEntity
  8
寸法線
 62
     0
370
    -2
100
AcDbLine
 10
191.8695743653508
 20
693.3985795282117
 30
0.0
 11
191.8695743653509
 21
712.3985795282116
 31
0.0
  0
INSERT
  5
6AEB
330
69E6
100
AcDbEntity
  8
寸法線
 62
     0
370
    -2
100
AcDbBlockReference
  2
_Closed
 10
191.8695743653508
 20
690.3985795282117
 30
0.0
 41
3.0
 42
3.0
 43
3.0
 50
270.0
  0
INSERT
  5
6AEC
330
69E6
100
AcDbEntity
  8
寸法線
 62
     0
370
    -2
100
AcDbBlockReference
  2
_Closed
 10
191.8695743653509
 20
715.3985795282117
 30
0.0
 41
3.0
 42
3.0
 43
3.0
 50
90.0
  0
MTEXT
  5
6AED
330
69E6
100
AcDbEntity
  8
寸法線
 62
     0
100
AcDbMText
 10
188.3690822393665
 20
702.8985795282117
 30
0.0
 40
5.0
 41
0.0
 71
     5
 72
     1
  1
25
  7
OKANO
 11
0.0000000000000001
 21
1.0
 31
0.0
 73
     1
 44
1.0
  0
POINT
  5
6AEE
330
69E6
100
AcDbEntity
  8
Defpoints
 62
     0
100
AcDbPoint
 10
203.5625886963098
 20
690.3985795282117
 30
0.0
  0
POINT
  5
6AEF
330
69E6
100
AcDbEntity
  8
Defpoints
 62
     0
100
AcDbPoint
 10
203.5625886963098
 20
715.3985795282117
 30
0.0
  0
POINT
  5
6AF0
330
69E6
100
AcDbEntity
  8
Defpoints
 62
     0
100
AcDbPoint
 10
191.8695743653509
 20
715.3985795282117
 30
0.0
  0
ENDBLK
  5
69F1
330
69E6
100
AcDbEntity
  8
0
100
AcDbBlockEnd
  0
BLOCK
  5
69F8
330
69F2
100
AcDbEntity
  8
0
100
AcDbBlockBegin
  2
*D18
 70
     1
 10
0.0
 20
0.0
 30
0.0
  3
*D18
  1

  0
LINE
  5
6AE3
330
69F2
100
AcDbEntity
  8
寸法線
 62
     0
370
    -2
100
AcDbLine
 10
427.5650156378354
 20
736.0047633143266
 30
0.0
 11
412.4279941094409
 21
722.0606344686076
 31
0.0
  0
MTEXT
  5
6AE4
330
69F2
100
AcDbEntity
  8
寸法線
 62
     0
100
AcDbMText
 10
420.0611317314467
 20
733.8516121240671
 30
0.0
 40
5.0
 41
0.0
 71
     5
 72
     1
  1
24.5
  7
OKANO
 11
0.7354934010610281
 21
0.6775318863313237
 31
0.0
 73
     1
 44
1.0
  0
INSERT
  5
6AE5
330
69F2
100
AcDbEntity
  8
寸法線
 62
     0
370
    -2
100
AcDbBlockReference
  2
_Closed
 10
410.2215139062578
 20
720.0280388096136
 30
0.0
 41
3.0
 42
3.0
 43
3.0
 50
222.6510756946228
  0
POINT
  5
6AE6
330
69F2
100
AcDbEntity
  8
Defpoints
 62
     0
100
AcDbPoint
 10
410.2215139062578
 20
720.0280388096136
 30
0.0
  0
POINT
  5
6AE7
330
69F2
100
AcDbEntity
  8
Defpoints
 62
     0
100
AcDbPoint
 10
427.3435777730949
 20
735.8007761487224
 30
0.0
  0
ENDBLK
  5
69F9
330
69F2
100
AcDbEntity
  8
0
100
AcDbBlockEnd
  0
BLOCK
  5
6A04
330
69FA
100
AcDbEntity
  8
0
100
AcDbBlockBegin
  2
*D19
 70
     1
 10
0.0
 20
0.0
 30
0.0
  3
*D19
  1

  0
LINE
  5
6ADA
330
69FA
100
AcDbEntity
  8
寸法線
 62
     0
370
    -2
100
AcDbLine
 10
429.6999593845969
 20
712.7220407880959
 30
0.0
 11
485.938914703641
 21
712.7220407880959
 31
0.0
  0
LINE
  5
6ADB
330
69FA
100
AcDbEntity
  8
寸法線
 62
     0
370
    -2
100
AcDbLine
 10
472.4649218037948
 20
703.0576795931067
 30
0.0
 11
485.938914703641
 21
703.0576795931067
 31
0.0
  0
LINE
  5
6ADC
330
69FA
100
AcDbEntity
  8
寸法線
 62
     0
370
    -2
100
AcDbLine
 10
482.9389147036411
 20
709.7220407880959
 30
0.0
 11
482.9389147036411
 21
706.0576795931067
 31
0.0
  0
INSERT
  5
6ADD
330
69FA
100
AcDbEntity
  8
寸法線
 62
     0
370
    -2
100
AcDbBlockReference
  2
_Closed
 10
482.9389147036411
 20
712.7220407880959
 30
0.0
 41
3.0
 42
3.0
 43
3.0
 50
90.0
  0
INSERT
  5
6ADE
330
69FA
100
AcDbEntity
  8
寸法線
 62
     0
370
    -2
100
AcDbBlockReference
  2
_Closed
 10
482.9389147036411
 20
703.0576795931067
 30
0.0
 41
3.0
 42
3.0
 43
3.0
 50
270.0
  0
MTEXT
  5
6ADF
330
69FA
100
AcDbEntity
  8
寸法線
 62
     0
100
AcDbMText
 10
479.438914703641
 20
707.8898601906014
 30
0.0
 40
5.0
 41
0.0
 71
     5
 72
     1
  1
10
  7
OKANO
 11
0.0000000000000001
 21
1.0
 31
0.0
 73
     1
 44
1.0
  0
POINT
  5
6AE0
330
69FA
100
AcDbEntity
  8
Defpoints
 62
     0
100
AcDbPoint
 10
427.6999593845969
 20
712.7220407880959
 30
0.0
  0
POINT
  5
6AE1
330
69FA
100
AcDbEntity
  8
Defpoints
 62
     0
100
AcDbPoint
 10
470.4649218037949
 20
703.0576795931067
 30
0.0
  0
POINT
  5
6AE2
330
69FA
100
AcDbEntity
  8
Defpoints
 62
     0
100
AcDbPoint
 10
482.9389147036411
 20
703.0576795931067
 30
0.0
  0
ENDBLK
  5
6A05
330
69FA
100
AcDbEntity
  8
0
100
AcDbBlockEnd
  0
BLOCK
  5
6A10
330
6A06
100
AcDbEntity
  8
0
100
AcDbBlockBegin
  2
*D20
 70
     1
 10
0.0
 20
0.0
 30
0.0
  3
*D20
  1

  0
LINE
  5
6AD1
330
6A06
100
AcDbEntity
  8
寸法線
 62
     0
370
    -2
100
AcDbLine
 10
382.4655095033709
 20
702.739742521183
 30
0.0
 11
366.3815540974894
 21
702.739742521183
 31
0.0
  0
LINE
  5
6AD2
330
6A06
100
AcDbEntity
  8
寸法線
 62
     0
370
    -2
100
AcDbLine
 10
402.3864736696157
 20
724.1552673102679
 30
0.0
 11
366.3815540974894
 21
724.1552673102679
 31
0.0
  0
LINE
  5
6AD3
330
6A06
100
AcDbEntity
  8
寸法線
 62
     0
370
    -2
100
AcDbLine
 10
369.3815540974894
 20
705.739742521183
 30
0.0
 11
369.3815540974894
 21
721.1552673102679
 31
0.0
  0
INSERT
  5
6AD4
330
6A06
100
AcDbEntity
  8
寸法線
 62
     0
370
    -2
100
AcDbBlockReference
  2
_Closed
 10
369.3815540974894
 20
702.739742521183
 30
0.0
 41
3.0
 42
3.0
 43
3.0
 50
270.0
  0
INSERT
  5
6AD5
330
6A06
100
AcDbEntity
  8
寸法線
 62
     0
370
    -2
100
AcDbBlockReference
  2
_Closed
 10
369.3815540974894
 20
724.1552673102679
 30
0.0
 41
3.0
 42
3.0
 43
3.0
 50
90.0
  0
MTEXT
  5
6AD6
330
6A06
100
AcDbEntity
  8
寸法線
 62
     0
100
AcDbMText
 10
365.8810619715051
 20
713.4475049157256
 30
0.0
 40
5.0
 41
0.0
 71
     5
 72
     1
  1
21
  7
OKANO
 11
0.0000000000000001
 21
1.0
 31
0.0
 73
     1
 44
1.0
  0
POINT
  5
6AD7
330
6A06
100
AcDbEntity
  8
Defpoints
 62
     0
100
AcDbPoint
 10
384.4655095033709
 20
702.739742521183
 30
0.0
  0
POINT
  5
6AD8
330
6A06
100
AcDbEntity
  8
Defpoints
 62
     0
100
AcDbPoint
 10
404.3864736696157
 20
724.1552673102679
 30
0.0
  0
POINT
  5
6AD9
330
6A06
100
AcDbEntity
  8
Defpoints
 62
     0
100
AcDbPoint
 10
369.3815540974894
 20
724.1552673102679
 30
0.0
  0
ENDBLK
  5
6A11
330
6A06
100
AcDbEntity
  8
0
100
AcDbBlockEnd
  0
BLOCK
  5
6A1C
330
6A12
100
AcDbEntity
  8
0
100
AcDbBlockBegin
  2
*D21
 70
     1
 10
0.0
 20
0.0
 30
0.0
  3
*D21
  1

  0
LINE
  5
6AC8
330
6A12
100
AcDbEntity
  8
寸法線
 62
     0
370
    -2
100
AcDbLine
 10
384.4655095033709
 20
700.7397425211831
 30
0.0
 11
384.4655095033709
 21
675.7077073676628
 31
0.0
  0
LINE
  5
6AC9
330
6A12
100
AcDbEntity
  8
寸法線
 62
     0
370
    -2
100
AcDbLine
 10
470.4649218037949
 20
701.0576795931067
 30
0.0
 11
470.4649218037949
 21
675.7077073676628
 31
0.0
  0
LINE
  5
6ACA
330
6A12
100
AcDbEntity
  8
寸法線
 62
     0
370
    -2
100
AcDbLine
 10
387.4655095033709
 20
678.7077073676628
 30
0.0
 11
467.4649218037949
 21
678.7077073676628
 31
0.0
  0
INSERT
  5
6ACB
330
6A12
100
AcDbEntity
  8
寸法線
 62
     0
370
    -2
100
AcDbBlockReference
  2
_Closed
 10
384.4655095033709
 20
678.7077073676628
 30
0.0
 41
3.0
 42
3.0
 43
3.0
 50
180.0
  0
INSERT
  5
6ACC
330
6A12
100
AcDbEntity
  8
寸法線
 62
     0
370
    -2
100
AcDbBlockReference
  2
_Closed
 10
470.4649218037949
 20
678.7077073676628
 30
0.0
 41
3.0
 42
3.0
 43
3.0
  0
MTEXT
  5
6ACD
330
6A12
100
AcDbEntity
  8
寸法線
 62
     0
100
AcDbMText
 10
427.4652156535829
 20
682.2077073676628
 30
0.0
 40
5.0
 41
0.0
 71
     5
 72
     1
  1
86
  7
OKANO
 73
     1
 44
1.0
  0
POINT
  5
6ACE
330
6A12
100
AcDbEntity
  8
Defpoints
 62
     0
100
AcDbPoint
 10
384.4655095033709
 20
702.739742521183
 30
0.0
  0
POINT
  5
6ACF
330
6A12
100
AcDbEntity
  8
Defpoints
 62
     0
100
AcDbPoint
 10
470.4649218037949
 20
703.0576795931067
 30
0.0
  0
POINT
  5
6AD0
330
6A12
100
AcDbEntity
  8
Defpoints
 62
     0
100
AcDbPoint
 10
470.4649218037949
 20
678.7077073676628
 30
0.0
  0
ENDBLK
  5
6A1D
330
6A12
100
AcDbEntity
  8
0
100
AcDbBlockEnd
  0
BLOCK
  5
6A28
330
6A1E
100
AcDbEntity
  8
0
100
AcDbBlockBegin
  2
*D22
 70
     1
 10
0.0
 20
0.0
 30
0.0
  3
*D22
  1

  0
LINE
  5
6ABF
330
6A1E
100
AcDbEntity
  8
寸法線
 62
     0
370
    -2
100
AcDbLine
 10
535.2392552847028
 20
702.8985795282117
 30
0.0
 11
570.4732419671192
 21
702.8985795282117
 31
0.0
  0
LINE
  5
6AC0
330
6A1E
100
AcDbEntity
  8
寸法線
 62
     0
370
    -2
100
AcDbLine
 10
533.7392552847028
 20
723.8985795282117
 30
0.0
 11
570.4732419671192
 21
723.8985795282117
 31
0.0
  0
LINE
  5
6AC1
330
6A1E
100
AcDbEntity
  8
寸法線
 62
     0
370
    -2
100
AcDbLine
 10
567.4732419671193
 20
705.8985795282117
 30
0.0
 11
567.4732419671193
 21
720.8985795282117
 31
0.0
  0
INSERT
  5
6AC2
330
6A1E
100
AcDbEntity
  8
寸法線
 62
     0
370
    -2
100
AcDbBlockReference
  2
_Closed
 10
567.4732419671193
 20
702.8985795282117
 30
0.0
 41
3.0
 42
3.0
 43
3.0
 50
270.0
  0
INSERT
  5
6AC3
330
6A1E
100
AcDbEntity
  8
寸法線
 62
     0
370
    -2
100
AcDbBlockReference
  2
_Closed
 10
567.4732419671193
 20
723.8985795282117
 30
0.0
 41
3.0
 42
3.0
 43
3.0
 50
90.0
  0
MTEXT
  5
6AC4
330
6A1E
100
AcDbEntity
  8
寸法線
 62
     0
100
AcDbMText
 10
563.9727498411349
 20
713.3985795282118
 30
0.0
 40
5.0
 41
0.0
 71
     5
 72
     1
  1
21
  7
OKANO
 11
0.0000000000000001
 21
1.0
 31
0.0
 73
     1
 44
1.0
  0
POINT
  5
6AC5
330
6A1E
100
AcDbEntity
  8
Defpoints
 62
     0
100
AcDbPoint
 10
533.2392552847028
 20
702.8985795282117
 30
0.0
  0
POINT
  5
6AC6
330
6A1E
100
AcDbEntity
  8
Defpoints
 62
     0
100
AcDbPoint
 10
531.7392552847028
 20
723.8985795282117
 30
0.0
  0
POINT
  5
6AC7
330
6A1E
100
AcDbEntity
  8
Defpoints
 62
     0
100
AcDbPoint
 10
567.4732419671193
 20
723.8985795282117
 30
0.0
  0
ENDBLK
  5
6A29
330
6A1E
100
AcDbEntity
  8
0
100
AcDbBlockEnd
  0
BLOCK
  5
6A34
330
6A2A
100
AcDbEntity
  8
0
100
AcDbBlockBegin
  2
*D23
 70
     1
 10
0.0
 20
0.0
 30
0.0
  3
*D23
  1

  0
LINE
  5
6AB6
330
6A2A
100
AcDbEntity
  8
寸法線
 62
     0
370
    -2
100
AcDbLine
 10
277.5625886963098
 20
698.3985795282117
 30
0.0
 11
313.5361743187402
 21
698.3985795282117
 31
0.0
  0
LINE
  5
6AB7
330
6A2A
100
AcDbEntity
  8
寸法線
 62
     0
370
    -2
100
AcDbLine
 10
277.5625886963098
 20
707.3985795282117
 30
0.0
 11
313.5361743187402
 21
707.3985795282117
 31
0.0
  0
LINE
  5
6AB8
330
6A2A
100
AcDbEntity
  8
寸法線
 62
     0
370
    -2
100
AcDbLine
 10
310.5361743187402
 20
701.3985795282117
 30
0.0
 11
310.5361743187402
 21
704.3985795282117
 31
0.0
  0
INSERT
  5
6AB9
330
6A2A
100
AcDbEntity
  8
寸法線
 62
     0
370
    -2
100
AcDbBlockReference
  2
_Closed
 10
310.5361743187402
 20
698.3985795282117
 30
0.0
 41
3.0
 42
3.0
 43
3.0
 50
270.0
  0
INSERT
  5
6ABA
330
6A2A
100
AcDbEntity
  8
寸法線
 62
     0
370
    -2
100
AcDbBlockReference
  2
_Closed
 10
310.5361743187402
 20
707.3985795282117
 30
0.0
 41
3.0
 42
3.0
 43
3.0
 50
90.0
  0
MTEXT
  5
6ABB
330
6A2A
100
AcDbEntity
  8
寸法線
 62
     0
100
AcDbMText
 10
307.0361743187401
 20
702.8985795282117
 30
0.0
 40
5.0
 41
0.0
 71
     5
 72
     1
  1
9
  7
OKANO
 11
0.0000000000000001
 21
1.0
 31
0.0
 73
     1
 44
1.0
  0
POINT
  5
6ABC
330
6A2A
100
AcDbEntity
  8
Defpoints
 62
     0
100
AcDbPoint
 10
275.5625886963098
 20
698.3985795282117
 30
0.0
  0
POINT
  5
6ABD
330
6A2A
100
AcDbEntity
  8
Defpoints
 62
     0
100
AcDbPoint
 10
275.5625886963098
 20
707.3985795282117
 30
0.0
  0
POINT
  5
6ABE
330
6A2A
100
AcDbEntity
  8
Defpoints
 62
     0
100
AcDbPoint
 10
310.5361743187402
 20
707.3985795282117
 30
0.0
  0
ENDBLK
  5
6A35
330
6A2A
100
AcDbEntity
  8
0
100
AcDbBlockEnd
  0
BLOCK
  5
6A40
330
6A36
100
AcDbEntity
  8
0
100
AcDbBlockBegin
  2
*D24
 70
     1
 10
0.0
 20
0.0
 30
0.0
  3
*D24
  1

  0
LINE
  5
6AAD
330
6A36
100
AcDbEntity
  8
寸法線
 62
     0
370
    -2
100
AcDbLine
 10
224.5625886963098
 20
700.8985795282117
 30
0.0
 11
224.5625886963098
 21
679.2471724086019
 31
0.0
  0
LINE
  5
6AAE
330
6A36
100
AcDbEntity
  8
寸法線
 62
     0
370
    -2
100
AcDbLine
 10
210.5625886963098
 20
700.8985795282117
 30
0.0
 11
210.5625886963098
 21
679.2471724086019
 31
0.0
  0
LINE
  5
6AAF
330
6A36
100
AcDbEntity
  8
寸法線
 62
     0
370
    -2
100
AcDbLine
 10
221.5625886963098
 20
682.2471724086019
 30
0.0
 11
213.5625886963098
 21
682.2471724086019
 31
0.0
  0
INSERT
  5
6AB0
330
6A36
100
AcDbEntity
  8
寸法線
 62
     0
370
    -2
100
AcDbBlockReference
  2
_Closed
 10
224.5625886963098
 20
682.2471724086019
 30
0.0
 41
3.0
 42
3.0
 43
3.0
  0
INSERT
  5
6AB1
330
6A36
100
AcDbEntity
  8
寸法線
 62
     0
370
    -2
100
AcDbBlockReference
  2
_Closed
 10
210.5625886963098
 20
682.2471724086019
 30
0.0
 41
3.0
 42
3.0
 43
3.0
 50
180.0
  0
MTEXT
  5
6AB2
330
6A36
100
AcDbEntity
  8
寸法線
 62
     0
100
AcDbMText
 10
217.5625886963098
 20
685.7471724086019
 30
0.0
 40
5.0
 41
0.0
 71
     5
 72
     1
  1
14
  7
OKANO
 73
     1
 44
1.0
  0
POINT
  5
6AB3
330
6A36
100
AcDbEntity
  8
Defpoints
 62
     0
100
AcDbPoint
 10
224.5625886963098
 20
702.8985795282117
 30
0.0
  0
POINT
  5
6AB4
330
6A36
100
AcDbEntity
  8
Defpoints
 62
     0
100
AcDbPoint
 10
210.5625886963098
 20
702.8985795282117
 30
0.0
  0
POINT
  5
6AB5
330
6A36
100
AcDbEntity
  8
Defpoints
 62
     0
100
AcDbPoint
 10
210.5625886963098
 20
682.2471724086019
 30
0.0
  0
ENDBLK
  5
6A41
330
6A36
100
AcDbEntity
  8
0
100
AcDbBlockEnd
  0
BLOCK
  5
6A4C
330
6A42
100
AcDbEntity
  8
0
100
AcDbBlockBegin
  2
*D25
 70
     1
 10
0.0
 20
0.0
 30
0.0
  3
*D25
  1

  0
LINE
  5
6AA4
330
6A42
100
AcDbEntity
  8
寸法線
 62
     0
370
    -2
100
AcDbLine
 10
217.5625886963098
 20
714.8985795282117
 30
0.0
 11
217.5625886963098
 21
729.1752869754675
 31
0.0
  0
LINE
  5
6AA5
330
6A42
100
AcDbEntity
  8
寸法線
 62
     0
370
    -2
100
AcDbLine
 10
275.5478939618035
 20
706.1249974416583
 30
0.0
 11
275.5478939618035
 21
729.1752869754675
 31
0.0
  0
LINE
  5
6AA6
330
6A42
100
AcDbEntity
  8
寸法線
 62
     0
370
    -2
100
AcDbLine
 10
220.5625886963098
 20
726.1752869754675
 30
0.0
 11
272.5478939618035
 21
726.1752869754675
 31
0.0
  0
INSERT
  5
6AA7
330
6A42
100
AcDbEntity
  8
寸法線
 62
     0
370
    -2
100
AcDbBlockReference
  2
_Closed
 10
217.5625886963098
 20
726.1752869754675
 30
0.0
 41
3.0
 42
3.0
 43
3.0
 50
180.0
  0
INSERT
  5
6AA8
330
6A42
100
AcDbEntity
  8
寸法線
 62
     0
370
    -2
100
AcDbBlockReference
  2
_Closed
 10
275.5478939618035
 20
726.1752869754675
 30
0.0
 41
3.0
 42
3.0
 43
3.0
  0
MTEXT
  5
6AA9
330
6A42
100
AcDbEntity
  8
寸法線
 62
     0
100
AcDbMText
 10
246.5552413290566
 20
732.1752869754675
 30
0.0
 40
10.0
 41
0.0
 71
     5
 72
     1
  1
60
  7
OKANO
 73
     1
 44
1.0
  0
POINT
  5
6AAA
330
6A42
100
AcDbEntity
  8
Defpoints
 62
     0
100
AcDbPoint
 10
217.5625886963098
 20
712.8985795282117
 30
0.0
  0
POINT
  5
6AAB
330
6A42
100
AcDbEntity
  8
Defpoints
 62
     0
100
AcDbPoint
 10
275.5478939618035
 20
704.1249974416583
 30
0.0
  0
POINT
  5
6AAC
330
6A42
100
AcDbEntity
  8
Defpoints
 62
     0
100
AcDbPoint
 10
275.5478939618035
 20
726.1752869754675
 30
0.0
  0
ENDBLK
  5
6A4D
330
6A42
100
AcDbEntity
  8
0
100
AcDbBlockEnd
  0
BLOCK
  5
6B39
330
6B2D
100
AcDbEntity
  8
0
100
AcDbBlockBegin
  2
*D26
 70
     1
 10
0.0
 20
0.0
 30
0.0
  3
*D26
  1

  0
LINE
  5
6B3B
330
6B2D
100
AcDbEntity
  8
寸法線
 62
     0
370
    -2
100
AcDbLine
 10
533.7392552847028
 20
725.8985795282117
 30
0.0
 11
533.7392552847028
 21
740.247048097517
 31
0.0
  0
LINE
  5
6B3C
330
6B2D
100
AcDbEntity
  8
寸法線
 62
     0
370
    -2
100
AcDbLine
 10
535.7392912252391
 20
724.8985795282116
 30
0.0
 11
535.7392912252391
 21
740.247048097517
 31
0.0
  0
LINE
  5
6B3D
330
6B2D
100
AcDbEntity
  8
寸法線
 62
     0
370
    -2
100
AcDbLine
 10
530.7392552847028
 20
737.2470480975171
 30
0.0
 11
527.7392552847028
 21
737.2470480975171
 31
0.0
  0
LINE
  5
6B3E
330
6B2D
100
AcDbEntity
  8
寸法線
 62
     0
370
    -2
100
AcDbLine
 10
538.7392912252392
 20
737.2470480975171
 30
0.0
 11
549.7572404176703
 21
737.2470480975171
 31
0.0
  0
LINE
  5
6B3F
330
6B2D
100
AcDbEntity
  8
寸法線
 62
     0
370
    -2
100
AcDbLine
 10
533.7392552847028
 20
737.2470480975171
 30
0.0
 11
535.7392912252391
 21
737.2470480975171
 31
0.0
  0
INSERT
  5
6B40
330
6B2D
100
AcDbEntity
  8
寸法線
 62
     0
370
    -2
100
AcDbBlockReference
  2
_Closed
 10
533.7392552847028
 20
737.2470480975171
 30
0.0
 41
3.0
 42
3.0
 43
3.0
  0
INSERT
  5
6B41
330
6B2D
100
AcDbEntity
  8
寸法線
 62
     0
370
    -2
100
AcDbBlockReference
  2
_Closed
 10
535.7392912252391
 20
737.2470480975171
 30
0.0
 41
3.0
 42
3.0
 43
3.0
 50
180.0
  0
MTEXT
  5
6B42
330
6B2D
100
AcDbEntity
  8
寸法線
 62
     0
100
AcDbMText
 10
545.7482658214547
 20
740.747048097517
 30
0.0
 40
5.0
 41
0.0
 71
     5
 72
     1
  1
1.5
  7
OKANO
 73
     1
 44
1.0
  0
POINT
  5
6B43
330
6B2D
100
AcDbEntity
  8
Defpoints
 62
     0
100
AcDbPoint
 10
533.7392552847028
 20
723.8985795282117
 30
0.0
  0
POINT
  5
6B44
330
6B2D
100
AcDbEntity
  8
Defpoints
 62
     0
100
AcDbPoint
 10
535.7392912252391
 20
722.8985795282117
 30
0.0
  0
POINT
  5
6B45
330
6B2D
100
AcDbEntity
  8
Defpoints
 62
     0
100
AcDbPoint
 10
535.7392912252391
 20
737.2470480975171
 30
0.0
  0
ENDBLK
  5
6B3A
330
6B2D
100
AcDbEntity
  8
0
100
AcDbBlockEnd
  0
BLOCK
  5
6B5A
330
6B4E
100
AcDbEntity
  8
0
100
AcDbBlockBegin
  2
*D27
 70
     1
 10
0.0
 20
0.0
 30
0.0
  3
*D27
  1

  0
LINE
  5
6B5C
330
6B4E
100
AcDbEntity
  8
寸法線
 62
     0
370
    -2
100
AcDbLine
 10
202.9454965241318
 20
907.8399995297425
 30
0.0
 11
152.6503588613122
 21
907.8399995297425
 31
0.0
  0
LINE
  5
6B5D
330
6B4E
100
AcDbEntity
  8
寸法線
 62
     0
370
    -2
100
AcDbLine
 10
202.9454965241319
 20
911.3399995297426
 30
0.0
 11
152.6503588613122
 21
911.3399995297426
 31
0.0
  0
LINE
  5
6B5E
330
6B4E
100
AcDbEntity
  8
寸法線
 62
     0
370
    -2
100
AcDbLine
 10
155.6503588613122
 20
904.8399995297424
 30
0.0
 11
155.6503588613122
 21
901.8399995297425
 31
0.0
  0
LINE
  5
6B5F
330
6B4E
100
AcDbEntity
  8
寸法線
 62
     0
370
    -2
100
AcDbLine
 10
155.6503588613122
 20
914.3399995297425
 30
0.0
 11
155.6503588613122
 21
927.2957708956825
 31
0.0
  0
LINE
  5
6B60
330
6B4E
100
AcDbEntity
  8
寸法線
 62
     0
370
    -2
100
AcDbLine
 10
155.6503588613122
 20
907.8399995297425
 30
0.0
 11
155.6503588613122
 21
911.3399995297426
 31
0.0
  0
INSERT
  5
6B61
330
6B4E
100
AcDbEntity
  8
寸法線
 62
     0
370
    -2
100
AcDbBlockReference
  2
_Closed
 10
155.6503588613122
 20
907.8399995297425
 30
0.0
 41
3.0
 42
3.0
 43
3.0
 50
90.0
  0
INSERT
  5
6B62
330
6B4E
100
AcDbEntity
  8
寸法線
 62
     0
370
    -2
100
AcDbBlockReference
  2
_Closed
 10
155.6503588613122
 20
911.3399995297426
 30
0.0
 41
3.0
 42
3.0
 43
3.0
 50
270.0
  0
MTEXT
  5
6B63
330
6B4E
100
AcDbEntity
  8
寸法線
 62
     0
100
AcDbMText
 10
152.1498667353278
 20
922.3178852127125
 30
0.0
 40
5.0
 41
0.0
 71
     5
 72
     1
  1
2.5
  7
OKANO
 11
0.0000000000000001
 21
1.0
 31
0.0
 73
     1
 44
1.0
  0
POINT
  5
6B64
330
6B4E
100
AcDbEntity
  8
Defpoints
 62
     0
100
AcDbPoint
 10
204.9454965241318
 20
907.8399995297425
 30
0.0
  0
POINT
  5
6B65
330
6B4E
100
AcDbEntity
  8
Defpoints
 62
     0
100
AcDbPoint
 10
204.9454965241319
 20
911.3399995297426
 30
0.0
  0
POINT
  5
6B66
330
6B4E
100
AcDbEntity
  8
Defpoints
 62
     0
100
AcDbPoint
 10
155.6503588613122
 20
911.3399995297426
 30
0.0
  0
ENDBLK
  5
6B5B
330
6B4E
100
AcDbEntity
  8
0
100
AcDbBlockEnd
  0
ENDSEC
  0
SECTION
  2
ENTITIES
  0
XLINE
  5
4673
330
1F
100
AcDbEntity
  8
構築線
100
AcDbXline
 10
246.9454965241318
 20
144.7597868093781
 30
0.0
 11
0.0
 21
1.0
 31
0.0
  0
TEXT
  5
49EE
330
1F
100
AcDbEntity
  8
文字
100
AcDbText
 10
225.9034726134563
 20
874.0102224951842
 30
0.0
 40
5.0
  1
ソーラーパネル
 51
15.0
  7
OKANO
100
AcDbText
  0
CIRCLE
  5
51A8
330
1F
100
AcDbEntity
  8
太線
100
AcDbCircle
 10
636.6876921285085
 20
301.1453986766348
 30
0.0
 40
40025.0
  0
XLINE
  5
54CE
330
1F
100
AcDbEntity
  8
構築線
100
AcDbXline
 10
427.8125459663808
 20
415.2012174374958
 30
0.0
 11
0.0
 21
-1.0
 31
0.0
  0
LINE
  5
5641
330
1F
100
AcDbEntity
  8
破線
100
AcDbLine
 10
298.653843286389
 20
907.8399995297425
 30
0.0
 11
184.419597760593
 21
907.8399995297425
 31
0.0
  0
LINE
  5
5643
330
1F
100
AcDbEntity
  8
破線
100
AcDbLine
 10
184.492401728546
 20
861.8399995297423
 30
0.0
 11
298.7266472543419
 21
861.8399995297423
 31
0.0
  0
LINE
  5
5644
330
1F
100
AcDbEntity
  8
破線
100
AcDbLine
 10
184.419597760593
 20
907.8399995297425
 30
0.0
 11
184.419597760593
 21
872.8399995297424
 31
0.0
  0
LINE
  5
5645
330
1F
100
AcDbEntity
  8
太線
100
AcDbLine
 10
204.9454965241318
 20
907.8399995297425
 30
0.0
 11
288.9454965241318
 21
907.8399995297425
 31
0.0
  0
LINE
  5
5646
330
1F
100
AcDbEntity
  8
太線
100
AcDbLine
 10
288.9454965241317
 20
911.3399995297426
 30
0.0
 11
204.9454965241319
 21
911.3399995297426
 31
0.0
  0
LINE
  5
5647
330
1F
100
AcDbEntity
  8
太線
100
AcDbLine
 10
203.9454965241318
 20
908.8399995297425
 30
0.0
 11
203.9454965241318
 21
910.3399995297424
 31
0.0
  0
LINE
  5
5648
330
1F
100
AcDbEntity
  8
太線
100
AcDbLine
 10
289.9454965241318
 20
908.8399995297425
 30
0.0
 11
289.9454965241318
 21
910.3399995297424
 31
0.0
  0
ARC
  5
5649
330
1F
100
AcDbEntity
  8
太線
100
AcDbCircle
 10
204.9454965241318
 20
908.8399995297425
 30
0.0
 40
1.0
100
AcDbArc
 50
180.0
 51
270.0
  0
ARC
  5
564A
330
1F
100
AcDbEntity
  8
太線
100
AcDbCircle
 10
288.9454965241318
 20
908.8399995297425
 30
0.0
 40
1.0
100
AcDbArc
 50
269.9999999999999
 51
0.0
  0
ARC
  5
564B
330
1F
100
AcDbEntity
  8
太線
100
AcDbCircle
 10
204.9454965241319
 20
910.3399995297424
 30
0.0
 40
1.0
100
AcDbArc
 50
90.00000000000003
 51
180.0
  0
ARC
  5
564C
330
1F
100
AcDbEntity
  8
太線
100
AcDbCircle
 10
288.9454965241317
 20
910.3399995297424
 30
0.0
 40
1.0
100
AcDbArc
 50
0.0
 51
90.00000000000003
  0
LINE
  5
564D
330
1F
100
AcDbEntity
  8
破線
100
AcDbLine
 10
210.9454965241318
 20
911.3399995297426
 30
0.0
 11
210.9454965241318
 21
907.8399995297425
 31
0.0
  0
LINE
  5
564E
330
1F
100
AcDbEntity
  8
破線
100
AcDbLine
 10
282.9454965241318
 20
907.8399995297425
 30
0.0
 11
282.9454965241318
 21
911.3399995297426
 31
0.0
  0
CIRCLE
  5
569D
330
1F
100
AcDbEntity
  8
破線
100
AcDbCircle
 10
247.0183004920847
 20
837.1959082545419
 30
0.0
 40
24.5
  0
LINE
  5
56FF
330
1F
100
AcDbEntity
  8
太線
100
AcDbLine
 10
280.0183004920847
 20
816.0834794756938
 30
0.0
 11
280.0183004920847
 21
861.8399995297423
 31
0.0
  0
LINE
  5
5700
330
1F
100
AcDbEntity
  8
太線
100
AcDbLine
 10
272.0183004920847
 20
861.8399995297423
 30
0.0
 11
272.0183004920847
 21
821.6777057238333
 31
0.0
  0
LINE
  5
5701
330
1F
100
AcDbEntity
  8
太線
100
AcDbLine
 10
222.0183004920847
 20
821.972726527181
 30
0.0
 11
222.0183004920847
 21
861.8399995297423
 31
0.0
  0
LINE
  5
5702
330
1F
100
AcDbEntity
  8
太線
100
AcDbLine
 10
214.0183004920847
 20
861.8399995297423
 30
0.0
 11
214.0183004920847
 21
816.0834794756938
 31
0.0
  0
LINE
  5
5956
330
1F
100
AcDbEntity
  8
想像線
100
AcDbLine
 10
271.9454965241318
 20
907.8399995297425
 30
0.0
 11
271.9454965241318
 21
908.3399995297424
 31
0.0
  0
LINE
  5
5958
330
1F
100
AcDbEntity
  8
想像線
100
AcDbLine
 10
279.9454965241318
 20
907.8399995297425
 30
0.0
 11
279.9454965241318
 21
911.3399995297426
 31
0.0
  0
LINE
  5
5959
330
1F
100
AcDbEntity
  8
太線
100
AcDbLine
 10
279.9454965241318
 20
911.3399995297426
 30
0.0
 11
279.9454965241318
 21
913.3399995297423
 31
0.0
  0
LINE
  5
595A
330
1F
100
AcDbEntity
  8
太線
100
AcDbLine
 10
274.9454965241318
 20
918.3399995297424
 30
0.0
 11
269.9454965241318
 21
918.3399995297424
 31
0.0
  0
ARC
  5
595B
330
1F
100
AcDbEntity
  8
太線
100
AcDbCircle
 10
274.9454965241318
 20
913.3399995297423
 30
0.0
 40
5.0
100
AcDbArc
 50
0.0
 51
90.0
  0
ARC
  5
595D
330
1F
100
AcDbEntity
  8
想像線
100
AcDbCircle
 10
268.9454965241318
 20
908.3399995297424
 30
0.0
 40
3.0
100
AcDbArc
 50
0.0
 51
90.0
  0
ARC
  5
595E
330
1F
100
AcDbEntity
  8
太線
100
AcDbCircle
 10
218.9454965241318
 20
913.3399995297423
 30
0.0
 40
5.0
100
AcDbArc
 50
90.0
 51
180.0
  0
ARC
  5
595F
330
1F
100
AcDbEntity
  8
想像線
100
AcDbCircle
 10
224.9454965241318
 20
908.3399995297424
 30
0.0
 40
3.0
100
AcDbArc
 50
90.0
 51
180.0
  0
LINE
  5
5960
330
1F
100
AcDbEntity
  8
太線
100
AcDbLine
 10
218.9454965241318
 20
918.3399995297424
 30
0.0
 11
269.9454965241318
 21
918.3399995297424
 31
0.0
  0
LINE
  5
5961
330
1F
100
AcDbEntity
  8
太線
100
AcDbLine
 10
213.9454965241318
 20
913.3399995297423
 30
0.0
 11
213.9454965241318
 21
911.3399995297426
 31
0.0
  0
LINE
  5
5962
330
1F
100
AcDbEntity
  8
太線
100
AcDbLine
 10
224.9454965241318
 20
911.3399995297426
 30
0.0
 11
268.9454965241318
 21
911.3399995297426
 31
0.0
  0
LINE
  5
5963
330
1F
100
AcDbEntity
  8
想像線
100
AcDbLine
 10
221.9454965241318
 20
908.3399995297424
 30
0.0
 11
221.9454965241318
 21
907.8399995297424
 31
0.0
  0
LINE
  5
5964
330
1F
100
AcDbEntity
  8
想像線
100
AcDbLine
 10
213.9454965241318
 20
911.3399995297426
 30
0.0
 11
213.9454965241318
 21
907.8399995297425
 31
0.0
  0
LINE
  5
5965
330
1F
100
AcDbEntity
  8
想像線
100
AcDbLine
 10
213.9454965241318
 20
907.8399995297425
 30
0.0
 11
213.9454965241318
 21
861.8399995297425
 31
0.0
  0
LINE
  5
5966
330
1F
100
AcDbEntity
  8
想像線
100
AcDbLine
 10
221.9454965241318
 20
907.8399995297424
 30
0.0
 11
221.9454965241319
 21
861.8399995297425
 31
0.0
  0
LINE
  5
5967
330
1F
100
AcDbEntity
  8
想像線
100
AcDbLine
 10
271.9454965241318
 20
907.8399995297425
 30
0.0
 11
271.9454965241318
 21
861.8399995297425
 31
0.0
  0
LINE
  5
5968
330
1F
100
AcDbEntity
  8
想像線
100
AcDbLine
 10
279.9454965241318
 20
907.8399995297425
 30
0.0
 11
279.9454965241319
 21
861.8399995297425
 31
0.0
  0
LINE
  5
5BA5
330
1F
100
AcDbEntity
  8
太線
100
AcDbLine
 10
528.3735311232454
 20
816.1844999901276
 30
0.0
 11
528.3735311232454
 21
861.9410200441761
 31
0.0
  0
LINE
  5
5BA6
330
1F
100
AcDbEntity
  8
太線
100
AcDbLine
 10
520.3735311232454
 20
861.9410200441761
 30
0.0
 11
520.3735311232454
 21
816.1844999901276
 31
0.0
  0
LINE
  5
5BAC
330
1F
100
AcDbEntity
  8
太線
100
AcDbLine
 10
520.3007271552924
 20
907.9410200441763
 30
0.0
 11
520.3007271552924
 21
872.9410200441762
 31
0.0
  0
LINE
  5
5BAD
330
1F
100
AcDbEntity
  8
太線
100
AcDbLine
 10
528.3007271552924
 20
907.9410200441762
 30
0.0
 11
528.3007271552924
 21
865.6347793544776
 31
0.0
  0
ARC
  5
5BBF
330
1F
100
AcDbEntity
  8
太線
100
AcDbCircle
 10
524.3007271552924
 20
914.3399995297425
 30
0.0
 40
4.0
100
AcDbArc
 50
0.0
 51
180.0
  0
LINE
  5
5BC0
330
1F
100
AcDbEntity
  8
太線
100
AcDbLine
 10
528.3007271552924
 20
907.9410200441762
 30
0.0
 11
528.3007271552924
 21
908.3399995297424
 31
0.0
  0
LINE
  5
5BC1
330
1F
100
AcDbEntity
  8
太線
100
AcDbLine
 10
520.3007271552924
 20
907.9410200441763
 30
0.0
 11
520.3007271552924
 21
908.3399995297424
 31
0.0
  0
LINE
  5
5CC1
330
1F
100
AcDbEntity
  8
太線
100
AcDbLine
 10
504.3007271552924
 20
908.3399995297424
 30
0.0
 11
504.3007271552924
 21
911.3399995297426
 31
0.0
  0
LINE
  5
5CC2
330
1F
100
AcDbEntity
  8
太線
100
AcDbLine
 10
504.3007271552924
 20
911.3399995297426
 30
0.0
 11
537.3007271552924
 21
911.3399995297426
 31
0.0
  0
LINE
  5
5CC4
330
1F
100
AcDbEntity
  8
太線
100
AcDbLine
 10
537.3735311232453
 20
865.3399995297423
 30
0.0
 11
549.3735311232454
 21
865.3399995297423
 31
0.0
  0
LINE
  5
5CC5
330
1F
100
AcDbEntity
  8
太線
100
AcDbLine
 10
504.3007271552924
 20
908.3399995297424
 30
0.0
 11
534.3007271552924
 21
908.3399995297424
 31
0.0
  0
LINE
  5
5CC6
330
1F
100
AcDbEntity
  8
太線
100
AcDbLine
 10
534.3007271552924
 20
908.3399995297424
 30
0.0
 11
534.3007271552924
 21
867.2389790153088
 31
0.0
  0
LINE
  5
5CC7
330
1F
100
AcDbEntity
  8
太線
100
AcDbLine
 10
534.3735311232453
 20
862.3399995297424
 30
0.0
 11
549.3735311232454
 21
862.3399995297424
 31
0.0
  0
LINE
  5
5CC8
330
1F
100
AcDbEntity
  8
太線
100
AcDbLine
 10
549.3735311232454
 20
862.3399995297424
 30
0.0
 11
549.3735311232454
 21
865.3399995297423
 31
0.0
  0
DIMENSION
  5
5CED
330
1F
100
AcDbEntity
  8
寸法線
100
AcDbDimension
  2
*D2
 10
549.3007271552924
 20
934.6990057828952
 30
0.0
 11
526.8007271552924
 21
938.1990057828952
 31
0.0
 70
    32
 71
     5
 42
45.0
  3
sunpo
100
AcDbAlignedDimension
 13
504.3007271552924
 23
911.3399995297426
 33
0.0
 14
549.3007271552924
 24
876.3399995297424
 34
0.0
100
AcDbRotatedDimension
1001
ACAD
1000
DSTYLE
1002
{
1070
    40
1040
1.0
1002
}
  0
LINE
  5
5CFA
330
1F
100
AcDbEntity
  8
寸法線
100
AcDbLine
 10
534.3735311232453
 20
862.3399995297424
 30
0.0
 11
549.3735311232454
 21
862.3399995297424
 31
0.0
  0
TEXT
  5
5D62
330
1F
100
AcDbEntity
  8
文字
100
AcDbText
 10
1046.206962600699
 20
1521.405617238604
 30
0.0
 40
5.0
  1
31-1U-20
 51
15.0
  7
OKANO
100
AcDbText
  0
TEXT
  5
5D65
330
1F
100
AcDbEntity
  8
文字
100
AcDbText
 10
490.2048682993627
 20
769.224610710371
 30
0.0
 40
5.0
  1
Ｍ8
 51
15.0
  7
OKANO
100
AcDbText
  0
XLINE
  5
5D7F
330
1F
100
AcDbEntity
  8
構築線
100
AcDbXline
 10
140.7799199748551
 20
977.1263675188819
 30
0.0
 11
1.0
 21
0.0
 31
0.0
  0
XLINE
  5
5D80
330
1F
100
AcDbEntity
  8
構築線
100
AcDbXline
 10
503.6122662302566
 20
705.3985795282117
 30
0.0
 11
1.0
 21
0.0
 31
0.0
  0
LINE
  5
5D92
330
1F
100
AcDbEntity
  8
構築線
100
AcDbLine
 10
427.8125459663808
 20
977.1263675188819
 30
0.0
 11
427.8125459663808
 21
1015.568856918334
 31
0.0
  0
DIMENSION
  5
5D94
330
1F
100
AcDbEntity
  8
寸法線
100
AcDbDimension
  2
*D5
 10
375.2622992226283
 20
954.1118724836065
 30
0.0
 11
371.7622992226282
 21
958.1191200012444
 31
0.0
 70
    32
  1
10
 71
     5
 42
8.014495035275558
  3
sunpo
100
AcDbAlignedDimension
 13
384.8125459663808
 23
962.1263675188821
 33
0.0
 14
390.8805627299111
 24
954.1118724836065
 34
0.0
 50
90.0
100
AcDbRotatedDimension
1001
ACAD
1000
DSTYLE
1002
{
1070
    40
1040
1.0
1070
   279
1070
     1
1002
}
  0
DIMENSION
  5
5D95
330
1F
100
AcDbEntity
  8
寸法線
100
AcDbDimension
  2
*D4
 10
375.2622992226283
 20
962.1263675188821
 30
0.0
 11
371.7622992226282
 21
969.6263675188822
 31
0.0
 70
    32
 71
     5
 42
15.0
  3
sunpo
100
AcDbAlignedDimension
 13
395.3125459663808
 23
977.1263675188819
 33
0.0
 14
384.8125459663808
 24
962.1263675188821
 34
0.0
 50
90.0
100
AcDbRotatedDimension
1001
ACAD
1000
DSTYLE
1002
{
1070
    40
1040
1.0
1002
}
  0
DIMENSION
  5
5D96
330
1F
100
AcDbEntity
  8
寸法線
100
AcDbDimension
  2
*D3
 10
481.9892589326959
 20
997.126367518882
 30
0.0
 11
478.4887668067115
 21
987.1263675188821
 31
0.0
 70
    32
 71
     5
 42
20.0
  3
sunpo
100
AcDbAlignedDimension
 13
458.3125459663809
 23
977.1263675188819
 33
0.0
 14
460.8125459663808
 24
997.126367518882
 34
0.0
 50
90.0
100
AcDbRotatedDimension
1001
ACAD
1000
DSTYLE
1002
{
1070
    40
1040
1.0
1002
}
  0
LINE
  5
5D97
330
1F
100
AcDbEntity
  8
太線
100
AcDbLine
 10
470.8125459663809
 20
987.1263675188821
 30
0.0
 11
470.8125459663809
 21
976.4867081656703
 31
0.0
  0
LINE
  5
5D98
330
1F
100
AcDbEntity
  8
太線
100
AcDbLine
 10
384.8125459663808
 20
977.1263675188819
 30
0.0
 11
384.8125459663808
 21
987.1263675188821
 31
0.0
  0
LINE
  5
5D99
330
1F
100
AcDbEntity
  8
太線
100
AcDbLine
 10
453.3125459663808
 20
981.6263675188819
 30
0.0
 11
458.3125459663809
 21
981.6263675188819
 31
0.0
  0
LINE
  5
5D9A
330
1F
100
AcDbEntity
  8
太線
100
AcDbLine
 10
458.3125459663809
 20
972.6263675188819
 30
0.0
 11
453.3125459663808
 21
972.6263675188819
 31
0.0
  0
ARC
  5
5D9B
330
1F
100
AcDbEntity
  8
太線
100
AcDbCircle
 10
453.3125459663808
 20
977.1263675188819
 30
0.0
 40
4.5
100
AcDbArc
 50
90.0
 51
270.0
  0
ARC
  5
5D9C
330
1F
100
AcDbEntity
  8
太線
100
AcDbCircle
 10
458.3125459663809
 20
977.1263675188819
 30
0.0
 40
4.5
100
AcDbArc
 50
270.0
 51
90.0
  0
LINE
  5
5D9D
330
1F
100
AcDbEntity
  8
太線
100
AcDbLine
 10
400.3125459663809
 20
972.6263675188819
 30
0.0
 11
395.3125459663808
 21
972.6263675188819
 31
0.0
  0
LINE
  5
5D9E
330
1F
100
AcDbEntity
  8
太線
100
AcDbLine
 10
395.3125459663808
 20
981.6263675188819
 30
0.0
 11
400.3125459663809
 21
981.6263675188819
 31
0.0
  0
ARC
  5
5D9F
330
1F
100
AcDbEntity
  8
太線
100
AcDbCircle
 10
400.3125459663809
 20
977.1263675188819
 30
0.0
 40
4.5
100
AcDbArc
 50
270.0
 51
90.0
  0
ARC
  5
5DA0
330
1F
100
AcDbEntity
  8
太線
100
AcDbCircle
 10
395.3125459663808
 20
977.1263675188819
 30
0.0
 40
4.5
100
AcDbArc
 50
90.0
 51
270.0
  0
LINE
  5
5DA1
330
1F
100
AcDbEntity
  8
太線
100
AcDbLine
 10
394.8125459663808
 20
997.126367518882
 30
0.0
 11
460.8125459663808
 21
997.126367518882
 31
0.0
  0
ARC
  5
5DA2
330
1F
100
AcDbEntity
  8
太線
100
AcDbCircle
 10
394.8125459663808
 20
987.1263675188821
 30
0.0
 40
10.0
100
AcDbArc
 50
90.0
 51
180.0
  0
ARC
  5
5DA3
330
1F
100
AcDbEntity
  8
太線
100
AcDbCircle
 10
460.8125459663808
 20
987.1263675188821
 30
0.0
 40
10.0
100
AcDbArc
 50
0.0
 51
90.0
  0
ARC
  5
5DA4
330
1F
100
AcDbEntity
  8
太線
100
AcDbCircle
 10
458.1078260278178
 20
966.7411092921895
 30
0.0
 40
13.46227939715074
100
AcDbArc
 50
290.2617654909258
 51
339.953020805332
  0
ARC
  5
5DA5
330
1F
100
AcDbEntity
  8
太線
100
AcDbCircle
 10
393.3277491031097
 20
962.3310333993488
 30
0.0
 40
8.575740627143373
100
AcDbArc
 50
181.3675325705321
 51
253.4195404704698
  0
LINE
  5
5DA6
330
1F
100
AcDbEntity
  8
太線
100
AcDbLine
 10
390.8805627299111
 20
954.1118724836065
 30
0.0
 11
462.769944022858
 21
954.1118724836065
 31
0.0
  0
LINE
  5
5DA7
330
1F
100
AcDbEntity
  8
想像線
100
AcDbLine
 10
384.7544510690152
 20
965.126367518882
 30
0.0
 11
470.7544510690151
 21
965.126367518882
 31
0.0
  0
LINE
  5
5DA8
330
1F
100
AcDbEntity
  8
太線
100
AcDbLine
 10
384.7544510690152
 20
962.1263675188821
 30
0.0
 11
470.7544510690151
 21
962.1263675188821
 31
0.0
  0
LINE
  5
5DA9
330
1F
100
AcDbEntity
  8
太線
100
AcDbLine
 10
384.8125459663808
 20
977.1263675188819
 30
0.0
 11
384.8125459663808
 21
962.1263675188821
 31
0.0
  0
LINE
  5
5DAA
330
1F
100
AcDbEntity
  8
太線
100
AcDbLine
 10
470.8125459663809
 20
976.4867081656703
 30
0.0
 11
470.7544510690151
 21
962.1263675188821
 31
0.0
  0
TEXT
  5
5DAB
330
1F
100
AcDbEntity
  8
文字
100
AcDbText
 10
399.3444736598176
 20
1032.475187404168
 30
0.0
 40
10.0
  1
30-ＱＳ-20-46
 51
15.0
  7
OKANO
100
AcDbText
  0
TEXT
  5
5DEB
330
1F
100
AcDbEntity
  8
文字
100
AcDbText
 10
189.7979518363135
 20
1033.857388384145
 30
0.0
 40
10.0
  1
30-ＱＷ-20-46
 51
15.0
  7
OKANO
100
AcDbText
  0
LINE
  5
5F47
330
1F
100
AcDbEntity
  8
太線
100
AcDbLine
 10
309.9454965241318
 20
908.3399995297424
 30
0.0
 11
339.9454965241318
 21
908.3399995297424
 31
0.0
  0
LINE
  5
5F4A
330
1F
100
AcDbEntity
  8
太線
100
AcDbLine
 10
309.9454965241318
 20
911.3399995297426
 30
0.0
 11
342.9454965241318
 21
911.3399995297426
 31
0.0
  0
LINE
  5
5F4B
330
1F
100
AcDbEntity
  8
太線
100
AcDbLine
 10
309.9454965241318
 20
908.3399995297424
 30
0.0
 11
309.9454965241318
 21
911.3399995297426
 31
0.0
  0
LINE
  5
5F4C
330
1F
100
AcDbEntity
  8
太線
100
AcDbLine
 10
325.9454965241318
 20
907.9410200441763
 30
0.0
 11
325.9454965241318
 21
908.3399995297424
 31
0.0
  0
LINE
  5
5F4D
330
1F
100
AcDbEntity
  8
太線
100
AcDbLine
 10
333.9454965241318
 20
907.9410200441762
 30
0.0
 11
333.9454965241318
 21
908.3399995297424
 31
0.0
  0
ARC
  5
5F4E
330
1F
100
AcDbEntity
  8
太線
100
AcDbCircle
 10
329.9454965241318
 20
914.3399995297425
 30
0.0
 40
4.0
100
AcDbArc
 50
0.0
 51
180.0
  0
LINE
  5
5F59
330
1F
100
AcDbEntity
  8
太線
100
AcDbLine
 10
333.9454965241318
 20
907.9410200441762
 30
0.0
 11
333.9454965241318
 21
872.9410200441762
 31
0.0
  0
LINE
  5
5F5A
330
1F
100
AcDbEntity
  8
太線
100
AcDbLine
 10
325.9454965241318
 20
907.9410200441763
 30
0.0
 11
325.9454965241318
 21
865.6347793544775
 31
0.0
  0
LINE
  5
5F5B
330
1F
100
AcDbEntity
  8
太線
100
AcDbLine
 10
326.0183004920847
 20
861.9410200441761
 30
0.0
 11
326.0183004920846
 21
812.3399995297422
 31
0.0
  0
LINE
  5
5F5C
330
1F
100
AcDbEntity
  8
太線
100
AcDbLine
 10
334.0183004920846
 20
812.3399995297422
 30
0.0
 11
334.0183004920847
 21
861.9410200441761
 31
0.0
  0
LINE
  5
5F7E
330
1F
100
AcDbEntity
  8
太線
100
AcDbLine
 10
342.9454965241318
 20
911.3399995297426
 30
0.0
 11
349.9454965241318
 21
911.3399995297426
 31
0.0
  0
LINE
  5
5F7F
330
1F
100
AcDbEntity
  8
太線
100
AcDbLine
 10
349.9454965241318
 20
911.3399995297426
 30
0.0
 11
349.9454965241318
 21
908.3399995297424
 31
0.0
  0
LINE
  5
5F80
330
1F
100
AcDbEntity
  8
太線
100
AcDbLine
 10
349.9454965241318
 20
908.3399995297424
 30
0.0
 11
339.9454965241318
 21
908.3399995297424
 31
0.0
  0
LINE
  5
5F83
330
1F
100
AcDbEntity
  8
太線
100
AcDbLine
 10
333.9454965241318
 20
911.3399995297426
 30
0.0
 11
333.9454965241318
 21
914.3399995297425
 31
0.0
  0
LINE
  5
5F84
330
1F
100
AcDbEntity
  8
太線
100
AcDbLine
 10
325.9454965241318
 20
911.3399995297426
 30
0.0
 11
325.9454965241318
 21
914.3399995297425
 31
0.0
  0
LINE
  5
5F85
330
1F
100
AcDbEntity
  8
太線
100
AcDbLine
 10
520.3007271552924
 20
911.3399995297426
 30
0.0
 11
520.3007271552924
 21
914.3399995297425
 31
0.0
  0
LINE
  5
5F86
330
1F
100
AcDbEntity
  8
太線
100
AcDbLine
 10
528.3007271552924
 20
911.3399995297426
 30
0.0
 11
528.3007271552924
 21
914.3399995297425
 31
0.0
  0
LINE
  5
5F8A
330
1F
100
AcDbEntity
  8
破線
100
AcDbLine
 10
298.653843286389
 20
907.8399995297425
 30
0.0
 11
323.9507479656022
 21
908.3399995297424
 31
0.0
  0
LINE
  5
5F8B
330
1F
100
AcDbEntity
  8
破線
100
AcDbLine
 10
323.9507479656022
 20
908.3399995297424
 30
0.0
 11
323.9507479656022
 21
862.3399995297422
 31
0.0
  0
LINE
  5
5F8D
330
1F
100
AcDbEntity
  8
破線
100
AcDbLine
 10
336.209529763495
 20
908.3399995297424
 30
0.0
 11
518.1183516110177
 21
908.3399995297424
 31
0.0
  0
LINE
  5
5F8E
330
1F
100
AcDbEntity
  8
破線
100
AcDbLine
 10
518.1183516110177
 20
908.3399995297424
 30
0.0
 11
518.1183516110177
 21
862.3399995297422
 31
0.0
  0
LINE
  5
5F8F
330
1F
100
AcDbEntity
  8
破線
100
AcDbLine
 10
518.1911555789707
 20
862.3399995297424
 30
0.0
 11
336.282333731448
 21
862.3399995297424
 31
0.0
  0
LINE
  5
5F90
330
1F
100
AcDbEntity
  8
破線
100
AcDbLine
 10
336.209529763495
 20
867.2389790153086
 30
0.0
 11
336.209529763495
 21
908.3399995297424
 31
0.0
  0
TEXT
  5
5F92
330
1F
100
AcDbEntity
  8
文字
100
AcDbText
 10
371.874284496007
 20
932.3056882553792
 30
0.0
 40
5.0
  1
Φ7
 51
15.0
  7
OKANO
100
AcDbText
  0
LINE
  5
5FB6
330
1F
100
AcDbEntity
  8
想像線
100
AcDbLine
 10
460.8853499343338
 20
816.0834794756938
 30
0.0
 11
460.8853499343338
 21
814.3792102045296
 31
0.0
  0
LINE
  5
5FC4
330
1F
100
AcDbEntity
  8
想像線
100
AcDbLine
 10
460.8125459663808
 20
907.8399995297425
 30
0.0
 11
460.8125459663808
 21
862.3399995297424
 31
0.0
  0
LINE
  5
5FC5
330
1F
100
AcDbEntity
  8
想像線
100
AcDbLine
 10
452.8125459663808
 20
907.8399995297425
 30
0.0
 11
452.8125459663809
 21
862.3399995297424
 31
0.0
  0
LINE
  5
5FC6
330
1F
100
AcDbEntity
  8
想像線
100
AcDbLine
 10
402.8125459663808
 20
907.8399995297424
 30
0.0
 11
402.8125459663809
 21
862.3399995297422
 31
0.0
  0
LINE
  5
5FC7
330
1F
100
AcDbEntity
  8
想像線
100
AcDbLine
 10
394.8125459663808
 20
907.8399995297425
 30
0.0
 11
394.8125459663808
 21
862.3399995297424
 31
0.0
  0
LINE
  5
5FC8
330
1F
100
AcDbEntity
  8
想像線
100
AcDbLine
 10
394.8125459663808
 20
911.3399995297426
 30
0.0
 11
394.8125459663808
 21
907.8399995297425
 31
0.0
  0
LINE
  5
5FC9
330
1F
100
AcDbEntity
  8
想像線
100
AcDbLine
 10
402.8125459663808
 20
908.3399995297424
 30
0.0
 11
402.8125459663808
 21
907.8399995297424
 31
0.0
  0
LINE
  5
5FCA
330
1F
100
AcDbEntity
  8
太線
100
AcDbLine
 10
405.8125459663808
 20
911.3399995297426
 30
0.0
 11
449.8125459663809
 21
911.3399995297426
 31
0.0
  0
LINE
  5
5FCB
330
1F
100
AcDbEntity
  8
太線
100
AcDbLine
 10
394.8125459663808
 20
913.3399995297423
 30
0.0
 11
394.8125459663808
 21
911.3399995297426
 31
0.0
  0
LINE
  5
5FCC
330
1F
100
AcDbEntity
  8
太線
100
AcDbLine
 10
399.8125459663808
 20
918.3399995297424
 30
0.0
 11
450.8125459663808
 21
918.3399995297424
 31
0.0
  0
ARC
  5
5FCD
330
1F
100
AcDbEntity
  8
想像線
100
AcDbCircle
 10
405.8125459663808
 20
908.3399995297424
 30
0.0
 40
3.0
100
AcDbArc
 50
90.0
 51
180.0
  0
ARC
  5
5FCE
330
1F
100
AcDbEntity
  8
太線
100
AcDbCircle
 10
399.8125459663808
 20
913.3399995297423
 30
0.0
 40
5.0
100
AcDbArc
 50
90.0
 51
180.0
  0
ARC
  5
5FCF
330
1F
100
AcDbEntity
  8
想像線
100
AcDbCircle
 10
449.8125459663809
 20
908.3399995297424
 30
0.0
 40
3.0
100
AcDbArc
 50
0.0
 51
90.0
  0
ARC
  5
5FD0
330
1F
100
AcDbEntity
  8
太線
100
AcDbCircle
 10
455.8125459663808
 20
913.3399995297423
 30
0.0
 40
5.0
100
AcDbArc
 50
0.0
 51
90.0
  0
LINE
  5
5FD1
330
1F
100
AcDbEntity
  8
太線
100
AcDbLine
 10
455.8125459663808
 20
918.3399995297424
 30
0.0
 11
450.8125459663808
 21
918.3399995297424
 31
0.0
  0
LINE
  5
5FD2
330
1F
100
AcDbEntity
  8
太線
100
AcDbLine
 10
460.8125459663808
 20
911.3399995297426
 30
0.0
 11
460.8125459663808
 21
913.3399995297423
 31
0.0
  0
LINE
  5
5FD3
330
1F
100
AcDbEntity
  8
想像線
100
AcDbLine
 10
460.8125459663808
 20
907.8399995297425
 30
0.0
 11
460.8125459663808
 21
911.3399995297426
 31
0.0
  0
LINE
  5
5FD4
330
1F
100
AcDbEntity
  8
想像線
100
AcDbLine
 10
452.8125459663808
 20
907.8399995297425
 30
0.0
 11
452.8125459663808
 21
908.3399995297424
 31
0.0
  0
DIMENSION
  5
5FD5
330
1F
100
AcDbEntity
  8
寸法線
100
AcDbDimension
  2
*D6
 10
398.8853499343338
 20
776.8874924159607
 30
0.0
 11
427.8853499343338
 21
780.3874924159607
 31
0.0
 70
    32
  1
60
 71
     5
 42
58.0
  3
sunpo
100
AcDbAlignedDimension
 13
456.8853499343338
 23
787.8399995297423
 33
0.0
 14
398.8853499343338
 24
787.8399995297423
 34
0.0
100
AcDbRotatedDimension
1001
ACAD
1000
DSTYLE
1002
{
1070
    40
1040
1.0
1002
}
  0
LINE
  5
5FD6
330
1F
100
AcDbEntity
  8
細線
100
AcDbLine
 10
460.8853499343338
 20
788.0104780447783
 30
0.0
 11
461.3853499343337
 21
789.0104780447783
 31
0.0
  0
LINE
  5
5FD7
330
1F
100
AcDbEntity
  8
細線
100
AcDbLine
 10
452.3853499343338
 20
789.0104780447783
 30
0.0
 11
452.8853499343338
 21
788.0104780447783
 31
0.0
  0
LINE
  5
5FD8
330
1F
100
AcDbEntity
  8
太線
100
AcDbLine
 10
460.8853499343338
 20
788.0104780447783
 30
0.0
 11
452.8853499343338
 21
788.0104780447783
 31
0.0
  0
LINE
  5
5FDB
330
1F
100
AcDbEntity
  8
太線
100
AcDbLine
 10
452.8853499343338
 20
861.8399995297423
 30
0.0
 11
452.8853499343338
 21
821.6777057238335
 31
0.0
  0
LINE
  5
5FDC
330
1F
100
AcDbEntity
  8
太線
100
AcDbLine
 10
460.8853499343338
 20
816.0834794756938
 30
0.0
 11
460.8853499343338
 21
861.8399995297423
 31
0.0
  0
LINE
  5
5FE2
330
1F
100
AcDbEntity
  8
太線
100
AcDbLine
 10
452.3853499343337
 20
822.1338616937899
 30
0.0
 11
452.3853499343338
 21
826.6995272631465
 31
0.0
  0
LINE
  5
5FE3
330
1F
100
AcDbEntity
  8
細線
100
AcDbLine
 10
452.3853499343338
 20
826.6995272631465
 30
0.0
 11
452.8853499343338
 21
828.6995272631465
 31
0.0
  0
LINE
  5
5FE4
330
1F
100
AcDbEntity
  8
太線
100
AcDbLine
 10
452.8853499343338
 20
828.6995272631465
 30
0.0
 11
460.8853499343338
 21
828.6995272631465
 31
0.0
  0
LINE
  5
5FE5
330
1F
100
AcDbEntity
  8
細線
100
AcDbLine
 10
460.8853499343338
 20
828.6995272631465
 30
0.0
 11
461.3853499343337
 21
826.6995272631465
 31
0.0
  0
LINE
  5
5FE6
330
1F
100
AcDbEntity
  8
太線
100
AcDbLine
 10
461.3853499343337
 20
826.6995272631465
 30
0.0
 11
461.3853499343337
 21
813.923054234573
 31
0.0
  0
LINE
  5
5FE8
330
1F
100
AcDbEntity
  8
太線
100
AcDbLine
 10
452.8853499343338
 20
789.0104780447783
 30
0.0
 11
452.8853499343338
 21
794.8508873920775
 31
0.0
  0
LINE
  5
5FE9
330
1F
100
AcDbEntity
  8
太線
100
AcDbLine
 10
460.8853499343338
 20
789.0104780447783
 30
0.0
 11
460.8853499343338
 21
794.8508873920775
 31
0.0
  0
LINE
  5
5FEC
330
1F
100
AcDbEntity
  8
細線
100
AcDbLine
 10
452.3853499343338
 20
789.0104780447784
 30
0.0
 11
452.3853499343338
 21
794.8508873920774
 31
0.0
  0
LINE
  5
5FED
330
1F
100
AcDbEntity
  8
細線
100
AcDbLine
 10
461.3853499343337
 20
789.0104780447784
 30
0.0
 11
461.3853499343337
 21
794.8508873920774
 31
0.0
  0
LINE
  5
5FEE
330
1F
100
AcDbEntity
  8
細線
100
AcDbLine
 10
452.3853499343338
 20
789.0104780447783
 30
0.0
 11
461.3853499343337
 21
789.0104780447783
 31
0.0
  0
ARC
  5
5FF0
330
1F
100
AcDbEntity
  8
太線
100
AcDbCircle
 10
427.8853499343338
 20
835.4756057231215
 30
0.0
 40
23.2796974685795
100
AcDbArc
 50
210.7486871587841
 51
329.2513128412158
  0
CIRCLE
  5
5FFE
330
1F
100
AcDbEntity
  8
破線
100
AcDbCircle
 10
427.8853499343338
 20
837.1959082545419
 30
0.0
 40
24.5
  0
LINE
  5
5FFF
330
1F
100
AcDbEntity
  8
破線
100
AcDbLine
 10
463.8125459663808
 20
907.8399995297425
 30
0.0
 11
463.8125459663808
 21
911.3399995297426
 31
0.0
  0
LINE
  5
6000
330
1F
100
AcDbEntity
  8
破線
100
AcDbLine
 10
391.8125459663808
 20
911.3399995297426
 30
0.0
 11
391.8125459663808
 21
907.8399995297425
 31
0.0
  0
ARC
  5
6001
330
1F
100
AcDbEntity
  8
太線
100
AcDbCircle
 10
469.8125459663808
 20
910.3399995297424
 30
0.0
 40
1.0
100
AcDbArc
 50
0.0
 51
90.00000000000003
  0
ARC
  5
6002
330
1F
100
AcDbEntity
  8
太線
100
AcDbCircle
 10
385.8125459663809
 20
910.3399995297424
 30
0.0
 40
1.0
100
AcDbArc
 50
90.00000000000003
 51
180.0
  0
ARC
  5
6003
330
1F
100
AcDbEntity
  8
太線
100
AcDbCircle
 10
469.8125459663808
 20
908.8399995297425
 30
0.0
 40
1.0
100
AcDbArc
 50
269.9999999999999
 51
0.0
  0
ARC
  5
6004
330
1F
100
AcDbEntity
  8
太線
100
AcDbCircle
 10
385.8125459663808
 20
908.8399995297425
 30
0.0
 40
1.0
100
AcDbArc
 50
180.0
 51
270.0
  0
LINE
  5
6005
330
1F
100
AcDbEntity
  8
太線
100
AcDbLine
 10
470.8125459663809
 20
908.8399995297425
 30
0.0
 11
470.8125459663808
 21
910.3399995297424
 31
0.0
  0
LINE
  5
6006
330
1F
100
AcDbEntity
  8
太線
100
AcDbLine
 10
384.8125459663808
 20
908.8399995297425
 30
0.0
 11
384.8125459663809
 21
910.3399995297424
 31
0.0
  0
LINE
  5
6007
330
1F
100
AcDbEntity
  8
太線
100
AcDbLine
 10
469.8125459663808
 20
911.3399995297426
 30
0.0
 11
385.8125459663809
 21
911.3399995297426
 31
0.0
  0
LINE
  5
6008
330
1F
100
AcDbEntity
  8
太線
100
AcDbLine
 10
385.8125459663808
 20
907.8399995297425
 30
0.0
 11
469.8125459663808
 21
907.8399995297425
 31
0.0
  0
TEXT
  5
6009
330
1F
100
AcDbEntity
  8
文字
100
AcDbText
 10
408.9338344735097
 20
874.0102224951842
 30
0.0
 40
5.0
  1
ソーラーパネル
 51
15.0
  7
OKANO
100
AcDbText
  0
LEADER
  5
601F
330
1F
100
AcDbEntity
  8
寸法線
100
AcDbLeader
  3
sunpo
 76
     2
 10
413.3175682372529
 20
916.0901745471056
 30
0.0
 10
380.8537352411658
 20
929.8913096827455
 30
0.0
1001
ACAD
1000
DSTYLE
1002
{
1070
   147
1040
1.0
1070
    77
1070
     0
1002
}
  0
LEADER
  5
6020
330
1F
100
AcDbEntity
  8
寸法線
100
AcDbLeader
  3
sunpo
 76
     2
 10
458.0048771842561
 20
793.4565707492291
 30
0.0
 10
487.6456779306754
 20
769.224610710371
 30
0.0
1001
ACAD
1000
DSTYLE
1002
{
1070
   147
1040
1.0
1070
    77
1070
     0
1002
}
  0
LINE
  5
6054
330
1F
100
AcDbEntity
  8
太線
100
AcDbLine
 10
534.3735311232453
 20
820.5733157866381
 30
0.0
 11
534.3735311232453
 21
820.5733157866381
 31
0.0
  0
LINE
  5
6056
330
1F
100
AcDbEntity
  8
構築線
100
AcDbLine
 10
534.3735311232453
 20
820.5733157866381
 30
0.0
 11
534.3735311232453
 21
823.5733157866382
 31
0.0
  0
LINE
  5
6058
330
1F
100
AcDbEntity
  8
想像線
100
AcDbLine
 10
520.3735311232454
 20
794.6969790477945
 30
0.0
 11
520.3735311232454
 21
790.2979995622281
 31
0.0
  0
LINE
  5
6059
330
1F
100
AcDbEntity
  8
太線
100
AcDbLine
 10
520.3735311232454
 20
794.6969790477945
 30
0.0
 11
520.3735311232454
 21
790.2979995622281
 31
0.0
  0
LINE
  5
605D
330
1F
100
AcDbEntity
  8
細線
100
AcDbLine
 10
528.3735311232454
 20
789.297999562228
 30
0.0
 11
528.8735311232453
 21
790.297999562228
 31
0.0
  0
LINE
  5
605E
330
1F
100
AcDbEntity
  8
細線
100
AcDbLine
 10
519.8735311232453
 20
790.297999562228
 30
0.0
 11
520.3735311232454
 21
789.297999562228
 31
0.0
  0
LINE
  5
605F
330
1F
100
AcDbEntity
  8
太線
100
AcDbLine
 10
528.3735311232454
 20
789.297999562228
 30
0.0
 11
520.3735311232454
 21
789.297999562228
 31
0.0
  0
LINE
  5
6060
330
1F
100
AcDbEntity
  8
太線
100
AcDbLine
 10
519.8735311232453
 20
790.297999562228
 30
0.0
 11
528.8735311232453
 21
790.297999562228
 31
0.0
  0
LINE
  5
6061
330
1F
100
AcDbEntity
  8
太線
100
AcDbLine
 10
528.8735311232453
 20
790.2979995622282
 30
0.0
 11
528.8735311232453
 21
794.6969790477947
 31
0.0
  0
LINE
  5
6062
330
1F
100
AcDbEntity
  8
太線
100
AcDbLine
 10
519.8735311232453
 20
790.2979995622281
 30
0.0
 11
519.8735311232453
 21
794.6969790477945
 31
0.0
  0
LINE
  5
6063
330
1F
100
AcDbEntity
  8
太線
100
AcDbLine
 10
528.3735311232454
 20
790.2979995622281
 30
0.0
 11
528.3735311232454
 21
794.6969790477945
 31
0.0
  0
LINE
  5
6064
330
1F
100
AcDbEntity
  8
太線
100
AcDbLine
 10
519.8735311232453
 20
826.8005477775803
 30
0.0
 11
519.8735311232453
 21
812.3399995297424
 31
0.0
  0
LINE
  5
6065
330
1F
100
AcDbEntity
  8
細線
100
AcDbLine
 10
520.3735311232454
 20
828.8005477775802
 30
0.0
 11
519.8735311232453
 21
826.8005477775803
 31
0.0
  0
LINE
  5
6066
330
1F
100
AcDbEntity
  8
太線
100
AcDbLine
 10
528.3735311232454
 20
828.8005477775802
 30
0.0
 11
520.3735311232454
 21
828.8005477775802
 31
0.0
  0
LINE
  5
6067
330
1F
100
AcDbEntity
  8
太線
100
AcDbLine
 10
528.8735311232453
 20
826.8005477775803
 30
0.0
 11
528.3735311232454
 21
828.8005477775802
 31
0.0
  0
LINE
  5
6068
330
1F
100
AcDbEntity
  8
太線
100
AcDbLine
 10
528.8735311232455
 20
812.3399995297422
 30
0.0
 11
528.8735311232453
 21
826.8005477775803
 31
0.0
  0
LINE
  5
6069
330
1F
100
AcDbEntity
  8
太線
100
AcDbLine
 10
520.3735311232454
 20
828.8005477775802
 30
0.0
 11
520.3735311232454
 21
823.5733157866382
 31
0.0
  0
LINE
  5
606A
330
1F
100
AcDbEntity
  8
想像線
100
AcDbLine
 10
520.3735311232454
 20
828.8005477775802
 30
0.0
 11
520.3735311232454
 21
823.5733157866382
 31
0.0
  0
LINE
  5
606F
330
1F
100
AcDbEntity
  8
破線
100
AcDbLine
 10
320.0183004920848
 20
812.3399995297424
 30
0.0
 11
319.8840605940785
 21
812.3399995297424
 31
0.0
  0
LINE
  5
6071
330
1F
100
AcDbEntity
  8
破線
100
AcDbLine
 10
324.0235519335551
 20
862.3399995297424
 30
0.0
 11
298.7266472543419
 21
862.3399995297424
 31
0.0
  0
LINE
  5
6073
330
1F
100
AcDbEntity
  8
破線
100
AcDbLine
 10
298.7266472543419
 20
860.7357998689112
 30
0.0
 11
326.0183004920847
 21
860.7357998689112
 31
0.0
  0
LINE
  5
6074
330
1F
100
AcDbEntity
  8
破線
100
AcDbLine
 10
334.0183004920847
 20
860.7357998689112
 30
0.0
 11
374.4660867523348
 21
860.7357998689112
 31
0.0
  0
LINE
  5
6075
330
1F
100
AcDbEntity
  8
破線
100
AcDbLine
 10
342.3840605940785
 20
812.3399995297422
 30
0.0
 11
374.4660867523348
 21
812.3399995297424
 31
0.0
  0
ARC
  5
6076
330
1F
100
AcDbEntity
  8
破線
100
AcDbCircle
 10
328.6899261618148
 20
824.3037335349402
 30
0.0
 40
32.26343153221832
100
AcDbArc
 50
159.0805330045533
 51
201.7658311696099
  0
ARC
  5
6077
330
1F
100
AcDbEntity
  8
破線
100
AcDbCircle
 10
287.189706142948
 20
848.2427919553432
 30
0.0
 40
17.00518323736129
100
AcDbArc
 50
311.3418335518356
 51
47.27839501028782
  0
ARC
  5
6078
330
1F
100
AcDbEntity
  8
破線
100
AcDbCircle
 10
319.2590029815546
 20
847.8566340333435
 30
0.0
 40
24.23737907301136
100
AcDbArc
 50
147.9015151908757
 51
210.7187133712467
  0
ARC
  5
6079
330
1F
100
AcDbEntity
  8
破線
100
AcDbCircle
 10
318.570778108925
 20
846.7983198180085
 30
0.0
 40
21.08650945674944
100
AcDbArc
 50
148.1400720497831
 51
205.9293802481058
  0
ARC
  5
607A
330
1F
100
AcDbEntity
  8
破線
100
AcDbCircle
 10
364.1001413096693
 20
848.1057027960163
 30
0.0
 40
16.33928324594025
100
AcDbArc
 50
309.3768775352742
 51
50.62312246472567
  0
ARC
  5
607B
330
1F
100
AcDbEntity
  8
破線
100
AcDbCircle
 10
384.33219368786
 20
823.9078026264319
 30
0.0
 40
15.2037539623278
100
AcDbArc
 50
130.4606543981836
 51
229.5393456018163
  0
ARC
  5
607C
330
1F
100
AcDbEntity
  8
破線
100
AcDbCircle
 10
361.9920698824602
 20
823.9078026264319
 30
0.0
 40
17.0122063634821
100
AcDbArc
 50
317.1586408826422
 51
42.84135911735722
  0
ARC
  5
607D
330
1F
100
AcDbEntity
  8
破線
100
AcDbCircle
 10
361.3940600009974
 20
824.2842215157947
 30
0.0
 40
15.25296799368536
100
AcDbArc
 50
319.7068012469318
 51
38.20768649586063
  0
DIMENSION
  5
607E
330
1F
100
AcDbEntity
  8
寸法線
100
AcDbDimension
  2
*D7
 10
549.861848514236
 20
922.7284611452583
 30
0.0
 11
541.9098370175342
 21
926.2284611452583
 31
0.0
 70
    32
  1
15
 71
     5
 42
15.90402299340348
  3
sunpo
100
AcDbAlignedDimension
 13
533.9578255208325
 23
907.7427318164554
 33
0.0
 14
549.861848514236
 24
875.9726111791678
 34
0.0
100
AcDbRotatedDimension
1001
ACAD
1000
DSTYLE
1002
{
1070
    40
1040
1.0
1002
}
  0
LINE
  5
6095
330
1F
100
AcDbEntity
  8
破線
100
AcDbLine
 10
518.1911555789707
 20
860.7357998689112
 30
0.0
 11
480.806260882518
 21
860.7357998689112
 31
0.0
  0
LINE
  5
6096
330
1F
100
AcDbEntity
  8
破線
100
AcDbLine
 10
514.3735311232453
 20
812.3399995297424
 30
0.0
 11
514.2392912252391
 21
812.3399995297424
 31
0.0
  0
LINE
  5
6097
330
1F
100
AcDbEntity
  8
破線
100
AcDbLine
 10
528.3735311232454
 20
860.7357998689112
 30
0.0
 11
562.5945890146254
 21
860.735799868911
 31
0.0
  0
LINE
  5
6098
330
1F
100
AcDbEntity
  8
破線
100
AcDbLine
 10
536.739291225239
 20
812.3399995297424
 30
0.0
 11
562.5945890146254
 21
812.3399995297424
 31
0.0
  0
ARC
  5
6099
330
1F
100
AcDbEntity
  8
破線
100
AcDbCircle
 10
499.2499340947191
 20
823.7537812639262
 30
0.0
 40
21.68970942714666
100
AcDbArc
 50
149.4960451344054
 51
211.7511016726787
  0
ARC
  5
609A
330
1F
100
AcDbEntity
  8
破線
100
AcDbCircle
 10
458.8719749538292
 20
847.9545773082602
 30
0.0
 40
25.38646390000696
100
AcDbArc
 50
328.6936782097743
 51
30.22957781478023
  0
ARC
  5
609B
330
1F
100
AcDbEntity
  8
破線
100
AcDbCircle
 10
480.8062608825176
 20
860.7357998689108
 30
0.0
 40
0.000000000000364
100
AcDbArc
 50
38.65774614320865
 51
338.1985905136482
  0
ARC
  5
609C
330
1F
100
AcDbEntity
  8
破線
100
AcDbCircle
 10
500.5789900345169
 20
847.6304523794237
 30
0.0
 40
23.72152927065439
100
AcDbArc
 50
146.463617723158
 51
210.7508407704295
  0
ARC
  5
609D
330
1F
100
AcDbEntity
  8
破線
100
AcDbCircle
 10
515.3214995031314
 20
847.2066877012258
 30
0.0
 40
34.90328502184022
100
AcDbArc
 50
163.2431606761428
 51
196.7568393238575
  0
LINE
  5
609F
330
1F
100
AcDbEntity
  8
破線
100
AcDbLine
 10
562.5945890146254
 20
860.7357998689112
 30
0.0
 11
562.5945890146254
 21
812.3399995297424
 31
0.0
  0
TEXT
  5
6144
330
1F
100
AcDbEntity
  8
文字
100
AcDbText
 10
488.8656039365746
 20
832.6992620297822
 30
0.0
 40
10.0
  1
単管
 51
15.0
  7
OKANO
100
AcDbText
  0
TEXT
  5
614C
330
1F
100
AcDbEntity
  8
文字
100
AcDbText
 10
187.4908171045826
 20
1055.973535968514
 30
0.0
 40
10.0
  1
中間押さえ20mm用
 51
15.0
  7
OKANO
100
AcDbText
  0
TEXT
  5
6154
330
1F
100
AcDbEntity
  8
文字
100
AcDbText
 10
399.3444736598176
 20
1057.35573694852
 30
0.0
 40
10.0
  1
端用押さえ20mm用
 51
15.0
  7
OKANO
100
AcDbText
  0
LINE
  5
6258
330
1F
100
AcDbEntity
  8
想像線
100
AcDbLine
 10
1270.71268534931
 20
815.694096937838
 30
0.0
 11
1184.71268534931
 21
815.694096937838
 31
0.0
  0
LINE
  5
6274
330
1F
100
AcDbEntity
  8
太線
100
AcDbLine
 10
1254.21268534931
 20
812.6940969378379
 30
0.0
 11
1259.21268534931
 21
812.6940969378379
 31
0.0
  0
LINE
  5
6279
330
1F
100
AcDbEntity
  8
太線
100
AcDbLine
 10
1196.21268534931
 20
812.6940969378379
 30
0.0
 11
1201.21268534931
 21
812.6940969378379
 31
0.0
  0
LINE
  5
627B
330
1F
100
AcDbEntity
  8
太線
100
AcDbLine
 10
1184.71268534931
 20
818.1940969378381
 30
0.0
 11
1270.71268534931
 21
818.1940969378381
 31
0.0
  0
XLINE
  5
631E
330
1F
100
AcDbEntity
  8
構築線
100
AcDbXline
 10
665.0000521970512
 20
714.7137583323929
 30
0.0
 11
-0.0000003473175631
 21
0.9999999999999397
 31
0.0
  0
XLINE
  5
6321
330
1F
100
AcDbEntity
  8
構築線
100
AcDbXline
 10
936.0792791620777
 20
702.2137583323929
 30
0.0
 11
0.0
 21
-1.0
 31
0.0
  0
XLINE
  5
6322
330
1F
100
AcDbEntity
  8
構築線
100
AcDbXline
 10
708.0000521970486
 20
714.713773267048
 30
0.0
 11
-0.0000003473175631
 21
0.9999999999999397
 31
0.0
  0
XLINE
  5
6323
330
1F
100
AcDbEntity
  8
構築線
100
AcDbXline
 10
893.0792791620776
 20
702.2137583323929
 30
0.0
 11
0.0
 21
-1.0
 31
0.0
  0
LINE
  5
6340
330
1F
100
AcDbEntity
  8
想像線
100
AcDbLine
 10
470.9113912428279
 20
805.2323330087297
 30
0.0
 11
384.9119789424039
 21
804.9143959368061
 31
0.0
  0
LINE
  5
6341
330
1F
100
AcDbEntity
  8
太線
100
AcDbLine
 10
470.9206335995697
 20
802.7323500930197
 30
0.0
 11
469.9206404332858
 21
802.7286531503229
 31
0.0
  0
LINE
  5
6342
330
1F
100
AcDbEntity
  8
太線
100
AcDbLine
 10
470.9113912428279
 20
805.2323330087297
 30
0.0
 11
470.9206335995697
 21
802.7323500930197
 31
0.0
  0
LINE
  5
6343
330
1F
100
AcDbEntity
  8
太線
100
AcDbLine
 10
450.3418745313125
 20
823.9981487028847
 30
0.0
 11
470.9113912428279
 21
805.2323330087297
 31
0.0
  0
LINE
  5
6344
330
1F
100
AcDbEntity
  8
太線
100
AcDbLine
 10
384.9119789424039
 20
804.9143959368061
 30
0.0
 11
404.8421854653907
 21
823.8299378101809
 31
0.0
  0
LINE
  5
6345
330
1F
100
AcDbEntity
  8
太線
100
AcDbLine
 10
384.9212212991459
 20
802.4144130210959
 30
0.0
 11
384.9119789424039
 21
804.9143959368061
 31
0.0
  0
LINE
  5
6346
330
1F
100
AcDbEntity
  8
太線
100
AcDbLine
 10
407.6357859638342
 20
823.8402656617189
 30
0.0
 11
404.8421854653907
 21
823.8299378101809
 31
0.0
  0
LINE
  5
6347
330
1F
100
AcDbEntity
  8
太線
100
AcDbLine
 10
450.3418745313125
 20
823.9981487028847
 30
0.0
 11
448.0482706160111
 21
823.9896693226949
 31
0.0
  0
ARC
  5
6348
330
1F
100
AcDbEntity
  8
太線
100
AcDbCircle
 10
427.7992895688696
 20
835.475446648636
 30
0.0
 40
23.2796974685795
100
AcDbArc
 50
209.9867354356142
 51
330.4369039566517
  0
LINE
  5
6349
330
1F
100
AcDbEntity
  8
太線
100
AcDbLine
 10
469.9206404332858
 20
802.7286531503229
 30
0.0
 11
385.9212144654298
 21
802.4181099637928
 31
0.0
  0
XLINE
  5
634E
330
1F
100
AcDbEntity
  8
構築線
100
AcDbXline
 10
524.6221990530612
 20
823.2305354893615
 30
0.0
 11
0.0
 21
1.0
 31
0.0
  0
LINE
  5
636F
330
1F
100
AcDbEntity
  8
構築線
100
AcDbLine
 10
528.8735311232455
 20
812.3399995297422
 30
0.0
 11
528.8735311232453
 21
802.3399995297422
 31
0.0
  0
LINE
  5
6371
330
1F
100
AcDbEntity
  8
太線
100
AcDbLine
 10
528.8735311232454
 20
804.8399995297424
 30
0.0
 11
528.8735311232455
 21
812.3399995297422
 31
0.0
  0
LINE
  5
6372
330
1F
100
AcDbEntity
  8
太線
100
AcDbLine
 10
519.8735311232453
 20
804.8399995297424
 30
0.0
 11
519.8735311232453
 21
812.3399995297424
 31
0.0
  0
LINE
  5
6373
330
1F
100
AcDbEntity
  8
太線
100
AcDbLine
 10
528.3735311232454
 20
816.1844999901276
 30
0.0
 11
528.3735311232451
 21
804.8399995297424
 31
0.0
  0
LINE
  5
6374
330
1F
100
AcDbEntity
  8
太線
100
AcDbLine
 10
520.3735311232454
 20
816.1844999901276
 30
0.0
 11
520.3735311232454
 21
804.8399995297424
 31
0.0
  0
ARC
  5
6376
330
1F
100
AcDbEntity
  8
太線
100
AcDbCircle
 10
531.1950030210141
 20
795.6969790477946
 30
0.0
 40
1.0
100
AcDbArc
 50
270.0
 51
0.0
  0
ARC
  5
6377
330
1F
100
AcDbEntity
  8
太線
100
AcDbCircle
 10
518.1950030210142
 20
795.6969790477946
 30
0.0
 40
1.0
100
AcDbArc
 50
180.0
 51
270.0
  0
ARC
  5
6378
330
1F
100
AcDbEntity
  8
太線
100
AcDbCircle
 10
532.33686066184
 20
801.6969790477945
 30
0.0
 40
1.0
100
AcDbArc
 50
270.0
 51
0.0
  0
ARC
  5
6379
330
1F
100
AcDbEntity
  8
太線
100
AcDbCircle
 10
517.0531453801884
 20
801.6969790477945
 30
0.0
 40
1.0
100
AcDbArc
 50
180.0
 51
270.0
  0
ARC
  5
637A
330
1F
100
AcDbEntity
  8
太線
100
AcDbCircle
 10
530.4450030210141
 20
796.7252926176866
 30
0.0
 40
2.029760773594802
100
AcDbArc
 50
210.4388252364164
 51
329.5611747635835
  0
ARC
  5
637B
330
1F
100
AcDbEntity
  8
太線
100
AcDbCircle
 10
518.9450030210141
 20
796.6352881594183
 30
0.0
 40
1.985679729703705
100
AcDbArc
 50
208.1991695866891
 51
331.8008304133109
  0
ARC
  5
637C
330
1F
100
AcDbEntity
  8
太線
100
AcDbCircle
 10
524.6950030210141
 20
803.1969790477942
 30
0.0
 40
8.499999999999836
100
AcDbArc
 50
241.9275130641455
 51
298.0724869358544
  0
LINE
  5
637D
330
1F
100
AcDbEntity
  8
太線
100
AcDbLine
 10
528.6950030210141
 20
795.6969790477946
 30
0.0
 11
528.6950030210141
 21
800.6969790477945
 31
0.0
  0
LINE
  5
637E
330
1F
100
AcDbEntity
  8
太線
100
AcDbLine
 10
520.6950030210141
 20
795.6969790477946
 30
0.0
 11
520.6950030210141
 21
800.6969790477945
 31
0.0
  0
LINE
  5
637F
330
1F
100
AcDbEntity
  8
太線
100
AcDbLine
 10
517.1950030210141
 20
800.6969790477945
 30
0.0
 11
532.1950030210141
 21
800.6969790477945
 31
0.0
  0
LINE
  5
6380
330
1F
100
AcDbEntity
  8
太線
100
AcDbLine
 10
533.33686066184
 20
801.6969790477945
 30
0.0
 11
533.33686066184
 21
802.1969790477946
 31
0.0
  0
LINE
  5
6381
330
1F
100
AcDbEntity
  8
太線
100
AcDbLine
 10
532.1950030210141
 20
800.6969790477945
 30
0.0
 11
532.33686066184
 21
800.6969790477945
 31
0.0
  0
LINE
  5
6382
330
1F
100
AcDbEntity
  8
太線
100
AcDbLine
 10
532.1950030210141
 20
795.6969790477946
 30
0.0
 11
532.1950030210141
 21
800.6969790477945
 31
0.0
  0
LINE
  5
6383
330
1F
100
AcDbEntity
  8
太線
100
AcDbLine
 10
518.1950030210142
 20
794.6969790477945
 30
0.0
 11
531.1950030210141
 21
794.6969790477945
 31
0.0
  0
LINE
  5
6384
330
1F
100
AcDbEntity
  8
太線
100
AcDbLine
 10
517.1950030210141
 20
800.6969790477945
 30
0.0
 11
517.1950030210142
 21
795.6969790477946
 31
0.0
  0
LINE
  5
6385
330
1F
100
AcDbEntity
  8
太線
100
AcDbLine
 10
517.0531453801883
 20
800.6969790477945
 30
0.0
 11
517.1950030210141
 21
800.6969790477945
 31
0.0
  0
LINE
  5
6386
330
1F
100
AcDbEntity
  8
太線
100
AcDbLine
 10
516.0531453801882
 20
802.1969790477946
 30
0.0
 11
516.0531453801882
 21
801.6969790477945
 31
0.0
  0
LINE
  5
6387
330
1F
100
AcDbEntity
  8
太線
100
AcDbLine
 10
516.0531453801882
 20
802.1969790477946
 30
0.0
 11
533.33686066184
 21
802.1969790477946
 31
0.0
  0
XLINE
  5
6388
330
1F
100
AcDbEntity
  8
構築線
100
AcDbXline
 10
456.7981498592416
 20
813.5705982467042
 30
0.0
 11
0.0
 21
-1.0
 31
0.0
  0
XLINE
  5
6389
330
1F
100
AcDbEntity
  8
構築線
100
AcDbXline
 10
399.0405919463956
 20
812.0051848121219
 30
0.0
 11
0.0
 21
-1.0
 31
0.0
  0
ARC
  5
638A
330
1F
100
AcDbEntity
  8
太線
100
AcDbCircle
 10
464.1452469400835
 20
795.8508873920774
 30
0.0
 40
1.0
100
AcDbArc
 50
270.0
 51
0.0
  0
ARC
  5
638B
330
1F
100
AcDbEntity
  8
太線
100
AcDbCircle
 10
451.1452469400836
 20
795.8508873920774
 30
0.0
 40
1.0
100
AcDbArc
 50
180.0
 51
270.0
  0
ARC
  5
638C
330
1F
100
AcDbEntity
  8
太線
100
AcDbCircle
 10
465.2871045809093
 20
801.8508873920774
 30
0.0
 40
1.0
100
AcDbArc
 50
270.0
 51
0.0
  0
ARC
  5
638D
330
1F
100
AcDbEntity
  8
太線
100
AcDbCircle
 10
450.0033892992578
 20
801.8508873920774
 30
0.0
 40
1.0
100
AcDbArc
 50
180.0
 51
270.0
  0
ARC
  5
638E
330
1F
100
AcDbEntity
  8
太線
100
AcDbCircle
 10
463.3952469400835
 20
796.8792009619694
 30
0.0
 40
2.029760773594802
100
AcDbArc
 50
210.4388252364164
 51
329.5611747635835
  0
ARC
  5
638F
330
1F
100
AcDbEntity
  8
太線
100
AcDbCircle
 10
451.8952469400836
 20
796.7891965037011
 30
0.0
 40
1.985679729703703
100
AcDbArc
 50
208.1991695866887
 51
331.8008304133112
  0
ARC
  5
6390
330
1F
100
AcDbEntity
  8
太線
100
AcDbCircle
 10
457.6452469400835
 20
803.3508873920771
 30
0.0
 40
8.499999999999836
100
AcDbArc
 50
241.9275130641455
 51
298.0724869358544
  0
LINE
  5
6391
330
1F
100
AcDbEntity
  8
太線
100
AcDbLine
 10
461.6452469400835
 20
795.8508873920774
 30
0.0
 11
461.6452469400835
 21
800.8508873920774
 31
0.0
  0
LINE
  5
6392
330
1F
100
AcDbEntity
  8
太線
100
AcDbLine
 10
453.6452469400835
 20
795.8508873920774
 30
0.0
 11
453.6452469400835
 21
800.8508873920774
 31
0.0
  0
LINE
  5
6393
330
1F
100
AcDbEntity
  8
太線
100
AcDbLine
 10
450.1452469400835
 20
800.8508873920774
 30
0.0
 11
465.1452469400835
 21
800.8508873920774
 31
0.0
  0
LINE
  5
6394
330
1F
100
AcDbEntity
  8
太線
100
AcDbLine
 10
466.2871045809094
 20
801.8508873920774
 30
0.0
 11
466.2871045809094
 21
802.3508873920773
 31
0.0
  0
LINE
  5
6395
330
1F
100
AcDbEntity
  8
太線
100
AcDbLine
 10
465.1452469400835
 20
800.8508873920774
 30
0.0
 11
465.2871045809093
 21
800.8508873920774
 31
0.0
  0
LINE
  5
6396
330
1F
100
AcDbEntity
  8
太線
100
AcDbLine
 10
465.1452469400835
 20
795.8508873920774
 30
0.0
 11
465.1452469400835
 21
800.8508873920774
 31
0.0
  0
LINE
  5
6397
330
1F
100
AcDbEntity
  8
太線
100
AcDbLine
 10
451.1452469400836
 20
794.8508873920774
 30
0.0
 11
464.1452469400835
 21
794.8508873920774
 31
0.0
  0
LINE
  5
6398
330
1F
100
AcDbEntity
  8
太線
100
AcDbLine
 10
450.1452469400835
 20
800.8508873920774
 30
0.0
 11
450.1452469400836
 21
795.8508873920774
 31
0.0
  0
LINE
  5
6399
330
1F
100
AcDbEntity
  8
太線
100
AcDbLine
 10
450.0033892992576
 20
800.8508873920774
 30
0.0
 11
450.1452469400835
 21
800.8508873920774
 31
0.0
  0
LINE
  5
639A
330
1F
100
AcDbEntity
  8
太線
100
AcDbLine
 10
449.0033892992577
 20
802.3508873920773
 30
0.0
 11
449.0033892992577
 21
801.8508873920774
 31
0.0
  0
LINE
  5
639D
330
1F
100
AcDbEntity
  8
太線
100
AcDbLine
 10
391.2458313864116
 20
802.0506277131618
 30
0.0
 11
391.2458313864116
 21
801.5506277131617
 31
0.0
  0
LINE
  5
639E
330
1F
100
AcDbEntity
  8
太線
100
AcDbLine
 10
392.2458313864116
 20
800.5506277131617
 30
0.0
 11
392.3876890272374
 21
800.5506277131617
 31
0.0
  0
LINE
  5
639F
330
1F
100
AcDbEntity
  8
太線
100
AcDbLine
 10
392.3876890272374
 20
800.5506277131617
 30
0.0
 11
392.3876890272375
 21
795.5506277131618
 31
0.0
  0
LINE
  5
63A0
330
1F
100
AcDbEntity
  8
太線
100
AcDbLine
 10
393.3876890272376
 20
794.5506277131618
 30
0.0
 11
406.3876890272374
 21
794.5506277131618
 31
0.0
  0
LINE
  5
63A1
330
1F
100
AcDbEntity
  8
太線
100
AcDbLine
 10
407.3876890272374
 20
795.5506277131618
 30
0.0
 11
407.3876890272374
 21
800.5506277131617
 31
0.0
  0
LINE
  5
63A2
330
1F
100
AcDbEntity
  8
太線
100
AcDbLine
 10
407.3876890272374
 20
800.5506277131617
 30
0.0
 11
407.5295466680633
 21
800.5506277131617
 31
0.0
  0
LINE
  5
63A3
330
1F
100
AcDbEntity
  8
太線
100
AcDbLine
 10
408.5295466680633
 20
801.5506277131617
 30
0.0
 11
408.5295466680633
 21
802.0506277131618
 31
0.0
  0
LINE
  5
63A4
330
1F
100
AcDbEntity
  8
太線
100
AcDbLine
 10
392.3876890272374
 20
800.5506277131617
 30
0.0
 11
407.3876890272374
 21
800.5506277131617
 31
0.0
  0
LINE
  5
63A5
330
1F
100
AcDbEntity
  8
太線
100
AcDbLine
 10
395.8876890272374
 20
795.5506277131618
 30
0.0
 11
395.8876890272374
 21
800.5506277131617
 31
0.0
  0
LINE
  5
63A6
330
1F
100
AcDbEntity
  8
太線
100
AcDbLine
 10
403.8876890272375
 20
795.5506277131618
 30
0.0
 11
403.8876890272375
 21
800.5506277131617
 31
0.0
  0
ARC
  5
63A7
330
1F
100
AcDbEntity
  8
太線
100
AcDbCircle
 10
399.8876890272374
 20
803.0506277131616
 30
0.0
 40
8.499999999999836
100
AcDbArc
 50
241.9275130641455
 51
298.0724869358544
  0
ARC
  5
63A8
330
1F
100
AcDbEntity
  8
太線
100
AcDbCircle
 10
394.1376890272374
 20
796.4889368247855
 30
0.0
 40
1.985679729703703
100
AcDbArc
 50
208.1991695866887
 51
331.8008304133112
  0
ARC
  5
63A9
330
1F
100
AcDbEntity
  8
太線
100
AcDbCircle
 10
405.6376890272374
 20
796.5789412830538
 30
0.0
 40
2.029760773594802
100
AcDbArc
 50
210.4388252364164
 51
329.5611747635835
  0
ARC
  5
63AA
330
1F
100
AcDbEntity
  8
太線
100
AcDbCircle
 10
392.2458313864117
 20
801.5506277131617
 30
0.0
 40
1.0
100
AcDbArc
 50
180.0
 51
270.0
  0
ARC
  5
63AB
330
1F
100
AcDbEntity
  8
太線
100
AcDbCircle
 10
407.5295466680633
 20
801.5506277131617
 30
0.0
 40
1.0
100
AcDbArc
 50
270.0
 51
0.0
  0
ARC
  5
63AC
330
1F
100
AcDbEntity
  8
太線
100
AcDbCircle
 10
393.3876890272376
 20
795.5506277131618
 30
0.0
 40
1.0
100
AcDbArc
 50
180.0
 51
270.0
  0
ARC
  5
63AD
330
1F
100
AcDbEntity
  8
太線
100
AcDbCircle
 10
406.3876890272374
 20
795.5506277131618
 30
0.0
 40
1.0
100
AcDbArc
 50
270.0
 51
0.0
  0
LINE
  5
63B1
330
1F
100
AcDbEntity
  8
細線
100
AcDbLine
 10
394.6277920214877
 20
788.7102183658627
 30
0.0
 11
403.6277920214876
 21
788.7102183658627
 31
0.0
  0
LINE
  5
63B2
330
1F
100
AcDbEntity
  8
細線
100
AcDbLine
 10
403.6277920214876
 20
788.7102183658628
 30
0.0
 11
403.6277920214877
 21
794.5506277131618
 31
0.0
  0
LINE
  5
63B3
330
1F
100
AcDbEntity
  8
細線
100
AcDbLine
 10
394.6277920214877
 20
788.7102183658628
 30
0.0
 11
394.6277920214876
 21
794.5506277131618
 31
0.0
  0
LINE
  5
63B4
330
1F
100
AcDbEntity
  8
太線
100
AcDbLine
 10
403.1277920214876
 20
788.7102183658627
 30
0.0
 11
403.1277920214877
 21
794.5506277131619
 31
0.0
  0
LINE
  5
63B5
330
1F
100
AcDbEntity
  8
太線
100
AcDbLine
 10
395.1277920214877
 20
788.7102183658627
 30
0.0
 11
395.1277920214877
 21
794.5506277131619
 31
0.0
  0
LINE
  5
63B6
330
1F
100
AcDbEntity
  8
太線
100
AcDbLine
 10
403.6277920214876
 20
826.6995272631465
 30
0.0
 11
403.6277920214876
 21
822.6773702232668
 31
0.0
  0
LINE
  5
63B7
330
1F
100
AcDbEntity
  8
細線
100
AcDbLine
 10
403.1277920214876
 20
828.6995272631465
 30
0.0
 11
403.6277920214876
 21
826.6995272631465
 31
0.0
  0
LINE
  5
63B8
330
1F
100
AcDbEntity
  8
太線
100
AcDbLine
 10
395.1277920214877
 20
828.6995272631465
 30
0.0
 11
403.1277920214876
 21
828.6995272631465
 31
0.0
  0
LINE
  5
63B9
330
1F
100
AcDbEntity
  8
細線
100
AcDbLine
 10
394.6277920214877
 20
826.6995272631465
 30
0.0
 11
395.1277920214877
 21
828.6995272631465
 31
0.0
  0
LINE
  5
63BA
330
1F
100
AcDbEntity
  8
太線
100
AcDbLine
 10
394.6277920214876
 20
814.1355682773598
 30
0.0
 11
394.6277920214877
 21
826.6995272631465
 31
0.0
  0
LINE
  5
63BB
330
1F
100
AcDbEntity
  8
太線
100
AcDbLine
 10
403.1277920214876
 20
822.2028256707165
 30
0.0
 11
403.1277920214876
 21
861.8399995297423
 31
0.0
  0
LINE
  5
63BC
330
1F
100
AcDbEntity
  8
太線
100
AcDbLine
 10
395.1277920214877
 20
861.8399995297423
 30
0.0
 11
395.1277920214877
 21
816.0834794756938
 31
0.0
  0
LINE
  5
63BD
330
1F
100
AcDbEntity
  8
太線
100
AcDbLine
 10
403.1277920214876
 20
787.7102183658627
 30
0.0
 11
395.1277920214877
 21
787.7102183658627
 31
0.0
  0
LINE
  5
63BE
330
1F
100
AcDbEntity
  8
細線
100
AcDbLine
 10
394.6277920214877
 20
788.7102183658627
 30
0.0
 11
395.1277920214877
 21
787.7102183658627
 31
0.0
  0
LINE
  5
63BF
330
1F
100
AcDbEntity
  8
細線
100
AcDbLine
 10
403.1277920214876
 20
787.7102183658627
 30
0.0
 11
403.6277920214876
 21
788.7102183658627
 31
0.0
  0
LINE
  5
63C5
330
1F
100
AcDbEntity
  8
想像線
100
AcDbLine
 10
395.1277920214877
 20
816.0834794756938
 30
0.0
 11
395.1277920214877
 21
814.6101128299102
 31
0.0
  0
XLINE
  5
63C6
330
1F
100
AcDbEntity
  8
構築線
100
AcDbXline
 10
330.4848212734796
 20
846.3851976180448
 30
0.0
 11
0.0
 21
-1.0
 31
0.0
  0
LINE
  5
63C7
330
1F
100
AcDbEntity
  8
太線
100
AcDbLine
 10
321.6979147490277
 20
802.2277319013431
 30
0.0
 11
338.9816300306793
 21
802.2277319013431
 31
0.0
  0
LINE
  5
63C8
330
1F
100
AcDbEntity
  8
太線
100
AcDbLine
 10
321.6979147490277
 20
802.2277319013431
 30
0.0
 11
321.6979147490277
 21
801.7277319013432
 31
0.0
  0
LINE
  5
63C9
330
1F
100
AcDbEntity
  8
太線
100
AcDbLine
 10
322.6979147490276
 20
800.7277319013432
 30
0.0
 11
322.8397723898535
 21
800.7277319013432
 31
0.0
  0
LINE
  5
63CA
330
1F
100
AcDbEntity
  8
太線
100
AcDbLine
 10
322.8397723898535
 20
800.7277319013432
 30
0.0
 11
322.8397723898536
 21
795.7277319013432
 31
0.0
  0
LINE
  5
63CB
330
1F
100
AcDbEntity
  8
太線
100
AcDbLine
 10
323.8397723898536
 20
794.7277319013432
 30
0.0
 11
336.8397723898535
 21
794.7277319013432
 31
0.0
  0
LINE
  5
63CC
330
1F
100
AcDbEntity
  8
太線
100
AcDbLine
 10
337.8397723898535
 20
795.7277319013432
 30
0.0
 11
337.8397723898535
 21
800.7277319013432
 31
0.0
  0
LINE
  5
63CD
330
1F
100
AcDbEntity
  8
太線
100
AcDbLine
 10
337.8397723898535
 20
800.7277319013432
 30
0.0
 11
337.9816300306793
 21
800.7277319013432
 31
0.0
  0
LINE
  5
63CE
330
1F
100
AcDbEntity
  8
太線
100
AcDbLine
 10
338.9816300306793
 20
801.7277319013432
 30
0.0
 11
338.9816300306793
 21
802.2277319013431
 31
0.0
  0
LINE
  5
63CF
330
1F
100
AcDbEntity
  8
太線
100
AcDbLine
 10
322.8397723898535
 20
800.7277319013432
 30
0.0
 11
337.8397723898535
 21
800.7277319013432
 31
0.0
  0
LINE
  5
63D0
330
1F
100
AcDbEntity
  8
太線
100
AcDbLine
 10
326.3397723898535
 20
795.7277319013432
 30
0.0
 11
326.3397723898535
 21
800.7277319013432
 31
0.0
  0
LINE
  5
63D1
330
1F
100
AcDbEntity
  8
太線
100
AcDbLine
 10
334.3397723898535
 20
795.7277319013432
 30
0.0
 11
334.3397723898535
 21
800.7277319013432
 31
0.0
  0
ARC
  5
63D2
330
1F
100
AcDbEntity
  8
太線
100
AcDbCircle
 10
330.3397723898535
 20
803.2277319013429
 30
0.0
 40
8.499999999999836
100
AcDbArc
 50
241.9275130641455
 51
298.0724869358544
  0
ARC
  5
63D3
330
1F
100
AcDbEntity
  8
太線
100
AcDbCircle
 10
324.5897723898535
 20
796.6660410129669
 30
0.0
 40
1.985679729703703
100
AcDbArc
 50
208.1991695866887
 51
331.8008304133112
  0
ARC
  5
63D4
330
1F
100
AcDbEntity
  8
太線
100
AcDbCircle
 10
336.0897723898535
 20
796.7560454712351
 30
0.0
 40
2.029760773594802
100
AcDbArc
 50
210.4388252364164
 51
329.5611747635835
  0
ARC
  5
63D5
330
1F
100
AcDbEntity
  8
太線
100
AcDbCircle
 10
322.6979147490278
 20
801.7277319013432
 30
0.0
 40
1.0
100
AcDbArc
 50
180.0
 51
270.0
  0
ARC
  5
63D6
330
1F
100
AcDbEntity
  8
太線
100
AcDbCircle
 10
337.9816300306793
 20
801.7277319013432
 30
0.0
 40
1.0
100
AcDbArc
 50
270.0
 51
0.0
  0
ARC
  5
63D7
330
1F
100
AcDbEntity
  8
太線
100
AcDbCircle
 10
323.8397723898536
 20
795.7277319013432
 30
0.0
 40
1.0
100
AcDbArc
 50
180.0
 51
270.0
  0
ARC
  5
63D8
330
1F
100
AcDbEntity
  8
太線
100
AcDbCircle
 10
336.8397723898535
 20
795.7277319013432
 30
0.0
 40
1.0
100
AcDbArc
 50
270.0
 51
0.0
  0
LINE
  5
63DA
330
1F
100
AcDbEntity
  8
太線
100
AcDbLine
 10
326.0183004920847
 20
816.1844999901276
 30
0.0
 11
326.0183004920847
 21
804.8399995297424
 31
0.0
  0
LINE
  5
63DB
330
1F
100
AcDbEntity
  8
太線
100
AcDbLine
 10
334.0183004920847
 20
816.1844999901276
 30
0.0
 11
334.0183004920845
 21
804.8399995297424
 31
0.0
  0
LINE
  5
63DC
330
1F
100
AcDbEntity
  8
太線
100
AcDbLine
 10
325.5183004920847
 20
804.8399995297424
 30
0.0
 11
325.5183004920847
 21
812.3399995297424
 31
0.0
  0
LINE
  5
63DD
330
1F
100
AcDbEntity
  8
太線
100
AcDbLine
 10
334.5183004920848
 20
804.8399995297424
 30
0.0
 11
334.5183004920849
 21
812.3399995297422
 31
0.0
  0
LINE
  5
63DE
330
1F
100
AcDbEntity
  8
構築線
100
AcDbLine
 10
334.5183004920849
 20
812.3399995297422
 30
0.0
 11
334.5183004920847
 21
802.3399995297422
 31
0.0
  0
LINE
  5
63E0
330
1F
100
AcDbEntity
  8
太線
100
AcDbLine
 10
321.3397364493171
 20
802.3399995297424
 30
0.0
 11
339.3397364493171
 21
802.3399995297424
 31
0.0
  0
LINE
  5
63EF
330
1F
100
AcDbEntity
  8
太線
100
AcDbLine
 10
322.6062144368283
 20
795.8287524157766
 30
0.0
 11
322.7480720776541
 21
795.8287524157766
 31
0.0
  0
LINE
  5
63F4
330
1F
100
AcDbEntity
  8
太線
100
AcDbLine
 10
334.5183004920849
 20
812.3399995297422
 30
0.0
 11
334.5183004920847
 21
826.8005477775803
 31
0.0
  0
LINE
  5
63F5
330
1F
100
AcDbEntity
  8
太線
100
AcDbLine
 10
334.5183004920847
 20
826.8005477775803
 30
0.0
 11
334.0183004920847
 21
828.8005477775802
 31
0.0
  0
LINE
  5
63F6
330
1F
100
AcDbEntity
  8
太線
100
AcDbLine
 10
334.0183004920847
 20
828.8005477775802
 30
0.0
 11
326.0183004920847
 21
828.8005477775802
 31
0.0
  0
LINE
  5
63F7
330
1F
100
AcDbEntity
  8
細線
100
AcDbLine
 10
326.0183004920847
 20
828.8005477775802
 30
0.0
 11
325.5183004920847
 21
826.8005477775803
 31
0.0
  0
LINE
  5
63F8
330
1F
100
AcDbEntity
  8
太線
100
AcDbLine
 10
325.5183004920847
 20
826.8005477775803
 30
0.0
 11
325.5183004920847
 21
812.3399995297424
 31
0.0
  0
LINE
  5
63F9
330
1F
100
AcDbEntity
  8
太線
100
AcDbLine
 10
334.0183004920847
 20
790.3287524157767
 30
0.0
 11
334.0183004920846
 21
794.7277319013432
 31
0.0
  0
LINE
  5
63FA
330
1F
100
AcDbEntity
  8
太線
100
AcDbLine
 10
325.5183004920847
 20
790.3287524157767
 30
0.0
 11
325.5183004920847
 21
794.7277319013432
 31
0.0
  0
LINE
  5
63FB
330
1F
100
AcDbEntity
  8
太線
100
AcDbLine
 10
334.5183004920847
 20
790.3287524157769
 30
0.0
 11
334.5183004920847
 21
794.7277319013433
 31
0.0
  0
LINE
  5
63FC
330
1F
100
AcDbEntity
  8
太線
100
AcDbLine
 10
325.5183004920847
 20
790.3287524157766
 30
0.0
 11
334.5183004920847
 21
790.3287524157766
 31
0.0
  0
LINE
  5
63FD
330
1F
100
AcDbEntity
  8
太線
100
AcDbLine
 10
334.0183004920847
 20
789.3287524157766
 30
0.0
 11
326.0183004920847
 21
789.3287524157766
 31
0.0
  0
LINE
  5
63FE
330
1F
100
AcDbEntity
  8
細線
100
AcDbLine
 10
325.5183004920847
 20
790.3287524157766
 30
0.0
 11
326.0183004920847
 21
789.3287524157766
 31
0.0
  0
LINE
  5
63FF
330
1F
100
AcDbEntity
  8
細線
100
AcDbLine
 10
334.0183004920847
 20
789.3287524157766
 30
0.0
 11
334.5183004920847
 21
790.3287524157766
 31
0.0
  0
LINE
  5
6401
330
1F
100
AcDbEntity
  8
太線
100
AcDbLine
 10
326.0183004920847
 20
794.7277319013432
 30
0.0
 11
326.0183004920847
 21
790.3287524157767
 31
0.0
  0
LINE
  5
6402
330
1F
100
AcDbEntity
  8
想像線
100
AcDbLine
 10
326.0183004920847
 20
794.7277319013432
 30
0.0
 11
326.0183004920847
 21
790.3287524157767
 31
0.0
  0
LINE
  5
6405
330
1F
100
AcDbEntity
  8
太線
100
AcDbLine
 10
340.0183004920847
 20
820.5733157866381
 30
0.0
 11
340.0183004920847
 21
820.5733157866381
 31
0.0
  0
XLINE
  5
64D7
330
1F
100
AcDbEntity
  8
構築線
100
AcDbXline
 10
220.4454965241318
 20
715.3985795282117
 30
0.0
 11
1.0
 21
0.0
 31
0.0
  0
XLINE
  5
6541
330
1F
100
AcDbEntity
  8
構築線
100
AcDbXline
 10
218.9454965241318
 20
918.3399995297424
 30
0.0
 11
1.0
 21
0.0
 31
0.0
  0
XLINE
  5
6543
330
1F
100
AcDbEntity
  8
構築線
100
AcDbXline
 10
246.9454965241318
 20
848.195908254542
 30
0.0
 11
1.0
 21
0.0
 31
0.0
  0
LINE
  5
6544
330
1F
100
AcDbEntity
  8
想像線
100
AcDbLine
 10
214.2607425792386
 20
816.0834794756938
 30
0.0
 11
214.2607425792386
 21
814.6101128299102
 31
0.0
  0
LINE
  5
654A
330
1F
100
AcDbEntity
  8
細線
100
AcDbLine
 10
222.2607425792386
 20
787.8734880609028
 30
0.0
 11
222.7607425792386
 21
788.8734880609027
 31
0.0
  0
LINE
  5
654B
330
1F
100
AcDbEntity
  8
細線
100
AcDbLine
 10
213.7607425792386
 20
788.8734880609027
 30
0.0
 11
214.2607425792386
 21
787.8734880609028
 31
0.0
  0
LINE
  5
654C
330
1F
100
AcDbEntity
  8
太線
100
AcDbLine
 10
222.2607425792386
 20
787.8734880609028
 30
0.0
 11
214.2607425792386
 21
787.8734880609028
 31
0.0
  0
LINE
  5
654D
330
1F
100
AcDbEntity
  8
太線
100
AcDbLine
 10
213.7607425792386
 20
814.13556827736
 30
0.0
 11
213.7607425792386
 21
826.6995272631465
 31
0.0
  0
LINE
  5
654E
330
1F
100
AcDbEntity
  8
細線
100
AcDbLine
 10
213.7607425792386
 20
826.6995272631465
 30
0.0
 11
214.2607425792386
 21
828.6995272631465
 31
0.0
  0
LINE
  5
654F
330
1F
100
AcDbEntity
  8
太線
100
AcDbLine
 10
214.2607425792386
 20
828.6995272631465
 30
0.0
 11
222.2607425792386
 21
828.6995272631465
 31
0.0
  0
LINE
  5
6550
330
1F
100
AcDbEntity
  8
細線
100
AcDbLine
 10
222.2607425792386
 20
828.6995272631465
 30
0.0
 11
222.7607425792386
 21
826.6995272631465
 31
0.0
  0
LINE
  5
6551
330
1F
100
AcDbEntity
  8
太線
100
AcDbLine
 10
222.7607425792386
 20
826.6995272631465
 30
0.0
 11
222.7607425792386
 21
822.6773702232668
 31
0.0
  0
LINE
  5
6552
330
1F
100
AcDbEntity
  8
太線
100
AcDbLine
 10
214.2607425792386
 20
788.8734880609027
 30
0.0
 11
214.2607425792386
 21
794.713897408202
 31
0.0
  0
LINE
  5
6553
330
1F
100
AcDbEntity
  8
太線
100
AcDbLine
 10
222.2607425792386
 20
788.8734880609027
 30
0.0
 11
222.2607425792387
 21
794.713897408202
 31
0.0
  0
LINE
  5
6554
330
1F
100
AcDbEntity
  8
細線
100
AcDbLine
 10
213.7607425792386
 20
788.8734880609029
 30
0.0
 11
213.7607425792386
 21
794.7138974082019
 31
0.0
  0
LINE
  5
6555
330
1F
100
AcDbEntity
  8
細線
100
AcDbLine
 10
222.7607425792386
 20
788.8734880609029
 30
0.0
 11
222.7607425792386
 21
794.7138974082019
 31
0.0
  0
LINE
  5
6556
330
1F
100
AcDbEntity
  8
細線
100
AcDbLine
 10
213.7607425792386
 20
788.8734880609027
 30
0.0
 11
222.7607425792386
 21
788.8734880609027
 31
0.0
  0
ARC
  5
6559
330
1F
100
AcDbEntity
  8
太線
100
AcDbCircle
 10
224.7170944284593
 20
795.7138974082019
 30
0.0
 40
1.0
100
AcDbArc
 50
270.0
 51
0.0
  0
ARC
  5
655A
330
1F
100
AcDbEntity
  8
太線
100
AcDbCircle
 10
211.7170944284594
 20
795.7138974082019
 30
0.0
 40
1.0
100
AcDbArc
 50
180.0
 51
270.0
  0
ARC
  5
655B
330
1F
100
AcDbEntity
  8
太線
100
AcDbCircle
 10
225.8589520692852
 20
801.7138974082019
 30
0.0
 40
1.0
100
AcDbArc
 50
270.0
 51
0.0
  0
ARC
  5
655C
330
1F
100
AcDbEntity
  8
太線
100
AcDbCircle
 10
210.5752367876336
 20
801.7138974082019
 30
0.0
 40
1.0
100
AcDbArc
 50
180.0
 51
270.0
  0
ARC
  5
655D
330
1F
100
AcDbEntity
  8
太線
100
AcDbCircle
 10
223.9670944284593
 20
796.7422109780939
 30
0.0
 40
2.029760773594802
100
AcDbArc
 50
210.4388252364164
 51
329.5611747635835
  0
ARC
  5
655E
330
1F
100
AcDbEntity
  8
太線
100
AcDbCircle
 10
212.4670944284593
 20
796.6522065198256
 30
0.0
 40
1.985679729703703
100
AcDbArc
 50
208.1991695866887
 51
331.8008304133112
  0
ARC
  5
655F
330
1F
100
AcDbEntity
  8
太線
100
AcDbCircle
 10
218.2170944284593
 20
803.2138974082016
 30
0.0
 40
8.499999999999836
100
AcDbArc
 50
241.9275130641455
 51
298.0724869358544
  0
LINE
  5
6560
330
1F
100
AcDbEntity
  8
太線
100
AcDbLine
 10
222.2170944284593
 20
795.7138974082019
 30
0.0
 11
222.2170944284593
 21
800.7138974082019
 31
0.0
  0
LINE
  5
6561
330
1F
100
AcDbEntity
  8
太線
100
AcDbLine
 10
214.2170944284593
 20
795.7138974082019
 30
0.0
 11
214.2170944284593
 21
800.7138974082019
 31
0.0
  0
LINE
  5
6562
330
1F
100
AcDbEntity
  8
太線
100
AcDbLine
 10
210.7170944284593
 20
800.7138974082019
 30
0.0
 11
225.7170944284593
 21
800.7138974082019
 31
0.0
  0
LINE
  5
6563
330
1F
100
AcDbEntity
  8
太線
100
AcDbLine
 10
226.8589520692852
 20
801.7138974082019
 30
0.0
 11
226.8589520692852
 21
802.2138974082018
 31
0.0
  0
LINE
  5
6564
330
1F
100
AcDbEntity
  8
太線
100
AcDbLine
 10
225.7170944284593
 20
800.7138974082019
 30
0.0
 11
225.8589520692852
 21
800.7138974082019
 31
0.0
  0
LINE
  5
6565
330
1F
100
AcDbEntity
  8
太線
100
AcDbLine
 10
225.7170944284593
 20
795.7138974082019
 30
0.0
 11
225.7170944284593
 21
800.7138974082019
 31
0.0
  0
LINE
  5
6566
330
1F
100
AcDbEntity
  8
太線
100
AcDbLine
 10
211.7170944284594
 20
794.7138974082019
 30
0.0
 11
224.7170944284593
 21
794.7138974082019
 31
0.0
  0
LINE
  5
6567
330
1F
100
AcDbEntity
  8
太線
100
AcDbLine
 10
210.7170944284593
 20
800.7138974082019
 30
0.0
 11
210.7170944284594
 21
795.7138974082019
 31
0.0
  0
LINE
  5
6568
330
1F
100
AcDbEntity
  8
太線
100
AcDbLine
 10
210.5752367876335
 20
800.7138974082019
 30
0.0
 11
210.7170944284593
 21
800.7138974082019
 31
0.0
  0
LINE
  5
6569
330
1F
100
AcDbEntity
  8
太線
100
AcDbLine
 10
209.5752367876335
 20
802.2138974082018
 30
0.0
 11
209.5752367876335
 21
801.7138974082019
 31
0.0
  0
LINE
  5
656C
330
1F
100
AcDbEntity
  8
太線
100
AcDbLine
 10
268.1363398570086
 20
802.1691659849139
 30
0.0
 11
268.1363398570086
 21
801.669165984914
 31
0.0
  0
LINE
  5
656D
330
1F
100
AcDbEntity
  8
太線
100
AcDbLine
 10
269.1363398570087
 20
800.669165984914
 30
0.0
 11
269.2781974978345
 21
800.669165984914
 31
0.0
  0
LINE
  5
656E
330
1F
100
AcDbEntity
  8
太線
100
AcDbLine
 10
269.2781974978345
 20
800.669165984914
 30
0.0
 11
269.2781974978346
 21
795.6691659849139
 31
0.0
  0
LINE
  5
656F
330
1F
100
AcDbEntity
  8
太線
100
AcDbLine
 10
270.2781974978346
 20
794.669165984914
 30
0.0
 11
283.2781974978345
 21
794.669165984914
 31
0.0
  0
LINE
  5
6570
330
1F
100
AcDbEntity
  8
太線
100
AcDbLine
 10
284.2781974978345
 20
795.6691659849139
 30
0.0
 11
284.2781974978345
 21
800.669165984914
 31
0.0
  0
LINE
  5
6571
330
1F
100
AcDbEntity
  8
太線
100
AcDbLine
 10
284.2781974978345
 20
800.669165984914
 30
0.0
 11
284.4200551386603
 21
800.669165984914
 31
0.0
  0
LINE
  5
6572
330
1F
100
AcDbEntity
  8
太線
100
AcDbLine
 10
285.4200551386603
 20
801.669165984914
 30
0.0
 11
285.4200551386603
 21
802.1691659849139
 31
0.0
  0
LINE
  5
6573
330
1F
100
AcDbEntity
  8
太線
100
AcDbLine
 10
269.2781974978345
 20
800.669165984914
 30
0.0
 11
284.2781974978345
 21
800.669165984914
 31
0.0
  0
LINE
  5
6574
330
1F
100
AcDbEntity
  8
太線
100
AcDbLine
 10
272.7781974978345
 20
795.6691659849139
 30
0.0
 11
272.7781974978345
 21
800.669165984914
 31
0.0
  0
LINE
  5
6575
330
1F
100
AcDbEntity
  8
太線
100
AcDbLine
 10
280.7781974978345
 20
795.6691659849139
 30
0.0
 11
280.7781974978345
 21
800.669165984914
 31
0.0
  0
ARC
  5
6576
330
1F
100
AcDbEntity
  8
太線
100
AcDbCircle
 10
276.7781974978345
 20
803.1691659849137
 30
0.0
 40
8.499999999999836
100
AcDbArc
 50
241.9275130641455
 51
298.0724869358544
  0
ARC
  5
6577
330
1F
100
AcDbEntity
  8
太線
100
AcDbCircle
 10
271.0281974978345
 20
796.6074750965377
 30
0.0
 40
1.985679729703703
100
AcDbArc
 50
208.1991695866887
 51
331.8008304133112
  0
ARC
  5
6578
330
1F
100
AcDbEntity
  8
太線
100
AcDbCircle
 10
282.5281974978345
 20
796.697479554806
 30
0.0
 40
2.029760773594802
100
AcDbArc
 50
210.4388252364164
 51
329.5611747635835
  0
ARC
  5
6579
330
1F
100
AcDbEntity
  8
太線
100
AcDbCircle
 10
269.1363398570087
 20
801.669165984914
 30
0.0
 40
1.0
100
AcDbArc
 50
180.0
 51
270.0
  0
ARC
  5
657A
330
1F
100
AcDbEntity
  8
太線
100
AcDbCircle
 10
284.4200551386603
 20
801.669165984914
 30
0.0
 40
1.0
100
AcDbArc
 50
270.0
 51
0.0
  0
ARC
  5
657B
330
1F
100
AcDbEntity
  8
太線
100
AcDbCircle
 10
270.2781974978346
 20
795.6691659849139
 30
0.0
 40
1.0
100
AcDbArc
 50
180.0
 51
270.0
  0
ARC
  5
657C
330
1F
100
AcDbEntity
  8
太線
100
AcDbCircle
 10
283.2781974978345
 20
795.6691659849139
 30
0.0
 40
1.0
100
AcDbArc
 50
270.0
 51
0.0
  0
LINE
  5
6581
330
1F
100
AcDbEntity
  8
太線
100
AcDbLine
 10
289.0535909910368
 20
802.7286531503229
 30
0.0
 11
205.0541650231809
 21
802.4181099637928
 31
0.0
  0
ARC
  5
6582
330
1F
100
AcDbEntity
  8
太線
100
AcDbCircle
 10
246.9322401266206
 20
835.475446648636
 30
0.0
 40
23.2796974685795
100
AcDbArc
 50
209.9867354356142
 51
330.4369039566517
  0
LINE
  5
6583
330
1F
100
AcDbEntity
  8
太線
100
AcDbLine
 10
269.4748250890635
 20
823.9981487028847
 30
0.0
 11
267.181221173762
 21
823.9896693226949
 31
0.0
  0
LINE
  5
6584
330
1F
100
AcDbEntity
  8
太線
100
AcDbLine
 10
226.7687365215851
 20
823.8402656617189
 30
0.0
 11
223.9751360231416
 21
823.8299378101809
 31
0.0
  0
LINE
  5
6585
330
1F
100
AcDbEntity
  8
太線
100
AcDbLine
 10
204.0541718568968
 20
802.4144130210959
 30
0.0
 11
204.0449295001549
 21
804.9143959368061
 31
0.0
  0
LINE
  5
6586
330
1F
100
AcDbEntity
  8
太線
100
AcDbLine
 10
204.0449295001549
 20
804.9143959368061
 30
0.0
 11
223.9751360231416
 21
823.8299378101809
 31
0.0
  0
LINE
  5
6587
330
1F
100
AcDbEntity
  8
太線
100
AcDbLine
 10
269.4748250890635
 20
823.9981487028847
 30
0.0
 11
290.0443418005788
 21
805.2323330087297
 31
0.0
  0
LINE
  5
6588
330
1F
100
AcDbEntity
  8
太線
100
AcDbLine
 10
290.0443418005788
 20
805.2323330087297
 30
0.0
 11
290.0535841573207
 21
802.7323500930197
 31
0.0
  0
LINE
  5
6589
330
1F
100
AcDbEntity
  8
太線
100
AcDbLine
 10
290.0535841573207
 20
802.7323500930197
 30
0.0
 11
289.0535909910368
 21
802.7286531503229
 31
0.0
  0
LINE
  5
658A
330
1F
100
AcDbEntity
  8
想像線
100
AcDbLine
 10
290.0443418005788
 20
805.2323330087297
 30
0.0
 11
204.0449295001549
 21
804.9143959368061
 31
0.0
  0
ARC
  5
658B
330
1F
100
AcDbEntity
  8
太線
100
AcDbCircle
 10
247.0183004920847
 20
835.4756057231215
 30
0.0
 40
23.2796974685795
100
AcDbArc
 50
210.7486871587841
 51
329.2513128412158
  0
LINE
  5
658C
330
1F
100
AcDbEntity
  8
細線
100
AcDbLine
 10
271.5183004920847
 20
788.8287566376149
 30
0.0
 11
280.5183004920848
 21
788.8287566376149
 31
0.0
  0
LINE
  5
658D
330
1F
100
AcDbEntity
  8
細線
100
AcDbLine
 10
280.5183004920848
 20
788.828756637615
 30
0.0
 11
280.5183004920847
 21
794.669165984914
 31
0.0
  0
LINE
  5
658E
330
1F
100
AcDbEntity
  8
細線
100
AcDbLine
 10
271.5183004920847
 20
788.828756637615
 30
0.0
 11
271.5183004920847
 21
794.669165984914
 31
0.0
  0
LINE
  5
658F
330
1F
100
AcDbEntity
  8
太線
100
AcDbLine
 10
280.0183004920847
 20
788.8287566376149
 30
0.0
 11
280.0183004920847
 21
794.6691659849141
 31
0.0
  0
LINE
  5
6590
330
1F
100
AcDbEntity
  8
太線
100
AcDbLine
 10
272.0183004920847
 20
788.8287566376149
 30
0.0
 11
272.0183004920847
 21
794.6691659849141
 31
0.0
  0
LINE
  5
6591
330
1F
100
AcDbEntity
  8
太線
100
AcDbLine
 10
280.5183004920848
 20
826.6995272631465
 30
0.0
 11
280.5183004920848
 21
813.923054234573
 31
0.0
  0
LINE
  5
6592
330
1F
100
AcDbEntity
  8
細線
100
AcDbLine
 10
280.0183004920847
 20
828.6995272631465
 30
0.0
 11
280.5183004920848
 21
826.6995272631465
 31
0.0
  0
LINE
  5
6593
330
1F
100
AcDbEntity
  8
太線
100
AcDbLine
 10
272.0183004920847
 20
828.6995272631465
 30
0.0
 11
280.0183004920847
 21
828.6995272631465
 31
0.0
  0
LINE
  5
6594
330
1F
100
AcDbEntity
  8
細線
100
AcDbLine
 10
271.5183004920847
 20
826.6995272631465
 30
0.0
 11
272.0183004920847
 21
828.6995272631465
 31
0.0
  0
LINE
  5
6595
330
1F
100
AcDbEntity
  8
太線
100
AcDbLine
 10
271.5183004920847
 20
822.1338616937895
 30
0.0
 11
271.5183004920847
 21
826.6995272631465
 31
0.0
  0
LINE
  5
6596
330
1F
100
AcDbEntity
  8
太線
100
AcDbLine
 10
280.0183004920847
 20
787.8287566376148
 30
0.0
 11
272.0183004920847
 21
787.8287566376148
 31
0.0
  0
LINE
  5
6597
330
1F
100
AcDbEntity
  8
細線
100
AcDbLine
 10
271.5183004920847
 20
788.8287566376149
 30
0.0
 11
272.0183004920847
 21
787.8287566376148
 31
0.0
  0
LINE
  5
6598
330
1F
100
AcDbEntity
  8
細線
100
AcDbLine
 10
280.0183004920847
 20
787.8287566376148
 30
0.0
 11
280.5183004920848
 21
788.8287566376149
 31
0.0
  0
LINE
  5
659E
330
1F
100
AcDbEntity
  8
想像線
100
AcDbLine
 10
280.0183004920847
 20
816.0834794756938
 30
0.0
 11
280.0183004920847
 21
814.3792102045294
 31
0.0
  0
TEXT
  5
65CB
330
1F
100
AcDbEntity
  8
文字
100
AcDbText
 10
237.5247802969829
 20
832.6992620297822
 30
0.0
 40
10.0
  1
単管
 51
15.0
  7
OKANO
100
AcDbText
  0
XLINE
  5
6612
330
1F
100
AcDbEntity
  8
構築線
100
AcDbXline
 10
218.9454965241318
 20
793.3399995297423
 30
0.0
 11
1.0
 21
0.0
 31
0.0
  0
LINE
  5
6625
330
1F
100
AcDbEntity
  8
太線
100
AcDbLine
 10
334.0183004920847
 20
868.0420405586099
 30
0.0
 11
334.0183004920847
 21
861.9410200441761
 31
0.0
  0
LINE
  5
6626
330
1F
100
AcDbEntity
  8
太線
100
AcDbLine
 10
520.3735311232454
 20
868.0420405586099
 30
0.0
 11
520.3735311232454
 21
861.9410200441761
 31
0.0
  0
LINE
  5
6627
330
1F
100
AcDbEntity
  8
細線
100
AcDbLine
 10
184.492401728546
 20
867.9410200441761
 30
0.0
 11
184.492401728546
 21
861.8399995297423
 31
0.0
  0
TEXT
  5
663E
330
1F
100
AcDbEntity
  8
文字
100
AcDbText
 10
235.6592749022231
 20
890.1368163671286
 30
40.0
 40
7.0
  1
46ｍｍ
 51
15.0
  7
OKANO
100
AcDbText
  0
TEXT
  5
663F
330
1F
100
AcDbEntity
  8
文字
100
AcDbText
 10
413.178769015619
 20
892.7191241580585
 30
40.0
 40
7.0
  1
46ｍｍ
 51
15.0
  7
OKANO
100
AcDbText
  0
XLINE
  5
6658
330
1F
100
AcDbEntity
  8
構築線
100
AcDbXline
 10
218.9454965241318
 20
788.3399995297423
 30
0.0
 11
1.0
 21
0.0
 31
0.0
  0
LINE
  5
666B
330
1F
100
AcDbEntity
  8
細線
100
AcDbLine
 10
184.492401728546
 20
867.9410200441761
 30
0.0
 11
184.419597760593
 21
872.8399995297424
 31
0.0
  0
LINE
  5
666C
330
1F
100
AcDbEntity
  8
細線
100
AcDbLine
 10
336.209529763495
 20
867.2389790153086
 30
0.0
 11
336.282333731448
 21
862.3399995297424
 31
0.0
  0
LINE
  5
666D
330
1F
100
AcDbEntity
  8
太線
100
AcDbLine
 10
528.3007271552924
 20
865.6347793544776
 30
0.0
 11
528.3735311232454
 21
861.9410200441761
 31
0.0
  0
LINE
  5
666E
330
1F
100
AcDbEntity
  8
太線
100
AcDbLine
 10
520.3007271552924
 20
872.9410200441762
 30
0.0
 11
520.3735311232454
 21
868.0420405586099
 31
0.0
  0
LINE
  5
666F
330
1F
100
AcDbEntity
  8
太線
100
AcDbLine
 10
537.3007271552924
 20
911.3399995297426
 30
0.0
 11
537.3735311232453
 21
865.3399995297423
 31
0.0
  0
LINE
  5
6670
330
1F
100
AcDbEntity
  8
太線
100
AcDbLine
 10
534.3007271552924
 20
867.2389790153088
 30
0.0
 11
534.3735311232453
 21
862.3399995297424
 31
0.0
  0
DIMENSION
  5
6671
330
1F
100
AcDbEntity
  8
寸法線
100
AcDbDimension
  2
*D9
 10
578.5608055471676
 20
862.3399995297424
 30
0.0
 11
575.0608055471673
 21
885.3399995297424
 31
0.0
 70
    32
 71
     5
 42
46.00000000000011
  3
sunpo
100
AcDbAlignedDimension
 13
534.3007271552924
 23
908.3399995297424
 33
0.0
 14
549.3735311232454
 24
862.3399995297424
 34
0.0
 50
90.0
100
AcDbRotatedDimension
1001
ACAD
1000
DSTYLE
1002
{
1070
    40
1040
1.0
1002
}
  0
DIMENSION
  5
667F
330
1F
100
AcDbEntity
  8
寸法線
100
AcDbDimension
  2
*D10
 10
178.1760962329571
 20
787.8172268051712
 30
0.0
 11
174.6756041069728
 21
853.0786131674567
 31
0.0
 70
    32
  1
125
 71
     5
 42
130.5227727245711
  3
sunpo
100
AcDbAlignedDimension
 13
214.2295522808142
 23
918.3399995297424
 33
0.0
 14
218.0153586143665
 24
787.8172268051712
 34
0.0
 50
90.0
100
AcDbRotatedDimension
1001
ACAD
1000
DSTYLE
1002
{
1070
    40
1040
1.0
1002
}
  0
DIMENSION
  5
67F5
330
1F
100
AcDbEntity
  8
寸法線
100
AcDbDimension
  2
*D14
 10
303.4279681596089
 20
996.8969398647031
 30
0.0
 11
299.9274760336246
 21
986.5771101880975
 31
0.0
 70
    32
  1
20
 71
     5
 42
20.63965935321175
  3
sunpo
100
AcDbAlignedDimension
 13
289.5625886963099
 23
976.2572805114913
 33
0.0
 14
279.5625886963099
 24
996.8969398647031
 34
0.0
 50
90.0
100
AcDbRotatedDimension
1001
ACAD
1000
DSTYLE
1002
{
1070
    40
1040
1.0
1070
   279
1070
     1
1002
}
  0
DIMENSION
  5
67F6
330
1F
100
AcDbEntity
  8
寸法線
100
AcDbDimension
  2
*D13
 10
303.4279681596089
 20
976.2572805114913
 30
0.0
 11
299.9274760336246
 21
966.577110188097
 31
0.0
 70
    32
  1
20
 71
     5
 42
19.36034064678915
  3
sunpo
100
AcDbAlignedDimension
 13
279.5625886963099
 23
956.8969398647023
 33
0.0
 14
289.5625886963099
 24
976.2572805114913
 34
0.0
 50
90.0
100
AcDbRotatedDimension
1001
ACAD
1000
DSTYLE
1002
{
1070
    40
1040
1.0
1002
}
  0
LINE
  5
67F7
330
1F
100
AcDbEntity
  8
太線
100
AcDbLine
 10
289.5625886963099
 20
966.8969398647023
 30
0.0
 11
289.5625886963099
 21
976.2572805114913
 31
0.0
  0
ARC
  5
67F8
330
1F
100
AcDbEntity
  8
太線
100
AcDbCircle
 10
279.5625886963099
 20
966.8969398647023
 30
0.0
 40
10.0
100
AcDbArc
 50
270.0
 51
0.0
  0
LINE
  5
67F9
330
1F
100
AcDbEntity
  8
太線
100
AcDbLine
 10
213.5625886963098
 20
956.8969398647023
 30
0.0
 11
279.5625886963099
 21
956.8969398647023
 31
0.0
  0
ARC
  5
67FA
330
1F
100
AcDbEntity
  8
太線
100
AcDbCircle
 10
213.5625886963098
 20
966.8969398647023
 30
0.0
 40
10.0
100
AcDbArc
 50
180.0
 51
270.0
  0
LINE
  5
67FB
330
1F
100
AcDbEntity
  8
太線
100
AcDbLine
 10
203.5625886963098
 20
976.8969398647023
 30
0.0
 11
203.5625886963098
 21
966.8969398647023
 31
0.0
  0
LINE
  5
67FC
330
1F
100
AcDbEntity
  8
太線
100
AcDbLine
 10
289.5625886963099
 20
986.8969398647031
 30
0.0
 11
289.5625886963099
 21
976.2572805114913
 31
0.0
  0
LINE
  5
67FD
330
1F
100
AcDbEntity
  8
太線
100
AcDbLine
 10
203.5625886963098
 20
976.8969398647023
 30
0.0
 11
203.5625886963098
 21
986.8969398647031
 31
0.0
  0
DIMENSION
  5
67FE
330
1F
100
AcDbEntity
  8
寸法線
100
AcDbDimension
  2
*D12
 10
209.5625886963098
 20
959.2455327450934
 30
0.0
 11
216.5625886963098
 21
962.7455327450935
 31
0.0
 70
    32
 71
     5
 42
14.0
  3
sunpo
100
AcDbAlignedDimension
 13
223.5625886963098
 23
976.8969398647023
 33
0.0
 14
209.5625886963098
 24
976.8969398647023
 34
0.0
100
AcDbRotatedDimension
1001
ACAD
1000
DSTYLE
1002
{
1070
    40
1040
1.0
1002
}
  0
LINE
  5
67FF
330
1F
100
AcDbEntity
  8
太線
100
AcDbLine
 10
272.0625886963098
 20
981.3969398647023
 30
0.0
 11
277.0625886963099
 21
981.3969398647023
 31
0.0
  0
LINE
  5
6800
330
1F
100
AcDbEntity
  8
太線
100
AcDbLine
 10
277.0625886963099
 20
972.3969398647032
 30
0.0
 11
272.0625886963098
 21
972.3969398647032
 31
0.0
  0
ARC
  5
6801
330
1F
100
AcDbEntity
  8
太線
100
AcDbCircle
 10
272.0625886963098
 20
976.8969398647023
 30
0.0
 40
4.5
100
AcDbArc
 50
90.0
 51
270.0
  0
ARC
  5
6802
330
1F
100
AcDbEntity
  8
太線
100
AcDbCircle
 10
277.0625886963099
 20
976.8969398647023
 30
0.0
 40
4.5
100
AcDbArc
 50
270.0
 51
90.0
  0
LINE
  5
6803
330
1F
100
AcDbEntity
  8
太線
100
AcDbLine
 10
219.0625886963099
 20
972.3969398647032
 30
0.0
 11
214.0625886963098
 21
972.3969398647032
 31
0.0
  0
LINE
  5
6804
330
1F
100
AcDbEntity
  8
太線
100
AcDbLine
 10
214.0625886963098
 20
981.3969398647023
 30
0.0
 11
219.0625886963099
 21
981.3969398647023
 31
0.0
  0
ARC
  5
6805
330
1F
100
AcDbEntity
  8
太線
100
AcDbCircle
 10
219.0625886963099
 20
976.8969398647023
 30
0.0
 40
4.5
100
AcDbArc
 50
270.0
 51
90.0
  0
ARC
  5
6806
330
1F
100
AcDbEntity
  8
太線
100
AcDbCircle
 10
214.0625886963098
 20
976.8969398647023
 30
0.0
 40
4.5
100
AcDbArc
 50
90.0
 51
270.0
  0
LINE
  5
6807
330
1F
100
AcDbEntity
  8
太線
100
AcDbLine
 10
213.5625886963098
 20
996.8969398647031
 30
0.0
 11
279.5625886963099
 21
996.8969398647031
 31
0.0
  0
ARC
  5
6808
330
1F
100
AcDbEntity
  8
太線
100
AcDbCircle
 10
213.5625886963098
 20
986.8969398647031
 30
0.0
 40
10.0
100
AcDbArc
 50
90.0
 51
180.0
  0
ARC
  5
6809
330
1F
100
AcDbEntity
  8
太線
100
AcDbCircle
 10
279.5625886963099
 20
986.8969398647031
 30
0.0
 40
10.0
100
AcDbArc
 50
0.0
 51
90.0
  0
DIMENSION
  5
680A
330
1F
100
AcDbEntity
  8
寸法線
100
AcDbDimension
  2
*D11
 10
213.5625886963101
 20
986.8969398647028
 30
0.0
 11
197.0232512682262
 21
1003.07219828965
 31
0.0
 70
   164
 71
     5
 42
10.00000000000034
  3
sunpo
100
AcDbRadialDimension
 15
206.4132700658053
 25
993.8888811630492
 35
0.0
 40
0.0
1001
ACAD
1000
DSTYLE
1002
{
1070
    40
1040
1.0
1070
   288
1070
     1
1002
}
  0
XLINE
  5
687A
330
1F
100
AcDbEntity
  8
構築線
100
AcDbXline
 10
203.5625886963098
 20
907.8963097031229
 30
0.0
 11
0.0
 21
1.0
 31
0.0
  0
DIMENSION
  5
68A3
330
1F
100
AcDbEntity
  8
寸法線
100
AcDbDimension
  2
*D15
 10
552.6327468061354
 20
788.441020044176
 30
0.0
 11
549.1327468061351
 21
808.6207839108784
 31
0.0
 70
    32
  1
40
 71
     5
 42
40.35952773340421
  3
sunpo
100
AcDbAlignedDimension
 13
528.3735311232454
 23
828.8005477775802
 33
0.0
 14
528.3735311232454
 24
788.441020044176
 34
0.0
 50
90.0
100
AcDbRotatedDimension
1001
ACAD
1000
DSTYLE
1002
{
1070
    40
1040
1.0
1002
}
  0
DIMENSION
  5
699F
330
1F
100
AcDbEntity
  8
寸法線
100
AcDbDimension
  2
*D16
 10
536.7392912252391
 20
687.0162025725003
 30
0.0
 11
524.2392912252391
 21
690.5166946984845
 31
0.0
 70
    32
 71
     5
 42
25.0
  3
sunpo
100
AcDbAlignedDimension
 13
511.7392912252391
 23
702.8985795282117
 33
0.0
 14
536.7392912252391
 24
702.8985795282117
 34
0.0
100
AcDbRotatedDimension
1001
ACAD
1000
DSTYLE
1002
{
1070
    40
1040
1.0
1002
}
  0
LINE
  5
69A0
330
1F
100
AcDbEntity
  8
太線
100
AcDbLine
 10
533.2392552847028
 20
702.8985795282117
 30
0.0
 11
535.2392552847028
 21
702.8985795282117
 31
0.0
  0
LINE
  5
69A1
330
1F
100
AcDbEntity
  8
太線
100
AcDbLine
 10
512.7392912252392
 20
702.8985795282117
 30
0.0
 11
515.2392552847028
 21
702.8985795282117
 31
0.0
  0
LINE
  5
69A2
330
1F
100
AcDbEntity
  8
太線
100
AcDbLine
 10
530.7392552847028
 20
705.3985795282117
 30
0.0
 11
533.2392912252392
 21
705.3985795282117
 31
0.0
  0
LINE
  5
69A3
330
1F
100
AcDbEntity
  8
太線
100
AcDbLine
 10
515.2392912252391
 20
705.3985795282117
 30
0.0
 11
517.7392552847028
 21
705.3985795282117
 31
0.0
  0
ARC
  5
69A4
330
1F
100
AcDbEntity
  8
太線
100
AcDbCircle
 10
533.2392912252392
 20
706.3985795282117
 30
0.0
 40
1.0
100
AcDbArc
 50
270.0
 51
0.0
  0
DIMENSION
  5
69A5
330
1F
100
AcDbEntity
  8
寸法線
100
AcDbDimension
  2
*D17
 10
191.8695743653509
 20
715.3985795282117
 30
0.0
 11
188.3690822393665
 21
702.8985795282117
 31
0.0
 70
    32
 71
     5
 42
25.0
  3
sunpo
100
AcDbAlignedDimension
 13
203.5625886963098
 23
690.3985795282117
 33
0.0
 14
203.5625886963098
 24
715.3985795282117
 34
0.0
 50
90.0
100
AcDbRotatedDimension
1001
ACAD
1000
DSTYLE
1002
{
1070
    40
1040
1.0
1002
}
  0
DIMENSION
  5
69A6
330
1F
100
AcDbEntity
  8
寸法線
100
AcDbDimension
  2
*D18
 10
427.3435777730949
 20
735.8007761487224
 30
0.0
 11
422.4328267646527
 21
731.2770232649395
 31
0.0
 70
   164
  1
24.5
 71
     5
 42
23.27969746857888
  3
sunpo
100
AcDbRadialDimension
 15
410.2215139062578
 25
720.0280388096136
 35
0.0
 40
0.0
1001
ACAD
1000
DSTYLE
1002
{
1070
    40
1040
1.0
1070
   288
1070
     1
1002
}
  0
DIMENSION
  5
69A7
330
1F
100
AcDbEntity
  8
寸法線
100
AcDbDimension
  2
*D19
 10
482.9389147036411
 20
703.0576795931067
 30
0.0
 11
479.438914703641
 21
707.8898601906014
 31
0.0
 70
    32
  1
10
 71
     5
 42
9.664361194989169
  3
sunpo
100
AcDbAlignedDimension
 13
427.6999593845969
 23
712.7220407880959
 33
0.0
 14
470.4649218037949
 24
703.0576795931067
 34
0.0
 50
90.0
100
AcDbRotatedDimension
1001
ACAD
1000
DSTYLE
1002
{
1070
    40
1040
1.0
1002
}
  0
DIMENSION
  5
69A8
330
1F
100
AcDbEntity
  8
寸法線
100
AcDbDimension
  2
*D20
 10
369.3815540974894
 20
724.1552673102679
 30
0.0
 11
365.8810619715051
 21
713.4475049157256
 31
0.0
 70
    32
  1
21
 71
     5
 42
21.41552478908488
  3
sunpo
100
AcDbAlignedDimension
 13
384.4655095033709
 23
702.739742521183
 33
0.0
 14
404.3864736696157
 24
724.1552673102679
 34
0.0
 50
90.0
100
AcDbRotatedDimension
1001
ACAD
1000
DSTYLE
1002
{
1070
    40
1040
1.0
1002
}
  0
DIMENSION
  5
69A9
330
1F
100
AcDbEntity
  8
寸法線
100
AcDbDimension
  2
*D21
 10
470.4649218037949
 20
678.7077073676628
 30
0.0
 11
427.4652156535829
 21
682.2077073676628
 31
0.0
 70
    32
 71
     5
 42
85.99941230042389
  3
sunpo
100
AcDbAlignedDimension
 13
384.4655095033709
 23
702.739742521183
 33
0.0
 14
470.4649218037949
 24
703.0576795931067
 34
0.0
100
AcDbRotatedDimension
1001
ACAD
1000
DSTYLE
1002
{
1070
    40
1040
1.0
1002
}
  0
DIMENSION
  5
69AA
330
1F
100
AcDbEntity
  8
寸法線
100
AcDbDimension
  2
*D22
 10
567.4732419671193
 20
723.8985795282117
 30
0.0
 11
563.9727498411349
 21
713.3985795282118
 31
0.0
 70
    32
 71
     5
 42
21.0
  3
sunpo
100
AcDbAlignedDimension
 13
533.2392552847028
 23
702.8985795282117
 33
0.0
 14
531.7392552847028
 24
723.8985795282117
 34
0.0
 50
90.0
100
AcDbRotatedDimension
1001
ACAD
1000
DSTYLE
1002
{
1070
    40
1040
1.0
1002
}
  0
LINE
  5
69AB
330
1F
100
AcDbEntity
  8
寸法線
100
AcDbLine
 10
536.7392912252391
 20
703.8985795282118
 30
0.0
 11
536.7392912252391
 21
722.8985795282117
 31
0.0
  0
LINE
  5
69AC
330
1F
100
AcDbEntity
  8
想像線
100
AcDbLine
 10
203.5625886963098
 20
692.8985795282117
 30
0.0
 11
289.5625886963098
 21
692.8985795282117
 31
0.0
  0
LINE
  5
69AD
330
1F
100
AcDbEntity
  8
想像線
100
AcDbLine
 10
289.5625886963098
 20
712.8985795282117
 30
0.0
 11
203.5625886963098
 21
712.8985795282117
 31
0.0
  0
LINE
  5
69AE
330
1F
100
AcDbEntity
  8
太線
100
AcDbLine
 10
289.5625886963098
 20
715.3985795282117
 30
0.0
 11
289.5625886963098
 21
690.3985795282117
 31
0.0
  0
LINE
  5
69AF
330
1F
100
AcDbEntity
  8
太線
100
AcDbLine
 10
203.5625886963098
 20
715.3985795282117
 30
0.0
 11
203.5625886963098
 21
690.3985795282117
 31
0.0
  0
DIMENSION
  5
69B0
330
1F
100
AcDbEntity
  8
寸法線
100
AcDbDimension
  2
*D23
 10
310.5361743187402
 20
707.3985795282117
 30
0.0
 11
307.0361743187401
 21
702.8985795282117
 31
0.0
 70
    32
 71
     5
 42
9.0
  3
sunpo
100
AcDbAlignedDimension
 13
275.5625886963098
 23
698.3985795282117
 33
0.0
 14
275.5625886963098
 24
707.3985795282117
 34
0.0
 50
90.0
100
AcDbRotatedDimension
1001
ACAD
1000
DSTYLE
1002
{
1070
    40
1040
1.0
1002
}
  0
DIMENSION
  5
69B1
330
1F
100
AcDbEntity
  8
寸法線
100
AcDbDimension
  2
*D24
 10
210.5625886963098
 20
682.2471724086019
 30
0.0
 11
217.5625886963098
 21
685.7471724086019
 31
0.0
 70
    32
 71
     5
 42
14.0
  3
sunpo
100
AcDbAlignedDimension
 13
224.5625886963098
 23
702.8985795282117
 33
0.0
 14
210.5625886963098
 24
702.8985795282117
 34
0.0
100
AcDbRotatedDimension
1001
ACAD
1000
DSTYLE
1002
{
1070
    40
1040
1.0
1002
}
  0
DIMENSION
  5
69B2
330
1F
100
AcDbEntity
  8
寸法線
100
AcDbDimension
  2
*D25
 10
275.5478939618035
 20
726.1752869754675
 30
0.0
 11
246.5552413290566
 21
732.1752869754675
 31
0.0
 70
    32
  1
60
 71
     5
 42
57.9853052654937
  3
sunpo
100
AcDbAlignedDimension
 13
217.5625886963098
 23
712.8985795282117
 33
0.0
 14
275.5478939618035
 24
704.1249974416583
 34
0.0
100
AcDbRotatedDimension
1001
ACAD
1000
DSTYLE
1002
{
1070
   140
1040
10.0
1070
    40
1040
1.0
1002
}
  0
LINE
  5
69B3
330
1F
100
AcDbEntity
  8
太線
100
AcDbLine
 10
273.0625886963098
 20
707.3985795282117
 30
0.0
 11
278.0625886963098
 21
707.3985795282117
 31
0.0
  0
LINE
  5
69B4
330
1F
100
AcDbEntity
  8
太線
100
AcDbLine
 10
278.0625886963098
 20
698.3985795282117
 30
0.0
 11
273.0625886963098
 21
698.3985795282117
 31
0.0
  0
ARC
  5
69B5
330
1F
100
AcDbEntity
  8
太線
100
AcDbCircle
 10
273.0625886963098
 20
702.8985795282117
 30
0.0
 40
4.5
100
AcDbArc
 50
90.0
 51
270.0
  0
ARC
  5
69B6
330
1F
100
AcDbEntity
  8
太線
100
AcDbCircle
 10
278.0625886963098
 20
702.8985795282117
 30
0.0
 40
4.5
100
AcDbArc
 50
270.0
 51
90.0
  0
LINE
  5
69B7
330
1F
100
AcDbEntity
  8
太線
100
AcDbLine
 10
220.0625886963098
 20
698.3985795282117
 30
0.0
 11
215.0625886963098
 21
698.3985795282117
 31
0.0
  0
LINE
  5
69B8
330
1F
100
AcDbEntity
  8
太線
100
AcDbLine
 10
215.0625886963098
 20
707.3985795282117
 30
0.0
 11
220.0625886963098
 21
707.3985795282117
 31
0.0
  0
LINE
  5
69B9
330
1F
100
AcDbEntity
  8
太線
100
AcDbLine
 10
203.5625886963098
 20
690.3985795282117
 30
0.0
 11
289.5625886963098
 21
690.3985795282117
 31
0.0
  0
LINE
  5
69BA
330
1F
100
AcDbEntity
  8
太線
100
AcDbLine
 10
203.5625886963098
 20
715.3985795282117
 30
0.0
 11
289.5625886963098
 21
715.3985795282117
 31
0.0
  0
ARC
  5
69BB
330
1F
100
AcDbEntity
  8
太線
100
AcDbCircle
 10
220.0625886963098
 20
702.8985795282117
 30
0.0
 40
4.5
100
AcDbArc
 50
270.0
 51
90.0
  0
ARC
  5
69BC
330
1F
100
AcDbEntity
  8
太線
100
AcDbCircle
 10
215.0625886963098
 20
702.8985795282117
 30
0.0
 40
4.5
100
AcDbArc
 50
90.0
 51
270.0
  0
LINE
  5
69BD
330
1F
100
AcDbEntity
  8
太線
100
AcDbLine
 10
511.7392912252391
 20
722.8985795282117
 30
0.0
 11
511.7392912252391
 21
703.8985795282118
 31
0.0
  0
LINE
  5
69BE
330
1F
100
AcDbEntity
  8
太線
100
AcDbLine
 10
515.2392552847028
 20
702.8985795282117
 30
0.0
 11
533.2392552847028
 21
702.8985795282117
 31
0.0
  0
LINE
  5
69BF
330
1F
100
AcDbEntity
  8
太線
100
AcDbLine
 10
536.7392912252391
 20
703.8985795282118
 30
0.0
 11
536.7392912252391
 21
722.8985795282117
 31
0.0
  0
LINE
  5
69C0
330
1F
100
AcDbEntity
  8
太線
100
AcDbLine
 10
535.7392912252391
 20
723.8985795282117
 30
0.0
 11
534.2392912252392
 21
723.8985795282117
 31
0.0
  0
LINE
  5
69C1
330
1F
100
AcDbEntity
  8
太線
100
AcDbLine
 10
534.2392912252392
 20
723.8985795282117
 30
0.0
 11
534.2392912252392
 21
706.3985795282117
 31
0.0
  0
LINE
  5
69C2
330
1F
100
AcDbEntity
  8
太線
100
AcDbLine
 10
530.7392552847028
 20
705.3985795282117
 30
0.0
 11
517.7392552847028
 21
705.3985795282117
 31
0.0
  0
LINE
  5
69C3
330
1F
100
AcDbEntity
  8
太線
100
AcDbLine
 10
514.2392912252391
 20
706.3985795282117
 30
0.0
 11
514.2392912252391
 21
723.8985795282117
 31
0.0
  0
LINE
  5
69C4
330
1F
100
AcDbEntity
  8
太線
100
AcDbLine
 10
514.2392912252391
 20
723.8985795282117
 30
0.0
 11
512.7392912252392
 21
723.8985795282117
 31
0.0
  0
LINE
  5
69C5
330
1F
100
AcDbEntity
  8
想像線
100
AcDbLine
 10
519.7392552847028
 20
702.8985795282117
 30
0.0
 11
519.7392552847028
 21
705.3985795282117
 31
0.0
  0
LINE
  5
69C6
330
1F
100
AcDbEntity
  8
想像線
100
AcDbLine
 10
528.7392552847028
 20
702.8985795282117
 30
0.0
 11
528.7392552847028
 21
705.3985795282117
 31
0.0
  0
ARC
  5
69C7
330
1F
100
AcDbEntity
  8
太線
100
AcDbCircle
 10
512.7392912252392
 20
703.8985795282118
 30
0.0
 40
1.0
100
AcDbArc
 50
180.0
 51
270.0
  0
ARC
  5
69C8
330
1F
100
AcDbEntity
  8
太線
100
AcDbCircle
 10
535.7392912252391
 20
703.8985795282118
 30
0.0
 40
1.0
100
AcDbArc
 50
270.0
 51
0.0
  0
ARC
  5
69C9
330
1F
100
AcDbEntity
  8
太線
100
AcDbCircle
 10
515.2392912252391
 20
706.3985795282117
 30
0.0
 40
1.0
100
AcDbArc
 50
180.0
 51
270.0
  0
ARC
  5
69CA
330
1F
100
AcDbEntity
  8
太線
100
AcDbCircle
 10
512.7392912252392
 20
722.8985795282117
 30
0.0
 40
1.0
100
AcDbArc
 50
90.0
 51
180.0
  0
ARC
  5
69CB
330
1F
100
AcDbEntity
  8
太線
100
AcDbCircle
 10
535.7392912252391
 20
722.8985795282117
 30
0.0
 40
1.0
100
AcDbArc
 50
0.0
 51
90.0
  0
LINE
  5
69CC
330
1F
100
AcDbEntity
  8
想像線
100
AcDbLine
 10
470.4556794470529
 20
705.5576625088167
 30
0.0
 11
384.456267146629
 21
705.2397254368931
 31
0.0
  0
LINE
  5
69CD
330
1F
100
AcDbEntity
  8
太線
100
AcDbLine
 10
470.4649218037949
 20
703.0576795931067
 30
0.0
 11
469.4649286375108
 21
703.0539826504099
 31
0.0
  0
LINE
  5
69CE
330
1F
100
AcDbEntity
  8
太線
100
AcDbLine
 10
470.4556794470529
 20
705.5576625088167
 30
0.0
 11
470.4649218037949
 21
703.0576795931067
 31
0.0
  0
LINE
  5
69CF
330
1F
100
AcDbEntity
  8
太線
100
AcDbLine
 10
449.8861627355376
 20
724.3234782029717
 30
0.0
 11
470.4556794470529
 21
705.5576625088167
 31
0.0
  0
LINE
  5
69D0
330
1F
100
AcDbEntity
  8
太線
100
AcDbLine
 10
384.456267146629
 20
705.2397254368931
 30
0.0
 11
404.3864736696157
 21
724.1552673102679
 31
0.0
  0
LINE
  5
69D1
330
1F
100
AcDbEntity
  8
太線
100
AcDbLine
 10
384.4655095033709
 20
702.739742521183
 30
0.0
 11
384.456267146629
 21
705.2397254368931
 31
0.0
  0
LINE
  5
69D2
330
1F
100
AcDbEntity
  8
太線
100
AcDbLine
 10
407.1800741680593
 20
724.1655951618059
 30
0.0
 11
404.3864736696157
 21
724.1552673102679
 31
0.0
  0
LINE
  5
69D3
330
1F
100
AcDbEntity
  8
太線
100
AcDbLine
 10
449.8861627355376
 20
724.3234782029717
 30
0.0
 11
447.5925588202361
 21
724.314998822782
 31
0.0
  0
ARC
  5
69D4
330
1F
100
AcDbEntity
  8
太線
100
AcDbCircle
 10
427.3435777730947
 20
735.800776148723
 30
0.0
 40
23.2796974685795
100
AcDbArc
 50
209.9867354356147
 51
330.4369039566483
  0
LINE
  5
69D5
330
1F
100
AcDbEntity
  8
太線
100
AcDbLine
 10
469.4649286375108
 20
703.0539826504099
 30
0.0
 11
385.465502669655
 21
702.7434394638799
 31
0.0
  0
LINE
  5
69D6
330
1F
100
AcDbEntity
  8
破線
100
AcDbLine
 10
391.9654582505009
 20
702.7674695914089
 30
0.0
 11
391.956215893759
 21
705.2674525071189
 31
0.0
  0
LINE
  5
69D7
330
1F
100
AcDbEntity
  8
破線
100
AcDbLine
 10
404.4653728290509
 20
702.8136813751188
 30
0.0
 11
404.456130472309
 21
705.3136642908287
 31
0.0
  0
LINE
  5
69D8
330
1F
100
AcDbEntity
  8
破線
100
AcDbLine
 10
449.9650618949728
 20
702.9818922678225
 30
0.0
 11
449.9558195382309
 21
705.4818751835325
 31
0.0
  0
LINE
  5
69D9
330
1F
100
AcDbEntity
  8
破線
100
AcDbLine
 10
462.9649730566649
 20
703.0299525228809
 30
0.0
 11
462.9557306999229
 21
705.5299354385908
 31
0.0
  0
XLINE
  5
6AFA
330
1F
100
AcDbEntity
  8
構築線
100
AcDbXline
 10
524.6221990530612
 20
804.8399995297424
 30
0.0
 11
1.0
 21
0.0
 31
0.0
  0
ARC
  5
6AFB
330
1F
100
AcDbEntity
  8
太線
100
AcDbCircle
 10
535.7392912252391
 20
822.3399995297423
 30
0.0
 40
1.0
100
AcDbArc
 50
0.0
 51
90.0
  0
ARC
  5
6AFC
330
1F
100
AcDbEntity
  8
太線
100
AcDbCircle
 10
512.7392912252392
 20
822.3399995297423
 30
0.0
 40
1.0
100
AcDbArc
 50
90.0
 51
180.0
  0
ARC
  5
6AFD
330
1F
100
AcDbEntity
  8
太線
100
AcDbCircle
 10
515.2392912252391
 20
805.8399995297424
 30
0.0
 40
1.0
100
AcDbArc
 50
180.0
 51
270.0
  0
ARC
  5
6AFE
330
1F
100
AcDbEntity
  8
太線
100
AcDbCircle
 10
535.7392912252391
 20
803.3399995297425
 30
0.0
 40
1.0
100
AcDbArc
 50
270.0
 51
0.0
  0
ARC
  5
6AFF
330
1F
100
AcDbEntity
  8
太線
100
AcDbCircle
 10
512.7392912252392
 20
803.3399995297425
 30
0.0
 40
1.0
100
AcDbArc
 50
180.0
 51
270.0
  0
LINE
  5
6B00
330
1F
100
AcDbEntity
  8
想像線
100
AcDbLine
 10
528.7392552847028
 20
802.3399995297424
 30
0.0
 11
528.7392552847028
 21
804.8399995297424
 31
0.0
  0
LINE
  5
6B01
330
1F
100
AcDbEntity
  8
想像線
100
AcDbLine
 10
519.7392552847028
 20
802.3399995297424
 30
0.0
 11
519.7392552847028
 21
804.8399995297424
 31
0.0
  0
LINE
  5
6B02
330
1F
100
AcDbEntity
  8
太線
100
AcDbLine
 10
514.2392912252391
 20
823.3399995297423
 30
0.0
 11
512.7392912252392
 21
823.3399995297423
 31
0.0
  0
LINE
  5
6B03
330
1F
100
AcDbEntity
  8
太線
100
AcDbLine
 10
514.2392912252391
 20
805.8399995297424
 30
0.0
 11
514.2392912252391
 21
823.3399995297423
 31
0.0
  0
LINE
  5
6B04
330
1F
100
AcDbEntity
  8
太線
100
AcDbLine
 10
530.7392552847028
 20
804.8399995297424
 30
0.0
 11
517.7392552847028
 21
804.8399995297424
 31
0.0
  0
LINE
  5
6B05
330
1F
100
AcDbEntity
  8
太線
100
AcDbLine
 10
534.2392912252392
 20
823.3399995297423
 30
0.0
 11
534.2392912252392
 21
805.8399995297424
 31
0.0
  0
LINE
  5
6B06
330
1F
100
AcDbEntity
  8
太線
100
AcDbLine
 10
535.7392912252391
 20
823.3399995297423
 30
0.0
 11
534.2392912252392
 21
823.3399995297423
 31
0.0
  0
LINE
  5
6B07
330
1F
100
AcDbEntity
  8
太線
100
AcDbLine
 10
536.7392912252391
 20
803.3399995297425
 30
0.0
 11
536.7392912252391
 21
822.3399995297423
 31
0.0
  0
LINE
  5
6B08
330
1F
100
AcDbEntity
  8
太線
100
AcDbLine
 10
515.2392552847028
 20
802.3399995297424
 30
0.0
 11
533.2392552847028
 21
802.3399995297424
 31
0.0
  0
LINE
  5
6B09
330
1F
100
AcDbEntity
  8
太線
100
AcDbLine
 10
511.7392912252391
 20
822.3399995297423
 30
0.0
 11
511.7392912252391
 21
803.3399995297425
 31
0.0
  0
LINE
  5
6B0A
330
1F
100
AcDbEntity
  8
寸法線
100
AcDbLine
 10
536.7392912252391
 20
803.3399995297425
 30
0.0
 11
536.7392912252391
 21
822.3399995297423
 31
0.0
  0
ARC
  5
6B0B
330
1F
100
AcDbEntity
  8
太線
100
AcDbCircle
 10
533.2392912252392
 20
805.8399995297424
 30
0.0
 40
1.0
100
AcDbArc
 50
270.0
 51
0.0
  0
LINE
  5
6B0C
330
1F
100
AcDbEntity
  8
太線
100
AcDbLine
 10
515.2392912252391
 20
804.8399995297424
 30
0.0
 11
517.7392552847028
 21
804.8399995297424
 31
0.0
  0
LINE
  5
6B0D
330
1F
100
AcDbEntity
  8
太線
100
AcDbLine
 10
530.7392552847028
 20
804.8399995297424
 30
0.0
 11
533.2392912252392
 21
804.8399995297424
 31
0.0
  0
LINE
  5
6B0E
330
1F
100
AcDbEntity
  8
太線
100
AcDbLine
 10
512.7392912252392
 20
802.3399995297424
 30
0.0
 11
515.2392552847028
 21
802.3399995297424
 31
0.0
  0
LINE
  5
6B0F
330
1F
100
AcDbEntity
  8
太線
100
AcDbLine
 10
533.2392552847028
 20
802.3399995297424
 30
0.0
 11
535.2392552847028
 21
802.3399995297424
 31
0.0
  0
ARC
  5
6B10
330
1F
100
AcDbEntity
  8
太線
100
AcDbCircle
 10
341.3840605940785
 20
822.3399995297423
 30
0.0
 40
1.0
100
AcDbArc
 50
0.0
 51
90.0
  0
ARC
  5
6B11
330
1F
100
AcDbEntity
  8
太線
100
AcDbCircle
 10
318.3840605940785
 20
822.3399995297423
 30
0.0
 40
1.0
100
AcDbArc
 50
90.0
 51
180.0
  0
ARC
  5
6B12
330
1F
100
AcDbEntity
  8
太線
100
AcDbCircle
 10
320.8840605940785
 20
805.8399995297424
 30
0.0
 40
1.0
100
AcDbArc
 50
180.0
 51
270.0
  0
ARC
  5
6B13
330
1F
100
AcDbEntity
  8
太線
100
AcDbCircle
 10
341.3840605940785
 20
803.3399995297425
 30
0.0
 40
1.0
100
AcDbArc
 50
270.0
 51
0.0
  0
ARC
  5
6B14
330
1F
100
AcDbEntity
  8
太線
100
AcDbCircle
 10
318.3840605940785
 20
803.3399995297425
 30
0.0
 40
1.0
100
AcDbArc
 50
180.0
 51
270.0
  0
LINE
  5
6B15
330
1F
100
AcDbEntity
  8
想像線
100
AcDbLine
 10
334.3840246535422
 20
802.3399995297424
 30
0.0
 11
334.3840246535422
 21
804.8399995297424
 31
0.0
  0
LINE
  5
6B16
330
1F
100
AcDbEntity
  8
想像線
100
AcDbLine
 10
325.3840246535422
 20
802.3399995297424
 30
0.0
 11
325.3840246535422
 21
804.8399995297424
 31
0.0
  0
LINE
  5
6B17
330
1F
100
AcDbEntity
  8
太線
100
AcDbLine
 10
319.8840605940785
 20
823.3399995297423
 30
0.0
 11
318.3840605940785
 21
823.3399995297423
 31
0.0
  0
LINE
  5
6B18
330
1F
100
AcDbEntity
  8
太線
100
AcDbLine
 10
319.8840605940785
 20
805.8399995297424
 30
0.0
 11
319.8840605940785
 21
823.3399995297423
 31
0.0
  0
LINE
  5
6B19
330
1F
100
AcDbEntity
  8
太線
100
AcDbLine
 10
336.3840246535422
 20
804.8399995297424
 30
0.0
 11
323.3840246535422
 21
804.8399995297424
 31
0.0
  0
LINE
  5
6B1A
330
1F
100
AcDbEntity
  8
太線
100
AcDbLine
 10
339.8840605940785
 20
823.3399995297423
 30
0.0
 11
339.8840605940785
 21
805.8399995297424
 31
0.0
  0
LINE
  5
6B1B
330
1F
100
AcDbEntity
  8
太線
100
AcDbLine
 10
341.3840605940785
 20
823.3399995297423
 30
0.0
 11
339.8840605940785
 21
823.3399995297423
 31
0.0
  0
LINE
  5
6B1C
330
1F
100
AcDbEntity
  8
太線
100
AcDbLine
 10
342.3840605940785
 20
803.3399995297425
 30
0.0
 11
342.3840605940785
 21
822.3399995297423
 31
0.0
  0
LINE
  5
6B1D
330
1F
100
AcDbEntity
  8
太線
100
AcDbLine
 10
320.8840246535422
 20
802.3399995297424
 30
0.0
 11
338.8840246535422
 21
802.3399995297424
 31
0.0
  0
LINE
  5
6B1E
330
1F
100
AcDbEntity
  8
太線
100
AcDbLine
 10
317.3840605940785
 20
822.3399995297423
 30
0.0
 11
317.3840605940785
 21
803.3399995297425
 31
0.0
  0
LINE
  5
6B1F
330
1F
100
AcDbEntity
  8
寸法線
100
AcDbLine
 10
342.3840605940785
 20
803.3399995297425
 30
0.0
 11
342.3840605940785
 21
822.3399995297423
 31
0.0
  0
ARC
  5
6B20
330
1F
100
AcDbEntity
  8
太線
100
AcDbCircle
 10
338.8840605940785
 20
805.8399995297424
 30
0.0
 40
1.0
100
AcDbArc
 50
270.0
 51
0.0
  0
LINE
  5
6B21
330
1F
100
AcDbEntity
  8
太線
100
AcDbLine
 10
320.8840605940785
 20
804.8399995297424
 30
0.0
 11
323.3840246535422
 21
804.8399995297424
 31
0.0
  0
LINE
  5
6B22
330
1F
100
AcDbEntity
  8
太線
100
AcDbLine
 10
336.3840246535422
 20
804.8399995297424
 30
0.0
 11
338.8840605940785
 21
804.8399995297424
 31
0.0
  0
LINE
  5
6B23
330
1F
100
AcDbEntity
  8
太線
100
AcDbLine
 10
318.3840605940785
 20
802.3399995297424
 30
0.0
 11
320.8840246535422
 21
802.3399995297424
 31
0.0
  0
LINE
  5
6B24
330
1F
100
AcDbEntity
  8
太線
100
AcDbLine
 10
338.8840246535422
 20
802.3399995297424
 30
0.0
 11
340.8840246535422
 21
802.3399995297424
 31
0.0
  0
LINE
  5
6B26
330
1F
100
AcDbEntity
  8
破線
100
AcDbLine
 10
514.2392912252391
 20
812.3399995297424
 30
0.0
 11
519.8735311232453
 21
812.3399995297424
 31
0.0
  0
LINE
  5
6B27
330
1F
100
AcDbEntity
  8
破線
100
AcDbLine
 10
528.8735311232455
 20
812.3399995297424
 30
0.0
 11
534.3735311232453
 21
812.3399995297424
 31
0.0
  0
LINE
  5
6B28
330
1F
100
AcDbEntity
  8
破線
100
AcDbLine
 10
511.7392912252392
 20
812.3399995297425
 30
0.0
 11
480.806260882518
 21
812.3399995297424
 31
0.0
  0
LINE
  5
6B29
330
1F
100
AcDbEntity
  8
破線
100
AcDbLine
 10
319.8840605940785
 20
812.3399995297424
 30
0.0
 11
325.5183004920847
 21
812.3399995297424
 31
0.0
  0
LINE
  5
6B2A
330
1F
100
AcDbEntity
  8
破線
100
AcDbLine
 10
334.518300492085
 20
812.3399995297422
 30
0.0
 11
340.0183004920847
 21
812.3399995297424
 31
0.0
  0
LINE
  5
6B2B
330
1F
100
AcDbEntity
  8
破線
100
AcDbLine
 10
317.3840605940785
 20
812.3399995297422
 30
0.0
 11
298.7266472543419
 21
812.3399995297424
 31
0.0
  0
DIMENSION
  5
6B2C
330
1F
100
AcDbEntity
  8
寸法線
100
AcDbDimension
  2
*D26
 10
535.7392912252391
 20
737.2470480975171
 30
0.0
 11
545.7482658214547
 21
740.747048097517
 31
0.0
 70
    32
  1
1.5
 71
     5
 42
2.000035940536349
  3
sunpo
100
AcDbAlignedDimension
 13
533.7392552847028
 23
723.8985795282117
 33
0.0
 14
535.7392912252391
 24
722.8985795282117
 34
0.0
100
AcDbRotatedDimension
1001
ACAD
1000
DSTYLE
1002
{
1070
    40
1040
1.0
1002
}
  0
DIMENSION
  5
6B4D
330
1F
100
AcDbEntity
  8
寸法線
100
AcDbDimension
  2
*D27
 10
155.6503588613122
 20
911.3399995297426
 30
0.0
 11
152.1498667353278
 21
922.3178852127125
 31
0.0
 70
    32
  1
2.5
 71
     5
 42
3.5
  3
sunpo
100
AcDbAlignedDimension
 13
204.9454965241318
 23
907.8399995297425
 33
0.0
 14
204.9454965241319
 24
911.3399995297426
 34
0.0
 50
90.0
100
AcDbRotatedDimension
1001
ACAD
1000
DSTYLE
1002
{
1070
    40
1040
1.0
1002
}
  0
TEXT
  5
6B7B
330
1F
100
AcDbEntity
  8
文字
100
AcDbText
 10
213.2824158986914
 20
1091.708351757668
 30
0.0
 40
10.0
  1
パネル裏側止め金具：オールステンレス（SUS304)
 51
15.0
  7
OKANO
100
AcDbText
  0
LEADER
  5
6C21
330
1F
100
AcDbEntity
  8
寸法線
100
AcDbLeader
  3
sunpo
 76
     2
 10
710.0331747403315
 20
888.9956188134926
 30
0.0
 10
710.2405241508449
 20
875.9459744315224
 30
0.0
211
-1.0
221
0.0000000000000001
231
0.0
1001
ACAD
1000
DSTYLE
1002
{
1070
   147
1040
1.0
1070
    77
1070
     0
1002
}
  0
TEXT
  5
6C22
330
1F
100
AcDbEntity
  8
文字
100
AcDbText
 10
647.6471442112668
 20
918.6095579521941
 30
0.0
 40
6.0
  1
強度は設計基準を参照
 51
15.0
  7
OKANO
100
AcDbText
  0
TEXT
  5
6C23
330
1F
100
AcDbEntity
  8
文字
100
AcDbText
 10
633.3220623332372
 20
891.7800230184372
 30
0.0
 40
6.0
  1
荷重1000Ｎ
 51
15.0
  7
OKANO
100
AcDbText
  0
LEADER
  5
6C24
330
1F
100
AcDbEntity
  8
寸法線
100
AcDbLeader
  3
sunpo
 76
     2
 10
652.5979722304029
 20
889.4306067327317
 30
0.0
 10
652.5979722304029
 20
876.3809623507615
 30
0.0
211
-1.0
221
0.0000000000000001
231
0.0
1001
ACAD
1000
DSTYLE
1002
{
1070
   147
1040
1.0
1070
    77
1070
     0
1002
}
  0
LINE
  5
6C25
330
1F
100
AcDbEntity
  8
想像線
100
AcDbLine
 10
649.0088870211588
 20
845.0015338178072
 30
0.0
 11
649.0088870211588
 21
846.7058030889715
 31
0.0
  0
LINE
  5
6C26
330
1F
100
AcDbEntity
  8
細線
100
AcDbLine
 10
649.0088870211588
 20
872.7450137637587
 30
0.0
 11
648.5088870211588
 21
871.7450137637587
 31
0.0
  0
LINE
  5
6C27
330
1F
100
AcDbEntity
  8
細線
100
AcDbLine
 10
657.5088870211588
 20
871.7450137637587
 30
0.0
 11
657.0088870211588
 21
872.7450137637587
 31
0.0
  0
LINE
  5
6C28
330
1F
100
AcDbEntity
  8
太線
100
AcDbLine
 10
649.0088870211588
 20
872.7450137637587
 30
0.0
 11
657.0088870211588
 21
872.7450137637587
 31
0.0
  0
LINE
  5
6C29
330
1F
100
AcDbEntity
  8
太線
100
AcDbLine
 10
657.5088870211588
 20
838.951151599711
 30
0.0
 11
657.5088870211588
 21
834.3854860303546
 31
0.0
  0
LINE
  5
6C2A
330
1F
100
AcDbEntity
  8
細線
100
AcDbLine
 10
657.5088870211588
 20
834.3854860303546
 30
0.0
 11
657.0088870211588
 21
832.3854860303546
 31
0.0
  0
LINE
  5
6C2B
330
1F
100
AcDbEntity
  8
太線
100
AcDbLine
 10
657.0088870211588
 20
832.3854860303546
 30
0.0
 11
649.0088870211588
 21
832.3854860303546
 31
0.0
  0
LINE
  5
6C2C
330
1F
100
AcDbEntity
  8
細線
100
AcDbLine
 10
649.0088870211588
 20
832.3854860303546
 30
0.0
 11
648.5088870211588
 21
834.3854860303546
 31
0.0
  0
LINE
  5
6C2D
330
1F
100
AcDbEntity
  8
太線
100
AcDbLine
 10
648.5088870211588
 20
834.3854860303546
 30
0.0
 11
648.5088870211588
 21
847.1619590589282
 31
0.0
  0
LINE
  5
6C2E
330
1F
100
AcDbEntity
  8
太線
100
AcDbLine
 10
657.0088870211588
 20
871.7450137637587
 30
0.0
 11
657.0088870211588
 21
865.9046044164595
 31
0.0
  0
LINE
  5
6C2F
330
1F
100
AcDbEntity
  8
太線
100
AcDbLine
 10
649.0088870211588
 20
871.7450137637587
 30
0.0
 11
649.0088870211588
 21
865.9046044164595
 31
0.0
  0
LINE
  5
6C30
330
1F
100
AcDbEntity
  8
細線
100
AcDbLine
 10
657.5088870211588
 20
871.7450137637586
 30
0.0
 11
657.5088870211588
 21
865.9046044164595
 31
0.0
  0
LINE
  5
6C31
330
1F
100
AcDbEntity
  8
細線
100
AcDbLine
 10
648.5088870211588
 20
871.7450137637586
 30
0.0
 11
648.5088870211588
 21
865.9046044164595
 31
0.0
  0
LINE
  5
6C32
330
1F
100
AcDbEntity
  8
細線
100
AcDbLine
 10
657.5088870211588
 20
871.7450137637587
 30
0.0
 11
648.5088870211588
 21
871.7450137637587
 31
0.0
  0
ARC
  5
6C33
330
1F
100
AcDbEntity
  8
太線
100
AcDbCircle
 10
682.0088870211588
 20
825.6094075703796
 30
0.0
 40
23.2796974685795
100
AcDbArc
 50
30.7486871587825
 51
149.2513128412175
  0
LINE
  5
6C34
330
1F
100
AcDbEntity
  8
想像線
100
AcDbLine
 10
638.9828457126647
 20
855.8526802847714
 30
0.0
 11
724.9822580130886
 21
856.170617356695
 31
0.0
  0
LINE
  5
6C35
330
1F
100
AcDbEntity
  8
太線
100
AcDbLine
 10
638.9736033559228
 20
858.3526632004813
 30
0.0
 11
639.9735965222068
 21
858.3563601431782
 31
0.0
  0
LINE
  5
6C36
330
1F
100
AcDbEntity
  8
太線
100
AcDbLine
 10
638.9828457126647
 20
855.8526802847714
 30
0.0
 11
638.9736033559228
 21
858.3526632004813
 31
0.0
  0
LINE
  5
6C37
330
1F
100
AcDbEntity
  8
太線
100
AcDbLine
 10
659.5523624241799
 20
837.0868645906163
 30
0.0
 11
638.9828457126647
 21
855.8526802847714
 31
0.0
  0
LINE
  5
6C38
330
1F
100
AcDbEntity
  8
太線
100
AcDbLine
 10
724.9822580130886
 20
856.170617356695
 30
0.0
 11
705.0520514901019
 21
837.2550754833202
 31
0.0
  0
LINE
  5
6C39
330
1F
100
AcDbEntity
  8
太線
100
AcDbLine
 10
724.9730156563466
 20
858.6706002724051
 30
0.0
 11
724.9822580130886
 21
856.170617356695
 31
0.0
  0
LINE
  5
6C3A
330
1F
100
AcDbEntity
  8
太線
100
AcDbLine
 10
702.2584509916583
 20
837.2447476317821
 30
0.0
 11
705.0520514901019
 21
837.2550754833202
 31
0.0
  0
LINE
  5
6C3B
330
1F
100
AcDbEntity
  8
太線
100
AcDbLine
 10
659.5523624241799
 20
837.0868645906163
 30
0.0
 11
661.8459663394815
 21
837.095343970806
 31
0.0
  0
ARC
  5
6C3C
330
1F
100
AcDbEntity
  8
太線
370
    60
100
AcDbCircle
 10
682.0949473866229
 20
825.6095666448651
 30
0.0
 40
23.2796974685795
100
AcDbArc
 50
29.98673543561478
 51
150.4369039566483
  0
LINE
  5
6C3D
330
1F
100
AcDbEntity
  8
太線
100
AcDbLine
 10
639.9735965222068
 20
858.3563601431782
 30
0.0
 11
723.9730224900625
 21
858.6669033297082
 31
0.0
  0
ARC
  5
6C3E
330
1F
100
AcDbEntity
  8
太線
100
AcDbCircle
 10
645.748990015409
 20
864.9046044164595
 30
0.0
 40
1.0
100
AcDbArc
 50
90.0
 51
180.0
  0
ARC
  5
6C3F
330
1F
100
AcDbEntity
  8
太線
100
AcDbCircle
 10
658.7489900154089
 20
864.9046044164595
 30
0.0
 40
1.0
100
AcDbArc
 50
0.0
 51
90.0
  0
ARC
  5
6C40
330
1F
100
AcDbEntity
  8
太線
100
AcDbCircle
 10
644.6071323745832
 20
858.9046044164597
 30
0.0
 40
1.0
100
AcDbArc
 50
90.0
 51
180.0
  0
ARC
  5
6C41
330
1F
100
AcDbEntity
  8
太線
100
AcDbCircle
 10
659.8908476562347
 20
858.9046044164597
 30
0.0
 40
1.0
100
AcDbArc
 50
0.0
 51
90.0
  0
ARC
  5
6C42
330
1F
100
AcDbEntity
  8
太線
100
AcDbCircle
 10
646.498990015409
 20
863.8762908465675
 30
0.0
 40
2.029760773594802
100
AcDbArc
 50
30.43882523641641
 51
149.5611747635836
  0
ARC
  5
6C43
330
1F
100
AcDbEntity
  8
太線
100
AcDbCircle
 10
657.998990015409
 20
863.9662953048357
 30
0.0
 40
1.985679729703703
100
AcDbArc
 50
28.19916958668873
 51
151.8008304133112
  0
ARC
  5
6C44
330
1F
100
AcDbEntity
  8
太線
100
AcDbCircle
 10
652.2489900154091
 20
857.4046044164598
 30
0.0
 40
8.499999999999836
100
AcDbArc
 50
61.9275130641455
 51
118.0724869358545
  0
LINE
  5
6C45
330
1F
100
AcDbEntity
  8
太線
100
AcDbLine
 10
648.248990015409
 20
864.9046044164595
 30
0.0
 11
648.248990015409
 21
859.9046044164596
 31
0.0
  0
LINE
  5
6C46
330
1F
100
AcDbEntity
  8
太線
100
AcDbLine
 10
656.2489900154091
 20
864.9046044164595
 30
0.0
 11
656.2489900154091
 21
859.9046044164596
 31
0.0
  0
LINE
  5
6C47
330
1F
100
AcDbEntity
  8
太線
100
AcDbLine
 10
659.748990015409
 20
859.9046044164596
 30
0.0
 11
644.748990015409
 21
859.9046044164596
 31
0.0
  0
LINE
  5
6C48
330
1F
100
AcDbEntity
  8
太線
100
AcDbLine
 10
643.6071323745832
 20
858.9046044164597
 30
0.0
 11
643.6071323745832
 21
858.4046044164596
 31
0.0
  0
LINE
  5
6C49
330
1F
100
AcDbEntity
  8
太線
100
AcDbLine
 10
644.748990015409
 20
859.9046044164596
 30
0.0
 11
644.6071323745832
 21
859.9046044164596
 31
0.0
  0
LINE
  5
6C4A
330
1F
100
AcDbEntity
  8
太線
100
AcDbLine
 10
644.748990015409
 20
864.9046044164595
 30
0.0
 11
644.748990015409
 21
859.9046044164596
 31
0.0
  0
LINE
  5
6C4B
330
1F
100
AcDbEntity
  8
太線
100
AcDbLine
 10
658.7489900154089
 20
865.9046044164595
 30
0.0
 11
645.748990015409
 21
865.9046044164595
 31
0.0
  0
LINE
  5
6C4C
330
1F
100
AcDbEntity
  8
太線
100
AcDbLine
 10
659.748990015409
 20
859.9046044164596
 30
0.0
 11
659.7489900154089
 21
864.9046044164595
 31
0.0
  0
LINE
  5
6C4D
330
1F
100
AcDbEntity
  8
太線
100
AcDbLine
 10
659.8908476562349
 20
859.9046044164596
 30
0.0
 11
659.748990015409
 21
859.9046044164596
 31
0.0
  0
LINE
  5
6C4E
330
1F
100
AcDbEntity
  8
太線
100
AcDbLine
 10
660.8908476562349
 20
858.4046044164596
 30
0.0
 11
660.8908476562349
 21
858.9046044164597
 31
0.0
  0
LINE
  5
6C4F
330
1F
100
AcDbEntity
  8
太線
100
AcDbLine
 10
660.8908476562349
 20
858.4046044164596
 30
0.0
 11
643.6071323745832
 21
858.4046044164596
 31
0.0
  0
LINE
  5
6C50
330
1F
100
AcDbEntity
  8
太線
100
AcDbLine
 10
719.4519507256099
 20
858.4046044164596
 30
0.0
 11
702.1682354439583
 21
858.4046044164596
 31
0.0
  0
LINE
  5
6C51
330
1F
100
AcDbEntity
  8
太線
100
AcDbLine
 10
719.4519507256099
 20
858.4046044164596
 30
0.0
 11
719.4519507256099
 21
858.9046044164597
 31
0.0
  0
LINE
  5
6C52
330
1F
100
AcDbEntity
  8
太線
100
AcDbLine
 10
718.45195072561
 20
859.9046044164596
 30
0.0
 11
718.3100930847841
 21
859.9046044164596
 31
0.0
  0
LINE
  5
6C53
330
1F
100
AcDbEntity
  8
太線
100
AcDbLine
 10
718.3100930847841
 20
859.9046044164596
 30
0.0
 11
718.3100930847841
 21
864.9046044164595
 31
0.0
  0
LINE
  5
6C54
330
1F
100
AcDbEntity
  8
太線
100
AcDbLine
 10
717.310093084784
 20
865.9046044164595
 30
0.0
 11
704.3100930847842
 21
865.9046044164595
 31
0.0
  0
LINE
  5
6C55
330
1F
100
AcDbEntity
  8
太線
100
AcDbLine
 10
703.3100930847841
 20
864.9046044164595
 30
0.0
 11
703.3100930847841
 21
859.9046044164596
 31
0.0
  0
LINE
  5
6C56
330
1F
100
AcDbEntity
  8
太線
100
AcDbLine
 10
703.3100930847841
 20
859.9046044164596
 30
0.0
 11
703.1682354439583
 21
859.9046044164596
 31
0.0
  0
LINE
  5
6C57
330
1F
100
AcDbEntity
  8
太線
100
AcDbLine
 10
702.1682354439583
 20
858.9046044164597
 30
0.0
 11
702.1682354439583
 21
858.4046044164596
 31
0.0
  0
LINE
  5
6C58
330
1F
100
AcDbEntity
  8
太線
100
AcDbLine
 10
718.3100930847841
 20
859.9046044164596
 30
0.0
 11
703.3100930847841
 21
859.9046044164596
 31
0.0
  0
LINE
  5
6C59
330
1F
100
AcDbEntity
  8
太線
100
AcDbLine
 10
714.8100930847841
 20
864.9046044164595
 30
0.0
 11
714.8100930847841
 21
859.9046044164596
 31
0.0
  0
LINE
  5
6C5A
330
1F
100
AcDbEntity
  8
太線
100
AcDbLine
 10
706.8100930847841
 20
864.9046044164595
 30
0.0
 11
706.8100930847841
 21
859.9046044164596
 31
0.0
  0
ARC
  5
6C5B
330
1F
100
AcDbEntity
  8
太線
100
AcDbCircle
 10
710.8100930847841
 20
857.4046044164598
 30
0.0
 40
8.499999999999836
100
AcDbArc
 50
61.9275130641455
 51
118.0724869358545
  0
ARC
  5
6C5C
330
1F
100
AcDbEntity
  8
太線
100
AcDbCircle
 10
716.5600930847841
 20
863.9662953048357
 30
0.0
 40
1.985679729703703
100
AcDbArc
 50
28.19916958668873
 51
151.8008304133112
  0
ARC
  5
6C5D
330
1F
100
AcDbEntity
  8
太線
100
AcDbCircle
 10
705.0600930847841
 20
863.8762908465675
 30
0.0
 40
2.029760773594802
100
AcDbArc
 50
30.43882523641641
 51
149.5611747635836
  0
ARC
  5
6C5E
330
1F
100
AcDbEntity
  8
太線
100
AcDbCircle
 10
718.4519507256099
 20
858.9046044164597
 30
0.0
 40
1.0
100
AcDbArc
 50
0.0
 51
90.0
  0
ARC
  5
6C5F
330
1F
100
AcDbEntity
  8
太線
100
AcDbCircle
 10
703.1682354439583
 20
858.9046044164597
 30
0.0
 40
1.0
100
AcDbArc
 50
90.0
 51
180.0
  0
ARC
  5
6C60
330
1F
100
AcDbEntity
  8
太線
100
AcDbCircle
 10
717.310093084784
 20
864.9046044164595
 30
0.0
 40
1.0
100
AcDbArc
 50
0.0
 51
90.0
  0
ARC
  5
6C61
330
1F
100
AcDbEntity
  8
太線
100
AcDbCircle
 10
704.3100930847842
 20
864.9046044164595
 30
0.0
 40
1.0
100
AcDbArc
 50
90.0
 51
180.0
  0
LINE
  5
6C62
330
1F
100
AcDbEntity
  8
細線
100
AcDbLine
 10
715.2664449340049
 20
871.7450137637587
 30
0.0
 11
706.2664449340048
 21
871.7450137637587
 31
0.0
  0
LINE
  5
6C63
330
1F
100
AcDbEntity
  8
細線
100
AcDbLine
 10
706.2664449340048
 20
871.7450137637586
 30
0.0
 11
706.2664449340048
 21
865.9046044164595
 31
0.0
  0
LINE
  5
6C64
330
1F
100
AcDbEntity
  8
細線
100
AcDbLine
 10
715.2664449340049
 20
871.7450137637586
 30
0.0
 11
715.2664449340049
 21
865.9046044164595
 31
0.0
  0
LINE
  5
6C65
330
1F
100
AcDbEntity
  8
太線
100
AcDbLine
 10
706.7664449340049
 20
871.7450137637587
 30
0.0
 11
706.7664449340049
 21
865.9046044164595
 31
0.0
  0
LINE
  5
6C66
330
1F
100
AcDbEntity
  8
太線
100
AcDbLine
 10
714.7664449340048
 20
871.7450137637587
 30
0.0
 11
714.7664449340048
 21
865.9046044164595
 31
0.0
  0
LINE
  5
6C67
330
1F
100
AcDbEntity
  8
太線
100
AcDbLine
 10
706.2664449340048
 20
834.3854860303546
 30
0.0
 11
706.2664449340048
 21
838.4076430702343
 31
0.0
  0
LINE
  5
6C68
330
1F
100
AcDbEntity
  8
細線
100
AcDbLine
 10
706.7664449340049
 20
832.3854860303546
 30
0.0
 11
706.2664449340048
 21
834.3854860303546
 31
0.0
  0
LINE
  5
6C69
330
1F
100
AcDbEntity
  8
太線
100
AcDbLine
 10
714.7664449340048
 20
832.3854860303546
 30
0.0
 11
706.7664449340049
 21
832.3854860303546
 31
0.0
  0
LINE
  5
6C6A
330
1F
100
AcDbEntity
  8
細線
100
AcDbLine
 10
715.2664449340049
 20
834.3854860303546
 30
0.0
 11
714.7664449340048
 21
832.3854860303546
 31
0.0
  0
LINE
  5
6C6B
330
1F
100
AcDbEntity
  8
太線
100
AcDbLine
 10
715.2664449340049
 20
846.9494450161411
 30
0.0
 11
715.2664449340049
 21
834.3854860303546
 31
0.0
  0
LINE
  5
6C6C
330
1F
100
AcDbEntity
  8
太線
100
AcDbLine
 10
706.7664449340049
 20
872.7450137637587
 30
0.0
 11
714.7664449340048
 21
872.7450137637587
 31
0.0
  0
LINE
  5
6C6D
330
1F
100
AcDbEntity
  8
細線
100
AcDbLine
 10
715.2664449340049
 20
871.7450137637587
 30
0.0
 11
714.7664449340048
 21
872.7450137637587
 31
0.0
  0
LINE
  5
6C6E
330
1F
100
AcDbEntity
  8
細線
100
AcDbLine
 10
706.7664449340049
 20
872.7450137637587
 30
0.0
 11
706.2664449340048
 21
871.7450137637587
 31
0.0
  0
LINE
  5
6C6F
330
1F
100
AcDbEntity
  8
想像線
100
AcDbLine
 10
714.7664449340048
 20
845.0015338178072
 30
0.0
 11
714.7664449340048
 21
846.4749004635907
 31
0.0
  0
LINE
  5
6C70
330
1F
100
AcDbEntity
  8
太線
100
AcDbLine
 10
715.0088870211588
 20
799.2450137637587
 30
0.0
 11
715.0088870211588
 21
845.0015338178072
 31
0.0
  0
LINE
  5
6C71
330
1F
100
AcDbEntity
  8
太線
100
AcDbLine
 10
707.0088870211588
 20
839.1122867663202
 30
0.0
 11
707.0088870211588
 21
799.2450137637587
 31
0.0
  0
LINE
  5
6C72
330
1F
100
AcDbEntity
  8
太線
100
AcDbLine
 10
657.0088870211588
 20
799.2450137637587
 30
0.0
 11
657.0088870211588
 21
839.4073075696677
 31
0.0
  0
LINE
  5
6C73
330
1F
100
AcDbEntity
  8
太線
100
AcDbLine
 10
649.0088870211588
 20
845.0015338178072
 30
0.0
 11
649.0088870211588
 21
799.2450137637587
 31
0.0
  0
CIRCLE
  5
6C74
330
1F
100
AcDbEntity
  8
破線
100
AcDbCircle
 10
682.0088870211588
 20
823.8891050389591
 30
0.0
 40
24.5
  0
TEXT
  5
6C75
330
1F
100
AcDbEntity
  8
文字
100
AcDbText
 10
697.0071190889639
 20
891.7800230184372
 30
0.0
 40
6.0
  1
荷重1000Ｎ
 51
15.0
  7
OKANO
100
AcDbText
  0
LEADER
  5
6C76
330
1F
100
AcDbEntity
  8
寸法線
100
AcDbLeader
  3
sunpo
 76
     2
 10
693.8657560682686
 20
847.5736347989739
 30
0.0
 10
693.8657560682686
 20
855.855098680259
 30
0.0
1001
ACAD
1000
DSTYLE
1002
{
1070
   147
1040
1.0
1070
    77
1070
     0
1002
}
  0
LEADER
  5
6C77
330
1F
100
AcDbEntity
  8
寸法線
100
AcDbLeader
  3
sunpo
 76
     2
 10
667.7486778770171
 20
846.1243366840506
 30
0.0
 10
667.7486778770171
 20
855.2338910391997
 30
0.0
1001
ACAD
1000
DSTYLE
1002
{
1070
   147
1040
1.0
1070
    77
1070
     0
1002
}
  0
LEADER
  5
6C78
330
1F
100
AcDbEntity
  8
寸法線
100
AcDbLeader
  3
sunpo
 76
     2
 10
652.409878800513
 20
851.5073907163904
 30
0.0
 10
652.409878800513
 20
858.3395564827522
 30
0.0
1001
ACAD
1000
DSTYLE
1002
{
1070
   147
1040
1.0
1070
    77
1070
     0
1002
}
  0
LEADER
  5
6C79
330
1F
100
AcDbEntity
  8
寸法線
100
AcDbLeader
  3
sunpo
 76
     3
 10
711.2768821802519
 20
852.1284119765484
 30
0.0
 10
711.2768821802519
 20
858.5466256964579
 30
0.0
 10
710.8625723824434
 20
858.5466256964579
 30
0.0
1001
ACAD
1000
DSTYLE
1002
{
1070
   147
1040
1.0
1070
    77
1070
     0
1002
}
  0
TEXT
  5
6C7A
330
1F
100
AcDbEntity
  8
文字
100
AcDbText
 10
671.6326995919871
 20
821.1127613456199
 30
0.0
 40
10.0
  1
単管
 51
15.0
  7
OKANO
100
AcDbText
  0
TEXT
  5
6C7B
330
1F
100
AcDbEntity
  8
文字
100
AcDbText
 10
169.4178614515831
 20
645.8845448892432
 30
0.0
 40
10.0
  1
台座設計基準　荷重：P(止め金具へ垂直の荷重）Uボルトへかかる荷重1000Ｎ
 51
15.0
  7
OKANO
100
AcDbText
  0
TEXT
  5
6C7C
330
1F
100
AcDbEntity
  8
文字
100
AcDbText
 10
169.4178614515831
 20
627.9296724905586
 30
0.0
 40
10.0
  1
M8ボルト2本止め：2×1000＝2000Ｎ
 51
15.0
  7
OKANO
100
AcDbText
  0
TEXT
  5
6C7D
330
1F
100
AcDbEntity
  8
文字
100
AcDbText
 10
169.4178614515831
 20
613.1733350865403
 30
0.0
 40
10.0
  1
安全率（使用環境に応じて設定）ここでは静荷重として安全率3を設定しています。2000/3＝667N（約65kg)
 51
15.0
  7
OKANO
100
AcDbText
  0
VIEWPORT
  5
2E
330
1B
100
AcDbEntity
 67
     1
  8
0
100
AcDbViewport
 10
193.4253049646161
 20
99.26173005590349
 30
0.0
 40
491.6820184955501
 41
249.7267996995312
 68
     1
 69
     1
 12
193.4253049646161
 22
99.26173005590349
 13
0.0
 23
0.0
 14
10.0
 24
10.0
 15
10.0
 25
10.0
 16
0.0
 26
0.0
 36
1.0
 17
0.0
 27
0.0
 37
0.0
 42
50.0
 43
0.0
 44
0.0
 45
249.7267996995312
 50
0.0
 51
0.0
 72
   100
 90
    32800
  1

281
     0
 71
     1
 74
     0
110
0.0
120
0.0
130
0.0
111
1.0
121
0.0
131
0.0
112
0.0
122
1.0
132
0.0
 79
     0
146
0.0
  0
VIEWPORT
  5
30
330
1B
100
AcDbEntity
 67
     1
  8
70-0-CON
100
AcDbViewport
 10
141.8594093064315
 20
100.3480256368386
 30
0.0
 40
261.6199023344245
 41
192.6196987113174
 68
     2
 69
     2
 12
500.2088587028266
 22
861.0012833719173
 13
0.0
 23
0.0
 14
5.0
 24
5.0
 15
10.0
 25
10.0
 16
0.0
 26
0.0
 36
1.0
 17
0.0
 27
0.0
 37
0.0
 42
50.0
 43
0.0
 44
0.0
 45
565.5700111398274
 50
0.0
 51
0.0
 72
   100
 90
    32864
  1

281
     0
 71
     1
 74
     0
110
0.0
120
0.0
130
0.0
111
1.0
121
0.0
131
0.0
112
0.0
122
1.0
132
0.0
 79
     0
146
0.0
  0
LWPOLYLINE
  5
45
330
1B
100
AcDbEntity
 67
     1
  8
50-0-CON
100
AcDbPolyline
 90
        4
 70
     1
 43
0.0
 10
11.04945813921926
 20
4.038176281179858
 10
272.2125713060605
 20
4.033520706629644
 10
273.4987754093466
 20
195.9297862125246
 10
11.04945813921926
 20
196.6578749924973
  0
LINE
  5
4A
330
1B
100
AcDbEntity
 67
     1
  8
50-0-CON
100
AcDbLine
 10
10.38768783662635
 20
100.3480256368386
 30
0.0
 11
-4.391850629656119
 21
100.3480256368386
 31
0.0
  0
LINE
  5
4B
330
1B
100
AcDbEntity
 67
     1
  8
50-0-CON
100
AcDbLine
 10
141.8594093064315
 20
197.098652626247
 30
0.0
 11
141.8594093064315
 21
202.387980773708
 31
0.0
  0
LINE
  5
4C
330
1B
100
AcDbEntity
 67
     1
  8
50-0-CON
100
AcDbLine
 10
272.4487699456857
 20
100.7888032705883
 30
0.0
 11
278.8458837249377
 21
100.7888032705883
 31
0.0
  0
LINE
  5
4D
330
1B
100
AcDbEntity
 67
     1
  8
50-0-CON
100
AcDbLine
 10
140.9770484758805
 20
4.038176281179858
 30
0.0
 11
140.9770484758805
 21
-3.455038652015446
 31
0.0
  0
ENDSEC
  0
SECTION
  2
OBJECTS
  0
DICTIONARY
  5
C
330
0
100
AcDbDictionary
281
     1
  3
ACAD_GROUP
350
D
  3
ACAD_LAYOUT
350
1A
  3
ACAD_MLINESTYLE
350
17
  3
ACAD_PLOTSETTINGS
350
19
  3
ACAD_PLOTSTYLENAME
350
E
  3
AcadDim
350
4D1E
  3
AcDbVariableDictionary
350
6AD
  3
DWGPROPS
350
4AEC
  0
DICTIONARY
  5
D
102
{ACAD_REACTORS
330
C
102
}
330
C
100
AcDbDictionary
281
     1
  0
DICTIONARY
  5
1A
102
{ACAD_REACTORS
330
C
102
}
330
C
100
AcDbDictionary
281
     1
  3
A4
350
1E
  3
Model
350
22
  0
DICTIONARY
  5
17
102
{ACAD_REACTORS
330
C
102
}
330
C
100
AcDbDictionary
281
     1
  3
Standard
350
18
  0
DICTIONARY
  5
19
102
{ACAD_REACTORS
330
C
102
}
330
C
100
AcDbDictionary
281
     1
  0
ACDBDICTIONARYWDFLT
  5
E
102
{ACAD_REACTORS
330
C
102
}
330
C
100
AcDbDictionary
281
     1
  3
Normal
350
F
100
AcDbDictionaryWithDefault
340
F
  0
XRECORD
  5
4D1E
102
{ACAD_REACTORS
330
C
102
}
330
C
100
AcDbXrecord
280
     1
 90
   990106
  3

 60
     0
 61
     0
 62
     1
 63
     3
 64
     0
 65
     0
 66
     0
 67
     3
 68
     1
 69
     0
 70
     0
 71
     0
 72
     0
 40
17.67629709740177
170
     0
  0
DICTIONARY
  5
6AD
102
{ACAD_REACTORS
330
C
102
}
330
C
100
AcDbDictionary
281
     1
  3
SORTENTS
350
6AE
  0
XRECORD
  5
4AEC
102
{ACAD_REACTORS
330
C
102
}
330
C
100
AcDbXrecord
280
     1
  1
DWGPROPS COOKIE
  2

  3

  4

  6

  7

  8

  9

300
=
301
=
302
=
303
=
304
=
305
=
306
=
307
=
308
=
309
=
 40
3.342131759259259
 41
2452362.482225463
 42
2455527.444288414
  1

 90
        0
  0
LAYOUT
  5
1E
102
{ACAD_REACTORS
330
1A
102
}
330
1A
100
AcDbPlotSettings
  1

  2
none_device
  4
ISO_A4_(210.00_x_297.00_MM)
  6

 40
7.5
 41
20.0
 42
7.5
 43
20.0
 44
210.0
 45
297.0
 46
0.0
 47
0.0
 48
0.0
 49
0.0
140
0.0
141
0.0
142
1.0
143
1.0
 70
   656
 72
     1
 73
     1
 74
     5
  7

 75
    16
147
1.0
148
0.0
149
0.0
100
AcDbLayout
  1
A4
 70
     1
 71
     1
 10
-20.0
 20
-7.5
 11
277.0
 21
202.4999999999999
 12
0.0
 22
0.0
 32
0.0
 14
-4.391850629656119
 24
-3.455038652015446
 34
0.0
 15
278.8458837249377
 25
202.387980773708
 35
0.0
146
0.0
 13
0.0
 23
0.0
 33
0.0
 16
1.0
 26
0.0
 36
0.0
 17
0.0
 27
1.0
 37
0.0
 76
     0
330
1B
331
2E
  0
LAYOUT
  5
22
102
{ACAD_REACTORS
330
1A
102
}
330
1A
100
AcDbPlotSettings
  1

  2
EPSON PM-920C
  4
A4
  6

 40
3.757083177566528
 41
14.7637300491333
 42
3.757080078125
 43
3.757080078125
 44
209.9733276367187
 45
296.9683227539062
 46
0.0
 47
0.0
 48
0.0
 49
0.0
140
0.0
141
0.0
142
1.0
143
1.0
 70
 11952
 72
     1
 73
     1
 74
     0
  7
C:\Program Files\ACAD LT 2000\Plot Styles\JOINT.ctb
 75
     0
147
1.0
148
-45.64199848979289
149
-84.48806419330498
100
AcDbLayout
  1
Model
 70
     1
 71
     0
 10
0.0
 20
0.0
 11
12.0
 21
9.0
 12
0.0
 22
0.0
 32
0.0
 14
0.0
 24
0.0
 34
0.0
 15
0.0
 25
0.0
 35
0.0
146
0.0
 13
0.0
 23
0.0
 33
0.0
 16
1.0
 26
0.0
 36
0.0
 17
0.0
 27
1.0
 37
0.0
 76
     0
330
1F
  0
MLINESTYLE
  5
18
102
{ACAD_REACTORS
330
17
102
}
330
17
100
AcDbMlineStyle
  2
STANDARD
 70
     0
  3

 62
   256
 51
90.0
 52
90.0
 71
     2
 49
0.5
 62
   256
  6
BYLAYER
 49
-0.5
 62
   256
  6
BYLAYER
  0
ACDBPLACEHOLDER
  5
F
102
{ACAD_REACTORS
330
E
102
}
330
E
  0
DICTIONARYVAR
  5
6AE
102
{ACAD_REACTORS
330
6AD
102
}
330
6AD
100
DictionaryVariables
280
     0
  1
119
  0
ENDSEC
  0
EOF
