  0
SECTION
  2
HEADER
  9
$ACADVER
  1
AC1015
  9
$ACADMAINTVER
 70
     6
  9
$DWGCODEPAGE
  3
ANSI_932
  9
$INSBASE
 10
0.0
 20
0.0
 30
0.0
  9
$EXTMIN
 10
9.129114097708612
 20
69.1411252759638
 30
0.0
  9
$EXTMAX
 10
374.2871257599298
 20
329.5683372739341
 30
0.0
  9
$LIMMIN
 10
0.0
 20
0.0
  9
$LIMMAX
 10
420.0
 20
297.0
  9
$ORTHOMODE
 70
     0
  9
$REGENMODE
 70
     1
  9
$FILLMODE
 70
     1
  9
$QTEXTMODE
 70
     0
  9
$MIRRTEXT
 70
     1
  9
$LTSCALE
 40
1.0
  9
$ATTMODE
 70
     1
  9
$TEXTSIZE
 40
5.0
  9
$TRACEWID
 40
1.0
  9
$TEXTSTYLE
  7
OKANO
  9
$CLAYER
  8
寸法線
  9
$CELTYPE
  6
ByLayer
  9
$CECOLOR
 62
   256
  9
$CELTSCALE
 40
1.0
  9
$DISPSILH
 70
     0
  9
$DIMSCALE
 40
0.0
  9
$DIMASZ
 40
3.0
  9
$DIMEXO
 40
2.0
  9
$DIMDLI
 40
8.0
  9
$DIMRND
 40
0.0
  9
$DIMDLE
 40
0.0
  9
$DIMEXE
 40
3.0
  9
$DIMTP
 40
0.0
  9
$DIMTM
 40
0.0
  9
$DIMTXT
 40
5.0
  9
$DIMCEN
 40
2.5
  9
$DIMTSZ
 40
0.0
  9
$DIMTOL
 70
     0
  9
$DIMLIM
 70
     0
  9
$DIMTIH
 70
     0
  9
$DIMTOH
 70
     0
  9
$DIMSE1
 70
     0
  9
$DIMSE2
 70
     0
  9
$DIMTAD
 70
     1
  9
$DIMZIN
 70
     8
  9
$DIMBLK
  1
Closed
  9
$DIMASO
 70
     1
  9
$DIMSHO
 70
     1
  9
$DIMPOST
  1

  9
$DIMAPOST
  1

  9
$DIMALT
 70
     0
  9
$DIMALTD
 70
     3
  9
$DIMALTF
 40
0.03937007874016
  9
$DIMLFAC
 40
1.0
  9
$DIMTOFL
 70
     1
  9
$DIMTVP
 40
0.0
  9
$DIMTIX
 70
     0
  9
$DIMSOXD
 70
     0
  9
$DIMSAH
 70
     0
  9
$DIMBLK1
  1

  9
$DIMBLK2
  1

  9
$DIMSTYLE
  2
sunpo
  9
$DIMCLRD
 70
     0
  9
$DIMCLRE
 70
     0
  9
$DIMCLRT
 70
     0
  9
$DIMTFAC
 40
1.0
  9
$DIMGAP
 40
1.0
  9
$DIMJUST
 70
     0
  9
$DIMSD1
 70
     0
  9
$DIMSD2
 70
     0
  9
$DIMTOLJ
 70
     0
  9
$DIMTZIN
 70
     8
  9
$DIMALTZ
 70
     0
  9
$DIMALTTZ
 70
     0
  9
$DIMUPT
 70
     0
  9
$DIMDEC
 70
     2
  9
$DIMTDEC
 70
     2
  9
$DIMALTU
 70
     2
  9
$DIMALTTD
 70
     3
  9
$DIMTXSTY
  7
OKANO
  9
$DIMAUNIT
 70
     0
  9
$DIMADEC
 70
     0
  9
$DIMALTRND
 40
0.0
  9
$DIMAZIN
 70
     0
  9
$DIMDSEP
 70
    46
  9
$DIMATFIT
 70
     3
  9
$DIMFRAC
 70
     0
  9
$DIMLDRBLK
  1
Closed
  9
$DIMLUNIT
 70
     2
  9
$DIMLWD
 70
    -2
  9
$DIMLWE
 70
    -2
  9
$DIMTMOVE
 70
     0
  9
$LUNITS
 70
     2
  9
$LUPREC
 70
     2
  9
$SKETCHINC
 40
1.0
  9
$FILLETRAD
 40
1.0
  9
$AUNITS
 70
     0
  9
$AUPREC
 70
     0
  9
$MENU
  1
.
  9
$ELEVATION
 40
0.0
  9
$PELEVATION
 40
0.0
  9
$THICKNESS
 40
0.0
  9
$LIMCHECK
 70
     0
  9
$CHAMFERA
 40
10.0
  9
$CHAMFERB
 40
10.0
  9
$CHAMFERC
 40
20.0
  9
$CHAMFERD
 40
0.0
  9
$SKPOLY
 70
     0
  9
$TDCREATE
 40
2452362.482225463
  9
$TDUCREATE
 40
2452362.107225463
  9
$TDUPDATE
 40
2456016.683982141
  9
$TDUUPDATE
 40
2456016.308982141
  9
$TDINDWG
 40
2.7999274190
  9
$TDUSRTIMER
 40
2.7999274190
  9
$USRTIMER
 70
     1
  9
$ANGBASE
 50
0.0
  9
$ANGDIR
 70
     0
  9
$PDMODE
 70
     0
  9
$PDSIZE
 40
0.0
  9
$PLINEWID
 40
0.0
  9
$SPLFRAME
 70
     0
  9
$SPLINETYPE
 70
     6
  9
$SPLINESEGS
 70
     8
  9
$HANDSEED
  5
39DB
  9
$SURFTAB1
 70
     6
  9
$SURFTAB2
 70
     6
  9
$SURFTYPE
 70
     6
  9
$SURFU
 70
     6
  9
$SURFV
 70
     6
  9
$UCSBASE
  2

  9
$UCSNAME
  2

  9
$UCSORG
 10
0.0
 20
0.0
 30
0.0
  9
$UCSXDIR
 10
1.0
 20
0.0
 30
0.0
  9
$UCSYDIR
 10
0.0
 20
1.0
 30
0.0
  9
$UCSORTHOREF
  2

  9
$UCSORTHOVIEW
 70
     0
  9
$UCSORGTOP
 10
0.0
 20
0.0
 30
0.0
  9
$UCSORGBOTTOM
 10
0.0
 20
0.0
 30
0.0
  9
$UCSORGLEFT
 10
0.0
 20
0.0
 30
0.0
  9
$UCSORGRIGHT
 10
0.0
 20
0.0
 30
0.0
  9
$UCSORGFRONT
 10
0.0
 20
0.0
 30
0.0
  9
$UCSORGBACK
 10
0.0
 20
0.0
 30
0.0
  9
$PUCSBASE
  2

  9
$PUCSNAME
  2

  9
$PUCSORG
 10
0.0
 20
0.0
 30
0.0
  9
$PUCSXDIR
 10
1.0
 20
0.0
 30
0.0
  9
$PUCSYDIR
 10
0.0
 20
1.0
 30
0.0
  9
$PUCSORTHOREF
  2

  9
$PUCSORTHOVIEW
 70
     0
  9
$PUCSORGTOP
 10
0.0
 20
0.0
 30
0.0
  9
$PUCSORGBOTTOM
 10
0.0
 20
0.0
 30
0.0
  9
$PUCSORGLEFT
 10
0.0
 20
0.0
 30
0.0
  9
$PUCSORGRIGHT
 10
0.0
 20
0.0
 30
0.0
  9
$PUCSORGFRONT
 10
0.0
 20
0.0
 30
0.0
  9
$PUCSORGBACK
 10
0.0
 20
0.0
 30
0.0
  9
$USERI1
 70
     0
  9
$USERI2
 70
     0
  9
$USERI3
 70
     0
  9
$USERI4
 70
     0
  9
$USERI5
 70
     0
  9
$USERR1
 40
0.0
  9
$USERR2
 40
0.0
  9
$USERR3
 40
0.0
  9
$USERR4
 40
0.0
  9
$USERR5
 40
0.0
  9
$WORLDVIEW
 70
     1
  9
$SHADEDGE
 70
     3
  9
$SHADEDIF
 70
    70
  9
$TILEMODE
 70
     0
  9
$MAXACTVP
 70
    64
  9
$PINSBASE
 10
0.0
 20
0.0
 30
0.0
  9
$PLIMCHECK
 70
     0
  9
$PEXTMIN
 10
-4.400932062405672
 20
-3.459116387827521
 30
-0.0015258207003583
  9
$PEXTMAX
 10
278.8478616361952
 20
202.393946056399
 30
0.0000000349246037
  9
$PLIMMIN
 10
-3.757080078125
 20
-3.757083177566528
  9
$PLIMMAX
 10
293.2112426757812
 20
206.2162444591522
  9
$UNITMODE
 70
     0
  9
$VISRETAIN
 70
     1
  9
$PLINEGEN
 70
     0
  9
$PSLTSCALE
 70
     1
  9
$TREEDEPTH
 70
  3020
  9
$CMLSTYLE
  2
Standard
  9
$CMLJUST
 70
     0
  9
$CMLSCALE
 40
20.0
  9
$PROXYGRAPHICS
 70
     1
  9
$MEASUREMENT
 70
     1
  9
$CELWEIGHT
370
    -1
  9
$ENDCAPS
280
     0
  9
$JOINSTYLE
280
     0
  9
$LWDISPLAY
290
     0
  9
$INSUNITS
 70
     4
  9
$HYPERLINKBASE
  1

  9
$STYLESHEET
  1

  9
$XEDIT
290
     1
  9
$CEPSNTYPE
380
     0
  9
$PSTYLEMODE
290
     1
  9
$FINGERPRINTGUID
  2
{FF7F33C3-4233-11D6-AEE0-0000F45FD7F4}
  9
$VERSIONGUID
  2
{ED0F9BDF-5A1C-4599-A61D-EDFDF4933C93}
  9
$EXTNAMES
290
     1
  9
$PSVPSCALE
 40
0.0
  9
$OLESTARTUP
290
     0
  0
ENDSEC
  0
SECTION
  2
CLASSES
  0
CLASS
  1
ACDBDICTIONARYWDFLT
  2
AcDbDictionaryWithDefault
  3
AutoCAD 2000
 90
        0
280
     0
281
     0
  0
CLASS
  1
ACDBPLACEHOLDER
  2
AcDbPlaceHolder
  3
AutoCAD 2000
 90
        0
280
     0
281
     0
  0
CLASS
  1
LAYOUT
  2
AcDbLayout
  3
AutoCAD 2000
 90
        0
280
     0
281
     0
  0
CLASS
  1
DICTIONARYVAR
  2
AcDbDictionaryVar
  3
AutoCAD 2000
 90
        0
280
     0
281
     0
  0
ENDSEC
  0
SECTION
  2
TABLES
  0
TABLE
  2
VPORT
  5
8
330
0
100
AcDbSymbolTable
 70
     2
  0
VPORT
  5
39DA
330
8
100
AcDbSymbolTableRecord
100
AcDbViewportTableRecord
  2
*Active
 70
     0
 10
0.0
 20
0.0
 11
1.0
 21
1.0
 12
202.1411978352257
 22
223.7980916943915
 13
0.0
 23
0.0
 14
5.0
 24
5.0
 15
10.0
 25
10.0
 16
0.0
 26
0.0
 36
1.0
 17
0.0
 27
0.0
 37
0.0
 40
321.7473874424573
 41
1.968879668049792
 42
50.0
 43
0.0
 44
0.0
 50
0.0
 51
0.0
 71
     0
 72
   100
 73
     1
 74
     3
 75
     0
 76
     0
 77
     0
 78
     0
281
     0
 65
     1
110
0.0
120
0.0
130
0.0
111
1.0
121
0.0
131
0.0
112
0.0
122
1.0
132
0.0
 79
     0
146
0.0
  0
ENDTAB
  0
TABLE
  2
LTYPE
  5
5
330
0
100
AcDbSymbolTable
 70
     5
  0
LTYPE
  5
14
330
5
100
AcDbSymbolTableRecord
100
AcDbLinetypeTableRecord
  2
ByBlock
 70
     0
  3

 72
    65
 73
     0
 40
0.0
  0
LTYPE
  5
15
330
5
100
AcDbSymbolTableRecord
100
AcDbLinetypeTableRecord
  2
ByLayer
 70
     0
  3

 72
    65
 73
     0
 40
0.0
  0
LTYPE
  5
16
330
5
100
AcDbSymbolTableRecord
100
AcDbLinetypeTableRecord
  2
Continuous
 70
     0
  3
Solid line
 72
    65
 73
     0
 40
0.0
  0
LTYPE
  5
33
330
5
100
AcDbSymbolTableRecord
100
AcDbLinetypeTableRecord
  2
DASHED2
 70
     0
  3
Dashed (.5x) _ _ _ _ _ _ _ _ _ _ _ _ _ _ _ _ _
 72
    65
 73
     2
 40
9.524999999999998
 49
6.349999999999999
 74
     0
 49
-3.174999999999999
 74
     0
  0
LTYPE
  5
34
330
5
100
AcDbSymbolTableRecord
100
AcDbLinetypeTableRecord
  2
CENTER2
 70
     0
  3
Center (.5x) ___ _ ___ _ ___ _ ___ _ ___ _ ___
 72
    65
 73
     4
 40
28.57499999999999
 49
19.05
 74
     0
 49
-3.174999999999999
 74
     0
 49
3.174999999999999
 74
     0
 49
-3.174999999999999
 74
     0
  0
LTYPE
  5
35
330
5
100
AcDbSymbolTableRecord
100
AcDbLinetypeTableRecord
  2
PHANTOM2
 70
     0
  3
Phantom (.5x) ___ _ _ ___ _ _ ___ _ _ ___ _ _
 72
    65
 73
     6
 40
31.75
 49
15.875
 74
     0
 49
-3.174999999999999
 74
     0
 49
3.174999999999999
 74
     0
 49
-3.174999999999999
 74
     0
 49
3.174999999999999
 74
     0
 49
-3.174999999999999
 74
     0
  0
LTYPE
  5
36
330
5
100
AcDbSymbolTableRecord
100
AcDbLinetypeTableRecord
  2
HIDDEN2
 70
     0
  3
Hidden (.5x) _ _ _ _ _ _ _ _ _ _ _ _ _ _ _ _ _
 72
    65
 73
     2
 40
4.762499999999999
 49
3.174999999999999
 74
     0
 49
-1.587499999999999
 74
     0
  0
ENDTAB
  0
TABLE
  2
LAYER
  5
2
330
0
100
AcDbSymbolTable
 70
    13
  0
LAYER
  5
10
330
2
100
AcDbSymbolTableRecord
100
AcDbLayerTableRecord
  2
0
 70
     0
 62
     7
  6
Continuous
370
    -3
390
F
  0
LAYER
  5
40
330
2
100
AcDbSymbolTableRecord
100
AcDbLayerTableRecord
  2
50-0-CON
 70
     0
 62
     4
  6
Continuous
370
    50
390
F
  0
LAYER
  5
41
330
2
100
AcDbSymbolTableRecord
100
AcDbLayerTableRecord
  2
70-0-CON
 70
     0
 62
   202
  6
Continuous
370
    70
390
F
  0
LAYER
  5
4E
330
2
100
AcDbSymbolTableRecord
100
AcDbLayerTableRecord
  2
極太線
 70
     0
 62
     7
  6
Continuous
370
    70
390
F
  0
LAYER
  5
4F
330
2
100
AcDbSymbolTableRecord
100
AcDbLayerTableRecord
  2
細線
 70
     0
 62
     8
  6
Continuous
370
    18
390
F
  0
LAYER
  5
AB
330
2
100
AcDbSymbolTableRecord
100
AcDbLayerTableRecord
  2
構築線
 70
     0
 62
    -2
  6
Continuous
370
    18
390
F
  0
LAYER
  5
B8
330
2
100
AcDbSymbolTableRecord
100
AcDbLayerTableRecord
  2
太線
 70
     0
 62
     7
  6
Continuous
370
    35
390
F
  0
LAYER
  5
B9
330
2
100
AcDbSymbolTableRecord
100
AcDbLayerTableRecord
  2
寸法線
 70
     0
 62
     5
  6
Continuous
370
    18
390
F
  0
LAYER
  5
BA
330
2
100
AcDbSymbolTableRecord
100
AcDbLayerTableRecord
  2
破線
 70
     0
 62
     8
  6
HIDDEN2
370
    18
390
F
  0
LAYER
  5
BB
330
2
100
AcDbSymbolTableRecord
100
AcDbLayerTableRecord
  2
中心線
 70
     0
 62
     1
  6
CENTER2
370
    18
390
F
  0
LAYER
  5
BC
330
2
100
AcDbSymbolTableRecord
100
AcDbLayerTableRecord
  2
想像線
 70
     0
 62
     8
  6
PHANTOM2
370
    18
390
F
  0
LAYER
  5
BD
330
2
100
AcDbSymbolTableRecord
100
AcDbLayerTableRecord
  2
文字
 70
     0
 62
     7
  6
Continuous
370
    18
390
F
  0
LAYER
  5
180
330
2
100
AcDbSymbolTableRecord
100
AcDbLayerTableRecord
  2
Defpoints
 70
     0
 62
     7
  6
Continuous
290
     0
370
    -3
390
F
  0
ENDTAB
  0
TABLE
  2
STYLE
  5
3
330
0
100
AcDbSymbolTable
 70
     3
  0
STYLE
  5
11
330
3
100
AcDbSymbolTableRecord
100
AcDbTextStyleTableRecord
  2
Standard
 70
     0
 40
0.0
 41
1.0
 50
0.0
 71
     0
 42
3.0
  3
txt
  4

  0
STYLE
  5
32
330
3
100
AcDbSymbolTableRecord
100
AcDbTextStyleTableRecord
  2

 70
     1
 40
0.0
 41
1.0
 50
0.0
 71
     0
 42
2.5
  3
ltypeshp.shx
  4

  0
STYLE
  5
50
330
3
100
AcDbSymbolTableRecord
100
AcDbTextStyleTableRecord
  2
OKANO
 70
     0
 40
0.0
 41
1.0
 50
15.0
 71
     0
 42
5.0
  3
isocp.shx
  4
bigfont.shx
  0
ENDTAB
  0
TABLE
  2
VIEW
  5
6
330
0
100
AcDbSymbolTable
 70
     0
  0
ENDTAB
  0
TABLE
  2
UCS
  5
7
330
0
100
AcDbSymbolTable
 70
     0
  0
ENDTAB
  0
TABLE
  2
APPID
  5
9
330
0
100
AcDbSymbolTable
 70
     1
  0
APPID
  5
12
330
9
100
AcDbSymbolTableRecord
100
AcDbRegAppTableRecord
  2
ACAD
 70
     0
  0
ENDTAB
  0
TABLE
  2
DIMSTYLE
  5
A
330
0
100
AcDbSymbolTable
 70
     2
100
AcDbDimStyleTable
 71
     2
340
A2
340
27
  0
DIMSTYLE
105
27
330
A
100
AcDbSymbolTableRecord
100
AcDbDimStyleTableRecord
  2
ISO-25
 70
     0
 41
2.5
 42
0.625
 43
3.75
 44
1.25
 73
     0
 74
     0
 77
     1
 78
     8
140
2.5
141
2.5
143
0.03937007874016
147
0.625
171
     3
172
     1
271
     2
272
     2
274
     3
283
     0
284
     8
340
11
  0
DIMSTYLE
105
A2
102
{ACAD_REACTORS
330
349E
330
3554
330
35AB
330
3624
330
3745
330
376A
330
37A8
330
388A
330
38A1
330
38AE
330
38BB
330
38C8
330
38D6
330
393D
330
394B
330
396E
330
398C
330
39A5
102
}
330
A
100
AcDbSymbolTableRecord
100
AcDbDimStyleTableRecord
  2
sunpo
 70
     0
 40
0.0
 41
3.0
 42
2.0
 43
8.0
 44
3.0
 73
     0
 74
     0
 77
     1
 78
     8
140
5.0
141
2.5
143
0.03937007874016
147
1.0
171
     3
172
     1
271
     2
272
     2
274
     3
283
     0
284
     8
340
50
341
9B
342
9B
  0
ENDTAB
  0
TABLE
  2
BLOCK_RECORD
  5
1
330
0
100
AcDbSymbolTable
 70
    20
  0
BLOCK_RECORD
  5
1F
330
1
100
AcDbSymbolTableRecord
100
AcDbBlockTableRecord
  2
*Model_Space
340
22
  0
BLOCK_RECORD
  5
1B
330
1
100
AcDbSymbolTableRecord
100
AcDbBlockTableRecord
  2
*Paper_Space
340
1E
  0
BLOCK_RECORD
  5
9B
330
1
100
AcDbSymbolTableRecord
100
AcDbBlockTableRecord
  2
_Closed
340
0
102
{BLKREFS
331
34BD
331
34BE
331
3582
331
3583
331
36C3
331
36C4
331
378D
331
378E
331
37D8
331
37D9
331
389B
331
389C
331
38DC
331
38DD
331
38E5
331
38E6
331
38EE
331
38EF
331
38F7
331
38F8
331
3900
331
3901
331
3922
331
3923
331
392C
331
392D
331
395F
331
3960
331
3968
331
3969
331
397F
331
3980
331
399D
331
399E
331
39B9
331
39BA
102
}
  0
BLOCK_RECORD
  5
1510
330
1
100
AcDbSymbolTableRecord
100
AcDbBlockTableRecord
  2
A$C10A573AC
340
0
  0
BLOCK_RECORD
  5
349F
330
1
100
AcDbSymbolTableRecord
100
AcDbBlockTableRecord
  2
*D2
340
0
  0
BLOCK_RECORD
  5
3555
330
1
100
AcDbSymbolTableRecord
100
AcDbBlockTableRecord
  2
*D3
340
0
  0
BLOCK_RECORD
  5
35AC
330
1
100
AcDbSymbolTableRecord
100
AcDbBlockTableRecord
  2
*D4
340
0
  0
BLOCK_RECORD
  5
3625
330
1
100
AcDbSymbolTableRecord
100
AcDbBlockTableRecord
  2
*D5
340
0
  0
BLOCK_RECORD
  5
3746
330
1
100
AcDbSymbolTableRecord
100
AcDbBlockTableRecord
  2
*D6
340
0
  0
BLOCK_RECORD
  5
376B
330
1
100
AcDbSymbolTableRecord
100
AcDbBlockTableRecord
  2
*D7
340
0
  0
BLOCK_RECORD
  5
37A9
330
1
100
AcDbSymbolTableRecord
100
AcDbBlockTableRecord
  2
*D8
340
0
  0
BLOCK_RECORD
  5
388B
330
1
100
AcDbSymbolTableRecord
100
AcDbBlockTableRecord
  2
*D9
340
0
  0
BLOCK_RECORD
  5
38A2
330
1
100
AcDbSymbolTableRecord
100
AcDbBlockTableRecord
  2
*D10
340
0
  0
BLOCK_RECORD
  5
38AF
330
1
100
AcDbSymbolTableRecord
100
AcDbBlockTableRecord
  2
*D11
340
0
  0
BLOCK_RECORD
  5
38BC
330
1
100
AcDbSymbolTableRecord
100
AcDbBlockTableRecord
  2
*D12
340
0
  0
BLOCK_RECORD
  5
38C9
330
1
100
AcDbSymbolTableRecord
100
AcDbBlockTableRecord
  2
*D13
340
0
  0
BLOCK_RECORD
  5
38D7
330
1
100
AcDbSymbolTableRecord
100
AcDbBlockTableRecord
  2
*D14
340
0
  0
BLOCK_RECORD
  5
393E
330
1
100
AcDbSymbolTableRecord
100
AcDbBlockTableRecord
  2
*D15
340
0
  0
BLOCK_RECORD
  5
394C
330
1
100
AcDbSymbolTableRecord
100
AcDbBlockTableRecord
  2
*D16
340
0
  0
BLOCK_RECORD
  5
396F
330
1
100
AcDbSymbolTableRecord
100
AcDbBlockTableRecord
  2
*D17
340
0
  0
BLOCK_RECORD
  5
398D
330
1
100
AcDbSymbolTableRecord
100
AcDbBlockTableRecord
  2
*D18
340
0
  0
BLOCK_RECORD
  5
39A6
330
1
100
AcDbSymbolTableRecord
100
AcDbBlockTableRecord
  2
*D19
340
0
  0
ENDTAB
  0
ENDSEC
  0
SECTION
  2
BLOCKS
  0
BLOCK
  5
20
330
1F
100
AcDbEntity
  8
0
100
AcDbBlockBegin
  2
*Model_Space
 70
     0
 10
0.0
 20
0.0
 30
0.0
  3
*Model_Space
  1

  0
ENDBLK
  5
21
330
1F
100
AcDbEntity
  8
0
100
AcDbBlockEnd
  0
BLOCK
  5
1C
330
1B
100
AcDbEntity
 67
     1
  8
0
100
AcDbBlockBegin
  2
*Paper_Space
 70
     0
 10
0.0
 20
0.0
 30
0.0
  3
*Paper_Space
  1

  0
ENDBLK
  5
1D
330
1B
100
AcDbEntity
 67
     1
  8
0
100
AcDbBlockEnd
  0
BLOCK
  5
A0
330
9B
100
AcDbEntity
  8
0
100
AcDbBlockBegin
  2
_Closed
 70
     0
 10
0.0
 20
0.0
 30
0.0
  3
_Closed
  1

  0
LINE
  5
9C
330
9B
100
AcDbEntity
  8
0
 62
     0
370
    -2
100
AcDbLine
 10
-1.0
 20
0.1666666666666666
 30
0.0
 11
0.0
 21
0.0
 31
0.0
  0
LINE
  5
9D
330
9B
100
AcDbEntity
  8
0
 62
     0
370
    -2
100
AcDbLine
 10
0.0
 20
0.0
 30
0.0
 11
-1.0
 21
-0.1666666666666666
 31
0.0
  0
LINE
  5
9E
330
9B
100
AcDbEntity
  8
0
 62
     0
370
    -2
100
AcDbLine
 10
-1.0
 20
0.1666666666666666
 30
0.0
 11
-1.0
 21
-0.1666666666666666
 31
0.0
  0
LINE
  5
9F
330
9B
100
AcDbEntity
  8
0
 62
     0
370
    -2
100
AcDbLine
 10
0.0
 20
0.0
 30
0.0
 11
-1.0
 21
0.0
 31
0.0
  0
ENDBLK
  5
A1
330
9B
100
AcDbEntity
  8
0
100
AcDbBlockEnd
  0
BLOCK
  5
155B
330
1510
100
AcDbEntity
  8
0
100
AcDbBlockBegin
  2
A$C10A573AC
 70
     0
 10
0.0
 20
0.0
 30
0.0
  3
A$C10A573AC
  1

  0
TEXT
  5
1511
330
1510
100
AcDbEntity
  8
文字
100
AcDbText
 10
0.9844302777919438
 20
5.224957122252135
 30
0.0
 40
3.0
  1
Materal : Steel.
 51
15.0
  7
OKANO
100
AcDbText
  0
TEXT
  5
1512
330
1510
100
AcDbEntity
  8
文字
100
AcDbText
 10
-0.1141909619694843
 20
0.7500001922403499
 30
0.0
 40
3.0
  1
Surface treatment : Electro galvanized.
 51
15.0
  7
OKANO
100
AcDbText
  0
TEXT
  5
1513
330
1510
100
AcDbEntity
  8
文字
100
AcDbText
 10
-0.4901926332574931
 20
9.159967445193728
 30
0.0
 40
3.0
  1
5 TORGUE SCREW  M5-6
 51
15.0
  7
OKANO
100
AcDbText
  0
TEXT
  5
1514
330
1510
100
AcDbEntity
  8
文字
100
AcDbText
 10
1.364713526390005
 20
78.88822913323082
 30
0.0
 40
3.0
  1
Special standard,
 51
15.0
  7
OKANO
100
AcDbText
  0
TEXT
  5
1515
330
1510
100
AcDbEntity
  8
文字
100
AcDbText
 10
92.88160823408942
 20
89.92753849837379
 30
0.0
 40
3.0
  1
Screw Type
 51
15.0
  7
OKANO
100
AcDbText
  0
LINE
  5
1516
330
1510
100
AcDbEntity
  8
太線
100
AcDbLine
 10
113.9464587597784
 20
81.93930390144641
 30
0.0
 11
112.4464587597784
 21
81.93930390144641
 31
0.0
  0
LINE
  5
1517
330
1510
100
AcDbEntity
  8
太線
100
AcDbLine
 10
112.4464587597784
 20
76.9393039014464
 30
0.0
 11
121.4644995438761
 21
76.9393039014464
 31
0.0
  0
TEXT
  5
1518
330
1510
100
AcDbEntity
  8
文字
100
AcDbText
 10
93.46068240437217
 20
77.96976862235396
 30
0.0
 40
2.0
  1
17-30
 51
15.0
  7
OKANO
100
AcDbText
  0
LINE
  5
1519
330
1510
100
AcDbEntity
  8
太線
100
AcDbLine
 10
111.9464587597784
 20
81.43930390144641
 30
0.0
 11
111.9464587597784
 21
77.4393039014464
 31
0.0
  0
LINE
  5
151A
330
1510
100
AcDbEntity
  8
太線
100
AcDbLine
 10
91.94645875977846
 20
81.43930390144641
 30
0.0
 11
91.94645875977846
 21
77.43930390144639
 31
0.0
  0
LINE
  5
151B
330
1510
100
AcDbEntity
  8
太線
100
AcDbLine
 10
101.9644995438761
 20
77.4393039014464
 30
0.0
 11
101.9644995438761
 21
81.43930390144641
 31
0.0
  0
LINE
  5
151C
330
1510
100
AcDbEntity
  8
太線
100
AcDbLine
 10
92.44645875977846
 20
76.9393039014464
 30
0.0
 11
101.4644995438761
 21
76.9393039014464
 31
0.0
  0
ARC
  5
151D
330
1510
100
AcDbEntity
  8
太線
100
AcDbCircle
 10
92.44645875977846
 20
77.43930390144639
 30
0.0
 40
0.5
100
AcDbArc
 50
180.0
 51
270.0
  0
ARC
  5
151E
330
1510
100
AcDbEntity
  8
太線
100
AcDbCircle
 10
101.4644995438761
 20
77.4393039014464
 30
0.0
 40
0.5
100
AcDbArc
 50
270.0
 51
0.0
  0
ARC
  5
151F
330
1510
100
AcDbEntity
  8
太線
100
AcDbCircle
 10
112.4464587597784
 20
77.4393039014464
 30
0.0
 40
0.5
100
AcDbArc
 50
180.0
 51
270.0
  0
LINE
  5
1520
330
1510
100
AcDbEntity
  8
想像線
100
AcDbLine
 10
93.94645875977847
 20
81.93930390144641
 30
0.0
 11
99.96449954387617
 21
81.93930390144641
 31
0.0
  0
LINE
  5
1521
330
1510
100
AcDbEntity
  8
極太線
100
AcDbLine
 10
96.38762957111168
 20
85.43930390144641
 30
0.0
 11
97.50528794844525
 21
85.43930390144641
 31
0.0
  0
CIRCLE
  5
1522
330
1510
100
AcDbEntity
  8
太線
100
AcDbCircle
 10
96.94645875977847
 20
85.43930390144641
 30
0.0
 40
0.5588291886667776
  0
LINE
  5
1523
330
1510
100
AcDbEntity
  8
太線
100
AcDbLine
 10
99.46449954387617
 20
86.93930390144641
 30
0.0
 11
94.44645875977846
 21
86.93930390144641
 31
0.0
  0
LINE
  5
1524
330
1510
100
AcDbEntity
  8
太線
100
AcDbLine
 10
93.94645875977847
 20
86.43930390144641
 30
0.0
 11
93.94645875977847
 21
81.93930390144641
 31
0.0
  0
ARC
  5
1525
330
1510
100
AcDbEntity
  8
太線
100
AcDbCircle
 10
92.44645875977846
 20
81.43930390144641
 30
0.0
 40
0.5
100
AcDbArc
 50
90.0
 51
180.0
  0
LINE
  5
1526
330
1510
100
AcDbEntity
  8
太線
100
AcDbLine
 10
93.94645875977847
 20
81.93930390144641
 30
0.0
 11
92.44645875977846
 21
81.93930390144641
 31
0.0
  0
ARC
  5
1527
330
1510
100
AcDbEntity
  8
太線
100
AcDbCircle
 10
94.44645875977846
 20
86.43930390144641
 30
0.0
 40
0.5
100
AcDbArc
 50
90.0
 51
180.0
  0
LINE
  5
1528
330
1510
100
AcDbEntity
  8
太線
100
AcDbLine
 10
99.96449954387617
 20
81.93930390144641
 30
0.0
 11
99.96449954387617
 21
86.43930390144641
 31
0.0
  0
LINE
  5
1529
330
1510
100
AcDbEntity
  8
太線
100
AcDbLine
 10
101.4644995438761
 20
81.93930390144641
 30
0.0
 11
99.96449954387617
 21
81.93930390144641
 31
0.0
  0
ARC
  5
152A
330
1510
100
AcDbEntity
  8
太線
100
AcDbCircle
 10
101.4644995438761
 20
81.43930390144641
 30
0.0
 40
0.5
100
AcDbArc
 50
0.0
 51
90.0
  0
ARC
  5
152B
330
1510
100
AcDbEntity
  8
太線
100
AcDbCircle
 10
99.46449954387617
 20
86.43930390144641
 30
0.0
 40
0.5
100
AcDbArc
 50
0.0
 51
90.0
  0
LINE
  5
152C
330
1510
100
AcDbEntity
  8
極太線
100
AcDbLine
 10
96.94645875977847
 20
85.99813309011318
 30
0.0
 11
96.94645875977847
 21
84.88047471277964
 31
0.0
  0
ARC
  5
152D
330
1510
100
AcDbEntity
  8
太線
100
AcDbCircle
 10
112.4464587597784
 20
81.43930390144641
 30
0.0
 40
0.5
100
AcDbArc
 50
90.0
 51
180.0
  0
TEXT
  5
152E
330
1510
100
AcDbEntity
  8
文字
100
AcDbText
 10
134.3819212586066
 20
78.16263579228063
 30
0.0
 40
2.0
  1
101
 51
15.0
  7
OKANO
100
AcDbText
  0
TEXT
  5
152F
330
1510
100
AcDbEntity
  8
文字
100
AcDbText
 10
113.3422276612066
 20
77.96976862235396
 30
0.0
 40
2.0
  1
38-83
 51
15.0
  7
OKANO
100
AcDbText
  0
LINE
  5
1530
330
1510
100
AcDbEntity
  8
太線
100
AcDbLine
 10
141.9825403279738
 20
77.4393039014464
 30
0.0
 11
141.9825403279738
 21
81.43930390144641
 31
0.0
  0
LINE
  5
1531
330
1510
100
AcDbEntity
  8
太線
100
AcDbLine
 10
131.9644995438761
 20
81.43930390144641
 30
0.0
 11
131.9644995438761
 21
77.4393039014464
 31
0.0
  0
LINE
  5
1532
330
1510
100
AcDbEntity
  8
太線
100
AcDbLine
 10
121.9644995438761
 20
77.4393039014464
 30
0.0
 11
121.9644995438761
 21
81.43930390144641
 31
0.0
  0
ARC
  5
1533
330
1510
100
AcDbEntity
  8
太線
100
AcDbCircle
 10
121.4644995438761
 20
77.4393039014464
 30
0.0
 40
0.5
100
AcDbArc
 50
270.0
 51
0.0
  0
LINE
  5
1534
330
1510
100
AcDbEntity
  8
太線
100
AcDbLine
 10
132.4644995438761
 20
76.9393039014464
 30
0.0
 11
141.4825403279738
 21
76.9393039014464
 31
0.0
  0
ARC
  5
1535
330
1510
100
AcDbEntity
  8
太線
100
AcDbCircle
 10
132.4644995438761
 20
77.4393039014464
 30
0.0
 40
0.5
100
AcDbArc
 50
180.0
 51
270.0
  0
ARC
  5
1536
330
1510
100
AcDbEntity
  8
太線
100
AcDbCircle
 10
141.4825403279738
 20
77.4393039014464
 30
0.0
 40
0.5
100
AcDbArc
 50
270.0
 51
0.0
  0
ARC
  5
1537
330
1510
100
AcDbEntity
  8
太線
100
AcDbCircle
 10
121.4644995438761
 20
81.43930390144641
 30
0.0
 40
0.5
100
AcDbArc
 50
0.0
 51
90.0
  0
LINE
  5
1538
330
1510
100
AcDbEntity
  8
太線
100
AcDbLine
 10
119.9644995438761
 20
81.93930390144641
 30
0.0
 11
119.9644995438761
 21
86.43930390144641
 31
0.0
  0
LINE
  5
1539
330
1510
100
AcDbEntity
  8
太線
100
AcDbLine
 10
113.9464587597784
 20
86.43930390144641
 30
0.0
 11
113.9464587597784
 21
81.93930390144641
 31
0.0
  0
LINE
  5
153A
330
1510
100
AcDbEntity
  8
想像線
100
AcDbLine
 10
113.9464587597784
 20
81.93930390144641
 30
0.0
 11
119.9644995438761
 21
81.93930390144641
 31
0.0
  0
LINE
  5
153B
330
1510
100
AcDbEntity
  8
太線
100
AcDbLine
 10
121.4644995438761
 20
81.93930390144641
 30
0.0
 11
119.9644995438761
 21
81.93930390144641
 31
0.0
  0
LINE
  5
153C
330
1510
100
AcDbEntity
  8
太線
100
AcDbLine
 10
119.4644995438761
 20
86.93930390144641
 30
0.0
 11
114.4464587597784
 21
86.93930390144641
 31
0.0
  0
ARC
  5
153D
330
1510
100
AcDbEntity
  8
太線
100
AcDbCircle
 10
114.4464587597784
 20
86.43930390144641
 30
0.0
 40
0.5
100
AcDbArc
 50
90.0
 51
180.0
  0
CIRCLE
  5
153E
330
1510
100
AcDbEntity
  8
太線
100
AcDbCircle
 10
115.4464587597784
 20
85.43930390144641
 30
0.0
 40
0.5588291886667776
  0
LINE
  5
153F
330
1510
100
AcDbEntity
  8
極太線
100
AcDbLine
 10
115.4464587597784
 20
85.99813309011318
 30
0.0
 11
115.4464587597784
 21
84.88047471277964
 31
0.0
  0
LINE
  5
1540
330
1510
100
AcDbEntity
  8
極太線
100
AcDbLine
 10
114.8876295711116
 20
85.43930390144641
 30
0.0
 11
116.0052879484452
 21
85.43930390144641
 31
0.0
  0
ARC
  5
1541
330
1510
100
AcDbEntity
  8
太線
100
AcDbCircle
 10
119.4644995438761
 20
86.43930390144641
 30
0.0
 40
0.5
100
AcDbArc
 50
0.0
 51
90.0
  0
LINE
  5
1542
330
1510
100
AcDbEntity
  8
極太線
100
AcDbLine
 10
117.9056703552094
 20
85.43930390144641
 30
0.0
 11
119.0233287325429
 21
85.43930390144641
 31
0.0
  0
LINE
  5
1543
330
1510
100
AcDbEntity
  8
極太線
100
AcDbLine
 10
118.4644995438761
 20
85.99813309011318
 30
0.0
 11
118.4644995438761
 21
84.88047471277964
 31
0.0
  0
CIRCLE
  5
1544
330
1510
100
AcDbEntity
  8
太線
100
AcDbCircle
 10
118.4644995438761
 20
85.43930390144641
 30
0.0
 40
0.5588291886667776
  0
LINE
  5
1545
330
1510
100
AcDbEntity
  8
想像線
100
AcDbLine
 10
133.9644995438761
 20
81.93930390144641
 30
0.0
 11
139.9825403279738
 21
81.93930390144641
 31
0.0
  0
LINE
  5
1546
330
1510
100
AcDbEntity
  8
極太線
100
AcDbLine
 10
137.9237111393071
 20
85.43930390144641
 30
0.0
 11
139.0413695166406
 21
85.43930390144641
 31
0.0
  0
CIRCLE
  5
1547
330
1510
100
AcDbEntity
  8
太線
100
AcDbCircle
 10
138.4825403279738
 20
85.43930390144641
 30
0.0
 40
0.5588291886667776
  0
CIRCLE
  5
1548
330
1510
100
AcDbEntity
  8
太線
100
AcDbCircle
 10
138.4825403279738
 20
83.26342923362075
 30
0.0
 40
0.5588291886667776
  0
LINE
  5
1549
330
1510
100
AcDbEntity
  8
極太線
100
AcDbLine
 10
137.9237111393071
 20
83.26342923362075
 30
0.0
 11
139.0413695166406
 21
83.26342923362075
 31
0.0
  0
LINE
  5
154A
330
1510
100
AcDbEntity
  8
太線
100
AcDbLine
 10
139.4825403279738
 20
86.93930390144641
 30
0.0
 11
134.4644995438761
 21
86.93930390144641
 31
0.0
  0
LINE
  5
154B
330
1510
100
AcDbEntity
  8
太線
100
AcDbLine
 10
133.9644995438761
 20
86.43930390144641
 30
0.0
 11
133.9644995438761
 21
81.93930390144641
 31
0.0
  0
ARC
  5
154C
330
1510
100
AcDbEntity
  8
太線
100
AcDbCircle
 10
132.4644995438761
 20
81.43930390144641
 30
0.0
 40
0.5
100
AcDbArc
 50
90.0
 51
180.0
  0
LINE
  5
154D
330
1510
100
AcDbEntity
  8
太線
100
AcDbLine
 10
133.9644995438761
 20
81.93930390144641
 30
0.0
 11
132.4644995438761
 21
81.93930390144641
 31
0.0
  0
LINE
  5
154E
330
1510
100
AcDbEntity
  8
極太線
100
AcDbLine
 10
134.9056703552093
 20
83.26342923362075
 30
0.0
 11
136.0233287325429
 21
83.26342923362075
 31
0.0
  0
LINE
  5
154F
330
1510
100
AcDbEntity
  8
極太線
100
AcDbLine
 10
135.4644995438761
 20
83.82225842228752
 30
0.0
 11
135.4644995438761
 21
82.70460004495395
 31
0.0
  0
CIRCLE
  5
1550
330
1510
100
AcDbEntity
  8
太線
100
AcDbCircle
 10
135.4644995438761
 20
83.26342923362075
 30
0.0
 40
0.5588291886667776
  0
ARC
  5
1551
330
1510
100
AcDbEntity
  8
太線
100
AcDbCircle
 10
134.4644995438761
 20
86.43930390144641
 30
0.0
 40
0.5
100
AcDbArc
 50
90.0
 51
180.0
  0
CIRCLE
  5
1552
330
1510
100
AcDbEntity
  8
太線
100
AcDbCircle
 10
135.4644995438761
 20
85.43930390144641
 30
0.0
 40
0.5588291886667776
  0
LINE
  5
1553
330
1510
100
AcDbEntity
  8
極太線
100
AcDbLine
 10
135.4644995438761
 20
85.99813309011318
 30
0.0
 11
135.4644995438761
 21
84.88047471277964
 31
0.0
  0
LINE
  5
1554
330
1510
100
AcDbEntity
  8
極太線
100
AcDbLine
 10
134.9056703552093
 20
85.43930390144641
 30
0.0
 11
136.0233287325429
 21
85.43930390144641
 31
0.0
  0
LINE
  5
1555
330
1510
100
AcDbEntity
  8
太線
100
AcDbLine
 10
139.9825403279738
 20
81.93930390144641
 30
0.0
 11
139.9825403279738
 21
86.43930390144641
 31
0.0
  0
ARC
  5
1556
330
1510
100
AcDbEntity
  8
太線
100
AcDbCircle
 10
141.4825403279738
 20
81.43930390144641
 30
0.0
 40
0.5
100
AcDbArc
 50
0.0
 51
90.0
  0
LINE
  5
1557
330
1510
100
AcDbEntity
  8
極太線
100
AcDbLine
 10
138.4825403279738
 20
83.82225842228752
 30
0.0
 11
138.4825403279738
 21
82.70460004495395
 31
0.0
  0
LINE
  5
1558
330
1510
100
AcDbEntity
  8
太線
100
AcDbLine
 10
141.4825403279738
 20
81.93930390144641
 30
0.0
 11
139.9825403279738
 21
81.93930390144641
 31
0.0
  0
ARC
  5
1559
330
1510
100
AcDbEntity
  8
太線
100
AcDbCircle
 10
139.4825403279738
 20
86.43930390144641
 30
0.0
 40
0.5
100
AcDbArc
 50
0.0
 51
90.0
  0
LINE
  5
155A
330
1510
100
AcDbEntity
  8
極太線
100
AcDbLine
 10
138.4825403279738
 20
85.99813309011318
 30
0.0
 11
138.4825403279738
 21
84.88047471277964
 31
0.0
  0
ENDBLK
  5
155C
330
1510
100
AcDbEntity
  8
0
100
AcDbBlockEnd
  0
BLOCK
  5
34A9
330
349F
100
AcDbEntity
  8
0
100
AcDbBlockBegin
  2
*D2
 70
     1
 10
0.0
 20
0.0
 30
0.0
  3
*D2
  1

  0
LINE
  5
34BA
330
349F
100
AcDbEntity
  8
寸法線
 62
     0
370
    -2
100
AcDbLine
 10
199.6223706395675
 20
149.9116988020077
 30
0.0
 11
179.7441145499647
 21
149.9116988020077
 31
0.0
  0
LINE
  5
34BB
330
349F
100
AcDbEntity
  8
寸法線
 62
     0
370
    -2
100
AcDbLine
 10
199.6223706395675
 20
127.1116988020076
 30
0.0
 11
179.7441145499647
 21
127.1116988020076
 31
0.0
  0
LINE
  5
34BC
330
349F
100
AcDbEntity
  8
寸法線
 62
     0
370
    -2
100
AcDbLine
 10
182.7441145499647
 20
146.9116988020077
 30
0.0
 11
182.7441145499647
 21
130.1116988020077
 31
0.0
  0
INSERT
  5
34BD
330
349F
100
AcDbEntity
  8
寸法線
 62
     0
370
    -2
100
AcDbBlockReference
  2
_Closed
 10
182.7441145499647
 20
149.9116988020077
 30
0.0
 41
3.0
 42
3.0
 43
3.0
 50
90.0
  0
INSERT
  5
34BE
330
349F
100
AcDbEntity
  8
寸法線
 62
     0
370
    -2
100
AcDbBlockReference
  2
_Closed
 10
182.7441145499647
 20
127.1116988020076
 30
0.0
 41
3.0
 42
3.0
 43
3.0
 50
270.0
  0
MTEXT
  5
34BF
330
349F
100
AcDbEntity
  8
寸法線
 62
     0
100
AcDbMText
 10
179.2436224239804
 20
138.5116988020077
 30
0.0
 40
5.0
 41
0.0
 71
     5
 72
     1
  1
22
  7
OKANO
 11
0.0000000000000001
 21
1.0
 31
0.0
 73
     1
 44
1.0
  0
POINT
  5
34C0
330
349F
100
AcDbEntity
  8
Defpoints
 62
     0
100
AcDbPoint
 10
201.6223706395675
 20
149.9116988020077
 30
0.0
  0
POINT
  5
34C1
330
349F
100
AcDbEntity
  8
Defpoints
 62
     0
100
AcDbPoint
 10
201.6223706395675
 20
127.1116988020076
 30
0.0
  0
POINT
  5
34C2
330
349F
100
AcDbEntity
  8
Defpoints
 62
     0
100
AcDbPoint
 10
182.7441145499647
 20
127.1116988020076
 30
0.0
  0
ENDBLK
  5
34AA
330
349F
100
AcDbEntity
  8
0
100
AcDbBlockEnd
  0
BLOCK
  5
3560
330
3555
100
AcDbEntity
  8
0
100
AcDbBlockBegin
  2
*D3
 70
     1
 10
0.0
 20
0.0
 30
0.0
  3
*D3
  1

  0
LINE
  5
357F
330
3555
100
AcDbEntity
  8
寸法線
 62
     0
370
    -2
100
AcDbLine
 10
72.36083790129524
 20
234.2622221231154
 30
0.0
 11
72.36083790129524
 21
218.2765355262315
 31
0.0
  0
LINE
  5
3580
330
3555
100
AcDbEntity
  8
寸法線
 62
     0
370
    -2
100
AcDbLine
 10
82.62277221308687
 20
234.2622221231154
 30
0.0
 11
82.62277221308687
 21
218.2765355262315
 31
0.0
  0
LINE
  5
3581
330
3555
100
AcDbEntity
  8
寸法線
 62
     0
370
    -2
100
AcDbLine
 10
75.36083790129524
 20
221.2765355262315
 30
0.0
 11
79.62277221308688
 21
221.2765355262315
 31
0.0
  0
INSERT
  5
3582
330
3555
100
AcDbEntity
  8
寸法線
 62
     0
370
    -2
100
AcDbBlockReference
  2
_Closed
 10
72.36083790129524
 20
221.2765355262315
 30
0.0
 41
3.0
 42
3.0
 43
3.0
 50
180.0
  0
INSERT
  5
3583
330
3555
100
AcDbEntity
  8
寸法線
 62
     0
370
    -2
100
AcDbBlockReference
  2
_Closed
 10
82.62277221308687
 20
221.2765355262315
 30
0.0
 41
3.0
 42
3.0
 43
3.0
  0
MTEXT
  5
3584
330
3555
100
AcDbEntity
  8
寸法線
 62
     0
100
AcDbMText
 10
77.49180505719106
 20
224.7765355262315
 30
0.0
 40
5.0
 41
0.0
 71
     5
 72
     1
  1
10
  7
OKANO
 73
     1
 44
1.0
  0
POINT
  5
3585
330
3555
100
AcDbEntity
  8
Defpoints
 62
     0
100
AcDbPoint
 10
72.36083790129524
 20
236.2622221231154
 30
0.0
  0
POINT
  5
3586
330
3555
100
AcDbEntity
  8
Defpoints
 62
     0
100
AcDbPoint
 10
82.62277221308687
 20
236.2622221231154
 30
0.0
  0
POINT
  5
3587
330
3555
100
AcDbEntity
  8
Defpoints
 62
     0
100
AcDbPoint
 10
82.62277221308687
 20
221.2765355262315
 30
0.0
  0
ENDBLK
  5
3561
330
3555
100
AcDbEntity
  8
0
100
AcDbBlockEnd
  0
BLOCK
  5
35B6
330
35AC
100
AcDbEntity
  8
0
100
AcDbBlockBegin
  2
*D4
 70
     1
 10
0.0
 20
0.0
 30
0.0
  3
*D4
  1

  0
LINE
  5
36C0
330
35AC
100
AcDbEntity
  8
寸法線
 62
     0
370
    -2
100
AcDbLine
 10
195.6223706395675
 20
145.9116988020077
 30
0.0
 11
195.6223706395675
 21
211.938549581351
 31
0.0
  0
LINE
  5
36C1
330
35AC
100
AcDbEntity
  8
寸法線
 62
     0
370
    -2
100
AcDbLine
 10
270.0523063310238
 20
144.8018982520411
 30
0.0
 11
270.0523063310238
 21
211.938549581351
 31
0.0
  0
LINE
  5
36C2
330
35AC
100
AcDbEntity
  8
寸法線
 62
     0
370
    -2
100
AcDbLine
 10
198.6223706395675
 20
208.938549581351
 30
0.0
 11
267.0523063310238
 21
208.938549581351
 31
0.0
  0
INSERT
  5
36C3
330
35AC
100
AcDbEntity
  8
寸法線
 62
     0
370
    -2
100
AcDbBlockReference
  2
_Closed
 10
195.6223706395675
 20
208.938549581351
 30
0.0
 41
3.0
 42
3.0
 43
3.0
 50
180.0
  0
INSERT
  5
36C4
330
35AC
100
AcDbEntity
  8
寸法線
 62
     0
370
    -2
100
AcDbBlockReference
  2
_Closed
 10
270.0523063310238
 20
208.938549581351
 30
0.0
 41
3.0
 42
3.0
 43
3.0
  0
MTEXT
  5
36C5
330
35AC
100
AcDbEntity
  8
寸法線
 62
     0
100
AcDbMText
 10
232.8373384852957
 20
212.438549581351
 30
0.0
 40
5.0
 41
0.0
 71
     5
 72
     1
  1
77
  7
OKANO
 73
     1
 44
1.0
  0
POINT
  5
36C6
330
35AC
100
AcDbEntity
  8
Defpoints
 62
     0
100
AcDbPoint
 10
195.6223706395675
 20
143.9116988020077
 30
0.0
  0
POINT
  5
36C7
330
35AC
100
AcDbEntity
  8
Defpoints
 62
     0
100
AcDbPoint
 10
270.0523063310238
 20
142.8018982520411
 30
0.0
  0
POINT
  5
36C8
330
35AC
100
AcDbEntity
  8
Defpoints
 62
     0
100
AcDbPoint
 10
270.0523063310238
 20
208.938549581351
 30
0.0
  0
ENDBLK
  5
35B7
330
35AC
100
AcDbEntity
  8
0
100
AcDbBlockEnd
  0
BLOCK
  5
362E
330
3625
100
AcDbEntity
  8
0
100
AcDbBlockBegin
  2
*D5
 70
     1
 10
0.0
 20
0.0
 30
0.0
  3
*D5
  1

  0
LINE
  5
3789
330
3625
100
AcDbEntity
  8
寸法線
 62
     0
370
    -2
100
AcDbLine
 10
292.6315965651408
 20
147.1339359371599
 30
0.0
 11
267.9142921149712
 21
140.2545510739001
 31
0.0
  0
LINE
  5
378A
330
3625
100
AcDbEntity
  8
寸法線
 62
     0
370
    -2
100
AcDbLine
 10
255.3903205470764
 20
136.7688465301152
 30
0.0
 11
252.5001732621777
 21
135.9644531738572
 31
0.0
  0
MTEXT
  5
378B
330
3625
100
AcDbEntity
  8
寸法線
 62
     0
100
AcDbMText
 10
289.1855633196605
 20
149.8078597860484
 30
0.0
 40
5.0
 41
0.0
 71
     5
 72
     1
  1
8
  7
OKANO
 11
0.9633824282995998
 21
0.2681311187526848
 31
0.0
 73
     1
 44
1.0
  0
LINE
  5
378C
330
3625
100
AcDbEntity
  8
寸法線
 62
     0
370
    -2
100
AcDbLine
 10
258.2804678319753
 20
137.5732398863733
 30
0.0
 11
265.0241448300724
 21
139.4501577176421
 31
0.0
  0
INSERT
  5
378D
330
3625
100
AcDbEntity
  8
寸法線
 62
     0
370
    -2
100
AcDbBlockReference
  2
_Closed
 10
258.2804678319753
 20
137.5732398863733
 30
0.0
 41
3.0
 42
3.0
 43
3.0
 50
15.55308774452665
  0
INSERT
  5
378E
330
3625
100
AcDbEntity
  8
寸法線
 62
     0
370
    -2
100
AcDbBlockReference
  2
_Closed
 10
265.0241448300724
 20
139.4501577176421
 30
0.0
 41
3.0
 42
3.0
 43
3.0
 50
195.5530877445266
  0
POINT
  5
378F
330
3625
100
AcDbEntity
  8
Defpoints
 62
     0
100
AcDbPoint
 10
265.0241448300724
 20
139.4501577176421
 30
0.0
  0
POINT
  5
3790
330
3625
100
AcDbEntity
  8
Defpoints
 62
     0
100
AcDbPoint
 10
258.2804678319753
 20
137.5732398863733
 30
0.0
  0
ENDBLK
  5
362F
330
3625
100
AcDbEntity
  8
0
100
AcDbBlockEnd
  0
BLOCK
  5
3752
330
3746
100
AcDbEntity
  8
0
100
AcDbBlockBegin
  2
*D6
 70
     1
 10
0.0
 20
0.0
 30
0.0
  3
*D6
  1

  0
LINE
  5
391D
330
3746
100
AcDbEntity
  8
寸法線
 62
     0
370
    -2
100
AcDbLine
 10
237.3128888090888
 20
302.5517645737321
 30
0.0
 11
192.86494802663
 21
302.5517645737321
 31
0.0
  0
LINE
  5
391E
330
3746
100
AcDbEntity
  8
寸法線
 62
     0
370
    -2
100
AcDbLine
 10
237.3128888090888
 20
295.8729339700251
 30
0.0
 11
192.86494802663
 21
295.8729339700251
 31
0.0
  0
LINE
  5
391F
330
3746
100
AcDbEntity
  8
寸法線
 62
     0
370
    -2
100
AcDbLine
 10
195.86494802663
 20
305.551764573732
 30
0.0
 11
195.86494802663
 21
308.5517645737321
 31
0.0
  0
LINE
  5
3920
330
3746
100
AcDbEntity
  8
寸法線
 62
     0
370
    -2
100
AcDbLine
 10
195.86494802663
 20
292.8729339700251
 30
0.0
 11
195.86494802663
 21
279.9171626040851
 31
0.0
  0
LINE
  5
3921
330
3746
100
AcDbEntity
  8
寸法線
 62
     0
370
    -2
100
AcDbLine
 10
195.86494802663
 20
302.5517645737321
 30
0.0
 11
195.86494802663
 21
295.8729339700251
 31
0.0
  0
INSERT
  5
3922
330
3746
100
AcDbEntity
  8
寸法線
 62
     0
370
    -2
100
AcDbBlockReference
  2
_Closed
 10
195.86494802663
 20
302.5517645737321
 30
0.0
 41
3.0
 42
3.0
 43
3.0
 50
270.0
  0
INSERT
  5
3923
330
3746
100
AcDbEntity
  8
寸法線
 62
     0
370
    -2
100
AcDbBlockReference
  2
_Closed
 10
195.86494802663
 20
295.8729339700251
 30
0.0
 41
3.0
 42
3.0
 43
3.0
 50
90.0
  0
MTEXT
  5
3924
330
3746
100
AcDbEntity
  8
寸法線
 62
     0
100
AcDbMText
 10
192.3649480266299
 20
284.8950482870551
 30
0.0
 40
5.0
 41
0.0
 71
     5
 72
     1
  1
5.5
  7
OKANO
 11
0.0000000000000001
 21
1.0
 31
0.0
 73
     1
 44
1.0
  0
POINT
  5
3925
330
3746
100
AcDbEntity
  8
Defpoints
 62
     0
100
AcDbPoint
 10
239.3128888090888
 20
302.5517645737321
 30
0.0
  0
POINT
  5
3926
330
3746
100
AcDbEntity
  8
Defpoints
 62
     0
100
AcDbPoint
 10
239.3128888090888
 20
295.8729339700251
 30
0.0
  0
POINT
  5
3927
330
3746
100
AcDbEntity
  8
Defpoints
 62
     0
100
AcDbPoint
 10
195.86494802663
 20
295.8729339700251
 30
0.0
  0
ENDBLK
  5
3753
330
3746
100
AcDbEntity
  8
0
100
AcDbBlockEnd
  0
BLOCK
  5
3776
330
376B
100
AcDbEntity
  8
0
100
AcDbBlockBegin
  2
*D7
 70
     1
 10
0.0
 20
0.0
 30
0.0
  3
*D7
  1

  0
LINE
  5
3928
330
376B
100
AcDbEntity
  8
寸法線
 62
     0
370
    -2
100
AcDbLine
 10
266.3790093957355
 20
305.3346112128363
 30
0.0
 11
313.612073381381
 21
305.3346112128363
 31
0.0
  0
LINE
  5
3929
330
376B
100
AcDbEntity
  8
寸法線
 62
     0
370
    -2
100
AcDbLine
 10
265.2649587706934
 20
293.6466574188237
 30
0.0
 11
313.612073381381
 21
293.6466574188237
 31
0.0
  0
LINE
  5
392A
330
376B
100
AcDbEntity
  8
寸法線
 62
     0
370
    -2
100
AcDbLine
 10
310.612073381381
 20
302.3346112128363
 30
0.0
 11
310.612073381381
 21
296.6466574188237
 31
0.0
  0
LINE
  5
392B
330
376B
100
AcDbEntity
  8
寸法線
 62
     0
370
    -2
100
AcDbLine
 10
310.612073381381
 20
293.6466574188237
 30
0.0
 11
310.612073381381
 21
263.4014668904404
 31
0.0
  0
INSERT
  5
392C
330
376B
100
AcDbEntity
  8
寸法線
 62
     0
370
    -2
100
AcDbBlockReference
  2
_Closed
 10
310.612073381381
 20
305.3346112128363
 30
0.0
 41
3.0
 42
3.0
 43
3.0
 50
90.0
  0
INSERT
  5
392D
330
376B
100
AcDbEntity
  8
寸法線
 62
     0
370
    -2
100
AcDbBlockReference
  2
_Closed
 10
310.612073381381
 20
293.6466574188237
 30
0.0
 41
3.0
 42
3.0
 43
3.0
 50
270.0
  0
MTEXT
  5
392E
330
376B
100
AcDbEntity
  8
寸法線
 62
     0
100
AcDbMText
 10
307.1120733813809
 20
277.0240621546321
 30
0.0
 40
5.0
 41
0.0
 71
     5
 72
     1
  1
10mm六角
  7
OKANO
 11
0.0000000000000001
 21
1.0
 31
0.0
 73
     1
 44
1.0
  0
POINT
  5
392F
330
376B
100
AcDbEntity
  8
Defpoints
 62
     0
100
AcDbPoint
 10
264.3790093957355
 20
305.3346112128363
 30
0.0
  0
POINT
  5
3930
330
376B
100
AcDbEntity
  8
Defpoints
 62
     0
100
AcDbPoint
 10
263.2649587706934
 20
293.6466574188237
 30
0.0
  0
POINT
  5
3931
330
376B
100
AcDbEntity
  8
Defpoints
 62
     0
100
AcDbPoint
 10
310.612073381381
 20
293.6466574188237
 30
0.0
  0
ENDBLK
  5
3777
330
376B
100
AcDbEntity
  8
0
100
AcDbBlockEnd
  0
BLOCK
  5
37B4
330
37A9
100
AcDbEntity
  8
0
100
AcDbBlockBegin
  2
*D8
 70
     1
 10
0.0
 20
0.0
 30
0.0
  3
*D8
  1

  0
LINE
  5
37D3
330
37A9
100
AcDbEntity
  8
寸法線
 62
     0
370
    -2
100
AcDbLine
 10
261.9506345419879
 20
133.4610352917825
 30
0.0
 11
261.9506345419879
 21
117.243469413038
 31
0.0
  0
LINE
  5
37D4
330
37A9
100
AcDbEntity
  8
寸法線
 62
     0
370
    -2
100
AcDbLine
 10
270.1748471827268
 20
133.4610352917825
 30
0.0
 11
270.1748471827268
 21
117.243469413038
 31
0.0
  0
LINE
  5
37D5
330
37A9
100
AcDbEntity
  8
寸法線
 62
     0
370
    -2
100
AcDbLine
 10
258.9506345419879
 20
120.243469413038
 30
0.0
 11
255.9506345419879
 21
120.243469413038
 31
0.0
  0
LINE
  5
37D6
330
37A9
100
AcDbEntity
  8
寸法線
 62
     0
370
    -2
100
AcDbLine
 10
273.1748471827267
 20
120.243469413038
 30
0.0
 11
276.1748471827268
 21
120.243469413038
 31
0.0
  0
LINE
  5
37D7
330
37A9
100
AcDbEntity
  8
寸法線
 62
     0
370
    -2
100
AcDbLine
 10
261.9506345419879
 20
120.243469413038
 30
0.0
 11
270.1748471827268
 21
120.243469413038
 31
0.0
  0
INSERT
  5
37D8
330
37A9
100
AcDbEntity
  8
寸法線
 62
     0
370
    -2
100
AcDbBlockReference
  2
_Closed
 10
261.9506345419879
 20
120.243469413038
 30
0.0
 41
3.0
 42
3.0
 43
3.0
  0
INSERT
  5
37D9
330
37A9
100
AcDbEntity
  8
寸法線
 62
     0
370
    -2
100
AcDbBlockReference
  2
_Closed
 10
270.1748471827268
 20
120.243469413038
 30
0.0
 41
3.0
 42
3.0
 43
3.0
 50
180.0
  0
MTEXT
  5
37DA
330
37A9
100
AcDbEntity
  8
寸法線
 62
     0
100
AcDbMText
 10
266.2150412766695
 20
123.743469413038
 30
0.0
 40
5.0
 41
0.0
 71
     5
 72
     1
  1
10
  7
OKANO
 73
     1
 44
1.0
  0
POINT
  5
37DB
330
37A9
100
AcDbEntity
  8
Defpoints
 62
     0
100
AcDbPoint
 10
261.9506345419879
 20
135.4610352917825
 30
0.0
  0
POINT
  5
37DC
330
37A9
100
AcDbEntity
  8
Defpoints
 62
     0
100
AcDbPoint
 10
270.1748471827268
 20
135.4610352917825
 30
0.0
  0
POINT
  5
37DD
330
37A9
100
AcDbEntity
  8
Defpoints
 62
     0
100
AcDbPoint
 10
270.1748471827268
 20
120.243469413038
 30
0.0
  0
ENDBLK
  5
37B5
330
37A9
100
AcDbEntity
  8
0
100
AcDbBlockEnd
  0
BLOCK
  5
3896
330
388B
100
AcDbEntity
  8
0
100
AcDbBlockBegin
  2
*D9
 70
     1
 10
0.0
 20
0.0
 30
0.0
  3
*D9
  1

  0
LINE
  5
3898
330
388B
100
AcDbEntity
  8
寸法線
 62
     0
370
    -2
100
AcDbLine
 10
258.0523063310237
 20
151.9116988020077
 30
0.0
 11
258.0523063310237
 21
160.0788513419095
 31
0.0
  0
LINE
  5
3899
330
388B
100
AcDbEntity
  8
寸法線
 62
     0
370
    -2
100
AcDbLine
 10
269.9614597924024
 20
151.9116988020077
 30
0.0
 11
269.9614597924024
 21
160.0788513419095
 31
0.0
  0
LINE
  5
389A
330
388B
100
AcDbEntity
  8
寸法線
 62
     0
370
    -2
100
AcDbLine
 10
261.0523063310237
 20
157.0788513419095
 30
0.0
 11
266.9614597924024
 21
157.0788513419095
 31
0.0
  0
INSERT
  5
389B
330
388B
100
AcDbEntity
  8
寸法線
 62
     0
370
    -2
100
AcDbBlockReference
  2
_Closed
 10
258.0523063310237
 20
157.0788513419095
 30
0.0
 41
3.0
 42
3.0
 43
3.0
 50
180.0
  0
INSERT
  5
389C
330
388B
100
AcDbEntity
  8
寸法線
 62
     0
370
    -2
100
AcDbBlockReference
  2
_Closed
 10
269.9614597924024
 20
157.0788513419095
 30
0.0
 41
3.0
 42
3.0
 43
3.0
  0
MTEXT
  5
389D
330
388B
100
AcDbEntity
  8
寸法線
 62
     0
100
AcDbMText
 10
264.006883061713
 20
160.5788513419095
 30
0.0
 40
5.0
 41
0.0
 71
     5
 72
     1
  1
14
  7
OKANO
 73
     1
 44
1.0
  0
POINT
  5
389E
330
388B
100
AcDbEntity
  8
Defpoints
 62
     0
100
AcDbPoint
 10
258.0523063310237
 20
149.9116988020077
 30
0.0
  0
POINT
  5
389F
330
388B
100
AcDbEntity
  8
Defpoints
 62
     0
100
AcDbPoint
 10
269.9614597924024
 20
149.9116988020077
 30
0.0
  0
POINT
  5
38A0
330
388B
100
AcDbEntity
  8
Defpoints
 62
     0
100
AcDbPoint
 10
269.9614597924024
 20
157.0788513419095
 30
0.0
  0
ENDBLK
  5
3897
330
388B
100
AcDbEntity
  8
0
100
AcDbBlockEnd
  0
BLOCK
  5
38AC
330
38A2
100
AcDbEntity
  8
0
100
AcDbBlockBegin
  2
*D10
 70
     1
 10
0.0
 20
0.0
 30
0.0
  3
*D10
  1

  0
LINE
  5
38FD
330
38A2
100
AcDbEntity
  8
寸法線
 62
     0
370
    -2
100
AcDbLine
 10
71.36083790129524
 20
168.5116988020077
 30
0.0
 11
12.10352354652753
 21
168.5116988020077
 31
0.0
  0
LINE
  5
38FE
330
38A2
100
AcDbEntity
  8
寸法線
 62
     0
370
    -2
100
AcDbLine
 10
70.36083790129524
 20
109.5116988020077
 30
0.0
 11
12.10352354652752
 21
109.5116988020077
 31
0.0
  0
LINE
  5
38FF
330
38A2
100
AcDbEntity
  8
寸法線
 62
     0
370
    -2
100
AcDbLine
 10
15.10352354652753
 20
165.5116988020077
 30
0.0
 11
15.10352354652752
 21
112.5116988020077
 31
0.0
  0
INSERT
  5
3900
330
38A2
100
AcDbEntity
  8
寸法線
 62
     0
370
    -2
100
AcDbBlockReference
  2
_Closed
 10
15.10352354652753
 20
168.5116988020077
 30
0.0
 41
3.0
 42
3.0
 43
3.0
 50
90.0
  0
INSERT
  5
3901
330
38A2
100
AcDbEntity
  8
寸法線
 62
     0
370
    -2
100
AcDbBlockReference
  2
_Closed
 10
15.10352354652752
 20
109.5116988020077
 30
0.0
 41
3.0
 42
3.0
 43
3.0
 50
270.0
  0
MTEXT
  5
3902
330
38A2
100
AcDbEntity
  8
寸法線
 62
     0
100
AcDbMText
 10
11.6035235465275
 20
139.0116988020077
 30
0.0
 40
5.0
 41
0.0
 71
     5
 72
     1
  1
60
  7
OKANO
 11
0.0000000000000001
 21
1.0
 31
0.0
 73
     1
 44
1.0
  0
POINT
  5
3903
330
38A2
100
AcDbEntity
  8
Defpoints
 62
     0
100
AcDbPoint
 10
73.36083790129524
 20
168.5116988020077
 30
0.0
  0
POINT
  5
3904
330
38A2
100
AcDbEntity
  8
Defpoints
 62
     0
100
AcDbPoint
 10
72.36083790129524
 20
109.5116988020077
 30
0.0
  0
POINT
  5
3905
330
38A2
100
AcDbEntity
  8
Defpoints
 62
     0
100
AcDbPoint
 10
15.10352354652752
 20
109.5116988020077
 30
0.0
  0
ENDBLK
  5
38AD
330
38A2
100
AcDbEntity
  8
0
100
AcDbBlockEnd
  0
BLOCK
  5
38B9
330
38AF
100
AcDbEntity
  8
0
100
AcDbBlockBegin
  2
*D11
 70
     1
 10
0.0
 20
0.0
 30
0.0
  3
*D11
  1

  0
LINE
  5
38F4
330
38AF
100
AcDbEntity
  8
寸法線
 62
     0
370
    -2
100
AcDbLine
 10
141.2423132005228
 20
272.9116988020077
 30
0.0
 11
141.2423132005228
 21
326.5939278251152
 31
0.0
  0
LINE
  5
38F5
330
38AF
100
AcDbEntity
  8
寸法線
 62
     0
370
    -2
100
AcDbLine
 10
72.36083790129521
 20
310.2921578145717
 30
0.0
 11
72.36083790129521
 21
326.5939278251152
 31
0.0
  0
LINE
  5
38F6
330
38AF
100
AcDbEntity
  8
寸法線
 62
     0
370
    -2
100
AcDbLine
 10
138.2423132005228
 20
323.5939278251152
 30
0.0
 11
75.36083790129521
 21
323.5939278251152
 31
0.0
  0
INSERT
  5
38F7
330
38AF
100
AcDbEntity
  8
寸法線
 62
     0
370
    -2
100
AcDbBlockReference
  2
_Closed
 10
141.2423132005228
 20
323.5939278251152
 30
0.0
 41
3.0
 42
3.0
 43
3.0
  0
INSERT
  5
38F8
330
38AF
100
AcDbEntity
  8
寸法線
 62
     0
370
    -2
100
AcDbBlockReference
  2
_Closed
 10
72.36083790129521
 20
323.5939278251152
 30
0.0
 41
3.0
 42
3.0
 43
3.0
 50
180.0
  0
MTEXT
  5
38F9
330
38AF
100
AcDbEntity
  8
寸法線
 62
     0
100
AcDbMText
 10
106.801575550909
 20
327.0939278251152
 30
0.0
 40
5.0
 41
0.0
 71
     5
 72
     1
  1
65
  7
OKANO
 73
     1
 44
1.0
  0
POINT
  5
38FA
330
38AF
100
AcDbEntity
  8
Defpoints
 62
     0
100
AcDbPoint
 10
141.2423132005228
 20
270.9116988020077
 30
0.0
  0
POINT
  5
38FB
330
38AF
100
AcDbEntity
  8
Defpoints
 62
     0
100
AcDbPoint
 10
72.36083790129521
 20
308.2921578145717
 30
0.0
  0
POINT
  5
38FC
330
38AF
100
AcDbEntity
  8
Defpoints
 62
     0
100
AcDbPoint
 10
72.36083790129521
 20
323.5939278251152
 30
0.0
  0
ENDBLK
  5
38BA
330
38AF
100
AcDbEntity
  8
0
100
AcDbBlockEnd
  0
BLOCK
  5
38C6
330
38BC
100
AcDbEntity
  8
0
100
AcDbBlockBegin
  2
*D12
 70
     1
 10
0.0
 20
0.0
 30
0.0
  3
*D12
  1

  0
LINE
  5
38E2
330
38BC
100
AcDbEntity
  8
寸法線
 62
     0
370
    -2
100
AcDbLine
 10
105.8469716164642
 20
141.1923410589189
 30
0.0
 11
105.8469716164642
 21
196.7163986049265
 31
0.0
  0
LINE
  5
38E3
330
38BC
100
AcDbEntity
  8
寸法線
 62
     0
370
    -2
100
AcDbLine
 10
130.9853593789445
 20
141.1923410589189
 30
0.0
 11
130.9853593789445
 21
196.7163986049265
 31
0.0
  0
LINE
  5
38E4
330
38BC
100
AcDbEntity
  8
寸法線
 62
     0
370
    -2
100
AcDbLine
 10
108.8469716164641
 20
193.7163986049265
 30
0.0
 11
127.9853593789445
 21
193.7163986049265
 31
0.0
  0
INSERT
  5
38E5
330
38BC
100
AcDbEntity
  8
寸法線
 62
     0
370
    -2
100
AcDbBlockReference
  2
_Closed
 10
105.8469716164642
 20
193.7163986049265
 30
0.0
 41
3.0
 42
3.0
 43
3.0
 50
180.0
  0
INSERT
  5
38E6
330
38BC
100
AcDbEntity
  8
寸法線
 62
     0
370
    -2
100
AcDbBlockReference
  2
_Closed
 10
130.9853593789445
 20
193.7163986049265
 30
0.0
 41
3.0
 42
3.0
 43
3.0
  0
MTEXT
  5
38E7
330
38BC
100
AcDbEntity
  8
寸法線
 62
     0
100
AcDbMText
 10
118.4161654977043
 20
197.2168907309108
 30
0.0
 40
5.0
 41
0.0
 71
     5
 72
     1
  1
25
  7
OKANO
 73
     1
 44
1.0
  0
POINT
  5
38E8
330
38BC
100
AcDbEntity
  8
Defpoints
 62
     0
100
AcDbPoint
 10
105.8469716164642
 20
139.1923410589189
 30
0.0
  0
POINT
  5
38E9
330
38BC
100
AcDbEntity
  8
Defpoints
 62
     0
100
AcDbPoint
 10
130.9853593789445
 20
139.1923410589189
 30
0.0
  0
POINT
  5
38EA
330
38BC
100
AcDbEntity
  8
Defpoints
 62
     0
100
AcDbPoint
 10
130.9853593789445
 20
193.7163986049265
 30
0.0
  0
ENDBLK
  5
38C7
330
38BC
100
AcDbEntity
  8
0
100
AcDbBlockEnd
  0
BLOCK
  5
38D4
330
38C9
100
AcDbEntity
  8
0
100
AcDbBlockBegin
  2
*D13
 70
     1
 10
0.0
 20
0.0
 30
0.0
  3
*D13
  1

  0
LINE
  5
38EB
330
38C9
100
AcDbEntity
  8
寸法線
 62
     0
370
    -2
100
AcDbLine
 10
131.1459650701973
 20
144.0933804251017
 30
0.0
 11
165.8681929401637
 21
144.0933804251017
 31
0.0
  0
LINE
  5
38EC
330
38C9
100
AcDbEntity
  8
寸法線
 62
     0
370
    -2
100
AcDbLine
 10
131.1459650701973
 20
133.6786727253943
 30
0.0
 11
165.8681929401637
 21
133.6786727253943
 31
0.0
  0
LINE
  5
38ED
330
38C9
100
AcDbEntity
  8
寸法線
 62
     0
370
    -2
100
AcDbLine
 10
162.8681929401637
 20
141.0933804251017
 30
0.0
 11
162.8681929401637
 21
136.6786727253943
 31
0.0
  0
INSERT
  5
38EE
330
38C9
100
AcDbEntity
  8
寸法線
 62
     0
370
    -2
100
AcDbBlockReference
  2
_Closed
 10
162.8681929401637
 20
144.0933804251017
 30
0.0
 41
3.0
 42
3.0
 43
3.0
 50
90.0
  0
INSERT
  5
38EF
330
38C9
100
AcDbEntity
  8
寸法線
 62
     0
370
    -2
100
AcDbBlockReference
  2
_Closed
 10
162.8681929401637
 20
133.6786727253943
 30
0.0
 41
3.0
 42
3.0
 43
3.0
 50
270.0
  0
MTEXT
  5
38F0
330
38C9
100
AcDbEntity
  8
寸法線
 62
     0
100
AcDbMText
 10
159.3681929401637
 20
138.886026575248
 30
0.0
 40
5.0
 41
0.0
 71
     5
 72
     1
  1
11
  7
OKANO
 11
0.0000000000000001
 21
1.0
 31
0.0
 73
     1
 44
1.0
  0
POINT
  5
38F1
330
38C9
100
AcDbEntity
  8
Defpoints
 62
     0
100
AcDbPoint
 10
129.1459650701973
 20
144.0933804251017
 30
0.0
  0
POINT
  5
38F2
330
38C9
100
AcDbEntity
  8
Defpoints
 62
     0
100
AcDbPoint
 10
129.1459650701973
 20
133.6786727253943
 30
0.0
  0
POINT
  5
38F3
330
38C9
100
AcDbEntity
  8
Defpoints
 62
     0
100
AcDbPoint
 10
162.8681929401637
 20
133.6786727253943
 30
0.0
  0
ENDBLK
  5
38D5
330
38C9
100
AcDbEntity
  8
0
100
AcDbBlockEnd
  0
BLOCK
  5
38E0
330
38D7
100
AcDbEntity
  8
0
100
AcDbBlockBegin
  2
*D14
 70
     1
 10
0.0
 20
0.0
 30
0.0
  3
*D14
  1

  0
LINE
  5
38D8
330
38D7
100
AcDbEntity
  8
寸法線
 62
     0
370
    -2
100
AcDbLine
 10
106.7014036198215
 20
84.95790495131277
 30
0.0
 11
92.01181772511972
 21
113.1891200390172
 31
0.0
  0
LINE
  5
38D9
330
38D7
100
AcDbEntity
  8
寸法線
 62
     0
370
    -2
100
AcDbLine
 10
86.47280867592598
 20
123.8342775649982
 30
0.0
 11
85.08805641362755
 21
126.4955669464934
 31
0.0
  0
MTEXT
  5
38DA
330
38D7
100
AcDbEntity
  8
寸法線
 62
     0
100
AcDbMText
 10
107.7255463557106
 20
90.57223758214638
 30
0.0
 40
5.0
 41
0.0
 71
     5
 72
     1
  1
\U+22056
  7
OKANO
 11
0.4615840874328113
 21
-0.8870964604984166
 31
0.0
 73
     1
 44
1.0
  0
LINE
  5
38DB
330
38D7
100
AcDbEntity
  8
寸法線
 62
     0
370
    -2
100
AcDbLine
 10
87.85756093822442
 20
121.1729881835029
 30
0.0
 11
90.62706546282129
 21
115.8504094205124
 31
0.0
  0
INSERT
  5
38DC
330
38D7
100
AcDbEntity
  8
寸法線
 62
     0
370
    -2
100
AcDbBlockReference
  2
_Closed
 10
87.85756093822442
 20
121.1729881835029
 30
0.0
 41
3.0
 42
3.0
 43
3.0
 50
297.489373095872
  0
INSERT
  5
38DD
330
38D7
100
AcDbEntity
  8
寸法線
 62
     0
370
    -2
100
AcDbBlockReference
  2
_Closed
 10
90.62706546282129
 20
115.8504094205124
 30
0.0
 41
3.0
 42
3.0
 43
3.0
 50
117.4893730958719
  0
POINT
  5
38DE
330
38D7
100
AcDbEntity
  8
Defpoints
 62
     0
100
AcDbPoint
 10
90.62706546282129
 20
115.8504094205124
 30
0.0
  0
POINT
  5
38DF
330
38D7
100
AcDbEntity
  8
Defpoints
 62
     0
100
AcDbPoint
 10
87.85756093822442
 20
121.1729881835029
 30
0.0
  0
ENDBLK
  5
38E1
330
38D7
100
AcDbEntity
  8
0
100
AcDbBlockEnd
  0
BLOCK
  5
3949
330
393E
100
AcDbEntity
  8
0
100
AcDbBlockBegin
  2
*D15
 70
     1
 10
0.0
 20
0.0
 30
0.0
  3
*D15
  1

  0
LINE
  5
3965
330
393E
100
AcDbEntity
  8
寸法線
 62
     0
370
    -2
100
AcDbLine
 10
91.30483987752745
 20
158.3055852467525
 30
0.0
 11
102.4554103045913
 21
158.3055852467525
 31
0.0
  0
LINE
  5
3966
330
393E
100
AcDbEntity
  8
寸法線
 62
     0
370
    -2
100
AcDbLine
 10
91.30483987752745
 20
168.1579677701103
 30
0.0
 11
102.4554103045913
 21
168.1579677701103
 31
0.0
  0
LINE
  5
3967
330
393E
100
AcDbEntity
  8
寸法線
 62
     0
370
    -2
100
AcDbLine
 10
99.45541030459139
 20
161.3055852467525
 30
0.0
 11
99.45541030459139
 21
165.1579677701103
 31
0.0
  0
INSERT
  5
3968
330
393E
100
AcDbEntity
  8
寸法線
 62
     0
370
    -2
100
AcDbBlockReference
  2
_Closed
 10
99.45541030459139
 20
158.3055852467525
 30
0.0
 41
3.0
 42
3.0
 43
3.0
 50
270.0
  0
INSERT
  5
3969
330
393E
100
AcDbEntity
  8
寸法線
 62
     0
370
    -2
100
AcDbBlockReference
  2
_Closed
 10
99.45541030459139
 20
168.1579677701103
 30
0.0
 41
3.0
 42
3.0
 43
3.0
 50
90.0
  0
MTEXT
  5
396A
330
393E
100
AcDbEntity
  8
寸法線
 62
     0
100
AcDbMText
 10
95.95541030459136
 20
163.2317765084314
 30
0.0
 40
5.0
 41
0.0
 71
     5
 72
     1
  1
10
  7
OKANO
 11
0.0000000000000001
 21
1.0
 31
0.0
 73
     1
 44
1.0
  0
POINT
  5
396B
330
393E
100
AcDbEntity
  8
Defpoints
 62
     0
100
AcDbPoint
 10
89.30483987752745
 20
158.3055852467525
 30
0.0
  0
POINT
  5
396C
330
393E
100
AcDbEntity
  8
Defpoints
 62
     0
100
AcDbPoint
 10
89.30483987752745
 20
168.1579677701103
 30
0.0
  0
POINT
  5
396D
330
393E
100
AcDbEntity
  8
Defpoints
 62
     0
100
AcDbPoint
 10
99.45541030459139
 20
168.1579677701103
 30
0.0
  0
ENDBLK
  5
394A
330
393E
100
AcDbEntity
  8
0
100
AcDbBlockEnd
  0
BLOCK
  5
3958
330
394C
100
AcDbEntity
  8
0
100
AcDbBlockBegin
  2
*D16
 70
     1
 10
0.0
 20
0.0
 30
0.0
  3
*D16
  1

  0
LINE
  5
395A
330
394C
100
AcDbEntity
  8
寸法線
 62
     0
370
    -2
100
AcDbLine
 10
86.11466090367958
 20
160.3055852467525
 30
0.0
 11
86.11466090367958
 21
203.3230993505926
 31
0.0
  0
LINE
  5
395B
330
394C
100
AcDbEntity
  8
寸法線
 62
     0
370
    -2
100
AcDbLine
 10
89.59485587221456
 20
160.3055852467525
 30
0.0
 11
89.59485587221456
 21
203.3230993505926
 31
0.0
  0
LINE
  5
395C
330
394C
100
AcDbEntity
  8
寸法線
 62
     0
370
    -2
100
AcDbLine
 10
83.11466090367957
 20
200.3230993505926
 30
0.0
 11
80.11466090367958
 21
200.3230993505926
 31
0.0
  0
LINE
  5
395D
330
394C
100
AcDbEntity
  8
寸法線
 62
     0
370
    -2
100
AcDbLine
 10
92.59485587221456
 20
200.3230993505926
 30
0.0
 11
100.8006272381546
 21
200.3230993505926
 31
0.0
  0
LINE
  5
395E
330
394C
100
AcDbEntity
  8
寸法線
 62
     0
370
    -2
100
AcDbLine
 10
86.11466090367958
 20
200.3230993505926
 30
0.0
 11
89.59485587221456
 21
200.3230993505926
 31
0.0
  0
INSERT
  5
395F
330
394C
100
AcDbEntity
  8
寸法線
 62
     0
370
    -2
100
AcDbBlockReference
  2
_Closed
 10
86.11466090367958
 20
200.3230993505926
 30
0.0
 41
3.0
 42
3.0
 43
3.0
  0
INSERT
  5
3960
330
394C
100
AcDbEntity
  8
寸法線
 62
     0
370
    -2
100
AcDbBlockReference
  2
_Closed
 10
89.59485587221456
 20
200.3230993505926
 30
0.0
 41
3.0
 42
3.0
 43
3.0
 50
180.0
  0
MTEXT
  5
3961
330
394C
100
AcDbEntity
  8
寸法線
 62
     0
100
AcDbMText
 10
98.19774155518459
 20
203.8230993505926
 30
0.0
 40
5.0
 41
0.0
 71
     5
 72
     1
  1
3
  7
OKANO
 73
     1
 44
1.0
  0
POINT
  5
3962
330
394C
100
AcDbEntity
  8
Defpoints
 62
     0
100
AcDbPoint
 10
86.11466090367958
 20
158.3055852467525
 30
0.0
  0
POINT
  5
3963
330
394C
100
AcDbEntity
  8
Defpoints
 62
     0
100
AcDbPoint
 10
89.59485587221456
 20
158.3055852467525
 30
0.0
  0
POINT
  5
3964
330
394C
100
AcDbEntity
  8
Defpoints
 62
     0
100
AcDbPoint
 10
89.59485587221456
 20
200.3230993505926
 30
0.0
  0
ENDBLK
  5
3959
330
394C
100
AcDbEntity
  8
0
100
AcDbBlockEnd
  0
BLOCK
  5
397A
330
396F
100
AcDbEntity
  8
0
100
AcDbBlockBegin
  2
*D17
 70
     1
 10
0.0
 20
0.0
 30
0.0
  3
*D17
  1

  0
LINE
  5
397C
330
396F
100
AcDbEntity
  8
寸法線
 62
     0
370
    -2
100
AcDbLine
 10
131.0671870806763
 20
131.3848521792186
 30
0.0
 11
131.0671870806763
 21
110.1005353196858
 31
0.0
  0
LINE
  5
397D
330
396F
100
AcDbEntity
  8
寸法線
 62
     0
370
    -2
100
AcDbLine
 10
141.2177590238861
 20
131.3848521792186
 30
0.0
 11
141.2177590238861
 21
110.1005353196858
 31
0.0
  0
LINE
  5
397E
330
396F
100
AcDbEntity
  8
寸法線
 62
     0
370
    -2
100
AcDbLine
 10
134.0671870806763
 20
113.1005353196858
 30
0.0
 11
138.2177590238861
 21
113.1005353196858
 31
0.0
  0
INSERT
  5
397F
330
396F
100
AcDbEntity
  8
寸法線
 62
     0
370
    -2
100
AcDbBlockReference
  2
_Closed
 10
131.0671870806763
 20
113.1005353196858
 30
0.0
 41
3.0
 42
3.0
 43
3.0
 50
180.0
  0
INSERT
  5
3980
330
396F
100
AcDbEntity
  8
寸法線
 62
     0
370
    -2
100
AcDbBlockReference
  2
_Closed
 10
141.2177590238861
 20
113.1005353196858
 30
0.0
 41
3.0
 42
3.0
 43
3.0
  0
MTEXT
  5
3981
330
396F
100
AcDbEntity
  8
寸法線
 62
     0
100
AcDbMText
 10
136.1424730522812
 20
116.6005353196858
 30
0.0
 40
5.0
 41
0.0
 71
     5
 72
     1
  1
10
  7
OKANO
 73
     1
 44
1.0
  0
POINT
  5
3982
330
396F
100
AcDbEntity
  8
Defpoints
 62
     0
100
AcDbPoint
 10
131.0671870806763
 20
133.3848521792186
 30
0.0
  0
POINT
  5
3983
330
396F
100
AcDbEntity
  8
Defpoints
 62
     0
100
AcDbPoint
 10
141.2177590238861
 20
133.3848521792186
 30
0.0
  0
POINT
  5
3984
330
396F
100
AcDbEntity
  8
Defpoints
 62
     0
100
AcDbPoint
 10
141.2177590238861
 20
113.1005353196858
 30
0.0
  0
ENDBLK
  5
397B
330
396F
100
AcDbEntity
  8
0
100
AcDbBlockEnd
  0
BLOCK
  5
3998
330
398D
100
AcDbEntity
  8
0
100
AcDbBlockBegin
  2
*D18
 70
     1
 10
0.0
 20
0.0
 30
0.0
  3
*D18
  1

  0
LINE
  5
399A
330
398D
100
AcDbEntity
  8
寸法線
 62
     0
370
    -2
100
AcDbLine
 10
209.2660102406391
 20
127.437430752439
 30
0.0
 11
221.8293470196606
 21
127.437430752439
 31
0.0
  0
LINE
  5
399B
330
398D
100
AcDbEntity
  8
寸法線
 62
     0
370
    -2
100
AcDbLine
 10
209.2660102406391
 20
138.3830924578649
 30
0.0
 11
221.8293470196606
 21
138.3830924578649
 31
0.0
  0
LINE
  5
399C
330
398D
100
AcDbEntity
  8
寸法線
 62
     0
370
    -2
100
AcDbLine
 10
218.8293470196606
 20
130.437430752439
 30
0.0
 11
218.8293470196606
 21
135.3830924578649
 31
0.0
  0
INSERT
  5
399D
330
398D
100
AcDbEntity
  8
寸法線
 62
     0
370
    -2
100
AcDbBlockReference
  2
_Closed
 10
218.8293470196606
 20
127.437430752439
 30
0.0
 41
3.0
 42
3.0
 43
3.0
 50
270.0
  0
INSERT
  5
399E
330
398D
100
AcDbEntity
  8
寸法線
 62
     0
370
    -2
100
AcDbBlockReference
  2
_Closed
 10
218.8293470196606
 20
138.3830924578649
 30
0.0
 41
3.0
 42
3.0
 43
3.0
 50
90.0
  0
MTEXT
  5
399F
330
398D
100
AcDbEntity
  8
寸法線
 62
     0
100
AcDbMText
 10
215.3293470196606
 20
132.910261605152
 30
0.0
 40
5.0
 41
0.0
 71
     5
 72
     1
  1
10
  7
OKANO
 11
0.0000000000000001
 21
1.0
 31
0.0
 73
     1
 44
1.0
  0
POINT
  5
39A0
330
398D
100
AcDbEntity
  8
Defpoints
 62
     0
100
AcDbPoint
 10
207.2660102406391
 20
127.437430752439
 30
0.0
  0
POINT
  5
39A1
330
398D
100
AcDbEntity
  8
Defpoints
 62
     0
100
AcDbPoint
 10
207.2660102406391
 20
138.3830924578649
 30
0.0
  0
POINT
  5
39A2
330
398D
100
AcDbEntity
  8
Defpoints
 62
     0
100
AcDbPoint
 10
218.8293470196606
 20
138.3830924578649
 30
0.0
  0
ENDBLK
  5
3999
330
398D
100
AcDbEntity
  8
0
100
AcDbBlockEnd
  0
BLOCK
  5
39B2
330
39A6
100
AcDbEntity
  8
0
100
AcDbBlockBegin
  2
*D19
 70
     1
 10
0.0
 20
0.0
 30
0.0
  3
*D19
  1

  0
LINE
  5
39B4
330
39A6
100
AcDbEntity
  8
寸法線
 62
     0
370
    -2
100
AcDbLine
 10
133.2423132005228
 20
269.9116988020077
 30
0.0
 11
163.0581331810128
 21
269.9116988020077
 31
0.0
  0
LINE
  5
39B5
330
39A6
100
AcDbEntity
  8
寸法線
 62
     0
370
    -2
100
AcDbLine
 10
133.2423132005228
 20
274.7116988020077
 30
0.0
 11
163.0581331810128
 21
274.7116988020077
 31
0.0
  0
LINE
  5
39B6
330
39A6
100
AcDbEntity
  8
寸法線
 62
     0
370
    -2
100
AcDbLine
 10
160.0581331810128
 20
266.9116988020077
 30
0.0
 11
160.0581331810128
 21
263.9116988020077
 31
0.0
  0
LINE
  5
39B7
330
39A6
100
AcDbEntity
  8
寸法線
 62
     0
370
    -2
100
AcDbLine
 10
160.0581331810128
 20
277.7116988020077
 30
0.0
 11
160.0581331810128
 21
280.7116988020077
 31
0.0
  0
LINE
  5
39B8
330
39A6
100
AcDbEntity
  8
寸法線
 62
     0
370
    -2
100
AcDbLine
 10
160.0581331810128
 20
269.9116988020077
 30
0.0
 11
160.0581331810128
 21
274.7116988020077
 31
0.0
  0
INSERT
  5
39B9
330
39A6
100
AcDbEntity
  8
寸法線
 62
     0
370
    -2
100
AcDbBlockReference
  2
_Closed
 10
160.0581331810128
 20
269.9116988020077
 30
0.0
 41
3.0
 42
3.0
 43
3.0
 50
90.0
  0
INSERT
  5
39BA
330
39A6
100
AcDbEntity
  8
寸法線
 62
     0
370
    -2
100
AcDbBlockReference
  2
_Closed
 10
160.0581331810128
 20
274.7116988020077
 30
0.0
 41
3.0
 42
3.0
 43
3.0
 50
270.0
  0
MTEXT
  5
39BB
330
39A6
100
AcDbEntity
  8
寸法線
 62
     0
100
AcDbMText
 10
156.5581331810128
 20
272.3116988020077
 30
0.0
 40
5.0
 41
0.0
 71
     5
 72
     1
  1
4
  7
OKANO
 11
0.0000000000000001
 21
1.0
 31
0.0
 73
     1
 44
1.0
  0
POINT
  5
39BC
330
39A6
100
AcDbEntity
  8
Defpoints
 62
     0
100
AcDbPoint
 10
131.2423132005228
 20
269.9116988020077
 30
0.0
  0
POINT
  5
39BD
330
39A6
100
AcDbEntity
  8
Defpoints
 62
     0
100
AcDbPoint
 10
131.2423132005228
 20
274.7116988020077
 30
0.0
  0
POINT
  5
39BE
330
39A6
100
AcDbEntity
  8
Defpoints
 62
     0
100
AcDbPoint
 10
160.0581331810128
 20
274.7116988020077
 30
0.0
  0
ENDBLK
  5
39B3
330
39A6
100
AcDbEntity
  8
0
100
AcDbBlockEnd
  0
ENDSEC
  0
SECTION
  2
ENTITIES
  0
TEXT
  5
29C1
330
1F
100
AcDbEntity
  8
文字
100
AcDbText
 10
329.7055712218043
 20
91.57630451762816
 30
0.0
 40
3.599999999999999
  1
SET SCREW COUP
 51
15.0
  7
OKANO
100
AcDbText
  0
TEXT
  5
29C2
330
1F
100
AcDbEntity
  8
文字
100
AcDbText
 10
301.1976669533405
 20
84.0718685757675
 30
0.0
 40
4.799999999999999
  1
joint kogyo T.okano
 51
15.0
  7
OKANO
100
AcDbText
  0
TEXT
  5
29C3
330
1F
100
AcDbEntity
  8
文字
100
AcDbText
 10
293.7093539415437
 20
98.82424008305527
 30
0.0
 40
4.799999999999999
  1
F-999-20060316 Auto CAD
 51
15.0
  7
OKANO
100
AcDbText
  0
LINE
  5
29C4
330
1F
100
AcDbEntity
  8
太線
100
AcDbLine
 10
266.2871257599298
 20
97.90343243262492
 30
0.0
 11
374.2871257599298
 21
97.90343243262492
 31
0.0
  0
LWPOLYLINE
  5
29C5
330
1F
100
AcDbEntity
  8
太線
100
AcDbPolyline
 90
        4
 70
     1
 43
0.0
 10
266.2871257599298
 20
106.3034324326249
 10
374.2871257599298
 20
106.3034324326249
 10
374.2871257599298
 20
81.10343243262491
 10
266.2871257599298
 20
81.10343243262491
  0
TEXT
  5
29C6
330
1F
100
AcDbEntity
  8
文字
100
AcDbText
 10
270.1595093259873
 20
89.70992063377423
 30
0.0
 40
2.399999999999999
  1
CHECK
 51
15.0
  7
OKANO
100
AcDbText
  0
LINE
  5
29C7
330
1F
100
AcDbEntity
  8
太線
100
AcDbLine
 10
290.2871257599298
 20
106.3034324326249
 30
0.0
 11
290.2871257599298
 21
81.10343243262491
 31
0.0
  0
TEXT
  5
29C8
330
1F
100
AcDbEntity
  8
文字
100
AcDbText
 10
270.1595093259873
 20
82.7904930275584
 30
0.0
 40
2.399999999999999
  1
ISSUED
 51
15.0
  7
OKANO
100
AcDbText
  0
TEXT
  5
29C9
330
1F
100
AcDbEntity
  8
文字
100
AcDbText
 10
270.416023758888
 20
86.12206921682656
 30
0.0
 40
2.399999999999999
  1
APPR
 51
15.0
  7
OKANO
100
AcDbText
  0
TEXT
  5
29CA
330
1F
100
AcDbEntity
  8
文字
100
AcDbText
 10
268.3639137743016
 20
99.7046486113901
 30
0.0
 40
2.399999999999999
  1
FILM NAME
 51
15.0
  7
OKANO
100
AcDbText
  0
TEXT
  5
29CB
330
1F
100
AcDbEntity
  8
文字
100
AcDbText
 10
269.6464826516336
 20
93.29777146053329
 30
0.0
 40
2.399999999999999
  1
DRAWN
 51
15.0
  7
OKANO
100
AcDbText
  0
TEXT
  5
29CC
330
1F
100
AcDbEntity
  8
文字
100
AcDbText
 10
295.4522649145653
 20
90.04920890083587
 30
0.0
 40
4.799999999999999
  1
7-1S-B
 51
15.0
  7
OKANO
100
AcDbText
  0
TEXT
  5
3123
330
1F
100
AcDbEntity
  8
文字
100
AcDbText
 10
124.4787311523964
 20
223.4488672712803
 30
0.0
 40
4.799999999999999
  1
材質　FCD450
 51
15.0
  7
OKANO
100
AcDbText
  0
TEXT
  5
3124
330
1F
100
AcDbEntity
  8
文字
100
AcDbText
 10
124.8706761084137
 20
232.6949517776981
 30
0.0
 40
4.799999999999999
  1
表面処理  電気亜鉛鍍金
 51
15.0
  7
OKANO
100
AcDbText
  0
LINE
  5
32B3
330
1F
100
AcDbEntity
  8
太線
100
AcDbLine
 10
92.20363158356958
 20
135.5116988020077
 30
0.0
 11
87.783483825841
 21
135.5116988020077
 31
0.0
  0
LINE
  5
32BA
330
1F
100
AcDbEntity
  8
破線
100
AcDbLine
 10
82.62277221308687
 20
184.6058792323038
 30
0.0
 11
82.62277221308687
 21
168.5116988020077
 31
0.0
  0
LINE
  5
32CA
330
1F
100
AcDbEntity
  8
太線
100
AcDbLine
 10
87.783483825841
 20
141.5116988020077
 30
0.0
 11
92.20363158356958
 21
141.5116988020077
 31
0.0
  0
LINE
  5
32CC
330
1F
100
AcDbEntity
  8
太線
100
AcDbLine
 10
93.20363158356958
 20
140.5116988020077
 30
0.0
 11
93.20363158356958
 21
136.5116988020077
 31
0.0
  0
ARC
  5
32E1
330
1F
100
AcDbEntity
  8
太線
100
AcDbCircle
 10
57.44231320052286
 20
272.3116988020076
 30
0.0
 40
25.180459012564
100
AcDbArc
 50
298.7510500883145
 51
59.35476973065304
  0
ARC
  5
32E2
330
1F
100
AcDbEntity
  8
太線
100
AcDbCircle
 10
57.44231320052286
 20
272.3116988020076
 30
0.0
 40
28.79999999999999
100
AcDbArc
 50
300.3740975814087
 51
353.4486311959578
  0
LINE
  5
32ED
330
1F
100
AcDbEntity
  8
太線
100
AcDbLine
 10
82.62277221308687
 20
297.4921578145717
 30
0.0
 11
82.62277221308687
 21
308.2921578145717
 31
0.0
  0
LINE
  5
32EE
330
1F
100
AcDbEntity
  8
太線
100
AcDbLine
 10
81.42277221308686
 20
309.4921578145717
 30
0.0
 11
73.56083790129521
 21
309.4921578145717
 31
0.0
  0
LINE
  5
32F0
330
1F
100
AcDbEntity
  8
太線
100
AcDbLine
 10
73.56083790129524
 20
235.0622221231154
 30
0.0
 11
81.42277221308686
 21
235.0622221231154
 31
0.0
  0
LINE
  5
32F1
330
1F
100
AcDbEntity
  8
太線
100
AcDbLine
 10
82.62277221308687
 20
236.2622221231154
 30
0.0
 11
82.62277221308687
 21
247.0622221231154
 31
0.0
  0
ARC
  5
32F4
330
1F
100
AcDbEntity
  8
太線
100
AcDbCircle
 10
29.86185418795885
 20
138.5116988020077
 30
0.0
 40
3.0
100
AcDbArc
 50
90.0
 51
270.0
  0
LINE
  5
32F5
330
1F
100
AcDbEntity
  8
太線
100
AcDbLine
 10
29.86185418795885
 20
141.5116988020077
 30
0.0
 11
72.36083790129524
 21
141.5116988020077
 31
0.0
  0
LINE
  5
32F6
330
1F
100
AcDbEntity
  8
太線
100
AcDbLine
 10
29.86185418795885
 20
135.5116988020077
 30
0.0
 11
72.36083790129524
 21
135.5116988020077
 31
0.0
  0
LINE
  5
3320
330
1F
100
AcDbEntity
  8
破線
100
AcDbLine
 10
32.26185418795886
 20
184.6058792323038
 30
0.0
 11
32.26185418795886
 21
141.5116988020077
 31
0.0
  0
ARC
  5
3321
330
1F
100
AcDbEntity
  8
破線
100
AcDbCircle
 10
47.25208369424083
 20
163.959223901346
 30
0.0
 40
25.51453227097006
100
AcDbArc
 50
54.01897339708031
 51
125.9810266029196
  0
ARC
  5
3322
330
1F
100
AcDbEntity
  8
破線
100
AcDbCircle
 10
47.25208369424089
 20
197.4502490296004
 30
0.0
 40
19.74043606764334
100
AcDbArc
 50
220.5916019544362
 51
319.4083980455634
  0
ARC
  5
3323
330
1F
100
AcDbEntity
  8
破線
100
AcDbCircle
 10
72.43254270680487
 20
177.6119850231988
 30
0.0
 40
12.35942286673825
100
AcDbArc
 50
34.46310753478527
 51
145.5368924652148
  0
ARC
  5
3324
330
1F
100
AcDbEntity
  8
破線
100
AcDbCircle
 10
47.05316064188257
 20
167.3490946521448
 30
0.0
 40
20.05494671398419
100
AcDbArc
 50
49.25288883713545
 51
128.9582280560769
  0
ARC
  5
3325
330
1F
100
AcDbEntity
  8
破線
100
AcDbCircle
 10
72.43254270680485
 20
93.20159177266113
 30
0.0
 40
12.64186524864863
100
AcDbArc
 50
216.2862730650202
 51
323.7137269349798
  0
ARC
  5
3326
330
1F
100
AcDbEntity
  8
破線
100
AcDbCircle
 10
47.25208369424085
 20
73.46476659645947
 30
0.0
 40
19.36220123696722
100
AcDbArc
 50
39.26737976430183
 51
140.7326202356981
  0
ARC
  5
3327
330
1F
100
AcDbEntity
  8
破線
100
AcDbCircle
 10
32.26185418795886
 20
85.71988210345521
 30
0.0
 40
0.0000000000000085
100
AcDbArc
 50
164.9001892943182
 51
243.4349488229219
  0
ARC
  5
3328
330
1F
100
AcDbEntity
  8
破線
100
AcDbCircle
 10
47.25208369424089
 20
103.0288377175447
 30
0.0
 40
22.89774934576607
100
AcDbArc
 50
229.1061622974253
 51
310.8938377025745
  0
ARC
  5
3329
330
1F
100
AcDbEntity
  8
破線
100
AcDbCircle
 10
47.69395276418677
 20
99.55409072489402
 30
0.0
 40
17.15400135104119
100
AcDbArc
 50
225.0573242933069
 51
312.6063077753979
  0
LINE
  5
332A
330
1F
100
AcDbEntity
  8
太線
100
AcDbLine
 10
82.62277221308687
 20
297.4921578145717
 30
0.0
 11
82.62277221308687
 21
286.2896987990239
 31
0.0
  0
LINE
  5
332B
330
1F
100
AcDbEntity
  8
太線
100
AcDbLine
 10
82.62277221308687
 20
247.0622221231154
 30
0.0
 11
82.62277221308687
 21
258.3336988049915
 31
0.0
  0
LINE
  5
3344
330
1F
100
AcDbEntity
  8
想像線
100
AcDbLine
 10
72.36083790129523
 20
304.6921578145717
 30
0.0
 11
82.62277221308687
 21
304.6921578145717
 31
0.0
  0
LINE
  5
3345
330
1F
100
AcDbEntity
  8
想像線
100
AcDbLine
 10
72.36083790129526
 20
239.8622221231154
 30
0.0
 11
82.62277221308687
 21
239.8622221231154
 31
0.0
  0
CIRCLE
  5
3346
330
1F
100
AcDbEntity
  8
想像線
100
AcDbCircle
 10
57.44231320052286
 20
272.3116988020076
 30
0.0
 40
24.28627105310443
  0
LINE
  5
3351
330
1F
100
AcDbEntity
  8
太線
100
AcDbLine
 10
70.27731544125848
 20
293.9754527141008
 30
0.0
 11
72.36083790129524
 21
296.9465850561076
 31
0.0
  0
LINE
  5
3352
330
1F
100
AcDbEntity
  8
太線
100
AcDbLine
 10
69.7612360997418
 20
250.0014913878986
 30
0.0
 11
72.36083790129524
 21
247.0622221231154
 31
0.0
  0
LINE
  5
3353
330
1F
100
AcDbEntity
  8
太線
100
AcDbLine
 10
72.36083790129524
 20
247.0622221231154
 30
0.0
 11
72.36083790129524
 21
236.2622221231154
 31
0.0
  0
LINE
  5
3354
330
1F
100
AcDbEntity
  8
太線
100
AcDbLine
 10
72.36083790129523
 20
308.2921578145717
 30
0.0
 11
72.36083790129526
 21
296.9465850561076
 31
0.0
  0
LINE
  5
3355
330
1F
100
AcDbEntity
  8
破線
100
AcDbLine
 10
72.36083790129524
 20
242.2622221231154
 30
0.0
 11
72.47524210093047
 21
242.2622221231154
 31
0.0
  0
CIRCLE
  5
3378
330
1F
100
AcDbEntity
  8
構築線
100
AcDbCircle
 10
231.3765083008218
 20
217.4711488256961
 30
0.0
 40
2.0
  0
XLINE
  5
337C
330
1F
100
AcDbEntity
  8
構築線
100
AcDbXline
 10
314.4232967666851
 20
260.4711488256961
 30
0.0
 11
0.0
 21
-1.0
 31
0.0
  0
LINE
  5
3380
330
1F
100
AcDbEntity
  8
太線
100
AcDbLine
 10
201.6223706395675
 20
127.1116988020076
 30
0.0
 11
217.0298177004963
 21
127.1116988020076
 31
0.0
  0
LINE
  5
3381
330
1F
100
AcDbEntity
  8
太線
100
AcDbLine
 10
270.0523063310237
 20
133.1116988020077
 30
0.0
 11
270.0523063310238
 21
143.9116988020077
 31
0.0
  0
LINE
  5
3392
330
1F
100
AcDbEntity
  8
太線
100
AcDbLine
 10
201.6223706395675
 20
149.9116988020077
 30
0.0
 11
207.6223706395674
 21
149.9116988020077
 31
0.0
  0
LINE
  5
3395
330
1F
100
AcDbEntity
  8
太線
100
AcDbLine
 10
258.0523063310238
 20
149.9116988020077
 30
0.0
 11
264.0523063310238
 21
149.9116988020077
 31
0.0
  0
LINE
  5
3396
330
1F
100
AcDbEntity
  8
太線
100
AcDbLine
 10
195.6223706395675
 20
143.9116988020077
 30
0.0
 11
195.6223706395675
 21
133.1116988020076
 31
0.0
  0
XLINE
  5
339B
330
1F
100
AcDbEntity
  8
構築線
100
AcDbXline
 10
207.0298177004963
 20
211.2282595297279
 30
0.0
 11
0.0
 21
-1.0
 31
0.0
  0
LINE
  5
33A6
330
1F
100
AcDbEntity
  8
破線
100
AcDbLine
 10
207.6223706395674
 20
184.6058792323038
 30
0.0
 11
207.6223706395674
 21
158.3116988020077
 31
0.0
  0
LINE
  5
33A7
330
1F
100
AcDbEntity
  8
破線
100
AcDbLine
 10
258.0523063310238
 20
184.6058792323038
 30
0.0
 11
258.0523063310237
 21
158.3116988020077
 31
0.0
  0
LINE
  5
33A8
330
1F
100
AcDbEntity
  8
破線
100
AcDbLine
 10
207.6223706395674
 20
127.1116988020077
 30
0.0
 11
207.6223706395674
 21
85.71988210345521
 31
0.0
  0
LINE
  5
33A9
330
1F
100
AcDbEntity
  8
破線
100
AcDbLine
 10
258.0523063310238
 20
127.1116988020077
 30
0.0
 11
258.0523063310238
 21
85.71988210345521
 31
0.0
  0
ARC
  5
33AA
330
1F
100
AcDbEntity
  8
破線
100
AcDbCircle
 10
247.8620768247418
 20
177.6119850231988
 30
0.0
 40
12.35942286673825
100
AcDbArc
 50
34.46310753478527
 51
145.5368924652148
  0
ARC
  5
33AB
330
1F
100
AcDbEntity
  8
破線
100
AcDbCircle
 10
222.6816178121778
 20
197.4502490296004
 30
0.0
 40
19.74043606764334
100
AcDbArc
 50
220.5916019544362
 51
319.4083980455634
  0
ARC
  5
33AC
330
1F
100
AcDbEntity
  8
破線
100
AcDbCircle
 10
222.4826947598195
 20
167.3490946521448
 30
0.0
 40
20.05494671398419
100
AcDbArc
 50
49.25288883713545
 51
128.9582280560769
  0
ARC
  5
33AD
330
1F
100
AcDbEntity
  8
破線
100
AcDbCircle
 10
222.6816178121778
 20
163.959223901346
 30
0.0
 40
25.51453227097006
100
AcDbArc
 50
54.01897339708031
 51
125.9810266029196
  0
ARC
  5
33AE
330
1F
100
AcDbEntity
  8
破線
100
AcDbCircle
 10
247.8620768247417
 20
93.20159177266113
 30
0.0
 40
12.64186524864863
100
AcDbArc
 50
216.2862730650202
 51
323.7137269349798
  0
ARC
  5
33AF
330
1F
100
AcDbEntity
  8
破線
100
AcDbCircle
 10
223.1234868821236
 20
99.55409072489402
 30
0.0
 40
17.15400135104119
100
AcDbArc
 50
225.0573242933069
 51
312.6063077753979
  0
ARC
  5
33B0
330
1F
100
AcDbEntity
  8
破線
100
AcDbCircle
 10
222.6816178121778
 20
103.0288377175447
 30
0.0
 40
22.89774934576607
100
AcDbArc
 50
229.1061622974253
 51
310.8938377025745
  0
ARC
  5
33B1
330
1F
100
AcDbEntity
  8
破線
100
AcDbCircle
 10
222.6816178121777
 20
73.46476659645947
 30
0.0
 40
19.36220123696722
100
AcDbArc
 50
39.26737976430183
 51
140.7326202356981
  0
ARC
  5
33B2
330
1F
100
AcDbEntity
  8
破線
100
AcDbCircle
 10
207.6913883058957
 20
85.71988210345521
 30
0.0
 40
0.0000000000000085
100
AcDbArc
 50
164.9001892943182
 51
243.4349488229219
  0
ARC
  5
33B6
330
1F
100
AcDbEntity
  8
太線
100
AcDbCircle
 10
264.0523063310238
 20
143.9116988020077
 30
0.0
 40
6.0
100
AcDbArc
 50
359.9999999999998
 51
90.0
  0
ARC
  5
33B7
330
1F
100
AcDbEntity
  8
太線
100
AcDbCircle
 10
264.0523063310237
 20
133.1116988020077
 30
0.0
 40
6.0
100
AcDbArc
 50
270.0
 51
359.9999999999998
  0
ARC
  5
33B8
330
1F
100
AcDbEntity
  8
太線
100
AcDbCircle
 10
201.6223706395675
 20
143.9116988020077
 30
0.0
 40
6.0
100
AcDbArc
 50
90.0
 51
180.0
  0
ARC
  5
33B9
330
1F
100
AcDbEntity
  8
太線
100
AcDbCircle
 10
201.6223706395675
 20
133.1116988020076
 30
0.0
 40
6.0
100
AcDbArc
 50
180.0
 51
270.0
  0
ARC
  5
33C8
330
1F
100
AcDbEntity
  8
太線
100
AcDbCircle
 10
73.56083790129524
 20
236.2622221231154
 30
0.0
 40
1.199999999999999
100
AcDbArc
 50
180.0
 51
270.0
  0
ARC
  5
33C9
330
1F
100
AcDbEntity
  8
太線
100
AcDbCircle
 10
81.42277221308686
 20
236.2622221231154
 30
0.0
 40
1.199999999999999
100
AcDbArc
 50
270.0000000000002
 51
0.0
  0
ARC
  5
33CA
330
1F
100
AcDbEntity
  8
太線
100
AcDbCircle
 10
73.56083790129521
 20
308.2921578145717
 30
0.0
 40
1.199999999999999
100
AcDbArc
 50
90.0
 51
180.0
  0
ARC
  5
33CB
330
1F
100
AcDbEntity
  8
太線
100
AcDbCircle
 10
81.42277221308686
 20
308.2921578145717
 30
0.0
 40
1.199999999999999
100
AcDbArc
 50
0.0
 51
90.0
  0
ARC
  5
33CC
330
1F
100
AcDbEntity
  8
太線
100
AcDbCircle
 10
81.42277221308686
 20
308.2921578145717
 30
0.0
 40
1.199999999999999
100
AcDbArc
 50
0.0
 51
90.0
  0
LINE
  5
33CD
330
1F
100
AcDbEntity
  8
破線
100
AcDbLine
 10
32.26185418795886
 20
135.5116988020077
 30
0.0
 11
32.26185418795886
 21
85.71988210345521
 31
0.0
  0
LINE
  5
33E6
330
1F
100
AcDbEntity
  8
破線
100
AcDbLine
 10
82.62277221308689
 20
108.5116988020077
 30
0.0
 11
82.62277221308687
 21
85.71988210345521
 31
0.0
  0
DIMENSION
  5
349E
330
1F
100
AcDbEntity
  8
寸法線
100
AcDbDimension
  2
*D2
 10
182.7441145499647
 20
127.1116988020076
 30
0.0
 11
179.2436224239804
 21
138.5116988020077
 31
0.0
 70
    32
  1
22
 71
     5
 42
22.80000000000004
  3
sunpo
100
AcDbAlignedDimension
 13
201.6223706395675
 23
149.9116988020077
 33
0.0
 14
201.6223706395675
 24
127.1116988020076
 34
0.0
 50
90.0
100
AcDbRotatedDimension
1001
ACAD
1000
DSTYLE
1002
{
1070
    40
1040
1.0
1002
}
  0
XLINE
  5
352D
330
1F
100
AcDbEntity
  8
構築線
100
AcDbXline
 10
81.91119324695682
 20
273.2387561961788
 30
0.0
 11
0.0
 21
1.0
 31
0.0
  0
DIMENSION
  5
3554
330
1F
100
AcDbEntity
  8
寸法線
100
AcDbDimension
  2
*D3
 10
82.62277221308687
 20
221.2765355262315
 30
0.0
 11
77.49180505719106
 21
224.7765355262315
 31
0.0
 70
    32
  1
10
 71
     5
 42
10.26193431179163
  3
sunpo
100
AcDbAlignedDimension
 13
72.36083790129524
 23
236.2622221231154
 33
0.0
 14
82.62277221308687
 24
236.2622221231154
 34
0.0
100
AcDbRotatedDimension
1001
ACAD
1000
DSTYLE
1002
{
1070
    40
1040
1.0
1002
}
  0
DIMENSION
  5
35AB
330
1F
100
AcDbEntity
  8
寸法線
100
AcDbDimension
  2
*D4
 10
270.0523063310238
 20
208.938549581351
 30
0.0
 11
232.8373384852957
 21
212.438549581351
 31
0.0
 70
    32
  1
77
 71
     5
 42
74.42993569145625
  3
sunpo
100
AcDbAlignedDimension
 13
195.6223706395675
 23
143.9116988020077
 33
0.0
 14
270.0523063310238
 24
142.8018982520411
 34
0.0
100
AcDbRotatedDimension
1001
ACAD
1000
DSTYLE
1002
{
1070
    40
1040
1.0
1002
}
  0
XLINE
  5
35D5
330
1F
100
AcDbEntity
  8
構築線
100
AcDbXline
 10
261.6523063310238
 20
138.5116988020077
 30
0.0
 11
0.0
 21
-1.0
 31
0.0
  0
LINE
  5
35F8
330
1F
100
AcDbEntity
  8
太線
100
AcDbLine
 10
207.6223706395674
 20
149.9116988020077
 30
0.0
 11
217.0298177004963
 21
149.9116988020077
 31
0.0
  0
LINE
  5
35F9
330
1F
100
AcDbEntity
  8
太線
100
AcDbLine
 10
258.0523063310238
 20
149.9116988020077
 30
0.0
 11
248.0523063310237
 21
149.9116988020077
 31
0.0
  0
CIRCLE
  5
3622
330
1F
100
AcDbEntity
  8
太線
100
AcDbCircle
 10
204.0223706395675
 20
138.5116988020077
 30
0.0
 40
3.5
  0
CIRCLE
  5
3623
330
1F
100
AcDbEntity
  8
太線
100
AcDbCircle
 10
261.6523063310238
 20
138.5116988020077
 30
0.0
 40
3.5
  0
DIMENSION
  5
3624
330
1F
100
AcDbEntity
  8
寸法線
100
AcDbDimension
  2
*D5
 10
258.2804678319753
 20
137.5732398863733
 30
0.0
 11
290.1240222352949
 21
146.4360212869998
 31
0.0
 70
   163
  1
8
 71
     5
 42
6.999999999999886
  3
sunpo
100
AcDbDiametricDimension
 15
265.0241448300724
 25
139.4501577176421
 35
0.0
 40
0.0
1001
ACAD
1000
DSTYLE
1002
{
1070
    40
1040
1.0
1070
   288
1070
     1
1002
}
  0
CIRCLE
  5
3631
330
1F
100
AcDbEntity
  8
太線
100
AcDbCircle
 10
204.0223706395675
 20
138.5116988020077
 30
0.0
 40
2.726594359338577
  0
LINE
  5
3636
330
1F
100
AcDbEntity
  8
太線
100
AcDbLine
 10
82.78348382584098
 20
144.1408639266065
 30
0.0
 11
86.78348382584101
 21
144.1408639266065
 31
0.0
  0
LINE
  5
3637
330
1F
100
AcDbEntity
  8
太線
100
AcDbLine
 10
87.783483825841
 20
143.1408639266065
 30
0.0
 11
87.78348382584097
 21
133.8825336774088
 31
0.0
  0
LINE
  5
3638
330
1F
100
AcDbEntity
  8
太線
100
AcDbLine
 10
86.78348382584097
 20
132.8825336774088
 30
0.0
 11
82.78348382584098
 21
132.8825336774088
 31
0.0
  0
LINE
  5
3639
330
1F
100
AcDbEntity
  8
太線
100
AcDbLine
 10
82.78348382584098
 20
132.8825336774088
 30
0.0
 11
82.78348382584098
 21
144.1408639266065
 31
0.0
  0
XLINE
  5
363F
330
1F
100
AcDbEntity
  8
構築線
100
AcDbXline
 10
204.0223706395675
 20
138.5116988020077
 30
0.0
 11
1.0
 21
0.0
 31
0.0
  0
LWPOLYLINE
  5
3641
330
1F
100
AcDbEntity
  8
太線
100
AcDbPolyline
 90
        6
 70
     1
 43
0.0
 10
204.0223706395675
 20
144.0116988020077
 10
199.2592309187531
 20
141.2616988020077
 10
199.2592309187531
 20
135.7616988020077
 10
204.0223706395675
 20
133.0116988020077
 10
208.7855103603819
 20
135.7616988020077
 10
208.7855103603819
 20
141.2616988020077
  0
CIRCLE
  5
3648
330
1F
100
AcDbEntity
  8
太線
100
AcDbCircle
 10
204.0223706395675
 20
138.5116988020077
 30
0.0
 40
5.5
  0
LINE
  5
364A
330
1F
100
AcDbEntity
  8
構築線
100
AcDbLine
 10
86.42140301388153
 20
144.0116988020077
 30
0.0
 11
84.92140301388152
 21
144.127360047544
 31
0.0
  0
LINE
  5
3652
330
1F
100
AcDbEntity
  8
太線
100
AcDbLine
 10
83.88294203362693
 20
144.1380405202608
 30
0.0
 11
83.88294203362693
 21
132.9820583639775
 31
0.0
  0
LINE
  5
3672
330
1F
100
AcDbEntity
  8
太線
100
AcDbLine
 10
233.1955054425005
 20
247.8116988020077
 30
0.0
 11
259.4989994224655
 21
247.8116988020077
 31
0.0
  0
LINE
  5
3673
330
1F
100
AcDbEntity
  8
太線
100
AcDbLine
 10
233.1955054425005
 20
241.8116988020077
 30
0.0
 11
259.4989994224655
 21
241.8116988020077
 31
0.0
  0
LINE
  5
367A
330
1F
100
AcDbEntity
  8
太線
100
AcDbLine
 10
264.4989994224654
 20
250.4408639266065
 30
0.0
 11
264.4989994224654
 21
239.1825336774088
 31
0.0
  0
LINE
  5
367B
330
1F
100
AcDbEntity
  8
太線
100
AcDbLine
 10
259.4989994224654
 20
239.1825336774088
 30
0.0
 11
259.4989994224654
 21
250.4408639266065
 31
0.0
  0
LINE
  5
367C
330
1F
100
AcDbEntity
  8
太線
100
AcDbLine
 10
260.5984576302513
 20
250.4380405202608
 30
0.0
 11
260.5984576302513
 21
239.2820583639775
 31
0.0
  0
LINE
  5
367D
330
1F
100
AcDbEntity
  8
太線
100
AcDbLine
 10
264.4989994224654
 20
242.0616988020077
 30
0.0
 11
260.5984576302513
 21
242.0616988020077
 31
0.0
  0
LINE
  5
367E
330
1F
100
AcDbEntity
  8
太線
100
AcDbLine
 10
260.5984576302513
 20
247.5616988020077
 30
0.0
 11
264.4989994224654
 21
247.5616988020077
 31
0.0
  0
LINE
  5
367F
330
1F
100
AcDbEntity
  8
太線
100
AcDbLine
 10
264.4989994224654
 20
239.1825336774088
 30
0.0
 11
259.4989994224654
 21
239.1825336774088
 31
0.0
  0
LINE
  5
3680
330
1F
100
AcDbEntity
  8
太線
100
AcDbLine
 10
269.919147180194
 20
247.8116988020077
 30
0.0
 11
269.919147180194
 21
241.8116988020077
 31
0.0
  0
LINE
  5
3681
330
1F
100
AcDbEntity
  8
太線
100
AcDbLine
 10
269.919147180194
 20
241.8116988020077
 30
0.0
 11
264.4989994224654
 21
241.8116988020077
 31
0.0
  0
LINE
  5
3682
330
1F
100
AcDbEntity
  8
太線
100
AcDbLine
 10
264.4989994224654
 20
247.8116988020077
 30
0.0
 11
269.919147180194
 21
247.8116988020077
 31
0.0
  0
LINE
  5
3683
330
1F
100
AcDbEntity
  8
太線
100
AcDbLine
 10
259.4989994224654
 20
250.4408639266065
 30
0.0
 11
264.4989994224654
 21
250.4408639266065
 31
0.0
  0
RAY
  5
3686
330
1F
100
AcDbEntity
  8
構築線
100
AcDbRay
 10
338.923296766685
 20
233.9524292951627
 30
0.0
 11
1.0
 21
0.0
 31
0.0
  0
XLINE
  5
3688
330
1F
100
AcDbEntity
  8
構築線
100
AcDbXline
 10
338.923296766685
 20
260.4711488256961
 30
0.0
 11
0.0
 21
-1.0
 31
0.0
  0
CIRCLE
  5
368A
330
1F
100
AcDbEntity
  8
構築線
100
AcDbCircle
 10
338.923296766685
 20
258.4524292951627
 30
0.0
 40
24.5
  0
LINE
  5
368B
330
1F
100
AcDbEntity
  8
太線
100
AcDbLine
 10
233.1955054425005
 20
296.8116988020076
 30
0.0
 11
259.4989994224655
 21
296.8116988020075
 31
0.0
  0
LINE
  5
368C
330
1F
100
AcDbEntity
  8
太線
100
AcDbLine
 10
233.1955054425005
 20
302.8116988020077
 30
0.0
 11
259.4989994224655
 21
302.8116988020077
 31
0.0
  0
LINE
  5
368E
330
1F
100
AcDbEntity
  8
太線
100
AcDbLine
 10
269.919147180194
 20
302.8116988020077
 30
0.0
 11
264.4989994224654
 21
302.8116988020076
 31
0.0
  0
LINE
  5
368F
330
1F
100
AcDbEntity
  8
太線
100
AcDbLine
 10
264.4989994224654
 20
296.8116988020076
 30
0.0
 11
269.919147180194
 21
296.8116988020076
 31
0.0
  0
LINE
  5
3690
330
1F
100
AcDbEntity
  8
太線
100
AcDbLine
 10
264.4989994224654
 20
294.1825336774087
 30
0.0
 11
264.4989994224654
 21
305.4408639266064
 31
0.0
  0
LINE
  5
3692
330
1F
100
AcDbEntity
  8
太線
100
AcDbLine
 10
260.5984576302513
 20
294.1853570837545
 30
0.0
 11
260.5984576302513
 21
305.3413392400378
 31
0.0
  0
LINE
  5
3693
330
1F
100
AcDbEntity
  8
太線
100
AcDbLine
 10
264.4989994224654
 20
305.4408639266064
 30
0.0
 11
259.4989994224654
 21
305.4408639266064
 31
0.0
  0
LINE
  5
3694
330
1F
100
AcDbEntity
  8
太線
100
AcDbLine
 10
259.4989994224654
 20
294.1825336774087
 30
0.0
 11
264.4989994224654
 21
294.1825336774087
 31
0.0
  0
LINE
  5
3695
330
1F
100
AcDbEntity
  8
太線
100
AcDbLine
 10
264.4989994224654
 20
302.5616988020077
 30
0.0
 11
260.5984576302513
 21
302.5616988020077
 31
0.0
  0
LINE
  5
3696
330
1F
100
AcDbEntity
  8
太線
100
AcDbLine
 10
260.5984576302513
 20
297.0616988020077
 30
0.0
 11
264.4989994224654
 21
297.0616988020077
 31
0.0
  0
LINE
  5
3697
330
1F
100
AcDbEntity
  8
太線
100
AcDbLine
 10
269.919147180194
 20
296.8116988020076
 30
0.0
 11
269.919147180194
 21
302.8116988020077
 31
0.0
  0
ARC
  5
3699
330
1F
100
AcDbEntity
  8
太線
100
AcDbCircle
 10
233.1955054425005
 20
272.3116988020076
 30
0.0
 40
24.49999999999988
100
AcDbArc
 50
90.0
 51
270.0
  0
ARC
  5
369A
330
1F
100
AcDbEntity
  8
太線
100
AcDbCircle
 10
233.1955054425005
 20
272.3116988020076
 30
0.0
 40
30.5
100
AcDbArc
 50
90.0
 51
270.0
  0
LINE
  5
369B
330
1F
100
AcDbEntity
  8
太線
100
AcDbLine
 10
259.4989994224654
 20
305.4408639266064
 30
0.0
 11
259.4989994224654
 21
294.1825336774087
 31
0.0
  0
CIRCLE
  5
369C
330
1F
100
AcDbEntity
  8
破線
100
AcDbCircle
 10
233.1955054425005
 20
272.3116988020076
 30
0.0
 40
23.24372168253205
  0
CIRCLE
  5
369D
330
1F
100
AcDbEntity
  8
破線
100
AcDbCircle
 10
233.1955054425005
 20
272.3116988020076
 30
0.0
 40
21.80390088218211
  0
XLINE
  5
369E
330
1F
100
AcDbEntity
  8
構築線
100
AcDbXline
 10
358.0080875491808
 20
292.5669548077853
 30
0.0
 11
0.0
 21
-1.0
 31
0.0
  0
LINE
  5
36A3
330
1F
100
AcDbEntity
  8
太線
100
AcDbLine
 10
252.2802962249962
 20
302.8116988020077
 30
0.0
 11
252.2802962249962
 21
296.8116988020075
 31
0.0
  0
LINE
  5
36A4
330
1F
100
AcDbEntity
  8
太線
100
AcDbLine
 10
252.2802962249962
 20
301.9422531032136
 30
0.0
 11
259.4989994224654
 21
301.9422531032136
 31
0.0
  0
LINE
  5
36A5
330
1F
100
AcDbEntity
  8
太線
100
AcDbLine
 10
264.4989994224654
 20
301.9422531032136
 30
0.0
 11
269.919147180194
 21
301.9422531032136
 31
0.0
  0
LINE
  5
36A6
330
1F
100
AcDbEntity
  8
太線
100
AcDbLine
 10
252.2802962249962
 20
297.4197200465845
 30
0.0
 11
259.4989994224654
 21
297.4197200465845
 31
0.0
  0
LINE
  5
36A7
330
1F
100
AcDbEntity
  8
太線
100
AcDbLine
 10
264.4989994224654
 20
297.4197200465845
 30
0.0
 11
269.919147180194
 21
297.4197200465845
 31
0.0
  0
LINE
  5
36A8
330
1F
100
AcDbEntity
  8
太線
100
AcDbLine
 10
252.2802962249962
 20
247.8116988020077
 30
0.0
 11
252.2802962249962
 21
241.8116988020077
 31
0.0
  0
LINE
  5
36A9
330
1F
100
AcDbEntity
  8
太線
100
AcDbLine
 10
252.2802962249962
 20
247.1253007430707
 30
0.0
 11
259.4989994224654
 21
247.1253007430707
 31
0.0
  0
LINE
  5
36AA
330
1F
100
AcDbEntity
  8
太線
100
AcDbLine
 10
264.4989994224654
 20
247.1253007430707
 30
0.0
 11
269.919147180194
 21
247.1253007430707
 31
0.0
  0
LINE
  5
36AC
330
1F
100
AcDbEntity
  8
太線
100
AcDbLine
 10
252.2802962249962
 20
242.3443375115038
 30
0.0
 11
259.4989994224654
 21
242.3443375115038
 31
0.0
  0
LINE
  5
36AD
330
1F
100
AcDbEntity
  8
太線
100
AcDbLine
 10
264.4989994224654
 20
242.3443375115038
 30
0.0
 11
269.919147180194
 21
242.3443375115038
 31
0.0
  0
DIMENSION
  5
3745
330
1F
100
AcDbEntity
  8
寸法線
100
AcDbDimension
  2
*D6
 10
195.86494802663
 20
295.8729339700251
 30
0.0
 11
192.3649480266299
 21
284.8950482870551
 31
0.0
 70
    33
  1
5.5
 71
     5
 42
6.678830603706956
  3
sunpo
100
AcDbAlignedDimension
 13
239.3128888090888
 23
302.5517645737321
 33
0.0
 14
239.3128888090888
 24
295.8729339700251
 34
0.0
1001
ACAD
1000
DSTYLE
1002
{
1070
    40
1040
1.0
1002
}
  0
DIMENSION
  5
376A
330
1F
100
AcDbEntity
  8
寸法線
100
AcDbDimension
  2
*D7
 10
310.612073381381
 20
293.6466574188237
 30
0.0
 11
307.1120733813809
 21
277.0240621546321
 31
0.0
 70
    32
  1
10mm六角
 71
     5
 42
11.68795379401262
  3
sunpo
100
AcDbAlignedDimension
 13
264.3790093957355
 23
305.3346112128363
 33
0.0
 14
263.2649587706934
 24
293.6466574188237
 34
0.0
 50
90.0
100
AcDbRotatedDimension
1001
ACAD
1000
DSTYLE
1002
{
1070
    40
1040
1.0
1002
}
  0
DIMENSION
  5
37A8
330
1F
100
AcDbEntity
  8
寸法線
100
AcDbDimension
  2
*D8
 10
270.1748471827268
 20
120.243469413038
 30
0.0
 11
266.2150412766695
 21
120.243469413038
 31
0.0
 70
   160
  1
10
 71
     5
 42
8.224212640738869
  3
sunpo
100
AcDbAlignedDimension
 13
261.9506345419879
 23
135.4610352917825
 33
0.0
 14
270.1748471827268
 24
135.4610352917825
 34
0.0
100
AcDbRotatedDimension
1001
ACAD
1000
DSTYLE
1002
{
1070
    40
1040
1.0
1002
}
  0
XLINE
  5
37F4
330
1F
100
AcDbEntity
  8
構築線
100
AcDbXline
 10
204.0223706395675
 20
168.5116988020077
 30
0.0
 11
1.0
 21
0.0
 31
0.0
  0
XLINE
  5
37F5
330
1F
100
AcDbEntity
  8
構築線
100
AcDbXline
 10
204.0223706395675
 20
108.5116988020077
 30
0.0
 11
1.0
 21
0.0
 31
0.0
  0
XLINE
  5
37F6
330
1F
100
AcDbEntity
  8
構築線
100
AcDbXline
 10
86.24231320052286
 20
127.1116988020077
 30
0.0
 11
0.0
 21
-1.0
 31
0.0
  0
XLINE
  5
37F7
330
1F
100
AcDbEntity
  8
構築線
100
AcDbXline
 10
141.2423132005228
 20
127.1116988020077
 30
0.0
 11
0.0
 21
-1.0
 31
0.0
  0
LINE
  5
37FA
330
1F
100
AcDbEntity
  8
太線
100
AcDbLine
 10
111.2423132005228
 20
168.5116988020077
 30
0.0
 11
86.24231320052286
 21
168.5116988020077
 31
0.0
  0
XLINE
  5
37FB
330
1F
100
AcDbEntity
  8
構築線
100
AcDbXline
 10
72.36083790129524
 20
157.1116988020076
 30
0.0
 11
0.0
 21
1.0
 31
0.0
  0
XLINE
  5
37FC
330
1F
100
AcDbEntity
  8
構築線
100
AcDbXline
 10
82.62277221308687
 20
127.1116988020077
 30
0.0
 11
1.0
 21
0.0
 31
0.0
  0
XLINE
  5
37FD
330
1F
100
AcDbEntity
  8
構築線
100
AcDbXline
 10
82.62277221308687
 20
149.9116988020077
 30
0.0
 11
1.0
 21
0.0
 31
0.0
  0
ARC
  5
37FE
330
1F
100
AcDbEntity
  8
太線
100
AcDbCircle
 10
111.2423132005228
 20
138.5116988020077
 30
0.0
 40
30.0
100
AcDbArc
 50
270.0
 51
90.0
  0
LINE
  5
37FF
330
1F
100
AcDbEntity
  8
太線
100
AcDbLine
 10
111.2423132005228
 20
108.5116988020077
 30
0.0
 11
73.36083790129524
 21
108.5116988020077
 31
0.0
  0
LINE
  5
3800
330
1F
100
AcDbEntity
  8
太線
100
AcDbLine
 10
72.36083790129524
 20
109.5116988020077
 30
0.0
 11
72.36083790129524
 21
167.5116988020077
 31
0.0
  0
LINE
  5
3801
330
1F
100
AcDbEntity
  8
太線
100
AcDbLine
 10
73.36083790129524
 20
168.5116988020077
 30
0.0
 11
86.24231320052286
 21
168.5116988020077
 31
0.0
  0
LINE
  5
3802
330
1F
100
AcDbEntity
  8
太線
100
AcDbLine
 10
72.36083790129524
 20
149.9116988020077
 30
0.0
 11
80.91119324695684
 21
149.9116988020077
 31
0.0
  0
LINE
  5
3803
330
1F
100
AcDbEntity
  8
太線
100
AcDbLine
 10
80.91119324695684
 20
127.1116988020077
 30
0.0
 11
72.36083790129524
 21
127.1116988020077
 31
0.0
  0
LINE
  5
3804
330
1F
100
AcDbEntity
  8
太線
100
AcDbLine
 10
86.24231320052286
 20
168.5116988020077
 30
0.0
 11
86.24231320052286
 21
144.1408639266065
 31
0.0
  0
LINE
  5
3805
330
1F
100
AcDbEntity
  8
太線
100
AcDbLine
 10
86.24231320052286
 20
132.8825336774088
 30
0.0
 11
86.24231320052286
 21
108.5116988020077
 31
0.0
  0
LINE
  5
3807
330
1F
100
AcDbEntity
  8
太線
100
AcDbLine
 10
81.91119324695684
 20
148.9116988020077
 30
0.0
 11
81.91119324695684
 21
128.1116988020077
 31
0.0
  0
XLINE
  5
3809
330
1F
100
AcDbEntity
  8
構築線
100
AcDbXline
 10
87.88226278659033
 20
141.8348569472505
 30
0.0
 11
-1.0
 21
0.0
 31
0.0
  0
XLINE
  5
380A
330
1F
100
AcDbEntity
  8
構築線
100
AcDbXline
 10
87.72209652360983
 20
135.2734035883469
 30
0.0
 11
-1.0
 21
0.0
 31
0.0
  0
LINE
  5
380D
330
1F
100
AcDbEntity
  8
太線
100
AcDbLine
 10
82.78348382584098
 20
141.5116988020077
 30
0.0
 11
81.91119324695682
 21
141.5116988020077
 31
0.0
  0
LINE
  5
380E
330
1F
100
AcDbEntity
  8
太線
100
AcDbLine
 10
82.78348382584098
 20
135.5116988020077
 30
0.0
 11
81.91119324695682
 21
135.5116988020077
 31
0.0
  0
LINE
  5
3810
330
1F
100
AcDbEntity
  8
想像線
100
AcDbLine
 10
81.91119324695682
 20
141.8348569472505
 30
0.0
 11
72.36083790129524
 21
141.8348569472505
 31
0.0
  0
LINE
  5
3812
330
1F
100
AcDbEntity
  8
想像線
100
AcDbLine
 10
81.91119324695682
 20
135.2734035883469
 30
0.0
 11
72.36083790129524
 21
135.2734035883469
 31
0.0
  0
LINE
  5
3813
330
1F
100
AcDbEntity
  8
太線
100
AcDbLine
 10
84.92140301388152
 20
144.127360047544
 30
0.0
 11
84.92140301388152
 21
144.127360047544
 31
0.0
  0
XLINE
  5
3814
330
1F
100
AcDbEntity
  8
構築線
100
AcDbXline
 10
131.2423132005228
 20
127.1116988020077
 30
0.0
 11
0.0
 21
-1.0
 31
0.0
  0
XLINE
  5
3815
330
1F
100
AcDbEntity
  8
構築線
100
AcDbXline
 10
204.0223706395675
 20
144.0116988020077
 30
0.0
 11
1.0
 21
0.0
 31
0.0
  0
XLINE
  5
3816
330
1F
100
AcDbEntity
  8
構築線
100
AcDbXline
 10
204.0223706395675
 20
133.0116988020077
 30
0.0
 11
1.0
 21
0.0
 31
0.0
  0
XLINE
  5
3817
330
1F
100
AcDbEntity
  8
構築線
100
AcDbXline
 10
106.2423132005228
 20
127.1116988020077
 30
0.0
 11
0.0
 21
-1.0
 31
0.0
  0
XLINE
  5
3818
330
1F
100
AcDbEntity
  8
構築線
100
AcDbXline
 10
125.7423132005228
 20
127.1116988020077
 30
0.0
 11
0.0
 21
-1.0
 31
0.0
  0
ARC
  5
381A
330
1F
100
AcDbEntity
  8
太線
100
AcDbCircle
 10
125.7423132005228
 20
138.5116988020077
 30
0.0
 40
5.5
100
AcDbArc
 50
270.0
 51
90.0
  0
ARC
  5
381B
330
1F
100
AcDbEntity
  8
太線
100
AcDbCircle
 10
111.7423132005228
 20
138.5116988020077
 30
0.0
 40
5.5
100
AcDbArc
 50
90.0
 51
270.0
  0
LINE
  5
381C
330
1F
100
AcDbEntity
  8
太線
100
AcDbLine
 10
111.7423132005228
 20
144.0116988020077
 30
0.0
 11
125.7423132005228
 21
144.0116988020077
 31
0.0
  0
LINE
  5
381D
330
1F
100
AcDbEntity
  8
太線
100
AcDbLine
 10
125.7423132005228
 20
133.0116988020077
 30
0.0
 11
111.7423132005228
 21
133.0116988020077
 31
0.0
  0
ARC
  5
381E
330
1F
100
AcDbEntity
  8
太線
100
AcDbCircle
 10
73.36083790129524
 20
167.5116988020077
 30
0.0
 40
1.0
100
AcDbArc
 50
90.0
 51
180.0
  0
ARC
  5
381F
330
1F
100
AcDbEntity
  8
太線
100
AcDbCircle
 10
73.36083790129524
 20
109.5116988020077
 30
0.0
 40
1.0
100
AcDbArc
 50
180.0
 51
270.0
  0
ARC
  5
3820
330
1F
100
AcDbEntity
  8
太線
100
AcDbCircle
 10
80.91119324695684
 20
148.9116988020077
 30
0.0
 40
1.0
100
AcDbArc
 50
0.0
 51
90.0
  0
ARC
  5
3821
330
1F
100
AcDbEntity
  8
太線
100
AcDbCircle
 10
80.91119324695684
 20
128.1116988020077
 30
0.0
 40
1.0
100
AcDbArc
 50
270.0
 51
359.9999999999999
  0
ARC
  5
3822
330
1F
100
AcDbEntity
  8
太線
100
AcDbCircle
 10
92.20363158356958
 20
140.5116988020077
 30
0.0
 40
1.0
100
AcDbArc
 50
0.0
 51
90.0
  0
ARC
  5
3823
330
1F
100
AcDbEntity
  8
太線
100
AcDbCircle
 10
92.20363158356958
 20
136.5116988020077
 30
0.0
 40
1.0
100
AcDbArc
 50
269.9999999999997
 51
0.0
  0
ARC
  5
3824
330
1F
100
AcDbEntity
  8
太線
100
AcDbCircle
 10
86.78348382584101
 20
143.1408639266065
 30
0.0
 40
1.0
100
AcDbArc
 50
0.0
 51
90.0
  0
ARC
  5
3825
330
1F
100
AcDbEntity
  8
太線
100
AcDbCircle
 10
86.78348382584097
 20
133.8825336774088
 30
0.0
 40
1.0
100
AcDbArc
 50
270.0
 51
359.9999999999998
  0
XLINE
  5
3826
330
1F
100
AcDbEntity
  8
構築線
100
AcDbXline
 10
89.24231320052285
 20
127.1116988020077
 30
0.0
 11
0.0
 21
-1.0
 31
0.0
  0
XLINE
  5
3827
330
1F
100
AcDbEntity
  8
構築線
100
AcDbXline
 10
204.0223706395675
 20
158.5116988020077
 30
0.0
 11
1.0
 21
0.0
 31
0.0
  0
XLINE
  5
3828
330
1F
100
AcDbEntity
  8
構築線
100
AcDbXline
 10
204.0223706395675
 20
118.5116988020077
 30
0.0
 11
1.0
 21
0.0
 31
0.0
  0
CIRCLE
  5
382C
330
1F
100
AcDbEntity
  8
太線
100
AcDbCircle
 10
89.24231320052284
 20
158.5116988020077
 30
0.0
 40
2.999999999999985
  0
CIRCLE
  5
382D
330
1F
100
AcDbEntity
  8
太線
100
AcDbCircle
 10
89.24231320052285
 20
118.5116988020077
 30
0.0
 40
3.0
  0
XLINE
  5
382E
330
1F
100
AcDbEntity
  8
構築線
100
AcDbXline
 10
98.24231320052286
 20
269.9116988020077
 30
0.0
 11
1.0
 21
0.0
 31
0.0
  0
XLINE
  5
382F
330
1F
100
AcDbEntity
  8
構築線
100
AcDbXline
 10
98.24231320052286
 20
274.7116988020077
 30
0.0
 11
1.0
 21
0.0
 31
0.0
  0
XLINE
  5
3830
330
1F
100
AcDbEntity
  8
構築線
100
AcDbXline
 10
72.36083790129524
 20
296.9465850561076
 30
0.0
 11
1.0
 21
0.0
 31
0.0
  0
XLINE
  5
3831
330
1F
100
AcDbEntity
  8
構築線
100
AcDbXline
 10
72.00485421132075
 20
247.4647191201866
 30
0.0
 11
1.0
 21
0.0
 31
0.0
  0
LINE
  5
3832
330
1F
100
AcDbEntity
  8
太線
100
AcDbLine
 10
87.04771811246407
 20
269.9116988020077
 30
0.0
 11
140.2423132005228
 21
269.9116988020077
 31
0.0
  0
LINE
  5
3833
330
1F
100
AcDbEntity
  8
太線
100
AcDbLine
 10
141.2423132005228
 20
270.9116988020077
 30
0.0
 11
141.2423132005228
 21
273.7116988020077
 31
0.0
  0
LINE
  5
3834
330
1F
100
AcDbEntity
  8
太線
100
AcDbLine
 10
140.2423132005228
 20
274.7116988020077
 30
0.0
 11
87.04771811246407
 21
274.7116988020077
 31
0.0
  0
LINE
  5
3835
330
1F
100
AcDbEntity
  8
想像線
100
AcDbLine
 10
82.62277221308687
 20
247.0622221231154
 30
0.0
 11
72.36083790129524
 21
247.0622221231154
 31
0.0
  0
LINE
  5
3836
330
1F
100
AcDbEntity
  8
想像線
100
AcDbLine
 10
82.62277221308687
 20
296.9465850561076
 30
0.0
 11
72.36083790129526
 21
296.9465850561076
 31
0.0
  0
LINE
  5
3837
330
1F
100
AcDbEntity
  8
想像線
100
AcDbLine
 10
131.2423132005228
 20
274.7116988020077
 30
0.0
 11
131.2423132005228
 21
269.9116988020077
 31
0.0
  0
LINE
  5
3838
330
1F
100
AcDbEntity
  8
想像線
100
AcDbLine
 10
106.2423132005228
 20
274.7116988020077
 30
0.0
 11
106.2423132005228
 21
269.9116988020077
 31
0.0
  0
LINE
  5
3839
330
1F
100
AcDbEntity
  8
想像線
100
AcDbLine
 10
89.24231320052285
 20
274.7116988020077
 30
0.0
 11
89.24231320052285
 21
269.9116988020077
 31
0.0
  0
ARC
  5
383B
330
1F
100
AcDbEntity
  8
太線
100
AcDbCircle
 10
57.44231320052286
 20
272.3116988020076
 30
0.0
 40
28.79999999999999
100
AcDbArc
 50
6.551368804042257
 51
58.80151915202834
  0
ARC
  5
383C
330
1F
100
AcDbEntity
  8
太線
100
AcDbCircle
 10
87.04771811246407
 20
268.9116988020077
 30
0.0
 40
1.0
100
AcDbArc
 50
90.0
 51
173.4486311959585
  0
ARC
  5
383D
330
1F
100
AcDbEntity
  8
太線
100
AcDbCircle
 10
87.04771811246407
 20
275.7116988020077
 30
0.0
 40
1.0
100
AcDbArc
 50
186.5513688040414
 51
270.0
  0
ARC
  5
383F
330
1F
100
AcDbEntity
  8
太線
100
AcDbCircle
 10
140.2423132005228
 20
273.7116988020077
 30
0.0
 40
1.0
100
AcDbArc
 50
0.0
 51
90.0
  0
ARC
  5
3840
330
1F
100
AcDbEntity
  8
太線
100
AcDbCircle
 10
140.2423132005228
 20
270.9116988020077
 30
0.0
 40
1.0
100
AcDbArc
 50
270.0
 51
0.0
  0
XLINE
  5
3841
330
1F
100
AcDbEntity
  8
構築線
100
AcDbXline
 10
235.2718473184598
 20
153.5116988020077
 30
0.0
 11
0.0
 21
1.0
 31
0.0
  0
XLINE
  5
3842
330
1F
100
AcDbEntity
  8
構築線
100
AcDbXline
 10
230.4718473184598
 20
153.5116988020077
 30
0.0
 11
0.0
 21
1.0
 31
0.0
  0
LINE
  5
3843
330
1F
100
AcDbEntity
  8
太線
100
AcDbLine
 10
208.6223706395674
 20
168.5116988020076
 30
0.0
 11
217.0298177004963
 21
168.5116988020077
 31
0.0
  0
LINE
  5
3844
330
1F
100
AcDbEntity
  8
太線
100
AcDbLine
 10
258.0523063310237
 20
167.5116988020077
 30
0.0
 11
258.0523063310237
 21
149.9116988020077
 31
0.0
  0
LINE
  5
3845
330
1F
100
AcDbEntity
  8
太線
100
AcDbLine
 10
234.2718473184598
 20
108.5116988020077
 30
0.0
 11
231.4718473184598
 21
108.5116988020077
 31
0.0
  0
LINE
  5
3848
330
1F
100
AcDbEntity
  8
太線
100
AcDbLine
 10
207.6223706395674
 20
167.5116988020076
 30
0.0
 11
207.6223706395674
 21
149.9116988020077
 31
0.0
  0
LINE
  5
3849
330
1F
100
AcDbEntity
  8
太線
100
AcDbLine
 10
207.6223706395674
 20
127.1116988020076
 30
0.0
 11
207.6223706395674
 21
109.5116988020077
 31
0.0
  0
LINE
  5
384A
330
1F
100
AcDbEntity
  8
太線
100
AcDbLine
 10
235.2718473184598
 20
167.5116988020077
 30
0.0
 11
235.2718473184598
 21
109.5116988020077
 31
0.0
  0
LINE
  5
384B
330
1F
100
AcDbEntity
  8
太線
100
AcDbLine
 10
230.4718473184597
 20
167.5116988020077
 30
0.0
 11
230.4718473184598
 21
109.5116988020077
 31
0.0
  0
XLINE
  5
384C
330
1F
100
AcDbEntity
  8
構築線
100
AcDbXline
 10
270.0523063310237
 20
104.4607141849892
 30
0.0
 11
0.0
 21
-1.0
 31
0.0
  0
XLINE
  5
384E
330
1F
100
AcDbEntity
  8
構築線
100
AcDbXline
 10
217.0298177004963
 20
211.2282595297279
 30
0.0
 11
0.0
 21
-1.0
 31
0.0
  0
XLINE
  5
384F
330
1F
100
AcDbEntity
  8
構築線
100
AcDbXline
 10
248.0523063310237
 20
168.5116988020077
 30
0.0
 11
0.0
 21
1.0
 31
0.0
  0
LINE
  5
3851
330
1F
100
AcDbEntity
  8
太線
100
AcDbLine
 10
248.0523063310237
 20
168.5116988020077
 30
0.0
 11
257.0523063310237
 21
168.5116988020077
 31
0.0
  0
LINE
  5
3852
330
1F
100
AcDbEntity
  8
太線
100
AcDbLine
 10
231.4718473184597
 20
168.5116988020077
 30
0.0
 11
234.2718473184598
 21
168.5116988020077
 31
0.0
  0
LINE
  5
3853
330
1F
100
AcDbEntity
  8
太線
100
AcDbLine
 10
248.0523063310237
 20
127.1116988020077
 30
0.0
 11
264.0523063310237
 21
127.1116988020077
 31
0.0
  0
LINE
  5
3854
330
1F
100
AcDbEntity
  8
太線
100
AcDbLine
 10
235.2718473184598
 20
108.5116988020077
 30
0.0
 11
230.4718473184598
 21
108.5116988020077
 31
0.0
  0
LINE
  5
3856
330
1F
100
AcDbEntity
  8
太線
100
AcDbLine
 10
217.0298177004963
 20
168.5116988020077
 30
0.0
 11
230.4718473184598
 21
168.5116988020077
 31
0.0
  0
LINE
  5
3857
330
1F
100
AcDbEntity
  8
太線
100
AcDbLine
 10
235.2718473184598
 20
168.5116988020077
 30
0.0
 11
248.0523063310237
 21
168.5116988020077
 31
0.0
  0
LINE
  5
3858
330
1F
100
AcDbEntity
  8
太線
100
AcDbLine
 10
217.0298177004963
 20
108.5116988020077
 30
0.0
 11
230.4718473184598
 21
108.5116988020077
 31
0.0
  0
LINE
  5
3859
330
1F
100
AcDbEntity
  8
太線
100
AcDbLine
 10
235.2718473184598
 20
108.5116988020077
 30
0.0
 11
248.0523063310238
 21
108.5116988020077
 31
0.0
  0
LINE
  5
385A
330
1F
100
AcDbEntity
  8
太線
100
AcDbLine
 10
258.0523063310237
 20
127.1116988020077
 30
0.0
 11
258.0523063310238
 21
109.5116988020077
 31
0.0
  0
LINE
  5
385B
330
1F
100
AcDbEntity
  8
想像線
100
AcDbLine
 10
230.4718473184598
 20
144.0116988020077
 30
0.0
 11
235.2718473184598
 21
144.0116988020077
 31
0.0
  0
LINE
  5
385C
330
1F
100
AcDbEntity
  8
想像線
100
AcDbLine
 10
230.4718473184598
 20
133.0116988020077
 30
0.0
 11
235.2718473184598
 21
133.0116988020077
 31
0.0
  0
XLINE
  5
385D
330
1F
100
AcDbEntity
  8
構築線
100
AcDbXline
 10
89.24231320052285
 20
161.5116988020076
 30
0.0
 11
1.0
 21
0.0
 31
0.0
  0
XLINE
  5
385E
330
1F
100
AcDbEntity
  8
構築線
100
AcDbXline
 10
89.24231320052285
 20
155.5116988020077
 30
0.0
 11
1.0
 21
0.0
 31
0.0
  0
XLINE
  5
385F
330
1F
100
AcDbEntity
  8
構築線
100
AcDbXline
 10
89.24231320052285
 20
121.5116988020077
 30
0.0
 11
1.0
 21
0.0
 31
0.0
  0
XLINE
  5
3860
330
1F
100
AcDbEntity
  8
構築線
100
AcDbXline
 10
89.24231320052285
 20
115.5116988020077
 30
0.0
 11
1.0
 21
0.0
 31
0.0
  0
LINE
  5
3861
330
1F
100
AcDbEntity
  8
想像線
100
AcDbLine
 10
230.4718473184598
 20
161.5116988020076
 30
0.0
 11
235.2718473184598
 21
161.5116988020076
 31
0.0
  0
LINE
  5
3862
330
1F
100
AcDbEntity
  8
想像線
100
AcDbLine
 10
230.4718473184598
 20
155.5116988020077
 30
0.0
 11
235.2718473184598
 21
155.5116988020077
 31
0.0
  0
LINE
  5
3863
330
1F
100
AcDbEntity
  8
想像線
100
AcDbLine
 10
230.4718473184598
 20
121.5116988020077
 30
0.0
 11
235.2718473184598
 21
121.5116988020077
 31
0.0
  0
LINE
  5
3864
330
1F
100
AcDbEntity
  8
想像線
100
AcDbLine
 10
230.4718473184598
 20
115.5116988020077
 30
0.0
 11
235.2718473184598
 21
115.5116988020077
 31
0.0
  0
ARC
  5
3865
330
1F
100
AcDbEntity
  8
太線
100
AcDbCircle
 10
208.6223706395674
 20
167.5116988020076
 30
0.0
 40
1.0
100
AcDbArc
 50
90.0
 51
180.0
  0
ARC
  5
3866
330
1F
100
AcDbEntity
  8
太線
100
AcDbCircle
 10
257.0523063310237
 20
167.5116988020077
 30
0.0
 40
1.0
100
AcDbArc
 50
0.0
 51
90.0
  0
ARC
  5
3867
330
1F
100
AcDbEntity
  8
太線
100
AcDbCircle
 10
208.6223706395674
 20
109.5116988020077
 30
0.0
 40
1.0
100
AcDbArc
 50
180.0
 51
270.0
  0
ARC
  5
3868
330
1F
100
AcDbEntity
  8
太線
100
AcDbCircle
 10
234.2718473184598
 20
109.5116988020077
 30
0.0
 40
1.0
100
AcDbArc
 50
270.0
 51
0.0
  0
ARC
  5
3869
330
1F
100
AcDbEntity
  8
太線
100
AcDbCircle
 10
231.4718473184598
 20
109.5116988020077
 30
0.0
 40
1.0
100
AcDbArc
 50
180.0
 51
270.0
  0
ARC
  5
386A
330
1F
100
AcDbEntity
  8
太線
100
AcDbCircle
 10
231.4718473184597
 20
167.5116988020077
 30
0.0
 40
1.0
100
AcDbArc
 50
89.99999999999966
 51
180.0
  0
ARC
  5
386B
330
1F
100
AcDbEntity
  8
太線
100
AcDbCircle
 10
234.2718473184598
 20
167.5116988020077
 30
0.0
 40
1.0
100
AcDbArc
 50
0.0
 51
89.99999999999957
  0
LINE
  5
386C
330
1F
100
AcDbEntity
  8
太線
100
AcDbLine
 10
208.6223706395674
 20
108.5116988020077
 30
0.0
 11
217.0298177004963
 21
108.5116988020077
 31
0.0
  0
LINE
  5
386D
330
1F
100
AcDbEntity
  8
太線
100
AcDbLine
 10
257.0523063310238
 20
108.5116988020077
 30
0.0
 11
248.0523063310238
 21
108.5116988020077
 31
0.0
  0
ARC
  5
386E
330
1F
100
AcDbEntity
  8
太線
100
AcDbCircle
 10
257.0523063310238
 20
109.5116988020077
 30
0.0
 40
1.0
100
AcDbArc
 50
270.0
 51
0.0000000000001654
  0
DIMENSION
  5
388A
330
1F
100
AcDbEntity
  8
寸法線
100
AcDbDimension
  2
*D9
 10
269.9614597924024
 20
157.0788513419095
 30
0.0
 11
264.006883061713
 21
160.5788513419095
 31
0.0
 70
    32
  1
14
 71
     5
 42
11.9091534613787
  3
sunpo
100
AcDbAlignedDimension
 13
258.0523063310237
 23
149.9116988020077
 33
0.0
 14
269.9614597924024
 24
149.9116988020077
 34
0.0
100
AcDbRotatedDimension
1001
ACAD
1000
DSTYLE
1002
{
1070
    40
1040
1.0
1002
}
  0
DIMENSION
  5
38A1
330
1F
100
AcDbEntity
  8
寸法線
100
AcDbDimension
  2
*D10
 10
15.10352354652752
 20
109.5116988020077
 30
0.0
 11
11.6035235465275
 21
139.0116988020077
 31
0.0
 70
    32
  1
60
 71
     5
 42
59.00000000000002
  3
sunpo
100
AcDbAlignedDimension
 13
73.36083790129524
 23
168.5116988020077
 33
0.0
 14
72.36083790129524
 24
109.5116988020077
 34
0.0
 50
90.0
100
AcDbRotatedDimension
1001
ACAD
1000
DSTYLE
1002
{
1070
    40
1040
1.0
1002
}
  0
DIMENSION
  5
38AE
330
1F
100
AcDbEntity
  8
寸法線
100
AcDbDimension
  2
*D11
 10
72.36083790129521
 20
323.5939278251152
 30
0.0
 11
106.801575550909
 21
327.0939278251152
 31
0.0
 70
    32
  1
65
 71
     5
 42
68.88147529922767
  3
sunpo
100
AcDbAlignedDimension
 13
141.2423132005228
 23
270.9116988020077
 33
0.0
 14
72.36083790129521
 24
308.2921578145717
 34
0.0
100
AcDbRotatedDimension
1001
ACAD
1000
DSTYLE
1002
{
1070
    40
1040
1.0
1002
}
  0
DIMENSION
  5
38BB
330
1F
100
AcDbEntity
  8
寸法線
100
AcDbDimension
  2
*D12
 10
130.9853593789445
 20
193.7163986049265
 30
0.0
 11
118.4161654977043
 21
197.2168907309108
 31
0.0
 70
    32
  1
25
 71
     5
 42
25.1383877624803
  3
sunpo
100
AcDbAlignedDimension
 13
105.8469716164642
 23
139.1923410589189
 33
0.0
 14
130.9853593789445
 24
139.1923410589189
 34
0.0
100
AcDbRotatedDimension
1001
ACAD
1000
DSTYLE
1002
{
1070
    40
1040
1.0
1002
}
  0
DIMENSION
  5
38C8
330
1F
100
AcDbEntity
  8
寸法線
100
AcDbDimension
  2
*D13
 10
162.8681929401637
 20
133.6786727253943
 30
0.0
 11
159.3681929401637
 21
138.886026575248
 31
0.0
 70
    32
  1
11
 71
     5
 42
10.41470769970737
  3
sunpo
100
AcDbAlignedDimension
 13
129.1459650701973
 23
144.0933804251017
 33
0.0
 14
129.1459650701973
 24
133.6786727253943
 34
0.0
 50
90.0
100
AcDbRotatedDimension
1001
ACAD
1000
DSTYLE
1002
{
1070
    40
1040
1.0
1002
}
  0
DIMENSION
  5
38D6
330
1F
100
AcDbEntity
  8
寸法線
100
AcDbDimension
  2
*D14
 10
87.85756093822442
 20
121.1729881835029
 30
0.0
 11
104.6207087439662
 21
88.95669327613154
 31
0.0
 70
   163
 71
     5
 42
6.000000000000007
  3
sunpo
100
AcDbDiametricDimension
 15
90.62706546282129
 25
115.8504094205124
 35
0.0
 40
0.0
1001
ACAD
1000
DSTYLE
1002
{
1070
    40
1040
1.0
1070
   288
1070
     1
1002
}
  0
XLINE
  5
3906
330
1F
100
AcDbEntity
  8
構築線
100
AcDbXline
 10
57.44231320052286
 20
272.3116988020076
 30
0.0
 11
1.0
 21
0.0
 31
0.0
  0
XLINE
  5
391C
330
1F
100
AcDbEntity
  8
構築線
100
AcDbXline
 10
233.1955054425005
 20
272.5441097546395
 30
0.0
 11
0.0
 21
-1.0
 31
0.0
  0
LINE
  5
393A
330
1F
100
AcDbEntity
  8
太線
100
AcDbLine
 10
87.76699694868876
 20
141.9783780609948
 30
0.0
 11
83.71929946727277
 21
141.9783780609948
 31
0.0
  0
LINE
  5
393B
330
1F
100
AcDbEntity
  8
太線
100
AcDbLine
 10
87.92890421367838
 20
134.8634241919459
 30
0.0
 11
83.88120673226216
 21
134.7017207533308
 31
0.0
  0
DIMENSION
  5
393D
330
1F
100
AcDbEntity
  8
寸法線
100
AcDbDimension
  2
*D15
 10
99.45541030459139
 20
168.1579677701103
 30
0.0
 11
95.95541030459136
 21
163.2317765084314
 31
0.0
 70
    32
  1
10
 71
     5
 42
9.852382523357732
  3
sunpo
100
AcDbAlignedDimension
 13
89.30483987752745
 23
158.3055852467525
 33
0.0
 14
89.30483987752745
 24
168.1579677701103
 34
0.0
 50
90.0
100
AcDbRotatedDimension
1001
ACAD
1000
DSTYLE
1002
{
1070
    40
1040
1.0
1002
}
  0
DIMENSION
  5
394B
330
1F
100
AcDbEntity
  8
寸法線
100
AcDbDimension
  2
*D16
 10
89.59485587221456
 20
200.3230993505926
 30
0.0
 11
98.19774155518459
 21
203.8230993505926
 31
0.0
 70
    32
  1
3
 71
     5
 42
3.480194968534988
  3
sunpo
100
AcDbAlignedDimension
 13
86.11466090367958
 23
158.3055852467525
 33
0.0
 14
89.59485587221456
 24
158.3055852467525
 34
0.0
100
AcDbRotatedDimension
1001
ACAD
1000
DSTYLE
1002
{
1070
    40
1040
1.0
1002
}
  0
DIMENSION
  5
396E
330
1F
100
AcDbEntity
  8
寸法線
100
AcDbDimension
  2
*D17
 10
141.2177590238861
 20
113.1005353196858
 30
0.0
 11
136.1424730522812
 21
116.6005353196858
 31
0.0
 70
    32
  1
10
 71
     5
 42
10.15057194320979
  3
sunpo
100
AcDbAlignedDimension
 13
131.0671870806763
 23
133.3848521792186
 33
0.0
 14
141.2177590238861
 24
133.3848521792186
 34
0.0
100
AcDbRotatedDimension
1001
ACAD
1000
DSTYLE
1002
{
1070
    40
1040
1.0
1002
}
  0
DIMENSION
  5
398C
330
1F
100
AcDbEntity
  8
寸法線
100
AcDbDimension
  2
*D18
 10
218.8293470196606
 20
138.3830924578649
 30
0.0
 11
215.3293470196606
 21
132.910261605152
 31
0.0
 70
    32
  1
10
 71
     5
 42
10.9456617054259
  3
sunpo
100
AcDbAlignedDimension
 13
207.2660102406391
 23
127.437430752439
 33
0.0
 14
207.2660102406391
 24
138.3830924578649
 34
0.0
 50
90.0
100
AcDbRotatedDimension
1001
ACAD
1000
DSTYLE
1002
{
1070
    40
1040
1.0
1002
}
  0
DIMENSION
  5
39A5
330
1F
100
AcDbEntity
  8
寸法線
100
AcDbDimension
  2
*D19
 10
160.0581331810128
 20
274.7116988020077
 30
0.0
 11
156.5581331810128
 21
272.3116988020077
 31
0.0
 70
    32
  1
4
 71
     5
 42
4.800000000000011
  3
sunpo
100
AcDbAlignedDimension
 13
131.2423132005228
 23
269.9116988020077
 33
0.0
 14
131.2423132005228
 24
274.7116988020077
 34
0.0
 50
90.0
100
AcDbRotatedDimension
1001
ACAD
1000
DSTYLE
1002
{
1070
    40
1040
1.0
1002
}
  0
TEXT
  5
39CB
330
1F
100
AcDbEntity
  8
文字
100
AcDbText
 10
290.636461032173
 20
69.13428359865213
 30
0.0
 40
4.799999999999999
  1
JAN 4562182300935
 51
15.0
  7
OKANO
100
AcDbText
  0
VIEWPORT
  5
2E
330
1B
100
AcDbEntity
 67
     1
  8
0
100
AcDbViewport
 10
234.4913694900863
 20
114.0667812823735
 30
0.0
 40
572.3148774834023
 41
290.6804751812433
 68
     2
 69
     1
 12
234.4913694900863
 22
114.0667812823735
 13
0.0
 23
0.0
 14
10.0
 24
10.0
 15
10.0
 25
10.0
 16
0.0
 26
0.0
 36
1.0
 17
0.0
 27
0.0
 37
0.0
 42
50.0
 43
0.0
 44
0.0
 45
290.6804751812433
 50
0.0
 51
0.0
 72
   100
 90
    32800
  1

281
     0
 71
     1
 74
     0
110
0.0
120
0.0
130
0.0
111
1.0
121
0.0
131
0.0
112
0.0
122
1.0
132
0.0
 79
     0
146
0.0
  0
VIEWPORT
  5
30
330
1B
100
AcDbEntity
 67
     1
  8
70-0-CON
100
AcDbViewport
 10
141.8594093064315
 20
100.3480256368386
 30
0.0
 40
261.6199023344245
 41
192.6196987113174
 68
     1
 69
     2
 12
186.3628564156558
 22
209.0760145614395
 13
0.0
 23
0.0
 14
5.0
 24
5.0
 15
10.0
 25
10.0
 16
0.0
 26
0.0
 36
1.0
 17
0.0
 27
0.0
 37
0.0
 42
50.0
 43
0.0
 44
0.0
 45
288.7433695026085
 50
0.0
 51
0.0
 72
   100
 90
    32864
  1

281
     0
 71
     1
 74
     0
110
0.0
120
0.0
130
0.0
111
1.0
121
0.0
131
0.0
112
0.0
122
1.0
132
0.0
 79
     0
146
0.0
  0
LWPOLYLINE
  5
45
330
1B
100
AcDbEntity
 67
     1
  8
50-0-CON
100
AcDbPolyline
 90
        4
 70
     1
 43
0.0
 10
11.04945813921926
 20
4.038176281179858
 10
272.2125713060605
 20
4.033520706629644
 10
273.4987754093466
 20
195.9297862125246
 10
11.04945813921926
 20
196.6578749924973
  0
LINE
  5
4A
330
1B
100
AcDbEntity
 67
     1
  8
50-0-CON
100
AcDbLine
 10
10.38768783662635
 20
100.3480256368386
 30
0.0
 11
-4.391850629656119
 21
100.3480256368386
 31
0.0
  0
LINE
  5
4B
330
1B
100
AcDbEntity
 67
     1
  8
50-0-CON
100
AcDbLine
 10
141.8594093064315
 20
197.098652626247
 30
0.0
 11
141.8594093064315
 21
202.387980773708
 31
0.0
  0
LINE
  5
4C
330
1B
100
AcDbEntity
 67
     1
  8
50-0-CON
100
AcDbLine
 10
272.4487699456857
 20
100.7888032705883
 30
0.0
 11
278.8458837249377
 21
100.7888032705883
 31
0.0
  0
LINE
  5
4D
330
1B
100
AcDbEntity
 67
     1
  8
50-0-CON
100
AcDbLine
 10
140.9770484758805
 20
4.038176281179858
 30
0.0
 11
140.9770484758805
 21
-3.455038652015446
 31
0.0
  0
ENDSEC
  0
SECTION
  2
OBJECTS
  0
DICTIONARY
  5
C
330
0
100
AcDbDictionary
281
     1
  3
ACAD_GROUP
350
D
  3
ACAD_LAYOUT
350
1A
  3
ACAD_MLINESTYLE
350
17
  3
ACAD_PLOTSETTINGS
350
19
  3
ACAD_PLOTSTYLENAME
350
E
  3
AcadDim
350
13D0
  3
AcDbVariableDictionary
350
6AD
  3
DWGPROPS
350
30F
  0
DICTIONARY
  5
D
102
{ACAD_REACTORS
330
C
102
}
330
C
100
AcDbDictionary
281
     1
  0
DICTIONARY
  5
1A
102
{ACAD_REACTORS
330
C
102
}
330
C
100
AcDbDictionary
281
     1
  3
A4
350
1E
  3
Model
350
22
  0
DICTIONARY
  5
17
102
{ACAD_REACTORS
330
C
102
}
330
C
100
AcDbDictionary
281
     1
  3
Standard
350
18
  0
DICTIONARY
  5
19
102
{ACAD_REACTORS
330
C
102
}
330
C
100
AcDbDictionary
281
     1
  0
ACDBDICTIONARYWDFLT
  5
E
102
{ACAD_REACTORS
330
C
102
}
330
C
100
AcDbDictionary
281
     1
  3
Normal
350
F
100
AcDbDictionaryWithDefault
340
F
  0
XRECORD
  5
13D0
102
{ACAD_REACTORS
330
C
102
}
330
C
100
AcDbXrecord
280
     1
 90
   990106
  3

 60
     0
 61
     0
 62
     1
 63
     3
 64
     0
 65
     0
 66
     0
 67
     3
 68
     1
 69
     0
 70
     0
 71
     0
 72
     0
 40
0.0
170
     0
340
0
  0
DICTIONARY
  5
6AD
102
{ACAD_REACTORS
330
C
102
}
330
C
100
AcDbDictionary
281
     1
  3
SORTENTS
350
6AE
  0
XRECORD
  5
30F
102
{ACAD_REACTORS
330
C
102
}
330
C
100
AcDbXrecord
280
     1
  1
DWGPROPS COOKIE
  2

  3

  4

  6

  7

  8

  9

300
=
301
=
302
=
303
=
304
=
305
=
306
=
307
=
308
=
309
=
 40
0.3303803125
 41
2452362.482225463
 42
2452370.969861285
  1

 90
        0
  0
LAYOUT
  5
1E
102
{ACAD_REACTORS
330
1A
102
}
330
1A
100
AcDbPlotSettings
  1

  2
EPSON PM-920C
  4
A4
  6

 40
3.757083177566528
 41
14.7637300491333
 42
3.757080078125
 43
3.757080078125
 44
209.9733276367187
 45
296.9683227539062
 46
0.0
 47
0.0
 48
0.0
 49
0.0
140
0.0
141
0.0
142
1.0
143
1.0
 70
   688
 72
     1
 73
     1
 74
     5
  7
joint.ctb
 75
    16
147
1.0
148
0.0
149
0.0
100
AcDbLayout
  1
A4
 70
     1
 71
     1
 10
-3.757080078125
 20
-3.757083177566528
 11
293.2112426757812
 21
206.2162444591522
 12
0.0
 22
0.0
 32
0.0
 14
-4.400932062405672
 24
-3.459116387827521
 34
-0.0015258207003583
 15
278.8478616361952
 25
202.393946056399
 35
0.0000000349246037
146
0.0
 13
0.0
 23
0.0
 33
0.0
 16
1.0
 26
0.0
 36
0.0
 17
0.0
 27
1.0
 37
0.0
 76
     0
330
1B
331
30
  0
LAYOUT
  5
22
102
{ACAD_REACTORS
330
1A
102
}
330
1A
100
AcDbPlotSettings
  1

  2
EPSON PM-920C
  4
A4
  6

 40
3.757083177566528
 41
14.7637300491333
 42
3.757080078125
 43
3.757080078125
 44
209.9733276367187
 45
296.9683227539062
 46
0.0
 47
0.0
 48
0.0
 49
0.0
140
0.0
141
0.0
142
1.0
143
1.0
 70
 11952
 72
     1
 73
     1
 74
     0
  7

 75
     0
147
1.0
148
-45.64199848979289
149
-84.48806419330498
100
AcDbLayout
  1
Model
 70
     1
 71
     0
 10
0.0
 20
0.0
 11
12.0
 21
9.0
 12
0.0
 22
0.0
 32
0.0
 14
0.0
 24
0.0
 34
0.0
 15
0.0
 25
0.0
 35
0.0
146
0.0
 13
0.0
 23
0.0
 33
0.0
 16
1.0
 26
0.0
 36
0.0
 17
0.0
 27
1.0
 37
0.0
 76
     0
330
1F
  0
MLINESTYLE
  5
18
102
{ACAD_REACTORS
330
17
102
}
330
17
100
AcDbMlineStyle
  2
STANDARD
 70
     0
  3

 62
   256
 51
90.0
 52
90.0
 71
     2
 49
0.5
 62
   256
  6
BYLAYER
 49
-0.5
 62
   256
  6
BYLAYER
  0
ACDBPLACEHOLDER
  5
F
102
{ACAD_REACTORS
330
E
102
}
330
E
  0
DICTIONARYVAR
  5
6AE
102
{ACAD_REACTORS
330
6AD
102
}
330
6AD
100
DictionaryVariables
280
     0
  1
96
  0
ENDSEC
  0
EOF
