  0
SECTION
  2
HEADER
  9
$ACADVER
  1
AC1015
  9
$ACADMAINTVER
 70
     6
  9
$DWGCODEPAGE
  3
ANSI_932
  9
$INSBASE
 10
0.0
 20
0.0
 30
0.0
  9
$EXTMIN
 10
76.81456920148491
 20
-49.88612010072774
 30
-0.00000001
  9
$EXTMAX
 10
617.1541847628746
 20
309.344845755391
 30
0.00000001
  9
$LIMMIN
 10
0.0
 20
0.0
  9
$LIMMAX
 10
420.0
 20
297.0
  9
$ORTHOMODE
 70
     0
  9
$REGENMODE
 70
     1
  9
$FILLMODE
 70
     1
  9
$QTEXTMODE
 70
     0
  9
$MIRRTEXT
 70
     1
  9
$LTSCALE
 40
1.0
  9
$ATTMODE
 70
     1
  9
$TEXTSIZE
 40
5.0
  9
$TRACEWID
 40
1.0
  9
$TEXTSTYLE
  7
OKANO
  9
$CLAYER
  8
構築線
  9
$CELTYPE
  6
ByLayer
  9
$CECOLOR
 62
   256
  9
$CELTSCALE
 40
1.0
  9
$DISPSILH
 70
     0
  9
$DIMSCALE
 40
0.0
  9
$DIMASZ
 40
3.0
  9
$DIMEXO
 40
2.0
  9
$DIMDLI
 40
8.0
  9
$DIMRND
 40
0.0
  9
$DIMDLE
 40
0.0
  9
$DIMEXE
 40
3.0
  9
$DIMTP
 40
0.0
  9
$DIMTM
 40
0.0
  9
$DIMTXT
 40
5.0
  9
$DIMCEN
 40
2.5
  9
$DIMTSZ
 40
0.0
  9
$DIMTOL
 70
     0
  9
$DIMLIM
 70
     0
  9
$DIMTIH
 70
     0
  9
$DIMTOH
 70
     0
  9
$DIMSE1
 70
     0
  9
$DIMSE2
 70
     0
  9
$DIMTAD
 70
     1
  9
$DIMZIN
 70
     8
  9
$DIMBLK
  1
Closed
  9
$DIMASO
 70
     1
  9
$DIMSHO
 70
     1
  9
$DIMPOST
  1

  9
$DIMAPOST
  1

  9
$DIMALT
 70
     0
  9
$DIMALTD
 70
     3
  9
$DIMALTF
 40
0.03937007874016
  9
$DIMLFAC
 40
1.0
  9
$DIMTOFL
 70
     1
  9
$DIMTVP
 40
0.0
  9
$DIMTIX
 70
     0
  9
$DIMSOXD
 70
     0
  9
$DIMSAH
 70
     0
  9
$DIMBLK1
  1

  9
$DIMBLK2
  1

  9
$DIMSTYLE
  2
sunpo
  9
$DIMCLRD
 70
     0
  9
$DIMCLRE
 70
     0
  9
$DIMCLRT
 70
     0
  9
$DIMTFAC
 40
1.0
  9
$DIMGAP
 40
1.0
  9
$DIMJUST
 70
     0
  9
$DIMSD1
 70
     0
  9
$DIMSD2
 70
     0
  9
$DIMTOLJ
 70
     0
  9
$DIMTZIN
 70
     8
  9
$DIMALTZ
 70
     0
  9
$DIMALTTZ
 70
     0
  9
$DIMUPT
 70
     0
  9
$DIMDEC
 70
     2
  9
$DIMTDEC
 70
     2
  9
$DIMALTU
 70
     2
  9
$DIMALTTD
 70
     3
  9
$DIMTXSTY
  7
OKANO
  9
$DIMAUNIT
 70
     0
  9
$DIMADEC
 70
     0
  9
$DIMALTRND
 40
0.0
  9
$DIMAZIN
 70
     0
  9
$DIMDSEP
 70
    46
  9
$DIMATFIT
 70
     3
  9
$DIMFRAC
 70
     0
  9
$DIMLDRBLK
  1
Closed
  9
$DIMLUNIT
 70
     2
  9
$DIMLWD
 70
    -2
  9
$DIMLWE
 70
    -2
  9
$DIMTMOVE
 70
     0
  9
$LUNITS
 70
     2
  9
$LUPREC
 70
     2
  9
$SKETCHINC
 40
1.0
  9
$FILLETRAD
 40
1.0
  9
$AUNITS
 70
     0
  9
$AUPREC
 70
     0
  9
$MENU
  1
.
  9
$ELEVATION
 40
0.0
  9
$PELEVATION
 40
0.0
  9
$THICKNESS
 40
0.0
  9
$LIMCHECK
 70
     0
  9
$CHAMFERA
 40
10.0
  9
$CHAMFERB
 40
10.0
  9
$CHAMFERC
 40
20.0
  9
$CHAMFERD
 40
0.0
  9
$SKPOLY
 70
     0
  9
$TDCREATE
 40
2452362.482225463
  9
$TDUCREATE
 40
2452362.107225463
  9
$TDUPDATE
 40
2455968.419361794
  9
$TDUUPDATE
 40
2455968.044361794
  9
$TDINDWG
 40
2.6532884144
  9
$TDUSRTIMER
 40
2.6532884144
  9
$USRTIMER
 70
     1
  9
$ANGBASE
 50
0.0
  9
$ANGDIR
 70
     0
  9
$PDMODE
 70
     0
  9
$PDSIZE
 40
0.0
  9
$PLINEWID
 40
0.0
  9
$SPLFRAME
 70
     0
  9
$SPLINETYPE
 70
     6
  9
$SPLINESEGS
 70
     8
  9
$HANDSEED
  5
375A
  9
$SURFTAB1
 70
     6
  9
$SURFTAB2
 70
     6
  9
$SURFTYPE
 70
     6
  9
$SURFU
 70
     6
  9
$SURFV
 70
     6
  9
$UCSBASE
  2

  9
$UCSNAME
  2

  9
$UCSORG
 10
0.0
 20
0.0
 30
0.0
  9
$UCSXDIR
 10
1.0
 20
0.0
 30
0.0
  9
$UCSYDIR
 10
0.0
 20
1.0
 30
0.0
  9
$UCSORTHOREF
  2

  9
$UCSORTHOVIEW
 70
     0
  9
$UCSORGTOP
 10
0.0
 20
0.0
 30
0.0
  9
$UCSORGBOTTOM
 10
0.0
 20
0.0
 30
0.0
  9
$UCSORGLEFT
 10
0.0
 20
0.0
 30
0.0
  9
$UCSORGRIGHT
 10
0.0
 20
0.0
 30
0.0
  9
$UCSORGFRONT
 10
0.0
 20
0.0
 30
0.0
  9
$UCSORGBACK
 10
0.0
 20
0.0
 30
0.0
  9
$PUCSBASE
  2

  9
$PUCSNAME
  2

  9
$PUCSORG
 10
0.0
 20
0.0
 30
0.0
  9
$PUCSXDIR
 10
1.0
 20
0.0
 30
0.0
  9
$PUCSYDIR
 10
0.0
 20
1.0
 30
0.0
  9
$PUCSORTHOREF
  2

  9
$PUCSORTHOVIEW
 70
     0
  9
$PUCSORGTOP
 10
0.0
 20
0.0
 30
0.0
  9
$PUCSORGBOTTOM
 10
0.0
 20
0.0
 30
0.0
  9
$PUCSORGLEFT
 10
0.0
 20
0.0
 30
0.0
  9
$PUCSORGRIGHT
 10
0.0
 20
0.0
 30
0.0
  9
$PUCSORGFRONT
 10
0.0
 20
0.0
 30
0.0
  9
$PUCSORGBACK
 10
0.0
 20
0.0
 30
0.0
  9
$USERI1
 70
     0
  9
$USERI2
 70
     0
  9
$USERI3
 70
     0
  9
$USERI4
 70
     0
  9
$USERI5
 70
     0
  9
$USERR1
 40
0.0
  9
$USERR2
 40
0.0
  9
$USERR3
 40
0.0
  9
$USERR4
 40
0.0
  9
$USERR5
 40
0.0
  9
$WORLDVIEW
 70
     1
  9
$SHADEDGE
 70
     3
  9
$SHADEDIF
 70
    70
  9
$TILEMODE
 70
     0
  9
$MAXACTVP
 70
    64
  9
$PINSBASE
 10
0.0
 20
0.0
 30
0.0
  9
$PLIMCHECK
 70
     0
  9
$PEXTMIN
 10
-4.391850629656119
 20
-3.455038652015446
 30
0.0
  9
$PEXTMAX
 10
278.8458837249377
 20
202.387980773708
 30
0.0
  9
$PLIMMIN
 10
-3.757080078125
 20
-3.757083177566528
  9
$PLIMMAX
 10
293.2112426757812
 20
206.2162444591522
  9
$UNITMODE
 70
     0
  9
$VISRETAIN
 70
     1
  9
$PLINEGEN
 70
     0
  9
$PSLTSCALE
 70
     1
  9
$TREEDEPTH
 70
  3020
  9
$CMLSTYLE
  2
Standard
  9
$CMLJUST
 70
     0
  9
$CMLSCALE
 40
20.0
  9
$PROXYGRAPHICS
 70
     1
  9
$MEASUREMENT
 70
     1
  9
$CELWEIGHT
370
    -1
  9
$ENDCAPS
280
     0
  9
$JOINSTYLE
280
     0
  9
$LWDISPLAY
290
     0
  9
$INSUNITS
 70
     4
  9
$HYPERLINKBASE
  1

  9
$STYLESHEET
  1

  9
$XEDIT
290
     1
  9
$CEPSNTYPE
380
     0
  9
$PSTYLEMODE
290
     1
  9
$FINGERPRINTGUID
  2
{FF7F33C3-4233-11D6-AEE0-0000F45FD7F4}
  9
$VERSIONGUID
  2
{49CC2686-F45B-4301-AD83-FE24A66E50C3}
  9
$EXTNAMES
290
     1
  9
$PSVPSCALE
 40
0.0
  9
$OLESTARTUP
290
     0
  0
ENDSEC
  0
SECTION
  2
CLASSES
  0
CLASS
  1
ACDBDICTIONARYWDFLT
  2
AcDbDictionaryWithDefault
  3
AutoCAD 2000
 90
        0
280
     0
281
     0
  0
CLASS
  1
ACDBPLACEHOLDER
  2
AcDbPlaceHolder
  3
AutoCAD 2000
 90
        0
280
     0
281
     0
  0
CLASS
  1
LAYOUT
  2
AcDbLayout
  3
AutoCAD 2000
 90
        0
280
     0
281
     0
  0
CLASS
  1
DICTIONARYVAR
  2
AcDbDictionaryVar
  3
AutoCAD 2000
 90
        0
280
     0
281
     0
  0
ENDSEC
  0
SECTION
  2
TABLES
  0
TABLE
  2
VPORT
  5
8
330
0
100
AcDbSymbolTable
 70
     4
  0
VPORT
  5
3759
330
8
100
AcDbSymbolTableRecord
100
AcDbViewportTableRecord
  2
*Active
 70
     0
 10
0.0
 20
0.0
 11
1.0
 21
1.0
 12
361.3968081423824
 22
246.7217101712571
 13
0.0
 23
0.0
 14
5.0
 24
5.0
 15
10.0
 25
10.0
 16
0.0
 26
0.0
 36
1.0
 17
0.0
 27
0.0
 37
0.0
 40
1176.595358512165
 41
1.968879668049792
 42
50.0
 43
0.0
 44
0.0
 50
0.0
 51
0.0
 71
     0
 72
   100
 73
     1
 74
     3
 75
     0
 76
     0
 77
     0
 78
     0
281
     0
 65
     1
110
0.0
120
0.0
130
0.0
111
1.0
121
0.0
131
0.0
112
0.0
122
1.0
132
0.0
 79
     0
146
0.0
  0
ENDTAB
  0
TABLE
  2
LTYPE
  5
5
330
0
100
AcDbSymbolTable
 70
     5
  0
LTYPE
  5
14
330
5
100
AcDbSymbolTableRecord
100
AcDbLinetypeTableRecord
  2
ByBlock
 70
     0
  3

 72
    65
 73
     0
 40
0.0
  0
LTYPE
  5
15
330
5
100
AcDbSymbolTableRecord
100
AcDbLinetypeTableRecord
  2
ByLayer
 70
     0
  3

 72
    65
 73
     0
 40
0.0
  0
LTYPE
  5
16
330
5
100
AcDbSymbolTableRecord
100
AcDbLinetypeTableRecord
  2
Continuous
 70
     0
  3
Solid line
 72
    65
 73
     0
 40
0.0
  0
LTYPE
  5
33
330
5
100
AcDbSymbolTableRecord
100
AcDbLinetypeTableRecord
  2
DASHED2
 70
     0
  3
Dashed (.5x) _ _ _ _ _ _ _ _ _ _ _ _ _ _ _ _ _
 72
    65
 73
     2
 40
9.524999999999998
 49
6.349999999999999
 74
     0
 49
-3.174999999999999
 74
     0
  0
LTYPE
  5
34
330
5
100
AcDbSymbolTableRecord
100
AcDbLinetypeTableRecord
  2
CENTER2
 70
     0
  3
Center (.5x) ___ _ ___ _ ___ _ ___ _ ___ _ ___
 72
    65
 73
     4
 40
28.57499999999999
 49
19.05
 74
     0
 49
-3.174999999999999
 74
     0
 49
3.174999999999999
 74
     0
 49
-3.174999999999999
 74
     0
  0
LTYPE
  5
35
330
5
100
AcDbSymbolTableRecord
100
AcDbLinetypeTableRecord
  2
PHANTOM2
 70
     0
  3
Phantom (.5x) ___ _ _ ___ _ _ ___ _ _ ___ _ _
 72
    65
 73
     6
 40
31.75
 49
15.875
 74
     0
 49
-3.174999999999999
 74
     0
 49
3.174999999999999
 74
     0
 49
-3.174999999999999
 74
     0
 49
3.174999999999999
 74
     0
 49
-3.174999999999999
 74
     0
  0
LTYPE
  5
36
330
5
100
AcDbSymbolTableRecord
100
AcDbLinetypeTableRecord
  2
HIDDEN2
 70
     0
  3
Hidden (.5x) _ _ _ _ _ _ _ _ _ _ _ _ _ _ _ _ _
 72
    65
 73
     2
 40
4.762499999999999
 49
3.174999999999999
 74
     0
 49
-1.587499999999999
 74
     0
  0
ENDTAB
  0
TABLE
  2
LAYER
  5
2
330
0
100
AcDbSymbolTable
 70
    13
  0
LAYER
  5
10
330
2
100
AcDbSymbolTableRecord
100
AcDbLayerTableRecord
  2
0
 70
     0
 62
     7
  6
Continuous
370
    -3
390
F
  0
LAYER
  5
40
330
2
100
AcDbSymbolTableRecord
100
AcDbLayerTableRecord
  2
50-0-CON
 70
     0
 62
     4
  6
Continuous
370
    50
390
F
  0
LAYER
  5
41
330
2
100
AcDbSymbolTableRecord
100
AcDbLayerTableRecord
  2
70-0-CON
 70
     0
 62
   202
  6
Continuous
370
    70
390
F
  0
LAYER
  5
4E
330
2
100
AcDbSymbolTableRecord
100
AcDbLayerTableRecord
  2
極太線
 70
     0
 62
     7
  6
Continuous
370
    70
390
F
  0
LAYER
  5
4F
330
2
100
AcDbSymbolTableRecord
100
AcDbLayerTableRecord
  2
細線
 70
     0
 62
     8
  6
Continuous
370
    18
390
F
  0
LAYER
  5
AB
330
2
100
AcDbSymbolTableRecord
100
AcDbLayerTableRecord
  2
構築線
 70
     0
 62
     2
  6
Continuous
290
     0
370
    18
390
F
  0
LAYER
  5
B8
330
2
100
AcDbSymbolTableRecord
100
AcDbLayerTableRecord
  2
太線
 70
     0
 62
     7
  6
Continuous
370
    35
390
F
  0
LAYER
  5
B9
330
2
100
AcDbSymbolTableRecord
100
AcDbLayerTableRecord
  2
寸法線
 70
     0
 62
     5
  6
Continuous
370
    18
390
F
  0
LAYER
  5
BA
330
2
100
AcDbSymbolTableRecord
100
AcDbLayerTableRecord
  2
破線
 70
     0
 62
     8
  6
HIDDEN2
370
    18
390
F
  0
LAYER
  5
BB
330
2
100
AcDbSymbolTableRecord
100
AcDbLayerTableRecord
  2
中心線
 70
     0
 62
     1
  6
CENTER2
370
    18
390
F
  0
LAYER
  5
BC
330
2
100
AcDbSymbolTableRecord
100
AcDbLayerTableRecord
  2
想像線
 70
     0
 62
     8
  6
PHANTOM2
370
    18
390
F
  0
LAYER
  5
BD
330
2
100
AcDbSymbolTableRecord
100
AcDbLayerTableRecord
  2
文字
 70
     0
 62
     7
  6
Continuous
370
    18
390
F
  0
LAYER
  5
180
330
2
100
AcDbSymbolTableRecord
100
AcDbLayerTableRecord
  2
Defpoints
 70
     0
 62
     7
  6
Continuous
290
     0
370
    -3
390
F
  0
ENDTAB
  0
TABLE
  2
STYLE
  5
3
330
0
100
AcDbSymbolTable
 70
     3
  0
STYLE
  5
11
330
3
100
AcDbSymbolTableRecord
100
AcDbTextStyleTableRecord
  2
Standard
 70
     0
 40
0.0
 41
1.0
 50
0.0
 71
     0
 42
3.0
  3
txt
  4

  0
STYLE
  5
32
330
3
100
AcDbSymbolTableRecord
100
AcDbTextStyleTableRecord
  2

 70
     1
 40
0.0
 41
1.0
 50
0.0
 71
     0
 42
2.5
  3
ltypeshp.shx
  4

  0
STYLE
  5
50
330
3
100
AcDbSymbolTableRecord
100
AcDbTextStyleTableRecord
  2
OKANO
 70
     0
 40
0.0
 41
1.0
 50
15.0
 71
     0
 42
5.0
  3
isocp.shx
  4
bigfont.shx
  0
ENDTAB
  0
TABLE
  2
VIEW
  5
6
330
0
100
AcDbSymbolTable
 70
     0
  0
ENDTAB
  0
TABLE
  2
UCS
  5
7
330
0
100
AcDbSymbolTable
 70
     0
  0
ENDTAB
  0
TABLE
  2
APPID
  5
9
330
0
100
AcDbSymbolTable
 70
     1
  0
APPID
  5
12
330
9
100
AcDbSymbolTableRecord
100
AcDbRegAppTableRecord
  2
ACAD
 70
     0
  0
ENDTAB
  0
TABLE
  2
DIMSTYLE
  5
A
330
0
100
AcDbSymbolTable
 70
     2
100
AcDbDimStyleTable
 71
     2
340
A2
340
27
  0
DIMSTYLE
105
27
330
A
100
AcDbSymbolTableRecord
100
AcDbDimStyleTableRecord
  2
ISO-25
 70
     0
 41
2.5
 42
0.625
 43
3.75
 44
1.25
 73
     0
 74
     0
 77
     1
 78
     8
140
2.5
141
2.5
143
0.03937007874016
147
0.625
171
     3
172
     1
271
     2
272
     2
274
     3
283
     0
284
     8
340
11
  0
DIMSTYLE
105
A2
102
{ACAD_REACTORS
330
33C2
330
33CF
330
33DC
330
33E9
330
35EC
330
3649
330
36FF
330
370C
330
36AF
330
36A2
330
3695
330
3688
330
36D7
102
}
330
A
100
AcDbSymbolTableRecord
100
AcDbDimStyleTableRecord
  2
sunpo
 70
     0
 40
0.0
 41
3.0
 42
2.0
 43
8.0
 44
3.0
 73
     0
 74
     0
 77
     1
 78
     8
140
5.0
141
2.5
143
0.03937007874016
147
1.0
171
     3
172
     1
271
     2
272
     2
274
     3
283
     0
284
     8
340
50
341
9B
342
9B
  0
ENDTAB
  0
TABLE
  2
BLOCK_RECORD
  5
1
330
0
100
AcDbSymbolTable
 70
    15
  0
BLOCK_RECORD
  5
1F
330
1
100
AcDbSymbolTableRecord
100
AcDbBlockTableRecord
  2
*Model_Space
340
22
  0
BLOCK_RECORD
  5
1B
330
1
100
AcDbSymbolTableRecord
100
AcDbBlockTableRecord
  2
*Paper_Space
340
1E
  0
BLOCK_RECORD
  5
9B
330
1
100
AcDbSymbolTableRecord
100
AcDbBlockTableRecord
  2
_Closed
340
0
102
{BLKREFS
331
3499
331
349A
331
34AB
331
34AC
331
34B4
331
34B5
331
34D6
331
34D7
331
368B
331
368C
331
3698
331
3699
331
36A5
331
36A6
331
36B2
331
36B3
331
36E7
331
36E8
331
3728
331
3729
331
372F
331
3730
331
3739
331
373A
331
3744
331
3745
102
}
  0
BLOCK_RECORD
  5
1510
330
1
100
AcDbSymbolTableRecord
100
AcDbBlockTableRecord
  2
A$C10A573AC
340
0
  0
BLOCK_RECORD
  5
33C3
330
1
100
AcDbSymbolTableRecord
100
AcDbBlockTableRecord
  2
*D2
340
0
  0
BLOCK_RECORD
  5
33D0
330
1
100
AcDbSymbolTableRecord
100
AcDbBlockTableRecord
  2
*D3
340
0
  0
BLOCK_RECORD
  5
33DD
330
1
100
AcDbSymbolTableRecord
100
AcDbBlockTableRecord
  2
*D4
340
0
  0
BLOCK_RECORD
  5
33EA
330
1
100
AcDbSymbolTableRecord
100
AcDbBlockTableRecord
  2
*D5
340
0
  0
BLOCK_RECORD
  5
35ED
330
1
100
AcDbSymbolTableRecord
100
AcDbBlockTableRecord
  2
*D6
340
0
  0
BLOCK_RECORD
  5
364A
330
1
100
AcDbSymbolTableRecord
100
AcDbBlockTableRecord
  2
*D7
340
0
  0
BLOCK_RECORD
  5
3689
330
1
100
AcDbSymbolTableRecord
100
AcDbBlockTableRecord
  2
*D8
340
0
  0
BLOCK_RECORD
  5
3696
330
1
100
AcDbSymbolTableRecord
100
AcDbBlockTableRecord
  2
*D9
340
0
  0
BLOCK_RECORD
  5
36A3
330
1
100
AcDbSymbolTableRecord
100
AcDbBlockTableRecord
  2
*D10
340
0
  0
BLOCK_RECORD
  5
36B0
330
1
100
AcDbSymbolTableRecord
100
AcDbBlockTableRecord
  2
*D11
340
0
  0
BLOCK_RECORD
  5
36D8
330
1
100
AcDbSymbolTableRecord
100
AcDbBlockTableRecord
  2
*D12
340
0
  0
BLOCK_RECORD
  5
3700
330
1
100
AcDbSymbolTableRecord
100
AcDbBlockTableRecord
  2
*D13
340
0
  0
BLOCK_RECORD
  5
370D
330
1
100
AcDbSymbolTableRecord
100
AcDbBlockTableRecord
  2
*D14
340
0
  0
ENDTAB
  0
ENDSEC
  0
SECTION
  2
BLOCKS
  0
BLOCK
  5
20
330
1F
100
AcDbEntity
  8
0
100
AcDbBlockBegin
  2
*Model_Space
 70
     0
 10
0.0
 20
0.0
 30
0.0
  3
*Model_Space
  1

  0
ENDBLK
  5
21
330
1F
100
AcDbEntity
  8
0
100
AcDbBlockEnd
  0
BLOCK
  5
1C
330
1B
100
AcDbEntity
 67
     1
  8
0
100
AcDbBlockBegin
  2
*Paper_Space
 70
     0
 10
0.0
 20
0.0
 30
0.0
  3
*Paper_Space
  1

  0
ENDBLK
  5
1D
330
1B
100
AcDbEntity
 67
     1
  8
0
100
AcDbBlockEnd
  0
BLOCK
  5
A0
330
9B
100
AcDbEntity
  8
0
100
AcDbBlockBegin
  2
_Closed
 70
     0
 10
0.0
 20
0.0
 30
0.0
  3
_Closed
  1

  0
LINE
  5
9C
330
9B
100
AcDbEntity
  8
0
 62
     0
370
    -2
100
AcDbLine
 10
-1.0
 20
0.1666666666666666
 30
0.0
 11
0.0
 21
0.0
 31
0.0
  0
LINE
  5
9D
330
9B
100
AcDbEntity
  8
0
 62
     0
370
    -2
100
AcDbLine
 10
0.0
 20
0.0
 30
0.0
 11
-1.0
 21
-0.1666666666666666
 31
0.0
  0
LINE
  5
9E
330
9B
100
AcDbEntity
  8
0
 62
     0
370
    -2
100
AcDbLine
 10
-1.0
 20
0.1666666666666666
 30
0.0
 11
-1.0
 21
-0.1666666666666666
 31
0.0
  0
LINE
  5
9F
330
9B
100
AcDbEntity
  8
0
 62
     0
370
    -2
100
AcDbLine
 10
0.0
 20
0.0
 30
0.0
 11
-1.0
 21
0.0
 31
0.0
  0
ENDBLK
  5
A1
330
9B
100
AcDbEntity
  8
0
100
AcDbBlockEnd
  0
BLOCK
  5
155B
330
1510
100
AcDbEntity
  8
0
100
AcDbBlockBegin
  2
A$C10A573AC
 70
     0
 10
0.0
 20
0.0
 30
0.0
  3
A$C10A573AC
  1

  0
TEXT
  5
1511
330
1510
100
AcDbEntity
  8
文字
100
AcDbText
 10
0.9844302777919438
 20
5.224957122252135
 30
0.0
 40
3.0
  1
Materal : Steel.
 51
15.0
  7
OKANO
100
AcDbText
  0
TEXT
  5
1512
330
1510
100
AcDbEntity
  8
文字
100
AcDbText
 10
-0.1141909619694843
 20
0.7500001922403499
 30
0.0
 40
3.0
  1
Surface treatment : Electro galvanized.
 51
15.0
  7
OKANO
100
AcDbText
  0
TEXT
  5
1513
330
1510
100
AcDbEntity
  8
文字
100
AcDbText
 10
-0.4901926332574931
 20
9.159967445193728
 30
0.0
 40
3.0
  1
5 TORGUE SCREW  M5-6
 51
15.0
  7
OKANO
100
AcDbText
  0
TEXT
  5
1514
330
1510
100
AcDbEntity
  8
文字
100
AcDbText
 10
1.364713526390005
 20
78.88822913323082
 30
0.0
 40
3.0
  1
Special standard,
 51
15.0
  7
OKANO
100
AcDbText
  0
TEXT
  5
1515
330
1510
100
AcDbEntity
  8
文字
100
AcDbText
 10
92.88160823408942
 20
89.92753849837379
 30
0.0
 40
3.0
  1
Screw Type
 51
15.0
  7
OKANO
100
AcDbText
  0
LINE
  5
1516
330
1510
100
AcDbEntity
  8
太線
100
AcDbLine
 10
113.9464587597784
 20
81.93930390144641
 30
0.0
 11
112.4464587597784
 21
81.93930390144641
 31
0.0
  0
LINE
  5
1517
330
1510
100
AcDbEntity
  8
太線
100
AcDbLine
 10
112.4464587597784
 20
76.9393039014464
 30
0.0
 11
121.4644995438761
 21
76.9393039014464
 31
0.0
  0
TEXT
  5
1518
330
1510
100
AcDbEntity
  8
文字
100
AcDbText
 10
93.46068240437217
 20
77.96976862235396
 30
0.0
 40
2.0
  1
17-30
 51
15.0
  7
OKANO
100
AcDbText
  0
LINE
  5
1519
330
1510
100
AcDbEntity
  8
太線
100
AcDbLine
 10
111.9464587597784
 20
81.43930390144641
 30
0.0
 11
111.9464587597784
 21
77.4393039014464
 31
0.0
  0
LINE
  5
151A
330
1510
100
AcDbEntity
  8
太線
100
AcDbLine
 10
91.94645875977846
 20
81.43930390144641
 30
0.0
 11
91.94645875977846
 21
77.43930390144639
 31
0.0
  0
LINE
  5
151B
330
1510
100
AcDbEntity
  8
太線
100
AcDbLine
 10
101.9644995438761
 20
77.4393039014464
 30
0.0
 11
101.9644995438761
 21
81.43930390144641
 31
0.0
  0
LINE
  5
151C
330
1510
100
AcDbEntity
  8
太線
100
AcDbLine
 10
92.44645875977846
 20
76.9393039014464
 30
0.0
 11
101.4644995438761
 21
76.9393039014464
 31
0.0
  0
ARC
  5
151D
330
1510
100
AcDbEntity
  8
太線
100
AcDbCircle
 10
92.44645875977846
 20
77.43930390144639
 30
0.0
 40
0.5
100
AcDbArc
 50
180.0
 51
270.0
  0
ARC
  5
151E
330
1510
100
AcDbEntity
  8
太線
100
AcDbCircle
 10
101.4644995438761
 20
77.4393039014464
 30
0.0
 40
0.5
100
AcDbArc
 50
270.0
 51
0.0
  0
ARC
  5
151F
330
1510
100
AcDbEntity
  8
太線
100
AcDbCircle
 10
112.4464587597784
 20
77.4393039014464
 30
0.0
 40
0.5
100
AcDbArc
 50
180.0
 51
270.0
  0
LINE
  5
1520
330
1510
100
AcDbEntity
  8
想像線
100
AcDbLine
 10
93.94645875977847
 20
81.93930390144641
 30
0.0
 11
99.96449954387617
 21
81.93930390144641
 31
0.0
  0
LINE
  5
1521
330
1510
100
AcDbEntity
  8
極太線
100
AcDbLine
 10
96.38762957111168
 20
85.43930390144641
 30
0.0
 11
97.50528794844525
 21
85.43930390144641
 31
0.0
  0
CIRCLE
  5
1522
330
1510
100
AcDbEntity
  8
太線
100
AcDbCircle
 10
96.94645875977847
 20
85.43930390144641
 30
0.0
 40
0.5588291886667776
  0
LINE
  5
1523
330
1510
100
AcDbEntity
  8
太線
100
AcDbLine
 10
99.46449954387617
 20
86.93930390144641
 30
0.0
 11
94.44645875977846
 21
86.93930390144641
 31
0.0
  0
LINE
  5
1524
330
1510
100
AcDbEntity
  8
太線
100
AcDbLine
 10
93.94645875977847
 20
86.43930390144641
 30
0.0
 11
93.94645875977847
 21
81.93930390144641
 31
0.0
  0
ARC
  5
1525
330
1510
100
AcDbEntity
  8
太線
100
AcDbCircle
 10
92.44645875977846
 20
81.43930390144641
 30
0.0
 40
0.5
100
AcDbArc
 50
90.0
 51
180.0
  0
LINE
  5
1526
330
1510
100
AcDbEntity
  8
太線
100
AcDbLine
 10
93.94645875977847
 20
81.93930390144641
 30
0.0
 11
92.44645875977846
 21
81.93930390144641
 31
0.0
  0
ARC
  5
1527
330
1510
100
AcDbEntity
  8
太線
100
AcDbCircle
 10
94.44645875977846
 20
86.43930390144641
 30
0.0
 40
0.5
100
AcDbArc
 50
90.0
 51
180.0
  0
LINE
  5
1528
330
1510
100
AcDbEntity
  8
太線
100
AcDbLine
 10
99.96449954387617
 20
81.93930390144641
 30
0.0
 11
99.96449954387617
 21
86.43930390144641
 31
0.0
  0
LINE
  5
1529
330
1510
100
AcDbEntity
  8
太線
100
AcDbLine
 10
101.4644995438761
 20
81.93930390144641
 30
0.0
 11
99.96449954387617
 21
81.93930390144641
 31
0.0
  0
ARC
  5
152A
330
1510
100
AcDbEntity
  8
太線
100
AcDbCircle
 10
101.4644995438761
 20
81.43930390144641
 30
0.0
 40
0.5
100
AcDbArc
 50
0.0
 51
90.0
  0
ARC
  5
152B
330
1510
100
AcDbEntity
  8
太線
100
AcDbCircle
 10
99.46449954387617
 20
86.43930390144641
 30
0.0
 40
0.5
100
AcDbArc
 50
0.0
 51
90.0
  0
LINE
  5
152C
330
1510
100
AcDbEntity
  8
極太線
100
AcDbLine
 10
96.94645875977847
 20
85.99813309011318
 30
0.0
 11
96.94645875977847
 21
84.88047471277964
 31
0.0
  0
ARC
  5
152D
330
1510
100
AcDbEntity
  8
太線
100
AcDbCircle
 10
112.4464587597784
 20
81.43930390144641
 30
0.0
 40
0.5
100
AcDbArc
 50
90.0
 51
180.0
  0
TEXT
  5
152E
330
1510
100
AcDbEntity
  8
文字
100
AcDbText
 10
134.3819212586066
 20
78.16263579228063
 30
0.0
 40
2.0
  1
101
 51
15.0
  7
OKANO
100
AcDbText
  0
TEXT
  5
152F
330
1510
100
AcDbEntity
  8
文字
100
AcDbText
 10
113.3422276612066
 20
77.96976862235396
 30
0.0
 40
2.0
  1
38-83
 51
15.0
  7
OKANO
100
AcDbText
  0
LINE
  5
1530
330
1510
100
AcDbEntity
  8
太線
100
AcDbLine
 10
141.9825403279738
 20
77.4393039014464
 30
0.0
 11
141.9825403279738
 21
81.43930390144641
 31
0.0
  0
LINE
  5
1531
330
1510
100
AcDbEntity
  8
太線
100
AcDbLine
 10
131.9644995438761
 20
81.43930390144641
 30
0.0
 11
131.9644995438761
 21
77.4393039014464
 31
0.0
  0
LINE
  5
1532
330
1510
100
AcDbEntity
  8
太線
100
AcDbLine
 10
121.9644995438761
 20
77.4393039014464
 30
0.0
 11
121.9644995438761
 21
81.43930390144641
 31
0.0
  0
ARC
  5
1533
330
1510
100
AcDbEntity
  8
太線
100
AcDbCircle
 10
121.4644995438761
 20
77.4393039014464
 30
0.0
 40
0.5
100
AcDbArc
 50
270.0
 51
0.0
  0
LINE
  5
1534
330
1510
100
AcDbEntity
  8
太線
100
AcDbLine
 10
132.4644995438761
 20
76.9393039014464
 30
0.0
 11
141.4825403279738
 21
76.9393039014464
 31
0.0
  0
ARC
  5
1535
330
1510
100
AcDbEntity
  8
太線
100
AcDbCircle
 10
132.4644995438761
 20
77.4393039014464
 30
0.0
 40
0.5
100
AcDbArc
 50
180.0
 51
270.0
  0
ARC
  5
1536
330
1510
100
AcDbEntity
  8
太線
100
AcDbCircle
 10
141.4825403279738
 20
77.4393039014464
 30
0.0
 40
0.5
100
AcDbArc
 50
270.0
 51
0.0
  0
ARC
  5
1537
330
1510
100
AcDbEntity
  8
太線
100
AcDbCircle
 10
121.4644995438761
 20
81.43930390144641
 30
0.0
 40
0.5
100
AcDbArc
 50
0.0
 51
90.0
  0
LINE
  5
1538
330
1510
100
AcDbEntity
  8
太線
100
AcDbLine
 10
119.9644995438761
 20
81.93930390144641
 30
0.0
 11
119.9644995438761
 21
86.43930390144641
 31
0.0
  0
LINE
  5
1539
330
1510
100
AcDbEntity
  8
太線
100
AcDbLine
 10
113.9464587597784
 20
86.43930390144641
 30
0.0
 11
113.9464587597784
 21
81.93930390144641
 31
0.0
  0
LINE
  5
153A
330
1510
100
AcDbEntity
  8
想像線
100
AcDbLine
 10
113.9464587597784
 20
81.93930390144641
 30
0.0
 11
119.9644995438761
 21
81.93930390144641
 31
0.0
  0
LINE
  5
153B
330
1510
100
AcDbEntity
  8
太線
100
AcDbLine
 10
121.4644995438761
 20
81.93930390144641
 30
0.0
 11
119.9644995438761
 21
81.93930390144641
 31
0.0
  0
LINE
  5
153C
330
1510
100
AcDbEntity
  8
太線
100
AcDbLine
 10
119.4644995438761
 20
86.93930390144641
 30
0.0
 11
114.4464587597784
 21
86.93930390144641
 31
0.0
  0
ARC
  5
153D
330
1510
100
AcDbEntity
  8
太線
100
AcDbCircle
 10
114.4464587597784
 20
86.43930390144641
 30
0.0
 40
0.5
100
AcDbArc
 50
90.0
 51
180.0
  0
CIRCLE
  5
153E
330
1510
100
AcDbEntity
  8
太線
100
AcDbCircle
 10
115.4464587597784
 20
85.43930390144641
 30
0.0
 40
0.5588291886667776
  0
LINE
  5
153F
330
1510
100
AcDbEntity
  8
極太線
100
AcDbLine
 10
115.4464587597784
 20
85.99813309011318
 30
0.0
 11
115.4464587597784
 21
84.88047471277964
 31
0.0
  0
LINE
  5
1540
330
1510
100
AcDbEntity
  8
極太線
100
AcDbLine
 10
114.8876295711116
 20
85.43930390144641
 30
0.0
 11
116.0052879484452
 21
85.43930390144641
 31
0.0
  0
ARC
  5
1541
330
1510
100
AcDbEntity
  8
太線
100
AcDbCircle
 10
119.4644995438761
 20
86.43930390144641
 30
0.0
 40
0.5
100
AcDbArc
 50
0.0
 51
90.0
  0
LINE
  5
1542
330
1510
100
AcDbEntity
  8
極太線
100
AcDbLine
 10
117.9056703552094
 20
85.43930390144641
 30
0.0
 11
119.0233287325429
 21
85.43930390144641
 31
0.0
  0
LINE
  5
1543
330
1510
100
AcDbEntity
  8
極太線
100
AcDbLine
 10
118.4644995438761
 20
85.99813309011318
 30
0.0
 11
118.4644995438761
 21
84.88047471277964
 31
0.0
  0
CIRCLE
  5
1544
330
1510
100
AcDbEntity
  8
太線
100
AcDbCircle
 10
118.4644995438761
 20
85.43930390144641
 30
0.0
 40
0.5588291886667776
  0
LINE
  5
1545
330
1510
100
AcDbEntity
  8
想像線
100
AcDbLine
 10
133.9644995438761
 20
81.93930390144641
 30
0.0
 11
139.9825403279738
 21
81.93930390144641
 31
0.0
  0
LINE
  5
1546
330
1510
100
AcDbEntity
  8
極太線
100
AcDbLine
 10
137.9237111393071
 20
85.43930390144641
 30
0.0
 11
139.0413695166406
 21
85.43930390144641
 31
0.0
  0
CIRCLE
  5
1547
330
1510
100
AcDbEntity
  8
太線
100
AcDbCircle
 10
138.4825403279738
 20
85.43930390144641
 30
0.0
 40
0.5588291886667776
  0
CIRCLE
  5
1548
330
1510
100
AcDbEntity
  8
太線
100
AcDbCircle
 10
138.4825403279738
 20
83.26342923362075
 30
0.0
 40
0.5588291886667776
  0
LINE
  5
1549
330
1510
100
AcDbEntity
  8
極太線
100
AcDbLine
 10
137.9237111393071
 20
83.26342923362075
 30
0.0
 11
139.0413695166406
 21
83.26342923362075
 31
0.0
  0
LINE
  5
154A
330
1510
100
AcDbEntity
  8
太線
100
AcDbLine
 10
139.4825403279738
 20
86.93930390144641
 30
0.0
 11
134.4644995438761
 21
86.93930390144641
 31
0.0
  0
LINE
  5
154B
330
1510
100
AcDbEntity
  8
太線
100
AcDbLine
 10
133.9644995438761
 20
86.43930390144641
 30
0.0
 11
133.9644995438761
 21
81.93930390144641
 31
0.0
  0
ARC
  5
154C
330
1510
100
AcDbEntity
  8
太線
100
AcDbCircle
 10
132.4644995438761
 20
81.43930390144641
 30
0.0
 40
0.5
100
AcDbArc
 50
90.0
 51
180.0
  0
LINE
  5
154D
330
1510
100
AcDbEntity
  8
太線
100
AcDbLine
 10
133.9644995438761
 20
81.93930390144641
 30
0.0
 11
132.4644995438761
 21
81.93930390144641
 31
0.0
  0
LINE
  5
154E
330
1510
100
AcDbEntity
  8
極太線
100
AcDbLine
 10
134.9056703552093
 20
83.26342923362075
 30
0.0
 11
136.0233287325429
 21
83.26342923362075
 31
0.0
  0
LINE
  5
154F
330
1510
100
AcDbEntity
  8
極太線
100
AcDbLine
 10
135.4644995438761
 20
83.82225842228752
 30
0.0
 11
135.4644995438761
 21
82.70460004495395
 31
0.0
  0
CIRCLE
  5
1550
330
1510
100
AcDbEntity
  8
太線
100
AcDbCircle
 10
135.4644995438761
 20
83.26342923362075
 30
0.0
 40
0.5588291886667776
  0
ARC
  5
1551
330
1510
100
AcDbEntity
  8
太線
100
AcDbCircle
 10
134.4644995438761
 20
86.43930390144641
 30
0.0
 40
0.5
100
AcDbArc
 50
90.0
 51
180.0
  0
CIRCLE
  5
1552
330
1510
100
AcDbEntity
  8
太線
100
AcDbCircle
 10
135.4644995438761
 20
85.43930390144641
 30
0.0
 40
0.5588291886667776
  0
LINE
  5
1553
330
1510
100
AcDbEntity
  8
極太線
100
AcDbLine
 10
135.4644995438761
 20
85.99813309011318
 30
0.0
 11
135.4644995438761
 21
84.88047471277964
 31
0.0
  0
LINE
  5
1554
330
1510
100
AcDbEntity
  8
極太線
100
AcDbLine
 10
134.9056703552093
 20
85.43930390144641
 30
0.0
 11
136.0233287325429
 21
85.43930390144641
 31
0.0
  0
LINE
  5
1555
330
1510
100
AcDbEntity
  8
太線
100
AcDbLine
 10
139.9825403279738
 20
81.93930390144641
 30
0.0
 11
139.9825403279738
 21
86.43930390144641
 31
0.0
  0
ARC
  5
1556
330
1510
100
AcDbEntity
  8
太線
100
AcDbCircle
 10
141.4825403279738
 20
81.43930390144641
 30
0.0
 40
0.5
100
AcDbArc
 50
0.0
 51
90.0
  0
LINE
  5
1557
330
1510
100
AcDbEntity
  8
極太線
100
AcDbLine
 10
138.4825403279738
 20
83.82225842228752
 30
0.0
 11
138.4825403279738
 21
82.70460004495395
 31
0.0
  0
LINE
  5
1558
330
1510
100
AcDbEntity
  8
太線
100
AcDbLine
 10
141.4825403279738
 20
81.93930390144641
 30
0.0
 11
139.9825403279738
 21
81.93930390144641
 31
0.0
  0
ARC
  5
1559
330
1510
100
AcDbEntity
  8
太線
100
AcDbCircle
 10
139.4825403279738
 20
86.43930390144641
 30
0.0
 40
0.5
100
AcDbArc
 50
0.0
 51
90.0
  0
LINE
  5
155A
330
1510
100
AcDbEntity
  8
極太線
100
AcDbLine
 10
138.4825403279738
 20
85.99813309011318
 30
0.0
 11
138.4825403279738
 21
84.88047471277964
 31
0.0
  0
ENDBLK
  5
155C
330
1510
100
AcDbEntity
  8
0
100
AcDbBlockEnd
  0
BLOCK
  5
33CD
330
33C3
100
AcDbEntity
  8
0
100
AcDbBlockBegin
  2
*D2
 70
     1
 10
0.0
 20
0.0
 30
0.0
  3
*D2
  1

  0
LINE
  5
3496
330
33C3
100
AcDbEntity
  8
寸法線
 62
     0
370
    -2
100
AcDbLine
 10
501.6126100061578
 20
88.4128447996253
 30
0.0
 11
517.386262662
 21
88.4128447996253
 31
0.0
  0
LINE
  5
3497
330
33C3
100
AcDbEntity
  8
寸法線
 62
     0
370
    -2
100
AcDbLine
 10
484.2940385829854
 20
100.4128447996253
 30
0.0
 11
517.386262662
 21
100.4128447996253
 31
0.0
  0
LINE
  5
3498
330
33C3
100
AcDbEntity
  8
寸法線
 62
     0
370
    -2
100
AcDbLine
 10
514.386262662
 20
91.4128447996253
 30
0.0
 11
514.386262662
 21
97.4128447996253
 31
0.0
  0
INSERT
  5
3499
330
33C3
100
AcDbEntity
  8
寸法線
 62
     0
370
    -2
100
AcDbBlockReference
  2
_Closed
 10
514.386262662
 20
88.4128447996253
 30
0.0
 41
3.0
 42
3.0
 43
3.0
 50
270.0
  0
INSERT
  5
349A
330
33C3
100
AcDbEntity
  8
寸法線
 62
     0
370
    -2
100
AcDbBlockReference
  2
_Closed
 10
514.386262662
 20
100.4128447996253
 30
0.0
 41
3.0
 42
3.0
 43
3.0
 50
90.0
  0
MTEXT
  5
349B
330
33C3
100
AcDbEntity
  8
寸法線
 62
     0
100
AcDbMText
 10
510.8857705360158
 20
94.41284479962538
 30
0.0
 40
5.0
 41
0.0
 71
     5
 72
     1
  1
12
  7
OKANO
 11
0.0000000000000001
 21
1.0
 31
0.0
 73
     1
 44
1.0
  0
POINT
  5
349C
330
33C3
100
AcDbEntity
  8
Defpoints
 62
     0
100
AcDbPoint
 10
499.6126100061578
 20
88.4128447996253
 30
0.0
  0
POINT
  5
349D
330
33C3
100
AcDbEntity
  8
Defpoints
 62
     0
100
AcDbPoint
 10
482.2940385829854
 20
100.4128447996253
 30
0.0
  0
POINT
  5
349E
330
33C3
100
AcDbEntity
  8
Defpoints
 62
     0
100
AcDbPoint
 10
514.386262662
 20
100.4128447996253
 30
0.0
  0
ENDBLK
  5
33CE
330
33C3
100
AcDbEntity
  8
0
100
AcDbBlockEnd
  0
BLOCK
  5
33DA
330
33D0
100
AcDbEntity
  8
0
100
AcDbBlockBegin
  2
*D3
 70
     1
 10
0.0
 20
0.0
 30
0.0
  3
*D3
  1

  0
ARC
  5
34D5
330
33D0
100
AcDbEntity
  8
寸法線
 62
     0
370
    -2
100
AcDbCircle
 10
473.1126100061579
 20
258.4128447996253
 30
0.0
 40
47.43366579394076
100
AcDbArc
 50
253.6243456425756
 51
286.3756543574243
  0
INSERT
  5
34D6
330
33D0
100
AcDbEntity
  8
寸法線
 62
     0
370
    -2
100
AcDbBlockReference
  2
_Closed
 10
456.8893408328523
 20
213.8397790762342
 30
0.0
 41
3.0
 42
3.0
 43
3.0
 50
161.8121728212878
  0
INSERT
  5
34D7
330
33D0
100
AcDbEntity
  8
寸法線
 62
     0
370
    -2
100
AcDbBlockReference
  2
_Closed
 10
489.3358791794633
 20
213.8397790762342
 30
0.0
 41
3.0
 42
3.0
 43
3.0
 50
18.18782717871212
  0
MTEXT
  5
34D8
330
33D0
100
AcDbEntity
  8
寸法線
 62
     0
100
AcDbMText
 10
473.1126100061579
 20
214.4791790056845
 30
0.0
 40
5.0
 41
0.0
 71
     5
 72
     1
  1
40°
  7
OKANO
 73
     1
 44
1.0
  0
POINT
  5
34D9
330
33D0
100
AcDbEntity
  8
Defpoints
 62
     0
100
AcDbPoint
 10
467.605897516497
 20
211.2999084847714
 30
0.0
  0
POINT
  5
34DA
330
33D0
100
AcDbEntity
  8
Defpoints
 62
     0
100
AcDbPoint
 10
493.1907673908808
 20
203.2485607608427
 30
0.0
  0
POINT
  5
34DB
330
33D0
100
AcDbEntity
  8
Defpoints
 62
     0
100
AcDbPoint
 10
473.1126100061579
 20
258.4128447996253
 30
0.0
  0
POINT
  5
34DC
330
33D0
100
AcDbEntity
  8
Defpoints
 62
     0
100
AcDbPoint
 10
453.0344526214348
 20
203.2485607608427
 30
0.0
  0
POINT
  5
34DD
330
33D0
100
AcDbEntity
  8
Defpoints
 62
     0
100
AcDbPoint
 10
473.1126100061579
 20
258.4128447996253
 30
0.0
  0
ENDBLK
  5
33DB
330
33D0
100
AcDbEntity
  8
0
100
AcDbBlockEnd
  0
BLOCK
  5
33E7
330
33DD
100
AcDbEntity
  8
0
100
AcDbBlockBegin
  2
*D4
 70
     1
 10
0.0
 20
0.0
 30
0.0
  3
*D4
  1

  0
LINE
  5
34A8
330
33DD
100
AcDbEntity
  8
寸法線
 62
     0
370
    -2
100
AcDbLine
 10
446.3642980123317
 20
259.4386118071171
 30
0.0
 11
446.3642980123317
 21
306.594845755391
 31
0.0
  0
LINE
  5
34A9
330
33DD
100
AcDbEntity
  8
寸法線
 62
     0
370
    -2
100
AcDbLine
 10
499.6650909814412
 20
259.4386118071171
 30
0.0
 11
499.6650909814412
 21
306.594845755391
 31
0.0
  0
LINE
  5
34AA
330
33DD
100
AcDbEntity
  8
寸法線
 62
     0
370
    -2
100
AcDbLine
 10
449.3642980123317
 20
303.594845755391
 30
0.0
 11
496.6650909814411
 21
303.594845755391
 31
0.0
  0
INSERT
  5
34AB
330
33DD
100
AcDbEntity
  8
寸法線
 62
     0
370
    -2
100
AcDbBlockReference
  2
_Closed
 10
446.3642980123317
 20
303.594845755391
 30
0.0
 41
3.0
 42
3.0
 43
3.0
 50
180.0
  0
INSERT
  5
34AC
330
33DD
100
AcDbEntity
  8
寸法線
 62
     0
370
    -2
100
AcDbBlockReference
  2
_Closed
 10
499.6650909814412
 20
303.594845755391
 30
0.0
 41
3.0
 42
3.0
 43
3.0
  0
MTEXT
  5
34AD
330
33DD
100
AcDbEntity
  8
寸法線
 62
     0
100
AcDbMText
 10
473.0146944968864
 20
307.094845755391
 30
0.0
 40
5.0
 41
0.0
 71
     5
 72
     1
  1
54
  7
OKANO
 73
     1
 44
1.0
  0
POINT
  5
34AE
330
33DD
100
AcDbEntity
  8
Defpoints
 62
     0
100
AcDbPoint
 10
446.3642980123317
 20
257.4386118071171
 30
0.0
  0
POINT
  5
34AF
330
33DD
100
AcDbEntity
  8
Defpoints
 62
     0
100
AcDbPoint
 10
499.6650909814412
 20
257.4386118071171
 30
0.0
  0
POINT
  5
34B0
330
33DD
100
AcDbEntity
  8
Defpoints
 62
     0
100
AcDbPoint
 10
499.6650909814412
 20
303.594845755391
 30
0.0
  0
ENDBLK
  5
33E8
330
33DD
100
AcDbEntity
  8
0
100
AcDbBlockEnd
  0
BLOCK
  5
33F4
330
33EA
100
AcDbEntity
  8
0
100
AcDbBlockBegin
  2
*D5
 70
     1
 10
0.0
 20
0.0
 30
0.0
  3
*D5
  1

  0
LINE
  5
34B1
330
33EA
100
AcDbEntity
  8
寸法線
 62
     0
370
    -2
100
AcDbLine
 10
448.8353100509791
 20
260.4469428865032
 30
0.0
 11
448.8353100509791
 21
296.7038996239647
 31
0.0
  0
LINE
  5
34B2
330
33EA
100
AcDbEntity
  8
寸法線
 62
     0
370
    -2
100
AcDbLine
 10
497.2594695838447
 20
260.4469428865032
 30
0.0
 11
497.2594695838447
 21
296.7038996239647
 31
0.0
  0
LINE
  5
34B3
330
33EA
100
AcDbEntity
  8
寸法線
 62
     0
370
    -2
100
AcDbLine
 10
451.8353100509791
 20
293.7038996239647
 30
0.0
 11
494.2594695838447
 21
293.7038996239647
 31
0.0
  0
INSERT
  5
34B4
330
33EA
100
AcDbEntity
  8
寸法線
 62
     0
370
    -2
100
AcDbBlockReference
  2
_Closed
 10
448.8353100509791
 20
293.7038996239647
 30
0.0
 41
3.0
 42
3.0
 43
3.0
 50
180.0
  0
INSERT
  5
34B5
330
33EA
100
AcDbEntity
  8
寸法線
 62
     0
370
    -2
100
AcDbBlockReference
  2
_Closed
 10
497.2594695838447
 20
293.7038996239647
 30
0.0
 41
3.0
 42
3.0
 43
3.0
  0
MTEXT
  5
34B6
330
33EA
100
AcDbEntity
  8
寸法線
 62
     0
100
AcDbMText
 10
473.0473898174119
 20
297.2038996239647
 30
0.0
 40
5.0
 41
0.0
 71
     5
 72
     1
  1
49
  7
OKANO
 73
     1
 44
1.0
  0
POINT
  5
34B7
330
33EA
100
AcDbEntity
  8
Defpoints
 62
     0
100
AcDbPoint
 10
448.8353100509791
 20
258.4469428865032
 30
0.0
  0
POINT
  5
34B8
330
33EA
100
AcDbEntity
  8
Defpoints
 62
     0
100
AcDbPoint
 10
497.2594695838447
 20
258.4469428865032
 30
0.0
  0
POINT
  5
34B9
330
33EA
100
AcDbEntity
  8
Defpoints
 62
     0
100
AcDbPoint
 10
497.2594695838447
 20
293.7038996239647
 30
0.0
  0
ENDBLK
  5
33F5
330
33EA
100
AcDbEntity
  8
0
100
AcDbBlockEnd
  0
BLOCK
  5
35F8
330
35ED
100
AcDbEntity
  8
0
100
AcDbBlockBegin
  2
*D6
 70
     1
 10
0.0
 20
0.0
 30
0.0
  3
*D6
  1

  0
LINE
  5
3737
330
35ED
100
AcDbEntity
  8
寸法線
 62
     0
370
    -2
100
AcDbLine
 10
240.1608219617633
 20
156.6487007058541
 30
0.0
 11
263.350246051827
 21
117.4030286891277
 31
0.0
  0
ARC
  5
3738
330
35ED
100
AcDbEntity
  8
寸法線
 62
     0
370
    -2
100
AcDbCircle
 10
239.1434023702504
 20
158.3705768264869
 30
0.0
 40
44.58477993446154
100
AcDbArc
 50
304.4339475609632
 51
56.71479733725087
  0
INSERT
  5
3739
330
35ED
100
AcDbEntity
  8
寸法線
 62
     0
370
    -2
100
AcDbBlockReference
  2
_Closed
 10
261.8241166645576
 20
119.985842870077
 30
0.0
 41
3.0
 42
3.0
 43
3.0
 50
212.5059378011743
  0
INSERT
  5
373A
330
35ED
100
AcDbEntity
  8
寸法線
 62
     0
370
    -2
100
AcDbBlockReference
  2
_Closed
 10
261.0500196599078
 20
197.2022999498412
 30
0.0
 41
3.0
 42
3.0
 43
3.0
 50
148.6428070970398
  0
MTEXT
  5
373B
330
35ED
100
AcDbEntity
  8
寸法線
 62
     0
100
AcDbMText
 10
287.2262583002391
 20
158.8526087165536
 30
0.0
 40
5.0
 41
0.0
 71
     5
 72
     1
  1
120°
  7
OKANO
 11
0.0100245224662695
 21
-0.9999497532122919
 31
0.0
 73
     1
 44
1.0
  0
POINT
  5
373C
330
35ED
100
AcDbEntity
  8
Defpoints
 62
     0
100
AcDbPoint
 10
281.1904555237948
 20
143.5433072562869
 30
0.0
  0
POINT
  5
373D
330
35ED
100
AcDbEntity
  8
Defpoints
 62
     0
100
AcDbPoint
 10
175.809241546325
 20
265.5570120521642
 30
0.0
  0
POINT
  5
373E
330
35ED
100
AcDbEntity
  8
Defpoints
 62
     0
100
AcDbPoint
 10
239.1434023702504
 20
158.3705768264869
 30
0.0
  0
POINT
  5
373F
330
35ED
100
AcDbEntity
  8
Defpoints
 62
     0
100
AcDbPoint
 10
300.3159564850736
 20
266.8051951304594
 30
0.0
  0
POINT
  5
3740
330
35ED
100
AcDbEntity
  8
Defpoints
 62
     0
100
AcDbPoint
 10
239.1434023702504
 20
158.3705768264869
 30
0.0
  0
ENDBLK
  5
35F9
330
35ED
100
AcDbEntity
  8
0
100
AcDbBlockEnd
  0
BLOCK
  5
3654
330
364A
100
AcDbEntity
  8
0
100
AcDbBlockBegin
  2
*D7
 70
     1
 10
0.0
 20
0.0
 30
0.0
  3
*D7
  1

  0
ARC
  5
372E
330
364A
100
AcDbEntity
  8
寸法線
 62
     0
370
    -2
100
AcDbCircle
 10
239.1434023702504
 20
158.3705768264869
 30
0.0
 40
44.39663615696543
100
AcDbArc
 50
64.44318360089292
 51
116.7055612973211
  0
INSERT
  5
372F
330
364A
100
AcDbEntity
  8
寸法線
 62
     0
370
    -2
100
AcDbBlockReference
  2
_Closed
 10
260.9575756973024
 20
197.0384335567391
 30
0.0
 41
3.0
 42
3.0
 43
3.0
 50
332.5070002288608
  0
INSERT
  5
3730
330
364A
100
AcDbEntity
  8
寸法線
 62
     0
370
    -2
100
AcDbBlockReference
  2
_Closed
 10
216.5583986585661
 20
196.5933306440388
 30
0.0
 41
3.0
 42
3.0
 43
3.0
 50
208.6417446693532
  0
MTEXT
  5
3731
330
364A
100
AcDbEntity
  8
寸法線
 62
     0
100
AcDbMText
 10
238.6632614650361
 20
206.2648063313434
 30
0.0
 40
5.0
 41
0.0
 71
     5
 72
     1
  1
60°
  7
OKANO
 11
0.9999497532122919
 21
0.0100245224662701
 31
0.0
 73
     1
 44
1.0
  0
POINT
  5
3732
330
364A
100
AcDbEntity
  8
Defpoints
 62
     0
100
AcDbPoint
 10
246.4150222416488
 20
202.1676640184436
 30
0.0
  0
POINT
  5
3733
330
364A
100
AcDbEntity
  8
Defpoints
 62
     0
100
AcDbPoint
 10
239.1434023702504
 20
158.3705768264869
 30
0.0
  0
POINT
  5
3734
330
364A
100
AcDbEntity
  8
Defpoints
 62
     0
100
AcDbPoint
 10
175.8092415463251
 20
265.5570120521642
 30
0.0
  0
POINT
  5
3735
330
364A
100
AcDbEntity
  8
Defpoints
 62
     0
100
AcDbPoint
 10
239.1434023702504
 20
158.3705768264869
 30
0.0
  0
POINT
  5
3736
330
364A
100
AcDbEntity
  8
Defpoints
 62
     0
100
AcDbPoint
 10
300.3159564850736
 20
266.8051951304594
 30
0.0
  0
ENDBLK
  5
3655
330
364A
100
AcDbEntity
  8
0
100
AcDbBlockEnd
  0
BLOCK
  5
3693
330
3689
100
AcDbEntity
  8
0
100
AcDbBlockBegin
  2
*D8
 70
     1
 10
0.0
 20
0.0
 30
0.0
  3
*D8
  1

  0
ARC
  5
368A
330
3689
100
AcDbEntity
  8
寸法線
 62
     0
370
    -2
100
AcDbCircle
 10
268.1912940897273
 20
-133.7702349088126
 30
0.0
 40
34.19529193460986
100
AcDbArc
 50
215.0282509908862
 51
324.9717490091138
  0
INSERT
  5
368B
330
3689
100
AcDbEntity
  8
寸法線
 62
     0
370
    -2
100
AcDbBlockReference
  2
_Closed
 10
238.57730258453
 20
-150.8678808761175
 30
0.0
 41
3.0
 42
3.0
 43
3.0
 50
122.5141254954431
  0
INSERT
  5
368C
330
3689
100
AcDbEntity
  8
寸法線
 62
     0
370
    -2
100
AcDbBlockReference
  2
_Closed
 10
297.8052855949245
 20
-150.8678808761175
 30
0.0
 41
3.0
 42
3.0
 43
3.0
 50
57.48587450455687
  0
MTEXT
  5
368D
330
3689
100
AcDbEntity
  8
寸法線
 62
     0
100
AcDbMText
 10
268.1912940897273
 20
-164.4650347174382
 30
0.0
 40
5.0
 41
0.0
 71
     5
 72
     1
  1
120°
  7
OKANO
 73
     1
 44
1.0
  0
POINT
  5
368E
330
3689
100
AcDbEntity
  8
Defpoints
 62
     0
100
AcDbPoint
 10
256.4958154411889
 20
-165.9032984053854
 30
0.0
  0
POINT
  5
368F
330
3689
100
AcDbEntity
  8
Defpoints
 62
     0
100
AcDbPoint
 10
-1.808705910272692
 20
-289.6548075900116
 30
0.0
  0
POINT
  5
3690
330
3689
100
AcDbEntity
  8
Defpoints
 62
     0
100
AcDbPoint
 10
268.1912940897273
 20
-133.7702349088126
 30
0.0
  0
POINT
  5
3691
330
3689
100
AcDbEntity
  8
Defpoints
 62
     0
100
AcDbPoint
 10
538.1912940897272
 20
-289.6548075900116
 30
0.0
  0
POINT
  5
3692
330
3689
100
AcDbEntity
  8
Defpoints
 62
     0
100
AcDbPoint
 10
268.1912940897273
 20
-133.7702349088126
 30
0.0
  0
ENDBLK
  5
3694
330
3689
100
AcDbEntity
  8
0
100
AcDbBlockEnd
  0
BLOCK
  5
36A0
330
3696
100
AcDbEntity
  8
0
100
AcDbBlockBegin
  2
*D9
 70
     1
 10
0.0
 20
0.0
 30
0.0
  3
*D9
  1

  0
ARC
  5
3697
330
3696
100
AcDbEntity
  8
寸法線
 62
     0
370
    -2
100
AcDbCircle
 10
358.1912940897272
 20
-185.7317591358789
 30
0.0
 40
25.66614344875964
100
AcDbArc
 50
156.7008640400274
 51
263.2991359599724
  0
INSERT
  5
3698
330
3696
100
AcDbEntity
  8
寸法線
 62
     0
370
    -2
100
AcDbBlockReference
  2
_Closed
 10
335.9637618459259
 20
-172.8986874114991
 30
0.0
 41
3.0
 42
3.0
 43
3.0
 50
63.35043202001373
  0
INSERT
  5
3699
330
3696
100
AcDbEntity
  8
寸法線
 62
     0
370
    -2
100
AcDbBlockReference
  2
_Closed
 10
358.1912940897272
 20
-211.3979025846385
 30
0.0
 41
3.0
 42
3.0
 43
3.0
 50
356.6495679799862
  0
MTEXT
  5
369A
330
3696
100
AcDbEntity
  8
寸法線
 62
     0
100
AcDbMText
 10
338.9952769527756
 20
-196.8145847972666
 30
0.0
 40
5.0
 41
0.0
 71
     5
 72
     1
  1
120°
  7
OKANO
 11
0.5000000000000004
 21
-0.8660254037844385
 31
0.0
 73
     1
 44
1.0
  0
POINT
  5
369B
330
3696
100
AcDbEntity
  8
Defpoints
 62
     0
100
AcDbPoint
 10
332.9150770314652
 20
-190.188638173494
 30
0.0
  0
POINT
  5
369C
330
3696
100
AcDbEntity
  8
Defpoints
 62
     0
100
AcDbPoint
 10
268.1912940897273
 20
-133.7702349088126
 30
0.0
  0
POINT
  5
369D
330
3696
100
AcDbEntity
  8
Defpoints
 62
     0
100
AcDbPoint
 10
358.1912940897272
 20
-185.7317591358789
 30
0.0
  0
POINT
  5
369E
330
3696
100
AcDbEntity
  8
Defpoints
 62
     0
100
AcDbPoint
 10
358.1912940897272
 20
-404.5078030111131
 30
0.0
  0
POINT
  5
369F
330
3696
100
AcDbEntity
  8
Defpoints
 62
     0
100
AcDbPoint
 10
538.1912940897271
 20
-289.6548075900115
 30
0.0
  0
ENDBLK
  5
36A1
330
3696
100
AcDbEntity
  8
0
100
AcDbBlockEnd
  0
BLOCK
  5
36AD
330
36A3
100
AcDbEntity
  8
0
100
AcDbBlockBegin
  2
*D10
 70
     1
 10
0.0
 20
0.0
 30
0.0
  3
*D10
  1

  0
ARC
  5
36A4
330
36A3
100
AcDbEntity
  8
寸法線
 62
     0
370
    -2
100
AcDbCircle
 10
448.1912940897271
 20
-237.6932833629452
 30
0.0
 40
26.67222114403919
100
AcDbArc
 50
156.4478347255739
 51
263.5521652744259
  0
INSERT
  5
36A5
330
36A3
100
AcDbEntity
  8
寸法線
 62
     0
370
    -2
100
AcDbBlockReference
  2
_Closed
 10
425.0924730036327
 20
-224.3571727909255
 30
0.0
 41
3.0
 42
3.0
 43
3.0
 50
63.22391736278698
  0
INSERT
  5
36A6
330
36A3
100
AcDbEntity
  8
寸法線
 62
     0
370
    -2
100
AcDbBlockReference
  2
_Closed
 10
448.1912940897272
 20
-264.3655045069844
 30
0.0
 41
3.0
 42
3.0
 43
3.0
 50
356.776082637213
  0
MTEXT
  5
36A7
330
36A3
100
AcDbEntity
  8
寸法線
 62
     0
100
AcDbMText
 10
428.1239881104825
 20
-249.2791478719727
 30
0.0
 40
5.0
 41
0.0
 71
     5
 72
     1
  1
120°
  7
OKANO
 11
0.5000000000000004
 21
-0.8660254037844385
 31
0.0
 73
     1
 44
1.0
  0
POINT
  5
36A8
330
36A3
100
AcDbEntity
  8
Defpoints
 62
     0
100
AcDbPoint
 10
421.9242839170211
 20
-242.3248659589369
 30
0.0
  0
POINT
  5
36A9
330
36A3
100
AcDbEntity
  8
Defpoints
 62
     0
100
AcDbPoint
 10
268.1912940897273
 20
-133.7702349088126
 30
0.0
  0
POINT
  5
36AA
330
36A3
100
AcDbEntity
  8
Defpoints
 62
     0
100
AcDbPoint
 10
448.1912940897272
 20
-237.6932833629452
 30
0.0
  0
POINT
  5
36AB
330
36A3
100
AcDbEntity
  8
Defpoints
 62
     0
100
AcDbPoint
 10
448.1912940897272
 20
-404.5078030111131
 30
0.0
  0
POINT
  5
36AC
330
36A3
100
AcDbEntity
  8
Defpoints
 62
     0
100
AcDbPoint
 10
538.1912940897271
 20
-289.6548075900115
 30
0.0
  0
ENDBLK
  5
36AE
330
36A3
100
AcDbEntity
  8
0
100
AcDbBlockEnd
  0
BLOCK
  5
36BA
330
36B0
100
AcDbEntity
  8
0
100
AcDbBlockBegin
  2
*D11
 70
     1
 10
0.0
 20
0.0
 30
0.0
  3
*D11
  1

  0
ARC
  5
36B1
330
36B0
100
AcDbEntity
  8
寸法線
 62
     0
370
    -2
100
AcDbCircle
 10
538.1912940897271
 20
-289.6548075900115
 30
0.0
 40
24.55663513070993
100
AcDbArc
 50
157.0039892511288
 51
262.996010748871
  0
INSERT
  5
36B2
330
36B0
100
AcDbEntity
  8
寸法線
 62
     0
370
    -2
100
AcDbBlockReference
  2
_Closed
 10
516.9246242350671
 20
-277.3764900246565
 30
0.0
 41
3.0
 42
3.0
 43
3.0
 50
63.50199462556442
  0
INSERT
  5
36B3
330
36B0
100
AcDbEntity
  8
寸法線
 62
     0
370
    -2
100
AcDbBlockReference
  2
_Closed
 10
538.1912940897271
 20
-314.2114427207214
 30
0.0
 41
3.0
 42
3.0
 43
3.0
 50
356.4980053744355
  0
MTEXT
  5
36B4
330
36B0
100
AcDbEntity
  8
寸法線
 62
     0
100
AcDbMText
 10
519.9561393419166
 20
-300.1828790923744
 30
0.0
 40
5.0
 41
0.0
 71
     5
 72
     1
  1
120°
  7
OKANO
 11
0.5000000000000004
 21
-0.8660254037844385
 31
0.0
 73
     1
 44
1.0
  0
POINT
  5
36B5
330
36B0
100
AcDbEntity
  8
Defpoints
 62
     0
100
AcDbPoint
 10
514.0077294251121
 20
-293.919022530091
 30
0.0
  0
POINT
  5
36B6
330
36B0
100
AcDbEntity
  8
Defpoints
 62
     0
100
AcDbPoint
 10
268.1912940897273
 20
-133.7702349088126
 30
0.0
  0
POINT
  5
36B7
330
36B0
100
AcDbEntity
  8
Defpoints
 62
     0
100
AcDbPoint
 10
538.1912940897271
 20
-289.6548075900115
 30
0.0
  0
POINT
  5
36B8
330
36B0
100
AcDbEntity
  8
Defpoints
 62
     0
100
AcDbPoint
 10
538.1912940897271
 20
-404.5078030111132
 30
0.0
  0
POINT
  5
36B9
330
36B0
100
AcDbEntity
  8
Defpoints
 62
     0
100
AcDbPoint
 10
538.1912940897271
 20
-289.6548075900115
 30
0.0
  0
ENDBLK
  5
36BB
330
36B0
100
AcDbEntity
  8
0
100
AcDbBlockEnd
  0
BLOCK
  5
36E2
330
36D8
100
AcDbEntity
  8
0
100
AcDbBlockBegin
  2
*D12
 70
     1
 10
0.0
 20
0.0
 30
0.0
  3
*D12
  1

  0
LINE
  5
36E4
330
36D8
100
AcDbEntity
  8
寸法線
 62
     0
370
    -2
100
AcDbLine
 10
269.1912940897272
 20
-132.0381841012437
 30
0.0
 11
277.6977472720046
 21
-117.3045749973334
 31
0.0
  0
LINE
  5
36E5
330
36D8
100
AcDbEntity
  8
寸法線
 62
     0
370
    -2
100
AcDbLine
 10
359.1912940897273
 20
-183.9997083283101
 30
0.0
 11
367.6977472720047
 21
-169.2660992243998
 31
0.0
  0
LINE
  5
36E6
330
36D8
100
AcDbEntity
  8
寸法線
 62
     0
370
    -2
100
AcDbLine
 10
278.7958234833579
 20
-121.4026512086867
 30
0.0
 11
363.5996710606513
 21
-170.3641754357531
 31
0.0
  0
INSERT
  5
36E7
330
36D8
100
AcDbEntity
  8
寸法線
 62
     0
370
    -2
100
AcDbBlockReference
  2
_Closed
 10
276.1977472720046
 20
-119.9026512086867
 30
0.0
 41
3.0
 42
3.0
 43
3.0
 50
149.9999999999999
  0
INSERT
  5
36E8
330
36D8
100
AcDbEntity
  8
寸法線
 62
     0
370
    -2
100
AcDbBlockReference
  2
_Closed
 10
366.1977472720046
 20
-171.8641754357531
 30
0.0
 41
3.0
 42
3.0
 43
3.0
 50
330.0
  0
MTEXT
  5
36E9
330
36D8
100
AcDbEntity
  8
寸法線
 62
     0
100
AcDbMText
 10
322.9479933349967
 20
-142.8518982153702
 30
0.0
 40
5.0
 41
0.0
 71
     5
 72
     1
  1
1040-260=200
  7
OKANO
 11
0.8660254037844387
 21
-0.5000000000000004
 31
0.0
 73
     1
 44
1.0
  0
POINT
  5
36EA
330
36D8
100
AcDbEntity
  8
Defpoints
 62
     0
100
AcDbPoint
 10
268.1912940897272
 20
-133.7702349088126
 30
0.0
  0
POINT
  5
36EB
330
36D8
100
AcDbEntity
  8
Defpoints
 62
     0
100
AcDbPoint
 10
358.1912940897273
 20
-185.7317591358789
 30
0.0
  0
POINT
  5
36EC
330
36D8
100
AcDbEntity
  8
Defpoints
 62
     0
100
AcDbPoint
 10
366.1977472720046
 20
-171.8641754357531
 30
0.0
  0
ENDBLK
  5
36E3
330
36D8
100
AcDbEntity
  8
0
100
AcDbBlockEnd
  0
BLOCK
  5
370A
330
3700
100
AcDbEntity
  8
0
100
AcDbBlockBegin
  2
*D13
 70
     1
 10
0.0
 20
0.0
 30
0.0
  3
*D13
  1

  0
LINE
  5
3741
330
3700
100
AcDbEntity
  8
寸法線
 62
     0
370
    -2
100
AcDbLine
 10
342.2297624829046
 20
181.1506678055467
 30
0.0
 11
334.3144855948835
 21
167.3293649151448
 31
0.0
  0
LINE
  5
3742
330
3700
100
AcDbEntity
  8
寸法線
 62
     0
370
    -2
100
AcDbLine
 10
372.6017977649796
 20
163.7570059477116
 30
0.0
 11
364.6865208769586
 21
149.9357030573097
 31
0.0
  0
LINE
  5
3743
330
3700
100
AcDbEntity
  8
寸法線
 62
     0
370
    -2
100
AcDbLine
 10
338.4086882068753
 20
168.4417969229366
 30
0.0
 11
363.5740888691667
 21
154.0299056693014
 31
0.0
  0
INSERT
  5
3744
330
3700
100
AcDbEntity
  8
寸法線
 62
     0
370
    -2
100
AcDbBlockReference
  2
_Closed
 10
335.8053708969835
 20
169.9326822250366
 30
0.0
 41
3.0
 42
3.0
 43
3.0
 50
150.200805105219
  0
INSERT
  5
3745
330
3700
100
AcDbEntity
  8
寸法線
 62
     0
370
    -2
100
AcDbBlockReference
  2
_Closed
 10
366.1774061790584
 20
152.5390203672015
 30
0.0
 41
3.0
 42
3.0
 43
3.0
 50
330.200805105219
  0
MTEXT
  5
3746
330
3700
100
AcDbEntity
  8
寸法線
 62
     0
100
AcDbMText
 10
352.7307547238042
 20
164.2730548243261
 30
0.0
 40
5.0
 41
0.0
 71
     5
 72
     1
  1
35
  7
OKANO
 11
0.8677724366306025
 21
-0.4969617673666525
 31
0.0
 73
     1
 44
1.0
  0
POINT
  5
3747
330
3700
100
AcDbEntity
  8
Defpoints
 62
     0
100
AcDbPoint
 10
343.2236860176379
 20
182.8862126788079
 30
0.0
  0
POINT
  5
3748
330
3700
100
AcDbEntity
  8
Defpoints
 62
     0
100
AcDbPoint
 10
373.5957212997129
 20
165.4925508209728
 30
0.0
  0
POINT
  5
3749
330
3700
100
AcDbEntity
  8
Defpoints
 62
     0
100
AcDbPoint
 10
366.1774061790584
 20
152.5390203672015
 30
0.0
  0
ENDBLK
  5
370B
330
3700
100
AcDbEntity
  8
0
100
AcDbBlockEnd
  0
BLOCK
  5
3717
330
370D
100
AcDbEntity
  8
0
100
AcDbBlockBegin
  2
*D14
 70
     1
 10
0.0
 20
0.0
 30
0.0
  3
*D14
  1

  0
LINE
  5
3725
330
370D
100
AcDbEntity
  8
寸法線
 62
     0
370
    -2
100
AcDbLine
 10
401.3872553877359
 20
214.1092004228868
 30
0.0
 11
413.1395652171378
 21
235.7166817675047
 31
0.0
  0
LINE
  5
3726
330
370D
100
AcDbEntity
  8
寸法線
 62
     0
370
    -2
100
AcDbLine
 10
301.2715551352913
 20
268.5621331543244
 30
0.0
 11
313.0238649646932
 21
290.1696144989422
 31
0.0
  0
LINE
  5
3727
330
370D
100
AcDbEntity
  8
寸法線
 62
     0
370
    -2
100
AcDbLine
 10
409.0707602060141
 20
234.5146727070336
 30
0.0
 11
314.2258740251643
 21
286.1008094878186
 31
0.0
  0
INSERT
  5
3728
330
370D
100
AcDbEntity
  8
寸法線
 62
     0
370
    -2
100
AcDbBlockReference
  2
_Closed
 10
411.7061672418115
 20
233.0812747317073
 30
0.0
 41
3.0
 42
3.0
 43
3.0
 50
331.4582291577647
  0
INSERT
  5
3729
330
370D
100
AcDbEntity
  8
寸法線
 62
     0
370
    -2
100
AcDbBlockReference
  2
_Closed
 10
311.5904669893669
 20
287.5342074631449
 30
0.0
 41
3.0
 42
3.0
 43
3.0
 50
151.4582291577647
  0
MTEXT
  5
372A
330
370D
100
AcDbEntity
  8
寸法線
 62
     0
100
AcDbMText
 10
363.3206147534699
 20
263.3823826391897
 30
0.0
 40
5.0
 41
0.0
 71
     5
 72
     1
  1
105
  7
OKANO
 11
0.8784690119324618
 21
-0.4777993251087784
 31
0.0
 73
     1
 44
1.0
  0
POINT
  5
372B
330
370D
100
AcDbEntity
  8
Defpoints
 62
     0
100
AcDbPoint
 10
400.4316567375183
 20
212.3522623990219
 30
0.0
  0
POINT
  5
372C
330
370D
100
AcDbEntity
  8
Defpoints
 62
     0
100
AcDbPoint
 10
300.3159564850737
 20
266.8051951304595
 30
0.0
  0
POINT
  5
372D
330
370D
100
AcDbEntity
  8
Defpoints
 62
     0
100
AcDbPoint
 10
311.5904669893669
 20
287.5342074631449
 30
0.0
  0
ENDBLK
  5
3718
330
370D
100
AcDbEntity
  8
0
100
AcDbBlockEnd
  0
ENDSEC
  0
SECTION
  2
ENTITIES
  0
TEXT
  5
29C2
330
1F
100
AcDbEntity
  8
文字
100
AcDbText
 10
507.5199965529906
 20
-45.43346588601388
 30
0.0
 40
7.199999999999999
  1
joint kogyo T.okano
 51
15.0
  7
OKANO
100
AcDbText
  0
TEXT
  5
29C3
330
1F
100
AcDbEntity
  8
文字
100
AcDbText
 10
496.2875270352953
 20
-23.3049086250822
 30
0.0
 40
7.199999999999999
  1
F-999-20070522 Auto CAD
 51
15.0
  7
OKANO
100
AcDbText
  0
LINE
  5
29C4
330
1F
100
AcDbEntity
  8
太線
100
AcDbLine
 10
455.1541847628745
 20
-24.68612010072773
 30
0.0
 11
617.1541847628746
 21
-24.68612010072773
 31
0.0
  0
LWPOLYLINE
  5
29C5
330
1F
100
AcDbEntity
  8
太線
100
AcDbPolyline
 90
        4
 70
     1
 43
0.0
 10
455.1541847628746
 20
-12.08612010072774
 10
617.1541847628746
 20
-12.08612010072774
 10
617.1541847628746
 20
-49.88612010072774
 10
455.1541847628746
 20
-49.88612010072774
  0
TEXT
  5
29C6
330
1F
100
AcDbEntity
  8
文字
100
AcDbText
 10
460.9627601119608
 20
-36.97638779900376
 30
0.0
 40
3.599999999999999
  1
CHECK
 51
15.0
  7
OKANO
100
AcDbText
  0
LINE
  5
29C7
330
1F
100
AcDbEntity
  8
太線
100
AcDbLine
 10
491.1541847628745
 20
-12.08612010072774
 30
0.0
 11
491.1541847628745
 21
-49.88612010072774
 31
0.0
  0
TEXT
  5
29C8
330
1F
100
AcDbEntity
  8
文字
100
AcDbText
 10
460.9627601119608
 20
-47.35552920832748
 30
0.0
 40
3.599999999999999
  1
ISSUED
 51
15.0
  7
OKANO
100
AcDbText
  0
TEXT
  5
29C9
330
1F
100
AcDbEntity
  8
文字
100
AcDbText
 10
461.3475317613119
 20
-42.35816492442529
 30
0.0
 40
3.599999999999999
  1
APPR
 51
15.0
  7
OKANO
100
AcDbText
  0
TEXT
  5
29CA
330
1F
100
AcDbEntity
  8
文字
100
AcDbText
 10
458.2693667844322
 20
-21.98429583257999
 30
0.0
 40
3.599999999999999
  1
FILM NAME
 51
15.0
  7
OKANO
100
AcDbText
  0
TEXT
  5
29CB
330
1F
100
AcDbEntity
  8
文字
100
AcDbText
 10
460.1932201004302
 20
-31.5946115588652
 30
0.0
 40
3.599999999999999
  1
DRAWN
 51
15.0
  7
OKANO
100
AcDbText
  0
TEXT
  5
29CC
330
1F
100
AcDbEntity
  8
文字
100
AcDbText
 10
491.1551570942947
 20
-36.19901795565488
 30
0.0
 40
7.199999999999999
  1
A-L120(60) ビニール ハウス用
 51
15.0
  7
OKANO
100
AcDbText
  0
LINE
  5
330B
330
1F
100
AcDbEntity
  8
太線
100
AcDbLine
 10
361.875037543982
 20
231.5521873042147
 30
0.0
 11
304.3218516139188
 21
264.5121337026618
 31
0.0
  0
LINE
  5
330C
330
1F
100
AcDbEntity
  8
太線
100
AcDbLine
 10
279.9707250129473
 20
221.9912843077654
 30
0.0
 11
337.5239109430105
 21
189.0313379093183
 31
0.0
  0
LINE
  5
330D
330
1F
100
AcDbEntity
  8
太線
100
AcDbLine
 10
167.1192115637811
 20
260.1067037168701
 30
0.0
 11
115.4591400749016
 21
229.5905274530611
 31
0.0
  0
LINE
  5
330E
330
1F
100
AcDbEntity
  8
太線
100
AcDbLine
 10
192.0407555125584
 20
217.9176453342851
 30
0.0
 11
140.3806840236788
 21
187.4014690704761
 31
0.0
  0
LINE
  5
3314
330
1F
100
AcDbEntity
  8
太線
100
AcDbLine
 10
399.1892523191014
 20
210.1828313074455
 30
0.0
 11
373.5957212997129
 21
165.4925508209728
 31
0.0
  0
LINE
  5
3316
330
1F
100
AcDbEntity
  8
太線
100
AcDbLine
 10
399.1892523191014
 20
210.1828313074455
 30
0.0
 11
400.4316567375183
 21
212.3522623990218
 31
0.0
  0
LINE
  5
3319
330
1F
100
AcDbEntity
  8
太線
100
AcDbLine
 10
104.2791278389129
 20
162.8718097823238
 30
0.0
 11
76.81456920148491
 21
209.3658741223153
 31
0.0
  0
LINE
  5
331B
330
1F
100
AcDbEntity
  8
太線
100
AcDbLine
 10
361.875037543982
 20
231.5521873042147
 30
0.0
 11
370.0596214554433
 21
229.745924256857
 31
0.0
  0
LINE
  5
331C
330
1F
100
AcDbEntity
  8
太線
100
AcDbLine
 10
337.5239109430105
 20
189.0313379093183
 30
0.0
 11
343.2236860176379
 21
182.8862126788079
 31
0.0
  0
LINE
  5
331D
330
1F
100
AcDbEntity
  8
太線
100
AcDbLine
 10
140.4593392899967
 20
187.4741774896378
 30
0.0
 11
134.8428371024715
 21
181.2528510090933
 31
0.0
  0
LINE
  5
331E
330
1F
100
AcDbEntity
  8
太線
100
AcDbLine
 10
115.4591400749016
 20
229.5905274530611
 30
0.0
 11
107.2996231987256
 21
227.6742069299233
 31
0.0
  0
LINE
  5
331F
330
1F
100
AcDbEntity
  8
太線
100
AcDbLine
 10
361.875037543982
 20
231.5521873042147
 30
0.0
 11
337.5239109430105
 21
189.0313379093183
 31
0.0
  0
LINE
  5
3320
330
1F
100
AcDbEntity
  8
太線
100
AcDbLine
 10
370.0596214554433
 20
229.745924256857
 30
0.0
 11
343.2236860176379
 21
182.8862126788079
 31
0.0
  0
LINE
  5
3333
330
1F
100
AcDbEntity
  8
太線
100
AcDbLine
 10
139.2386922394443
 20
189.540580349193
 30
0.0
 11
133.5713297581461
 21
183.4053539877966
 31
0.0
  0
LINE
  5
3335
330
1F
100
AcDbEntity
  8
太線
100
AcDbLine
 10
117.6246463068735
 20
170.7551553171411
 30
0.0
 11
118.1332492446036
 21
169.8941541256598
 31
0.0
  0
LINE
  5
3336
330
1F
100
AcDbEntity
  8
太線
100
AcDbLine
 10
118.1332492446036
 20
169.8941541256598
 30
0.0
 11
112.1062409042343
 21
166.3339335615487
 31
0.0
  0
LINE
  5
3337
330
1F
100
AcDbEntity
  8
太線
100
AcDbLine
 10
112.1062409042343
 20
166.3339335615487
 30
0.0
 11
111.5976379665042
 21
167.1949347530301
 31
0.0
  0
LINE
  5
3338
330
1F
100
AcDbEntity
  8
破線
100
AcDbLine
 10
115.4921377710668
 20
172.3990553581143
 30
0.0
 11
117.2722480531223
 21
169.3855511879296
 31
0.0
  0
LINE
  5
3339
330
1F
100
AcDbEntity
  8
破線
100
AcDbLine
 10
111.1871318136601
 20
169.8560406694635
 30
0.0
 11
112.9672420957157
 21
166.8425364992789
 31
0.0
  0
LINE
  5
333A
330
1F
100
AcDbEntity
  8
破線
100
AcDbLine
 10
115.9226383668074
 20
172.6533568269793
 30
0.0
 11
117.7027486488629
 21
169.6398526567947
 31
0.0
  0
LINE
  5
333B
330
1F
100
AcDbEntity
  8
破線
100
AcDbLine
 10
110.7566312179194
 20
169.6017392005985
 30
0.0
 11
112.536741499975
 21
166.5882350304138
 31
0.0
  0
SPLINE
  5
333C
330
1F
100
AcDbEntity
  8
太線
100
AcDbSpline
210
0.0
220
0.0
230
1.0
 70
     8
 71
     3
 72
    11
 73
     7
 74
     0
 42
0.0000000001
 43
0.0000000001
 40
22.46879544542462
 40
22.46879544542462
 40
22.46879544542462
 40
22.46879544542462
 40
32.69217266458832
 40
47.09834114280529
 40
62.80895162544782
 40
87.62472632358628
 40
87.62472632358628
 40
87.62472632358628
 40
87.62472632358628
 10
92.34447704629323
 20
183.0756815849895
 30
0.0
 10
94.88201728895136
 20
185.6233599968869
 30
0.0
 10
101.1700287741973
 20
190.7975272761404
 30
0.0
 10
116.5931054920684
 20
182.5445672848007
 30
0.0
 10
128.736803427621
 20
203.1044224030457
 30
0.0
 10
140.878784044187
 20
198.1688284407439
 30
0.0
 10
148.7566595374089
 20
192.3492505541565
 30
0.0
  0
SPLINE
  5
333D
330
1F
100
AcDbEntity
  8
太線
100
AcDbSpline
210
0.0
220
0.0
230
1.0
 70
     8
 71
     3
 72
    11
 73
     7
 74
     0
 42
0.0000000001
 43
0.0000000001
 40
22.69279253308358
 40
22.69279253308358
 40
22.69279253308358
 40
22.69279253308358
 40
32.69217266458832
 40
47.09834114280529
 40
62.80895162544782
 40
83.7632404042006
 40
83.7632404042006
 40
83.7632404042006
 40
83.7632404042006
 10
93.12902445483004
 20
181.747540901142
 30
0.0
 10
95.61429395609241
 20
184.2216182908446
 30
0.0
 10
101.8733119867389
 20
189.2566895636251
 30
0.0
 10
117.2107488708888
 20
181.0495558451034
 30
0.0
 10
128.500805104683
 20
200.1641551768333
 30
0.0
 10
139.2114705896772
 20
197.4318574888447
 30
0.0
 10
145.731766655458
 20
193.3498654225705
 30
0.0
  0
LINE
  5
333E
330
1F
100
AcDbEntity
  8
太線
100
AcDbLine
 10
111.5976379665042
 20
167.1949347530301
 30
0.0
 11
104.2791278389129
 21
162.8718097823238
 31
0.0
  0
LINE
  5
333F
330
1F
100
AcDbEntity
  8
太線
100
AcDbLine
 10
134.2155213042551
 20
197.8383188275581
 30
0.0
 11
115.4591400749016
 21
229.5905274530611
 31
0.0
  0
LINE
  5
3340
330
1F
100
AcDbEntity
  8
太線
100
AcDbLine
 10
126.0537067335751
 20
195.9258880139734
 30
0.0
 11
107.2996231987256
 21
227.6742069299233
 31
0.0
  0
LINE
  5
3348
330
1F
100
AcDbEntity
  8
太線
100
AcDbLine
 10
121.8957071874659
 20
162.5416980262283
 30
0.0
 11
116.7297000385779
 21
159.4900803998474
 31
0.0
  0
LINE
  5
334B
330
1F
100
AcDbEntity
  8
太線
100
AcDbLine
 10
121.8957071874659
 20
162.5416980262283
 30
0.0
 11
124.9473248138467
 21
157.3756908773404
 31
0.0
  0
LINE
  5
334C
330
1F
100
AcDbEntity
  8
太線
100
AcDbLine
 10
124.9473248138467
 20
157.3756908773404
 30
0.0
 11
126.6693271968094
 21
158.3928967528007
 31
0.0
  0
LINE
  5
334D
330
1F
100
AcDbEntity
  8
太線
100
AcDbLine
 10
126.6693271968094
 20
158.3928967528007
 30
0.0
 11
127.6865330722697
 21
156.670894369838
 31
0.0
  0
LINE
  5
334E
330
1F
100
AcDbEntity
  8
太線
100
AcDbLine
 10
127.3341348185186
 20
155.3012902406265
 30
0.0
 11
120.446125286668
 21
151.2324667387853
 31
0.0
  0
LINE
  5
334F
330
1F
100
AcDbEntity
  8
太線
100
AcDbLine
 10
119.0765211574565
 20
151.5848649925364
 30
0.0
 11
118.0593152819962
 21
153.3068673754992
 31
0.0
  0
LINE
  5
3350
330
1F
100
AcDbEntity
  8
太線
100
AcDbLine
 10
118.0593152819962
 20
153.3068673754992
 30
0.0
 11
119.7813176649588
 21
154.3240732509595
 31
0.0
  0
LINE
  5
3351
330
1F
100
AcDbEntity
  8
太線
100
AcDbLine
 10
119.7813176649588
 20
154.3240732509595
 30
0.0
 11
116.7297000385779
 21
159.4900803998474
 31
0.0
  0
LINE
  5
3354
330
1F
100
AcDbEntity
  8
太線
100
AcDbLine
 10
124.9473248138467
 20
157.3756908773404
 30
0.0
 11
119.7813176649588
 21
154.3240732509595
 31
0.0
  0
LINE
  5
3355
330
1F
100
AcDbEntity
  8
細線
100
AcDbLine
 10
124.5168242181061
 20
157.1213894084753
 30
0.0
 11
121.4652065917252
 21
162.2873965573632
 31
0.0
  0
LINE
  5
3356
330
1F
100
AcDbEntity
  8
細線
100
AcDbLine
 10
120.2118182606995
 20
154.5783747198245
 30
0.0
 11
117.1602006343186
 21
159.7443818687125
 31
0.0
  0
LINE
  5
3357
330
1F
100
AcDbEntity
  8
太線
100
AcDbLine
 10
123.325039822768
 20
152.901484130115
 30
0.0
 11
123.4647511415018
 21
153.9536642144485
 31
0.0
  0
LINE
  5
3358
330
1F
100
AcDbEntity
  8
太線
100
AcDbLine
 10
123.4647511415018
 20
153.9536642144485
 30
0.0
 11
124.3510922746419
 21
153.5075846749824
 31
0.0
  0
ARC
  5
3359
330
1F
100
AcDbEntity
  8
太線
100
AcDbCircle
 10
126.8255318807884
 20
156.1622914321079
 30
0.0
 40
1.0
100
AcDbArc
 50
300.5708168568286
 51
30.57081685682873
  0
ARC
  5
335A
330
1F
100
AcDbEntity
  8
太線
100
AcDbCircle
 10
119.9375223489378
 20
152.0934679302666
 30
0.0
 40
1.0
100
AcDbArc
 50
210.5708168568284
 51
300.5708168568288
  0
CIRCLE
  5
3360
330
1F
100
AcDbEntity
  8
太線
100
AcDbCircle
 10
473.1126100061579
 20
258.4128447996253
 30
0.0
 40
26.5
  0
CIRCLE
  5
3361
330
1F
100
AcDbEntity
  8
太線
100
AcDbCircle
 10
473.1126100061579
 20
258.4128447996253
 30
0.0
 40
24.5
  0
LINE
  5
3364
330
1F
100
AcDbEntity
  8
太線
100
AcDbLine
 10
446.6126100061578
 20
120.4128447996253
 30
0.0
 11
446.6126100061578
 21
88.41284479962528
 31
0.0
  0
LINE
  5
3365
330
1F
100
AcDbEntity
  8
太線
100
AcDbLine
 10
446.6126100061578
 20
88.41284479962528
 30
0.0
 11
499.6126100061578
 21
88.4128447996253
 31
0.0
  0
LINE
  5
3366
330
1F
100
AcDbEntity
  8
太線
100
AcDbLine
 10
499.6126100061578
 20
88.4128447996253
 30
0.0
 11
499.6126100061578
 21
120.4128447996253
 31
0.0
  0
LINE
  5
3367
330
1F
100
AcDbEntity
  8
太線
100
AcDbLine
 10
448.6126100061579
 20
131.4128447996253
 30
0.0
 11
446.6126100061578
 21
123.4128447996253
 31
0.0
  0
LINE
  5
3368
330
1F
100
AcDbEntity
  8
太線
100
AcDbLine
 10
497.6126100061578
 20
131.4128447996253
 30
0.0
 11
499.6126100061578
 21
123.4128447996253
 31
0.0
  0
LINE
  5
3369
330
1F
100
AcDbEntity
  8
太線
100
AcDbLine
 10
448.6126100061579
 20
131.4128447996253
 30
0.0
 11
497.6126100061578
 21
131.4128447996253
 31
0.0
  0
ARC
  5
3372
330
1F
100
AcDbEntity
  8
太線
100
AcDbCircle
 10
473.1126100061579
 20
258.4128447996253
 30
0.0
 40
27.93496613046308
100
AcDbArc
 50
284.8655264620698
 51
295.1344735379303
  0
LINE
  5
3373
330
1F
100
AcDbEntity
  8
太線
100
AcDbLine
 10
484.977825004085
 20
233.1229455162536
 30
0.0
 11
484.4849526510105
 21
234.4771011769996
 31
0.0
  0
LINE
  5
3374
330
1F
100
AcDbEntity
  8
太線
100
AcDbLine
 10
480.2793619001555
 20
231.4128447996253
 30
0.0
 11
479.786489547081
 21
232.7670004603713
 31
0.0
  0
LINE
  5
3375
330
1F
100
AcDbEntity
  8
細線
100
AcDbLine
 10
466.3989821754263
 20
234.850646231783
 30
0.0
 11
465.7133228443853
 21
232.9668127023094
 31
0.0
  0
LINE
  5
3376
330
1F
100
AcDbEntity
  8
細線
100
AcDbLine
 10
463.1100580026756
 20
236.0477167334229
 30
0.0
 11
462.4243986716346
 21
234.1638832039492
 31
0.0
  0
CIRCLE
  5
3378
330
1F
100
AcDbEntity
  8
太線
100
AcDbCircle
 10
364.4248564785634
 20
173.6255231209503
 30
0.0
 40
1.557667406115594
  0
CIRCLE
  5
337B
330
1F
100
AcDbEntity
  8
太線
100
AcDbCircle
 10
482.2940385829854
 20
100.4128447996253
 30
0.0
 40
3.5
  0
CIRCLE
  5
337C
330
1F
100
AcDbEntity
  8
太線
100
AcDbCircle
 10
464.3662434251812
 20
100.4128447996253
 30
0.0
 40
2.5
  0
CIRCLE
  5
337D
330
1F
100
AcDbEntity
  8
太線
100
AcDbCircle
 10
482.2940385829854
 20
100.4128447996253
 30
0.0
 40
2.5
  0
LINE
  5
337E
330
1F
100
AcDbEntity
  8
太線
100
AcDbLine
 10
486.9439121854819
 20
230.6266018491698
 30
0.0
 11
479.3538950481568
 21
228.0984325796956
 31
0.0
  0
LINE
  5
337F
330
1F
100
AcDbEntity
  8
太線
100
AcDbLine
 10
482.8775802488888
 20
230.1234413103359
 30
0.0
 11
483.6501981174889
 21
229.5008265105227
 31
0.0
  0
LINE
  5
3380
330
1F
100
AcDbEntity
  8
太線
100
AcDbLine
 10
485.0470965672633
 20
233.1568371169822
 30
0.0
 11
479.3545837142697
 21
231.2607101648767
 31
0.0
  0
LINE
  5
3381
330
1F
100
AcDbEntity
  8
太線
100
AcDbLine
 10
483.1509696151581
 20
238.849349969976
 30
0.0
 11
477.4584567621642
 21
236.9532230178705
 31
0.0
  0
LINE
  5
3382
330
1F
100
AcDbEntity
  8
細線
100
AcDbLine
 10
479.8289597853525
 20
231.4187207442188
 30
0.0
 11
479.4114006864983
 21
232.6723079760613
 31
0.0
  0
LINE
  5
3383
330
1F
100
AcDbEntity
  8
太線
100
AcDbLine
 10
479.3545837142697
 20
231.2607101648767
 30
0.0
 11
478.9226028228917
 21
232.5575942019323
 31
0.0
  0
LINE
  5
3384
330
1F
100
AcDbEntity
  8
太線
100
AcDbLine
 10
478.0891217473069
 20
228.731163563177
 30
0.0
 11
477.4570794299385
 21
230.6286678475082
 31
0.0
  0
ARC
  5
3385
330
1F
100
AcDbEntity
  8
太線
100
AcDbCircle
 10
479.0378738894725
 20
229.0471847218613
 30
0.0
 40
1.0
100
AcDbArc
 50
198.4224712145922
 51
288.4224712145926
  0
LINE
  5
3386
330
1F
100
AcDbEntity
  8
太線
100
AcDbLine
 10
482.5195731296012
 20
229.1242250749846
 30
0.0
 11
482.8775802488888
 21
230.1234413103359
 31
0.0
  0
LINE
  5
3387
330
1F
100
AcDbEntity
  8
太線
100
AcDbLine
 10
477.4570794299385
 20
230.6286678475082
 30
0.0
 11
479.3545837142697
 21
231.2607101648767
 31
0.0
  0
LINE
  5
3388
330
1F
100
AcDbEntity
  8
細線
100
AcDbLine
 10
484.5727204961807
 20
232.9988265376401
 30
0.0
 11
484.1347097321019
 21
234.3138133329596
 31
0.0
  0
LINE
  5
3389
330
1F
100
AcDbEntity
  8
太線
100
AcDbLine
 10
483.1509696151581
 20
238.849349969976
 30
0.0
 11
483.9529768105747
 21
236.4415806679078
 31
0.0
  0
LINE
  5
338A
330
1F
100
AcDbEntity
  8
太線
100
AcDbLine
 10
486.9446008515946
 20
233.7888794343507
 30
0.0
 11
487.5766431689633
 21
231.8913751500195
 31
0.0
  0
ARC
  5
338B
330
1F
100
AcDbEntity
  8
太線
100
AcDbCircle
 10
486.6278910267975
 20
231.5753539913353
 30
0.0
 40
1.0
100
AcDbArc
 50
288.4224712145924
 51
18.42247121459253
  0
LINE
  5
338C
330
1F
100
AcDbEntity
  8
太線
100
AcDbLine
 10
485.0470965672633
 20
233.1568371169822
 30
0.0
 11
486.9446008515946
 21
233.7888794343507
 31
0.0
  0
LINE
  5
338D
330
1F
100
AcDbEntity
  8
太線
100
AcDbLine
 10
484.5905250323901
 20
234.5275466718942
 30
0.0
 11
485.0470965672633
 21
233.1568371169822
 31
0.0
  0
LINE
  5
338E
330
1F
100
AcDbEntity
  8
細線
100
AcDbLine
 10
483.4987004118937
 20
236.2232272706122
 30
0.0
 11
482.6765935440752
 21
238.6913393906339
 31
0.0
  0
LINE
  5
338F
330
1F
100
AcDbEntity
  8
太線
100
AcDbLine
 10
478.2870917850555
 20
234.4655122066233
 30
0.0
 11
477.4584567621642
 21
236.9532230178705
 31
0.0
  0
LINE
  5
3390
330
1F
100
AcDbEntity
  8
細線
100
AcDbLine
 10
478.7770781118224
 20
234.5766580013996
 30
0.0
 11
477.932832833247
 21
237.1112335972127
 31
0.0
  0
LINE
  5
3393
330
1F
100
AcDbEntity
  8
想像線
100
AcDbLine
 10
352.8903588775707
 20
208.4643852895399
 30
0.0
 11
292.146288313433
 21
243.2517090052135
 31
0.0
  0
LINE
  5
3394
330
1F
100
AcDbEntity
  8
想像線
100
AcDbLine
 10
188.4221395328182
 20
244.2353339813843
 30
0.0
 11
93.47986439003722
 21
188.1518807525627
 31
0.0
  0
LINE
  5
3398
330
1F
100
AcDbEntity
  8
破線
100
AcDbLine
 10
493.1907673908808
 20
203.2485607608427
 30
0.0
 11
473.1126100061579
 21
258.4128447996253
 31
0.0
  0
LINE
  5
3399
330
1F
100
AcDbEntity
  8
破線
100
AcDbLine
 10
473.1126100061579
 20
258.4128447996253
 30
0.0
 11
453.0344526214348
 21
203.2485607608427
 31
0.0
  0
DIMENSION
  5
33C2
330
1F
100
AcDbEntity
  8
寸法線
100
AcDbDimension
  2
*D2
 10
514.386262662
 20
100.4128447996253
 30
0.0
 11
510.8857705360158
 21
94.41284479962538
 31
0.0
 70
    32
 71
     5
 42
12.0
  3
sunpo
100
AcDbAlignedDimension
 13
499.6126100061578
 23
88.4128447996253
 33
0.0
 14
482.2940385829854
 24
100.4128447996253
 34
0.0
 50
90.0
100
AcDbRotatedDimension
1001
ACAD
1000
DSTYLE
1002
{
1070
    40
1040
1.0
1002
}
  0
DIMENSION
  5
33CF
330
1F
100
AcDbEntity
  8
寸法線
100
AcDbDimension
  2
*D3
 10
473.1126100061579
 20
258.4128447996253
 30
0.0
 11
473.1126100061579
 21
214.4791790056845
 31
0.0
 70
    34
 71
     5
 42
0.6981317007977311
  3
sunpo
100
AcDb2LineAngularDimension
 13
473.1126100061579
 23
258.4128447996253
 33
0.0
 14
453.0344526214348
 24
203.2485607608427
 34
0.0
 15
493.1907673908808
 25
203.2485607608427
 35
0.0
 16
467.605897516497
 26
211.2999084847714
 36
0.0
1001
ACAD
1000
DSTYLE
1002
{
1070
    40
1040
1.0
1002
}
  0
DIMENSION
  5
33DC
330
1F
100
AcDbEntity
  8
寸法線
100
AcDbDimension
  2
*D4
 10
499.6650909814412
 20
303.594845755391
 30
0.0
 11
473.0146944968864
 21
307.094845755391
 31
0.0
 70
    32
  1
54
 71
     5
 42
53.30079296910935
  3
sunpo
100
AcDbAlignedDimension
 13
446.3642980123317
 23
257.4386118071171
 33
0.0
 14
499.6650909814412
 24
257.4386118071171
 34
0.0
100
AcDbRotatedDimension
1001
ACAD
1000
DSTYLE
1002
{
1070
    40
1040
1.0
1002
}
  0
DIMENSION
  5
33E9
330
1F
100
AcDbEntity
  8
寸法線
100
AcDbDimension
  2
*D5
 10
497.2594695838447
 20
293.7038996239647
 30
0.0
 11
473.0473898174119
 21
297.2038996239647
 31
0.0
 70
    32
  1
49
 71
     5
 42
48.42415953286558
  3
sunpo
100
AcDbAlignedDimension
 13
448.8353100509791
 23
258.4469428865032
 33
0.0
 14
497.2594695838447
 24
258.4469428865032
 34
0.0
100
AcDbRotatedDimension
1001
ACAD
1000
DSTYLE
1002
{
1070
    40
1040
1.0
1002
}
  0
CIRCLE
  5
33F6
330
1F
100
AcDbEntity
  8
太線
100
AcDbCircle
 10
473.1126100061579
 20
258.4128447996253
 30
0.0
 40
22.53853815013667
  0
LEADER
  5
343D
330
1F
100
AcDbEntity
  8
寸法線
100
AcDbLeader
  3
sunpo
 76
     2
 10
464.3662434251812
 20
100.4128447996253
 30
0.0
 10
435.8535037377789
 20
73.91821815065179
 30
0.0
1001
ACAD
1000
DSTYLE
1002
{
1070
   147
1040
1.0
1070
    77
1070
     0
1002
}
  0
TEXT
  5
343E
330
1F
100
AcDbEntity
  8
文字
100
AcDbText
 10
435.2262789503836
 20
67.02439374755124
 30
0.0
 40
7.199999999999999
  1
φ3.5mm
 51
15.0
  7
OKANO
100
AcDbText
  0
TEXT
  5
34BC
330
1F
100
AcDbEntity
  8
文字
100
AcDbText
 10
88.93988564745768
 20
4.681120113353244
 30
0.0
 40
7.199999999999999
  1
材料　一般構造用炭素鋼管　JIS G 3444 STK
 51
15.0
  7
OKANO
100
AcDbText
  0
TEXT
  5
34BE
330
1F
100
AcDbEntity
  8
文字
100
AcDbText
 10
88.93988564745768
 20
-9.73323877956318
 30
0.0
 40
7.199999999999999
  1
規格　足場・単管ハイプ　丸一鋼管製を使用
 51
15.0
  7
OKANO
100
AcDbText
  0
TEXT
  5
34BF
330
1F
100
AcDbEntity
  8
文字
100
AcDbText
 10
88.93988564745768
 20
-26.02773134641074
 30
0.0
 40
7.199999999999999
  1
40.A 外径　48.6mm  肉厚2.4mm　ドブメッキ
 51
15.0
  7
OKANO
100
AcDbText
  0
TEXT
  5
34C0
330
1F
100
AcDbEntity
  8
文字
100
AcDbText
 10
88.93988564745768
 20
-39.81537865162772
 30
0.0
 40
7.199999999999999
  1
切断面、塗装処理
 51
15.0
  7
OKANO
100
AcDbText
  0
TEXT
  5
3556
330
1F
100
AcDbEntity
  8
文字
100
AcDbText
 10
124.9866653800577
 20
115.0987407876974
 30
0.0
 40
7.199999999999999
  1
バーリング加工(Burring)
 51
15.0
  7
OKANO
100
AcDbText
  0
TEXT
  5
3557
330
1F
100
AcDbEntity
  8
文字
100
AcDbText
 10
126.7905139441729
 20
127.1038978898411
 30
0.0
 40
7.199999999999999
  1
ビス　5-6mm　SUS(304)
 51
15.0
  7
OKANO
100
AcDbText
  0
TEXT
  5
3558
330
1F
100
AcDbEntity
  8
文字
100
AcDbText
 10
310.8086919916527
 20
109.5158353435826
 30
0.0
 40
7.199999999999999
  1
重量　860g
 51
15.0
  7
OKANO
100
AcDbText
  0
LINE
  5
3583
330
1F
100
AcDbEntity
  8
太線
100
AcDbLine
 10
304.3218516139188
 20
264.5121337026618
 30
0.0
 11
300.4537092353783
 21
266.7273675493715
 31
0.0
  0
LINE
  5
3584
330
1F
100
AcDbEntity
  8
太線
100
AcDbLine
 10
279.9707250129473
 20
221.9912843077654
 30
0.0
 11
276.1025826344068
 21
224.2065181544751
 31
0.0
  0
LINE
  5
3586
330
1F
100
AcDbEntity
  8
太線
100
AcDbLine
 10
167.1192115637811
 20
260.1067037168701
 30
0.0
 11
175.8223366228469
 21
265.565225165912
 31
0.0
  0
LINE
  5
3587
330
1F
100
AcDbEntity
  8
太線
100
AcDbLine
 10
192.0407555125584
 20
217.9176453342851
 30
0.0
 11
200.7438805716242
 21
223.376166783327
 31
0.0
  0
ARC
  5
35E6
330
1F
100
AcDbEntity
  8
太線
100
AcDbCircle
 10
239.1434023702505
 20
158.370576826487
 30
0.0
 40
75.50067666147573
100
AcDbArc
 50
60.57081685682883
 51
120.5779280413853
  0
ARC
  5
35E8
330
1F
100
AcDbEntity
  8
太線
100
AcDbCircle
 10
239.1434023702505
 20
158.370576826487
 30
0.0
 40
124.4995896525733
100
AcDbArc
 50
60.57081685682884
 51
120.5779280413853
  0
ARC
  5
35E9
330
1F
100
AcDbEntity
  8
想像線
100
AcDbCircle
 10
239.1434023702505
 20
158.370576826487
 30
0.0
 40
99.9999999999996
100
AcDbArc
 50
60.57081685682885
 51
120.5779280413853
  0
LINE
  5
35EA
330
1F
100
AcDbEntity
  8
想像線
100
AcDbLine
 10
175.8092415463251
 20
265.5570120521642
 30
0.0
 11
239.1434023702504
 21
158.370576826487
 31
0.0
  0
LINE
  5
35EB
330
1F
100
AcDbEntity
  8
想像線
100
AcDbLine
 10
239.1434023702504
 20
158.370576826487
 30
0.0
 11
300.3159564850736
 21
266.8051951304594
 31
0.0
  0
DIMENSION
  5
35EC
330
1F
100
AcDbEntity
  8
寸法線
100
AcDbDimension
  2
*D6
 10
239.1434023702504
 20
158.370576826487
 30
0.0
 11
287.226258300239
 21
158.8526087165536
 31
0.0
 70
    34
 71
     5
 42
2.094270988808968
  3
sunpo
100
AcDb2LineAngularDimension
 13
239.1434023702504
 23
158.370576826487
 33
0.0
 14
300.3159564850736
 24
266.8051951304594
 34
0.0
 15
175.8092415463251
 25
265.5570120521642
 35
0.0
 16
281.1904555237948
 26
143.5433072562869
 36
0.0
1001
ACAD
1000
DSTYLE
1002
{
1070
    40
1040
1.0
1002
}
  0
LINE
  5
360F
330
1F
100
AcDbEntity
  8
太線
100
AcDbLine
 10
139.2386922394443
 20
189.540580349193
 30
0.0
 11
145.7317666554579
 21
193.3498654225705
 31
0.0
  0
LINE
  5
3610
330
1F
100
AcDbEntity
  8
太線
100
AcDbLine
 10
117.9946530451644
 20
174.1777926894923
 30
0.0
 11
133.5713297581461
 21
183.4053539877966
 31
0.0
  0
LINE
  5
3611
330
1F
100
AcDbEntity
  8
太線
100
AcDbLine
 10
119.2661603894897
 20
172.025289710789
 30
0.0
 11
134.8428371024715
 21
181.2528510090933
 31
0.0
  0
LINE
  5
3612
330
1F
100
AcDbEntity
  8
太線
100
AcDbLine
 10
133.4812476841038
 20
183.3519897256102
 30
0.0
 11
134.7527550284292
 21
181.1994867469069
 31
0.0
  0
LINE
  5
3613
330
1F
100
AcDbEntity
  8
太線
100
AcDbLine
 10
139.2386922394443
 20
189.540580349193
 30
0.0
 11
140.3806840236788
 21
187.4014690704761
 31
0.0
  0
LINE
  5
3614
330
1F
100
AcDbEntity
  8
太線
100
AcDbLine
 10
145.7317666554579
 20
193.3498654225705
 30
0.0
 11
145.7317666554579
 21
193.3498654225705
 31
0.0
  0
LINE
  5
3615
330
1F
100
AcDbEntity
  8
太線
100
AcDbLine
 10
91.80160175206177
 20
218.5193540507806
 30
0.0
 11
107.2996231987256
 21
227.6742069299233
 31
0.0
  0
LINE
  5
3616
330
1F
100
AcDbEntity
  8
太線
100
AcDbLine
 10
370.0596214554433
 20
229.745924256857
 30
0.0
 11
385.6795253148063
 21
220.8006124442785
 31
0.0
  0
LINE
  5
3617
330
1F
100
AcDbEntity
  8
太線
100
AcDbLine
 10
343.2236860176379
 20
182.8862126788079
 30
0.0
 11
358.8435898770011
 21
173.9409008662295
 31
0.0
  0
LINE
  5
363B
330
1F
100
AcDbEntity
  8
想像線
100
AcDbLine
 10
238.0751114403316
 20
258.3648704361174
 30
0.0
 11
239.0037047011027
 21
158.6070005032279
 31
0.0
  0
DIMENSION
  5
3649
330
1F
100
AcDbEntity
  8
寸法線
100
AcDbDimension
  2
*D7
 10
300.3159564850736
 20
266.8051951304594
 30
0.0
 11
238.6632614650361
 21
206.2648063313434
 31
0.0
 70
    34
 71
     5
 42
1.047321664780824
  3
sunpo
100
AcDb2LineAngularDimension
 13
175.8092415463251
 23
265.5570120521642
 33
0.0
 14
239.1434023702504
 24
158.370576826487
 34
0.0
 15
239.1434023702504
 25
158.370576826487
 35
0.0
 16
246.4150222416488
 26
202.1676640184436
 36
0.0
1001
ACAD
1000
DSTYLE
1002
{
1070
    40
1040
1.0
1002
}
  0
LEADER
  5
3656
330
1F
100
AcDbEntity
  8
寸法線
100
AcDbLeader
  3
sunpo
 76
     2
 10
122.4448758336932
 20
149.6090506227668
 30
0.0
 10
125.0533283659308
 20
136.5563159624485
 30
0.0
211
0.96845636730653
221
-0.2491831949057547
231
0.0
1001
ACAD
1000
DSTYLE
1002
{
1070
   147
1040
1.0
1070
    77
1070
     0
1002
}
  0
LINE
  5
365A
330
1F
100
AcDbEntity
  8
太線
100
AcDbLine
 10
499.6126100061578
 20
120.4128447996253
 30
0.0
 11
499.6126100061578
 21
123.4128447996253
 31
0.0
  0
LINE
  5
365B
330
1F
100
AcDbEntity
  8
太線
100
AcDbLine
 10
446.6126100061578
 20
120.4128447996253
 30
0.0
 11
446.6126100061578
 21
123.4128447996253
 31
0.0
  0
LINE
  5
365C
330
1F
100
AcDbEntity
  8
太線
100
AcDbLine
 10
446.6126100061578
 20
123.4128447996253
 30
0.0
 11
499.6126100061578
 21
123.4128447996253
 31
0.0
  0
LINE
  5
36F8
330
1F
100
AcDbEntity
  8
太線
100
AcDbLine
 10
385.6795253148063
 20
220.8006124442785
 30
0.0
 11
400.4316567375183
 21
212.3522623990218
 31
0.0
  0
LINE
  5
36F9
330
1F
100
AcDbEntity
  8
太線
100
AcDbLine
 10
358.8435898770011
 20
173.9409008662295
 30
0.0
 11
373.5957212997129
 21
165.4925508209728
 31
0.0
  0
LINE
  5
36FA
330
1F
100
AcDbEntity
  8
太線
100
AcDbLine
 10
76.81456920148491
 20
209.3658741223153
 30
0.0
 11
91.80160175206177
 21
218.5193540507806
 31
0.0
  0
LINE
  5
36FB
330
1F
100
AcDbEntity
  8
太線
100
AcDbLine
 10
115.4921377710668
 20
172.3990553581143
 30
0.0
 11
117.9946530451644
 21
174.1777926894923
 31
0.0
  0
LINE
  5
36FC
330
1F
100
AcDbEntity
  8
太線
100
AcDbLine
 10
117.6246463068735
 20
170.7551553171411
 30
0.0
 11
119.2661603894897
 21
172.025289710789
 31
0.0
  0
LINE
  5
36FD
330
1F
100
AcDbEntity
  8
太線
100
AcDbLine
 10
110.7566312179194
 20
169.6017392005985
 30
0.0
 11
103.4672344716384
 21
164.6165147454766
 31
0.0
  0
DIMENSION
  5
36FF
330
1F
100
AcDbEntity
  8
寸法線
100
AcDbDimension
  2
*D13
 10
366.1774061790584
 20
152.5390203672015
 30
0.0
 11
352.7307547238042
 21
164.2730548243261
 31
0.0
 70
    33
 71
     5
 42
35.00000000000449
  3
sunpo
100
AcDbAlignedDimension
 13
343.2236860176379
 23
182.8862126788079
 33
0.0
 14
373.5957212997129
 24
165.4925508209728
 34
0.0
1001
ACAD
1000
DSTYLE
1002
{
1070
    40
1040
1.0
1002
}
  0
DIMENSION
  5
370C
330
1F
100
AcDbEntity
  8
寸法線
100
AcDbDimension
  2
*D14
 10
311.5904669893669
 20
287.5342074631449
 30
0.0
 11
363.3206147534699
 21
263.3823826391897
 31
0.0
 70
    33
  1
105
 71
     5
 42
113.9661147889661
  3
sunpo
100
AcDbAlignedDimension
 13
400.4316567375183
 23
212.3522623990218
 33
0.0
 14
300.3159564850736
 24
266.8051951304594
 34
0.0
1001
ACAD
1000
DSTYLE
1002
{
1070
    40
1040
1.0
1002
}
  0
VIEWPORT
  5
2E
330
1B
100
AcDbEntity
 67
     1
  8
0
100
AcDbViewport
 10
295.8902766110507
 20
103.0722452893376
 30
0.0
 40
650.1247988547666
 41
330.2003720210721
 68
     2
 69
     1
 12
295.8902766110507
 22
103.0722452893376
 13
0.0
 23
0.0
 14
10.0
 24
10.0
 15
10.0
 25
10.0
 16
0.0
 26
0.0
 36
1.0
 17
0.0
 27
0.0
 37
0.0
 42
50.0
 43
0.0
 44
0.0
 45
330.2003720210721
 50
0.0
 51
0.0
 72
   100
 90
    32800
  1

281
     0
 71
     1
 74
     0
110
0.0
120
0.0
130
0.0
111
1.0
121
0.0
131
0.0
112
0.0
122
1.0
132
0.0
 79
     0
146
0.0
  0
VIEWPORT
  5
30
330
1B
100
AcDbEntity
 67
     1
  8
70-0-CON
100
AcDbViewport
 10
141.8594093064315
 20
100.3480256368386
 30
0.0
 40
261.6199023344245
 41
192.6196987113174
 68
     1
 69
     2
 12
323.1067891103363
 22
167.1826923918759
 13
0.0
 23
0.0
 14
5.0
 24
5.0
 15
10.0
 25
10.0
 16
0.0
 26
0.0
 36
1.0
 17
0.0
 27
0.0
 37
0.0
 42
50.0
 43
0.0
 44
0.0
 45
477.4811080166053
 50
0.0
 51
0.0
 72
   100
 90
    32864
  1

281
     0
 71
     1
 74
     0
110
0.0
120
0.0
130
0.0
111
1.0
121
0.0
131
0.0
112
0.0
122
1.0
132
0.0
 79
     0
146
0.0
  0
LWPOLYLINE
  5
45
330
1B
100
AcDbEntity
 67
     1
  8
50-0-CON
100
AcDbPolyline
 90
        4
 70
     1
 43
0.0
 10
11.04945813921926
 20
4.038176281179858
 10
272.2125713060605
 20
4.033520706629644
 10
273.4987754093466
 20
195.9297862125246
 10
11.04945813921926
 20
196.6578749924973
  0
LINE
  5
4A
330
1B
100
AcDbEntity
 67
     1
  8
50-0-CON
100
AcDbLine
 10
10.38768783662635
 20
100.3480256368386
 30
0.0
 11
-4.391850629656119
 21
100.3480256368386
 31
0.0
  0
LINE
  5
4B
330
1B
100
AcDbEntity
 67
     1
  8
50-0-CON
100
AcDbLine
 10
141.8594093064315
 20
197.098652626247
 30
0.0
 11
141.8594093064315
 21
202.387980773708
 31
0.0
  0
LINE
  5
4C
330
1B
100
AcDbEntity
 67
     1
  8
50-0-CON
100
AcDbLine
 10
272.4487699456857
 20
100.7888032705883
 30
0.0
 11
278.8458837249377
 21
100.7888032705883
 31
0.0
  0
LINE
  5
4D
330
1B
100
AcDbEntity
 67
     1
  8
50-0-CON
100
AcDbLine
 10
140.9770484758805
 20
4.038176281179858
 30
0.0
 11
140.9770484758805
 21
-3.455038652015446
 31
0.0
  0
ENDSEC
  0
SECTION
  2
OBJECTS
  0
DICTIONARY
  5
C
330
0
100
AcDbDictionary
281
     1
  3
ACAD_GROUP
350
D
  3
ACAD_LAYOUT
350
1A
  3
ACAD_MLINESTYLE
350
17
  3
ACAD_PLOTSETTINGS
350
19
  3
ACAD_PLOTSTYLENAME
350
E
  3
AcadDim
350
31FC
  3
AcDbVariableDictionary
350
6AD
  3
DWGPROPS
350
30F
  0
DICTIONARY
  5
D
102
{ACAD_REACTORS
330
C
102
}
330
C
100
AcDbDictionary
281
     1
  0
DICTIONARY
  5
1A
102
{ACAD_REACTORS
330
C
102
}
330
C
100
AcDbDictionary
281
     1
  3
A4
350
1E
  3
Model
350
22
  0
DICTIONARY
  5
17
102
{ACAD_REACTORS
330
C
102
}
330
C
100
AcDbDictionary
281
     1
  3
Standard
350
18
  0
DICTIONARY
  5
19
102
{ACAD_REACTORS
330
C
102
}
330
C
100
AcDbDictionary
281
     1
  0
ACDBDICTIONARYWDFLT
  5
E
102
{ACAD_REACTORS
330
C
102
}
330
C
100
AcDbDictionary
281
     1
  3
Normal
350
F
100
AcDbDictionaryWithDefault
340
F
  0
XRECORD
  5
31FC
102
{ACAD_REACTORS
330
C
102
}
330
C
100
AcDbXrecord
280
     1
 90
   990106
  3

 60
     0
 61
     0
 62
     1
 63
     3
 64
     0
 65
     0
 66
     0
 67
     3
 68
     1
 69
     0
 70
     0
 71
     0
 72
     0
 40
3.821566180879777
170
     0
  0
DICTIONARY
  5
6AD
102
{ACAD_REACTORS
330
C
102
}
330
C
100
AcDbDictionary
281
     1
  3
SORTENTS
350
6AE
  0
XRECORD
  5
30F
102
{ACAD_REACTORS
330
C
102
}
330
C
100
AcDbXrecord
280
     1
  1
DWGPROPS COOKIE
  2

  3

  4

  6

  7

  8

  9

300
=
301
=
302
=
303
=
304
=
305
=
306
=
307
=
308
=
309
=
 40
0.3303803125
 41
2452362.482225463
 42
2452370.969861285
  1

 90
        0
  0
LAYOUT
  5
1E
102
{ACAD_REACTORS
330
1A
102
}
330
1A
100
AcDbPlotSettings
  1

  2
EPSON PM-920C
  4
A4
  6

 40
3.757083177566528
 41
14.7637300491333
 42
3.757080078125
 43
3.757080078125
 44
209.9733276367187
 45
296.9683227539062
 46
0.0
 47
0.0
 48
0.0
 49
0.0
140
0.0
141
0.0
142
1.0
143
1.0
 70
   688
 72
     1
 73
     1
 74
     5
  7
joint.ctb
 75
    16
147
1.0
148
0.0
149
0.0
100
AcDbLayout
  1
A4
 70
     1
 71
     1
 10
-3.757080078125
 20
-3.757083177566528
 11
293.2112426757812
 21
206.2162444591522
 12
0.0
 22
0.0
 32
0.0
 14
-4.391850629656119
 24
-3.455038652015446
 34
0.0
 15
278.8458837249377
 25
202.387980773708
 35
0.0
146
0.0
 13
0.0
 23
0.0
 33
0.0
 16
1.0
 26
0.0
 36
0.0
 17
0.0
 27
1.0
 37
0.0
 76
     0
330
1B
331
30
  0
LAYOUT
  5
22
102
{ACAD_REACTORS
330
1A
102
}
330
1A
100
AcDbPlotSettings
  1

  2
EPSON PM-920C
  4
A4
  6

 40
3.757083177566528
 41
14.7637300491333
 42
3.757080078125
 43
3.757080078125
 44
209.9733276367187
 45
296.9683227539062
 46
0.0
 47
0.0
 48
0.0
 49
0.0
140
0.0
141
0.0
142
1.0
143
1.0
 70
 11952
 72
     1
 73
     1
 74
     0
  7

 75
     0
147
1.0
148
-45.64199848979289
149
-84.48806419330498
100
AcDbLayout
  1
Model
 70
     1
 71
     0
 10
0.0
 20
0.0
 11
12.0
 21
9.0
 12
0.0
 22
0.0
 32
0.0
 14
0.0
 24
0.0
 34
0.0
 15
0.0
 25
0.0
 35
0.0
146
0.0
 13
0.0
 23
0.0
 33
0.0
 16
1.0
 26
0.0
 36
0.0
 17
0.0
 27
1.0
 37
0.0
 76
     0
330
1F
  0
MLINESTYLE
  5
18
102
{ACAD_REACTORS
330
17
102
}
330
17
100
AcDbMlineStyle
  2
STANDARD
 70
     0
  3

 62
   256
 51
90.0
 52
90.0
 71
     2
 49
0.5
 62
   256
  6
BYLAYER
 49
-0.5
 62
   256
  6
BYLAYER
  0
ACDBPLACEHOLDER
  5
F
102
{ACAD_REACTORS
330
E
102
}
330
E
  0
DICTIONARYVAR
  5
6AE
102
{ACAD_REACTORS
330
6AD
102
}
330
6AD
100
DictionaryVariables
280
     0
  1
96
  0
ENDSEC
  0
EOF
