  0
SECTION
  2
HEADER
  9
$ACADVER
  1
AC1015
  9
$ACADMAINTVER
 70
     6
  9
$DWGCODEPAGE
  3
ANSI_932
  9
$INSBASE
 10
0.0
 20
0.0
 30
0.0
  9
$EXTMIN
 10
-1095.549140724243
 20
-43.37301109665553
 30
0.0
  9
$EXTMAX
 10
2013.353708461358
 20
1637.996806268195
 30
0.0
  9
$LIMMIN
 10
0.0
 20
0.0
  9
$LIMMAX
 10
420.0
 20
297.0
  9
$ORTHOMODE
 70
     1
  9
$REGENMODE
 70
     1
  9
$FILLMODE
 70
     1
  9
$QTEXTMODE
 70
     0
  9
$MIRRTEXT
 70
     1
  9
$LTSCALE
 40
1.0
  9
$ATTMODE
 70
     1
  9
$TEXTSIZE
 40
5.0
  9
$TRACEWID
 40
1.0
  9
$TEXTSTYLE
  7
OKANO
  9
$CLAYER
  8
寸法線
  9
$CELTYPE
  6
ByLayer
  9
$CECOLOR
 62
   256
  9
$CELTSCALE
 40
1.0
  9
$DISPSILH
 70
     0
  9
$DIMSCALE
 40
0.0
  9
$DIMASZ
 40
3.0
  9
$DIMEXO
 40
2.0
  9
$DIMDLI
 40
8.0
  9
$DIMRND
 40
0.0
  9
$DIMDLE
 40
0.0
  9
$DIMEXE
 40
3.0
  9
$DIMTP
 40
0.0
  9
$DIMTM
 40
0.0
  9
$DIMTXT
 40
5.0
  9
$DIMCEN
 40
2.5
  9
$DIMTSZ
 40
0.0
  9
$DIMTOL
 70
     0
  9
$DIMLIM
 70
     0
  9
$DIMTIH
 70
     0
  9
$DIMTOH
 70
     0
  9
$DIMSE1
 70
     0
  9
$DIMSE2
 70
     0
  9
$DIMTAD
 70
     1
  9
$DIMZIN
 70
     8
  9
$DIMBLK
  1
Closed
  9
$DIMASO
 70
     1
  9
$DIMSHO
 70
     1
  9
$DIMPOST
  1

  9
$DIMAPOST
  1

  9
$DIMALT
 70
     0
  9
$DIMALTD
 70
     3
  9
$DIMALTF
 40
0.03937007874016
  9
$DIMLFAC
 40
1.0
  9
$DIMTOFL
 70
     1
  9
$DIMTVP
 40
0.0
  9
$DIMTIX
 70
     0
  9
$DIMSOXD
 70
     0
  9
$DIMSAH
 70
     0
  9
$DIMBLK1
  1

  9
$DIMBLK2
  1

  9
$DIMSTYLE
  2
sunpo
  9
$DIMCLRD
 70
     0
  9
$DIMCLRE
 70
     0
  9
$DIMCLRT
 70
     0
  9
$DIMTFAC
 40
1.0
  9
$DIMGAP
 40
1.0
  9
$DIMJUST
 70
     0
  9
$DIMSD1
 70
     0
  9
$DIMSD2
 70
     0
  9
$DIMTOLJ
 70
     0
  9
$DIMTZIN
 70
     8
  9
$DIMALTZ
 70
     0
  9
$DIMALTTZ
 70
     0
  9
$DIMUPT
 70
     0
  9
$DIMDEC
 70
     2
  9
$DIMTDEC
 70
     2
  9
$DIMALTU
 70
     2
  9
$DIMALTTD
 70
     3
  9
$DIMTXSTY
  7
OKANO
  9
$DIMAUNIT
 70
     0
  9
$DIMADEC
 70
     0
  9
$DIMALTRND
 40
0.0
  9
$DIMAZIN
 70
     0
  9
$DIMDSEP
 70
    46
  9
$DIMATFIT
 70
     3
  9
$DIMFRAC
 70
     0
  9
$DIMLDRBLK
  1
Closed
  9
$DIMLUNIT
 70
     2
  9
$DIMLWD
 70
    -2
  9
$DIMLWE
 70
    -2
  9
$DIMTMOVE
 70
     0
  9
$LUNITS
 70
     2
  9
$LUPREC
 70
     2
  9
$SKETCHINC
 40
1.0
  9
$FILLETRAD
 40
34.0
  9
$AUNITS
 70
     0
  9
$AUPREC
 70
     0
  9
$MENU
  1
.
  9
$ELEVATION
 40
0.0
  9
$PELEVATION
 40
0.0
  9
$THICKNESS
 40
0.0
  9
$LIMCHECK
 70
     0
  9
$CHAMFERA
 40
10.0
  9
$CHAMFERB
 40
10.0
  9
$CHAMFERC
 40
20.0
  9
$CHAMFERD
 40
0.0
  9
$SKPOLY
 70
     0
  9
$TDCREATE
 40
2452362.482225463
  9
$TDUCREATE
 40
2452362.107225463
  9
$TDUPDATE
 40
2456104.660625498
  9
$TDUUPDATE
 40
2456104.285625498
  9
$TDINDWG
 40
2.9573086458
  9
$TDUSRTIMER
 40
2.9573086458
  9
$USRTIMER
 70
     1
  9
$ANGBASE
 50
0.0
  9
$ANGDIR
 70
     0
  9
$PDMODE
 70
     0
  9
$PDSIZE
 40
0.0
  9
$PLINEWID
 40
0.0
  9
$SPLFRAME
 70
     0
  9
$SPLINETYPE
 70
     6
  9
$SPLINESEGS
 70
     8
  9
$HANDSEED
  5
63D7
  9
$SURFTAB1
 70
     6
  9
$SURFTAB2
 70
     6
  9
$SURFTYPE
 70
     6
  9
$SURFU
 70
     6
  9
$SURFV
 70
     6
  9
$UCSBASE
  2

  9
$UCSNAME
  2

  9
$UCSORG
 10
0.0
 20
0.0
 30
0.0
  9
$UCSXDIR
 10
1.0
 20
0.0
 30
0.0
  9
$UCSYDIR
 10
0.0
 20
1.0
 30
0.0
  9
$UCSORTHOREF
  2

  9
$UCSORTHOVIEW
 70
     0
  9
$UCSORGTOP
 10
0.0
 20
0.0
 30
0.0
  9
$UCSORGBOTTOM
 10
0.0
 20
0.0
 30
0.0
  9
$UCSORGLEFT
 10
0.0
 20
0.0
 30
0.0
  9
$UCSORGRIGHT
 10
0.0
 20
0.0
 30
0.0
  9
$UCSORGFRONT
 10
0.0
 20
0.0
 30
0.0
  9
$UCSORGBACK
 10
0.0
 20
0.0
 30
0.0
  9
$PUCSBASE
  2

  9
$PUCSNAME
  2

  9
$PUCSORG
 10
0.0
 20
0.0
 30
0.0
  9
$PUCSXDIR
 10
1.0
 20
0.0
 30
0.0
  9
$PUCSYDIR
 10
0.0
 20
1.0
 30
0.0
  9
$PUCSORTHOREF
  2

  9
$PUCSORTHOVIEW
 70
     0
  9
$PUCSORGTOP
 10
0.0
 20
0.0
 30
0.0
  9
$PUCSORGBOTTOM
 10
0.0
 20
0.0
 30
0.0
  9
$PUCSORGLEFT
 10
0.0
 20
0.0
 30
0.0
  9
$PUCSORGRIGHT
 10
0.0
 20
0.0
 30
0.0
  9
$PUCSORGFRONT
 10
0.0
 20
0.0
 30
0.0
  9
$PUCSORGBACK
 10
0.0
 20
0.0
 30
0.0
  9
$USERI1
 70
     0
  9
$USERI2
 70
     0
  9
$USERI3
 70
     0
  9
$USERI4
 70
     0
  9
$USERI5
 70
     0
  9
$USERR1
 40
0.0
  9
$USERR2
 40
0.0
  9
$USERR3
 40
0.0
  9
$USERR4
 40
0.0
  9
$USERR5
 40
0.0
  9
$WORLDVIEW
 70
     1
  9
$SHADEDGE
 70
     3
  9
$SHADEDIF
 70
    70
  9
$TILEMODE
 70
     0
  9
$MAXACTVP
 70
    64
  9
$PINSBASE
 10
0.0
 20
0.0
 30
0.0
  9
$PLIMCHECK
 70
     0
  9
$PEXTMIN
 10
-4.400932062405672
 20
-3.459116387827521
 30
-0.0015258207003583
  9
$PEXTMAX
 10
278.8478616361952
 20
202.393946056399
 30
0.0000000349246037
  9
$PLIMMIN
 10
-3.757080078125
 20
-3.757083177566528
  9
$PLIMMAX
 10
293.2112426757812
 20
206.2162444591522
  9
$UNITMODE
 70
     0
  9
$VISRETAIN
 70
     1
  9
$PLINEGEN
 70
     0
  9
$PSLTSCALE
 70
     1
  9
$TREEDEPTH
 70
  3020
  9
$CMLSTYLE
  2
Standard
  9
$CMLJUST
 70
     0
  9
$CMLSCALE
 40
20.0
  9
$PROXYGRAPHICS
 70
     1
  9
$MEASUREMENT
 70
     1
  9
$CELWEIGHT
370
    -1
  9
$ENDCAPS
280
     0
  9
$JOINSTYLE
280
     0
  9
$LWDISPLAY
290
     0
  9
$INSUNITS
 70
     4
  9
$HYPERLINKBASE
  1

  9
$STYLESHEET
  1

  9
$XEDIT
290
     1
  9
$CEPSNTYPE
380
     0
  9
$PSTYLEMODE
290
     1
  9
$FINGERPRINTGUID
  2
{FF7F33C3-4233-11D6-AEE0-0000F45FD7F4}
  9
$VERSIONGUID
  2
{FD2B845B-5C3F-42E1-9A16-4BA61A1BFF00}
  9
$EXTNAMES
290
     1
  9
$PSVPSCALE
 40
0.0
  9
$OLESTARTUP
290
     0
  0
ENDSEC
  0
SECTION
  2
CLASSES
  0
CLASS
  1
ACDBDICTIONARYWDFLT
  2
AcDbDictionaryWithDefault
  3
AutoCAD 2000
 90
        0
280
     0
281
     0
  0
CLASS
  1
ACDBPLACEHOLDER
  2
AcDbPlaceHolder
  3
AutoCAD 2000
 90
        0
280
     0
281
     0
  0
CLASS
  1
LAYOUT
  2
AcDbLayout
  3
AutoCAD 2000
 90
        0
280
     0
281
     0
  0
CLASS
  1
DICTIONARYVAR
  2
AcDbDictionaryVar
  3
AutoCAD 2000
 90
        0
280
     0
281
     0
  0
ENDSEC
  0
SECTION
  2
TABLES
  0
TABLE
  2
VPORT
  5
8
330
0
100
AcDbSymbolTable
 70
     2
  0
VPORT
  5
63D6
330
8
100
AcDbSymbolTableRecord
100
AcDbViewportTableRecord
  2
*Active
 70
     0
 10
0.0
 20
0.0
 11
1.0
 21
1.0
 12
1279.599551984763
 22
1339.410369942786
 13
0.0
 23
0.0
 14
5.0
 24
5.0
 15
10.0
 25
10.0
 16
0.0
 26
0.0
 36
1.0
 17
0.0
 27
0.0
 37
0.0
 40
999.3780329818456
 41
1.968879668049792
 42
50.0
 43
0.0
 44
0.0
 50
0.0
 51
0.0
 71
     0
 72
   100
 73
     1
 74
     3
 75
     0
 76
     0
 77
     0
 78
     0
281
     0
 65
     1
110
0.0
120
0.0
130
0.0
111
1.0
121
0.0
131
0.0
112
0.0
122
1.0
132
0.0
 79
     0
146
0.0
  0
ENDTAB
  0
TABLE
  2
LTYPE
  5
5
330
0
100
AcDbSymbolTable
 70
     5
  0
LTYPE
  5
14
330
5
100
AcDbSymbolTableRecord
100
AcDbLinetypeTableRecord
  2
ByBlock
 70
     0
  3

 72
    65
 73
     0
 40
0.0
  0
LTYPE
  5
15
330
5
100
AcDbSymbolTableRecord
100
AcDbLinetypeTableRecord
  2
ByLayer
 70
     0
  3

 72
    65
 73
     0
 40
0.0
  0
LTYPE
  5
16
330
5
100
AcDbSymbolTableRecord
100
AcDbLinetypeTableRecord
  2
Continuous
 70
     0
  3
Solid line
 72
    65
 73
     0
 40
0.0
  0
LTYPE
  5
33
330
5
100
AcDbSymbolTableRecord
100
AcDbLinetypeTableRecord
  2
DASHED2
 70
     0
  3
Dashed (.5x) _ _ _ _ _ _ _ _ _ _ _ _ _ _ _ _ _
 72
    65
 73
     2
 40
9.524999999999998
 49
6.349999999999999
 74
     0
 49
-3.174999999999999
 74
     0
  0
LTYPE
  5
34
330
5
100
AcDbSymbolTableRecord
100
AcDbLinetypeTableRecord
  2
CENTER2
 70
     0
  3
Center (.5x) ___ _ ___ _ ___ _ ___ _ ___ _ ___
 72
    65
 73
     4
 40
28.57499999999999
 49
19.05
 74
     0
 49
-3.174999999999999
 74
     0
 49
3.174999999999999
 74
     0
 49
-3.174999999999999
 74
     0
  0
LTYPE
  5
35
330
5
100
AcDbSymbolTableRecord
100
AcDbLinetypeTableRecord
  2
PHANTOM2
 70
     0
  3
Phantom (.5x) ___ _ _ ___ _ _ ___ _ _ ___ _ _
 72
    65
 73
     6
 40
31.75
 49
15.875
 74
     0
 49
-3.174999999999999
 74
     0
 49
3.174999999999999
 74
     0
 49
-3.174999999999999
 74
     0
 49
3.174999999999999
 74
     0
 49
-3.174999999999999
 74
     0
  0
LTYPE
  5
36
330
5
100
AcDbSymbolTableRecord
100
AcDbLinetypeTableRecord
  2
HIDDEN2
 70
     0
  3
Hidden (.5x) _ _ _ _ _ _ _ _ _ _ _ _ _ _ _ _ _
 72
    65
 73
     2
 40
4.762499999999999
 49
3.174999999999999
 74
     0
 49
-1.587499999999999
 74
     0
  0
ENDTAB
  0
TABLE
  2
LAYER
  5
2
330
0
100
AcDbSymbolTable
 70
    13
  0
LAYER
  5
10
330
2
100
AcDbSymbolTableRecord
100
AcDbLayerTableRecord
  2
0
 70
     0
 62
     7
  6
Continuous
370
    -3
390
F
  0
LAYER
  5
40
330
2
100
AcDbSymbolTableRecord
100
AcDbLayerTableRecord
  2
50-0-CON
 70
     0
 62
     4
  6
Continuous
370
    50
390
F
  0
LAYER
  5
41
330
2
100
AcDbSymbolTableRecord
100
AcDbLayerTableRecord
  2
70-0-CON
 70
     0
 62
   202
  6
Continuous
370
    70
390
F
  0
LAYER
  5
4E
330
2
100
AcDbSymbolTableRecord
100
AcDbLayerTableRecord
  2
極太線
 70
     0
 62
     7
  6
Continuous
370
    70
390
F
  0
LAYER
  5
4F
330
2
100
AcDbSymbolTableRecord
100
AcDbLayerTableRecord
  2
細線
 70
     0
 62
     8
  6
Continuous
370
    18
390
F
  0
LAYER
  5
AB
330
2
100
AcDbSymbolTableRecord
100
AcDbLayerTableRecord
  2
構築線
 70
     0
 62
    -2
  6
Continuous
370
    18
390
F
  0
LAYER
  5
B8
330
2
100
AcDbSymbolTableRecord
100
AcDbLayerTableRecord
  2
太線
 70
     0
 62
     7
  6
Continuous
370
    35
390
F
  0
LAYER
  5
B9
330
2
100
AcDbSymbolTableRecord
100
AcDbLayerTableRecord
  2
寸法線
 70
     0
 62
     5
  6
Continuous
370
    18
390
F
  0
LAYER
  5
BA
330
2
100
AcDbSymbolTableRecord
100
AcDbLayerTableRecord
  2
破線
 70
     0
 62
     8
  6
HIDDEN2
370
    18
390
F
  0
LAYER
  5
BB
330
2
100
AcDbSymbolTableRecord
100
AcDbLayerTableRecord
  2
中心線
 70
     0
 62
     1
  6
CENTER2
370
    18
390
F
  0
LAYER
  5
BC
330
2
100
AcDbSymbolTableRecord
100
AcDbLayerTableRecord
  2
想像線
 70
     0
 62
     8
  6
PHANTOM2
370
    18
390
F
  0
LAYER
  5
BD
330
2
100
AcDbSymbolTableRecord
100
AcDbLayerTableRecord
  2
文字
 70
     0
 62
     7
  6
Continuous
370
    18
390
F
  0
LAYER
  5
180
330
2
100
AcDbSymbolTableRecord
100
AcDbLayerTableRecord
  2
Defpoints
 70
     0
 62
     7
  6
Continuous
290
     0
370
    -3
390
F
  0
ENDTAB
  0
TABLE
  2
STYLE
  5
3
330
0
100
AcDbSymbolTable
 70
     3
  0
STYLE
  5
11
330
3
100
AcDbSymbolTableRecord
100
AcDbTextStyleTableRecord
  2
Standard
 70
     0
 40
0.0
 41
1.0
 50
0.0
 71
     0
 42
3.0
  3
txt
  4

  0
STYLE
  5
32
330
3
100
AcDbSymbolTableRecord
100
AcDbTextStyleTableRecord
  2

 70
     1
 40
0.0
 41
1.0
 50
0.0
 71
     0
 42
2.5
  3
ltypeshp.shx
  4

  0
STYLE
  5
50
330
3
100
AcDbSymbolTableRecord
100
AcDbTextStyleTableRecord
  2
OKANO
 70
     0
 40
0.0
 41
1.0
 50
15.0
 71
     0
 42
5.0
  3
isocp.shx
  4
bigfont.shx
  0
ENDTAB
  0
TABLE
  2
VIEW
  5
6
330
0
100
AcDbSymbolTable
 70
     0
  0
ENDTAB
  0
TABLE
  2
UCS
  5
7
330
0
100
AcDbSymbolTable
 70
     0
  0
ENDTAB
  0
TABLE
  2
APPID
  5
9
330
0
100
AcDbSymbolTable
 70
     1
  0
APPID
  5
12
330
9
100
AcDbSymbolTableRecord
100
AcDbRegAppTableRecord
  2
ACAD
 70
     0
  0
ENDTAB
  0
TABLE
  2
DIMSTYLE
  5
A
330
0
100
AcDbSymbolTable
 70
     2
100
AcDbDimStyleTable
 71
     2
340
A2
340
27
  0
DIMSTYLE
105
27
330
A
100
AcDbSymbolTableRecord
100
AcDbDimStyleTableRecord
  2
ISO-25
 70
     0
 41
2.5
 42
0.625
 43
3.75
 44
1.25
 73
     0
 74
     0
 77
     1
 78
     8
140
2.5
141
2.5
143
0.03937007874016
147
0.625
171
     3
172
     1
271
     2
272
     2
274
     3
283
     0
284
     8
340
11
  0
DIMSTYLE
105
A2
102
{ACAD_REACTORS
330
580C
330
5819
330
5826
330
5833
330
589C
330
58A9
330
58EF
330
613B
330
6148
330
6205
330
6212
330
621F
330
622C
330
62A7
330
6331
330
6348
330
6387
330
63A7
102
}
330
A
100
AcDbSymbolTableRecord
100
AcDbDimStyleTableRecord
  2
sunpo
 70
     0
 40
0.0
 41
3.0
 42
2.0
 43
8.0
 44
3.0
 73
     0
 74
     0
 77
     1
 78
     8
140
5.0
141
2.5
143
0.03937007874016
147
1.0
171
     3
172
     1
271
     2
272
     2
274
     3
283
     0
284
     8
340
50
341
9B
342
9B
  0
ENDTAB
  0
TABLE
  2
BLOCK_RECORD
  5
1
330
0
100
AcDbSymbolTable
 70
    30
  0
BLOCK_RECORD
  5
1F
330
1
100
AcDbSymbolTableRecord
100
AcDbBlockTableRecord
  2
*Model_Space
340
22
  0
BLOCK_RECORD
  5
1B
330
1
100
AcDbSymbolTableRecord
100
AcDbBlockTableRecord
  2
*Paper_Space
340
1E
  0
BLOCK_RECORD
  5
9B
330
1
100
AcDbSymbolTableRecord
100
AcDbBlockTableRecord
  2
_Closed
340
0
102
{BLKREFS
331
4D8D
331
4D8E
331
4D50
331
4D51
331
4D69
331
4D6A
331
4D75
331
4D76
331
4D5C
331
4D5D
331
4D81
331
4D82
331
4D37
331
4D38
331
4D43
331
4D44
331
585C
331
585D
331
5865
331
5866
331
586E
331
586F
331
5877
331
5878
331
58CB
331
58CC
331
58E8
331
58E9
331
58FF
331
5900
331
6274
331
6275
331
627D
331
627E
331
6286
331
6287
331
628F
331
6290
331
6298
331
6299
331
62B7
331
62B8
331
6336
331
6337
331
6361
331
6362
331
636A
331
636B
331
63A0
331
63A1
331
63C9
331
63CA
102
}
  0
BLOCK_RECORD
  5
1510
330
1
100
AcDbSymbolTableRecord
100
AcDbBlockTableRecord
  2
A$C10A573AC
340
0
  0
BLOCK_RECORD
  5
3CC1
330
1
100
AcDbSymbolTableRecord
100
AcDbBlockTableRecord
  2
A$C057E205E
340
0
  0
BLOCK_RECORD
  5
4D33
330
1
100
AcDbSymbolTableRecord
100
AcDbBlockTableRecord
  2
*D3
340
0
  0
BLOCK_RECORD
  5
4D3F
330
1
100
AcDbSymbolTableRecord
100
AcDbBlockTableRecord
  2
*D4
340
0
  0
BLOCK_RECORD
  5
4D4B
330
1
100
AcDbSymbolTableRecord
100
AcDbBlockTableRecord
  2
*D5
340
0
  0
BLOCK_RECORD
  5
4D58
330
1
100
AcDbSymbolTableRecord
100
AcDbBlockTableRecord
  2
*D6
340
0
  0
BLOCK_RECORD
  5
4D64
330
1
100
AcDbSymbolTableRecord
100
AcDbBlockTableRecord
  2
*D7
340
0
  0
BLOCK_RECORD
  5
4D71
330
1
100
AcDbSymbolTableRecord
100
AcDbBlockTableRecord
  2
*D8
340
0
  0
BLOCK_RECORD
  5
4D7D
330
1
100
AcDbSymbolTableRecord
100
AcDbBlockTableRecord
  2
*D9
340
0
  0
BLOCK_RECORD
  5
4D89
330
1
100
AcDbSymbolTableRecord
100
AcDbBlockTableRecord
  2
*D10
340
0
  0
BLOCK_RECORD
  5
4D95
330
1
100
AcDbSymbolTableRecord
100
AcDbBlockTableRecord
  2
A$C4990298F
340
0
  0
BLOCK_RECORD
  5
580D
330
1
100
AcDbSymbolTableRecord
100
AcDbBlockTableRecord
  2
*D12
340
0
  0
BLOCK_RECORD
  5
581A
330
1
100
AcDbSymbolTableRecord
100
AcDbBlockTableRecord
  2
*D13
340
0
  0
BLOCK_RECORD
  5
5827
330
1
100
AcDbSymbolTableRecord
100
AcDbBlockTableRecord
  2
*D14
340
0
  0
BLOCK_RECORD
  5
5834
330
1
100
AcDbSymbolTableRecord
100
AcDbBlockTableRecord
  2
*D15
340
0
  0
BLOCK_RECORD
  5
589D
330
1
100
AcDbSymbolTableRecord
100
AcDbBlockTableRecord
  2
*D16
340
0
  0
BLOCK_RECORD
  5
58AA
330
1
100
AcDbSymbolTableRecord
100
AcDbBlockTableRecord
  2
*D17
340
0
  0
BLOCK_RECORD
  5
58F0
330
1
100
AcDbSymbolTableRecord
100
AcDbBlockTableRecord
  2
*D18
340
0
  0
BLOCK_RECORD
  5
613C
330
1
100
AcDbSymbolTableRecord
100
AcDbBlockTableRecord
  2
*D19
340
0
  0
BLOCK_RECORD
  5
6149
330
1
100
AcDbSymbolTableRecord
100
AcDbBlockTableRecord
  2
*D20
340
0
  0
BLOCK_RECORD
  5
6206
330
1
100
AcDbSymbolTableRecord
100
AcDbBlockTableRecord
  2
*D21
340
0
  0
BLOCK_RECORD
  5
6213
330
1
100
AcDbSymbolTableRecord
100
AcDbBlockTableRecord
  2
*D22
340
0
  0
BLOCK_RECORD
  5
6220
330
1
100
AcDbSymbolTableRecord
100
AcDbBlockTableRecord
  2
*D23
340
0
  0
BLOCK_RECORD
  5
622D
330
1
100
AcDbSymbolTableRecord
100
AcDbBlockTableRecord
  2
*D24
340
0
  0
BLOCK_RECORD
  5
62A8
330
1
100
AcDbSymbolTableRecord
100
AcDbBlockTableRecord
  2
*D25
340
0
  0
BLOCK_RECORD
  5
6332
330
1
100
AcDbSymbolTableRecord
100
AcDbBlockTableRecord
  2
*D26
340
0
  0
BLOCK_RECORD
  5
6349
330
1
100
AcDbSymbolTableRecord
100
AcDbBlockTableRecord
  2
*D27
340
0
  0
BLOCK_RECORD
  5
6388
330
1
100
AcDbSymbolTableRecord
100
AcDbBlockTableRecord
  2
*D28
340
0
  0
BLOCK_RECORD
  5
63A8
330
1
100
AcDbSymbolTableRecord
100
AcDbBlockTableRecord
  2
*D29
340
0
  0
ENDTAB
  0
ENDSEC
  0
SECTION
  2
BLOCKS
  0
BLOCK
  5
20
330
1F
100
AcDbEntity
  8
0
100
AcDbBlockBegin
  2
*Model_Space
 70
     0
 10
0.0
 20
0.0
 30
0.0
  3
*Model_Space
  1

  0
ENDBLK
  5
21
330
1F
100
AcDbEntity
  8
0
100
AcDbBlockEnd
  0
BLOCK
  5
1C
330
1B
100
AcDbEntity
 67
     1
  8
0
100
AcDbBlockBegin
  2
*Paper_Space
 70
     0
 10
0.0
 20
0.0
 30
0.0
  3
*Paper_Space
  1

  0
ENDBLK
  5
1D
330
1B
100
AcDbEntity
 67
     1
  8
0
100
AcDbBlockEnd
  0
BLOCK
  5
A0
330
9B
100
AcDbEntity
  8
0
100
AcDbBlockBegin
  2
_Closed
 70
     0
 10
0.0
 20
0.0
 30
0.0
  3
_Closed
  1

  0
LINE
  5
9C
330
9B
100
AcDbEntity
  8
0
 62
     0
370
    -2
100
AcDbLine
 10
-1.0
 20
0.1666666666666666
 30
0.0
 11
0.0
 21
0.0
 31
0.0
  0
LINE
  5
9D
330
9B
100
AcDbEntity
  8
0
 62
     0
370
    -2
100
AcDbLine
 10
0.0
 20
0.0
 30
0.0
 11
-1.0
 21
-0.1666666666666666
 31
0.0
  0
LINE
  5
9E
330
9B
100
AcDbEntity
  8
0
 62
     0
370
    -2
100
AcDbLine
 10
-1.0
 20
0.1666666666666666
 30
0.0
 11
-1.0
 21
-0.1666666666666666
 31
0.0
  0
LINE
  5
9F
330
9B
100
AcDbEntity
  8
0
 62
     0
370
    -2
100
AcDbLine
 10
0.0
 20
0.0
 30
0.0
 11
-1.0
 21
0.0
 31
0.0
  0
ENDBLK
  5
A1
330
9B
100
AcDbEntity
  8
0
100
AcDbBlockEnd
  0
BLOCK
  5
155B
330
1510
100
AcDbEntity
  8
0
100
AcDbBlockBegin
  2
A$C10A573AC
 70
     0
 10
0.0
 20
0.0
 30
0.0
  3
A$C10A573AC
  1

  0
TEXT
  5
1511
330
1510
100
AcDbEntity
  8
文字
100
AcDbText
 10
0.9844302777919438
 20
5.224957122252135
 30
0.0
 40
3.0
  1
Materal : Steel.
 51
15.0
  7
OKANO
100
AcDbText
  0
TEXT
  5
1512
330
1510
100
AcDbEntity
  8
文字
100
AcDbText
 10
-0.1141909619694843
 20
0.7500001922403499
 30
0.0
 40
3.0
  1
Surface treatment : Electro galvanized.
 51
15.0
  7
OKANO
100
AcDbText
  0
TEXT
  5
1513
330
1510
100
AcDbEntity
  8
文字
100
AcDbText
 10
-0.4901926332574931
 20
9.159967445193728
 30
0.0
 40
3.0
  1
5 TORGUE SCREW  M5-6
 51
15.0
  7
OKANO
100
AcDbText
  0
TEXT
  5
1514
330
1510
100
AcDbEntity
  8
文字
100
AcDbText
 10
1.364713526390005
 20
78.88822913323082
 30
0.0
 40
3.0
  1
Special standard,
 51
15.0
  7
OKANO
100
AcDbText
  0
TEXT
  5
1515
330
1510
100
AcDbEntity
  8
文字
100
AcDbText
 10
92.88160823408942
 20
89.92753849837379
 30
0.0
 40
3.0
  1
Screw Type
 51
15.0
  7
OKANO
100
AcDbText
  0
LINE
  5
1516
330
1510
100
AcDbEntity
  8
太線
100
AcDbLine
 10
113.9464587597784
 20
81.93930390144641
 30
0.0
 11
112.4464587597784
 21
81.93930390144641
 31
0.0
  0
LINE
  5
1517
330
1510
100
AcDbEntity
  8
太線
100
AcDbLine
 10
112.4464587597784
 20
76.9393039014464
 30
0.0
 11
121.4644995438761
 21
76.9393039014464
 31
0.0
  0
TEXT
  5
1518
330
1510
100
AcDbEntity
  8
文字
100
AcDbText
 10
93.46068240437217
 20
77.96976862235396
 30
0.0
 40
2.0
  1
17-30
 51
15.0
  7
OKANO
100
AcDbText
  0
LINE
  5
1519
330
1510
100
AcDbEntity
  8
太線
100
AcDbLine
 10
111.9464587597784
 20
81.43930390144641
 30
0.0
 11
111.9464587597784
 21
77.4393039014464
 31
0.0
  0
LINE
  5
151A
330
1510
100
AcDbEntity
  8
太線
100
AcDbLine
 10
91.94645875977846
 20
81.43930390144641
 30
0.0
 11
91.94645875977846
 21
77.43930390144639
 31
0.0
  0
LINE
  5
151B
330
1510
100
AcDbEntity
  8
太線
100
AcDbLine
 10
101.9644995438761
 20
77.4393039014464
 30
0.0
 11
101.9644995438761
 21
81.43930390144641
 31
0.0
  0
LINE
  5
151C
330
1510
100
AcDbEntity
  8
太線
100
AcDbLine
 10
92.44645875977846
 20
76.9393039014464
 30
0.0
 11
101.4644995438761
 21
76.9393039014464
 31
0.0
  0
ARC
  5
151D
330
1510
100
AcDbEntity
  8
太線
100
AcDbCircle
 10
92.44645875977846
 20
77.43930390144639
 30
0.0
 40
0.5
100
AcDbArc
 50
180.0
 51
270.0
  0
ARC
  5
151E
330
1510
100
AcDbEntity
  8
太線
100
AcDbCircle
 10
101.4644995438761
 20
77.4393039014464
 30
0.0
 40
0.5
100
AcDbArc
 50
270.0
 51
0.0
  0
ARC
  5
151F
330
1510
100
AcDbEntity
  8
太線
100
AcDbCircle
 10
112.4464587597784
 20
77.4393039014464
 30
0.0
 40
0.5
100
AcDbArc
 50
180.0
 51
270.0
  0
LINE
  5
1520
330
1510
100
AcDbEntity
  8
想像線
100
AcDbLine
 10
93.94645875977847
 20
81.93930390144641
 30
0.0
 11
99.96449954387617
 21
81.93930390144641
 31
0.0
  0
LINE
  5
1521
330
1510
100
AcDbEntity
  8
極太線
100
AcDbLine
 10
96.38762957111168
 20
85.43930390144641
 30
0.0
 11
97.50528794844525
 21
85.43930390144641
 31
0.0
  0
CIRCLE
  5
1522
330
1510
100
AcDbEntity
  8
太線
100
AcDbCircle
 10
96.94645875977847
 20
85.43930390144641
 30
0.0
 40
0.5588291886667776
  0
LINE
  5
1523
330
1510
100
AcDbEntity
  8
太線
100
AcDbLine
 10
99.46449954387617
 20
86.93930390144641
 30
0.0
 11
94.44645875977846
 21
86.93930390144641
 31
0.0
  0
LINE
  5
1524
330
1510
100
AcDbEntity
  8
太線
100
AcDbLine
 10
93.94645875977847
 20
86.43930390144641
 30
0.0
 11
93.94645875977847
 21
81.93930390144641
 31
0.0
  0
ARC
  5
1525
330
1510
100
AcDbEntity
  8
太線
100
AcDbCircle
 10
92.44645875977846
 20
81.43930390144641
 30
0.0
 40
0.5
100
AcDbArc
 50
90.0
 51
180.0
  0
LINE
  5
1526
330
1510
100
AcDbEntity
  8
太線
100
AcDbLine
 10
93.94645875977847
 20
81.93930390144641
 30
0.0
 11
92.44645875977846
 21
81.93930390144641
 31
0.0
  0
ARC
  5
1527
330
1510
100
AcDbEntity
  8
太線
100
AcDbCircle
 10
94.44645875977846
 20
86.43930390144641
 30
0.0
 40
0.5
100
AcDbArc
 50
90.0
 51
180.0
  0
LINE
  5
1528
330
1510
100
AcDbEntity
  8
太線
100
AcDbLine
 10
99.96449954387617
 20
81.93930390144641
 30
0.0
 11
99.96449954387617
 21
86.43930390144641
 31
0.0
  0
LINE
  5
1529
330
1510
100
AcDbEntity
  8
太線
100
AcDbLine
 10
101.4644995438761
 20
81.93930390144641
 30
0.0
 11
99.96449954387617
 21
81.93930390144641
 31
0.0
  0
ARC
  5
152A
330
1510
100
AcDbEntity
  8
太線
100
AcDbCircle
 10
101.4644995438761
 20
81.43930390144641
 30
0.0
 40
0.5
100
AcDbArc
 50
0.0
 51
90.0
  0
ARC
  5
152B
330
1510
100
AcDbEntity
  8
太線
100
AcDbCircle
 10
99.46449954387617
 20
86.43930390144641
 30
0.0
 40
0.5
100
AcDbArc
 50
0.0
 51
90.0
  0
LINE
  5
152C
330
1510
100
AcDbEntity
  8
極太線
100
AcDbLine
 10
96.94645875977847
 20
85.99813309011318
 30
0.0
 11
96.94645875977847
 21
84.88047471277964
 31
0.0
  0
ARC
  5
152D
330
1510
100
AcDbEntity
  8
太線
100
AcDbCircle
 10
112.4464587597784
 20
81.43930390144641
 30
0.0
 40
0.5
100
AcDbArc
 50
90.0
 51
180.0
  0
TEXT
  5
152E
330
1510
100
AcDbEntity
  8
文字
100
AcDbText
 10
134.3819212586066
 20
78.16263579228063
 30
0.0
 40
2.0
  1
101
 51
15.0
  7
OKANO
100
AcDbText
  0
TEXT
  5
152F
330
1510
100
AcDbEntity
  8
文字
100
AcDbText
 10
113.3422276612066
 20
77.96976862235396
 30
0.0
 40
2.0
  1
38-83
 51
15.0
  7
OKANO
100
AcDbText
  0
LINE
  5
1530
330
1510
100
AcDbEntity
  8
太線
100
AcDbLine
 10
141.9825403279738
 20
77.4393039014464
 30
0.0
 11
141.9825403279738
 21
81.43930390144641
 31
0.0
  0
LINE
  5
1531
330
1510
100
AcDbEntity
  8
太線
100
AcDbLine
 10
131.9644995438761
 20
81.43930390144641
 30
0.0
 11
131.9644995438761
 21
77.4393039014464
 31
0.0
  0
LINE
  5
1532
330
1510
100
AcDbEntity
  8
太線
100
AcDbLine
 10
121.9644995438761
 20
77.4393039014464
 30
0.0
 11
121.9644995438761
 21
81.43930390144641
 31
0.0
  0
ARC
  5
1533
330
1510
100
AcDbEntity
  8
太線
100
AcDbCircle
 10
121.4644995438761
 20
77.4393039014464
 30
0.0
 40
0.5
100
AcDbArc
 50
270.0
 51
0.0
  0
LINE
  5
1534
330
1510
100
AcDbEntity
  8
太線
100
AcDbLine
 10
132.4644995438761
 20
76.9393039014464
 30
0.0
 11
141.4825403279738
 21
76.9393039014464
 31
0.0
  0
ARC
  5
1535
330
1510
100
AcDbEntity
  8
太線
100
AcDbCircle
 10
132.4644995438761
 20
77.4393039014464
 30
0.0
 40
0.5
100
AcDbArc
 50
180.0
 51
270.0
  0
ARC
  5
1536
330
1510
100
AcDbEntity
  8
太線
100
AcDbCircle
 10
141.4825403279738
 20
77.4393039014464
 30
0.0
 40
0.5
100
AcDbArc
 50
270.0
 51
0.0
  0
ARC
  5
1537
330
1510
100
AcDbEntity
  8
太線
100
AcDbCircle
 10
121.4644995438761
 20
81.43930390144641
 30
0.0
 40
0.5
100
AcDbArc
 50
0.0
 51
90.0
  0
LINE
  5
1538
330
1510
100
AcDbEntity
  8
太線
100
AcDbLine
 10
119.9644995438761
 20
81.93930390144641
 30
0.0
 11
119.9644995438761
 21
86.43930390144641
 31
0.0
  0
LINE
  5
1539
330
1510
100
AcDbEntity
  8
太線
100
AcDbLine
 10
113.9464587597784
 20
86.43930390144641
 30
0.0
 11
113.9464587597784
 21
81.93930390144641
 31
0.0
  0
LINE
  5
153A
330
1510
100
AcDbEntity
  8
想像線
100
AcDbLine
 10
113.9464587597784
 20
81.93930390144641
 30
0.0
 11
119.9644995438761
 21
81.93930390144641
 31
0.0
  0
LINE
  5
153B
330
1510
100
AcDbEntity
  8
太線
100
AcDbLine
 10
121.4644995438761
 20
81.93930390144641
 30
0.0
 11
119.9644995438761
 21
81.93930390144641
 31
0.0
  0
LINE
  5
153C
330
1510
100
AcDbEntity
  8
太線
100
AcDbLine
 10
119.4644995438761
 20
86.93930390144641
 30
0.0
 11
114.4464587597784
 21
86.93930390144641
 31
0.0
  0
ARC
  5
153D
330
1510
100
AcDbEntity
  8
太線
100
AcDbCircle
 10
114.4464587597784
 20
86.43930390144641
 30
0.0
 40
0.5
100
AcDbArc
 50
90.0
 51
180.0
  0
CIRCLE
  5
153E
330
1510
100
AcDbEntity
  8
太線
100
AcDbCircle
 10
115.4464587597784
 20
85.43930390144641
 30
0.0
 40
0.5588291886667776
  0
LINE
  5
153F
330
1510
100
AcDbEntity
  8
極太線
100
AcDbLine
 10
115.4464587597784
 20
85.99813309011318
 30
0.0
 11
115.4464587597784
 21
84.88047471277964
 31
0.0
  0
LINE
  5
1540
330
1510
100
AcDbEntity
  8
極太線
100
AcDbLine
 10
114.8876295711116
 20
85.43930390144641
 30
0.0
 11
116.0052879484452
 21
85.43930390144641
 31
0.0
  0
ARC
  5
1541
330
1510
100
AcDbEntity
  8
太線
100
AcDbCircle
 10
119.4644995438761
 20
86.43930390144641
 30
0.0
 40
0.5
100
AcDbArc
 50
0.0
 51
90.0
  0
LINE
  5
1542
330
1510
100
AcDbEntity
  8
極太線
100
AcDbLine
 10
117.9056703552094
 20
85.43930390144641
 30
0.0
 11
119.0233287325429
 21
85.43930390144641
 31
0.0
  0
LINE
  5
1543
330
1510
100
AcDbEntity
  8
極太線
100
AcDbLine
 10
118.4644995438761
 20
85.99813309011318
 30
0.0
 11
118.4644995438761
 21
84.88047471277964
 31
0.0
  0
CIRCLE
  5
1544
330
1510
100
AcDbEntity
  8
太線
100
AcDbCircle
 10
118.4644995438761
 20
85.43930390144641
 30
0.0
 40
0.5588291886667776
  0
LINE
  5
1545
330
1510
100
AcDbEntity
  8
想像線
100
AcDbLine
 10
133.9644995438761
 20
81.93930390144641
 30
0.0
 11
139.9825403279738
 21
81.93930390144641
 31
0.0
  0
LINE
  5
1546
330
1510
100
AcDbEntity
  8
極太線
100
AcDbLine
 10
137.9237111393071
 20
85.43930390144641
 30
0.0
 11
139.0413695166406
 21
85.43930390144641
 31
0.0
  0
CIRCLE
  5
1547
330
1510
100
AcDbEntity
  8
太線
100
AcDbCircle
 10
138.4825403279738
 20
85.43930390144641
 30
0.0
 40
0.5588291886667776
  0
CIRCLE
  5
1548
330
1510
100
AcDbEntity
  8
太線
100
AcDbCircle
 10
138.4825403279738
 20
83.26342923362075
 30
0.0
 40
0.5588291886667776
  0
LINE
  5
1549
330
1510
100
AcDbEntity
  8
極太線
100
AcDbLine
 10
137.9237111393071
 20
83.26342923362075
 30
0.0
 11
139.0413695166406
 21
83.26342923362075
 31
0.0
  0
LINE
  5
154A
330
1510
100
AcDbEntity
  8
太線
100
AcDbLine
 10
139.4825403279738
 20
86.93930390144641
 30
0.0
 11
134.4644995438761
 21
86.93930390144641
 31
0.0
  0
LINE
  5
154B
330
1510
100
AcDbEntity
  8
太線
100
AcDbLine
 10
133.9644995438761
 20
86.43930390144641
 30
0.0
 11
133.9644995438761
 21
81.93930390144641
 31
0.0
  0
ARC
  5
154C
330
1510
100
AcDbEntity
  8
太線
100
AcDbCircle
 10
132.4644995438761
 20
81.43930390144641
 30
0.0
 40
0.5
100
AcDbArc
 50
90.0
 51
180.0
  0
LINE
  5
154D
330
1510
100
AcDbEntity
  8
太線
100
AcDbLine
 10
133.9644995438761
 20
81.93930390144641
 30
0.0
 11
132.4644995438761
 21
81.93930390144641
 31
0.0
  0
LINE
  5
154E
330
1510
100
AcDbEntity
  8
極太線
100
AcDbLine
 10
134.9056703552093
 20
83.26342923362075
 30
0.0
 11
136.0233287325429
 21
83.26342923362075
 31
0.0
  0
LINE
  5
154F
330
1510
100
AcDbEntity
  8
極太線
100
AcDbLine
 10
135.4644995438761
 20
83.82225842228752
 30
0.0
 11
135.4644995438761
 21
82.70460004495395
 31
0.0
  0
CIRCLE
  5
1550
330
1510
100
AcDbEntity
  8
太線
100
AcDbCircle
 10
135.4644995438761
 20
83.26342923362075
 30
0.0
 40
0.5588291886667776
  0
ARC
  5
1551
330
1510
100
AcDbEntity
  8
太線
100
AcDbCircle
 10
134.4644995438761
 20
86.43930390144641
 30
0.0
 40
0.5
100
AcDbArc
 50
90.0
 51
180.0
  0
CIRCLE
  5
1552
330
1510
100
AcDbEntity
  8
太線
100
AcDbCircle
 10
135.4644995438761
 20
85.43930390144641
 30
0.0
 40
0.5588291886667776
  0
LINE
  5
1553
330
1510
100
AcDbEntity
  8
極太線
100
AcDbLine
 10
135.4644995438761
 20
85.99813309011318
 30
0.0
 11
135.4644995438761
 21
84.88047471277964
 31
0.0
  0
LINE
  5
1554
330
1510
100
AcDbEntity
  8
極太線
100
AcDbLine
 10
134.9056703552093
 20
85.43930390144641
 30
0.0
 11
136.0233287325429
 21
85.43930390144641
 31
0.0
  0
LINE
  5
1555
330
1510
100
AcDbEntity
  8
太線
100
AcDbLine
 10
139.9825403279738
 20
81.93930390144641
 30
0.0
 11
139.9825403279738
 21
86.43930390144641
 31
0.0
  0
ARC
  5
1556
330
1510
100
AcDbEntity
  8
太線
100
AcDbCircle
 10
141.4825403279738
 20
81.43930390144641
 30
0.0
 40
0.5
100
AcDbArc
 50
0.0
 51
90.0
  0
LINE
  5
1557
330
1510
100
AcDbEntity
  8
極太線
100
AcDbLine
 10
138.4825403279738
 20
83.82225842228752
 30
0.0
 11
138.4825403279738
 21
82.70460004495395
 31
0.0
  0
LINE
  5
1558
330
1510
100
AcDbEntity
  8
太線
100
AcDbLine
 10
141.4825403279738
 20
81.93930390144641
 30
0.0
 11
139.9825403279738
 21
81.93930390144641
 31
0.0
  0
ARC
  5
1559
330
1510
100
AcDbEntity
  8
太線
100
AcDbCircle
 10
139.4825403279738
 20
86.43930390144641
 30
0.0
 40
0.5
100
AcDbArc
 50
0.0
 51
90.0
  0
LINE
  5
155A
330
1510
100
AcDbEntity
  8
極太線
100
AcDbLine
 10
138.4825403279738
 20
85.99813309011318
 30
0.0
 11
138.4825403279738
 21
84.88047471277964
 31
0.0
  0
ENDBLK
  5
155C
330
1510
100
AcDbEntity
  8
0
100
AcDbBlockEnd
  0
BLOCK
  5
3D28
330
3CC1
100
AcDbEntity
  8
0
100
AcDbBlockBegin
  2
A$C057E205E
 70
     0
 10
0.0
 20
0.0
 30
0.0
  3
A$C057E205E
  1

  0
LINE
  5
3CC2
330
3CC1
100
AcDbEntity
  8
太線
100
AcDbLine
 10
38.00000063948155
 20
48.31028556239653
 30
0.0
 11
38.00000063948155
 21
24.31028556239652
 31
0.0
  0
LINE
  5
3CC3
330
3CC1
100
AcDbEntity
  8
想像線
100
AcDbLine
 10
24.23591133708169
 20
46.31028556239653
 30
0.0
 11
24.00000063948155
 21
26.31028556239653
 31
0.0
  0
LINE
  5
3CC4
330
3CC1
100
AcDbEntity
  8
想像線
100
AcDbLine
 10
14.469581990471
 20
37.07861414648755
 30
0.0
 11
14.469581990471
 21
28.31028556239651
 31
0.0
  0
LINE
  5
3CC5
330
3CC1
100
AcDbEntity
  8
想像線
100
AcDbLine
 10
14.06958199047099
 20
37.59889909720976
 30
0.0
 11
14.06958199047099
 21
28.31028556239651
 31
0.0
  0
LINE
  5
3CC6
330
3CC1
100
AcDbEntity
  8
想像線
100
AcDbLine
 10
10.06958199047099
 20
37.59889909720976
 30
0.0
 11
10.069581990471
 21
28.31028556239651
 31
0.0
  0
LINE
  5
3CC7
330
3CC1
100
AcDbEntity
  8
想像線
100
AcDbLine
 10
9.669581990470987
 20
28.31028556239651
 30
0.0
 11
9.669581990471002
 21
37.07861414648755
 31
0.0
  0
CIRCLE
  5
3CC8
330
3CC1
100
AcDbEntity
  8
太線
100
AcDbCircle
 10
12.00000063948154
 20
36.31028556239653
 30
0.0
 40
12.0
  0
CIRCLE
  5
3CC9
330
3CC1
100
AcDbEntity
  8
細線
100
AcDbCircle
 10
12.00000063948154
 20
36.31028556239653
 30
0.0
 40
9.615430761829063
  0
CIRCLE
  5
3CCA
330
3CC1
100
AcDbEntity
  8
太線
100
AcDbCircle
 10
12.00000063948154
 20
36.31028556239653
 30
0.0
 40
10.0
  0
ARC
  5
3CCB
330
3CC1
100
AcDbEntity
  8
細線
100
AcDbCircle
 10
7.459837071900764
 20
22.04102630690211
 30
0.0
 40
0.4162413570046767
100
AcDbArc
 50
196.6522123926323
 51
332.9675075299441
  0
LINE
  5
3CCC
330
3CC1
100
AcDbEntity
  8
太線
100
AcDbLine
 10
8.469581990470999
 20
22.79889909720975
 30
0.0
 11
6.069581990470993
 21
22.79889909720975
 31
0.0
  0
LINE
  5
3CCD
330
3CC1
100
AcDbEntity
  8
太線
100
AcDbLine
 10
6.665536398760785
 20
28.31028556239651
 30
0.0
 11
17.33446488020231
 21
28.31028556239651
 31
0.0
  0
LINE
  5
3CCE
330
3CC1
100
AcDbEntity
  8
細線
100
AcDbLine
 10
5.669581990470994
 20
21.99889909720976
 30
0.0
 11
18.46958199047099
 21
21.99889909720976
 31
0.0
  0
LINE
  5
3CCF
330
3CC1
100
AcDbEntity
  8
太線
100
AcDbLine
 10
5.669581990470994
 20
21.59889909720975
 30
0.0
 11
18.46958199047099
 21
21.59889909720975
 31
0.0
  0
LINE
  5
3CD0
330
3CC1
100
AcDbEntity
  8
太線
100
AcDbLine
 10
4.400000639481547
 20
24.31028556239651
 30
0.0
 11
19.60000063948155
 21
24.31028556239651
 31
0.0
  0
LINE
  5
3CD1
330
3CC1
100
AcDbEntity
  8
太線
100
AcDbLine
 10
4.869581990471004
 20
18.39889909720975
 30
0.0
 11
9.669581990471002
 21
18.39889909720975
 31
0.0
  0
LINE
  5
3CD2
330
3CC1
100
AcDbEntity
  8
太線
100
AcDbLine
 10
4.469581990470999
 20
19.99889909720975
 30
0.0
 11
18.069581990471
 21
19.99889909720975
 31
0.0
  0
LINE
  5
3CD3
330
3CC1
100
AcDbEntity
  8
太線
100
AcDbLine
 10
4.469581990470999
 20
21.19889909720976
 30
0.0
 11
4.469581990470999
 21
18.79889909720975
 31
0.0
  0
ARC
  5
3CD4
330
3CC1
100
AcDbEntity
  8
太線
100
AcDbCircle
 10
4.869581990471004
 20
18.79889909720975
 30
0.0
 40
0.4
100
AcDbArc
 50
180.0
 51
270.0
  0
ARC
  5
3CD5
330
3CC1
100
AcDbEntity
  8
細線
100
AcDbCircle
 10
6.47807979665373
 20
22.04102630690211
 30
0.0
 40
0.4162413570046767
100
AcDbArc
 50
196.6522123926323
 51
332.9675075299441
  0
LINE
  5
3CD6
330
3CC1
100
AcDbEntity
  8
太線
100
AcDbLine
 10
5.669581990470994
 20
22.39889909720975
 30
0.0
 11
5.669581990470994
 21
21.59889909720975
 31
0.0
  0
ARC
  5
3CD7
330
3CC1
100
AcDbEntity
  8
太線
100
AcDbCircle
 10
6.069581990470993
 20
22.39889909720975
 30
0.0
 40
0.4
100
AcDbArc
 50
90.0
 51
180.0
  0
LINE
  5
3CD8
330
3CC1
100
AcDbEntity
  8
太線
100
AcDbLine
 10
4.000000639481555
 20
27.36601365239736
 30
0.0
 11
4.000000639481555
 21
24.71028556239652
 31
0.0
  0
ARC
  5
3CD9
330
3CC1
100
AcDbEntity
  8
太線
100
AcDbCircle
 10
4.200000639481544
 20
24.51028556239652
 30
0.0
 40
0.2
100
AcDbArc
 50
180.0
 51
278.8957952865034
  0
ARC
  5
3CDA
330
3CC1
100
AcDbEntity
  8
太線
100
AcDbCircle
 10
4.292783369501592
 20
23.91750283237647
 30
0.0
 40
0.4
100
AcDbArc
 50
82.29795315063654
 51
98.89579528650337
  0
ARC
  5
3CDB
330
3CC1
100
AcDbEntity
  8
太線
100
AcDbCircle
 10
4.400000639481547
 20
24.71028556239652
 30
0.0
 40
0.4
100
AcDbArc
 50
262.2979531506365
 51
270.0
  0
ARC
  5
3CDC
330
3CC1
100
AcDbEntity
  8
太線
100
AcDbCircle
 10
4.869581990471004
 20
21.19889909720976
 30
0.0
 40
0.4
100
AcDbArc
 50
90.0
 51
180.0
  0
LINE
  5
3CDD
330
3CC1
100
AcDbEntity
  8
太線
100
AcDbLine
 10
5.669581990470994
 20
21.59889909720975
 30
0.0
 11
4.869581990471004
 21
21.59889909720975
 31
0.0
  0
LINE
  5
3CDE
330
3CC1
100
AcDbEntity
  8
想像線
100
AcDbLine
 10
24.00000063948155
 20
26.31028556239653
 30
0.0
 11
38.00000063948155
 21
26.31028556239653
 31
0.0
  0
LINE
  5
3CDF
330
3CC1
100
AcDbEntity
  8
太線
100
AcDbLine
 10
38.00000063948155
 20
24.31028556239652
 30
0.0
 11
12.00000063948154
 21
24.31028556239652
 31
0.0
  0
CIRCLE
  5
3CE0
330
3CC1
100
AcDbEntity
  8
太線
100
AcDbCircle
 10
22.46958199047099
 20
9.998899097209758
 30
0.0
 40
0.8795004643958726
  0
ARC
  5
3CE1
330
3CC1
100
AcDbEntity
  8
太線
100
AcDbCircle
 10
22.46958199047099
 20
9.998899097209758
 30
0.0
 40
4.728402512927522
100
AcDbArc
 50
171.0885869325796
 51
70.67419611043961
  0
ARC
  5
3CE2
330
3CC1
100
AcDbEntity
  8
太線
100
AcDbCircle
 10
22.56481378435893
 20
9.717791581484476
 30
0.0
 40
2.586531234550987
100
AcDbArc
 50
215.0352941570024
 51
6.239302511908031
  0
ARC
  5
3CE3
330
3CC1
100
AcDbEntity
  8
太線
100
AcDbCircle
 10
22.46958199047099
 20
9.998899097209758
 30
0.0
 40
7.232764563447711
100
AcDbArc
 50
158.35697109745
 51
82.89639821277226
  0
ARC
  5
3CE4
330
3CC1
100
AcDbEntity
  8
太線
100
AcDbCircle
 10
22.46958199047099
 20
9.998899097209758
 30
0.0
 40
10.0
100
AcDbArc
 50
152.172907248027
 51
88.8654795878571
  0
LINE
  5
3CE5
330
3CC1
100
AcDbEntity
  8
太線
100
AcDbLine
 10
9.669581990471002
 20
18.39889909720975
 30
0.0
 11
20.44696571796557
 21
8.23291333900741
 31
0.0
  0
LINE
  5
3CE6
330
3CC1
100
AcDbEntity
  8
想像線
100
AcDbLine
 10
19.17938022719464
 20
26.69485480056747
 30
0.0
 11
24.00000063948155
 21
26.69485480056747
 31
0.0
  0
LINE
  5
3CE7
330
3CC1
100
AcDbEntity
  8
太線
100
AcDbLine
 10
19.669581990471
 20
21.59889909720975
 30
0.0
 11
22.46958199047099
 21
20.79889909720975
 31
0.0
  0
ARC
  5
3CE8
330
3CC1
100
AcDbEntity
  8
太線
100
AcDbCircle
 10
18.069581990471
 20
19.59889909720975
 30
0.0
 40
0.4
100
AcDbArc
 50
0.0
 51
90.0
  0
LINE
  5
3CE9
330
3CC1
100
AcDbEntity
  8
太線
100
AcDbLine
 10
18.46958199047101
 20
19.59889909720975
 30
0.0
 11
18.46958199047099
 21
9.998899097209758
 31
0.0
  0
LINE
  5
3CEA
330
3CC1
100
AcDbEntity
  8
太線
100
AcDbLine
 10
10.06958199047099
 20
23.99889909720975
 30
0.0
 11
14.469581990471
 21
23.99889909720975
 31
0.0
  0
LINE
  5
3CEB
330
3CC1
100
AcDbEntity
  8
太線
100
AcDbLine
 10
8.469581990470999
 20
22.79889909720975
 30
0.0
 11
15.669581990471
 21
22.79889909720975
 31
0.0
  0
LINE
  5
3CEC
330
3CC1
100
AcDbEntity
  8
想像線
100
AcDbLine
 10
14.069581990471
 20
24.31028556239651
 30
0.0
 11
14.06958199047099
 21
23.99889909720975
 31
0.0
  0
ARC
  5
3CED
330
3CC1
100
AcDbEntity
  8
太線
100
AcDbCircle
 10
8.869581990470997
 20
23.59889909720975
 30
0.0
 40
0.4
100
AcDbArc
 50
90.0
 51
180.0
  0
LINE
  5
3CEE
330
3CC1
100
AcDbEntity
  8
太線
100
AcDbLine
 10
10.06958199047099
 20
23.99889909720975
 30
0.0
 11
8.869581990470997
 21
23.99889909720975
 31
0.0
  0
LINE
  5
3CEF
330
3CC1
100
AcDbEntity
  8
想像線
100
AcDbLine
 10
10.069581990471
 20
24.31028556239651
 30
0.0
 11
10.06958199047099
 21
23.99889909720975
 31
0.0
  0
LINE
  5
3CF0
330
3CC1
100
AcDbEntity
  8
想像線
100
AcDbLine
 10
9.669581990471002
 20
23.99889909720975
 30
0.0
 11
9.669581990470987
 21
24.31028556239651
 31
0.0
  0
ARC
  5
3CF1
330
3CC1
100
AcDbEntity
  8
細線
100
AcDbCircle
 10
13.75035558941905
 20
22.04102630690211
 30
0.0
 40
0.4162413570046767
100
AcDbArc
 50
196.6522123926323
 51
332.9675075299441
  0
ARC
  5
3CF2
330
3CC1
100
AcDbEntity
  8
細線
100
AcDbCircle
 10
11.60503416073039
 20
22.04102630690211
 30
0.0
 40
0.4162413570046767
100
AcDbArc
 50
196.6522123926323
 51
332.9675075299441
  0
ARC
  5
3CF3
330
3CC1
100
AcDbEntity
  8
細線
100
AcDbCircle
 10
12.76859831417201
 20
22.04102630690211
 30
0.0
 40
0.4162413570046767
100
AcDbArc
 50
196.6522123926323
 51
332.9675075299441
  0
ARC
  5
3CF4
330
3CC1
100
AcDbEntity
  8
細線
100
AcDbCircle
 10
8.623401225342391
 20
22.04102630690211
 30
0.0
 40
0.4162413570046767
100
AcDbArc
 50
196.6522123926323
 51
332.9675075299441
  0
ARC
  5
3CF5
330
3CC1
100
AcDbEntity
  8
細線
100
AcDbCircle
 10
9.605158500589425
 20
22.04102630690211
 30
0.0
 40
0.4162413570046767
100
AcDbArc
 50
196.6522123926323
 51
332.9675075299441
  0
ARC
  5
3CF6
330
3CC1
100
AcDbEntity
  8
細線
100
AcDbCircle
 10
10.62327688548335
 20
22.04102630690211
 30
0.0
 40
0.4162413570046767
100
AcDbArc
 50
196.6522123926323
 51
332.9675075299441
  0
LINE
  5
3CF7
330
3CC1
100
AcDbEntity
  8
太線
100
AcDbLine
 10
14.08522612101305
 20
23.84179687512899
 30
0.0
 11
14.08522612101305
 21
22.77459357675318
 31
0.0
  0
LINE
  5
3CF8
330
3CC1
100
AcDbEntity
  8
太線
100
AcDbLine
 10
10.11760410476389
 20
23.84179687512899
 30
0.0
 11
10.11760410476389
 21
22.92705151300372
 31
0.0
  0
LINE
  5
3CF9
330
3CC1
100
AcDbEntity
  8
想像線
100
AcDbLine
 10
9.669581990471002
 20
23.99889909720975
 30
0.0
 11
9.669581990471002
 21
22.79889909720975
 31
0.0
  0
LINE
  5
3CFA
330
3CC1
100
AcDbEntity
  8
太線
100
AcDbLine
 10
8.469581990470999
 20
23.59889909720975
 30
0.0
 11
8.469581990470999
 21
22.79889909720975
 31
0.0
  0
LINE
  5
3CFB
330
3CC1
100
AcDbEntity
  8
想像線
100
AcDbLine
 10
16.06958199047099
 20
27.99889909720976
 30
0.0
 11
16.06958199047099
 21
28.19889909720976
 31
0.0
  0
LINE
  5
3CFC
330
3CC1
100
AcDbEntity
  8
太線
100
AcDbLine
 10
20.00000063948154
 20
24.71028556239652
 30
0.0
 11
20.00000063948154
 21
27.36601365239736
 31
0.0
  0
ARC
  5
3CFD
330
3CC1
100
AcDbEntity
  8
太線
100
AcDbCircle
 10
19.60000063948155
 20
24.71028556239652
 30
0.0
 40
0.4
100
AcDbArc
 50
270.0
 51
0.0
  0
LINE
  5
3CFE
330
3CC1
100
AcDbEntity
  8
太線
100
AcDbLine
 10
20.00000063948154
 20
27.36601365239736
 30
0.0
 11
20.00000063948154
 21
26.69485480056747
 31
0.0
  0
LINE
  5
3CFF
330
3CC1
100
AcDbEntity
  8
太線
100
AcDbLine
 10
18.46958199047099
 20
21.59889909720975
 30
0.0
 11
19.669581990471
 21
21.59889909720975
 31
0.0
  0
LINE
  5
3D00
330
3CC1
100
AcDbEntity
  8
太線
100
AcDbLine
 10
18.46958199047099
 20
22.39889909720975
 30
0.0
 11
18.46958199047099
 21
21.59889909720975
 31
0.0
  0
LINE
  5
3D01
330
3CC1
100
AcDbEntity
  8
太線
100
AcDbLine
 10
15.669581990471
 20
22.79889909720975
 30
0.0
 11
18.06958199047099
 21
22.79889909720975
 31
0.0
  0
ARC
  5
3D02
330
3CC1
100
AcDbEntity
  8
細線
100
AcDbCircle
 10
16.98651828727548
 20
22.04102630690211
 30
0.0
 40
0.4162413570046767
100
AcDbArc
 50
196.6522123926323
 51
332.9675075299441
  0
ARC
  5
3D03
330
3CC1
100
AcDbEntity
  8
細線
100
AcDbCircle
 10
17.96827556252252
 20
22.04102630690211
 30
0.0
 40
0.4162413570046767
100
AcDbArc
 50
196.6522123926323
 51
332.9675075299441
  0
ARC
  5
3D04
330
3CC1
100
AcDbEntity
  8
太線
100
AcDbCircle
 10
18.06958199047099
 20
22.39889909720975
 30
0.0
 40
0.4
100
AcDbArc
 50
0.0
 51
90.0
  0
LINE
  5
3D05
330
3CC1
100
AcDbEntity
  8
太線
100
AcDbLine
 10
15.669581990471
 20
23.59889909720975
 30
0.0
 11
15.669581990471
 21
22.79889909720975
 31
0.0
  0
LINE
  5
3D06
330
3CC1
100
AcDbEntity
  8
太線
100
AcDbLine
 10
14.469581990471
 20
23.99889909720975
 30
0.0
 11
15.26958199047099
 21
23.99889909720975
 31
0.0
  0
LINE
  5
3D07
330
3CC1
100
AcDbEntity
  8
想像線
100
AcDbLine
 10
14.469581990471
 20
24.31028556239651
 30
0.0
 11
14.469581990471
 21
23.99889909720975
 31
0.0
  0
ARC
  5
3D08
330
3CC1
100
AcDbEntity
  8
細線
100
AcDbCircle
 10
14.84119685858682
 20
22.04102630690211
 30
0.0
 40
0.4162413570046767
100
AcDbArc
 50
196.6522123926323
 51
332.9675075299441
  0
LINE
  5
3D09
330
3CC1
100
AcDbEntity
  8
想像線
100
AcDbLine
 10
14.469581990471
 20
23.99889909720975
 30
0.0
 11
14.469581990471
 21
22.79889909720975
 31
0.0
  0
ARC
  5
3D0A
330
3CC1
100
AcDbEntity
  8
太線
100
AcDbCircle
 10
15.26958199047099
 20
23.59889909720975
 30
0.0
 40
0.4
100
AcDbArc
 50
0.0
 51
90.0
  0
ARC
  5
3D0B
330
3CC1
100
AcDbEntity
  8
細線
100
AcDbCircle
 10
15.82295413383386
 20
22.04102630690211
 30
0.0
 40
0.4162413570046767
100
AcDbArc
 50
196.6522123926323
 51
332.9675075299441
  0
LINE
  5
3D0C
330
3CC1
100
AcDbEntity
  8
太線
100
AcDbLine
 10
22.46958199047099
 20
20.79889909720975
 30
0.0
 11
25.13602408145846
 21
9.998899097209758
 31
0.0
  0
ARC
  5
3D0D
330
3CC1
100
AcDbEntity
  8
太線
100
AcDbCircle
 10
22.46958199047099
 20
9.998899097209758
 30
0.0
 40
2.666442090987455
100
AcDbArc
 50
0.0000000000016284
 51
27.73712696829502
  0
LINE
  5
3D0E
330
3CC1
100
AcDbEntity
  8
太線
100
AcDbLine
 10
0.0335687262416968
 20
62.31028556239653
 30
0.0
 11
24.00000063948155
 21
62.31028556239653
 31
0.0
  0
LINE
  5
3D0F
330
3CC1
100
AcDbEntity
  8
想像線
100
AcDbLine
 10
2.000000639481555
 20
48.31028556239653
 30
0.0
 11
22.00000063948154
 21
48.31028556239653
 31
0.0
  0
LINE
  5
3D10
330
3CC1
100
AcDbEntity
  8
太線
100
AcDbLine
 10
0.0335687262416968
 20
62.31028556239653
 30
0.0
 11
0.1678410732823181
 21
38.31028556239653
 31
0.0
  0
LINE
  5
3D11
330
3CC1
100
AcDbEntity
  8
想像線
100
AcDbLine
 10
2.000000639481555
 20
62.31028556239653
 30
0.0
 11
2.000000639481555
 21
48.31028556239653
 31
0.0
  0
LINE
  5
3D12
330
3CC1
100
AcDbEntity
  8
想像線
100
AcDbLine
 10
2.384569877652481
 20
48.31028556239653
 30
0.0
 11
2.384569877652481
 21
43.48966515010962
 31
0.0
  0
LINE
  5
3D13
330
3CC1
100
AcDbEntity
  8
太線
100
AcDbLine
 10
34.00000063948155
 20
35.31028556239653
 30
0.0
 11
24.23591133708169
 21
35.31028556239653
 31
0.0
  0
LINE
  5
3D14
330
3CC1
100
AcDbEntity
  8
太線
100
AcDbLine
 10
23.95826138258295
 20
37.31028556239653
 30
0.0
 11
34.00000063948155
 21
37.31028556239653
 31
0.0
  0
LINE
  5
3D15
330
3CC1
100
AcDbEntity
  8
想像線
100
AcDbLine
 10
38.00000063948155
 20
46.31028556239653
 30
0.0
 11
24.23591133708169
 21
46.31028556239653
 31
0.0
  0
LINE
  5
3D16
330
3CC1
100
AcDbEntity
  8
太線
100
AcDbLine
 10
24.00000063948155
 20
48.31028556239653
 30
0.0
 11
38.00000063948155
 21
48.31028556239653
 31
0.0
  0
LINE
  5
3D17
330
3CC1
100
AcDbEntity
  8
太線
100
AcDbLine
 10
24.23591133708169
 20
58.31028556239653
 30
0.0
 11
34.00000063948155
 21
48.31028556239653
 31
0.0
  0
CIRCLE
  5
3D18
330
3CC1
100
AcDbEntity
  8
太線
100
AcDbCircle
 10
26.17730048787334
 20
50.20780555088709
 30
0.0
 40
1.2
  0
LINE
  5
3D19
330
3CC1
100
AcDbEntity
  8
太線
100
AcDbLine
 10
11.00000063948154
 20
48.31028556239653
 30
0.0
 11
11.00000063948154
 21
58.31028556239653
 31
0.0
  0
LINE
  5
3D1A
330
3CC1
100
AcDbEntity
  8
太線
100
AcDbLine
 10
13.00000063948155
 20
58.31028556239653
 30
0.0
 11
13.00000063948155
 21
48.31028556239653
 31
0.0
  0
LINE
  5
3D1B
330
3CC1
100
AcDbEntity
  8
太線
100
AcDbLine
 10
24.00000063948155
 20
62.31028556239653
 30
0.0
 11
24.00000063948155
 21
48.31028556239653
 31
0.0
  0
LINE
  5
3D1C
330
3CC1
100
AcDbEntity
  8
想像線
100
AcDbLine
 10
22.00000063948154
 20
48.31028556239653
 30
0.0
 11
22.00000063948154
 21
62.31028556239653
 31
0.0
  0
LINE
  5
3D1D
330
3CC1
100
AcDbEntity
  8
想像線
100
AcDbLine
 10
19.17938022719464
 20
45.9257163242256
 30
0.0
 11
24.23137513721906
 21
45.9257163242256
 31
0.0
  0
LINE
  5
3D1E
330
3CC1
100
AcDbEntity
  8
太線
100
AcDbLine
 10
14.06958199047099
 20
37.59889909720976
 30
0.0
 11
14.469581990471
 21
37.07861414648755
 31
0.0
  0
LINE
  5
3D1F
330
3CC1
100
AcDbEntity
  8
太線
100
AcDbLine
 10
9.669581990471002
 20
37.07861414648755
 30
0.0
 11
10.06958199047099
 21
37.59889909720976
 31
0.0
  0
LINE
  5
3D20
330
3CC1
100
AcDbEntity
  8
太線
100
AcDbLine
 10
10.06958199047099
 20
37.59889909720976
 30
0.0
 11
14.06958199047099
 21
37.59889909720976
 31
0.0
  0
LINE
  5
3D21
330
3CC1
100
AcDbEntity
  8
破線
100
AcDbLine
 10
11.00000063948154
 20
48.93031848493688
 30
0.0
 11
13.00000063948155
 21
48.93031848493688
 31
0.0
  0
LINE
  5
3D22
330
3CC1
100
AcDbEntity
  8
破線
100
AcDbLine
 10
24.71759178927914
 20
35.31028556239653
 30
0.0
 11
24.71759178927914
 21
37.31028556239653
 31
0.0
  0
LINE
  5
3D23
330
3CC1
100
AcDbEntity
  8
破線
100
AcDbLine
 10
27.29068781968999
 20
35.31028556239653
 30
0.0
 11
27.29068781968999
 21
37.31028556239653
 31
0.0
  0
LINE
  5
3D24
330
3CC1
100
AcDbEntity
  8
想像線
100
AcDbLine
 10
21.61543140131061
 20
48.31028556239653
 30
0.0
 11
21.61543140131061
 21
43.48966515010962
 31
0.0
  0
LINE
  5
3D25
330
3CC1
100
AcDbEntity
  8
太線
100
AcDbLine
 10
11.00000063948154
 20
58.31028556239653
 30
0.0
 11
13.00000063948155
 21
58.31028556239653
 31
0.0
  0
LINE
  5
3D26
330
3CC1
100
AcDbEntity
  8
破線
100
AcDbLine
 10
11.00000063948154
 20
51.40249511914867
 30
0.0
 11
13.00000063948155
 21
51.40249511914867
 31
0.0
  0
LINE
  5
3D27
330
3CC1
100
AcDbEntity
  8
太線
100
AcDbLine
 10
34.00000063948155
 20
37.31028556239653
 30
0.0
 11
34.00000063948155
 21
35.31028556239653
 31
0.0
  0
ENDBLK
  5
3D29
330
3CC1
100
AcDbEntity
  8
0
100
AcDbBlockEnd
  0
BLOCK
  5
4D3D
330
4D33
100
AcDbEntity
  8
0
100
AcDbBlockBegin
  2
*D3
 70
     1
 10
0.0
 20
0.0
 30
0.0
  3
*D3
  1

  0
LINE
  5
4D34
330
4D33
100
AcDbEntity
  8
寸法線
 62
     0
370
    -2
100
AcDbLine
 10
1442.176840851421
 20
629.1852191894776
 30
0.0
 11
1571.581764994433
 21
629.1852191894776
 31
0.0
  0
LINE
  5
4D35
330
4D33
100
AcDbEntity
  8
寸法線
 62
     0
370
    -2
100
AcDbLine
 10
1444.122375086325
 20
588.3734601448386
 30
0.0
 11
1571.581764994433
 21
588.3734601448386
 31
0.0
  0
LINE
  5
4D36
330
4D33
100
AcDbEntity
  8
寸法線
 62
     0
370
    -2
100
AcDbLine
 10
1568.581764994434
 20
626.1852191894777
 30
0.0
 11
1568.581764994434
 21
591.3734601448386
 31
0.0
  0
INSERT
  5
4D37
330
4D33
100
AcDbEntity
  8
寸法線
 62
     0
370
    -2
100
AcDbBlockReference
  2
_Closed
 10
1568.581764994434
 20
629.1852191894776
 30
0.0
 41
3.0
 42
3.0
 43
3.0
 50
90.0
  0
INSERT
  5
4D38
330
4D33
100
AcDbEntity
  8
寸法線
 62
     0
370
    -2
100
AcDbBlockReference
  2
_Closed
 10
1568.581764994434
 20
588.3734601448386
 30
0.0
 41
3.0
 42
3.0
 43
3.0
 50
270.0
  0
MTEXT
  5
4D39
330
4D33
100
AcDbEntity
  8
寸法線
 62
     0
100
AcDbMText
 10
1560.080288616481
 20
608.7793396671584
 30
0.0
 40
15.0
 41
0.0
 71
     5
 72
     1
  1
12
  7
OKANO
 11
0.0000000000000001
 21
1.0
 31
0.0
 73
     1
 44
1.0
  0
POINT
  5
4D3A
330
4D33
100
AcDbEntity
  8
Defpoints
 62
     0
100
AcDbPoint
 10
1440.17684085142
 20
629.1852191894776
 30
0.0
  0
POINT
  5
4D3B
330
4D33
100
AcDbEntity
  8
Defpoints
 62
     0
100
AcDbPoint
 10
1442.122375086325
 20
588.3734601448386
 30
0.0
  0
POINT
  5
4D3C
330
4D33
100
AcDbEntity
  8
Defpoints
 62
     0
100
AcDbPoint
 10
1568.581764994434
 20
588.3734601448386
 30
0.0
  0
ENDBLK
  5
4D3E
330
4D33
100
AcDbEntity
  8
0
100
AcDbBlockEnd
  0
BLOCK
  5
4D49
330
4D3F
100
AcDbEntity
  8
0
100
AcDbBlockBegin
  2
*D4
 70
     1
 10
0.0
 20
0.0
 30
0.0
  3
*D4
  1

  0
LINE
  5
4D40
330
4D3F
100
AcDbEntity
  8
寸法線
 62
     0
370
    -2
100
AcDbLine
 10
1407.102851617382
 20
625.3549663830726
 30
0.0
 11
1407.102851617382
 21
733.2429038777108
 31
0.0
  0
LINE
  5
4D41
330
4D3F
100
AcDbEntity
  8
寸法線
 62
     0
370
    -2
100
AcDbLine
 10
1471.305310121221
 20
621.4681323566018
 30
0.0
 11
1471.305310121221
 21
733.2429038777108
 31
0.0
  0
LINE
  5
4D42
330
4D3F
100
AcDbEntity
  8
寸法線
 62
     0
370
    -2
100
AcDbLine
 10
1410.102851617382
 20
730.2429038777108
 30
0.0
 11
1468.305310121222
 21
730.2429038777108
 31
0.0
  0
INSERT
  5
4D43
330
4D3F
100
AcDbEntity
  8
寸法線
 62
     0
370
    -2
100
AcDbBlockReference
  2
_Closed
 10
1407.102851617382
 20
730.2429038777108
 30
0.0
 41
3.0
 42
3.0
 43
3.0
 50
180.0
  0
INSERT
  5
4D44
330
4D3F
100
AcDbEntity
  8
寸法線
 62
     0
370
    -2
100
AcDbBlockReference
  2
_Closed
 10
1471.305310121221
 20
730.2429038777108
 30
0.0
 41
3.0
 42
3.0
 43
3.0
  0
MTEXT
  5
4D45
330
4D3F
100
AcDbEntity
  8
寸法線
 62
     0
100
AcDbMText
 10
1439.204080869301
 20
738.7443802556636
 30
0.0
 40
15.0
 41
0.0
 71
     5
 72
     1
  1
20
  7
OKANO
 73
     1
 44
1.0
  0
POINT
  5
4D46
330
4D3F
100
AcDbEntity
  8
Defpoints
 62
     0
100
AcDbPoint
 10
1407.102851617382
 20
623.3549663830727
 30
0.0
  0
POINT
  5
4D47
330
4D3F
100
AcDbEntity
  8
Defpoints
 62
     0
100
AcDbPoint
 10
1471.305310121221
 20
619.4681323566019
 30
0.0
  0
POINT
  5
4D48
330
4D3F
100
AcDbEntity
  8
Defpoints
 62
     0
100
AcDbPoint
 10
1471.305310121221
 20
730.2429038777108
 30
0.0
  0
ENDBLK
  5
4D4A
330
4D3F
100
AcDbEntity
  8
0
100
AcDbBlockEnd
  0
BLOCK
  5
4D56
330
4D4B
100
AcDbEntity
  8
0
100
AcDbBlockBegin
  2
*D5
 70
     1
 10
0.0
 20
0.0
 30
0.0
  3
*D5
  1

  0
LINE
  5
4D4C
330
4D4B
100
AcDbEntity
  8
寸法線
 62
     0
370
    -2
100
AcDbLine
 10
1027.724681893054
 20
533.901202554186
 30
0.0
 11
1027.724681893054
 21
486.2591942365402
 31
0.0
  0
LINE
  5
4D4D
330
4D4B
100
AcDbEntity
  8
寸法線
 62
     0
370
    -2
100
AcDbLine
 10
1508.270360689736
 20
530.0143685277153
 30
0.0
 11
1508.270360689736
 21
486.2591942365402
 31
0.0
  0
LINE
  5
4D4E
330
4D4B
100
AcDbEntity
  8
寸法線
 62
     0
370
    -2
100
AcDbLine
 10
1030.724681893054
 20
489.2591942365402
 30
0.0
 11
1252.33068166301
 21
489.2591942365402
 31
0.0
  0
LINE
  5
4D4F
330
4D4B
100
AcDbEntity
  8
寸法線
 62
     0
370
    -2
100
AcDbLine
 10
1505.270360689736
 20
489.2591942365402
 30
0.0
 11
1283.664360919781
 21
489.2591942365402
 31
0.0
  0
INSERT
  5
4D50
330
4D4B
100
AcDbEntity
  8
寸法線
 62
     0
370
    -2
100
AcDbBlockReference
  2
_Closed
 10
1027.724681893054
 20
489.2591942365402
 30
0.0
 41
3.0
 42
3.0
 43
3.0
 50
180.0
  0
INSERT
  5
4D51
330
4D4B
100
AcDbEntity
  8
寸法線
 62
     0
370
    -2
100
AcDbBlockReference
  2
_Closed
 10
1508.270360689736
 20
489.2591942365402
 30
0.0
 41
3.0
 42
3.0
 43
3.0
  0
MTEXT
  5
4D52
330
4D4B
100
AcDbEntity
  8
寸法線
 62
     0
100
AcDbMText
 10
1267.997521291395
 20
489.2591942365402
 30
0.0
 40
15.0
 41
0.0
 71
     5
 72
     1
  1
139
  7
OKANO
 11
-0.8571673007021122
 21
0.5150380749100544
 31
0.0
 73
     1
 44
1.0
  0
POINT
  5
4D53
330
4D4B
100
AcDbEntity
  8
Defpoints
 62
     0
100
AcDbPoint
 10
1027.724681893054
 20
535.901202554186
 30
0.0
  0
POINT
  5
4D54
330
4D4B
100
AcDbEntity
  8
Defpoints
 62
     0
100
AcDbPoint
 10
1508.270360689736
 20
532.0143685277153
 30
0.0
  0
POINT
  5
4D55
330
4D4B
100
AcDbEntity
  8
Defpoints
 62
     0
100
AcDbPoint
 10
1508.270360689736
 20
489.2591942365402
 30
0.0
  0
ENDBLK
  5
4D57
330
4D4B
100
AcDbEntity
  8
0
100
AcDbBlockEnd
  0
BLOCK
  5
4D62
330
4D58
100
AcDbEntity
  8
0
100
AcDbBlockBegin
  2
*D6
 70
     1
 10
0.0
 20
0.0
 30
0.0
  3
*D6
  1

  0
LINE
  5
4D59
330
4D58
100
AcDbEntity
  8
寸法線
 62
     0
370
    -2
100
AcDbLine
 10
1015.997032124532
 20
541.7314518271923
 30
0.0
 11
964.4132775883562
 21
541.7314518271923
 31
0.0
  0
LINE
  5
4D5A
330
4D58
100
AcDbEntity
  8
寸法線
 62
     0
370
    -2
100
AcDbLine
 10
1015.997032124532
 20
675.827227507124
 30
0.0
 11
964.4132775883562
 21
675.827227507124
 31
0.0
  0
LINE
  5
4D5B
330
4D58
100
AcDbEntity
  8
寸法線
 62
     0
370
    -2
100
AcDbLine
 10
967.4132775883563
 20
544.7314518271923
 30
0.0
 11
967.4132775883563
 21
672.827227507124
 31
0.0
  0
INSERT
  5
4D5C
330
4D58
100
AcDbEntity
  8
寸法線
 62
     0
370
    -2
100
AcDbBlockReference
  2
_Closed
 10
967.4132775883563
 20
541.7314518271923
 30
0.0
 41
3.0
 42
3.0
 43
3.0
 50
270.0
  0
INSERT
  5
4D5D
330
4D58
100
AcDbEntity
  8
寸法線
 62
     0
370
    -2
100
AcDbBlockReference
  2
_Closed
 10
967.4132775883563
 20
675.827227507124
 30
0.0
 41
3.0
 42
3.0
 43
3.0
 50
90.0
  0
MTEXT
  5
4D5E
330
4D58
100
AcDbEntity
  8
寸法線
 62
     0
100
AcDbMText
 10
958.9132775883562
 20
608.7793396671583
 30
0.0
 40
15.0
 41
0.0
 71
     5
 72
     1
  1
38
  7
OKANO
 11
0.0000000000000001
 21
1.0
 31
0.0
 73
     1
 44
1.0
  0
POINT
  5
4D5F
330
4D58
100
AcDbEntity
  8
Defpoints
 62
     0
100
AcDbPoint
 10
1017.997032124532
 20
541.7314518271923
 30
0.0
  0
POINT
  5
4D60
330
4D58
100
AcDbEntity
  8
Defpoints
 62
     0
100
AcDbPoint
 10
1017.997032124532
 20
675.827227507124
 30
0.0
  0
POINT
  5
4D61
330
4D58
100
AcDbEntity
  8
Defpoints
 62
     0
100
AcDbPoint
 10
967.4132775883563
 20
675.827227507124
 30
0.0
  0
ENDBLK
  5
4D63
330
4D58
100
AcDbEntity
  8
0
100
AcDbBlockEnd
  0
BLOCK
  5
4D6F
330
4D64
100
AcDbEntity
  8
0
100
AcDbBlockBegin
  2
*D7
 70
     1
 10
0.0
 20
0.0
 30
0.0
  3
*D7
  1

  0
LINE
  5
4D65
330
4D64
100
AcDbEntity
  8
寸法線
 62
     0
370
    -2
100
AcDbLine
 10
385.9103733591727
 20
585.678551052013
 30
0.0
 11
266.8592458834619
 21
585.678551052013
 31
0.0
  0
LINE
  5
4D66
330
4D64
100
AcDbEntity
  8
寸法線
 62
     0
370
    -2
100
AcDbLine
 10
388.2607735380761
 20
569.2436004464079
 30
0.0
 11
266.8592458834619
 21
569.2436004464079
 31
0.0
  0
LINE
  5
4D67
330
4D64
100
AcDbEntity
  8
寸法線
 62
     0
370
    -2
100
AcDbLine
 10
269.8592458834618
 20
582.6785510520131
 30
0.0
 11
269.8592458834618
 21
572.2436004464079
 31
0.0
  0
LINE
  5
4D68
330
4D64
100
AcDbEntity
  8
寸法線
 62
     0
370
    -2
100
AcDbLine
 10
269.8592458834618
 20
569.2436004464079
 30
0.0
 11
269.8592458834618
 21
522.3762863485878
 31
0.0
  0
INSERT
  5
4D69
330
4D64
100
AcDbEntity
  8
寸法線
 62
     0
370
    -2
100
AcDbBlockReference
  2
_Closed
 10
269.8592458834618
 20
585.678551052013
 30
0.0
 41
3.0
 42
3.0
 43
3.0
 50
90.0
  0
INSERT
  5
4D6A
330
4D64
100
AcDbEntity
  8
寸法線
 62
     0
370
    -2
100
AcDbBlockReference
  2
_Closed
 10
269.8592458834618
 20
569.2436004464079
 30
0.0
 41
3.0
 42
3.0
 43
3.0
 50
270.0
  0
MTEXT
  5
4D6B
330
4D64
100
AcDbEntity
  8
寸法線
 62
     0
100
AcDbMText
 10
261.3592458834618
 20
544.309943397498
 30
0.0
 40
15.0
 41
0.0
 71
     5
 72
     1
  1
t 4.5
  7
OKANO
 11
0.0000000000000001
 21
1.0
 31
0.0
 73
     1
 44
1.0
  0
POINT
  5
4D6C
330
4D64
100
AcDbEntity
  8
Defpoints
 62
     0
100
AcDbPoint
 10
387.9103733591728
 20
585.678551052013
 30
0.0
  0
POINT
  5
4D6D
330
4D64
100
AcDbEntity
  8
Defpoints
 62
     0
100
AcDbPoint
 10
390.2607735380761
 20
569.2436004464079
 30
0.0
  0
POINT
  5
4D6E
330
4D64
100
AcDbEntity
  8
Defpoints
 62
     0
100
AcDbPoint
 10
269.8592458834618
 20
569.2436004464079
 30
0.0
  0
ENDBLK
  5
4D70
330
4D64
100
AcDbEntity
  8
0
100
AcDbBlockEnd
  0
BLOCK
  5
4D7B
330
4D71
100
AcDbEntity
  8
0
100
AcDbBlockBegin
  2
*D8
 70
     1
 10
0.0
 20
0.0
 30
0.0
  3
*D8
  1

  0
LINE
  5
4D72
330
4D71
100
AcDbEntity
  8
寸法線
 62
     0
370
    -2
100
AcDbLine
 10
525.9481479335717
 20
569.7074771753452
 30
0.0
 11
501.437832660761
 21
569.7074771753452
 31
0.0
  0
LINE
  5
4D73
330
4D71
100
AcDbEntity
  8
寸法線
 62
     0
370
    -2
100
AcDbLine
 10
612.5731479335719
 20
733.2884474434297
 30
0.0
 11
501.4378326607611
 21
733.2884474434297
 31
0.0
  0
LINE
  5
4D74
330
4D71
100
AcDbEntity
  8
寸法線
 62
     0
370
    -2
100
AcDbLine
 10
504.4378326607611
 20
572.7074771753453
 30
0.0
 11
504.4378326607612
 21
730.2884474434297
 31
0.0
  0
INSERT
  5
4D75
330
4D71
100
AcDbEntity
  8
寸法線
 62
     0
370
    -2
100
AcDbBlockReference
  2
_Closed
 10
504.4378326607611
 20
569.7074771753452
 30
0.0
 41
3.0
 42
3.0
 43
3.0
 50
270.0
  0
INSERT
  5
4D76
330
4D71
100
AcDbEntity
  8
寸法線
 62
     0
370
    -2
100
AcDbBlockReference
  2
_Closed
 10
504.4378326607612
 20
733.2884474434297
 30
0.0
 41
3.0
 42
3.0
 43
3.0
 50
90.0
  0
MTEXT
  5
4D77
330
4D71
100
AcDbEntity
  8
寸法線
 62
     0
100
AcDbMText
 10
495.937832660761
 20
651.4979623093876
 30
0.0
 40
15.0
 41
0.0
 71
     5
 72
     1
  1
47
  7
OKANO
 11
0.0000000000000001
 21
1.0
 31
0.0
 73
     1
 44
1.0
  0
POINT
  5
4D78
330
4D71
100
AcDbEntity
  8
Defpoints
 62
     0
100
AcDbPoint
 10
527.9481479335718
 20
569.7074771753452
 30
0.0
  0
POINT
  5
4D79
330
4D71
100
AcDbEntity
  8
Defpoints
 62
     0
100
AcDbPoint
 10
614.5731479335719
 20
733.2884474434297
 30
0.0
  0
POINT
  5
4D7A
330
4D71
100
AcDbEntity
  8
Defpoints
 62
     0
100
AcDbPoint
 10
504.4378326607612
 20
733.2884474434297
 30
0.0
  0
ENDBLK
  5
4D7C
330
4D71
100
AcDbEntity
  8
0
100
AcDbBlockEnd
  0
BLOCK
  5
4D87
330
4D7D
100
AcDbEntity
  8
0
100
AcDbBlockBegin
  2
*D9
 70
     1
 10
0.0
 20
0.0
 30
0.0
  3
*D9
  1

  0
LINE
  5
4D7E
330
4D7D
100
AcDbEntity
  8
寸法線
 62
     0
370
    -2
100
AcDbLine
 10
534.9481479335718
 20
574.7074771753452
 30
0.0
 11
534.9481479335718
 21
499.4857481094149
 31
0.0
  0
LINE
  5
4D7F
330
4D7D
100
AcDbEntity
  8
寸法線
 62
     0
370
    -2
100
AcDbLine
 10
706.4481479335718
 20
574.7074771753452
 30
0.0
 11
706.4481479335718
 21
499.4857481094149
 31
0.0
  0
LINE
  5
4D80
330
4D7D
100
AcDbEntity
  8
寸法線
 62
     0
370
    -2
100
AcDbLine
 10
537.9481479335717
 20
502.485748109415
 30
0.0
 11
703.4481479335718
 21
502.485748109415
 31
0.0
  0
INSERT
  5
4D81
330
4D7D
100
AcDbEntity
  8
寸法線
 62
     0
370
    -2
100
AcDbBlockReference
  2
_Closed
 10
534.9481479335718
 20
502.485748109415
 30
0.0
 41
3.0
 42
3.0
 43
3.0
 50
180.0
  0
INSERT
  5
4D82
330
4D7D
100
AcDbEntity
  8
寸法線
 62
     0
370
    -2
100
AcDbBlockReference
  2
_Closed
 10
706.4481479335718
 20
502.485748109415
 30
0.0
 41
3.0
 42
3.0
 43
3.0
  0
MTEXT
  5
4D83
330
4D7D
100
AcDbEntity
  8
寸法線
 62
     0
100
AcDbMText
 10
620.6981479335718
 20
510.985748109415
 30
0.0
 40
15.0
 41
0.0
 71
     5
 72
     1
  1
49
  7
OKANO
 73
     1
 44
1.0
  0
POINT
  5
4D84
330
4D7D
100
AcDbEntity
  8
Defpoints
 62
     0
100
AcDbPoint
 10
534.9481479335718
 20
576.7074771753453
 30
0.0
  0
POINT
  5
4D85
330
4D7D
100
AcDbEntity
  8
Defpoints
 62
     0
100
AcDbPoint
 10
706.4481479335718
 20
576.7074771753453
 30
0.0
  0
POINT
  5
4D86
330
4D7D
100
AcDbEntity
  8
Defpoints
 62
     0
100
AcDbPoint
 10
706.4481479335718
 20
502.485748109415
 30
0.0
  0
ENDBLK
  5
4D88
330
4D7D
100
AcDbEntity
  8
0
100
AcDbBlockEnd
  0
BLOCK
  5
4D93
330
4D89
100
AcDbEntity
  8
0
100
AcDbBlockBegin
  2
*D10
 70
     1
 10
0.0
 20
0.0
 30
0.0
  3
*D10
  1

  0
LINE
  5
4D8A
330
4D89
100
AcDbEntity
  8
寸法線
 62
     0
370
    -2
100
AcDbLine
 10
1181.081781858115
 20
678.1159533221016
 30
0.0
 11
1181.081781858115
 21
718.6624404648277
 31
0.0
  0
LINE
  5
4D8B
330
4D89
100
AcDbEntity
  8
寸法線
 62
     0
370
    -2
100
AcDbLine
 10
1025.331781858115
 20
671.1159533221016
 30
0.0
 11
1025.331781858115
 21
718.6624404648277
 31
0.0
  0
LINE
  5
4D8C
330
4D89
100
AcDbEntity
  8
寸法線
 62
     0
370
    -2
100
AcDbLine
 10
1178.081781858115
 20
715.6624404648278
 30
0.0
 11
1028.331781858115
 21
715.6624404648278
 31
0.0
  0
INSERT
  5
4D8D
330
4D89
100
AcDbEntity
  8
寸法線
 62
     0
370
    -2
100
AcDbBlockReference
  2
_Closed
 10
1181.081781858115
 20
715.6624404648278
 30
0.0
 41
3.0
 42
3.0
 43
3.0
  0
INSERT
  5
4D8E
330
4D89
100
AcDbEntity
  8
寸法線
 62
     0
370
    -2
100
AcDbBlockReference
  2
_Closed
 10
1025.331781858115
 20
715.6624404648278
 30
0.0
 41
3.0
 42
3.0
 43
3.0
 50
180.0
  0
MTEXT
  5
4D8F
330
4D89
100
AcDbEntity
  8
寸法線
 62
     0
100
AcDbMText
 10
1103.206781858115
 20
724.1624404648278
 30
0.0
 40
15.0
 41
0.0
 71
     5
 72
     1
  1
45
  7
OKANO
 73
     1
 44
1.0
  0
POINT
  5
4D90
330
4D89
100
AcDbEntity
  8
Defpoints
 62
     0
100
AcDbPoint
 10
1181.081781858115
 20
676.1159533221016
 30
0.0
  0
POINT
  5
4D91
330
4D89
100
AcDbEntity
  8
Defpoints
 62
     0
100
AcDbPoint
 10
1025.331781858115
 20
669.1159533221016
 30
0.0
  0
POINT
  5
4D92
330
4D89
100
AcDbEntity
  8
Defpoints
 62
     0
100
AcDbPoint
 10
1025.331781858115
 20
715.6624404648278
 30
0.0
  0
ENDBLK
  5
4D94
330
4D89
100
AcDbEntity
  8
0
100
AcDbBlockEnd
  0
BLOCK
  5
4E3B
330
4D95
100
AcDbEntity
  8
0
100
AcDbBlockBegin
  2
A$C4990298F
 70
     0
 10
0.0
 20
0.0
 30
0.0
  3
A$C4990298F
  1

  0
DIMENSION
  5
4D96
330
4D95
100
AcDbEntity
  8
寸法線
100
AcDbDimension
  2
*D10
 10
770.7225342921356
 20
379.533849672242
 30
0.0
 11
848.5975342921356
 21
388.033849672242
 31
0.0
 12
-254.6092475659798
 22
-336.1285907925857
 32
0.0
  1
45
 71
     5
 42
155.75
  3
sunpo
100
AcDbAlignedDimension
 13
926.4725342921355
 23
339.9873625295158
 33
0.0
 14
770.7225342921356
 24
332.9873625295158
 34
0.0
100
AcDbRotatedDimension
1001
ACAD
1000
DSTYLE
1002
{
1070
   140
1040
15.0
1070
    40
1040
1.0
1002
}
  0
DIMENSION
  5
4D97
330
4D95
100
AcDbEntity
  8
寸法線
100
AcDbDimension
  2
*D5
 10
1253.661113123756
 20
153.1306034439544
 30
0.0
 11
1013.388273725415
 21
153.1306034439544
 31
0.0
 12
-254.6092475659798
 22
-336.1285907925857
 32
0.0
  1
139
 71
     5
 42
480.5456787966822
 53
149.0
  3
sunpo
100
AcDbAlignedDimension
 13
773.1154343270746
 23
199.7726117616002
 33
0.0
 14
1253.661113123756
 24
195.8857777351295
 34
0.0
100
AcDbRotatedDimension
1001
ACAD
1000
DSTYLE
1002
{
1070
   140
1040
15.0
1070
    40
1040
1.0
1002
}
  0
ARC
  5
4D98
330
4D95
100
AcDbEntity
  8
太線
100
AcDbCircle
 10
854.7225342921356
 20
273.4873625295158
 30
0.0
 40
21.0
100
AcDbArc
 50
270.0
 51
90.0
  0
LINE
  5
4D99
330
4D95
100
AcDbEntity
  8
太線
100
AcDbLine
 10
1246.722534292135
 20
206.9873625295158
 30
0.0
 11
777.7225342921355
 21
206.9873625295158
 31
0.0
  0
LINE
  5
4D9A
330
4D95
100
AcDbEntity
  8
太線
100
AcDbLine
 10
777.7225342921355
 20
339.9873625295158
 30
0.0
 11
1246.722534292135
 21
339.9873625295158
 31
0.0
  0
ARC
  5
4D9B
330
4D95
100
AcDbEntity
  8
太線
100
AcDbCircle
 10
161.9012283228811
 20
279.6105210619265
 30
0.0
 40
5.397353912094705
100
AcDbArc
 50
0.8520529463794902
 51
156.552019889737
  0
LWPOLYLINE
  5
4D9C
330
4D95
100
AcDbEntity
  8
太線
100
AcDbPolyline
 90
        6
 70
     0
 43
0.0
 10
199.0818486588377
 20
258.8195739412385
 10
229.6333406112907
 20
258.8195739412385
 10
229.6333406112907
 20
252.9144448819279
 10
153.7685224045671
 20
252.9144448819279
 10
153.7685224045671
 20
258.8195739412385
 10
183.7899019084643
 20
258.8195739412385
  0
LWPOLYLINE
  5
4D9D
330
4D95
100
AcDbEntity
  8
太線
100
AcDbPolyline
 90
        4
 70
     0
 43
0.0
 10
158.1445937461175
 20
258.2325209393629
 10
158.1445937461175
 20
286.5226179613064
 10
222.8779495851713
 20
286.5226179613064
 10
222.8779495851713
 20
258.2325209393629
  0
LINE
  5
4D9E
330
4D95
100
AcDbEntity
  8
太線
100
AcDbLine
 10
257.588900367592
 20
249.3288863827594
 30
0.0
 11
131.588900367592
 21
249.3288863827594
 31
0.0
  0
LINE
  5
4D9F
330
4D95
100
AcDbEntity
  8
太線
100
AcDbLine
 10
124.588900367592
 20
233.5788863827594
 30
0.0
 11
273.338900367592
 21
233.5788863827594
 31
0.0
  0
LINE
  5
4DA0
330
4D95
100
AcDbEntity
  8
想像線
100
AcDbLine
 10
86.88712505287822
 20
225.481911839857
 30
0.0
 11
642.404017150063
 21
225.481911839857
 31
0.0
  0
DIMENSION
  5
4DA1
330
4D95
100
AcDbEntity
  8
寸法線
100
AcDbDimension
  2
*D7
 10
15.24999831748209
 20
233.1150096538221
 30
0.0
 11
6.749998317482038
 21
208.1813526049122
 31
0.0
 12
-254.6092475659798
 22
-336.1285907925857
 32
0.0
  1
t 4.5
 71
     5
 42
16.43495060560508
  3
sunpo
100
AcDbAlignedDimension
 13
133.301125793193
 23
249.5499602594272
 33
0.0
 14
135.6515259720963
 24
233.1150096538221
 34
0.0
 50
90.0
100
AcDbRotatedDimension
1001
ACAD
1000
DSTYLE
1002
{
1070
   140
1040
15.0
1070
    40
1040
1.0
1002
}
  0
LINE
  5
4DA2
330
4D95
100
AcDbEntity
  8
想像線
100
AcDbLine
 10
156.3345387740619
 20
249.3288863827594
 30
0.0
 11
156.3345387740619
 21
233.5788863827594
 31
0.0
  0
ARC
  5
4DA3
330
4D95
100
AcDbEntity
  8
太線
100
AcDbCircle
 10
131.588900367592
 20
242.3288863827595
 30
0.0
 40
7.0
100
AcDbArc
 50
90.0
 51
180.0
  0
LINE
  5
4DA4
330
4D95
100
AcDbEntity
  8
想像線
100
AcDbLine
 10
115.1066824536146
 20
133.4697924332513
 30
0.0
 11
66.92817740304144
 21
94.96883023675218
 31
0.0
  0
LINE
  5
4DA5
330
4D95
100
AcDbEntity
  8
想像線
100
AcDbLine
 10
115.1066824536146
 20
204.8581159799296
 30
0.0
 11
66.92817740304144
 21
166.3571537834304
 31
0.0
  0
LINE
  5
4DA6
330
4D95
100
AcDbEntity
  8
太線
100
AcDbLine
 10
124.588900367592
 20
242.3288863827595
 30
0.0
 11
124.588900367592
 21
233.5788863827594
 31
0.0
  0
DIMENSION
  5
4DA7
330
4D95
100
AcDbEntity
  8
寸法線
100
AcDbDimension
  2
*D8
 10
249.8285850947813
 20
397.1598566508439
 30
0.0
 11
241.3285850947812
 21
315.3693715168018
 31
0.0
 12
-254.6092475659798
 22
-336.1285907925857
 32
0.0
  1
47
 71
     5
 42
163.5809702680844
  3
sunpo
100
AcDbAlignedDimension
 13
273.338900367592
 23
233.5788863827594
 33
0.0
 14
359.9639003675921
 24
397.1598566508439
 34
0.0
 50
90.0
100
AcDbRotatedDimension
1001
ACAD
1000
DSTYLE
1002
{
1070
   140
1040
15.0
1070
    40
1040
1.0
1002
}
  0
DIMENSION
  5
4DA8
330
4D95
100
AcDbEntity
  8
寸法線
100
AcDbDimension
  2
*D6
 10
712.8040300223765
 20
339.6986367145382
 30
0.0
 11
704.3040300223764
 21
272.6507488745725
 31
0.0
 12
-254.6092475659798
 22
-336.1285907925857
 32
0.0
  1
38
 71
     5
 42
134.0957756799316
  3
sunpo
100
AcDbAlignedDimension
 13
763.387784558553
 23
205.6028610346065
 33
0.0
 14
763.387784558553
 24
339.6986367145382
 34
0.0
 50
90.0
100
AcDbRotatedDimension
1001
ACAD
1000
DSTYLE
1002
{
1070
   140
1040
15.0
1070
    40
1040
1.0
1002
}
  0
LINE
  5
4DA9
330
4D95
100
AcDbEntity
  8
想像線
100
AcDbLine
 10
575.9944522216637
 20
249.3288863827594
 30
0.0
 11
575.9944522216637
 21
233.5788863827594
 31
0.0
  0
LINE
  5
4DAA
330
4D95
100
AcDbEntity
  8
想像線
100
AcDbLine
 10
226.3345387740619
 20
249.3288863827594
 30
0.0
 11
226.3345387740619
 21
233.5788863827594
 31
0.0
  0
LINE
  5
4DAB
330
4D95
100
AcDbEntity
  8
太線
100
AcDbLine
 10
770.7225342921356
 20
213.9873625295158
 30
0.0
 11
770.7225342921356
 21
332.9873625295158
 31
0.0
  0
ARC
  5
4DAC
330
4D95
100
AcDbEntity
  8
太線
100
AcDbCircle
 10
600.588900367592
 20
242.3288863827595
 30
0.0
 40
7.0
100
AcDbArc
 50
0.0
 51
90.0
  0
LINE
  5
4DAD
330
4D95
100
AcDbEntity
  8
想像線
100
AcDbLine
 10
502.588900367592
 20
249.3288863827594
 30
0.0
 11
502.588900367592
 21
233.5788863827594
 31
0.0
  0
CIRCLE
  5
4DAE
330
4D95
100
AcDbEntity
  8
想像線
100
AcDbCircle
 10
366.088900367592
 20
311.6288863827592
 30
0.0
 40
81.54999999999999
  0
CIRCLE
  5
4DAF
330
4D95
100
AcDbEntity
  8
太線
100
AcDbCircle
 10
366.088900367592
 20
311.6288863827592
 30
0.0
 40
85.75000000000001
  0
LINE
  5
4DB0
330
4D95
100
AcDbEntity
  8
太線
100
AcDbLine
 10
451.838900367592
 20
240.5788863827595
 30
0.0
 11
451.838900367592
 21
311.6288863827592
 31
0.0
  0
LINE
  5
4DB1
330
4D95
100
AcDbEntity
  8
太線
100
AcDbLine
 10
280.338900367592
 20
240.5788863827595
 30
0.0
 11
280.338900367592
 21
311.6288863827592
 31
0.0
  0
HATCH
  5
4DB2
330
4D95
100
AcDbEntity
  8
太線
100
AcDbHatch
 10
0.0
 20
0.0
 30
0.0
210
0.0
220
0.0
230
1.0
  2
SOLID
 70
     1
 71
     0
 91
        2
 92
        7
 72
     1
 73
     1
 93
        2
 10
451.838900367592
 20
311.6288863827592
 42
1.0
 10
280.338900367592
 20
311.6288863827592
 42
1.0
 97
        0
 92
       22
 72
     1
 73
     1
 93
        2
 10
447.6389003675921
 20
311.6288863827592
 42
1.0
 10
284.538900367592
 20
311.6288863827592
 42
1.0
 97
        0
 75
     0
 76
     1
 47
0.1401098545803461
 98
        2
 10
410.6030664039123
 20
239.678587357796
 10
413.0576752056165
 20
247.5247403554821
  0
LINE
  5
4DB3
330
4D95
100
AcDbEntity
  8
太線
100
AcDbLine
 10
607.588900367592
 20
233.5788863827594
 30
0.0
 11
458.838900367592
 21
233.5788863827594
 31
0.0
  0
DIMENSION
  5
4DB4
330
4D95
100
AcDbEntity
  8
寸法線
100
AcDbDimension
  2
*D9
 10
451.838900367592
 20
166.3571573168292
 30
0.0
 11
366.088900367592
 21
174.8571573168292
 31
0.0
 12
-254.6092475659798
 22
-336.1285907925857
 32
0.0
  1
49
 71
     5
 42
171.5
  3
sunpo
100
AcDbAlignedDimension
 13
280.338900367592
 23
240.5788863827595
 33
0.0
 14
451.838900367592
 24
240.5788863827595
 34
0.0
100
AcDbRotatedDimension
1001
ACAD
1000
DSTYLE
1002
{
1070
   140
1040
15.0
1070
    40
1040
1.0
1002
}
  0
LINE
  5
4DB5
330
4D95
100
AcDbEntity
  8
想像線
100
AcDbLine
 10
388.1182110735262
 20
137.3658073331453
 30
0.0
 11
339.939706022953
 21
98.86484513664619
 31
0.0
  0
LINE
  5
4DB6
330
4D95
100
AcDbEntity
  8
想像線
100
AcDbLine
 10
388.1182110735262
 20
208.7541308798236
 30
0.0
 11
339.939706022953
 21
170.2531686833244
 31
0.0
  0
LINE
  5
4DB7
330
4D95
100
AcDbEntity
  8
太線
100
AcDbLine
 10
176.8716611715553
 20
233.5788863827593
 30
0.0
 11
176.8716611715553
 21
129.4741525414269
 31
0.0
  0
LINE
  5
4DB8
330
4D95
100
AcDbEntity
  8
太線
100
AcDbLine
 10
203.9866196529592
 20
129.4741525414269
 30
0.0
 11
203.9866196529592
 21
233.5788863827593
 31
0.0
  0
LINE
  5
4DB9
330
4D95
100
AcDbEntity
  8
想像線
100
AcDbLine
 10
272.4898003792186
 20
139.8866212327011
 30
0.0
 11
224.3112953286454
 21
101.385659036202
 31
0.0
  0
LINE
  5
4DBA
330
4D95
100
AcDbEntity
  8
太線
100
AcDbLine
 10
208.9901507946096
 20
57.74909064284702
 30
0.0
 11
203.9866196529592
 21
129.4741525414269
 31
0.0
  0
LINE
  5
4DBB
330
4D95
100
AcDbEntity
  8
太線
100
AcDbLine
 10
192.6044644868461
 20
129.1726617597073
 30
0.0
 11
198.5628958714869
 21
59.23708259113118
 31
0.0
  0
LINE
  5
4DBC
330
4D95
100
AcDbEntity
  8
太線
100
AcDbLine
 10
182.8716611715553
 20
58.40912599589819
 30
0.0
 11
192.6044644868461
 21
129.1726617597073
 31
0.0
  0
LINE
  5
4DBD
330
4D95
100
AcDbEntity
  8
太線
100
AcDbLine
 10
176.8716611715553
 20
129.4741525414269
 30
0.0
 11
171.8716611715553
 21
58.40912599589819
 31
0.0
  0
ARC
  5
4DBE
330
4D95
100
AcDbEntity
  8
太線
100
AcDbCircle
 10
200.9400015698365
 20
99.4040658404017
 30
0.0
 40
36.12059317986575
100
AcDbArc
 50
219.6948358828143
 51
242.2361810881486
  0
ARC
  5
4DBF
330
4D95
100
AcDbEntity
  8
太線
100
AcDbCircle
 10
198.9661395126258
 20
106.3050927837018
 30
0.0
 40
36.12059317986575
100
AcDbArc
 50
225.0408197035209
 51
247.0545006077019
  0
LINE
  5
4DC0
330
4D95
100
AcDbEntity
  8
太線
100
AcDbLine
 10
171.8716611715553
 20
58.40912599589819
 30
0.0
 11
182.8716611715553
 21
58.40912599589819
 31
0.0
  0
ARC
  5
4DC1
330
4D95
100
AcDbEntity
  8
太線
100
AcDbCircle
 10
198.9661395126258
 20
106.3050927837018
 30
0.0
 40
36.12059317986575
100
AcDbArc
 50
267.8770302417028
 51
284.5521227106328
  0
ARC
  5
4DC2
330
4D95
100
AcDbEntity
  8
太線
100
AcDbCircle
 10
200.9400015698365
 20
99.4040658404017
 30
0.0
 40
36.12059317986575
100
AcDbArc
 50
265.664392680656
 51
282.1584144520413
  0
LINE
  5
4DC3
330
4D95
100
AcDbEntity
  8
太線
100
AcDbLine
 10
198.5628958714869
 20
59.23708259113118
 30
0.0
 11
208.9901507946096
 21
57.74909064284702
 31
0.0
  0
ARC
  5
4DC4
330
4D95
100
AcDbEntity
  8
太線
100
AcDbCircle
 10
199.9530624351546
 20
118.1354246865018
 30
0.0
 40
36.12059317986575
100
AcDbArc
 50
224.7162844822785
 51
248.0941254537706
  0
ARC
  5
4DC5
330
4D95
100
AcDbEntity
  8
太線
100
AcDbCircle
 10
197.9792003779439
 20
125.036451629802
 30
0.0
 40
36.12059317986575
100
AcDbArc
 50
229.708706167991
 51
252.786747240769
  0
ARC
  5
4DC6
330
4D95
100
AcDbEntity
  8
太線
100
AcDbCircle
 10
197.9792003779439
 20
125.036451629802
 30
0.0
 40
36.12059317986575
100
AcDbArc
 50
266.9063090035082
 51
284.0378441791531
  0
ARC
  5
4DC7
330
4D95
100
AcDbEntity
  8
太線
100
AcDbCircle
 10
199.9530624351546
 20
118.1354246865018
 30
0.0
 40
36.12059317986575
100
AcDbArc
 50
264.6879868104835
 51
281.6475671926133
  0
ARC
  5
4DC8
330
4D95
100
AcDbEntity
  8
太線
100
AcDbCircle
 10
198.9661314065497
 20
135.8809225407019
 30
0.0
 40
36.12059317986575
100
AcDbArc
 50
229.2679821839093
 51
253.5895689848192
  0
ARC
  5
4DC9
330
4D95
100
AcDbEntity
  8
太線
100
AcDbCircle
 10
196.992269349339
 20
142.781949484002
 30
0.0
 40
36.12059317986575
100
AcDbArc
 50
233.9829091455343
 51
258.211814637739
  0
ARC
  5
4DCA
330
4D95
100
AcDbEntity
  8
太線
100
AcDbCircle
 10
196.992269349339
 20
142.781949484002
 30
0.0
 40
36.12059317986575
100
AcDbArc
 50
266.0676287189972
 51
283.634737925147
  0
ARC
  5
4DCB
330
4D95
100
AcDbEntity
  8
太線
100
AcDbCircle
 10
198.9661314065497
 20
135.8809225407019
 30
0.0
 40
36.12059317986575
100
AcDbArc
 50
263.8438514567356
 51
281.2470105845224
  0
ARC
  5
4DCC
330
4D95
100
AcDbEntity
  8
太線
100
AcDbCircle
 10
196.3289039902242
 20
163.9278336223718
 30
0.0
 40
36.80056863773195
100
AcDbArc
 50
241.3208449643785
 51
285.0083183091586
  0
ARC
  5
4DCD
330
4D95
100
AcDbEntity
  8
太線
100
AcDbCircle
 10
193.4719880209818
 20
197.2567027497667
 30
0.0
 40
59.09985339122795
100
AcDbArc
 50
254.4016711958871
 51
281.0220803100665
  0
LINE
  5
4DCE
330
4D95
100
AcDbEntity
  8
想像線
100
AcDbLine
 10
272.4898003792186
 20
211.2749447793794
 30
0.0
 11
224.3112953286454
 21
172.7739825828803
 31
0.0
  0
LINE
  5
4DCF
330
4D95
100
AcDbEntity
  8
想像線
100
AcDbLine
 10
183.7899019084643
 20
233.5788863827594
 30
0.0
 11
183.7899019084643
 21
193.0262051937697
 31
0.0
  0
LINE
  5
4DD0
330
4D95
100
AcDbEntity
  8
想像線
100
AcDbLine
 10
199.0818486588377
 20
233.5788863827594
 30
0.0
 11
199.0818486588377
 21
193.0262051937697
 31
0.0
  0
LINE
  5
4DD1
330
4D95
100
AcDbEntity
  8
想像線
100
AcDbLine
 10
177.3511841073605
 20
193.0262051937697
 30
0.0
 11
203.9108852258323
 21
193.0262051937697
 31
0.0
  0
ARC
  5
4DD2
330
4D95
100
AcDbEntity
  8
太線
100
AcDbCircle
 10
273.338900367592
 20
240.5788863827595
 30
0.0
 40
7.0
100
AcDbArc
 50
270.0
 51
0.0
  0
LINE
  5
4DD3
330
4D95
100
AcDbEntity
  8
想像線
100
AcDbLine
 10
487.6871200843097
 20
133.46979596665
 30
0.0
 11
439.5086150337365
 21
94.96883377015093
 31
0.0
  0
LINE
  5
4DD4
330
4D95
100
AcDbEntity
  8
想像線
100
AcDbLine
 10
487.6871200843097
 20
204.8581195133283
 30
0.0
 11
439.5086150337365
 21
166.3571573168292
 31
0.0
  0
ARC
  5
4DD5
330
4D95
100
AcDbEntity
  8
太線
100
AcDbCircle
 10
458.838900367592
 20
240.5788863827595
 30
0.0
 40
7.0
100
AcDbArc
 50
180.0
 51
270.0
  0
LINE
  5
4DD6
330
4D95
100
AcDbEntity
  8
太線
100
AcDbLine
 10
553.6465331005611
 20
129.4741525414269
 30
0.0
 11
553.6465331005611
 21
233.5788863827593
 31
0.0
  0
LINE
  5
4DD7
330
4D95
100
AcDbEntity
  8
太線
100
AcDbLine
 10
526.5315746191572
 20
233.5788863827593
 30
0.0
 11
526.5315746191572
 21
129.4741525414269
 31
0.0
  0
LINE
  5
4DD8
330
4D95
100
AcDbEntity
  8
想像線
100
AcDbLine
 10
648.2821369195517
 20
146.3034500321491
 30
0.0
 11
600.1036318689784
 21
107.80248783565
 31
0.0
  0
LINE
  5
4DD9
330
4D95
100
AcDbEntity
  8
太線
100
AcDbLine
 10
526.9667509567835
 20
129.4741525414269
 30
0.0
 11
521.9667509567834
 21
58.40912599589819
 31
0.0
  0
LINE
  5
4DDA
330
4D95
100
AcDbEntity
  8
太線
100
AcDbLine
 10
532.9667509567834
 20
58.40912599589819
 30
0.0
 11
542.6995542720742
 21
129.1726617597073
 31
0.0
  0
LINE
  5
4DDB
330
4D95
100
AcDbEntity
  8
太線
100
AcDbLine
 10
542.6995542720742
 20
129.1726617597073
 30
0.0
 11
548.657985656715
 21
59.23708259113118
 31
0.0
  0
LINE
  5
4DDC
330
4D95
100
AcDbEntity
  8
太線
100
AcDbLine
 10
559.0852405798377
 20
57.74909064284702
 30
0.0
 11
554.0817094381873
 21
129.4741525414269
 31
0.0
  0
ARC
  5
4DDD
330
4D95
100
AcDbEntity
  8
太線
100
AcDbCircle
 10
551.0350913550646
 20
99.4040658404017
 30
0.0
 40
36.12059317986575
100
AcDbArc
 50
219.6948358828143
 51
242.2361810881486
  0
ARC
  5
4DDE
330
4D95
100
AcDbEntity
  8
太線
100
AcDbCircle
 10
549.0612292978539
 20
106.3050927837018
 30
0.0
 40
36.12059317986575
100
AcDbArc
 50
225.0408197035209
 51
247.0545006077019
  0
LINE
  5
4DDF
330
4D95
100
AcDbEntity
  8
太線
100
AcDbLine
 10
521.9667509567834
 20
58.40912599589819
 30
0.0
 11
532.9667509567834
 21
58.40912599589819
 31
0.0
  0
LINE
  5
4DE0
330
4D95
100
AcDbEntity
  8
太線
100
AcDbLine
 10
548.657985656715
 20
59.23708259113118
 30
0.0
 11
559.0852405798377
 21
57.74909064284702
 31
0.0
  0
ARC
  5
4DE1
330
4D95
100
AcDbEntity
  8
太線
100
AcDbCircle
 10
551.0350913550646
 20
99.4040658404017
 30
0.0
 40
36.12059317986575
100
AcDbArc
 50
265.664392680656
 51
282.1584144520413
  0
ARC
  5
4DE2
330
4D95
100
AcDbEntity
  8
太線
100
AcDbCircle
 10
549.0612292978539
 20
106.3050927837018
 30
0.0
 40
36.12059317986575
100
AcDbArc
 50
267.8770302417028
 51
284.5521227106328
  0
ARC
  5
4DE3
330
4D95
100
AcDbEntity
  8
太線
100
AcDbCircle
 10
548.074290163172
 20
125.036451629802
 30
0.0
 40
36.12059317986575
100
AcDbArc
 50
229.708706167991
 51
252.786747240769
  0
ARC
  5
4DE4
330
4D95
100
AcDbEntity
  8
太線
100
AcDbCircle
 10
550.0481522203826
 20
118.1354246865018
 30
0.0
 40
36.12059317986575
100
AcDbArc
 50
224.7162844822785
 51
248.0941254537706
  0
ARC
  5
4DE5
330
4D95
100
AcDbEntity
  8
太線
100
AcDbCircle
 10
550.0481522203826
 20
118.1354246865018
 30
0.0
 40
36.12059317986575
100
AcDbArc
 50
264.6879868104835
 51
281.6475671926133
  0
ARC
  5
4DE6
330
4D95
100
AcDbEntity
  8
太線
100
AcDbCircle
 10
548.074290163172
 20
125.036451629802
 30
0.0
 40
36.12059317986575
100
AcDbArc
 50
266.9063090035082
 51
284.0378441791531
  0
ARC
  5
4DE7
330
4D95
100
AcDbEntity
  8
太線
100
AcDbCircle
 10
547.0873591345671
 20
142.781949484002
 30
0.0
 40
36.12059317986575
100
AcDbArc
 50
233.9829091455343
 51
258.211814637739
  0
ARC
  5
4DE8
330
4D95
100
AcDbEntity
  8
太線
100
AcDbCircle
 10
549.0612211917778
 20
135.8809225407019
 30
0.0
 40
36.12059317986575
100
AcDbArc
 50
229.2679821839093
 51
253.5895689848192
  0
ARC
  5
4DE9
330
4D95
100
AcDbEntity
  8
太線
100
AcDbCircle
 10
549.0612211917778
 20
135.8809225407019
 30
0.0
 40
36.12059317986575
100
AcDbArc
 50
263.8438514567356
 51
281.2470105845224
  0
ARC
  5
4DEA
330
4D95
100
AcDbEntity
  8
太線
100
AcDbCircle
 10
547.0873591345671
 20
142.781949484002
 30
0.0
 40
36.12059317986575
100
AcDbArc
 50
266.0676287189972
 51
283.634737925147
  0
ARC
  5
4DEB
330
4D95
100
AcDbEntity
  8
太線
100
AcDbCircle
 10
543.5670778062099
 20
197.2567027497667
 30
0.0
 40
59.09985339122795
100
AcDbArc
 50
254.4016711958871
 51
281.0220803100665
  0
ARC
  5
4DEC
330
4D95
100
AcDbEntity
  8
太線
100
AcDbCircle
 10
546.4239937754523
 20
163.9278336223718
 30
0.0
 40
36.80056863773195
100
AcDbArc
 50
241.3208449643785
 51
285.0083183091586
  0
LINE
  5
4DED
330
4D95
100
AcDbEntity
  8
想像線
100
AcDbLine
 10
648.2821369195517
 20
217.6917735788274
 30
0.0
 11
600.1036318689784
 21
179.1908113823283
 31
0.0
  0
LINE
  5
4DEE
330
4D95
100
AcDbEntity
  8
想像線
100
AcDbLine
 10
548.7417621064396
 20
233.5788863827594
 30
0.0
 11
548.7417621064396
 21
193.0262051937697
 31
0.0
  0
LINE
  5
4DEF
330
4D95
100
AcDbEntity
  8
想像線
100
AcDbLine
 10
533.4498153560661
 20
233.5788863827594
 30
0.0
 11
533.4498153560661
 21
193.0262051937697
 31
0.0
  0
LINE
  5
4DF0
330
4D95
100
AcDbEntity
  8
想像線
100
AcDbLine
 10
527.0110975549624
 20
193.0262051937697
 30
0.0
 11
553.5707986734341
 21
193.0262051937697
 31
0.0
  0
LINE
  5
4DF1
330
4D95
100
AcDbEntity
  8
太線
100
AcDbLine
 10
607.588900367592
 20
242.3288863827595
 30
0.0
 11
607.588900367592
 21
233.5788863827594
 31
0.0
  0
ARC
  5
4DF2
330
4D95
100
AcDbEntity
  8
太線
100
AcDbCircle
 10
777.7225342921355
 20
213.9873625295158
 30
0.0
 40
7.0
100
AcDbArc
 50
180.0
 51
270.0
  0
ARC
  5
4DF3
330
4D95
100
AcDbEntity
  8
太線
100
AcDbCircle
 10
513.778271095959
 20
279.6105210619265
 30
0.0
 40
5.397353912094705
100
AcDbArc
 50
0.8520529463794902
 51
156.552019889737
  0
LWPOLYLINE
  5
4DF4
330
4D95
100
AcDbEntity
  8
太線
100
AcDbPolyline
 90
        6
 70
     0
 43
0.0
 10
548.7417621064396
 20
258.8195739412385
 10
579.2932540588926
 20
258.8195739412385
 10
579.2932540588926
 20
252.9144448819279
 10
503.428435852169
 20
252.9144448819279
 10
503.428435852169
 20
258.8195739412385
 10
533.4498153560661
 20
258.8195739412385
  0
LWPOLYLINE
  5
4DF5
330
4D95
100
AcDbEntity
  8
太線
100
AcDbPolyline
 90
        4
 70
     0
 43
0.0
 10
507.8045071937195
 20
258.2325209393629
 10
507.8045071937195
 20
286.5226179613064
 10
572.5378630327732
 20
286.5226179613064
 10
572.5378630327732
 20
258.2325209393629
  0
LINE
  5
4DF6
330
4D95
100
AcDbEntity
  8
太線
100
AcDbLine
 10
474.588900367592
 20
249.3288863827594
 30
0.0
 11
600.588900367592
 21
249.3288863827594
 31
0.0
  0
ARC
  5
4DF7
330
4D95
100
AcDbEntity
  8
太線
100
AcDbCircle
 10
366.088900367592
 20
311.6288863827592
 30
0.0
 40
101.5
100
AcDbArc
 50
0.0
 51
180.0
  0
LINE
  5
4DF8
330
4D95
100
AcDbEntity
  8
太線
100
AcDbLine
 10
203.9866196529592
 20
286.5226179613064
 30
0.0
 11
203.9866196529592
 21
295.4833737250046
 31
0.0
  0
LINE
  5
4DF9
330
4D95
100
AcDbEntity
  8
太線
100
AcDbLine
 10
176.8716611715553
 20
295.4833737250046
 30
0.0
 11
176.8716611715553
 21
286.5226179613064
 31
0.0
  0
ARC
  5
4DFA
330
4D95
100
AcDbEntity
  8
太線
100
AcDbCircle
 10
215.2852323098974
 20
277.3943240872441
 30
0.0
 40
8.427919709491868
100
AcDbArc
 50
41.99743419541658
 51
174.8351376786107
  0
LINE
  5
4DFB
330
4D95
100
AcDbEntity
  8
太線
100
AcDbLine
 10
206.6219315071448
 20
278.6570647276812
 30
0.0
 11
206.6219315071448
 21
259.0164353649624
 31
0.0
  0
LINE
  5
4DFC
330
4D95
100
AcDbEntity
  8
太線
100
AcDbLine
 10
168.3328261184325
 20
281.2507351153159
 30
0.0
 11
168.3328261184324
 21
260.050153488798
 31
0.0
  0
LINE
  5
4DFD
330
4D95
100
AcDbEntity
  8
太線
100
AcDbLine
 10
183.7899019084643
 20
258.8195739412385
 30
0.0
 11
199.0818486588377
 21
258.8195739412385
 31
0.0
  0
LINE
  5
4DFE
330
4D95
100
AcDbEntity
  8
太線
100
AcDbLine
 10
176.8716611715553
 20
252.9144448819279
 30
0.0
 11
176.8716611715553
 21
249.3288863827594
 31
0.0
  0
LINE
  5
4DFF
330
4D95
100
AcDbEntity
  8
想像線
100
AcDbLine
 10
183.7899019084643
 20
252.9144448819279
 30
0.0
 11
183.7899019084643
 21
249.3288863827594
 31
0.0
  0
LINE
  5
4E00
330
4D95
100
AcDbEntity
  8
太線
100
AcDbLine
 10
203.9866196529592
 20
249.3288863827594
 30
0.0
 11
203.9866196529592
 21
252.9144448819279
 31
0.0
  0
LINE
  5
4E01
330
4D95
100
AcDbEntity
  8
想像線
100
AcDbLine
 10
199.0818486588377
 20
252.9144448819279
 30
0.0
 11
199.0818486588377
 21
249.3288863827594
 31
0.0
  0
ARC
  5
4E02
330
4D95
100
AcDbEntity
  8
太線
100
AcDbCircle
 10
185.2279102560556
 20
246.7460802047102
 30
0.0
 40
38.41894166316078
100
AcDbArc
 50
56.16098855169157
 51
117.8199694824747
  0
LINE
  5
4E03
330
4D95
100
AcDbEntity
  8
想像線
100
AcDbLine
 10
183.7899019084643
 20
294.3258852955741
 30
0.0
 11
183.7899019084643
 21
286.5226179613064
 31
0.0
  0
LINE
  5
4E04
330
4D95
100
AcDbEntity
  8
想像線
100
AcDbLine
 10
199.0818486588377
 20
294.3258852955741
 30
0.0
 11
199.0818486588377
 21
286.5226179613064
 31
0.0
  0
ARC
  5
4E05
330
4D95
100
AcDbEntity
  8
太線
100
AcDbCircle
 10
190.0920323445843
 20
306.7826351937537
 30
0.0
 40
12.12403329821402
100
AcDbArc
 50
48.53224701292514
 51
135.8118392581476
  0
LWPOLYLINE
  5
4E06
330
4D95
100
AcDbEntity
  8
太線
100
AcDbPolyline
 90
        4
 70
     1
 43
0.0
 10
179.1645226938462
 20
315.1752870286077
 10
200.3260760204275
 20
315.1752870286077
 10
200.3260760204275
 20
308.833713745128
 10
179.1645226938462
 20
308.833713745128
  0
LINE
  5
4E07
330
4D95
100
AcDbEntity
  8
太線
100
AcDbLine
 10
203.9866196529592
 20
295.4833737250046
 30
0.0
 11
176.8716611715553
 21
295.4833737250046
 31
0.0
  0
LINE
  5
4E08
330
4D95
100
AcDbEntity
  8
太線
100
AcDbLine
 10
181.3984378867016
 20
308.833713745128
 30
0.0
 11
181.3984378867016
 21
294.9520706886023
 31
0.0
  0
LINE
  5
4E09
330
4D95
100
AcDbEntity
  8
太線
100
AcDbLine
 10
181.3984378867016
 20
315.2332919030322
 30
0.0
 11
181.3984378867016
 21
315.1752870286077
 31
0.0
  0
LINE
  5
4E0A
330
4D95
100
AcDbEntity
  8
太線
100
AcDbLine
 10
198.1205480219205
 20
308.833713745128
 30
0.0
 11
198.1205480219205
 21
295.4565905624822
 31
0.0
  0
LINE
  5
4E0B
330
4D95
100
AcDbEntity
  8
太線
100
AcDbLine
 10
198.1205480219205
 20
315.867519311615
 30
0.0
 11
198.1205480219205
 21
315.1752870286077
 31
0.0
  0
LINE
  5
4E0C
330
4D95
100
AcDbEntity
  8
太線
100
AcDbLine
 10
264.588900367592
 20
311.6288863827592
 30
0.0
 11
264.588900367592
 21
256.3288863827594
 31
0.0
  0
ARC
  5
4E0D
330
4D95
100
AcDbEntity
  8
太線
100
AcDbCircle
 10
257.588900367592
 20
256.3288863827594
 30
0.0
 40
7.0
100
AcDbArc
 50
270.0
 51
0.0
  0
LINE
  5
4E0E
330
4D95
100
AcDbEntity
  8
太線
100
AcDbLine
 10
467.588900367592
 20
311.6288863827592
 30
0.0
 11
467.588900367592
 21
256.3288863827594
 31
0.0
  0
ARC
  5
4E0F
330
4D95
100
AcDbEntity
  8
太線
100
AcDbCircle
 10
474.588900367592
 20
256.3288863827594
 30
0.0
 40
7.0
100
AcDbArc
 50
180.0
 51
270.0
  0
LINE
  5
4E10
330
4D95
100
AcDbEntity
  8
想像線
100
AcDbLine
 10
359.963900367592
 20
412.9439117985384
 30
0.0
 11
359.963900367592
 21
397.1598566508446
 31
0.0
  0
LINE
  5
4E11
330
4D95
100
AcDbEntity
  8
想像線
100
AcDbLine
 10
372.213900367592
 20
412.9439117985384
 30
0.0
 11
371.438670882906
 21
397.3788863827592
 31
0.0
  0
LINE
  5
4E12
330
4D95
100
AcDbEntity
  8
太線
100
AcDbLine
 10
553.6465331005611
 20
286.5226179613064
 30
0.0
 11
553.6465331005611
 21
295.4833737250046
 31
0.0
  0
LINE
  5
4E13
330
4D95
100
AcDbEntity
  8
太線
100
AcDbLine
 10
526.5315746191572
 20
295.4833737250046
 30
0.0
 11
526.5315746191572
 21
286.5226179613064
 31
0.0
  0
ARC
  5
4E14
330
4D95
100
AcDbEntity
  8
太線
100
AcDbCircle
 10
567.1622750829753
 20
277.3943240872441
 30
0.0
 40
8.427919709491868
100
AcDbArc
 50
41.99743419541658
 51
174.8351376786107
  0
LINE
  5
4E15
330
4D95
100
AcDbEntity
  8
太線
100
AcDbLine
 10
520.2098688915103
 20
281.2507351153159
 30
0.0
 11
520.2098688915103
 21
260.050153488798
 31
0.0
  0
LINE
  5
4E16
330
4D95
100
AcDbEntity
  8
太線
100
AcDbLine
 10
558.4989742802227
 20
278.6570647276812
 30
0.0
 11
558.4989742802227
 21
259.0164353649624
 31
0.0
  0
LINE
  5
4E17
330
4D95
100
AcDbEntity
  8
太線
100
AcDbLine
 10
533.4498153560661
 20
258.8195739412385
 30
0.0
 11
548.7417621064396
 21
258.8195739412385
 31
0.0
  0
LINE
  5
4E18
330
4D95
100
AcDbEntity
  8
太線
100
AcDbLine
 10
526.5315746191572
 20
252.9144448819279
 30
0.0
 11
526.5315746191573
 21
249.3288863827594
 31
0.0
  0
LINE
  5
4E19
330
4D95
100
AcDbEntity
  8
想像線
100
AcDbLine
 10
533.4498153560661
 20
252.9144448819279
 30
0.0
 11
533.4498153560661
 21
249.3288863827594
 31
0.0
  0
LINE
  5
4E1A
330
4D95
100
AcDbEntity
  8
太線
100
AcDbLine
 10
553.6465331005611
 20
249.3288863827594
 30
0.0
 11
553.6465331005611
 21
252.9144448819279
 31
0.0
  0
LINE
  5
4E1B
330
4D95
100
AcDbEntity
  8
想像線
100
AcDbLine
 10
548.7417621064396
 20
252.9144448819279
 30
0.0
 11
548.7417621064396
 21
249.3288863827594
 31
0.0
  0
ARC
  5
4E1C
330
4D95
100
AcDbEntity
  8
太線
100
AcDbCircle
 10
537.1049530291335
 20
246.7460802047102
 30
0.0
 40
38.41894166316078
100
AcDbArc
 50
56.16098855169157
 51
117.8199694824747
  0
LINE
  5
4E1D
330
4D95
100
AcDbEntity
  8
想像線
100
AcDbLine
 10
533.4498153560661
 20
294.3258852955741
 30
0.0
 11
533.4498153560661
 21
286.5226179613064
 31
0.0
  0
LINE
  5
4E1E
330
4D95
100
AcDbEntity
  8
想像線
100
AcDbLine
 10
548.7417621064396
 20
294.3258852955741
 30
0.0
 11
548.7417621064396
 21
286.5226179613064
 31
0.0
  0
ARC
  5
4E1F
330
4D95
100
AcDbEntity
  8
太線
100
AcDbCircle
 10
540.6140028543059
 20
306.7826351937537
 30
0.0
 40
12.12403329821402
100
AcDbArc
 50
48.53224701292514
 51
135.8118392581476
  0
LWPOLYLINE
  5
4E20
330
4D95
100
AcDbEntity
  8
太線
100
AcDbPolyline
 90
        4
 70
     1
 43
0.0
 10
529.6864932035678
 20
315.1752870286077
 10
550.8480465301491
 20
315.1752870286077
 10
550.8480465301491
 20
308.833713745128
 10
529.6864932035678
 20
308.833713745128
  0
LINE
  5
4E21
330
4D95
100
AcDbEntity
  8
太線
100
AcDbLine
 10
553.6465331005611
 20
295.4833737250046
 30
0.0
 11
526.5315746191572
 21
295.4833737250046
 31
0.0
  0
LINE
  5
4E22
330
4D95
100
AcDbEntity
  8
太線
100
AcDbLine
 10
531.9204083964232
 20
308.833713745128
 30
0.0
 11
531.9204083964232
 21
294.9520706886023
 31
0.0
  0
LINE
  5
4E23
330
4D95
100
AcDbEntity
  8
太線
100
AcDbLine
 10
531.9204083964232
 20
315.2332919030322
 30
0.0
 11
531.9204083964232
 21
315.1752870286077
 31
0.0
  0
LINE
  5
4E24
330
4D95
100
AcDbEntity
  8
太線
100
AcDbLine
 10
548.642518531642
 20
308.833713745128
 30
0.0
 11
548.642518531642
 21
295.4565905624822
 31
0.0
  0
LINE
  5
4E25
330
4D95
100
AcDbEntity
  8
太線
100
AcDbLine
 10
548.642518531642
 20
315.867519311615
 30
0.0
 11
548.642518531642
 21
315.1752870286077
 31
0.0
  0
ARC
  5
4E26
330
4D95
100
AcDbEntity
  8
太線
100
AcDbCircle
 10
777.7225342921355
 20
332.9873625295158
 30
0.0
 40
7.0
100
AcDbArc
 50
90.0
 51
180.0
  0
ARC
  5
4E27
330
4D95
100
AcDbEntity
  8
太線
100
AcDbCircle
 10
826.7225342921356
 20
273.4873625295158
 30
0.0
 40
21.0
100
AcDbArc
 50
90.0
 51
270.0
  0
LINE
  5
4E28
330
4D95
100
AcDbEntity
  8
太線
100
AcDbLine
 10
826.7225342921356
 20
252.4873625295158
 30
0.0
 11
854.7225342921356
 21
252.4873625295158
 31
0.0
  0
LINE
  5
4E29
330
4D95
100
AcDbEntity
  8
太線
100
AcDbLine
 10
826.7225342921356
 20
294.4873625295158
 30
0.0
 11
854.7225342921356
 21
294.4873625295158
 31
0.0
  0
LINE
  5
4E2A
330
4D95
100
AcDbEntity
  8
太線
100
AcDbLine
 10
1253.722534292135
 20
332.9873625295158
 30
0.0
 11
1253.722534292135
 21
213.9873625295158
 31
0.0
  0
LINE
  5
4E2B
330
4D95
100
AcDbEntity
  8
太線
100
AcDbLine
 10
1113.722534292135
 20
339.9873625295158
 30
0.0
 11
1113.722534292135
 21
206.9873625295158
 31
0.0
  0
LINE
  5
4E2C
330
4D95
100
AcDbEntity
  8
想像線
100
AcDbLine
 10
1097.972534292135
 20
339.9873625295158
 30
0.0
 11
1097.972534292135
 21
206.9873625295158
 31
0.0
  0
LINE
  5
4E2D
330
4D95
100
AcDbEntity
  8
太線
100
AcDbLine
 10
910.7225342921356
 20
339.9873625295158
 30
0.0
 11
910.7225342921356
 21
206.9873625295158
 31
0.0
  0
LINE
  5
4E2E
330
4D95
100
AcDbEntity
  8
想像線
100
AcDbLine
 10
926.4725342921355
 20
339.9873625295158
 30
0.0
 11
926.4725342921355
 21
206.9873625295158
 31
0.0
  0
TEXT
  5
4E2F
330
4D95
100
AcDbEntity
  8
文字
100
AcDbText
 10
911.8686111766237
 20
-1.274464942792292
 30
0.0
 40
25.48928673189496
  1
クリップス48.6
 51
15.0
  7
OKANO
100
AcDbText
  0
ARC
  5
4E30
330
4D95
100
AcDbEntity
  8
太線
100
AcDbCircle
 10
1246.722534292135
 20
213.9873625295158
 30
0.0
 40
7.0
100
AcDbArc
 50
270.0
 51
0.0
  0
DIMENSION
  5
4E31
330
4D95
100
AcDbEntity
  8
寸法線
100
AcDbDimension
  2
*D3
 10
1313.972517428454
 20
252.2448693522528
 30
0.0
 11
1305.471041050501
 21
272.6507488745726
 31
0.0
 12
-254.6092475659798
 22
-336.1285907925857
 32
0.0
  1
12
 71
     5
 42
40.81175904463907
  3
sunpo
100
AcDbAlignedDimension
 13
1185.567593285441
 23
293.0566283968919
 33
0.0
 14
1187.513127520345
 24
252.2448693522528
 34
0.0
 50
90.0
100
AcDbRotatedDimension
1001
ACAD
1000
DSTYLE
1002
{
1070
   140
1040
15.0
1070
    40
1040
1.0
1002
}
  0
TEXT
  5
4E32
330
4D95
100
AcDbEntity
  8
文字
100
AcDbText
 10
866.5008278658115
 20
450.4734047022475
 30
0.0
 40
30.0
  1
ドリルビス4mm用下穴3.5mm
 51
15.0
  7
OKANO
100
AcDbText
  0
LEADER
  5
4E33
330
4D95
100
AcDbEntity
  8
寸法線
100
AcDbLeader
  3
sunpo
 76
     2
 10
1004.633394642012
 20
283.3395415640161
 30
0.0
 10
924.8666979356057
 20
434.9260685963654
 30
0.0
1001
ACAD
1000
DSTYLE
1002
{
1070
   147
1040
1.0
1070
    77
1070
     0
1002
}
  0
CIRCLE
  5
4E34
330
4D95
100
AcDbEntity
  8
太線
100
AcDbCircle
 10
1012.222534292135
 20
273.4873625295158
 30
0.0
 40
6.125
  0
DIMENSION
  5
4E35
330
4D95
100
AcDbEntity
  8
寸法線
100
AcDbDimension
  2
*D4
 10
1216.696062555242
 20
394.1143130851251
 30
0.0
 11
1184.594833303322
 21
402.6157894630777
 31
0.0
 12
-254.6092475659798
 22
-336.1285907925857
 32
0.0
  1
20
 71
     5
 42
64.20245850383981
  3
sunpo
100
AcDbAlignedDimension
 13
1152.493604051402
 23
287.2263755904869
 33
0.0
 14
1216.696062555242
 24
283.3395415640161
 34
0.0
100
AcDbRotatedDimension
1001
ACAD
1000
DSTYLE
1002
{
1070
   140
1040
15.0
1070
    40
1040
1.0
1002
}
  0
LINE
  5
4E36
330
4D95
100
AcDbEntity
  8
太線
100
AcDbLine
 10
1169.722534292135
 20
252.4873625295158
 30
0.0
 11
1197.722534292135
 21
252.4873625295158
 31
0.0
  0
LINE
  5
4E37
330
4D95
100
AcDbEntity
  8
太線
100
AcDbLine
 10
1169.722534292135
 20
294.4873625295158
 30
0.0
 11
1197.722534292135
 21
294.4873625295158
 31
0.0
  0
ARC
  5
4E38
330
4D95
100
AcDbEntity
  8
太線
100
AcDbCircle
 10
1169.722534292135
 20
273.4873625295158
 30
0.0
 40
21.0
100
AcDbArc
 50
90.0
 51
270.0
  0
ARC
  5
4E39
330
4D95
100
AcDbEntity
  8
太線
100
AcDbCircle
 10
1197.722534292135
 20
273.4873625295158
 30
0.0
 40
21.0
100
AcDbArc
 50
270.0
 51
90.0
  0
ARC
  5
4E3A
330
4D95
100
AcDbEntity
  8
太線
100
AcDbCircle
 10
1246.722534292135
 20
332.9873625295158
 30
0.0
 40
7.0
100
AcDbArc
 50
0.0
 51
90.0
  0
ENDBLK
  5
4E3C
330
4D95
100
AcDbEntity
  8
0
100
AcDbBlockEnd
  0
BLOCK
  5
5817
330
580D
100
AcDbEntity
  8
0
100
AcDbBlockBegin
  2
*D12
 70
     1
 10
0.0
 20
0.0
 30
0.0
  3
*D12
  1

  0
ARC
  5
585B
330
580D
100
AcDbEntity
  8
寸法線
 62
     0
370
    -2
100
AcDbCircle
 10
223.6384018484121
 20
126.662133170339
 30
0.0
 40
311.4706090004863
100
AcDbArc
 50
0.551859462808365
 51
31.40923518833973
  0
INSERT
  5
585C
330
580D
100
AcDbEntity
  8
寸法線
 62
     0
370
    -2
100
AcDbBlockReference
  2
_Closed
 10
535.1090108488985
 20
126.662133170339
 30
0.0
 41
3.0
 42
3.0
 43
3.0
 50
270.2759297314041
  0
INSERT
  5
585D
330
580D
100
AcDbEntity
  8
寸法線
 62
     0
370
    -2
100
AcDbBlockReference
  2
_Closed
 10
487.8924741328796
 20
291.5370116455308
 30
0.0
 41
3.0
 42
3.0
 43
3.0
 50
121.6851649197439
  0
MTEXT
  5
585E
330
580D
100
AcDbEntity
  8
寸法線
 62
     0
100
AcDbMText
 10
534.4925324241654
 20
212.4425082356121
 30
0.0
 40
20.0
 41
0.0
 71
     5
 72
     1
  1
32°
  7
OKANO
 11
0.2660082780654316
 21
-0.963970744369695
 31
0.0
 73
     1
 44
1.0
  0
POINT
  5
585F
330
580D
100
AcDbEntity
  8
Defpoints
 62
     0
100
AcDbPoint
 10
513.8182277348009
 20
239.8416760200914
 30
0.0
  0
POINT
  5
5860
330
580D
100
AcDbEntity
  8
Defpoints
 62
     0
100
AcDbPoint
 10
658.9546721497339
 20
398.2670948034048
 30
0.0
  0
POINT
  5
5861
330
580D
100
AcDbEntity
  8
Defpoints
 62
     0
100
AcDbPoint
 10
775.5672446551423
 20
126.662133170339
 30
0.0
  0
POINT
  5
5862
330
580D
100
AcDbEntity
  8
Defpoints
 62
     0
100
AcDbPoint
 10
-365.1937993963455
 20
126.662133170339
 30
0.0
  0
POINT
  5
5863
330
580D
100
AcDbEntity
  8
Defpoints
 62
     0
100
AcDbPoint
 10
371.8817682405912
 20
219.1549632991882
 30
0.0
  0
ENDBLK
  5
5818
330
580D
100
AcDbEntity
  8
0
100
AcDbBlockEnd
  0
BLOCK
  5
5824
330
581A
100
AcDbEntity
  8
0
100
AcDbBlockBegin
  2
*D13
 70
     1
 10
0.0
 20
0.0
 30
0.0
  3
*D13
  1

  0
ARC
  5
5864
330
581A
100
AcDbEntity
  8
寸法線
 62
     0
370
    -2
100
AcDbCircle
 10
765.7612361153105
 20
126.662133170339
 30
0.0
 40
272.2320611144812
100
AcDbArc
 50
0.631403250600941
 51
41.3685967493991
  0
INSERT
  5
5865
330
581A
100
AcDbEntity
  8
寸法線
 62
     0
370
    -2
100
AcDbBlockReference
  2
_Closed
 10
1037.993297229791
 20
126.6621331703389
 30
0.0
 41
3.0
 42
3.0
 43
3.0
 50
270.3157016253004
  0
INSERT
  5
5866
330
581A
100
AcDbEntity
  8
寸法線
 62
     0
370
    -2
100
AcDbBlockReference
  2
_Closed
 10
968.0690836615827
 20
308.8209372941938
 30
0.0
 41
3.0
 42
3.0
 43
3.0
 50
131.6842983746995
  0
MTEXT
  5
5867
330
581A
100
AcDbEntity
  8
寸法線
 62
     0
100
AcDbMText
 10
1034.602349727006
 20
215.8023102282186
 30
0.0
 40
20.0
 41
0.0
 71
     5
 72
     1
  1
42°
  7
OKANO
 11
0.3147226947904961
 21
-0.9491836626195208
 31
0.0
 73
     1
 44
1.0
  0
POINT
  5
5868
330
581A
100
AcDbEntity
  8
Defpoints
 62
     0
100
AcDbPoint
 10
1006.127879175365
 20
254.4673443421789
 30
0.0
  0
POINT
  5
5869
330
581A
100
AcDbEntity
  8
Defpoints
 62
     0
100
AcDbPoint
 10
1073.416611090771
 20
403.6762770482126
 30
0.0
  0
POINT
  5
586A
330
581A
100
AcDbEntity
  8
Defpoints
 62
     0
100
AcDbPoint
 10
775.5672446551426
 20
126.662133170339
 30
0.0
  0
POINT
  5
586B
330
581A
100
AcDbEntity
  8
Defpoints
 62
     0
100
AcDbPoint
 10
1204.439142319557
 20
126.662133170339
 30
0.0
  0
POINT
  5
586C
330
581A
100
AcDbEntity
  8
Defpoints
 62
     0
100
AcDbPoint
 10
880.3138477231122
 20
229.8057679468834
 30
0.0
  0
ENDBLK
  5
5825
330
581A
100
AcDbEntity
  8
0
100
AcDbBlockEnd
  0
BLOCK
  5
5831
330
5827
100
AcDbEntity
  8
0
100
AcDbBlockBegin
  2
*D14
 70
     1
 10
0.0
 20
0.0
 30
0.0
  3
*D14
  1

  0
ARC
  5
586D
330
5827
100
AcDbEntity
  8
寸法線
 62
     0
370
    -2
100
AcDbCircle
 10
1196.86400107609
 20
126.6621331703391
 30
0.0
 40
237.7556765088753
100
AcDbArc
 50
0.7229626706226778
 51
51.27703732937735
  0
INSERT
  5
586E
330
5827
100
AcDbEntity
  8
寸法線
 62
     0
370
    -2
100
AcDbBlockReference
  2
_Closed
 10
1434.619677584965
 20
126.6621331703391
 30
0.0
 41
3.0
 42
3.0
 43
3.0
 50
270.3614813353113
  0
INSERT
  5
586F
330
5827
100
AcDbEntity
  8
寸法線
 62
     0
370
    -2
100
AcDbBlockReference
  2
_Closed
 10
1343.241011642594
 20
314.016162990374
 30
0.0
 41
3.0
 42
3.0
 43
3.0
 50
141.6385186646886
  0
MTEXT
  5
5870
330
5827
100
AcDbEntity
  8
寸法線
 62
     0
100
AcDbMText
 10
1420.445891385007
 20
235.7103072871562
 30
0.0
 40
20.0
 41
0.0
 71
     5
 72
     1
  1
52°
  7
OKANO
 11
0.4383711467890777
 21
-0.8987940462991669
 31
0.0
 73
     1
 44
1.0
  0
POINT
  5
5871
330
5827
100
AcDbEntity
  8
Defpoints
 62
     0
100
AcDbPoint
 10
1423.822629368155
 20
197.4967486911227
 30
0.0
  0
POINT
  5
5872
330
5827
100
AcDbEntity
  8
Defpoints
 62
     0
100
AcDbPoint
 10
1419.042245497424
 20
411.0373179727747
 30
0.0
  0
POINT
  5
5873
330
5827
100
AcDbEntity
  8
Defpoints
 62
     0
100
AcDbPoint
 10
1204.439142319557
 20
126.6621331703391
 30
0.0
  0
POINT
  5
5874
330
5827
100
AcDbEntity
  8
Defpoints
 62
     0
100
AcDbPoint
 10
1630.285114798366
 20
126.662133170339
 30
0.0
  0
POINT
  5
5875
330
5827
100
AcDbEntity
  8
Defpoints
 62
     0
100
AcDbPoint
 10
1286.826641085831
 20
241.8090614608054
 30
0.0
  0
ENDBLK
  5
5832
330
5827
100
AcDbEntity
  8
0
100
AcDbBlockEnd
  0
BLOCK
  5
583E
330
5834
100
AcDbEntity
  8
0
100
AcDbBlockBegin
  2
*D15
 70
     1
 10
0.0
 20
0.0
 30
0.0
  3
*D15
  1

  0
ARC
  5
5876
330
5834
100
AcDbEntity
  8
寸法線
 62
     0
370
    -2
100
AcDbCircle
 10
1623.046858152351
 20
126.662133170339
 30
0.0
 40
221.4851683818638
100
AcDbArc
 50
0.7760729704539536
 51
61.22392702954607
  0
INSERT
  5
5877
330
5834
100
AcDbEntity
  8
寸法線
 62
     0
370
    -2
100
AcDbBlockReference
  2
_Closed
 10
1844.532026534215
 20
126.6621331703391
 30
0.0
 41
3.0
 42
3.0
 43
3.0
 50
270.388036485227
  0
INSERT
  5
5878
330
5834
100
AcDbEntity
  8
寸法線
 62
     0
370
    -2
100
AcDbBlockReference
  2
_Closed
 10
1727.027846286481
 20
322.2219294470598
 30
0.0
 41
3.0
 42
3.0
 43
3.0
 50
151.611963514773
  0
MTEXT
  5
5879
330
5834
100
AcDbEntity
  8
寸法線
 62
     0
100
AcDbMText
 10
1822.327229724716
 20
246.4018605933523
 30
0.0
 40
20.0
 41
0.0
 71
     5
 72
     1
  1
62°
  7
OKANO
 11
0.5150380749100544
 21
-0.8571673007021122
 31
0.0
 73
     1
 44
1.0
  0
POINT
  5
587A
330
5834
100
AcDbEntity
  8
Defpoints
 62
     0
100
AcDbPoint
 10
1830.27934871448
 20
204.8310187230967
 30
0.0
  0
POINT
  5
587B
330
5834
100
AcDbEntity
  8
Defpoints
 62
     0
100
AcDbPoint
 10
1779.039407568726
 20
420.0414492545602
 30
0.0
  0
POINT
  5
587C
330
5834
100
AcDbEntity
  8
Defpoints
 62
     0
100
AcDbPoint
 10
1630.285114798366
 20
126.6621331703389
 30
0.0
  0
POINT
  5
587D
330
5834
100
AcDbEntity
  8
Defpoints
 62
     0
100
AcDbPoint
 10
1869.284489096275
 20
126.662133170339
 30
0.0
  0
POINT
  5
587E
330
5834
100
AcDbEntity
  8
Defpoints
 62
     0
100
AcDbPoint
 10
1691.030370590291
 20
254.5205242195738
 30
0.0
  0
ENDBLK
  5
583F
330
5834
100
AcDbEntity
  8
0
100
AcDbBlockEnd
  0
BLOCK
  5
58A7
330
589D
100
AcDbEntity
  8
0
100
AcDbBlockBegin
  2
*D16
 70
     1
 10
0.0
 20
0.0
 30
0.0
  3
*D16
  1

  0
LINE
  5
58C8
330
589D
100
AcDbEntity
  8
寸法線
 62
     0
370
    -2
100
AcDbLine
 10
689.9248706851808
 20
349.7973658633277
 30
0.0
 11
689.9248706851808
 21
346.1852703676654
 31
0.0
  0
LINE
  5
58C9
330
589D
100
AcDbEntity
  8
寸法線
 62
     0
370
    -2
100
AcDbLine
 10
912.0473736510195
 20
351.1852703676654
 30
0.0
 11
912.0473736510195
 21
352.1852703676653
 31
0.0
  0
LINE
  5
58CA
330
589D
100
AcDbEntity
  8
寸法線
 62
     0
370
    -2
100
AcDbLine
 10
692.9248706851808
 20
349.1852703676654
 30
0.0
 11
909.0473736510196
 21
349.1852703676654
 31
0.0
  0
INSERT
  5
58CB
330
589D
100
AcDbEntity
  8
寸法線
 62
     0
370
    -2
100
AcDbBlockReference
  2
_Closed
 10
689.9248706851808
 20
349.1852703676654
 30
0.0
 41
3.0
 42
3.0
 43
3.0
 50
180.0
  0
INSERT
  5
58CC
330
589D
100
AcDbEntity
  8
寸法線
 62
     0
370
    -2
100
AcDbBlockReference
  2
_Closed
 10
912.0473736510195
 20
349.1852703676654
 30
0.0
 41
3.0
 42
3.0
 43
3.0
  0
MTEXT
  5
58CD
330
589D
100
AcDbEntity
  8
寸法線
 62
     0
100
AcDbMText
 10
800.9861221681003
 20
357.6867467456181
 30
0.0
 40
15.0
 41
0.0
 71
     5
 72
     1
  1
220
  7
OKANO
 73
     1
 44
1.0
  0
POINT
  5
58CE
330
589D
100
AcDbEntity
  8
Defpoints
 62
     0
100
AcDbPoint
 10
689.9248706851808
 20
351.7973658633277
 30
0.0
  0
POINT
  5
58CF
330
589D
100
AcDbEntity
  8
Defpoints
 62
     0
100
AcDbPoint
 10
912.0473736510195
 20
349.1852703676654
 30
0.0
  0
POINT
  5
58D0
330
589D
100
AcDbEntity
  8
Defpoints
 62
     0
100
AcDbPoint
 10
912.0473736510195
 20
349.1852703676654
 30
0.0
  0
ENDBLK
  5
58A8
330
589D
100
AcDbEntity
  8
0
100
AcDbBlockEnd
  0
BLOCK
  5
58B4
330
58AA
100
AcDbEntity
  8
0
100
AcDbBlockBegin
  2
*D17
 70
     1
 10
0.0
 20
0.0
 30
0.0
  3
*D17
  1

  0
LINE
  5
58E5
330
58AA
100
AcDbEntity
  8
寸法線
 62
     0
370
    -2
100
AcDbLine
 10
912.0473736510195
 20
351.1852703676654
 30
0.0
 11
912.0473736510195
 21
352.1852703676653
 31
0.0
  0
LINE
  5
58E6
330
58AA
100
AcDbEntity
  8
寸法線
 62
     0
370
    -2
100
AcDbLine
 10
939.9248706851809
 20
348.7614105869801
 30
0.0
 11
939.9248706851809
 21
346.1852703676654
 31
0.0
  0
LINE
  5
58E7
330
58AA
100
AcDbEntity
  8
寸法線
 62
     0
370
    -2
100
AcDbLine
 10
915.0473736510196
 20
349.1852703676654
 30
0.0
 11
936.9248706851807
 21
349.1852703676654
 31
0.0
  0
INSERT
  5
58E8
330
58AA
100
AcDbEntity
  8
寸法線
 62
     0
370
    -2
100
AcDbBlockReference
  2
_Closed
 10
912.0473736510195
 20
349.1852703676654
 30
0.0
 41
3.0
 42
3.0
 43
3.0
 50
180.0
  0
INSERT
  5
58E9
330
58AA
100
AcDbEntity
  8
寸法線
 62
     0
370
    -2
100
AcDbBlockReference
  2
_Closed
 10
939.9248706851809
 20
349.1852703676654
 30
0.0
 41
3.0
 42
3.0
 43
3.0
  0
MTEXT
  5
58EA
330
58AA
100
AcDbEntity
  8
寸法線
 62
     0
100
AcDbMText
 10
925.9861221681003
 20
357.6852703676653
 30
0.0
 40
15.0
 41
0.0
 71
     5
 72
     1
  1
30
  7
OKANO
 73
     1
 44
1.0
  0
POINT
  5
58EB
330
58AA
100
AcDbEntity
  8
Defpoints
 62
     0
100
AcDbPoint
 10
912.0473736510195
 20
349.1852703676654
 30
0.0
  0
POINT
  5
58EC
330
58AA
100
AcDbEntity
  8
Defpoints
 62
     0
100
AcDbPoint
 10
939.9248706851809
 20
350.7614105869801
 30
0.0
  0
POINT
  5
58ED
330
58AA
100
AcDbEntity
  8
Defpoints
 62
     0
100
AcDbPoint
 10
939.9248706851809
 20
349.1852703676654
 30
0.0
  0
ENDBLK
  5
58B5
330
58AA
100
AcDbEntity
  8
0
100
AcDbBlockEnd
  0
BLOCK
  5
58FA
330
58F0
100
AcDbEntity
  8
0
100
AcDbBlockBegin
  2
*D18
 70
     1
 10
0.0
 20
0.0
 30
0.0
  3
*D18
  1

  0
LINE
  5
58FC
330
58F0
100
AcDbEntity
  8
寸法線
 62
     0
370
    -2
100
AcDbLine
 10
859.3111972847141
 20
503.071230130192
 30
0.0
 11
868.808982927433
 21
503.071230130192
 31
0.0
  0
LINE
  5
58FD
330
58F0
100
AcDbEntity
  8
寸法線
 62
     0
370
    -2
100
AcDbLine
 10
859.3111972847141
 20
303.071230130192
 30
0.0
 11
868.808982927433
 21
303.071230130192
 31
0.0
  0
LINE
  5
58FE
330
58F0
100
AcDbEntity
  8
寸法線
 62
     0
370
    -2
100
AcDbLine
 10
865.8089829274331
 20
500.071230130192
 30
0.0
 11
865.8089829274331
 21
306.071230130192
 31
0.0
  0
INSERT
  5
58FF
330
58F0
100
AcDbEntity
  8
寸法線
 62
     0
370
    -2
100
AcDbBlockReference
  2
_Closed
 10
865.8089829274331
 20
503.071230130192
 30
0.0
 41
3.0
 42
3.0
 43
3.0
 50
90.0
  0
INSERT
  5
5900
330
58F0
100
AcDbEntity
  8
寸法線
 62
     0
370
    -2
100
AcDbBlockReference
  2
_Closed
 10
865.8089829274331
 20
303.071230130192
 30
0.0
 41
3.0
 42
3.0
 43
3.0
 50
270.0
  0
MTEXT
  5
5901
330
58F0
100
AcDbEntity
  8
寸法線
 62
     0
100
AcDbMText
 10
857.3075065494803
 20
403.0712301301921
 30
0.0
 40
15.0
 41
0.0
 71
     5
 72
     1
  1
200
  7
OKANO
 11
0.0000000000000001
 21
1.0
 31
0.0
 73
     1
 44
1.0
  0
POINT
  5
5902
330
58F0
100
AcDbEntity
  8
Defpoints
 62
     0
100
AcDbPoint
 10
857.3111972847142
 20
503.071230130192
 30
0.0
  0
POINT
  5
5903
330
58F0
100
AcDbEntity
  8
Defpoints
 62
     0
100
AcDbPoint
 10
857.3111972847142
 20
303.071230130192
 30
0.0
  0
POINT
  5
5904
330
58F0
100
AcDbEntity
  8
Defpoints
 62
     0
100
AcDbPoint
 10
865.8089829274331
 20
303.071230130192
 30
0.0
  0
ENDBLK
  5
58FB
330
58F0
100
AcDbEntity
  8
0
100
AcDbBlockEnd
  0
BLOCK
  5
6146
330
613C
100
AcDbEntity
  8
0
100
AcDbBlockBegin
  2
*D19
 70
     1
 10
0.0
 20
0.0
 30
0.0
  3
*D19
  1

  0
LINE
  5
6367
330
613C
100
AcDbEntity
  8
寸法線
 62
     0
370
    -2
100
AcDbLine
 10
1058.288596173077
 20
1523.927718863949
 30
0.0
 11
1058.288596173077
 21
1551.174892496302
 31
0.0
  0
LINE
  5
6368
330
613C
100
AcDbEntity
  8
寸法線
 62
     0
370
    -2
100
AcDbLine
 10
1978.288596173077
 20
1523.927718863949
 30
0.0
 11
1978.288596173077
 21
1551.174892496302
 31
0.0
  0
LINE
  5
6369
330
613C
100
AcDbEntity
  8
寸法線
 62
     0
370
    -2
100
AcDbLine
 10
1061.288596173077
 20
1548.174892496302
 30
0.0
 11
1975.288596173077
 21
1548.174892496302
 31
0.0
  0
INSERT
  5
636A
330
613C
100
AcDbEntity
  8
寸法線
 62
     0
370
    -2
100
AcDbBlockReference
  2
_Closed
 10
1058.288596173077
 20
1548.174892496302
 30
0.0
 41
3.0
 42
3.0
 43
3.0
 50
180.0
  0
INSERT
  5
636B
330
613C
100
AcDbEntity
  8
寸法線
 62
     0
370
    -2
100
AcDbBlockReference
  2
_Closed
 10
1978.288596173077
 20
1548.174892496302
 30
0.0
 41
3.0
 42
3.0
 43
3.0
  0
MTEXT
  5
636C
330
613C
100
AcDbEntity
  8
寸法線
 62
     0
100
AcDbMText
 10
1518.288596173077
 20
1559.181694590436
 30
0.0
 40
20.0
 41
0.0
 71
     5
 72
     1
  1
910（620）
  7
OKANO
 73
     1
 44
1.0
  0
POINT
  5
636D
330
613C
100
AcDbEntity
  8
Defpoints
 62
     0
100
AcDbPoint
 10
1058.288596173077
 20
1521.927718863949
 30
0.0
  0
POINT
  5
636E
330
613C
100
AcDbEntity
  8
Defpoints
 62
     0
100
AcDbPoint
 10
1978.288596173077
 20
1521.927718863949
 30
0.0
  0
POINT
  5
636F
330
613C
100
AcDbEntity
  8
Defpoints
 62
     0
100
AcDbPoint
 10
1978.288596173077
 20
1548.174892496302
 30
0.0
  0
ENDBLK
  5
6147
330
613C
100
AcDbEntity
  8
0
100
AcDbBlockEnd
  0
BLOCK
  5
6153
330
6149
100
AcDbEntity
  8
0
100
AcDbBlockBegin
  2
*D20
 70
     1
 10
0.0
 20
0.0
 30
0.0
  3
*D20
  1

  0
LINE
  5
6295
330
6149
100
AcDbEntity
  8
寸法線
 62
     0
370
    -2
100
AcDbLine
 10
1980.288596173076
 20
1523.927718863949
 30
0.0
 11
2008.579501648839
 21
1523.927718863949
 31
0.0
  0
LINE
  5
6296
330
6149
100
AcDbEntity
  8
寸法線
 62
     0
370
    -2
100
AcDbLine
 10
1980.288596173077
 20
1266.927718863949
 30
0.0
 11
2008.579501648839
 21
1266.927718863949
 31
0.0
  0
LINE
  5
6297
330
6149
100
AcDbEntity
  8
寸法線
 62
     0
370
    -2
100
AcDbLine
 10
2005.579501648839
 20
1520.92771886395
 30
0.0
 11
2005.579501648839
 21
1269.927718863949
 31
0.0
  0
INSERT
  5
6298
330
6149
100
AcDbEntity
  8
寸法線
 62
     0
370
    -2
100
AcDbBlockReference
  2
_Closed
 10
2005.579501648839
 20
1523.927718863949
 30
0.0
 41
3.0
 42
3.0
 43
3.0
 50
90.0
  0
INSERT
  5
6299
330
6149
100
AcDbEntity
  8
寸法線
 62
     0
370
    -2
100
AcDbBlockReference
  2
_Closed
 10
2005.579501648839
 20
1266.927718863949
 30
0.0
 41
3.0
 42
3.0
 43
3.0
 50
270.0
  0
MTEXT
  5
629A
330
6149
100
AcDbEntity
  8
寸法線
 62
     0
100
AcDbMText
 10
1994.577533144902
 20
1395.42771886395
 30
0.0
 40
20.0
 41
0.0
 71
     5
 72
     1
  1
250
  7
OKANO
 11
0.0000000000000001
 21
1.0
 31
0.0
 73
     1
 44
1.0
  0
POINT
  5
629B
330
6149
100
AcDbEntity
  8
Defpoints
 62
     0
100
AcDbPoint
 10
1978.288596173077
 20
1523.927718863949
 30
0.0
  0
POINT
  5
629C
330
6149
100
AcDbEntity
  8
Defpoints
 62
     0
100
AcDbPoint
 10
1978.288596173077
 20
1266.927718863949
 30
0.0
  0
POINT
  5
629D
330
6149
100
AcDbEntity
  8
Defpoints
 62
     0
100
AcDbPoint
 10
2005.579501648839
 20
1266.927718863949
 30
0.0
  0
ENDBLK
  5
6154
330
6149
100
AcDbEntity
  8
0
100
AcDbBlockEnd
  0
BLOCK
  5
6210
330
6206
100
AcDbEntity
  8
0
100
AcDbBlockBegin
  2
*D21
 70
     1
 10
0.0
 20
0.0
 30
0.0
  3
*D21
  1

  0
LINE
  5
628C
330
6206
100
AcDbEntity
  8
寸法線
 62
     0
370
    -2
100
AcDbLine
 10
1095.288596173077
 20
1521.927718863949
 30
0.0
 11
1118.666364276656
 21
1521.927718863949
 31
0.0
  0
LINE
  5
628D
330
6206
100
AcDbEntity
  8
寸法線
 62
     0
370
    -2
100
AcDbLine
 10
1095.288596173077
 20
1486.92771886395
 30
0.0
 11
1118.666364276656
 21
1486.92771886395
 31
0.0
  0
LINE
  5
628E
330
6206
100
AcDbEntity
  8
寸法線
 62
     0
370
    -2
100
AcDbLine
 10
1115.666364276656
 20
1518.92771886395
 30
0.0
 11
1115.666364276656
 21
1489.927718863949
 31
0.0
  0
INSERT
  5
628F
330
6206
100
AcDbEntity
  8
寸法線
 62
     0
370
    -2
100
AcDbBlockReference
  2
_Closed
 10
1115.666364276656
 20
1521.927718863949
 30
0.0
 41
3.0
 42
3.0
 43
3.0
 50
90.0
  0
INSERT
  5
6290
330
6206
100
AcDbEntity
  8
寸法線
 62
     0
370
    -2
100
AcDbBlockReference
  2
_Closed
 10
1115.666364276656
 20
1486.92771886395
 30
0.0
 41
3.0
 42
3.0
 43
3.0
 50
270.0
  0
MTEXT
  5
6291
330
6206
100
AcDbEntity
  8
寸法線
 62
     0
100
AcDbMText
 10
1107.166364276656
 20
1504.42771886395
 30
0.0
 40
15.0
 41
0.0
 71
     5
 72
     1
  1
35
  7
OKANO
 11
0.0000000000000001
 21
1.0
 31
0.0
 73
     1
 44
1.0
  0
POINT
  5
6292
330
6206
100
AcDbEntity
  8
Defpoints
 62
     0
100
AcDbPoint
 10
1093.288596173077
 20
1521.927718863949
 30
0.0
  0
POINT
  5
6293
330
6206
100
AcDbEntity
  8
Defpoints
 62
     0
100
AcDbPoint
 10
1093.288596173077
 20
1486.92771886395
 30
0.0
  0
POINT
  5
6294
330
6206
100
AcDbEntity
  8
Defpoints
 62
     0
100
AcDbPoint
 10
1115.666364276656
 20
1486.92771886395
 30
0.0
  0
ENDBLK
  5
6211
330
6206
100
AcDbEntity
  8
0
100
AcDbBlockEnd
  0
BLOCK
  5
621D
330
6213
100
AcDbEntity
  8
0
100
AcDbBlockBegin
  2
*D22
 70
     1
 10
0.0
 20
0.0
 30
0.0
  3
*D22
  1

  0
LINE
  5
6283
330
6213
100
AcDbEntity
  8
寸法線
 62
     0
370
    -2
100
AcDbLine
 10
1095.288596173077
 20
1486.92771886395
 30
0.0
 11
1118.666364276656
 21
1486.92771886395
 31
0.0
  0
LINE
  5
6284
330
6213
100
AcDbEntity
  8
寸法線
 62
     0
370
    -2
100
AcDbLine
 10
1095.288596173077
 20
1381.927718863949
 30
0.0
 11
1118.666364276656
 21
1381.927718863949
 31
0.0
  0
LINE
  5
6285
330
6213
100
AcDbEntity
  8
寸法線
 62
     0
370
    -2
100
AcDbLine
 10
1115.666364276656
 20
1483.92771886395
 30
0.0
 11
1115.666364276656
 21
1384.927718863949
 31
0.0
  0
INSERT
  5
6286
330
6213
100
AcDbEntity
  8
寸法線
 62
     0
370
    -2
100
AcDbBlockReference
  2
_Closed
 10
1115.666364276656
 20
1486.92771886395
 30
0.0
 41
3.0
 42
3.0
 43
3.0
 50
90.0
  0
INSERT
  5
6287
330
6213
100
AcDbEntity
  8
寸法線
 62
     0
370
    -2
100
AcDbBlockReference
  2
_Closed
 10
1115.666364276656
 20
1381.927718863949
 30
0.0
 41
3.0
 42
3.0
 43
3.0
 50
270.0
  0
MTEXT
  5
6288
330
6213
100
AcDbEntity
  8
寸法線
 62
     0
100
AcDbMText
 10
1107.166364276656
 20
1434.42771886395
 30
0.0
 40
15.0
 41
0.0
 71
     5
 72
     1
  1
105
  7
OKANO
 11
0.0000000000000001
 21
1.0
 31
0.0
 73
     1
 44
1.0
  0
POINT
  5
6289
330
6213
100
AcDbEntity
  8
Defpoints
 62
     0
100
AcDbPoint
 10
1093.288596173077
 20
1486.92771886395
 30
0.0
  0
POINT
  5
628A
330
6213
100
AcDbEntity
  8
Defpoints
 62
     0
100
AcDbPoint
 10
1093.288596173077
 20
1381.927718863949
 30
0.0
  0
POINT
  5
628B
330
6213
100
AcDbEntity
  8
Defpoints
 62
     0
100
AcDbPoint
 10
1115.666364276656
 20
1381.927718863949
 30
0.0
  0
ENDBLK
  5
621E
330
6213
100
AcDbEntity
  8
0
100
AcDbBlockEnd
  0
BLOCK
  5
622A
330
6220
100
AcDbEntity
  8
0
100
AcDbBlockBegin
  2
*D23
 70
     1
 10
0.0
 20
0.0
 30
0.0
  3
*D23
  1

  0
LINE
  5
627A
330
6220
100
AcDbEntity
  8
寸法線
 62
     0
370
    -2
100
AcDbLine
 10
1058.288596173077
 20
1484.92771886395
 30
0.0
 11
1058.288596173077
 21
1458.927718863949
 31
0.0
  0
LINE
  5
627B
330
6220
100
AcDbEntity
  8
寸法線
 62
     0
370
    -2
100
AcDbLine
 10
1093.288596173077
 20
1484.92771886395
 30
0.0
 11
1093.288596173077
 21
1458.927718863949
 31
0.0
  0
LINE
  5
627C
330
6220
100
AcDbEntity
  8
寸法線
 62
     0
370
    -2
100
AcDbLine
 10
1061.288596173077
 20
1461.927718863949
 30
0.0
 11
1090.288596173077
 21
1461.927718863949
 31
0.0
  0
INSERT
  5
627D
330
6220
100
AcDbEntity
  8
寸法線
 62
     0
370
    -2
100
AcDbBlockReference
  2
_Closed
 10
1058.288596173077
 20
1461.927718863949
 30
0.0
 41
3.0
 42
3.0
 43
3.0
 50
180.0
  0
INSERT
  5
627E
330
6220
100
AcDbEntity
  8
寸法線
 62
     0
370
    -2
100
AcDbBlockReference
  2
_Closed
 10
1093.288596173077
 20
1461.927718863949
 30
0.0
 41
3.0
 42
3.0
 43
3.0
  0
MTEXT
  5
627F
330
6220
100
AcDbEntity
  8
寸法線
 62
     0
100
AcDbMText
 10
1075.788596173077
 20
1470.427718863949
 30
0.0
 40
15.0
 41
0.0
 71
     5
 72
     1
  1
35
  7
OKANO
 73
     1
 44
1.0
  0
POINT
  5
6280
330
6220
100
AcDbEntity
  8
Defpoints
 62
     0
100
AcDbPoint
 10
1058.288596173077
 20
1486.92771886395
 30
0.0
  0
POINT
  5
6281
330
6220
100
AcDbEntity
  8
Defpoints
 62
     0
100
AcDbPoint
 10
1093.288596173077
 20
1486.92771886395
 30
0.0
  0
POINT
  5
6282
330
6220
100
AcDbEntity
  8
Defpoints
 62
     0
100
AcDbPoint
 10
1093.288596173077
 20
1461.927718863949
 30
0.0
  0
ENDBLK
  5
622B
330
6220
100
AcDbEntity
  8
0
100
AcDbBlockEnd
  0
BLOCK
  5
6237
330
622D
100
AcDbEntity
  8
0
100
AcDbBlockBegin
  2
*D24
 70
     1
 10
0.0
 20
0.0
 30
0.0
  3
*D24
  1

  0
LINE
  5
6271
330
622D
100
AcDbEntity
  8
寸法線
 62
     0
370
    -2
100
AcDbLine
 10
1093.288596173077
 20
1484.92771886395
 30
0.0
 11
1093.288596173077
 21
1458.927718863949
 31
0.0
  0
LINE
  5
6272
330
622D
100
AcDbEntity
  8
寸法線
 62
     0
370
    -2
100
AcDbLine
 10
1198.288596173077
 20
1484.92771886395
 30
0.0
 11
1198.288596173077
 21
1458.927718863949
 31
0.0
  0
LINE
  5
6273
330
622D
100
AcDbEntity
  8
寸法線
 62
     0
370
    -2
100
AcDbLine
 10
1096.288596173077
 20
1461.927718863949
 30
0.0
 11
1195.288596173077
 21
1461.927718863949
 31
0.0
  0
INSERT
  5
6274
330
622D
100
AcDbEntity
  8
寸法線
 62
     0
370
    -2
100
AcDbBlockReference
  2
_Closed
 10
1093.288596173077
 20
1461.927718863949
 30
0.0
 41
3.0
 42
3.0
 43
3.0
 50
180.0
  0
INSERT
  5
6275
330
622D
100
AcDbEntity
  8
寸法線
 62
     0
370
    -2
100
AcDbBlockReference
  2
_Closed
 10
1198.288596173077
 20
1461.927718863949
 30
0.0
 41
3.0
 42
3.0
 43
3.0
  0
MTEXT
  5
6276
330
622D
100
AcDbEntity
  8
寸法線
 62
     0
100
AcDbMText
 10
1145.788596173077
 20
1470.427718863949
 30
0.0
 40
15.0
 41
0.0
 71
     5
 72
     1
  1
105
  7
OKANO
 73
     1
 44
1.0
  0
POINT
  5
6277
330
622D
100
AcDbEntity
  8
Defpoints
 62
     0
100
AcDbPoint
 10
1093.288596173077
 20
1486.92771886395
 30
0.0
  0
POINT
  5
6278
330
622D
100
AcDbEntity
  8
Defpoints
 62
     0
100
AcDbPoint
 10
1198.288596173077
 20
1486.92771886395
 30
0.0
  0
POINT
  5
6279
330
622D
100
AcDbEntity
  8
Defpoints
 62
     0
100
AcDbPoint
 10
1198.288596173077
 20
1461.927718863949
 30
0.0
  0
ENDBLK
  5
6238
330
622D
100
AcDbEntity
  8
0
100
AcDbBlockEnd
  0
BLOCK
  5
62B1
330
62A8
100
AcDbEntity
  8
0
100
AcDbBlockBegin
  2
*D25
 70
     1
 10
0.0
 20
0.0
 30
0.0
  3
*D25
  1

  0
LINE
  5
62B3
330
62A8
100
AcDbEntity
  8
寸法線
 62
     0
370
    -2
100
AcDbLine
 10
1141.046336737111
 20
1346.621216726356
 30
0.0
 11
1100.123593773699
 21
1376.874718982741
 31
0.0
  0
LINE
  5
62B4
330
62A8
100
AcDbEntity
  8
寸法線
 62
     0
370
    -2
100
AcDbLine
 10
1086.453598572454
 20
1386.980718745157
 30
0.0
 11
1084.041246478117
 21
1388.764130467936
 31
0.0
  0
MTEXT
  5
62B5
330
62A8
100
AcDbEntity
  8
寸法線
 62
     0
100
AcDbMText
 10
1134.433833759558
 20
1362.080326287775
 30
0.0
 40
15.0
 41
0.0
 71
     5
 72
     1
  1
\U+220511
  7
OKANO
 11
0.8041173647791024
 21
-0.5944705742597458
 31
0.0
 73
     1
 44
1.0
  0
LINE
  5
62B6
330
62A8
100
AcDbEntity
  8
寸法線
 62
     0
370
    -2
100
AcDbLine
 10
1088.865950666791
 20
1385.197307022378
 30
0.0
 11
1097.711241679361
 21
1378.65813070552
 31
0.0
  0
INSERT
  5
62B7
330
62A8
100
AcDbEntity
  8
寸法線
 62
     0
370
    -2
100
AcDbBlockReference
  2
_Closed
 10
1088.865950666791
 20
1385.197307022378
 30
0.0
 41
3.0
 42
3.0
 43
3.0
 50
323.5251002641942
  0
INSERT
  5
62B8
330
62A8
100
AcDbEntity
  8
寸法線
 62
     0
370
    -2
100
AcDbBlockReference
  2
_Closed
 10
1097.711241679361
 20
1378.65813070552
 30
0.0
 41
3.0
 42
3.0
 43
3.0
 50
143.5251002641942
  0
POINT
  5
62B9
330
62A8
100
AcDbEntity
  8
Defpoints
 62
     0
100
AcDbPoint
 10
1097.711241679361
 20
1378.65813070552
 30
0.0
  0
POINT
  5
62BA
330
62A8
100
AcDbEntity
  8
Defpoints
 62
     0
100
AcDbPoint
 10
1088.865950666791
 20
1385.197307022378
 30
0.0
  0
ENDBLK
  5
62B2
330
62A8
100
AcDbEntity
  8
0
100
AcDbBlockEnd
  0
BLOCK
  5
633C
330
6332
100
AcDbEntity
  8
0
100
AcDbBlockBegin
  2
*D26
 70
     1
 10
0.0
 20
0.0
 30
0.0
  3
*D26
  1

  0
LINE
  5
6333
330
6332
100
AcDbEntity
  8
細線
 62
     0
370
    -2
100
AcDbLine
 10
788.4973102722451
 20
1351.881555809373
 30
0.0
 11
788.4973102722451
 21
1635.246806268195
 31
0.0
  0
LINE
  5
6334
330
6332
100
AcDbEntity
  8
細線
 62
     0
370
    -2
100
AcDbLine
 10
932.3765920571986
 20
1351.881555809373
 30
0.0
 11
932.3765920571986
 21
1635.246806268195
 31
0.0
  0
LINE
  5
6335
330
6332
100
AcDbEntity
  8
細線
 62
     0
370
    -2
100
AcDbLine
 10
791.4973102722451
 20
1632.246806268195
 30
0.0
 11
929.3765920571987
 21
1632.246806268195
 31
0.0
  0
INSERT
  5
6336
330
6332
100
AcDbEntity
  8
細線
 62
     0
370
    -2
100
AcDbBlockReference
  2
_Closed
 10
788.4973102722451
 20
1632.246806268195
 30
0.0
 41
3.0
 42
3.0
 43
3.0
 50
180.0
  0
INSERT
  5
6337
330
6332
100
AcDbEntity
  8
細線
 62
     0
370
    -2
100
AcDbBlockReference
  2
_Closed
 10
932.3765920571986
 20
1632.246806268195
 30
0.0
 41
3.0
 42
3.0
 43
3.0
  0
MTEXT
  5
6338
330
6332
100
AcDbEntity
  8
細線
 62
     0
100
AcDbMText
 10
860.4369511647218
 20
1635.746806268195
 30
0.0
 40
5.0
 41
0.0
 71
     5
 72
     1
  1
143.88
  7
OKANO
 73
     1
 44
1.0
  0
POINT
  5
6339
330
6332
100
AcDbEntity
  8
Defpoints
 62
     0
100
AcDbPoint
 10
788.4973102722451
 20
1349.881555809373
 30
0.0
  0
POINT
  5
633A
330
6332
100
AcDbEntity
  8
Defpoints
 62
     0
100
AcDbPoint
 10
932.3765920571986
 20
1349.881555809373
 30
0.0
  0
POINT
  5
633B
330
6332
100
AcDbEntity
  8
Defpoints
 62
     0
100
AcDbPoint
 10
932.3765920571986
 20
1632.246806268195
 30
0.0
  0
ENDBLK
  5
633D
330
6332
100
AcDbEntity
  8
0
100
AcDbBlockEnd
  0
BLOCK
  5
6353
330
6349
100
AcDbEntity
  8
0
100
AcDbBlockBegin
  2
*D27
 70
     1
 10
0.0
 20
0.0
 30
0.0
  3
*D27
  1

  0
LINE
  5
635E
330
6349
100
AcDbEntity
  8
寸法線
 62
     0
370
    -2
100
AcDbLine
 10
1058.288596173077
 20
1212.28153250755
 30
0.0
 11
1058.288596173077
 21
1228.961250147737
 31
0.0
  0
LINE
  5
635F
330
6349
100
AcDbEntity
  8
寸法線
 62
     0
370
    -2
100
AcDbLine
 10
1518.288596173077
 20
1212.28153250755
 30
0.0
 11
1518.288596173077
 21
1228.961250147737
 31
0.0
  0
LINE
  5
6360
330
6349
100
AcDbEntity
  8
寸法線
 62
     0
370
    -2
100
AcDbLine
 10
1061.288596173077
 20
1225.961250147737
 30
0.0
 11
1515.288596173077
 21
1225.961250147737
 31
0.0
  0
INSERT
  5
6361
330
6349
100
AcDbEntity
  8
寸法線
 62
     0
370
    -2
100
AcDbBlockReference
  2
_Closed
 10
1058.288596173077
 20
1225.961250147737
 30
0.0
 41
3.0
 42
3.0
 43
3.0
 50
180.0
  0
INSERT
  5
6362
330
6349
100
AcDbEntity
  8
寸法線
 62
     0
370
    -2
100
AcDbBlockReference
  2
_Closed
 10
1518.288596173077
 20
1225.961250147737
 30
0.0
 41
3.0
 42
3.0
 43
3.0
  0
MTEXT
  5
6363
330
6349
100
AcDbEntity
  8
寸法線
 62
     0
100
AcDbMText
 10
1288.288596173077
 20
1236.961250147737
 30
0.0
 40
20.0
 41
0.0
 71
     5
 72
     1
  1
460（310）
  7
OKANO
 73
     1
 44
1.0
  0
POINT
  5
6364
330
6349
100
AcDbEntity
  8
Defpoints
 62
     0
100
AcDbPoint
 10
1058.288596173077
 20
1210.28153250755
 30
0.0
  0
POINT
  5
6365
330
6349
100
AcDbEntity
  8
Defpoints
 62
     0
100
AcDbPoint
 10
1518.288596173077
 20
1210.28153250755
 30
0.0
  0
POINT
  5
6366
330
6349
100
AcDbEntity
  8
Defpoints
 62
     0
100
AcDbPoint
 10
1518.288596173077
 20
1225.961250147737
 30
0.0
  0
ENDBLK
  5
6354
330
6349
100
AcDbEntity
  8
0
100
AcDbBlockEnd
  0
BLOCK
  5
6392
330
6388
100
AcDbEntity
  8
0
100
AcDbBlockBegin
  2
*D28
 70
     1
 10
0.0
 20
0.0
 30
0.0
  3
*D28
  1

  0
LINE
  5
639D
330
6388
100
AcDbEntity
  8
寸法線
 62
     0
370
    -2
100
AcDbLine
 10
1975.288596173077
 20
1170.28153250755
 30
0.0
 11
2013.353708461358
 21
1170.28153250755
 31
0.0
  0
LINE
  5
639E
330
6388
100
AcDbEntity
  8
寸法線
 62
     0
370
    -2
100
AcDbLine
 10
1980.288596173077
 20
1210.28153250755
 30
0.0
 11
2013.353708461358
 21
1210.28153250755
 31
0.0
  0
LINE
  5
639F
330
6388
100
AcDbEntity
  8
寸法線
 62
     0
370
    -2
100
AcDbLine
 10
2010.353708461359
 20
1173.28153250755
 30
0.0
 11
2010.353708461359
 21
1207.28153250755
 31
0.0
  0
INSERT
  5
63A0
330
6388
100
AcDbEntity
  8
寸法線
 62
     0
370
    -2
100
AcDbBlockReference
  2
_Closed
 10
2010.353708461359
 20
1170.28153250755
 30
0.0
 41
3.0
 42
3.0
 43
3.0
 50
270.0
  0
INSERT
  5
63A1
330
6388
100
AcDbEntity
  8
寸法線
 62
     0
370
    -2
100
AcDbBlockReference
  2
_Closed
 10
2010.353708461359
 20
1210.28153250755
 30
0.0
 41
3.0
 42
3.0
 43
3.0
 50
90.0
  0
MTEXT
  5
63A2
330
6388
100
AcDbEntity
  8
寸法線
 62
     0
100
AcDbMText
 10
1999.353708461359
 20
1190.28153250755
 30
0.0
 40
20.0
 41
0.0
 71
     5
 72
     1
  1
40
  7
OKANO
 11
0.0000000000000001
 21
1.0
 31
0.0
 73
     1
 44
1.0
  0
POINT
  5
63A3
330
6388
100
AcDbEntity
  8
Defpoints
 62
     0
100
AcDbPoint
 10
1973.288596173077
 20
1170.28153250755
 30
0.0
  0
POINT
  5
63A4
330
6388
100
AcDbEntity
  8
Defpoints
 62
     0
100
AcDbPoint
 10
1978.288596173077
 20
1210.28153250755
 30
0.0
  0
POINT
  5
63A5
330
6388
100
AcDbEntity
  8
Defpoints
 62
     0
100
AcDbPoint
 10
2010.353708461359
 20
1210.28153250755
 30
0.0
  0
ENDBLK
  5
6393
330
6388
100
AcDbEntity
  8
0
100
AcDbBlockEnd
  0
BLOCK
  5
63B2
330
63A8
100
AcDbEntity
  8
0
100
AcDbBlockBegin
  2
*D29
 70
     1
 10
0.0
 20
0.0
 30
0.0
  3
*D29
  1

  0
LINE
  5
63C6
330
63A8
100
AcDbEntity
  8
寸法線
 62
     0
370
    -2
100
AcDbLine
 10
1056.288596173077
 20
1066.28153250755
 30
0.0
 11
1026.86750589135
 21
1066.28153250755
 31
0.0
  0
LINE
  5
63C7
330
63A8
100
AcDbEntity
  8
寸法線
 62
     0
370
    -2
100
AcDbLine
 10
1056.288596173077
 20
1210.28153250755
 30
0.0
 11
1026.86750589135
 21
1210.28153250755
 31
0.0
  0
LINE
  5
63C8
330
63A8
100
AcDbEntity
  8
寸法線
 62
     0
370
    -2
100
AcDbLine
 10
1029.86750589135
 20
1069.28153250755
 30
0.0
 11
1029.86750589135
 21
1207.28153250755
 31
0.0
  0
INSERT
  5
63C9
330
63A8
100
AcDbEntity
  8
寸法線
 62
     0
370
    -2
100
AcDbBlockReference
  2
_Closed
 10
1029.86750589135
 20
1066.28153250755
 30
0.0
 41
3.0
 42
3.0
 43
3.0
 50
270.0
  0
INSERT
  5
63CA
330
63A8
100
AcDbEntity
  8
寸法線
 62
     0
370
    -2
100
AcDbBlockReference
  2
_Closed
 10
1029.86750589135
 20
1210.28153250755
 30
0.0
 41
3.0
 42
3.0
 43
3.0
 50
90.0
  0
MTEXT
  5
63CB
330
63A8
100
AcDbEntity
  8
寸法線
 62
     0
100
AcDbMText
 10
1018.86750589135
 20
1138.28153250755
 30
0.0
 40
20.0
 41
0.0
 71
     5
 72
     1
  1
140
  7
OKANO
 11
0.0000000000000001
 21
1.0
 31
0.0
 73
     1
 44
1.0
  0
POINT
  5
63CC
330
63A8
100
AcDbEntity
  8
Defpoints
 62
     0
100
AcDbPoint
 10
1058.288596173077
 20
1066.28153250755
 30
0.0
  0
POINT
  5
63CD
330
63A8
100
AcDbEntity
  8
Defpoints
 62
     0
100
AcDbPoint
 10
1058.288596173077
 20
1210.28153250755
 30
0.0
  0
POINT
  5
63CE
330
63A8
100
AcDbEntity
  8
Defpoints
 62
     0
100
AcDbPoint
 10
1029.86750589135
 20
1210.28153250755
 30
0.0
  0
ENDBLK
  5
63B3
330
63A8
100
AcDbEntity
  8
0
100
AcDbBlockEnd
  0
ENDSEC
  0
SECTION
  2
ENTITIES
  0
LINE
  5
40DE
330
1F
100
AcDbEntity
  8
太線
100
AcDbLine
 10
1058.288596173077
 20
1266.927718863949
 30
0.0
 11
1058.288596173077
 21
1516.927718863949
 31
0.0
  0
LINE
  5
40E1
330
1F
100
AcDbEntity
  8
太線
100
AcDbLine
 10
1678.288596173077
 20
1266.927718863949
 30
0.0
 11
1058.288596173077
 21
1266.927718863949
 31
0.0
  0
CIRCLE
  5
412D
330
1F
100
AcDbEntity
  8
太線
100
AcDbCircle
 10
1943.288596173077
 20
1381.927718863949
 30
0.0
 40
5.5
  0
CIRCLE
  5
412E
330
1F
100
AcDbEntity
  8
太線
100
AcDbCircle
 10
1943.288596173077
 20
1486.92771886395
 30
0.0
 40
5.5
  0
ARC
  5
44B9
330
1F
100
AcDbEntity
  8
太線
100
AcDbCircle
 10
382.7149616683882
 20
577.3550912300387
 30
0.0
 40
6.165767999999999
100
AcDbArc
 50
234.9333981693085
 51
54.93339816930846
  0
LINE
  5
44BA
330
1F
100
AcDbEntity
  8
太線
100
AcDbLine
 10
465.7002959268916
 20
495.2492848160587
 30
0.0
 11
352.9931839794592
 21
574.3630609988455
 31
0.0
  0
LINE
  5
44BB
330
1F
100
AcDbEntity
  8
太線
100
AcDbLine
 10
375.428433941742
 20
606.3247793122966
 30
0.0
 11
488.1355458891744
 21
527.2110031295096
 31
0.0
  0
LINE
  5
44BF
330
1F
100
AcDbEntity
  8
太線
100
AcDbLine
 10
432.107718134404
 20
620.5038004806917
 30
0.0
 11
401.5635809463942
 21
641.3761914437247
 31
0.0
  0
LINE
  5
44C0
330
1F
100
AcDbEntity
  8
太線
100
AcDbLine
 10
397.25763556557
 20
638.7177515709476
 30
0.0
 11
433.3166864125261
 21
614.0767344618112
 31
0.0
  0
LINE
  5
44C3
330
1F
100
AcDbEntity
  8
想像線
100
AcDbLine
 10
407.5622648693475
 20
637.2769800195209
 30
0.0
 11
404.9532159989682
 21
633.4589628710196
 31
0.0
  0
ARC
  5
44C4
330
1F
100
AcDbEntity
  8
太線
100
AcDbCircle
 10
400.4040036706702
 20
639.6792949332798
 30
0.0
 40
2.055255999999999
100
AcDbArc
 50
55.65318154630089
 51
145.6531815463009
  0
LINE
  5
44C7
330
1F
100
AcDbEntity
  8
太線
100
AcDbLine
 10
398.7071071602251
 20
640.8388722090039
 30
0.0
 11
397.25763556557
 21
638.7177515709476
 31
0.0
  0
LINE
  5
44CA
330
1F
100
AcDbEntity
  8
想像線
100
AcDbLine
 10
509.2936138269017
 20
567.7586801386403
 30
0.0
 11
506.6845649565225
 21
563.9406629901389
 31
0.0
  0
LINE
  5
44CB
330
1F
100
AcDbEntity
  8
想像線
100
AcDbLine
 10
424.5312299737974
 20
625.6812072622803
 30
0.0
 11
421.9221811034182
 21
621.8631901137789
 31
0.0
  0
LINE
  5
44CC
330
1F
100
AcDbEntity
  8
太線
100
AcDbLine
 10
352.4917909083451
 20
577.2260593291473
 30
0.0
 11
372.5654356114403
 21
605.8233862411825
 31
0.0
  0
ARC
  5
44CD
330
1F
100
AcDbEntity
  8
太線
100
AcDbCircle
 10
514.0960698704843
 20
561.9876174597679
 30
0.0
 40
2.055255999999999
100
AcDbArc
 50
325.6531815463009
 51
55.65318154630089
  0
LINE
  5
44CE
330
1F
100
AcDbEntity
  8
想像線
100
AcDbLine
 10
491.4990959999786
 20
579.9185958303496
 30
0.0
 11
488.8900471295994
 21
576.1005786818484
 31
0.0
  0
ARC
  5
44D0
330
1F
100
AcDbEntity
  8
太線
100
AcDbCircle
 10
468.7298518002454
 20
617.6327316499294
 30
0.0
 40
25.176886
100
AcDbArc
 50
325.6531815463009
 51
145.6531815463009
  0
LINE
  5
44D1
330
1F
100
AcDbEntity
  8
太線
100
AcDbLine
 10
477.7471247045972
 20
586.2044104412929
 30
0.0
 11
489.5168340531965
 21
603.4279100223095
 31
0.0
  0
LINE
  5
44D2
330
1F
100
AcDbEntity
  8
太線
100
AcDbLine
 10
436.173160198695
 20
614.6140536965323
 30
0.0
 11
447.9428695472943
 21
631.837553277549
 31
0.0
  0
LINE
  5
44D4
330
1F
100
AcDbEntity
  8
太線
100
AcDbLine
 10
514.3434947862743
 20
558.7069195459873
 30
0.0
 11
478.2844439393182
 21
583.3479366551236
 31
0.0
  0
ARC
  5
44F3
330
1F
100
AcDbEntity
  8
太線
100
AcDbCircle
 10
434.4762636882502
 20
615.7736309722563
 30
0.0
 40
2.055255999999999
100
AcDbArc
 50
235.6531815463009
 51
325.6531815463009
  0
ARC
  5
44F6
330
1F
100
AcDbEntity
  8
太線
100
AcDbCircle
 10
479.4440212150422
 20
585.0448331655688
 30
0.0
 40
2.055255999999999
100
AcDbArc
 50
145.6531815463009
 51
235.6531815463009
  0
LINE
  5
4512
330
1F
100
AcDbEntity
  8
太線
100
AcDbLine
 10
515.7929663809294
 20
560.8280401840438
 30
0.0
 11
514.3434947862743
 21
558.7069195459873
 31
0.0
  0
ARC
  5
4513
330
1F
100
AcDbEntity
  8
太線
100
AcDbCircle
 10
354.1739866090529
 20
576.0452566995533
 30
0.0
 40
2.055255999999999
100
AcDbArc
 50
144.9333981693084
 51
234.9333981693085
  0
LINE
  5
4517
330
1F
100
AcDbEntity
  8
太線
100
AcDbLine
 10
484.7115099581986
 20
584.556904933246
 30
0.0
 11
515.2556471462084
 21
563.6845139702128
 31
0.0
  0
ARC
  5
4518
330
1F
100
AcDbEntity
  8
太線
100
AcDbCircle
 10
468.7298518002454
 20
617.6327316499294
 30
0.0
 40
29.801212
100
AcDbArc
 50
325.6531815463009
 51
145.6531815463009
  0
LINE
  5
452D
330
1F
100
AcDbEntity
  8
太線
100
AcDbLine
 10
444.1248523987933
 20
634.446602147928
 30
0.0
 11
434.9641919205732
 21
621.0411197154126
 31
0.0
  0
ARC
  5
452E
330
1F
100
AcDbEntity
  8
太線
100
AcDbCircle
 10
433.267295410128
 20
622.2006969911367
 30
0.0
 40
2.055255999999999
100
AcDbArc
 50
235.6531815463009
 51
325.6531815463009
  0
LINE
  5
452F
330
1F
100
AcDbEntity
  8
太線
100
AcDbLine
 10
493.3348512016977
 20
600.8188611519304
 30
0.0
 11
484.1741907234777
 21
587.4133787194149
 31
0.0
  0
ARC
  5
4530
330
1F
100
AcDbEntity
  8
太線
100
AcDbCircle
 10
485.8710872339226
 20
586.2538014436909
 30
0.0
 40
2.055255999999999
100
AcDbArc
 50
145.6531815463009
 51
235.6531815463009
  0
LINE
  5
4531
330
1F
100
AcDbEntity
  8
想像線
100
AcDbLine
 10
484.0282960909693
 20
643.2075207781419
 30
0.0
 11
481.4136058526777
 21
639.3812481923143
 31
0.0
  0
LINE
  5
4532
330
1F
100
AcDbEntity
  8
想像線
100
AcDbLine
 10
486.9978649842479
 20
641.1782605456251
 30
0.0
 11
484.2315315591677
 21
637.5335035714665
 31
0.0
  0
ARC
  5
4548
330
1F
100
AcDbEntity
  8
太線
100
AcDbCircle
 10
375.9861788655564
 20
582.0783017484139
 30
0.0
 40
6.165767999999999
100
AcDbArc
 50
54.93339816930846
 51
234.9333981693085
  0
LINE
  5
4549
330
1F
100
AcDbEntity
  8
太線
100
AcDbLine
 10
372.4437709767749
 20
577.03171464629
 30
0.0
 11
379.1725537796064
 21
572.3085041279148
 31
0.0
  0
LINE
  5
454A
330
1F
100
AcDbEntity
  8
太線
100
AcDbLine
 10
379.5285867543375
 20
587.1248888505375
 30
0.0
 11
386.2573695571695
 21
582.4016783321622
 31
0.0
  0
LINE
  5
454B
330
1F
100
AcDbEntity
  8
太線
100
AcDbLine
 10
488.6369389602882
 20
524.348004799208
 30
0.0
 11
468.5632942571933
 21
495.750677887173
 31
0.0
  0
LINE
  5
454C
330
1F
100
AcDbEntity
  8
太線
100
AcDbLine
 10
456.1738275757232
 20
549.6462530917926
 30
0.0
 11
433.7385776134405
 21
517.6845347783417
 31
0.0
  0
LINE
  5
454D
330
1F
100
AcDbEntity
  8
想像線
100
AcDbLine
 10
452.3888872491307
 20
552.3030590083788
 30
0.0
 11
429.9536372868479
 21
520.3413406949277
 31
0.0
  0
LINE
  5
454E
330
1F
100
AcDbEntity
  8
太線
100
AcDbLine
 10
407.3901522551929
 20
583.8895293500136
 30
0.0
 11
384.9549022929102
 21
551.9278110365625
 31
0.0
  0
LINE
  5
454F
330
1F
100
AcDbEntity
  8
想像線
100
AcDbLine
 10
411.1750925817859
 20
581.2327234334274
 30
0.0
 11
388.7398426195031
 21
549.2710051199765
 31
0.0
  0
ARC
  5
4551
330
1F
100
AcDbEntity
  8
太線
100
AcDbCircle
 10
466.8810985564855
 20
496.9314805167665
 30
0.0
 40
2.055255999999999
100
AcDbArc
 50
234.9333981693085
 51
324.9333981693084
  0
CIRCLE
  5
4555
330
1F
100
AcDbEntity
  8
太線
100
AcDbCircle
 10
420.5643649343169
 20
550.7870320641773
 30
0.0
 40
1.798348999999999
  0
LINE
  5
4557
330
1F
100
AcDbEntity
  8
太線
100
AcDbLine
 10
454.8713603114638
 20
519.1723857961924
 30
0.0
 11
461.6001431142958
 21
514.4491752778169
 31
0.0
  0
LINE
  5
4558
330
1F
100
AcDbEntity
  8
太線
100
AcDbLine
 10
461.9561760890267
 20
529.2655600004398
 30
0.0
 11
468.6849588918585
 21
524.5423494820645
 31
0.0
  0
ARC
  5
4559
330
1F
100
AcDbEntity
  8
太線
100
AcDbCircle
 10
458.4137682002456
 20
524.2189728983162
 30
0.0
 40
6.165767999999999
100
AcDbArc
 50
54.93339816930846
 51
234.9333981693085
  0
ARC
  5
455A
330
1F
100
AcDbEntity
  8
太線
100
AcDbCircle
 10
465.1425510030774
 20
519.4957623799409
 30
0.0
 40
6.165767999999999
100
AcDbArc
 50
234.9333981693085
 51
54.93339816930846
  0
ARC
  5
455B
330
1F
100
AcDbEntity
  8
太線
100
AcDbCircle
 10
486.9547432595805
 20
525.5288074288017
 30
0.0
 40
2.055255999999999
100
AcDbArc
 50
324.9333981693084
 51
54.93339816930846
  0
LINE
  5
4AD7
330
1F
100
AcDbEntity
  8
想像線
100
AcDbLine
 10
285.5942065503413
 20
118.9882283914889
 30
0.0
 11
328.1565298985288
 21
76.46537133834681
 31
0.0
  0
LINE
  5
4AD8
330
1F
100
AcDbEntity
  8
想像線
100
AcDbLine
 10
399.0937389353348
 20
118.9882283914889
 30
0.0
 11
441.6560622835222
 21
76.46537133834681
 31
0.0
  0
LINE
  5
4AD9
330
1F
100
AcDbEntity
  8
想像線
100
AcDbLine
 10
505.4995498981734
 20
118.9882283914889
 30
0.0
 11
548.0618732463608
 21
76.46537133834681
 31
0.0
  0
LINE
  5
4ADA
330
1F
100
AcDbEntity
  8
想像線
100
AcDbLine
 10
618.9990822831669
 20
118.9882283914889
 30
0.0
 11
661.5614056313543
 21
76.46537133834681
 31
0.0
  0
LINE
  5
4ADB
330
1F
100
AcDbEntity
  8
想像線
100
AcDbLine
 10
721.8580377196685
 20
118.9882283914889
 30
0.0
 11
764.420361067856
 21
76.46537133834681
 31
0.0
  0
LINE
  5
4ADC
330
1F
100
AcDbEntity
  8
想像線
100
AcDbLine
 10
835.357570104662
 20
118.9882283914889
 30
0.0
 11
877.9198934528494
 21
76.46537133834681
 31
0.0
  0
LINE
  5
4ADD
330
1F
100
AcDbEntity
  8
想像線
100
AcDbLine
 10
941.7633810675006
 20
118.9882283914889
 30
0.0
 11
984.325704415688
 21
76.46537133834681
 31
0.0
  0
LINE
  5
4ADE
330
1F
100
AcDbEntity
  8
想像線
100
AcDbLine
 10
1055.262913452494
 20
118.9882283914889
 30
0.0
 11
1097.825236800681
 21
76.46537133834681
 31
0.0
  0
LINE
  5
4ADF
330
1F
100
AcDbEntity
  8
想像線
100
AcDbLine
 10
1158.121863704255
 20
118.9882283914889
 30
0.0
 11
1200.684187052443
 21
76.46537133834681
 31
0.0
  0
LINE
  5
4AE0
330
1F
100
AcDbEntity
  8
想像線
100
AcDbLine
 10
1271.621396089249
 20
118.9882283914889
 30
0.0
 11
1314.183719437436
 21
76.46537133834681
 31
0.0
  0
LINE
  5
4AE1
330
1F
100
AcDbEntity
  8
想像線
100
AcDbLine
 10
1378.027207052087
 20
118.9882283914889
 30
0.0
 11
1420.589530400275
 21
76.46537133834681
 31
0.0
  0
LINE
  5
4AE2
330
1F
100
AcDbEntity
  8
想像線
100
AcDbLine
 10
1491.526739437081
 20
118.9882283914889
 30
0.0
 11
1534.089062785268
 21
76.46537133834681
 31
0.0
  0
LINE
  5
4AE3
330
1F
100
AcDbEntity
  8
想像線
100
AcDbLine
 10
1594.385694873583
 20
118.9882283914889
 30
0.0
 11
1636.94801822177
 21
76.46537133834681
 31
0.0
  0
LINE
  5
4AE4
330
1F
100
AcDbEntity
  8
想像線
100
AcDbLine
 10
1707.885227258576
 20
118.9882283914889
 30
0.0
 11
1750.447550606764
 21
76.46537133834681
 31
0.0
  0
LINE
  5
4AE5
330
1F
100
AcDbEntity
  8
想像線
100
AcDbLine
 10
1814.291038221415
 20
118.9882283914889
 30
0.0
 11
1856.853361569602
 21
76.46537133834681
 31
0.0
  0
LINE
  5
4B0D
330
1F
100
AcDbEntity
  8
太線
100
AcDbLine
 10
775.5672446551425
 20
126.662133170339
 30
0.0
 11
1204.439142319557
 21
126.662133170339
 31
0.0
  0
LINE
  5
4B28
330
1F
100
AcDbEntity
  8
太線
100
AcDbLine
 10
1204.439142319557
 20
126.662133170339
 30
0.0
 11
1630.285114798366
 21
126.662133170339
 31
0.0
  0
LINE
  5
4B29
330
1F
100
AcDbEntity
  8
太線
100
AcDbLine
 10
1630.285114798366
 20
126.662133170339
 30
0.0
 11
1869.284489096276
 21
126.662133170339
 31
0.0
  0
LINE
  5
4B2A
330
1F
100
AcDbEntity
  8
太線
100
AcDbLine
 10
1869.284489096276
 20
126.662133170339
 30
0.0
 11
1869.284489096276
 21
126.662133170339
 31
0.0
  0
LINE
  5
4B2B
330
1F
100
AcDbEntity
  8
太線
100
AcDbLine
 10
1869.284489096276
 20
126.662133170339
 30
0.0
 11
1869.284489096276
 21
126.662133170339
 31
0.0
  0
LINE
  5
4B2C
330
1F
100
AcDbEntity
  8
太線
100
AcDbLine
 10
1869.284489096276
 20
126.662133170339
 30
0.0
 11
1869.284489096276
 21
126.662133170339
 31
0.0
  0
XLINE
  5
4BE7
330
1F
100
AcDbEntity
  8
構築線
100
AcDbXline
 10
689.9248706851808
 20
303.071230130192
 30
0.0
 11
1.0
 21
0.0
 31
0.0
  0
LWPOLYLINE
  5
4E4D
330
1F
100
AcDbEntity
  8
太線
100
AcDbPolyline
 90
        4
 70
     1
 43
0.0
 10
1368.22981963559
 20
54.90698890334447
 10
1789.42981963559
 20
54.90698890334447
 10
1789.42981963559
 20
-43.37301109665553
 10
1368.22981963559
 20
-43.37301109665553
  0
LINE
  5
4E4E
330
1F
100
AcDbEntity
  8
太線
100
AcDbLine
 10
1368.22981963559
 20
22.14698890334446
 30
0.0
 11
1789.429819635589
 21
22.14698890334446
 31
0.0
  0
TEXT
  5
4E4F
330
1F
100
AcDbEntity
  8
文字
100
AcDbText
 10
1475.176509543884
 20
25.73813874002285
 30
0.0
 40
18.71999999999999
  1
F-999-20100308 Auto CAD
 51
15.0
  7
OKANO
100
AcDbText
  0
TEXT
  5
4E50
330
1F
100
AcDbEntity
  8
文字
100
AcDbText
 10
1504.380930289892
 20
-31.79611013839951
 30
0.0
 40
18.71999999999999
  1
joint kogyo T.okano
 51
15.0
  7
OKANO
100
AcDbText
  0
TEXT
  5
4E52
330
1F
100
AcDbEntity
  8
文字
100
AcDbText
 10
1384.332521831527
 20
-23.80032763826916
 30
0.0
 40
9.359999999999999
  1
APPR
 51
15.0
  7
OKANO
100
AcDbText
  0
LINE
  5
4E53
330
1F
100
AcDbEntity
  8
太線
100
AcDbLine
 10
1461.82981963559
 20
54.90698890334446
 30
0.0
 11
1461.82981963559
 21
-43.37301109665553
 31
0.0
  0
TEXT
  5
4E54
330
1F
100
AcDbEntity
  8
文字
100
AcDbText
 10
1383.332115543214
 20
-36.79347477641488
 30
0.0
 40
9.359999999999999
  1
ISSUED
 51
15.0
  7
OKANO
100
AcDbText
  0
TEXT
  5
4E55
330
1F
100
AcDbEntity
  8
文字
100
AcDbText
 10
1381.331311513235
 20
4.184911112187052
 30
0.0
 40
9.359999999999999
  1
DRAWN
 51
15.0
  7
OKANO
100
AcDbText
  0
TEXT
  5
4E56
330
1F
100
AcDbEntity
  8
文字
100
AcDbText
 10
1376.32929289164
 20
29.17173200052859
 30
0.0
 40
9.359999999999999
  1
FILM NAME
 51
15.0
  7
OKANO
100
AcDbText
  0
TEXT
  5
4E57
330
1F
100
AcDbEntity
  8
文字
100
AcDbText
 10
1383.332115543214
 20
-9.80770711217319
 30
0.0
 40
9.359999999999999
  1
CHECK
 51
15.0
  7
OKANO
100
AcDbText
  0
TEXT
  5
4E58
330
1F
100
AcDbEntity
  8
文字
100
AcDbText
 10
1491.058123277445
 20
-8.229809094991196
 30
0.0
 40
18.71999999999999
  1
縞鋼板2.3ｔドブ　プレート
 51
15.0
  7
OKANO
100
AcDbText
  0
CIRCLE
  5
508E
330
1F
100
AcDbEntity
  8
構築線
100
AcDbCircle
 10
-450.9938079882031
 20
460.6526453183269
 30
0.0
 40
100.0
  0
XLINE
  5
5337
330
1F
100
AcDbEntity
  8
構築線
100
AcDbXline
 10
241.6803223153065
 20
527.775389794001
 30
0.0
 11
1.0
 21
0.0
 31
0.0
  0
XLINE
  5
5435
330
1F
100
AcDbEntity
  8
構築線
100
AcDbXline
 10
689.9248706851808
 20
503.071230130192
 30
0.0
 11
1.0
 21
0.0
 31
0.0
  0
LINE
  5
551D
330
1F
100
AcDbEntity
  8
太線
100
AcDbLine
 10
1978.288596173077
 20
1266.927718863949
 30
0.0
 11
1978.288596173077
 21
1516.927718863949
 31
0.0
  0
LINE
  5
55E7
330
1F
100
AcDbEntity
  8
太線
100
AcDbLine
 10
-845.1497786843992
 20
297.0564790674695
 30
0.0
 11
-1095.149778684399
 21
297.0564790674695
 31
0.0
  0
LINE
  5
55E8
330
1F
100
AcDbEntity
  8
太線
100
AcDbLine
 10
-1095.149778684399
 20
257.0564790674696
 30
0.0
 11
-993.3805452493585
 21
257.0564790674696
 31
0.0
  0
ARC
  5
55E9
330
1F
100
AcDbEntity
  8
太線
100
AcDbCircle
 10
-970.1497786843992
 20
267.0564790674696
 30
0.0
 40
125.3993620398445
100
AcDbArc
 50
175.4260787400991
 51
184.5739212599008
  0
ARC
  5
55EA
330
1F
100
AcDbEntity
  8
太線
100
AcDbCircle
 10
-970.1497786843992
 20
267.0564790674696
 30
0.0
 40
125.3993620398445
100
AcDbArc
 50
175.4260787400991
 51
184.5739212599008
  0
LINE
  5
55EB
330
1F
100
AcDbEntity
  8
太線
100
AcDbLine
 10
-1095.149778684399
 20
257.0564790674696
 30
0.0
 11
-1095.149778684399
 21
297.0564790674695
 31
0.0
  0
CIRCLE
  5
55EC
330
1F
100
AcDbEntity
  8
太線
100
AcDbCircle
 10
-970.1497786843992
 20
267.0564790674696
 30
0.0
 40
5.5
  0
LINE
  5
55ED
330
1F
100
AcDbEntity
  8
太線
100
AcDbLine
 10
-845.1497786843992
 20
257.0564790674696
 30
0.0
 11
-845.1497786843992
 21
297.0564790674695
 31
0.0
  0
CIRCLE
  5
55EE
330
1F
100
AcDbEntity
  8
太線
100
AcDbCircle
 10
-917.1578522610795
 20
182.2516694518266
 30
0.0
 40
5.5
  0
ARC
  5
55EF
330
1F
100
AcDbEntity
  8
太線
100
AcDbCircle
 10
-970.1497786843992
 20
267.0564790674696
 30
0.0
 40
125.3993620398445
100
AcDbArc
 50
292.8436080256992
 51
355.4260787400999
  0
LINE
  5
55F0
330
1F
100
AcDbEntity
  8
太線
100
AcDbLine
 10
-993.3805452493585
 20
257.0564790674696
 30
0.0
 11
-928.8851922887673
 21
153.8423387619438
 31
0.0
  0
ARC
  5
55F1
330
1F
100
AcDbEntity
  8
太線
100
AcDbCircle
 10
-923.7969037118288
 20
157.0218543473432
 30
0.0
 40
6.0
100
AcDbArc
 50
212.0000000000007
 51
292.8436080256994
  0
CIRCLE
  5
55F2
330
1F
100
AcDbEntity
  8
太線
100
AcDbCircle
 10
-881.8550193985057
 20
220.1093227888823
 30
0.0
 40
5.5
  0
CIRCLE
  5
55F3
330
1F
100
AcDbEntity
  8
太線
100
AcDbCircle
 10
-891.3487033237251
 20
205.4903315349063
 30
0.0
 40
5.5
  0
CIRCLE
  5
55F4
330
1F
100
AcDbEntity
  8
太線
100
AcDbCircle
 10
-903.2367180485149
 20
192.7419965197288
 30
0.0
 40
5.5
  0
XLINE
  5
55FA
330
1F
100
AcDbEntity
  8
構築線
100
AcDbXline
 10
-450.9938079882031
 20
460.6526453183269
 30
0.0
 11
0.788010753606741
 21
-0.6156614753256341
 31
0.0
  0
LINE
  5
5616
330
1F
100
AcDbEntity
  8
中心線
100
AcDbLine
 10
-468.6310761660832
 20
470.0827445350038
 30
0.0
 11
-343.5716768690852
 21
403.217369951062
 31
0.0
  0
ARC
  5
5617
330
1F
100
AcDbEntity
  8
太線
100
AcDbCircle
 10
-337.1470930333384
 20
419.5923013801695
 30
0.0
 40
2.055255999999999
100
AcDbArc
 50
331.867968780685
 51
61.86796878068501
  0
ARC
  5
5618
330
1F
100
AcDbEntity
  8
太線
100
AcDbCircle
 10
-365.3211376163889
 20
414.846130748269
 30
0.0
 40
6.165767999999999
100
AcDbArc
 50
61.86796878068501
 51
241.867968780685
  0
LINE
  5
5619
330
1F
100
AcDbEntity
  8
太線
100
AcDbLine
 10
-362.4139474170873
 20
420.2834959350949
 30
0.0
 11
-355.164127167986
 21
416.4072423360257
 31
0.0
  0
LINE
  5
561A
330
1F
100
AcDbEntity
  8
太線
100
AcDbLine
 10
-354.5902342291493
 20
386.9681102592136
 30
0.0
 11
-476.0247234015968
 21
451.895358043621
 31
0.0
  0
LINE
  5
561B
330
1F
100
AcDbEntity
  8
想像線
100
AcDbLine
 10
-374.6926997069218
 20
441.9973536874997
 30
0.0
 11
-393.1049043025
 21
407.5607075042682
 31
0.0
  0
LINE
  5
561C
330
1F
100
AcDbEntity
  8
太線
100
AcDbLine
 10
-370.6146758168027
 20
439.8169610380233
 30
0.0
 11
-389.0268804123807
 21
405.380314854792
 31
0.0
  0
LINE
  5
561D
330
1F
100
AcDbEntity
  8
太線
100
AcDbLine
 10
-335.3346379710633
 20
418.6232379804024
 30
0.0
 11
-351.8087157671069
 21
387.8115019217217
 31
0.0
  0
ARC
  5
561E
330
1F
100
AcDbEntity
  8
太線
100
AcDbCircle
 10
-353.6211708293819
 20
388.7805653214887
 30
0.0
 40
2.055255999999999
100
AcDbArc
 50
241.867968780685
 51
331.867968780685
  0
LINE
  5
561F
330
1F
100
AcDbEntity
  8
太線
100
AcDbLine
 10
-368.2283278156909
 20
409.4087655614432
 30
0.0
 11
-360.9785075665893
 21
405.5325119623739
 31
0.0
  0
ARC
  5
5620
330
1F
100
AcDbEntity
  8
太線
100
AcDbCircle
 10
-358.0713173672875
 20
410.9698771491999
 30
0.0
 40
6.165767999999999
100
AcDbArc
 50
241.867968780685
 51
61.86796878068501
  0
LINE
  5
5621
330
1F
100
AcDbEntity
  8
太線
100
AcDbLine
 10
-423.1758726227871
 20
467.9197996312741
 30
0.0
 11
-441.5880772183654
 21
433.4831534480427
 31
0.0
  0
LINE
  5
5622
330
1F
100
AcDbEntity
  8
想像線
100
AcDbLine
 10
-419.0978487326675
 20
465.7394069817977
 30
0.0
 11
-437.5100533282457
 21
431.3027607985665
 31
0.0
  0
LINE
  5
5623
330
1F
100
AcDbEntity
  8
太線
100
AcDbLine
 10
-457.6612470505395
 20
486.3580577049678
 30
0.0
 11
-336.178029633571
 21
421.4047564424449
 31
0.0
  0
LINE
  5
5624
330
1F
100
AcDbEntity
  8
中心線
100
AcDbLine
 10
-460.199910286328
 20
443.4343222268696
 30
0.0
 11
-441.7877056907498
 21
477.870968410101
 31
0.0
  0
LINE
  5
5625
330
1F
100
AcDbEntity
  8
太線
100
AcDbLine
 10
-476.8681150641048
 20
454.6768765056639
 30
0.0
 11
-460.3679837899458
 21
485.5373408088654
 31
0.0
  0
ARC
  5
5626
330
1F
100
AcDbEntity
  8
太線
100
AcDbCircle
 10
-475.0556600018297
 20
453.7078131058962
 30
0.0
 40
2.055255999999999
100
AcDbArc
 50
151.8679687806849
 51
241.867968780685
  0
LINE
  5
5627
330
1F
100
AcDbEntity
  8
太線
100
AcDbLine
 10
-451.2242454685788
 20
467.7676025236914
 30
0.0
 11
-443.9744252194771
 21
463.8913489246224
 31
0.0
  0
ARC
  5
5628
330
1F
100
AcDbEntity
  8
太線
100
AcDbCircle
 10
-446.8816154187789
 20
458.4539837377966
 30
0.0
 40
6.165767999999999
100
AcDbArc
 50
241.867968780685
 51
61.86796878068501
  0
LINE
  5
5629
330
1F
100
AcDbEntity
  8
太線
100
AcDbLine
 10
-457.038625867182
 20
456.8928721500397
 30
0.0
 11
-449.7888056180809
 21
453.0166185509705
 31
0.0
  0
ARC
  5
562A
330
1F
100
AcDbEntity
  8
太線
100
AcDbCircle
 10
-454.1314356678802
 20
462.3302373368656
 30
0.0
 40
6.165767999999999
100
AcDbArc
 50
61.86796878068501
 51
241.867968780685
  0
ARC
  5
562B
330
1F
100
AcDbEntity
  8
太線
100
AcDbCircle
 10
-458.6042569721914
 20
484.5943308872135
 30
0.0
 40
2.0
100
AcDbArc
 50
61.86796878068498
 51
151.8679687806851
  0
CIRCLE
  5
562C
330
1F
100
AcDbEntity
  8
太線
100
AcDbCircle
 10
-406.1013765175838
 20
436.6500572430326
 30
0.0
 40
1.798348999999999
  0
LINE
  5
5645
330
1F
100
AcDbEntity
  8
太線
100
AcDbLine
 10
791.6941041202217
 20
263.071230130192
 30
0.0
 11
809.999656622077
 21
233.7762223882988
 31
0.0
  0
ARC
  5
5646
330
1F
100
AcDbEntity
  8
太線
100
AcDbCircle
 10
814.9248706851809
 20
273.0712301301921
 30
0.0
 40
125.3993620398445
100
AcDbArc
 50
297.7676563661961
 51
355.4260787400999
  0
LINE
  5
5648
330
1F
100
AcDbEntity
  8
太線
100
AcDbLine
 10
886.9595594354091
 20
303.071230130192
 30
0.0
 11
689.9248706851808
 21
303.071230130192
 31
0.0
  0
LINE
  5
5649
330
1F
100
AcDbEntity
  8
太線
100
AcDbLine
 10
689.9248706851808
 20
263.071230130192
 30
0.0
 11
791.6941041202217
 21
263.071230130192
 31
0.0
  0
LINE
  5
564A
330
1F
100
AcDbEntity
  8
太線
100
AcDbLine
 10
689.9248706851808
 20
263.071230130192
 30
0.0
 11
689.9248706851808
 21
303.071230130192
 31
0.0
  0
ARC
  5
564B
330
1F
100
AcDbEntity
  8
太線
100
AcDbCircle
 10
814.9248706851809
 20
273.0712301301921
 30
0.0
 40
125.3993620398445
100
AcDbArc
 50
175.4260787400991
 51
184.5739212599008
  0
ARC
  5
564C
330
1F
100
AcDbEntity
  8
太線
100
AcDbCircle
 10
814.9248706851809
 20
273.0712301301921
 30
0.0
 40
125.3993620398445
100
AcDbArc
 50
175.4260787400991
 51
184.5739212599008
  0
LINE
  5
564D
330
1F
100
AcDbEntity
  8
想像線
100
AcDbLine
 10
846.6604807341514
 20
267.0646990269188
 30
0.0
 11
817.6815272048614
 21
240.8900523098047
 31
0.0
  0
LINE
  5
564E
330
1F
100
AcDbEntity
  8
太線
100
AcDbLine
 10
843.5608515176509
 20
270.4964172080191
 30
0.0
 11
814.5818979883609
 21
244.3217704909048
 31
0.0
  0
LINE
  5
564F
330
1F
100
AcDbEntity
  8
太線
100
AcDbLine
 10
817.3491673788699
 20
299.5163762848886
 30
0.0
 11
909.6862748029924
 21
197.2864293445492
 31
0.0
  0
LINE
  5
5650
330
1F
100
AcDbEntity
  8
太線
100
AcDbLine
 10
880.7073212737021
 20
171.1117826274351
 30
0.0
 11
788.4072512712466
 21
273.300724020195
 31
0.0
  0
ARC
  5
5652
330
1F
100
AcDbEntity
  8
太線
100
AcDbCircle
 10
880.043055202123
 20
200.9763948713705
 30
0.0
 40
6.165767999999999
100
AcDbArc
 50
42.08927981890906
 51
222.089279818909
  0
LINE
  5
5653
330
1F
100
AcDbEntity
  8
太線
100
AcDbLine
 10
883.5116280858779
 20
226.2653828738397
 30
0.0
 11
854.532674556588
 21
200.0907361567253
 31
0.0
  0
LINE
  5
5654
330
1F
100
AcDbEntity
  8
想像線
100
AcDbLine
 10
880.4119988693779
 20
229.6971010549397
 30
0.0
 11
851.4330453400877
 21
203.5224543378253
 31
0.0
  0
ARC
  5
5655
330
1F
100
AcDbEntity
  8
太線
100
AcDbCircle
 10
893.725946045855
 20
211.5050825976287
 30
0.0
 40
5.5
100
AcDbArc
 50
336.9650908651647
 51
107.2134687726542
  0
ARC
  5
5656
330
1F
100
AcDbEntity
  8
太線
100
AcDbCircle
 10
885.5535071425681
 20
194.8755625494146
 30
0.0
 40
6.165767999999999
100
AcDbArc
 50
222.089279818909
 51
42.08927981890906
  0
ARC
  5
5657
330
1F
100
AcDbEntity
  8
太線
100
AcDbCircle
 10
882.2325293541911
 20
172.4893956125461
 30
0.0
 40
2.055255999999999
100
AcDbArc
 50
222.089279818909
 51
312.0892798189091
  0
CIRCLE
  5
5658
330
1F
100
AcDbEntity
  8
太線
100
AcDbCircle
 10
881.8379313210652
 20
198.7567475824513
 30
0.0
 40
5.5
  0
ARC
  5
5659
330
1F
100
AcDbEntity
  8
太線
100
AcDbCircle
 10
867.9167971085005
 20
188.266420514549
 30
0.0
 40
5.5
100
AcDbArc
 50
153.4876874363646
 51
290.6908722014529
  0
LINE
  5
565A
330
1F
100
AcDbEntity
  8
太線
100
AcDbLine
 10
875.467430960656
 20
196.8435559160368
 30
0.0
 11
880.9778829011014
 21
190.7427235940808
 31
0.0
  0
LINE
  5
565B
330
1F
100
AcDbEntity
  8
太線
100
AcDbLine
 10
909.5386797076143
 20
194.3836082789493
 30
0.0
 11
883.6101423393023
 21
170.9641875320575
 31
0.0
  0
LINE
  5
565C
330
1F
100
AcDbEntity
  8
太線
100
AcDbLine
 10
884.6186794435896
 20
205.1092338267042
 30
0.0
 11
890.1291313840347
 21
199.0084015047484
 31
0.0
  0
ARC
  5
565D
330
1F
100
AcDbEntity
  8
太線
100
AcDbCircle
 10
908.1610667225032
 20
195.9088163594381
 30
0.0
 40
2.055255999999999
100
AcDbArc
 50
312.0892798189091
 51
42.08927981890906
  0
CIRCLE
  5
565E
330
1F
100
AcDbEntity
  8
太線
100
AcDbCircle
 10
849.0467630371195
 20
235.2935766823718
 30
0.0
 40
1.798348999999999
  0
CIRCLE
  5
565F
330
1F
100
AcDbEntity
  8
太線
100
AcDbCircle
 10
903.2196299710745
 20
226.1240738516047
 30
0.0
 40
5.5
  0
ARC
  5
5660
330
1F
100
AcDbEntity
  8
太線
100
AcDbCircle
 10
818.0504708721159
 20
269.6107584933735
 30
0.0
 40
6.165767999999999
100
AcDbArc
 50
222.089279818909
 51
42.08927981890906
  0
LINE
  5
5662
330
1F
100
AcDbEntity
  8
太線
100
AcDbLine
 10
788.5548463666244
 20
276.2035450857954
 30
0.0
 11
814.5243892825158
 21
299.6600032543539
 31
0.0
  0
ARC
  5
5663
330
1F
100
AcDbEntity
  8
太線
100
AcDbCircle
 10
812.5400189316707
 20
275.7115908153293
 30
0.0
 40
6.165767999999999
100
AcDbArc
 50
42.08927981890906
 51
222.089279818909
  0
CIRCLE
  5
5664
330
1F
100
AcDbEntity
  8
太線
100
AcDbCircle
 10
814.9248706851809
 20
273.0712301301921
 30
0.0
 40
5.5
  0
LINE
  5
5665
330
1F
100
AcDbEntity
  8
太線
100
AcDbLine
 10
807.9643946902038
 20
271.5787518599955
 30
0.0
 11
813.4748466306486
 21
265.4779195380397
 31
0.0
  0
ARC
  5
5666
330
1F
100
AcDbEntity
  8
太線
100
AcDbCircle
 10
789.9324593517353
 20
274.6783370053063
 30
0.0
 40
2.055255999999999
100
AcDbArc
 50
132.089279818909
 51
222.089279818909
  0
LINE
  5
5667
330
1F
100
AcDbEntity
  8
太線
100
AcDbLine
 10
817.1156431731372
 20
279.8444297706629
 30
0.0
 11
822.6260951135826
 21
273.7435974487071
 31
0.0
  0
ARC
  5
5668
330
1F
100
AcDbEntity
  8
太線
100
AcDbCircle
 10
815.8649648459601
 20
298.1758007214441
 30
0.0
 40
2.0
100
AcDbArc
 50
42.08927981890903
 51
132.0892798189092
  0
LINE
  5
5669
330
1F
100
AcDbEntity
  8
太線
100
AcDbLine
 10
939.9248706851809
 20
263.071230130192
 30
0.0
 11
939.9248706851809
 21
283.4797741066613
 31
0.0
  0
ARC
  5
566E
330
1F
100
AcDbEntity
  8
太線
100
AcDbCircle
 10
1037.047373651019
 20
473.0712301301921
 30
0.0
 40
125.3993620398445
100
AcDbArc
 50
297.7676563661962
 51
355.4260787400999
  0
LINE
  5
566F
330
1F
100
AcDbEntity
  8
太線
100
AcDbLine
 10
1013.81660708606
 20
463.071230130192
 30
0.0
 11
1032.122159587915
 21
433.776222388299
 31
0.0
  0
CIRCLE
  5
5671
330
1F
100
AcDbEntity
  8
太線
100
AcDbCircle
 10
1125.342132936913
 20
426.1240738516047
 30
0.0
 40
5.5
  0
LINE
  5
5672
330
1F
100
AcDbEntity
  8
太線
100
AcDbLine
 10
1131.661182673453
 20
394.3836082789493
 30
0.0
 11
1105.732645305141
 21
370.9641875320575
 31
0.0
  0
LINE
  5
5673
330
1F
100
AcDbEntity
  8
太線
100
AcDbLine
 10
1039.471670344708
 20
499.5163762848886
 30
0.0
 11
1131.808777768831
 21
397.2864293445492
 31
0.0
  0
LINE
  5
5674
330
1F
100
AcDbEntity
  8
太線
100
AcDbLine
 10
1109.082062401248
 20
503.071230130192
 30
0.0
 11
912.0473736510195
 21
503.071230130192
 31
0.0
  0
LINE
  5
5676
330
1F
100
AcDbEntity
  8
太線
100
AcDbLine
 10
1102.82982423954
 20
371.111782627435
 30
0.0
 11
1010.529754237085
 21
473.3007240201951
 31
0.0
  0
LINE
  5
5677
330
1F
100
AcDbEntity
  8
太線
100
AcDbLine
 10
1065.68335448349
 20
470.4964172080192
 30
0.0
 11
1036.704400954199
 21
444.3217704909048
 31
0.0
  0
LINE
  5
5678
330
1F
100
AcDbEntity
  8
想像線
100
AcDbLine
 10
1068.78298369999
 20
467.0646990269188
 30
0.0
 11
1039.8040301707
 21
440.8900523098047
 31
0.0
  0
LINE
  5
5679
330
1F
100
AcDbEntity
  8
太線
100
AcDbLine
 10
1106.741182409428
 20
405.1092338267042
 30
0.0
 11
1112.251634349873
 21
399.0084015047484
 31
0.0
  0
CIRCLE
  5
567A
330
1F
100
AcDbEntity
  8
太線
100
AcDbCircle
 10
1103.960434286903
 20
398.7567475824513
 30
0.0
 40
5.5
  0
LINE
  5
567B
330
1F
100
AcDbEntity
  8
太線
100
AcDbLine
 10
1105.634131051716
 20
426.2653828738397
 30
0.0
 11
1076.655177522426
 21
400.0907361567254
 31
0.0
  0
ARC
  5
567C
330
1F
100
AcDbEntity
  8
太線
100
AcDbCircle
 10
1102.165558167962
 20
400.9763948713705
 30
0.0
 40
6.165767999999999
100
AcDbArc
 50
42.08927981890906
 51
222.089279818909
  0
ARC
  5
567D
330
1F
100
AcDbEntity
  8
太線
100
AcDbCircle
 10
1104.355032320029
 20
372.4893956125461
 30
0.0
 40
2.055255999999999
100
AcDbArc
 50
222.089279818909
 51
312.0892798189091
  0
LINE
  5
567E
330
1F
100
AcDbEntity
  8
太線
100
AcDbLine
 10
1097.589933926494
 20
396.8435559160368
 30
0.0
 11
1103.10038586694
 21
390.7427235940808
 31
0.0
  0
ARC
  5
567F
330
1F
100
AcDbEntity
  8
太線
100
AcDbCircle
 10
1090.039300074339
 20
388.266420514549
 30
0.0
 40
5.5
100
AcDbArc
 50
153.4876874363654
 51
290.6908722014516
  0
ARC
  5
5680
330
1F
100
AcDbEntity
  8
太線
100
AcDbCircle
 10
1107.676010108406
 20
394.8755625494147
 30
0.0
 40
6.165767999999999
100
AcDbArc
 50
222.089279818909
 51
42.08927981890906
  0
CIRCLE
  5
5681
330
1F
100
AcDbEntity
  8
太線
100
AcDbCircle
 10
1071.169266002958
 20
435.2935766823718
 30
0.0
 40
1.798348999999999
  0
LINE
  5
5682
330
1F
100
AcDbEntity
  8
想像線
100
AcDbLine
 10
1102.534501835216
 20
429.6971010549397
 30
0.0
 11
1073.555548305926
 21
403.5224543378253
 31
0.0
  0
ARC
  5
5683
330
1F
100
AcDbEntity
  8
太線
100
AcDbCircle
 10
1115.848449011693
 20
411.5050825976287
 30
0.0
 40
5.5
100
AcDbArc
 50
336.965090865162
 51
107.2134687726567
  0
LINE
  5
5684
330
1F
100
AcDbEntity
  8
太線
100
AcDbLine
 10
1010.677349332463
 20
476.2035450857953
 30
0.0
 11
1036.646892248354
 21
499.6600032543539
 31
0.0
  0
LINE
  5
5685
330
1F
100
AcDbEntity
  8
太線
100
AcDbLine
 10
912.0473736510195
 20
463.071230130192
 30
0.0
 11
912.0473736510195
 21
503.071230130192
 31
0.0
  0
LINE
  5
5686
330
1F
100
AcDbEntity
  8
太線
100
AcDbLine
 10
912.0473736510195
 20
463.071230130192
 30
0.0
 11
1013.81660708606
 21
463.071230130192
 31
0.0
  0
ARC
  5
5687
330
1F
100
AcDbEntity
  8
太線
100
AcDbCircle
 10
1037.047373651019
 20
473.0712301301921
 30
0.0
 40
125.3993620398445
100
AcDbArc
 50
175.4260787400991
 51
184.5739212599008
  0
ARC
  5
5688
330
1F
100
AcDbEntity
  8
太線
100
AcDbCircle
 10
1037.047373651019
 20
473.0712301301921
 30
0.0
 40
125.3993620398445
100
AcDbArc
 50
175.4260787400991
 51
184.5739212599008
  0
ARC
  5
5689
330
1F
100
AcDbEntity
  8
太線
100
AcDbCircle
 10
1012.054962317574
 20
474.6783370053064
 30
0.0
 40
2.055255999999999
100
AcDbArc
 50
132.089279818909
 51
222.089279818909
  0
LINE
  5
568A
330
1F
100
AcDbEntity
  8
太線
100
AcDbLine
 10
1030.086897656042
 20
471.5787518599955
 30
0.0
 11
1035.597349596487
 21
465.4779195380397
 31
0.0
  0
ARC
  5
568C
330
1F
100
AcDbEntity
  8
太線
100
AcDbCircle
 10
1040.172973837954
 20
469.6107584933735
 30
0.0
 40
6.165767999999999
100
AcDbArc
 50
222.089279818909
 51
42.08927981890906
  0
LINE
  5
568D
330
1F
100
AcDbEntity
  8
太線
100
AcDbLine
 10
1039.238146138975
 20
479.8444297706629
 30
0.0
 11
1044.748598079421
 21
473.7435974487071
 31
0.0
  0
CIRCLE
  5
568E
330
1F
100
AcDbEntity
  8
太線
100
AcDbCircle
 10
1037.047373651019
 20
473.0712301301921
 30
0.0
 40
5.5
  0
ARC
  5
568F
330
1F
100
AcDbEntity
  8
太線
100
AcDbCircle
 10
1034.662521897509
 20
475.7115908153293
 30
0.0
 40
6.165767999999999
100
AcDbArc
 50
42.08927981890906
 51
222.089279818909
  0
ARC
  5
5690
330
1F
100
AcDbEntity
  8
太線
100
AcDbCircle
 10
1037.987467811799
 20
498.1758007214442
 30
0.0
 40
2.0
100
AcDbArc
 50
42.08927981890903
 51
132.0892798189092
  0
ARC
  5
5691
330
1F
100
AcDbEntity
  8
太線
100
AcDbCircle
 10
1130.283569688341
 20
395.9088163594381
 30
0.0
 40
2.055255999999999
100
AcDbArc
 50
312.0892798189091
 51
42.08927981890906
  0
LINE
  5
5692
330
1F
100
AcDbEntity
  8
太線
100
AcDbLine
 10
1162.047373651019
 20
463.071230130192
 30
0.0
 11
1162.047373651019
 21
483.3906035782474
 31
0.0
  0
LINE
  5
56B9
330
1F
100
AcDbEntity
  8
太線
100
AcDbLine
 10
394.5457046320796
 20
179.2413975025118
 30
0.0
 11
364.9657896427193
 21
160.6460500359514
 31
0.0
  0
LINE
  5
56BA
330
1F
100
AcDbEntity
  8
太線
100
AcDbLine
 10
362.131950674724
 20
161.2922010667043
 30
0.0
 11
288.8444047771041
 21
277.8718660247723
 31
0.0
  0
LINE
  5
56BB
330
1F
100
AcDbEntity
  8
太線
100
AcDbLine
 10
291.6941041202217
 20
263.071230130192
 30
0.0
 11
307.4518334110499
 21
237.8535918467973
 31
0.0
  0
ARC
  5
56BC
330
1F
100
AcDbEntity
  8
太線
100
AcDbCircle
 10
314.9248706851808
 20
273.0712301301921
 30
0.0
 40
125.3993620398445
100
AcDbArc
 50
297.7676563661962
 51
354.7172652481926
  0
ARC
  5
56BD
330
1F
100
AcDbEntity
  8
太線
100
AcDbCircle
 10
363.8719456740982
 20
162.3860450353253
 30
0.0
 40
2.055255999999999
100
AcDbArc
 50
212.1554301397283
 51
302.1554301397284
  0
LINE
  5
56BF
330
1F
100
AcDbEntity
  8
太線
100
AcDbLine
 10
411.7677092950408
 20
303.071230130192
 30
0.0
 11
189.9248706851808
 21
303.071230130192
 31
0.0
  0
LINE
  5
56C0
330
1F
100
AcDbEntity
  8
太線
100
AcDbLine
 10
189.9248706851808
 20
263.071230130192
 30
0.0
 11
291.6941041202217
 21
263.071230130192
 31
0.0
  0
LINE
  5
56C1
330
1F
100
AcDbEntity
  8
太線
100
AcDbLine
 10
189.9248706851808
 20
263.071230130192
 30
0.0
 11
189.9248706851808
 21
303.071230130192
 31
0.0
  0
ARC
  5
56C2
330
1F
100
AcDbEntity
  8
太線
100
AcDbCircle
 10
314.9248706851809
 20
273.0712301301921
 30
0.0
 40
125.3993620398445
100
AcDbArc
 50
175.4260787400991
 51
184.5739212599008
  0
ARC
  5
56C3
330
1F
100
AcDbEntity
  8
太線
100
AcDbCircle
 10
314.9248706851809
 20
273.0712301301921
 30
0.0
 40
125.3993620398445
100
AcDbArc
 50
175.4260787400991
 51
184.5739212599008
  0
LINE
  5
56C5
330
1F
100
AcDbEntity
  8
太線
100
AcDbLine
 10
321.8749015346421
 20
298.7016815687061
 30
0.0
 11
395.1918556628328
 21
182.0752364705068
 31
0.0
  0
LINE
  5
56C6
330
1F
100
AcDbEntity
  8
太線
100
AcDbLine
 10
342.6873451690155
 20
265.594996440466
 30
0.0
 11
309.6274401809067
 21
244.8119610366633
 31
0.0
  0
LINE
  5
56C7
330
1F
100
AcDbEntity
  8
想像線
100
AcDbLine
 10
345.1484940984132
 20
261.680007691874
 30
0.0
 11
312.0885891103046
 21
240.8969722880715
 31
0.0
  0
LINE
  5
56C8
330
1F
100
AcDbEntity
  8
想像線
100
AcDbLine
 10
371.9476713296326
 20
219.0501302072076
 30
0.0
 11
338.8877663415237
 21
198.2670948034049
 31
0.0
  0
LINE
  5
56C9
330
1F
100
AcDbEntity
  8
太線
100
AcDbLine
 10
374.4088202590298
 20
215.135141458616
 30
0.0
 11
341.3489152709214
 21
194.3521060548132
 31
0.0
  0
CIRCLE
  5
56CA
330
1F
100
AcDbEntity
  8
太線
100
AcDbCircle
 10
393.725946045855
 20
211.5050825976287
 30
0.0
 40
5.5
  0
ARC
  5
56CB
330
1F
100
AcDbEntity
  8
太線
100
AcDbCircle
 10
381.8379313210651
 20
198.7567475824513
 30
0.0
 40
5.5
100
AcDbArc
 50
328.3444133927981
 51
95.96644688665865
  0
ARC
  5
56CC
330
1F
100
AcDbEntity
  8
太線
100
AcDbCircle
 10
366.6296195139451
 20
190.823663761721
 30
0.0
 40
6.165767999999999
100
AcDbArc
 50
32.15543013972834
 51
212.1554301397283
  0
LINE
  5
56CD
330
1F
100
AcDbEntity
  8
太線
100
AcDbLine
 10
371.8496045120673
 20
194.1051956675846
 30
0.0
 11
376.224980386552
 21
187.145215670088
 31
0.0
  0
ARC
  5
56CE
330
1F
100
AcDbEntity
  8
太線
100
AcDbCircle
 10
371.0049953884299
 20
183.8636837642243
 30
0.0
 40
6.165767999999999
100
AcDbArc
 50
212.1554301397283
 51
32.15543013972834
  0
CIRCLE
  5
56CF
330
1F
100
AcDbEntity
  8
太線
100
AcDbCircle
 10
367.9167971085006
 20
188.266420514549
 30
0.0
 40
5.5
  0
LINE
  5
56D0
330
1F
100
AcDbEntity
  8
太線
100
AcDbLine
 10
361.4096345158225
 20
187.5421318558576
 30
0.0
 11
365.7850103903074
 21
180.5821518583608
 31
0.0
  0
ARC
  5
56D1
330
1F
100
AcDbEntity
  8
太線
100
AcDbCircle
 10
393.4518606634585
 20
180.9813925018857
 30
0.0
 40
2.055255999999999
100
AcDbArc
 50
302.1554301397284
 51
32.15543013972834
  0
CIRCLE
  5
56D2
330
1F
100
AcDbEntity
  8
太線
100
AcDbCircle
 10
342.0181302199683
 20
229.9735512476392
 30
0.0
 40
1.798348999999999
  0
CIRCLE
  5
56D4
330
1F
100
AcDbEntity
  8
太線
100
AcDbCircle
 10
403.2196299710745
 20
226.1240738516047
 30
0.0
 40
5.5
  0
LINE
  5
56D6
330
1F
100
AcDbEntity
  8
太線
100
AcDbLine
 10
289.4905558078571
 20
280.7057049927677
 30
0.0
 11
319.1172509373487
 21
299.3304606898989
 31
0.0
  0
LINE
  5
56D7
330
1F
100
AcDbEntity
  8
太線
100
AcDbLine
 10
318.251250049629
 20
279.3649506369179
 30
0.0
 11
322.626625924114
 21
272.4049706394211
 31
0.0
  0
ARC
  5
56D8
330
1F
100
AcDbEntity
  8
太線
100
AcDbCircle
 10
313.0312650515069
 20
276.0834187310543
 30
0.0
 40
6.165767999999999
100
AcDbArc
 50
32.15543013972834
 51
212.1554301397283
  0
ARC
  5
56D9
330
1F
100
AcDbEntity
  8
太線
100
AcDbCircle
 10
317.4066409259917
 20
269.1234387335578
 30
0.0
 40
6.165767999999999
100
AcDbArc
 50
212.1554301397283
 51
32.15543013972834
  0
CIRCLE
  5
56DA
330
1F
100
AcDbEntity
  8
太線
100
AcDbCircle
 10
314.9248706851809
 20
273.0712301301921
 30
0.0
 40
5.5
  0
LINE
  5
56DB
330
1F
100
AcDbEntity
  8
太線
100
AcDbLine
 10
307.8112800533844
 20
272.8018868251908
 30
0.0
 11
312.186655927869
 21
265.8419068276943
 31
0.0
  0
ARC
  5
56DC
330
1F
100
AcDbEntity
  8
太線
100
AcDbCircle
 10
290.584399776478
 20
278.9657099933935
 30
0.0
 40
2.055255999999999
100
AcDbArc
 50
122.1554301397283
 51
212.1554301397283
  0
ARC
  5
56DD
330
1F
100
AcDbEntity
  8
太線
100
AcDbCircle
 10
320.181686675399
 20
297.6372458306558
 30
0.0
 40
2.0
100
AcDbArc
 50
32.15543013972832
 51
122.1554301397284
  0
LINE
  5
56E3
330
1F
100
AcDbEntity
  8
太線
100
AcDbLine
 10
714.6126104402898
 20
379.2413975025118
 30
0.0
 11
685.0326954509295
 21
360.6460500359514
 31
0.0
  0
LINE
  5
56E4
330
1F
100
AcDbEntity
  8
太線
100
AcDbLine
 10
611.7610099284319
 20
463.071230130192
 30
0.0
 11
627.4541963145245
 21
437.9568820858505
 31
0.0
  0
ARC
  5
56E5
330
1F
100
AcDbEntity
  8
太線
100
AcDbCircle
 10
683.9388514823085
 20
362.3860450353252
 30
0.0
 40
2.055255999999999
100
AcDbArc
 50
212.1554301397283
 51
302.1554301397284
  0
ARC
  5
56E6
330
1F
100
AcDbEntity
  8
太線
100
AcDbCircle
 10
634.991776493391
 20
473.0712301301921
 30
0.0
 40
125.3993620398445
100
AcDbArc
 50
297.7676563661962
 51
354.4108048219844
  0
LINE
  5
56E8
330
1F
100
AcDbEntity
  8
太線
100
AcDbLine
 10
509.991776493391
 20
463.071230130192
 30
0.0
 11
611.7610099284319
 21
463.071230130192
 31
0.0
  0
LINE
  5
56E9
330
1F
100
AcDbEntity
  8
太線
100
AcDbLine
 10
731.8887776666858
 20
503.071230130192
 30
0.0
 11
509.991776493391
 21
503.071230130192
 31
0.0
  0
LINE
  5
56EA
330
1F
100
AcDbEntity
  8
太線
100
AcDbLine
 10
509.991776493391
 20
463.071230130192
 30
0.0
 11
509.991776493391
 21
503.071230130192
 31
0.0
  0
ARC
  5
56EB
330
1F
100
AcDbEntity
  8
太線
100
AcDbCircle
 10
634.9917764933912
 20
473.0712301301921
 30
0.0
 40
125.3993620398445
100
AcDbArc
 50
175.4260787400991
 51
184.5739212599008
  0
ARC
  5
56EC
330
1F
100
AcDbEntity
  8
太線
100
AcDbCircle
 10
634.9917764933912
 20
473.0712301301921
 30
0.0
 40
125.3993620398445
100
AcDbArc
 50
175.4260787400991
 51
184.5739212599008
  0
LINE
  5
56ED
330
1F
100
AcDbEntity
  8
太線
100
AcDbLine
 10
682.1988564829342
 20
361.2922010667042
 30
0.0
 11
608.9113105853144
 21
477.8718660247723
 31
0.0
  0
LINE
  5
56EE
330
1F
100
AcDbEntity
  8
太線
100
AcDbLine
 10
641.9418073428523
 20
498.7016815687061
 30
0.0
 11
715.258761471043
 21
382.0752364705068
 31
0.0
  0
LINE
  5
56EF
330
1F
100
AcDbEntity
  8
太線
100
AcDbLine
 10
662.7542509772257
 20
465.594996440466
 30
0.0
 11
629.694345989117
 21
444.8119610366633
 31
0.0
  0
LINE
  5
56F0
330
1F
100
AcDbEntity
  8
想像線
100
AcDbLine
 10
665.2153999066235
 20
461.680007691874
 30
0.0
 11
632.1554949185148
 21
440.8969722880715
 31
0.0
  0
LINE
  5
56F1
330
1F
100
AcDbEntity
  8
想像線
100
AcDbLine
 10
692.0145771378428
 20
419.0501302072076
 30
0.0
 11
658.9546721497339
 21
398.2670948034049
 31
0.0
  0
LINE
  5
56F2
330
1F
100
AcDbEntity
  8
太線
100
AcDbLine
 10
694.4757260672401
 20
415.135141458616
 30
0.0
 11
661.4158210791316
 21
394.3521060548132
 31
0.0
  0
CIRCLE
  5
56F3
330
1F
100
AcDbEntity
  8
太線
100
AcDbCircle
 10
662.0850360281785
 20
429.9735512476392
 30
0.0
 40
1.798348999999999
  0
ARC
  5
56F4
330
1F
100
AcDbEntity
  8
太線
100
AcDbCircle
 10
701.9048371292754
 20
398.7567475824513
 30
0.0
 40
5.5
100
AcDbArc
 50
328.3444133927974
 51
95.96644688665929
  0
ARC
  5
56F5
330
1F
100
AcDbEntity
  8
太線
100
AcDbCircle
 10
691.0719011966401
 20
383.8636837642244
 30
0.0
 40
6.165767999999999
100
AcDbArc
 50
212.1554301397283
 51
32.15543013972834
  0
ARC
  5
56F6
330
1F
100
AcDbEntity
  8
太線
100
AcDbCircle
 10
713.5187664716688
 20
380.9813925018857
 30
0.0
 40
2.055255999999999
100
AcDbArc
 50
302.1554301397284
 51
32.15543013972834
  0
LINE
  5
56F7
330
1F
100
AcDbEntity
  8
太線
100
AcDbLine
 10
681.4765403240327
 20
387.5421318558577
 30
0.0
 11
685.8519161985176
 21
380.5821518583608
 31
0.0
  0
LINE
  5
56F8
330
1F
100
AcDbEntity
  8
太線
100
AcDbLine
 10
691.9165103202775
 20
394.1051956675846
 30
0.0
 11
696.2918861947622
 21
387.145215670088
 31
0.0
  0
CIRCLE
  5
56F9
330
1F
100
AcDbEntity
  8
太線
100
AcDbCircle
 10
687.9837029167108
 20
388.266420514549
 30
0.0
 40
5.5
  0
ARC
  5
56FA
330
1F
100
AcDbEntity
  8
太線
100
AcDbCircle
 10
686.6965253221553
 20
390.823663761721
 30
0.0
 40
6.165767999999999
100
AcDbArc
 50
32.15543013972834
 51
212.1554301397283
  0
CIRCLE
  5
56FB
330
1F
100
AcDbEntity
  8
太線
100
AcDbCircle
 10
723.2865357792847
 20
426.1240738516047
 30
0.0
 40
5.5
  0
CIRCLE
  5
56FC
330
1F
100
AcDbEntity
  8
太線
100
AcDbCircle
 10
713.7928518540652
 20
411.5050825976287
 30
0.0
 40
5.5
  0
LINE
  5
56FD
330
1F
100
AcDbEntity
  8
太線
100
AcDbLine
 10
609.5574616160673
 20
480.7057049927677
 30
0.0
 11
639.184156745559
 21
499.3304606898989
 31
0.0
  0
ARC
  5
56FE
330
1F
100
AcDbEntity
  8
太線
100
AcDbCircle
 10
610.6513055846883
 20
478.9657099933935
 30
0.0
 40
2.055255999999999
100
AcDbArc
 50
122.1554301397283
 51
212.1554301397283
  0
ARC
  5
56FF
330
1F
100
AcDbEntity
  8
太線
100
AcDbCircle
 10
637.4735467342019
 20
469.1234387335578
 30
0.0
 40
6.165767999999999
100
AcDbArc
 50
212.1554301397283
 51
32.15543013972834
  0
LINE
  5
5700
330
1F
100
AcDbEntity
  8
太線
100
AcDbLine
 10
627.8781858615947
 20
472.8018868251909
 30
0.0
 11
632.2535617360792
 21
465.8419068276942
 31
0.0
  0
LINE
  5
5701
330
1F
100
AcDbEntity
  8
太線
100
AcDbLine
 10
638.3181558578391
 20
479.3649506369178
 30
0.0
 11
642.6935317323242
 21
472.4049706394212
 31
0.0
  0
CIRCLE
  5
5702
330
1F
100
AcDbEntity
  8
太線
100
AcDbCircle
 10
634.9917764933912
 20
473.0712301301921
 30
0.0
 40
5.5
  0
ARC
  5
5703
330
1F
100
AcDbEntity
  8
太線
100
AcDbCircle
 10
633.0981708597171
 20
476.0834187310543
 30
0.0
 40
6.165767999999999
100
AcDbArc
 50
32.15543013972834
 51
212.1554301397283
  0
ARC
  5
5704
330
1F
100
AcDbEntity
  8
太線
100
AcDbCircle
 10
640.2485924836092
 20
497.6372458306559
 30
0.0
 40
2.0
100
AcDbArc
 50
32.15543013972832
 51
122.1554301397284
  0
LINE
  5
571D
330
1F
100
AcDbEntity
  8
太線
100
AcDbLine
 10
1191.694104120221
 20
263.071230130192
 30
0.0
 11
1213.154824403096
 21
228.7268984434145
 31
0.0
  0
ARC
  5
571E
330
1F
100
AcDbEntity
  8
太線
100
AcDbCircle
 10
1214.92487068518
 20
273.0712301301921
 30
0.0
 40
125.3993620398445
100
AcDbArc
 50
297.767656366196
 51
355.4260787400999
  0
LINE
  5
5720
330
1F
100
AcDbEntity
  8
太線
100
AcDbLine
 10
1339.92487068518
 20
303.071230130192
 30
0.0
 11
1334.689892915852
 21
303.0712301301919
 31
0.0
  0
LINE
  5
5721
330
1F
100
AcDbEntity
  8
太線
100
AcDbLine
 10
1089.92487068518
 20
263.071230130192
 30
0.0
 11
1191.694104120221
 21
263.071230130192
 31
0.0
  0
LINE
  5
5722
330
1F
100
AcDbEntity
  8
太線
100
AcDbLine
 10
1089.92487068518
 20
263.071230130192
 30
0.0
 11
1089.92487068518
 21
303.071230130192
 31
0.0
  0
ARC
  5
5723
330
1F
100
AcDbEntity
  8
太線
100
AcDbCircle
 10
1214.92487068518
 20
273.0712301301921
 30
0.0
 40
125.3993620398445
100
AcDbArc
 50
175.4260787400991
 51
184.5739212599008
  0
ARC
  5
5724
330
1F
100
AcDbEntity
  8
太線
100
AcDbCircle
 10
1214.92487068518
 20
273.0712301301921
 30
0.0
 40
125.3993620398445
100
AcDbArc
 50
175.4260787400991
 51
184.5739212599008
  0
LINE
  5
5725
330
1F
100
AcDbEntity
  8
想像線
100
AcDbLine
 10
1247.221309705874
 20
272.6620998462893
 30
0.0
 11
1223.223324467295
 21
241.8564415526021
 31
0.0
  0
LINE
  5
5726
330
1F
100
AcDbEntity
  8
太線
100
AcDbLine
 10
1243.573271223727
 20
275.5039665192791
 30
0.0
 11
1219.575285985148
 21
244.6983082255917
 31
0.0
  0
LINE
  5
5727
330
1F
100
AcDbEntity
  8
太線
100
AcDbLine
 10
1212.724022574522
 20
299.5359091788714
 30
0.0
 11
1321.3980921762
 21
214.8774774954996
 31
0.0
  0
LINE
  5
5728
330
1F
100
AcDbEntity
  8
太線
100
AcDbLine
 10
1297.400106937621
 20
184.0718192018124
 30
0.0
 11
1188.769627691461
 21
268.6962934641712
 31
0.0
  0
ARC
  5
572A
330
1F
100
AcDbEntity
  8
太線
100
AcDbCircle
 10
1291.564244755302
 20
213.3682187499386
 30
0.0
 40
6.165767999999999
100
AcDbArc
 50
52.08097237806189
 51
232.0809723780619
  0
ARC
  5
572B
330
1F
100
AcDbEntity
  8
太線
100
AcDbCircle
 10
1298.049646501341
 20
208.3160113312902
 30
0.0
 40
6.165767999999999
100
AcDbArc
 50
232.0809723780619
 51
52.08097237806189
  0
LINE
  5
572C
330
1F
100
AcDbEntity
  8
太線
100
AcDbLine
 10
1321.756390758048
 20
211.9930752043279
 30
0.0
 11
1300.284509228793
 21
184.4301177836603
 31
0.0
  0
LINE
  5
572D
330
1F
100
AcDbEntity
  8
太線
100
AcDbLine
 10
1290.592433882513
 20
238.8754627340792
 30
0.0
 11
1266.594448643934
 21
208.0698044403919
 31
0.0
  0
CIRCLE
  5
572E
330
1F
100
AcDbEntity
  8
太線
100
AcDbCircle
 10
1293.725946045855
 20
211.5050825976287
 30
0.0
 40
5.5
  0
ARC
  5
572F
330
1F
100
AcDbEntity
  8
太線
100
AcDbCircle
 10
1281.837931321065
 20
198.7567475824513
 30
0.0
 40
5.5
100
AcDbArc
 50
163.6391882911124
 51
300.5227564650122
  0
CIRCLE
  5
5730
330
1F
100
AcDbEntity
  8
太線
100
AcDbCircle
 10
1267.9167971085
 20
188.266420514549
 30
0.0
 40
5.5
  0
ARC
  5
5731
330
1F
100
AcDbEntity
  8
太線
100
AcDbCircle
 10
1298.663158792283
 20
185.6931696383221
 30
0.0
 40
2.055255999999999
100
AcDbArc
 50
232.0809723780619
 51
322.0809723780619
  0
LINE
  5
5732
330
1F
100
AcDbEntity
  8
太線
100
AcDbLine
 10
1287.775089191316
 20
208.5041674404092
 30
0.0
 11
1294.260490937355
 21
203.4519600217607
 31
0.0
  0
LINE
  5
5733
330
1F
100
AcDbEntity
  8
想像線
100
AcDbLine
 10
1286.944395400366
 20
241.7173294070688
 30
0.0
 11
1262.946410161786
 21
210.9116711133814
 31
0.0
  0
CIRCLE
  5
5734
330
1F
100
AcDbEntity
  8
太線
100
AcDbCircle
 10
1255.08385993383
 20
241.786885479835
 30
0.0
 40
1.798348999999999
  0
ARC
  5
5735
330
1F
100
AcDbEntity
  8
太線
100
AcDbCircle
 10
1303.219629971074
 20
226.1240738516047
 30
0.0
 40
5.5
100
AcDbArc
 50
346.7928873306158
 51
117.3690574255078
  0
LINE
  5
5736
330
1F
100
AcDbEntity
  8
太線
100
AcDbLine
 10
1295.353400319288
 20
218.2322700594681
 30
0.0
 11
1301.838802065327
 21
213.1800626408198
 31
0.0
  0
ARC
  5
5737
330
1F
100
AcDbEntity
  8
太線
100
AcDbCircle
 10
1320.135040321538
 20
213.2561270589898
 30
0.0
 40
2.055255999999999
100
AcDbArc
 50
322.0809723780619
 51
52.08097237806189
  0
ARC
  5
5738
330
1F
100
AcDbEntity
  8
太線
100
AcDbCircle
 10
1218.603475112359
 20
270.205552209732
 30
0.0
 40
6.165767999999999
100
AcDbArc
 50
232.0809723780619
 51
52.08097237806189
  0
LINE
  5
573A
330
1F
100
AcDbEntity
  8
太線
100
AcDbLine
 10
1188.411329109612
 20
271.5806957553433
 30
0.0
 11
1209.917168059881
 21
299.1872435315285
 31
0.0
  0
ARC
  5
573B
330
1F
100
AcDbEntity
  8
太線
100
AcDbCircle
 10
1212.118073366319
 20
275.2577596283801
 30
0.0
 40
6.165767999999999
100
AcDbArc
 50
52.08097237806189
 51
232.0809723780619
  0
CIRCLE
  5
573C
330
1F
100
AcDbEntity
  8
太線
100
AcDbCircle
 10
1214.92487068518
 20
273.0712301301921
 30
0.0
 40
5.5
  0
ARC
  5
573D
330
1F
100
AcDbEntity
  8
太線
100
AcDbCircle
 10
1190.032679546122
 20
270.317643900681
 30
0.0
 40
2.055255999999999
100
AcDbArc
 50
142.0809723780618
 51
232.0809723780619
  0
LINE
  5
573E
330
1F
100
AcDbEntity
  8
太線
100
AcDbLine
 10
1208.328917802333
 20
270.3937083188506
 30
0.0
 11
1214.814319548372
 21
265.3415009002023
 31
0.0
  0
LINE
  5
573F
330
1F
100
AcDbEntity
  8
太線
100
AcDbLine
 10
1215.907228930305
 20
280.1218109379096
 30
0.0
 11
1222.392630676345
 21
275.0696035192613
 31
0.0
  0
ARC
  5
5740
330
1F
100
AcDbEntity
  8
太線
100
AcDbCircle
 10
1211.494928140873
 20
297.9581490978792
 30
0.0
 40
2.0
100
AcDbArc
 50
52.08097237806185
 51
142.080972378062
  0
LINE
  5
5741
330
1F
100
AcDbEntity
  8
太線
100
AcDbLine
 10
1339.92487068518
 20
263.071230130192
 30
0.0
 11
1339.92487068518
 21
303.071230130192
 31
0.0
  0
ARC
  5
5745
330
1F
100
AcDbEntity
  8
太線
100
AcDbCircle
 10
1371.181995986524
 20
473.0712301301921
 30
0.0
 40
125.3993620398445
100
AcDbArc
 50
297.767656366196
 51
355.4260787400999
  0
LINE
  5
5746
330
1F
100
AcDbEntity
  8
太線
100
AcDbLine
 10
1347.951229421565
 20
463.071230130192
 30
0.0
 11
1369.41194970444
 21
428.7268984434144
 31
0.0
  0
LINE
  5
5748
330
1F
100
AcDbEntity
  8
太線
100
AcDbLine
 10
1246.181995986524
 20
463.071230130192
 30
0.0
 11
1347.951229421565
 21
463.071230130192
 31
0.0
  0
LINE
  5
5749
330
1F
100
AcDbEntity
  8
太線
100
AcDbLine
 10
1496.181995986524
 20
503.071230130192
 30
0.0
 11
1490.947018217195
 21
503.0712301301919
 31
0.0
  0
LINE
  5
574A
330
1F
100
AcDbEntity
  8
太線
100
AcDbLine
 10
1246.181995986524
 20
463.071230130192
 30
0.0
 11
1246.181995986524
 21
503.071230130192
 31
0.0
  0
ARC
  5
574B
330
1F
100
AcDbEntity
  8
太線
100
AcDbCircle
 10
1371.181995986524
 20
473.0712301301921
 30
0.0
 40
125.3993620398445
100
AcDbArc
 50
175.4260787400991
 51
184.5739212599008
  0
ARC
  5
574C
330
1F
100
AcDbEntity
  8
太線
100
AcDbCircle
 10
1371.181995986524
 20
473.0712301301921
 30
0.0
 40
125.3993620398445
100
AcDbArc
 50
175.4260787400991
 51
184.5739212599008
  0
LINE
  5
574D
330
1F
100
AcDbEntity
  8
太線
100
AcDbLine
 10
1453.657232238964
 20
384.0718192018124
 30
0.0
 11
1345.026752992804
 21
468.6962934641711
 31
0.0
  0
LINE
  5
574E
330
1F
100
AcDbEntity
  8
太線
100
AcDbLine
 10
1368.981147875866
 20
499.5359091788714
 30
0.0
 11
1477.655217477543
 21
414.8774774954996
 31
0.0
  0
LINE
  5
574F
330
1F
100
AcDbEntity
  8
太線
100
AcDbLine
 10
1399.83039652507
 20
475.5039665192791
 30
0.0
 11
1375.832411286491
 21
444.6983082255917
 31
0.0
  0
LINE
  5
5750
330
1F
100
AcDbEntity
  8
想像線
100
AcDbLine
 10
1403.478435007218
 20
472.6620998462893
 30
0.0
 11
1379.480449768638
 21
441.8564415526021
 31
0.0
  0
ARC
  5
5751
330
1F
100
AcDbEntity
  8
太線
100
AcDbCircle
 10
1438.095056622408
 20
398.7567475824513
 30
0.0
 40
5.5
100
AcDbArc
 50
163.6391882911133
 51
300.5227564650096
  0
LINE
  5
5752
330
1F
100
AcDbEntity
  8
太線
100
AcDbLine
 10
1478.013516059391
 20
411.9930752043279
 30
0.0
 11
1456.541634530136
 21
384.4301177836603
 31
0.0
  0
ARC
  5
5753
330
1F
100
AcDbEntity
  8
太線
100
AcDbCircle
 10
1454.306771802685
 20
408.3160113312902
 30
0.0
 40
6.165767999999999
100
AcDbArc
 50
232.0809723780619
 51
52.08097237806189
  0
CIRCLE
  5
5754
330
1F
100
AcDbEntity
  8
太線
100
AcDbCircle
 10
1424.173922409844
 20
388.266420514549
 30
0.0
 40
5.5
  0
ARC
  5
5755
330
1F
100
AcDbEntity
  8
太線
100
AcDbCircle
 10
1454.920284093627
 20
385.6931696383221
 30
0.0
 40
2.055255999999999
100
AcDbArc
 50
232.0809723780619
 51
322.0809723780619
  0
LINE
  5
5756
330
1F
100
AcDbEntity
  8
太線
100
AcDbLine
 10
1444.032214492659
 20
408.5041674404092
 30
0.0
 11
1450.517616238698
 21
403.4519600217607
 31
0.0
  0
CIRCLE
  5
5757
330
1F
100
AcDbEntity
  8
太線
100
AcDbCircle
 10
1449.983071347198
 20
411.5050825976287
 30
0.0
 40
5.5
  0
LINE
  5
5758
330
1F
100
AcDbEntity
  8
太線
100
AcDbLine
 10
1446.849559183856
 20
438.8754627340792
 30
0.0
 11
1422.851573945277
 21
408.0698044403919
 31
0.0
  0
ARC
  5
5759
330
1F
100
AcDbEntity
  8
太線
100
AcDbCircle
 10
1447.821370056645
 20
413.3682187499386
 30
0.0
 40
6.165767999999999
100
AcDbArc
 50
52.08097237806189
 51
232.0809723780619
  0
LINE
  5
575A
330
1F
100
AcDbEntity
  8
想像線
100
AcDbLine
 10
1443.201520701709
 20
441.7173294070688
 30
0.0
 11
1419.20353546313
 21
410.9116711133814
 31
0.0
  0
CIRCLE
  5
575B
330
1F
100
AcDbEntity
  8
太線
100
AcDbCircle
 10
1411.340985235174
 20
441.786885479835
 30
0.0
 40
1.798348999999999
  0
ARC
  5
575C
330
1F
100
AcDbEntity
  8
太線
100
AcDbCircle
 10
1459.476755272417
 20
426.1240738516047
 30
0.0
 40
5.5
100
AcDbArc
 50
346.7928873306155
 51
117.3690574255078
  0
LINE
  5
575D
330
1F
100
AcDbEntity
  8
太線
100
AcDbLine
 10
1451.610525620631
 20
418.2322700594681
 30
0.0
 11
1458.095927366671
 21
413.1800626408198
 31
0.0
  0
ARC
  5
575E
330
1F
100
AcDbEntity
  8
太線
100
AcDbCircle
 10
1476.392165622881
 20
413.2561270589897
 30
0.0
 40
2.055255999999999
100
AcDbArc
 50
322.0809723780619
 51
52.08097237806189
  0
LINE
  5
575F
330
1F
100
AcDbEntity
  8
太線
100
AcDbLine
 10
1344.668454410956
 20
471.5806957553433
 30
0.0
 11
1366.174293361224
 21
499.1872435315285
 31
0.0
  0
LINE
  5
5760
330
1F
100
AcDbEntity
  8
太線
100
AcDbLine
 10
1364.586043103676
 20
470.3937083188506
 30
0.0
 11
1371.071444849716
 21
465.3415009002023
 31
0.0
  0
ARC
  5
5761
330
1F
100
AcDbEntity
  8
太線
100
AcDbCircle
 10
1374.860600413702
 20
470.2055522097319
 30
0.0
 40
6.165767999999999
100
AcDbArc
 50
232.0809723780619
 51
52.08097237806189
  0
ARC
  5
5762
330
1F
100
AcDbEntity
  8
太線
100
AcDbCircle
 10
1368.375198667663
 20
475.2577596283802
 30
0.0
 40
6.165767999999999
100
AcDbArc
 50
52.08097237806189
 51
232.0809723780619
  0
ARC
  5
5763
330
1F
100
AcDbEntity
  8
太線
100
AcDbCircle
 10
1346.289804847466
 20
470.3176439006809
 30
0.0
 40
2.055255999999999
100
AcDbArc
 50
142.0809723780618
 51
232.0809723780619
  0
LINE
  5
5764
330
1F
100
AcDbEntity
  8
太線
100
AcDbLine
 10
1372.164354231648
 20
480.1218109379096
 30
0.0
 11
1378.649755977688
 21
475.0696035192612
 31
0.0
  0
CIRCLE
  5
5765
330
1F
100
AcDbEntity
  8
太線
100
AcDbCircle
 10
1371.181995986524
 20
473.0712301301921
 30
0.0
 40
5.5
  0
ARC
  5
5766
330
1F
100
AcDbEntity
  8
太線
100
AcDbCircle
 10
1367.752053442216
 20
497.9581490978793
 30
0.0
 40
2.0
100
AcDbArc
 50
52.08097237806185
 51
142.080972378062
  0
LINE
  5
5767
330
1F
100
AcDbEntity
  8
太線
100
AcDbLine
 10
1496.181995986524
 20
463.071230130192
 30
0.0
 11
1496.181995986524
 21
503.071230130192
 31
0.0
  0
LINE
  5
577F
330
1F
100
AcDbEntity
  8
太線
100
AcDbLine
 10
-976.8172177467356
 20
292.7618914541107
 30
0.0
 11
-855.3340003297671
 21
227.8085901915877
 31
0.0
  0
LINE
  5
5780
330
1F
100
AcDbEntity
  8
太線
100
AcDbLine
 10
-873.7462049253453
 20
193.3719440083564
 30
0.0
 11
-995.1806940977929
 21
258.2991917927639
 31
0.0
  0
LINE
  5
5782
330
1F
100
AcDbEntity
  8
太線
100
AcDbLine
 10
-996.0240857603009
 20
261.0807102548067
 30
0.0
 11
-979.523954486142
 21
291.9411745580082
 31
0.0
  0
ARC
  5
5783
330
1F
100
AcDbEntity
  8
太線
100
AcDbCircle
 10
-966.0375861149748
 20
264.8578174869394
 30
0.0
 40
6.165767999999999
100
AcDbArc
 50
241.867968780685
 51
61.86796878068501
  0
LINE
  5
5785
330
1F
100
AcDbEntity
  8
想像線
100
AcDbLine
 10
-938.2538194288637
 20
272.1432407309405
 30
0.0
 11
-956.6660240244418
 21
237.7065945477093
 31
0.0
  0
LINE
  5
5786
330
1F
100
AcDbEntity
  8
太線
100
AcDbLine
 10
-942.3318433189832
 20
274.323633380417
 30
0.0
 11
-960.7440479145614
 21
239.8869871971855
 31
0.0
  0
ARC
  5
5787
330
1F
100
AcDbEntity
  8
太線
100
AcDbCircle
 10
-973.2874063640762
 20
268.7340710860084
 30
0.0
 40
6.165767999999999
100
AcDbArc
 50
61.86796878068501
 51
241.867968780685
  0
ARC
  5
5788
330
1F
100
AcDbEntity
  8
太線
100
AcDbCircle
 10
-994.2116306980258
 20
260.1116468550391
 30
0.0
 40
2.055255999999999
100
AcDbArc
 50
151.8679687806849
 51
241.867968780685
  0
LINE
  5
5789
330
1F
100
AcDbEntity
  8
太線
100
AcDbLine
 10
-976.1945965633781
 20
263.2967058991825
 30
0.0
 11
-968.9447763142768
 21
259.4204523001133
 31
0.0
  0
LINE
  5
578A
330
1F
100
AcDbEntity
  8
太線
100
AcDbLine
 10
-970.3802161647747
 20
274.1714362728342
 30
0.0
 11
-963.1303959156733
 21
270.2951826737652
 31
0.0
  0
ARC
  5
578B
330
1F
100
AcDbEntity
  8
太線
100
AcDbCircle
 10
-977.7602276683875
 20
290.9981646363563
 30
0.0
 40
2.0
100
AcDbArc
 50
61.86796878068498
 51
151.8679687806851
  0
ARC
  5
578C
330
1F
100
AcDbEntity
  8
太線
100
AcDbCircle
 10
-884.4771083125849
 20
221.2499644974118
 30
0.0
 40
6.165767999999999
100
AcDbArc
 50
61.86796878068501
 51
241.867968780685
  0
ARC
  5
578D
330
1F
100
AcDbEntity
  8
太線
100
AcDbCircle
 10
-877.2272880634835
 20
217.3737108983426
 30
0.0
 40
6.165767999999999
100
AcDbArc
 50
241.867968780685
 51
61.86796878068501
  0
LINE
  5
578E
330
1F
100
AcDbEntity
  8
太線
100
AcDbLine
 10
-854.4906086672595
 20
225.0270717295452
 30
0.0
 11
-870.9646864633029
 21
194.2153356708645
 31
0.0
  0
LINE
  5
578F
330
1F
100
AcDbEntity
  8
太線
100
AcDbLine
 10
-889.7706465129989
 20
246.2207947871661
 30
0.0
 11
-908.1828511085769
 21
211.7841486039348
 31
0.0
  0
LINE
  5
5790
330
1F
100
AcDbEntity
  8
想像線
100
AcDbLine
 10
-893.8486704031179
 20
248.4011874366424
 30
0.0
 11
-912.2608749986962
 21
213.9645412534109
 31
0.0
  0
LINE
  5
5791
330
1F
100
AcDbEntity
  8
太線
100
AcDbLine
 10
-887.3842985118869
 20
215.8125993105859
 30
0.0
 11
-880.1344782627854
 21
211.9363457115166
 31
0.0
  0
ARC
  5
5792
330
1F
100
AcDbEntity
  8
太線
100
AcDbCircle
 10
-872.7771415255778
 20
195.1843990706315
 30
0.0
 40
2.055255999999999
100
AcDbArc
 50
241.867968780685
 51
331.867968780685
  0
LINE
  5
5793
330
1F
100
AcDbEntity
  8
太線
100
AcDbLine
 10
-881.5699181132833
 20
226.6873296842377
 30
0.0
 11
-874.3200978641821
 21
222.8110760851686
 31
0.0
  0
CIRCLE
  5
5794
330
1F
100
AcDbEntity
  8
太線
100
AcDbCircle
 10
-925.2573472137799
 20
243.0538909921754
 30
0.0
 40
1.798348999999999
  0
ARC
  5
5795
330
1F
100
AcDbEntity
  8
太線
100
AcDbCircle
 10
-856.3030637295344
 20
225.9961351293123
 30
0.0
 40
2.055255999999999
100
AcDbArc
 50
331.867968780685
 51
61.86796878068501
  0
ARC
  5
5796
330
1F
100
AcDbEntity
  8
太線
100
AcDbCircle
 10
1614.92487068518
 20
273.0712301301921
 30
0.0
 40
125.3993620398445
100
AcDbArc
 50
297.7676563661963
 51
355.4260787400999
  0
LINE
  5
5797
330
1F
100
AcDbEntity
  8
太線
100
AcDbLine
 10
1591.694104120221
 20
263.071230130192
 30
0.0
 11
1617.224345607914
 21
222.2143031426801
 31
0.0
  0
LINE
  5
5799
330
1F
100
AcDbEntity
  8
太線
100
AcDbLine
 10
1739.92487068518
 20
303.071230130192
 30
0.0
 11
1716.84523883679
 21
303.071230130192
 31
0.0
  0
LINE
  5
579A
330
1F
100
AcDbEntity
  8
太線
100
AcDbLine
 10
1489.924870685181
 20
263.071230130192
 30
0.0
 11
1591.694104120221
 21
263.071230130192
 31
0.0
  0
LINE
  5
579B
330
1F
100
AcDbEntity
  8
太線
100
AcDbLine
 10
1489.924870685181
 20
263.071230130192
 30
0.0
 11
1489.924870685181
 21
303.071230130192
 31
0.0
  0
ARC
  5
579C
330
1F
100
AcDbEntity
  8
太線
100
AcDbCircle
 10
1614.92487068518
 20
273.0712301301921
 30
0.0
 40
125.3993620398445
100
AcDbArc
 50
175.4260787400991
 51
184.5739212599008
  0
ARC
  5
579D
330
1F
100
AcDbEntity
  8
太線
100
AcDbCircle
 10
1614.92487068518
 20
273.0712301301921
 30
0.0
 40
125.3993620398445
100
AcDbArc
 50
175.4260787400991
 51
184.5739212599008
  0
LINE
  5
579E
330
1F
100
AcDbEntity
  8
想像線
100
AcDbLine
 10
1691.225978966462
 20
254.4159384993649
 30
0.0
 11
1672.813774370883
 21
219.9792923161334
 31
0.0
  0
LINE
  5
579F
330
1F
100
AcDbEntity
  8
太線
100
AcDbLine
 10
1695.304002856581
 20
252.2355458498885
 30
0.0
 11
1676.891798261003
 21
217.7988996666572
 31
0.0
  0
LINE
  5
57A0
330
1F
100
AcDbEntity
  8
太線
100
AcDbLine
 10
1642.742806050596
 20
280.3383844431394
 30
0.0
 11
1624.330601455018
 21
245.9017382599079
 31
0.0
  0
LINE
  5
57A1
330
1F
100
AcDbEntity
  8
想像線
100
AcDbLine
 10
1646.820829940716
 20
278.1579917936629
 30
0.0
 11
1628.408625345138
 21
243.7213456104317
 31
0.0
  0
LINE
  5
57A2
330
1F
100
AcDbEntity
  8
太線
100
AcDbLine
 10
1711.328444444234
 20
199.3866950710788
 30
0.0
 11
1589.893955271787
 21
264.3139428554863
 31
0.0
  0
LINE
  5
57A3
330
1F
100
AcDbEntity
  8
太線
100
AcDbLine
 10
1608.257431622844
 20
298.7766425168331
 30
0.0
 11
1729.740649039813
 21
233.8233412543101
 31
0.0
  0
LINE
  5
57A4
330
1F
100
AcDbEntity
  8
太線
100
AcDbLine
 10
1730.58404070232
 20
231.0418227922677
 30
0.0
 11
1714.109962906277
 21
200.2300867335869
 31
0.0
  0
ARC
  5
57A5
330
1F
100
AcDbEntity
  8
太線
100
AcDbCircle
 10
1693.725946045854
 20
211.5050825976287
 30
0.0
 40
5.5
100
AcDbArc
 50
177.590772299954
 51
306.1451652614156
  0
CIRCLE
  5
57A6
330
1F
100
AcDbEntity
  8
太線
100
AcDbCircle
 10
1681.837931321065
 20
198.7567475824513
 30
0.0
 40
5.5
  0
CIRCLE
  5
57A7
330
1F
100
AcDbEntity
  8
太線
100
AcDbCircle
 10
1667.9167971085
 20
188.266420514549
 30
0.0
 40
5.5
  0
ARC
  5
57A8
330
1F
100
AcDbEntity
  8
太線
100
AcDbCircle
 10
1712.297507844002
 20
201.199150133354
 30
0.0
 40
2.055255999999999
100
AcDbArc
 50
241.867968780685
 51
331.867968780685
  0
CIRCLE
  5
57A9
330
1F
100
AcDbEntity
  8
太線
100
AcDbCircle
 10
1659.8173021558
 20
249.0686420548978
 30
0.0
 40
1.798348999999999
  0
LINE
  5
57AA
330
1F
100
AcDbEntity
  8
太線
100
AcDbLine
 10
1703.504731256296
 20
232.7020807469601
 30
0.0
 11
1710.754551505398
 21
228.825827147891
 31
0.0
  0
ARC
  5
57AB
330
1F
100
AcDbEntity
  8
太線
100
AcDbCircle
 10
1700.597541056995
 20
227.2647155601343
 30
0.0
 40
6.165767999999999
100
AcDbArc
 50
61.86796878068501
 51
241.867968780685
  0
CIRCLE
  5
57AC
330
1F
100
AcDbEntity
  8
太線
100
AcDbCircle
 10
1703.219629971074
 20
226.1240738516047
 30
0.0
 40
5.5
  0
ARC
  5
57AD
330
1F
100
AcDbEntity
  8
太線
100
AcDbCircle
 10
1707.847361306096
 20
223.388461961065
 30
0.0
 40
6.165767999999999
100
AcDbArc
 50
241.867968780685
 51
61.86796878068501
  0
LINE
  5
57AE
330
1F
100
AcDbEntity
  8
太線
100
AcDbLine
 10
1697.690350857693
 20
221.8273503733084
 30
0.0
 11
1704.940171106794
 21
217.9510967742391
 31
0.0
  0
ARC
  5
57AF
330
1F
100
AcDbEntity
  8
太線
100
AcDbCircle
 10
1728.771585640045
 20
232.0108861920347
 30
0.0
 40
2.055255999999999
100
AcDbArc
 50
331.867968780685
 51
61.86796878068501
  0
ARC
  5
57B0
330
1F
100
AcDbEntity
  8
太線
100
AcDbCircle
 10
1619.037063254605
 20
270.8725685496618
 30
0.0
 40
6.165767999999999
100
AcDbArc
 50
241.867968780685
 51
61.86796878068501
  0
LINE
  5
57B1
330
1F
100
AcDbEntity
  8
太線
100
AcDbLine
 10
1589.050563609279
 20
267.0954613175292
 30
0.0
 11
1605.550694883438
 21
297.9559256207306
 31
0.0
  0
ARC
  5
57B2
330
1F
100
AcDbEntity
  8
太線
100
AcDbCircle
 10
1611.787243005503
 20
274.7488221487308
 30
0.0
 40
6.165767999999999
100
AcDbArc
 50
61.86796878068501
 51
241.867968780685
  0
CIRCLE
  5
57B3
330
1F
100
AcDbEntity
  8
太線
100
AcDbCircle
 10
1614.92487068518
 20
273.0712301301921
 30
0.0
 40
5.5
  0
ARC
  5
57B4
330
1F
100
AcDbEntity
  8
太線
100
AcDbCircle
 10
1590.863018671554
 20
266.1263979177615
 30
0.0
 40
2.055255999999999
100
AcDbArc
 50
151.8679687806849
 51
241.867968780685
  0
LINE
  5
57B5
330
1F
100
AcDbEntity
  8
太線
100
AcDbLine
 10
1608.880052806202
 20
269.3114569619049
 30
0.0
 11
1616.129873055303
 21
265.4352033628358
 31
0.0
  0
LINE
  5
57B6
330
1F
100
AcDbEntity
  8
太線
100
AcDbLine
 10
1614.694433204805
 20
280.1861873355567
 30
0.0
 11
1621.944253453906
 21
276.3099337364876
 31
0.0
  0
ARC
  5
57B7
330
1F
100
AcDbEntity
  8
太線
100
AcDbCircle
 10
1607.314421701192
 20
297.0129156990787
 30
0.0
 40
2.0
100
AcDbArc
 50
61.86796878068498
 51
151.8679687806851
  0
LINE
  5
57B8
330
1F
100
AcDbEntity
  8
太線
100
AcDbLine
 10
1739.92487068518
 20
263.071230130192
 30
0.0
 11
1739.92487068518
 21
303.071230130192
 31
0.0
  0
LINE
  5
57BC
330
1F
100
AcDbEntity
  8
太線
100
AcDbLine
 10
1698.035990452517
 20
463.071230130192
 30
0.0
 11
1723.555805971638
 21
422.2309881801843
 31
0.0
  0
ARC
  5
57BD
330
1F
100
AcDbEntity
  8
太線
100
AcDbCircle
 10
1721.266757017476
 20
473.0712301301921
 30
0.0
 40
125.3993620398445
100
AcDbArc
 50
297.7676563661962
 51
355.4260787400999
  0
LINE
  5
57BF
330
1F
100
AcDbEntity
  8
太線
100
AcDbLine
 10
1596.266757017476
 20
463.071230130192
 30
0.0
 11
1698.035990452517
 21
463.071230130192
 31
0.0
  0
LINE
  5
57C0
330
1F
100
AcDbEntity
  8
太線
100
AcDbLine
 10
1846.266757017476
 20
503.071230130192
 30
0.0
 11
1823.187125169085
 21
503.071230130192
 31
0.0
  0
LINE
  5
57C1
330
1F
100
AcDbEntity
  8
太線
100
AcDbLine
 10
1596.266757017476
 20
463.071230130192
 30
0.0
 11
1596.266757017476
 21
503.071230130192
 31
0.0
  0
ARC
  5
57C2
330
1F
100
AcDbEntity
  8
太線
100
AcDbCircle
 10
1721.266757017476
 20
473.0712301301921
 30
0.0
 40
125.3993620398445
100
AcDbArc
 50
175.4260787400991
 51
184.5739212599008
  0
ARC
  5
57C3
330
1F
100
AcDbEntity
  8
太線
100
AcDbCircle
 10
1721.266757017476
 20
473.0712301301921
 30
0.0
 40
125.3993620398445
100
AcDbArc
 50
175.4260787400991
 51
184.5739212599008
  0
LINE
  5
57C4
330
1F
100
AcDbEntity
  8
太線
100
AcDbLine
 10
1714.59931795514
 20
498.7766425168331
 30
0.0
 11
1836.082535372108
 21
433.8233412543101
 31
0.0
  0
LINE
  5
57C5
330
1F
100
AcDbEntity
  8
太線
100
AcDbLine
 10
1817.67033077653
 20
399.3866950710788
 30
0.0
 11
1696.235841604083
 21
464.3139428554863
 31
0.0
  0
LINE
  5
57C6
330
1F
100
AcDbEntity
  8
想像線
100
AcDbLine
 10
1753.162716273012
 20
478.1579917936629
 30
0.0
 11
1734.750511677433
 21
443.7213456104317
 31
0.0
  0
LINE
  5
57C7
330
1F
100
AcDbEntity
  8
太線
100
AcDbLine
 10
1801.645889188877
 20
452.2355458498886
 30
0.0
 11
1783.233684593299
 21
417.7988996666572
 31
0.0
  0
LINE
  5
57C8
330
1F
100
AcDbEntity
  8
想像線
100
AcDbLine
 10
1797.567865298757
 20
454.4159384993649
 30
0.0
 11
1779.155660703179
 21
419.9792923161334
 31
0.0
  0
CIRCLE
  5
57C9
330
1F
100
AcDbEntity
  8
太線
100
AcDbCircle
 10
1774.258683440796
 20
388.266420514549
 30
0.0
 40
5.5
  0
CIRCLE
  5
57CA
330
1F
100
AcDbEntity
  8
太線
100
AcDbCircle
 10
1788.179817653361
 20
398.7567475824513
 30
0.0
 40
5.5
  0
LINE
  5
57CB
330
1F
100
AcDbEntity
  8
太線
100
AcDbLine
 10
1836.925927034616
 20
431.0418227922676
 30
0.0
 11
1820.451849238572
 21
400.2300867335869
 31
0.0
  0
ARC
  5
57CC
330
1F
100
AcDbEntity
  8
太線
100
AcDbCircle
 10
1818.639394176297
 20
401.199150133354
 30
0.0
 40
2.055255999999999
100
AcDbArc
 50
241.867968780685
 51
331.867968780685
  0
ARC
  5
57CD
330
1F
100
AcDbEntity
  8
太線
100
AcDbCircle
 10
1814.189247638392
 20
423.3884619610651
 30
0.0
 40
6.165767999999999
100
AcDbArc
 50
241.867968780685
 51
61.86796878068501
  0
CIRCLE
  5
57CE
330
1F
100
AcDbEntity
  8
太線
100
AcDbCircle
 10
1809.56151630337
 20
426.1240738516047
 30
0.0
 40
5.5
  0
ARC
  5
57CF
330
1F
100
AcDbEntity
  8
太線
100
AcDbCircle
 10
1806.93942738929
 20
427.2647155601342
 30
0.0
 40
6.165767999999999
100
AcDbArc
 50
61.86796878068501
 51
241.867968780685
  0
LINE
  5
57D0
330
1F
100
AcDbEntity
  8
太線
100
AcDbLine
 10
1804.032237189988
 20
421.8273503733084
 30
0.0
 11
1811.28205743909
 21
417.9510967742391
 31
0.0
  0
ARC
  5
57D1
330
1F
100
AcDbEntity
  8
太線
100
AcDbCircle
 10
1800.06783237815
 20
411.5050825976287
 30
0.0
 40
5.5
100
AcDbArc
 50
177.5907722999515
 51
306.1451652614187
  0
LINE
  5
57D2
330
1F
100
AcDbEntity
  8
太線
100
AcDbLine
 10
1809.846617588592
 20
432.7020807469601
 30
0.0
 11
1817.096437837693
 21
428.825827147891
 31
0.0
  0
ARC
  5
57D3
330
1F
100
AcDbEntity
  8
太線
100
AcDbCircle
 10
1835.113471972341
 20
432.0108861920347
 30
0.0
 40
2.055255999999999
100
AcDbArc
 50
331.867968780685
 51
61.86796878068501
  0
LINE
  5
57D4
330
1F
100
AcDbEntity
  8
太線
100
AcDbLine
 10
1695.392449941574
 20
467.0954613175291
 30
0.0
 11
1711.892581215733
 21
497.9559256207306
 31
0.0
  0
LINE
  5
57D5
330
1F
100
AcDbEntity
  8
太線
100
AcDbLine
 10
1721.036319537101
 20
480.1861873355567
 30
0.0
 11
1728.286139786202
 21
476.3099337364876
 31
0.0
  0
CIRCLE
  5
57D6
330
1F
100
AcDbEntity
  8
太線
100
AcDbCircle
 10
1721.266757017476
 20
473.0712301301921
 30
0.0
 40
5.5
  0
ARC
  5
57D7
330
1F
100
AcDbEntity
  8
太線
100
AcDbCircle
 10
1718.129129337799
 20
474.7488221487309
 30
0.0
 40
6.165767999999999
100
AcDbArc
 50
61.86796878068501
 51
241.867968780685
  0
ARC
  5
57D8
330
1F
100
AcDbEntity
  8
太線
100
AcDbCircle
 10
1725.3789495869
 20
470.8725685496618
 30
0.0
 40
6.165767999999999
100
AcDbArc
 50
241.867968780685
 51
61.86796878068501
  0
LINE
  5
57D9
330
1F
100
AcDbEntity
  8
太線
100
AcDbLine
 10
1715.221939138498
 20
469.311456961905
 30
0.0
 11
1722.471759387599
 21
465.4352033628358
 31
0.0
  0
ARC
  5
57DA
330
1F
100
AcDbEntity
  8
太線
100
AcDbCircle
 10
1697.204905003849
 20
466.1263979177615
 30
0.0
 40
2.055255999999999
100
AcDbArc
 50
151.8679687806849
 51
241.867968780685
  0
LINE
  5
57DB
330
1F
100
AcDbEntity
  8
太線
100
AcDbLine
 10
1749.084692382892
 20
480.3383844431394
 30
0.0
 11
1730.672487787314
 21
445.9017382599079
 31
0.0
  0
CIRCLE
  5
57DC
330
1F
100
AcDbEntity
  8
太線
100
AcDbCircle
 10
1766.159188488096
 20
449.0686420548978
 30
0.0
 40
1.798348999999999
  0
ARC
  5
57DD
330
1F
100
AcDbEntity
  8
太線
100
AcDbCircle
 10
1713.656308033488
 20
497.0129156990787
 30
0.0
 40
2.0
100
AcDbArc
 50
61.86796878068498
 51
151.8679687806851
  0
LINE
  5
57DE
330
1F
100
AcDbEntity
  8
太線
100
AcDbLine
 10
1846.266757017476
 20
463.071230130192
 30
0.0
 11
1846.266757017476
 21
503.071230130192
 31
0.0
  0
LINE
  5
57E1
330
1F
100
AcDbEntity
  8
太線
100
AcDbLine
 10
775.5672446551425
 20
126.662133170339
 30
0.0
 11
-365.1937993963456
 21
126.662133170339
 31
0.0
  0
LINE
  5
57E8
330
1F
100
AcDbEntity
  8
太線
100
AcDbLine
 10
312.1544921993459
 20
240.7921391960905
 30
0.0
 11
197.3663352850053
 21
169.0645379781603
 31
0.0
  0
LINE
  5
57E9
330
1F
100
AcDbEntity
  8
太線
100
AcDbLine
 10
197.3663352850053
 20
169.0645379781603
 30
0.0
 11
223.8622984966655
 21
126.662133170339
 31
0.0
  0
LINE
  5
57EA
330
1F
100
AcDbEntity
  8
太線
100
AcDbLine
 10
223.8622984966655
 20
126.662133170339
 30
0.0
 11
338.7654835671316
 21
198.4616119576386
 31
0.0
  0
LINE
  5
57EB
330
1F
100
AcDbEntity
  8
太線
100
AcDbLine
 10
345.2707768728056
 20
261.4854905376401
 30
0.0
 11
632.1554949185148
 21
440.8969722880715
 31
0.0
  0
LINE
  5
57EC
330
1F
100
AcDbEntity
  8
太線
100
AcDbLine
 10
658.9546721497339
 20
398.2670948034049
 30
0.0
 11
371.8817682405913
 21
219.1549632991882
 31
0.0
  0
LINE
  5
57ED
330
1F
100
AcDbEntity
  8
太線
100
AcDbLine
 10
665.3376826810158
 20
461.4854905376402
 30
0.0
 11
839.2817299159554
 21
570.1777946018223
 31
0.0
  0
LINE
  5
57EE
330
1F
100
AcDbEntity
  8
太線
100
AcDbLine
 10
839.2817299159554
 20
570.1777946018223
 30
0.0
 11
868.6625408189755
 21
527.775389794001
 31
0.0
  0
LINE
  5
57EF
330
1F
100
AcDbEntity
  8
太線
100
AcDbLine
 10
868.6625408189755
 20
527.775389794001
 30
0.0
 11
691.9486740488015
 21
419.1549632991882
 31
0.0
  0
LINE
  5
57F0
330
1F
100
AcDbEntity
  8
太線
100
AcDbLine
 10
765.7612361153105
 20
126.662133170339
 30
0.0
 11
732.3047057973676
 21
163.8193744442087
 31
0.0
  0
LINE
  5
57F1
330
1F
100
AcDbEntity
  8
太線
100
AcDbLine
 10
732.3047057973676
 20
163.8193744442087
 30
0.0
 11
817.779678351127
 21
240.7813854178606
 31
0.0
  0
LINE
  5
57F4
330
1F
100
AcDbEntity
  8
太線
100
AcDbLine
 10
846.7994179493063
 20
266.9108763165314
 30
0.0
 11
1039.902181316965
 21
440.7813854178606
 31
0.0
  0
LINE
  5
57F5
330
1F
100
AcDbEntity
  8
太線
100
AcDbLine
 10
1068.921920915145
 20
466.9108763165315
 30
0.0
 11
1177.7861084675
 21
564.9326310678708
 31
0.0
  0
LINE
  5
57F6
330
1F
100
AcDbEntity
  8
太線
100
AcDbLine
 10
1177.7861084675
 20
564.9326310678708
 30
0.0
 11
1211.242638785443
 21
527.775389794001
 31
0.0
  0
LINE
  5
57F7
330
1F
100
AcDbEntity
  8
太線
100
AcDbLine
 10
1211.242638785443
 20
527.775389794001
 30
0.0
 11
1102.534501835216
 21
429.6971010549397
 31
0.0
  0
LINE
  5
57F8
330
1F
100
AcDbEntity
  8
太線
100
AcDbLine
 10
1073.416611090771
 20
403.6762770482126
 30
0.0
 11
880.3138477231122
 21
229.8057679468833
 31
0.0
  0
LINE
  5
57F9
330
1F
100
AcDbEntity
  8
太線
100
AcDbLine
 10
851.294108124933
 20
203.6762770482126
 30
0.0
 11
765.7612361153105
 21
126.662133170339
 31
0.0
  0
LINE
  5
57FA
330
1F
100
AcDbEntity
  8
太線
100
AcDbLine
 10
1262.78512019608
 20
211.0373179727746
 30
0.0
 11
1196.864001076089
 21
126.662133170339
 31
0.0
  0
LINE
  5
57FB
330
1F
100
AcDbEntity
  8
太線
100
AcDbLine
 10
1196.864001076089
 20
126.662133170339
 30
0.0
 11
1157.463463395753
 21
157.445206936622
 31
0.0
  0
LINE
  5
57FC
330
1F
100
AcDbEntity
  8
太線
100
AcDbLine
 10
1157.463463395753
 20
157.445206936622
 30
0.0
 11
1223.34107878183
 21
241.7647094988651
 31
0.0
  0
LINE
  5
57FD
330
1F
100
AcDbEntity
  8
太線
100
AcDbLine
 10
1247.382599671581
 20
272.536452986896
 30
0.0
 11
1379.598204083174
 21
441.7647094988651
 31
0.0
  0
LINE
  5
57FE
330
1F
100
AcDbEntity
  8
太線
100
AcDbLine
 10
1419.042245497424
 20
411.0373179727746
 30
0.0
 11
1286.826641085831
 21
241.8090614608054
 31
0.0
  0
LINE
  5
5800
330
1F
100
AcDbEntity
  8
太線
100
AcDbLine
 10
1403.639724972924
 20
472.536452986896
 30
0.0
 11
1470.847485397121
 21
558.5584635602839
 31
0.0
  0
LINE
  5
5801
330
1F
100
AcDbEntity
  8
太線
100
AcDbLine
 10
1470.847485397121
 20
558.5584635602839
 30
0.0
 11
1510.248023077457
 21
527.775389794001
 31
0.0
  0
LINE
  5
5802
330
1F
100
AcDbEntity
  8
太線
100
AcDbLine
 10
1510.248023077457
 20
527.775389794001
 30
0.0
 11
1443.083766387174
 21
441.8090614608054
 31
0.0
  0
LINE
  5
5803
330
1F
100
AcDbEntity
  8
太線
100
AcDbLine
 10
1753.162716273012
 20
478.1579917936629
 30
0.0
 11
1792.175180220657
 21
551.2489679332956
 31
0.0
  0
LINE
  5
5804
330
1F
100
AcDbEntity
  8
太線
100
AcDbLine
 10
1792.175180220657
 20
551.2489679332956
 30
0.0
 11
1836.322559863603
 21
527.775389794001
 31
0.0
  0
LINE
  5
5805
330
1F
100
AcDbEntity
  8
太線
100
AcDbLine
 10
1836.322559863603
 20
527.775389794001
 30
0.0
 11
1797.372256922587
 21
454.5205242195739
 31
0.0
  0
LINE
  5
5806
330
1F
100
AcDbEntity
  8
太線
100
AcDbLine
 10
1734.946120053605
 20
443.6167598902222
 30
0.0
 11
1646.820829940716
 21
278.1579917936629
 31
0.0
  0
LINE
  5
5807
330
1F
100
AcDbEntity
  8
太線
100
AcDbLine
 10
1779.039407568726
 20
420.0414492545601
 30
0.0
 11
1691.030370590291
 21
254.5205242195739
 31
0.0
  0
LINE
  5
5808
330
1F
100
AcDbEntity
  8
太線
100
AcDbLine
 10
1672.813774370883
 20
219.9792923161334
 30
0.0
 11
1623.046858152351
 21
126.662133170339
 31
0.0
  0
LINE
  5
5809
330
1F
100
AcDbEntity
  8
太線
100
AcDbLine
 10
1623.046858152351
 20
126.662133170339
 30
0.0
 11
1578.899478509405
 21
150.1357113096335
 31
0.0
  0
LINE
  5
580A
330
1F
100
AcDbEntity
  8
太線
100
AcDbLine
 10
1578.899478509405
 20
150.1357113096335
 30
0.0
 11
1628.604233721309
 21
243.6167598902222
 31
0.0
  0
DIMENSION
  5
580C
330
1F
100
AcDbEntity
  8
寸法線
100
AcDbDimension
  2
*D12
 10
371.8817682405913
 20
219.1549632991882
 30
0.0
 11
523.8869566558933
 21
209.5158935385497
 31
0.0
 70
   162
 71
     5
 42
0.5578263342040828
  3
sunpo
100
AcDb2LineAngularDimension
 13
775.5672446551425
 23
126.662133170339
 33
0.0
 14
-365.1937993963456
 24
126.662133170339
 34
0.0
 15
658.9546721497339
 25
398.2670948034049
 35
0.0
 16
513.8182277348009
 26
239.8416760200914
 36
0.0
1001
ACAD
1000
DSTYLE
1002
{
1070
   140
1040
20.0
1070
    40
1040
1.0
1002
}
  0
DIMENSION
  5
5819
330
1F
100
AcDbEntity
  8
寸法線
100
AcDbDimension
  2
*D13
 10
880.3138477231122
 20
229.8057679468833
 30
0.0
 11
1024.159460966415
 21
212.3397410526595
 31
0.0
 70
   162
 71
     5
 42
0.7330382858376201
  3
sunpo
100
AcDb2LineAngularDimension
 13
775.5672446551425
 23
126.662133170339
 33
0.0
 14
1204.439142319557
 24
126.662133170339
 34
0.0
 15
1073.416611090771
 25
403.6762770482126
 35
0.0
 16
1006.127879175365
 26
254.4673443421789
 36
0.0
1001
ACAD
1000
DSTYLE
1002
{
1070
   140
1040
20.0
1070
    40
1040
1.0
1002
}
  0
DIMENSION
  5
5826
330
1F
100
AcDbEntity
  8
寸法線
100
AcDbDimension
  2
*D14
 10
1286.826641085831
 20
241.8090614608054
 30
0.0
 11
1420.445891385007
 21
235.710307287156
 31
0.0
 70
    34
 71
     5
 42
0.907571211037051
  3
sunpo
100
AcDb2LineAngularDimension
 13
1204.439142319557
 23
126.662133170339
 33
0.0
 14
1630.285114798366
 24
126.662133170339
 34
0.0
 15
1419.042245497424
 25
411.0373179727746
 35
0.0
 16
1423.822629368155
 26
197.4967486911227
 36
0.0
1001
ACAD
1000
DSTYLE
1002
{
1070
   140
1040
20.0
1070
    40
1040
1.0
1002
}
  0
DIMENSION
  5
5833
330
1F
100
AcDbEntity
  8
寸法線
100
AcDbDimension
  2
*D15
 10
1691.030370590291
 20
254.5205242195739
 30
0.0
 11
1822.327229724716
 21
246.4018605933522
 31
0.0
 70
    34
 71
     5
 42
1.082104136236483
  3
sunpo
100
AcDb2LineAngularDimension
 13
1630.285114798366
 23
126.662133170339
 33
0.0
 14
1869.284489096276
 24
126.662133170339
 34
0.0
 15
1779.039407568726
 25
420.0414492545601
 35
0.0
 16
1830.27934871448
 26
204.8310187230967
 36
0.0
1001
ACAD
1000
DSTYLE
1002
{
1070
   140
1040
20.0
1070
    40
1040
1.0
1002
}
  0
LINE
  5
587F
330
1F
100
AcDbEntity
  8
想像線
100
AcDbLine
 10
939.9248706851809
 20
350.7614105869803
 30
0.0
 11
939.9248706851809
 21
461.6856116067956
 31
0.0
  0
LINE
  5
5880
330
1F
100
AcDbEntity
  8
想像線
100
AcDbLine
 10
912.0473736510195
 20
463.0712301301945
 30
0.0
 11
912.0473736510197
 21
325.6603995125205
 31
0.0
  0
LINE
  5
5881
330
1F
100
AcDbEntity
  8
太線
100
AcDbLine
 10
654.1344122454704
 20
395.259611289286
 30
0.0
 11
671.0768360213612
 21
368.1460655150812
 31
0.0
  0
LINE
  5
5882
330
1F
100
AcDbEntity
  8
太線
100
AcDbLine
 10
333.9477966227098
 20
195.4511870389758
 30
0.0
 11
351.0099302131512
 21
168.146065515081
 31
0.0
  0
LINE
  5
5883
330
1F
100
AcDbEntity
  8
破線
100
AcDbLine
 10
886.9595594354091
 20
303.071230130192
 30
0.0
 11
939.9248706851809
 21
303.071230130192
 31
0.0
  0
LINE
  5
5884
330
1F
100
AcDbEntity
  8
破線
100
AcDbLine
 10
939.9248706851809
 20
303.071230130192
 30
0.0
 11
939.9248706851809
 21
283.4797741066615
 31
0.0
  0
LINE
  5
5885
330
1F
100
AcDbEntity
  8
破線
100
AcDbLine
 10
939.9248706851809
 20
350.7614105869801
 30
0.0
 11
939.9248706851809
 21
303.071230130192
 31
0.0
  0
LINE
  5
5886
330
1F
100
AcDbEntity
  8
破線
100
AcDbLine
 10
912.0473736510195
 20
325.6603995125203
 30
0.0
 11
912.0473736510195
 21
303.071230130192
 31
0.0
  0
LINE
  5
5887
330
1F
100
AcDbEntity
  8
太線
100
AcDbLine
 10
836.9043627747421
 20
190.7196921384846
 30
0.0
 11
851.0099302131511
 21
168.1460655150812
 31
0.0
  0
LINE
  5
5888
330
1F
100
AcDbEntity
  8
太線
100
AcDbLine
 10
1059.026865740581
 20
390.7196921384849
 30
0.0
 11
1073.13243317899
 21
368.1460655150808
 31
0.0
  0
LINE
  5
5889
330
1F
100
AcDbEntity
  8
太線
100
AcDbLine
 10
1427.496107463567
 20
503.071230130192
 30
0.0
 11
1246.181995986524
 21
503.071230130192
 31
0.0
  0
LINE
  5
588A
330
1F
100
AcDbEntity
  8
太線
100
AcDbLine
 10
1271.238982162224
 20
303.071230130192
 30
0.0
 11
1089.92487068518
 21
303.071230130192
 31
0.0
  0
LINE
  5
588B
330
1F
100
AcDbEntity
  8
太線
100
AcDbLine
 10
1241.351239513284
 20
183.603201747405
 30
0.0
 11
1251.009930213151
 21
168.1460655150806
 31
0.0
  0
LINE
  5
588C
330
1F
100
AcDbEntity
  8
太線
100
AcDbLine
 10
1397.608364814628
 20
383.603201747405
 30
0.0
 11
1407.267055514495
 21
368.1460655150806
 31
0.0
  0
LINE
  5
588D
330
1F
100
AcDbEntity
  8
太線
100
AcDbLine
 10
1766.460210214892
 20
503.0712301301918
 30
0.0
 11
1596.266757017476
 21
503.071230130192
 31
0.0
  0
LINE
  5
588E
330
1F
100
AcDbEntity
  8
太線
100
AcDbLine
 10
1754.161134925591
 20
373.2522234825133
 30
0.0
 11
1757.351816545446
 21
368.1460655150816
 31
0.0
  0
LINE
  5
588F
330
1F
100
AcDbEntity
  8
太線
100
AcDbLine
 10
1660.089914325394
 20
303.071230130192
 30
0.0
 11
1489.924870685181
 21
303.071230130192
 31
0.0
  0
LINE
  5
589B
330
1F
100
AcDbEntity
  8
想像線
100
AcDbLine
 10
689.9248706851808
 20
303.071230130192
 30
0.0
 11
689.9248706851808
 21
351.7973658633277
 31
0.0
  0
DIMENSION
  5
589C
330
1F
100
AcDbEntity
  8
寸法線
100
AcDbDimension
  2
*D16
 10
912.0473736510195
 20
349.1852703676654
 30
0.0
 11
800.9861221681003
 21
357.6867467456181
 31
0.0
 70
    32
  1
220
 71
     5
 42
222.1225029658387
  3
sunpo
100
AcDbAlignedDimension
 13
689.9248706851808
 23
351.7973658633277
 33
0.0
 14
912.0473736510195
 24
349.1852703676654
 34
0.0
100
AcDbRotatedDimension
1001
ACAD
1000
DSTYLE
1002
{
1070
   140
1040
15.0
1070
    40
1040
1.0
1002
}
  0
DIMENSION
  5
58A9
330
1F
100
AcDbEntity
  8
寸法線
100
AcDbDimension
  2
*D17
 10
939.9248706851809
 20
349.1852703676654
 30
0.0
 11
925.9861221681003
 21
357.6852703676653
 31
0.0
 70
    32
  1
30
 71
     5
 42
27.87749703416125
  3
sunpo
100
AcDbAlignedDimension
 13
912.0473736510195
 23
349.1852703676654
 33
0.0
 14
939.9248706851809
 24
350.7614105869801
 34
0.0
100
AcDbRotatedDimension
1001
ACAD
1000
DSTYLE
1002
{
1070
   140
1040
15.0
1070
    40
1040
1.0
1070
   279
1070
     1
1002
}
  0
LINE
  5
58EE
330
1F
100
AcDbEntity
  8
構築線
100
AcDbLine
 10
857.3111972847142
 20
503.071230130192
 30
0.0
 11
857.3111972847142
 21
295.5013440994844
 31
0.0
  0
DIMENSION
  5
58EF
330
1F
100
AcDbEntity
  8
寸法線
100
AcDbDimension
  2
*D18
 10
865.8089829274331
 20
303.071230130192
 30
0.0
 11
857.3075065494803
 21
403.0712301301921
 31
0.0
 70
    32
 71
     5
 42
200.0
  3
sunpo
100
AcDbAlignedDimension
 13
857.3111972847142
 23
503.071230130192
 33
0.0
 14
857.3111972847142
 24
303.071230130192
 34
0.0
 50
90.0
100
AcDbRotatedDimension
1001
ACAD
1000
DSTYLE
1002
{
1070
   140
1040
15.0
1070
    40
1040
1.0
1002
}
  0
LINE
  5
5A2D
330
1F
100
AcDbEntity
  8
想像線
100
AcDbLine
 10
998.7664342920266
 20
1232.548867683693
 30
0.0
 11
998.7664342920266
 21
1232.548867683693
 31
0.0
  0
LINE
  5
5B3E
330
1F
100
AcDbEntity
  8
寸法線
100
AcDbLine
 10
351.3427344116421
 20
575.5890898219832
 30
0.0
 11
372.5654356114403
 21
605.8233862411825
 31
0.0
  0
LWPOLYLINE
  5
5DC4
330
1F
100
AcDbEntity
  8
太線
100
AcDbPolyline
 90
       38
 70
     1
 43
0.0
 10
1568.40414511174
 20
1409.885837436069
 42
0.52056705
 10
1573.712173821041
 20
1424.73491909913
 42
0.52056705
 10
1584.328222885043
 20
1440.644643025792
 42
0.52056705
 10
1597.067493458286
 20
1451.251128642654
 42
0.52056705
 10
1609.806755676928
 20
1460.796962998651
 42
0.52056705
 10
1622.546017895571
 20
1470.34280185328
 42
0.52056705
 10
1637.408493268853
 20
1472.464095377748
 42
0.52056705
 10
1653.332579396758
 20
1471.403448615514
 42
0.52056705
 10
1669.256657170061
 20
1471.403448615514
 42
0.52056705
 10
1686.242345697985
 20
1471.403448615514
 42
0.52056705
 10
1702.166423471289
 20
1471.403448615514
 42
0.52056705
 10
1718.090509599192
 20
1470.34280185328
 42
0.52056705
 10
1734.014587372494
 20
1469.282150592415
 42
0.52056705
 10
1748.877062745779
 20
1462.91826102175
 42
0.52056705
 10
1762.677935719041
 20
1453.372426665753
 42
0.52056705
 10
1773.293993137644
 20
1441.705294286656
 42
0.52056705
 10
1783.910042201646
 20
1430.038157408929
 42
0.52056705
 10
1790.279673310967
 20
1416.249731505366
 42
0.52056705
 10
1792.402886465609
 20
1401.400649842306
 42
0.52056705
 10
1790.279673310967
 20
1385.490925915644
 42
0.52056705
 10
1782.848439801627
 20
1371.702495513449
 42
0.52056705
 10
1773.293993137644
 20
1360.035363134353
 42
0.52056705
 10
1760.554722564401
 20
1351.550175540589
 42
0.52056705
 10
1747.815460345759
 20
1343.064987946825
 42
0.52056705
 10
1732.952984972476
 20
1337.761745138394
 42
0.52056705
 10
1719.152111999213
 20
1330.337204306864
 42
0.52056705
 10
1704.289636625929
 20
1325.033965997065
 42
0.52056705
 10
1688.365558852626
 20
1325.033965997065
 42
0.52056705
 10
1672.441472724723
 20
1325.033965997065
 42
0.52056705
 10
1656.517394951418
 20
1325.033965997065
 42
0.52056705
 10
1640.593308823515
 20
1325.033965997065
 42
0.52056705
 10
1624.669231050212
 20
1326.094612759298
 42
0.52056705
 10
1608.745153276909
 20
1329.276557544631
 42
0.52056705
 10
1596.005882703665
 20
1338.822391900628
 42
0.52056705
 10
1584.328222885043
 20
1348.368230755257
 42
0.52056705
 10
1572.65056306642
 20
1357.914065111254
 42
0.52056705
 10
1564.157718802459
 20
1370.641848751215
 42
0.52056705
 10
1562.034514002419
 20
1385.490925915644
 42
0.52056705
  0
LINE
  5
5DC5
330
1F
100
AcDbEntity
  8
太線
100
AcDbLine
 10
1772.785373297423
 20
1422.979672656556
 30
0.0
 11
1772.785373297423
 21
1402.979672656556
 31
0.0
  0
LINE
  5
5DC6
330
1F
100
AcDbEntity
  8
太線
100
AcDbLine
 10
1742.785373297424
 20
1422.979672656556
 30
0.0
 11
1742.785373297424
 21
1402.979672656556
 31
0.0
  0
LINE
  5
5DC7
330
1F
100
AcDbEntity
  8
太線
100
AcDbLine
 10
1712.785373297424
 20
1422.979672656556
 30
0.0
 11
1712.785373297424
 21
1402.979672656556
 31
0.0
  0
LINE
  5
5DC8
330
1F
100
AcDbEntity
  8
太線
100
AcDbLine
 10
1682.785373297424
 20
1422.979672656556
 30
0.0
 11
1682.785373297424
 21
1402.979672656556
 31
0.0
  0
LINE
  5
5DC9
330
1F
100
AcDbEntity
  8
太線
100
AcDbLine
 10
1652.785373297423
 20
1422.979672656556
 30
0.0
 11
1652.785373297423
 21
1402.979672656556
 31
0.0
  0
LINE
  5
5DCA
330
1F
100
AcDbEntity
  8
太線
100
AcDbLine
 10
1622.785373297424
 20
1422.979672656556
 30
0.0
 11
1622.785373297424
 21
1402.979672656556
 31
0.0
  0
LINE
  5
5DCB
330
1F
100
AcDbEntity
  8
太線
100
AcDbLine
 10
1592.785373297424
 20
1422.979672656556
 30
0.0
 11
1592.785373297424
 21
1402.979672656556
 31
0.0
  0
LINE
  5
5DCC
330
1F
100
AcDbEntity
  8
太線
100
AcDbLine
 10
1602.785373297423
 20
1392.979672656556
 30
0.0
 11
1622.785373297424
 21
1392.979672656556
 31
0.0
  0
LINE
  5
5DCD
330
1F
100
AcDbEntity
  8
太線
100
AcDbLine
 10
1612.785373297424
 20
1372.979672656556
 30
0.0
 11
1632.785373297424
 21
1372.979672656556
 31
0.0
  0
LINE
  5
5DCE
330
1F
100
AcDbEntity
  8
太線
100
AcDbLine
 10
1602.785373297423
 20
1352.979672656556
 30
0.0
 11
1622.785373297424
 21
1352.979672656556
 31
0.0
  0
LINE
  5
5DCF
330
1F
100
AcDbEntity
  8
太線
100
AcDbLine
 10
1612.785373297424
 20
1332.979672656556
 30
0.0
 11
1632.785373297424
 21
1332.979672656556
 31
0.0
  0
LINE
  5
5DD0
330
1F
100
AcDbEntity
  8
太線
100
AcDbLine
 10
1612.785373297424
 20
1412.979672656556
 30
0.0
 11
1632.785373297424
 21
1412.979672656556
 31
0.0
  0
LINE
  5
5DD1
330
1F
100
AcDbEntity
  8
太線
100
AcDbLine
 10
1592.785373297424
 20
1382.979672656556
 30
0.0
 11
1592.785373297424
 21
1362.979672656556
 31
0.0
  0
LINE
  5
5DD2
330
1F
100
AcDbEntity
  8
太線
100
AcDbLine
 10
1612.785373297424
 20
1362.979672656556
 30
0.0
 11
1612.785373297424
 21
1342.979672656556
 31
0.0
  0
LINE
  5
5DD3
330
1F
100
AcDbEntity
  8
太線
100
AcDbLine
 10
1582.785373297424
 20
1352.979672656556
 30
0.0
 11
1592.785373297424
 21
1352.979672656556
 31
0.0
  0
LINE
  5
5DD4
330
1F
100
AcDbEntity
  8
太線
100
AcDbLine
 10
1582.785373297424
 20
1362.979672656556
 30
0.0
 11
1582.785373297424
 21
1352.979672656556
 31
0.0
  0
LINE
  5
5DD5
330
1F
100
AcDbEntity
  8
太線
100
AcDbLine
 10
1582.785373297424
 20
1402.979672656556
 30
0.0
 11
1582.785373297424
 21
1382.979672656556
 31
0.0
  0
LINE
  5
5DD6
330
1F
100
AcDbEntity
  8
太線
100
AcDbLine
 10
1612.785373297424
 20
1402.979672656556
 30
0.0
 11
1612.785373297424
 21
1382.979672656556
 31
0.0
  0
LINE
  5
5DD7
330
1F
100
AcDbEntity
  8
太線
100
AcDbLine
 10
1582.785373297424
 20
1372.979672656556
 30
0.0
 11
1602.785373297423
 21
1372.979672656556
 31
0.0
  0
LINE
  5
5DD8
330
1F
100
AcDbEntity
  8
太線
100
AcDbLine
 10
1572.785373297424
 20
1372.979672656556
 30
0.0
 11
1565.957492287542
 21
1372.979672656556
 31
0.0
  0
LINE
  5
5DD9
330
1F
100
AcDbEntity
  8
太線
100
AcDbLine
 10
1572.785373297424
 20
1392.979672656556
 30
0.0
 11
1592.785373297424
 21
1392.979672656556
 31
0.0
  0
LINE
  5
5DDA
330
1F
100
AcDbEntity
  8
太線
100
AcDbLine
 10
1582.785373297424
 20
1412.979672656556
 30
0.0
 11
1602.785373297423
 21
1412.979672656556
 31
0.0
  0
LINE
  5
5DDB
330
1F
100
AcDbEntity
  8
太線
100
AcDbLine
 10
1652.785373297423
 20
1342.979672656556
 30
0.0
 11
1652.785373297423
 21
1328.210031591837
 31
0.0
  0
LINE
  5
5DDC
330
1F
100
AcDbEntity
  8
太線
100
AcDbLine
 10
1722.785373297424
 20
1392.979672656556
 30
0.0
 11
1742.785373297424
 21
1392.979672656556
 31
0.0
  0
LINE
  5
5DDD
330
1F
100
AcDbEntity
  8
太線
100
AcDbLine
 10
1732.785373297424
 20
1372.979672656556
 30
0.0
 11
1752.785373297424
 21
1372.979672656556
 31
0.0
  0
LINE
  5
5DDE
330
1F
100
AcDbEntity
  8
太線
100
AcDbLine
 10
1722.785373297424
 20
1352.979672656556
 30
0.0
 11
1742.785373297424
 21
1352.979672656556
 31
0.0
  0
LINE
  5
5DDF
330
1F
100
AcDbEntity
  8
太線
100
AcDbLine
 10
1732.785373297424
 20
1412.979672656556
 30
0.0
 11
1752.785373297424
 21
1412.979672656556
 31
0.0
  0
LINE
  5
5DE0
330
1F
100
AcDbEntity
  8
太線
100
AcDbLine
 10
1622.785373297424
 20
1382.979672656556
 30
0.0
 11
1622.785373297424
 21
1362.979672656556
 31
0.0
  0
LINE
  5
5DE1
330
1F
100
AcDbEntity
  8
太線
100
AcDbLine
 10
1682.785373297424
 20
1382.979672656556
 30
0.0
 11
1682.785373297424
 21
1362.979672656556
 31
0.0
  0
LINE
  5
5DE2
330
1F
100
AcDbEntity
  8
太線
100
AcDbLine
 10
1652.785373297423
 20
1382.979672656556
 30
0.0
 11
1652.785373297423
 21
1362.979672656556
 31
0.0
  0
LINE
  5
5DE3
330
1F
100
AcDbEntity
  8
太線
100
AcDbLine
 10
1712.785373297424
 20
1382.979672656556
 30
0.0
 11
1712.785373297424
 21
1362.979672656556
 31
0.0
  0
LINE
  5
5DE4
330
1F
100
AcDbEntity
  8
太線
100
AcDbLine
 10
1662.785373297424
 20
1352.979672656556
 30
0.0
 11
1682.785373297424
 21
1352.979672656556
 31
0.0
  0
LINE
  5
5DE5
330
1F
100
AcDbEntity
  8
太線
100
AcDbLine
 10
1672.785373297424
 20
1332.979672656556
 30
0.0
 11
1692.785373297424
 21
1332.979672656556
 31
0.0
  0
LINE
  5
5DE6
330
1F
100
AcDbEntity
  8
太線
100
AcDbLine
 10
1642.785373297424
 20
1362.979672656556
 30
0.0
 11
1642.785373297424
 21
1342.979672656556
 31
0.0
  0
LINE
  5
5DE7
330
1F
100
AcDbEntity
  8
太線
100
AcDbLine
 10
1672.785373297424
 20
1362.979672656556
 30
0.0
 11
1672.785373297424
 21
1342.979672656556
 31
0.0
  0
LINE
  5
5DE8
330
1F
100
AcDbEntity
  8
太線
100
AcDbLine
 10
1642.785373297424
 20
1332.979672656556
 30
0.0
 11
1662.785373297424
 21
1332.979672656556
 31
0.0
  0
LINE
  5
5DE9
330
1F
100
AcDbEntity
  8
太線
100
AcDbLine
 10
1622.785373297424
 20
1342.979672656556
 30
0.0
 11
1622.785373297424
 21
1328.931074681668
 31
0.0
  0
LINE
  5
5DEA
330
1F
100
AcDbEntity
  8
太線
100
AcDbLine
 10
1632.785373297424
 20
1352.979672656556
 30
0.0
 11
1652.785373297423
 21
1352.979672656556
 31
0.0
  0
LINE
  5
5DEB
330
1F
100
AcDbEntity
  8
太線
100
AcDbLine
 10
1732.785373297424
 20
1362.979672656556
 30
0.0
 11
1732.785373297424
 21
1342.979672656556
 31
0.0
  0
LINE
  5
5DEC
330
1F
100
AcDbEntity
  8
太線
100
AcDbLine
 10
1702.785373297424
 20
1362.979672656556
 30
0.0
 11
1702.785373297424
 21
1342.979672656556
 31
0.0
  0
LINE
  5
5DED
330
1F
100
AcDbEntity
  8
太線
100
AcDbLine
 10
1702.785373297424
 20
1332.979672656556
 30
0.0
 11
1719.857183905573
 21
1332.979672656556
 31
0.0
  0
LINE
  5
5DEE
330
1F
100
AcDbEntity
  8
太線
100
AcDbLine
 10
1682.785373297424
 20
1342.979672656556
 30
0.0
 11
1682.785373297424
 21
1328.882387558794
 31
0.0
  0
LINE
  5
5DEF
330
1F
100
AcDbEntity
  8
太線
100
AcDbLine
 10
1712.785373297424
 20
1342.979672656556
 30
0.0
 11
1712.785373297424
 21
1332.081632581047
 31
0.0
  0
LINE
  5
5DF0
330
1F
100
AcDbEntity
  8
太線
100
AcDbLine
 10
1692.785373297424
 20
1352.979672656556
 30
0.0
 11
1712.785373297424
 21
1352.979672656556
 31
0.0
  0
LINE
  5
5DF1
330
1F
100
AcDbEntity
  8
太線
100
AcDbLine
 10
1662.785373297424
 20
1392.979672656556
 30
0.0
 11
1682.785373297424
 21
1392.979672656556
 31
0.0
  0
LINE
  5
5DF2
330
1F
100
AcDbEntity
  8
太線
100
AcDbLine
 10
1672.785373297424
 20
1372.979672656556
 30
0.0
 11
1692.785373297424
 21
1372.979672656556
 31
0.0
  0
LINE
  5
5DF3
330
1F
100
AcDbEntity
  8
太線
100
AcDbLine
 10
1672.785373297424
 20
1412.979672656556
 30
0.0
 11
1692.785373297424
 21
1412.979672656556
 31
0.0
  0
LINE
  5
5DF4
330
1F
100
AcDbEntity
  8
太線
100
AcDbLine
 10
1642.785373297424
 20
1402.979672656556
 30
0.0
 11
1642.785373297424
 21
1382.979672656556
 31
0.0
  0
LINE
  5
5DF5
330
1F
100
AcDbEntity
  8
太線
100
AcDbLine
 10
1672.785373297424
 20
1402.979672656556
 30
0.0
 11
1672.785373297424
 21
1382.979672656556
 31
0.0
  0
LINE
  5
5DF6
330
1F
100
AcDbEntity
  8
太線
100
AcDbLine
 10
1642.785373297424
 20
1372.979672656556
 30
0.0
 11
1662.785373297424
 21
1372.979672656556
 31
0.0
  0
LINE
  5
5DF7
330
1F
100
AcDbEntity
  8
太線
100
AcDbLine
 10
1632.785373297424
 20
1392.979672656556
 30
0.0
 11
1652.785373297423
 21
1392.979672656556
 31
0.0
  0
LINE
  5
5DF8
330
1F
100
AcDbEntity
  8
太線
100
AcDbLine
 10
1642.785373297424
 20
1412.979672656556
 30
0.0
 11
1662.785373297424
 21
1412.979672656556
 31
0.0
  0
LINE
  5
5DF9
330
1F
100
AcDbEntity
  8
太線
100
AcDbLine
 10
1732.785373297424
 20
1402.979672656556
 30
0.0
 11
1732.785373297424
 21
1382.979672656556
 31
0.0
  0
LINE
  5
5DFA
330
1F
100
AcDbEntity
  8
太線
100
AcDbLine
 10
1702.785373297424
 20
1402.979672656556
 30
0.0
 11
1702.785373297424
 21
1382.979672656556
 31
0.0
  0
LINE
  5
5DFB
330
1F
100
AcDbEntity
  8
太線
100
AcDbLine
 10
1702.785373297424
 20
1372.979672656556
 30
0.0
 11
1722.785373297424
 21
1372.979672656556
 31
0.0
  0
LINE
  5
5DFC
330
1F
100
AcDbEntity
  8
太線
100
AcDbLine
 10
1692.785373297424
 20
1392.979672656556
 30
0.0
 11
1712.785373297424
 21
1392.979672656556
 31
0.0
  0
LINE
  5
5DFD
330
1F
100
AcDbEntity
  8
太線
100
AcDbLine
 10
1702.785373297424
 20
1412.979672656556
 30
0.0
 11
1722.785373297424
 21
1412.979672656556
 31
0.0
  0
LINE
  5
5DFE
330
1F
100
AcDbEntity
  8
太線
100
AcDbLine
 10
1742.785373297424
 20
1382.979672656556
 30
0.0
 11
1742.785373297424
 21
1362.979672656556
 31
0.0
  0
LINE
  5
5DFF
330
1F
100
AcDbEntity
  8
太線
100
AcDbLine
 10
1772.785373297423
 20
1382.979672656556
 30
0.0
 11
1772.785373297423
 21
1362.979672656556
 31
0.0
  0
LINE
  5
5E00
330
1F
100
AcDbEntity
  8
太線
100
AcDbLine
 10
1752.785373297424
 20
1352.979672656556
 30
0.0
 11
1760.69850161939
 21
1352.979672656556
 31
0.0
  0
LINE
  5
5E01
330
1F
100
AcDbEntity
  8
太線
100
AcDbLine
 10
1762.785373297424
 20
1362.979672656556
 30
0.0
 11
1762.785373297424
 21
1357.394181560071
 31
0.0
  0
LINE
  5
5E02
330
1F
100
AcDbEntity
  8
太線
100
AcDbLine
 10
1762.785373297424
 20
1402.979672656556
 30
0.0
 11
1762.785373297424
 21
1382.979672656556
 31
0.0
  0
LINE
  5
5E03
330
1F
100
AcDbEntity
  8
太線
100
AcDbLine
 10
1762.785373297424
 20
1372.979672656556
 30
0.0
 11
1782.785373297424
 21
1372.979672656556
 31
0.0
  0
LINE
  5
5E04
330
1F
100
AcDbEntity
  8
太線
100
AcDbLine
 10
1752.785373297424
 20
1392.979672656556
 30
0.0
 11
1772.785373297423
 21
1392.979672656556
 31
0.0
  0
LINE
  5
5E05
330
1F
100
AcDbEntity
  8
太線
100
AcDbLine
 10
1762.785373297424
 20
1412.979672656556
 30
0.0
 11
1782.785373297424
 21
1412.979672656556
 31
0.0
  0
LINE
  5
5E06
330
1F
100
AcDbEntity
  8
太線
100
AcDbLine
 10
1782.785373297424
 20
1392.979672656556
 30
0.0
 11
1787.11806877425
 21
1392.979672656556
 31
0.0
  0
LINE
  5
5E07
330
1F
100
AcDbEntity
  8
太線
100
AcDbLine
 10
1602.785373297423
 20
1432.979672656556
 30
0.0
 11
1622.785373297424
 21
1432.979672656556
 31
0.0
  0
LINE
  5
5E08
330
1F
100
AcDbEntity
  8
太線
100
AcDbLine
 10
1612.785373297424
 20
1452.979672656556
 30
0.0
 11
1632.785373297424
 21
1452.979672656556
 31
0.0
  0
LINE
  5
5E09
330
1F
100
AcDbEntity
  8
太線
100
AcDbLine
 10
1612.785373297424
 20
1442.979672656556
 30
0.0
 11
1612.785373297424
 21
1422.979672656556
 31
0.0
  0
LINE
  5
5E0A
330
1F
100
AcDbEntity
  8
太線
100
AcDbLine
 10
1584.610399958692
 20
1432.979672656556
 30
0.0
 11
1592.785373297424
 21
1432.979672656556
 31
0.0
  0
LINE
  5
5E0B
330
1F
100
AcDbEntity
  8
太線
100
AcDbLine
 10
1582.785373297424
 20
1429.395939853753
 30
0.0
 11
1582.785373297424
 21
1422.979672656556
 31
0.0
  0
LINE
  5
5E0C
330
1F
100
AcDbEntity
  8
太線
100
AcDbLine
 10
1722.785373297424
 20
1432.979672656556
 30
0.0
 11
1742.785373297424
 21
1432.979672656556
 31
0.0
  0
LINE
  5
5E0D
330
1F
100
AcDbEntity
  8
太線
100
AcDbLine
 10
1732.785373297424
 20
1452.979672656556
 30
0.0
 11
1752.785373297424
 21
1452.979672656556
 31
0.0
  0
LINE
  5
5E0E
330
1F
100
AcDbEntity
  8
太線
100
AcDbLine
 10
1712.785373297424
 20
1462.979672656556
 30
0.0
 11
1712.785373297424
 21
1442.979672656556
 31
0.0
  0
LINE
  5
5E0F
330
1F
100
AcDbEntity
  8
太線
100
AcDbLine
 10
1652.785373297423
 20
1462.979672656556
 30
0.0
 11
1652.785373297423
 21
1442.979672656556
 31
0.0
  0
LINE
  5
5E10
330
1F
100
AcDbEntity
  8
太線
100
AcDbLine
 10
1682.785373297424
 20
1462.979672656556
 30
0.0
 11
1682.785373297424
 21
1442.979672656556
 31
0.0
  0
LINE
  5
5E11
330
1F
100
AcDbEntity
  8
太線
100
AcDbLine
 10
1622.785373297424
 20
1462.979672656556
 30
0.0
 11
1622.785373297424
 21
1442.979672656556
 31
0.0
  0
LINE
  5
5E12
330
1F
100
AcDbEntity
  8
太線
100
AcDbLine
 10
1662.785373297424
 20
1432.979672656556
 30
0.0
 11
1682.785373297424
 21
1432.979672656556
 31
0.0
  0
LINE
  5
5E13
330
1F
100
AcDbEntity
  8
太線
100
AcDbLine
 10
1672.785373297424
 20
1452.979672656556
 30
0.0
 11
1692.785373297424
 21
1452.979672656556
 31
0.0
  0
LINE
  5
5E14
330
1F
100
AcDbEntity
  8
太線
100
AcDbLine
 10
1672.785373297424
 20
1442.979672656556
 30
0.0
 11
1672.785373297424
 21
1422.979672656556
 31
0.0
  0
LINE
  5
5E15
330
1F
100
AcDbEntity
  8
太線
100
AcDbLine
 10
1642.785373297424
 20
1442.979672656556
 30
0.0
 11
1642.785373297424
 21
1422.979672656556
 31
0.0
  0
LINE
  5
5E16
330
1F
100
AcDbEntity
  8
太線
100
AcDbLine
 10
1632.785373297424
 20
1432.979672656556
 30
0.0
 11
1652.785373297423
 21
1432.979672656556
 31
0.0
  0
LINE
  5
5E17
330
1F
100
AcDbEntity
  8
太線
100
AcDbLine
 10
1642.785373297424
 20
1452.979672656556
 30
0.0
 11
1662.785373297424
 21
1452.979672656556
 31
0.0
  0
LINE
  5
5E18
330
1F
100
AcDbEntity
  8
太線
100
AcDbLine
 10
1702.785373297424
 20
1442.979672656556
 30
0.0
 11
1702.785373297424
 21
1422.979672656556
 31
0.0
  0
LINE
  5
5E19
330
1F
100
AcDbEntity
  8
太線
100
AcDbLine
 10
1732.785373297424
 20
1442.979672656556
 30
0.0
 11
1732.785373297424
 21
1422.979672656556
 31
0.0
  0
LINE
  5
5E1A
330
1F
100
AcDbEntity
  8
太線
100
AcDbLine
 10
1692.785373297424
 20
1432.979672656556
 30
0.0
 11
1712.785373297424
 21
1432.979672656556
 31
0.0
  0
LINE
  5
5E1B
330
1F
100
AcDbEntity
  8
太線
100
AcDbLine
 10
1702.785373297424
 20
1452.979672656556
 30
0.0
 11
1722.785373297424
 21
1452.979672656556
 31
0.0
  0
LINE
  5
5E1C
330
1F
100
AcDbEntity
  8
太線
100
AcDbLine
 10
1642.785373297424
 20
1468.226940978296
 30
0.0
 11
1642.785373297424
 21
1462.979672656556
 31
0.0
  0
LINE
  5
5E1D
330
1F
100
AcDbEntity
  8
太線
100
AcDbLine
 10
1672.785373297424
 20
1468.248020388818
 30
0.0
 11
1672.785373297424
 21
1462.979672656556
 31
0.0
  0
LINE
  5
5E1E
330
1F
100
AcDbEntity
  8
太線
100
AcDbLine
 10
1702.785373297424
 20
1470.499898469785
 30
0.0
 11
1702.785373297424
 21
1462.979672656556
 31
0.0
  0
LINE
  5
5E1F
330
1F
100
AcDbEntity
  8
太線
100
AcDbLine
 10
1732.785373297424
 20
1468.01014446354
 30
0.0
 11
1732.785373297424
 21
1462.979672656556
 31
0.0
  0
LINE
  5
5E20
330
1F
100
AcDbEntity
  8
太線
100
AcDbLine
 10
1742.785373297424
 20
1462.979672656556
 30
0.0
 11
1742.785373297424
 21
1442.979672656556
 31
0.0
  0
LINE
  5
5E21
330
1F
100
AcDbEntity
  8
太線
100
AcDbLine
 10
1762.785373297424
 20
1442.979672656556
 30
0.0
 11
1762.785373297424
 21
1422.979672656556
 31
0.0
  0
LINE
  5
5E22
330
1F
100
AcDbEntity
  8
太線
100
AcDbLine
 10
1752.785373297424
 20
1432.979672656556
 30
0.0
 11
1772.785373297423
 21
1432.979672656556
 31
0.0
  0
TEXT
  5
5E24
330
1F
100
AcDbEntity
  8
文字
100
AcDbText
 10
1213.039049024837
 20
1584.669785520136
 30
0.0
 40
25.0
  1
階段ステップ縞鋼板　厚　2.5　ダクロダイズド鍍金
 51
15.0
  7
OKANO
100
AcDbText
  0
ARC
  5
5F91
330
1F
100
AcDbEntity
  8
太線
100
AcDbCircle
 10
685.4936536560207
 20
377.1546930070456
 30
0.0
 40
17.0
100
AcDbArc
 50
211.9999999999993
 51
297.767656366196
  0
ARC
  5
5F92
330
1F
100
AcDbEntity
  8
太線
100
AcDbCircle
 10
865.4267478478104
 20
177.1546930070455
 30
0.0
 40
17.0
100
AcDbArc
 50
211.9999999999993
 51
297.767656366196
  0
ARC
  5
5F93
330
1F
100
AcDbEntity
  8
太線
100
AcDbCircle
 10
1087.549250813649
 20
377.1546930070452
 30
0.0
 40
17.0
100
AcDbArc
 50
211.9999999999991
 51
297.7676563661962
  0
ARC
  5
5F94
330
1F
100
AcDbEntity
  8
太線
100
AcDbCircle
 10
365.4267478478104
 20
177.1546930070454
 30
0.0
 40
17.0
100
AcDbArc
 50
211.9999999999996
 51
297.767656366196
  0
ARC
  5
5F95
330
1F
100
AcDbEntity
  8
太線
100
AcDbCircle
 10
1265.42674784781
 20
177.1546930070449
 30
0.0
 40
17.0
100
AcDbArc
 50
211.9999999999996
 51
297.7676563661962
  0
ARC
  5
5F96
330
1F
100
AcDbEntity
  8
太線
100
AcDbCircle
 10
1421.683873149153
 20
377.154693007045
 30
0.0
 40
17.0
100
AcDbArc
 50
212.0000000000001
 51
297.767656366196
  0
ARC
  5
5F97
330
1F
100
AcDbEntity
  8
太線
100
AcDbCircle
 10
1665.42674784781
 20
177.1546930070461
 30
0.0
 40
17.0
100
AcDbArc
 50
211.9999999999994
 51
297.767656366196
  0
ARC
  5
5F98
330
1F
100
AcDbEntity
  8
太線
100
AcDbCircle
 10
1771.768634180105
 20
377.154693007046
 30
0.0
 40
17.0
100
AcDbArc
 50
211.9999999999993
 51
297.7676563661959
  0
LINE
  5
5F9B
330
1F
100
AcDbEntity
  8
太線
100
AcDbLine
 10
1647.859465896993
 20
173.187862342739
 30
0.0
 11
1651.00993021315
 21
168.1460655150815
 31
0.0
  0
XLINE
  5
6057
330
1F
100
AcDbEntity
  8
構築線
100
AcDbXline
 10
1089.92487068518
 20
737.289809811773
 30
0.0
 11
1.0
 21
0.0
 31
0.0
  0
XLINE
  5
605B
330
1F
100
AcDbEntity
  8
構築線
100
AcDbXline
 10
1089.92487068518
 20
742.2898098117729
 30
0.0
 11
1.0
 21
0.0
 31
0.0
  0
LINE
  5
605C
330
1F
100
AcDbEntity
  8
破線
100
AcDbLine
 10
1063.288596173077
 20
1516.927718863949
 30
0.0
 11
1973.288596173077
 21
1516.927718863949
 31
0.0
  0
LINE
  5
605D
330
1F
100
AcDbEntity
  8
破線
100
AcDbLine
 10
1973.288596173077
 20
1516.927718863949
 30
0.0
 11
1973.288596173077
 21
1271.927718863949
 31
0.0
  0
LINE
  5
605E
330
1F
100
AcDbEntity
  8
破線
100
AcDbLine
 10
1973.288596173077
 20
1271.927718863949
 30
0.0
 11
1063.288596173077
 21
1271.927718863949
 31
0.0
  0
LINE
  5
605F
330
1F
100
AcDbEntity
  8
破線
100
AcDbLine
 10
1063.288596173077
 20
1271.927718863949
 30
0.0
 11
1063.288596173077
 21
1516.927718863949
 31
0.0
  0
LINE
  5
60CA
330
1F
100
AcDbEntity
  8
太線
100
AcDbLine
 10
1058.288596173077
 20
1521.927718863949
 30
0.0
 11
1978.288596173077
 21
1521.927718863949
 31
0.0
  0
LINE
  5
60CB
330
1F
100
AcDbEntity
  8
太線
100
AcDbLine
 10
1058.288596173077
 20
1266.927718863949
 30
0.0
 11
1978.288596173077
 21
1266.927718863949
 31
0.0
  0
LINE
  5
60CC
330
1F
100
AcDbEntity
  8
寸法線
100
AcDbLine
 10
1978.288596173077
 20
1521.927718863949
 30
0.0
 11
1978.288596173077
 21
1266.927718863949
 31
0.0
  0
LINE
  5
613A
330
1F
100
AcDbEntity
  8
太線
100
AcDbLine
 10
1058.288596173077
 20
1521.927718863949
 30
0.0
 11
1058.288596173077
 21
1516.927718863949
 31
0.0
  0
DIMENSION
  5
613B
330
1F
100
AcDbEntity
  8
寸法線
100
AcDbDimension
  2
*D19
 10
1978.288596173077
 20
1548.174892496302
 30
0.0
 11
1518.288596173077
 21
1559.181694590436
 31
0.0
 70
    32
  1
910（620）
 71
     5
 42
919.9999999999997
  3
sunpo
100
AcDbAlignedDimension
 13
1058.288596173077
 23
1521.927718863949
 33
0.0
 14
1978.288596173077
 24
1521.927718863949
 34
0.0
100
AcDbRotatedDimension
1001
ACAD
1000
DSTYLE
1002
{
1070
   140
1040
20.0
1070
    40
1040
1.0
1002
}
  0
DIMENSION
  5
6148
330
1F
100
AcDbEntity
  8
寸法線
100
AcDbDimension
  2
*D20
 10
2005.579501648839
 20
1266.927718863949
 30
0.0
 11
1994.577533144902
 21
1395.42771886395
 31
0.0
 70
    32
  1
250
 71
     5
 42
257.0
  3
sunpo
100
AcDbAlignedDimension
 13
1978.288596173077
 23
1523.927718863949
 33
0.0
 14
1978.288596173077
 24
1266.927718863949
 34
0.0
 50
90.0
100
AcDbRotatedDimension
1001
ACAD
1000
DSTYLE
1002
{
1070
   140
1040
20.0
1070
    40
1040
1.0
1002
}
  0
CIRCLE
  5
61C2
330
1F
100
AcDbEntity
  8
太線
100
AcDbCircle
 10
1093.288596173077
 20
1381.927718863949
 30
0.0
 40
5.5
  0
CIRCLE
  5
61C3
330
1F
100
AcDbEntity
  8
太線
100
AcDbCircle
 10
1093.288596173077
 20
1486.92771886395
 30
0.0
 40
5.5
  0
CIRCLE
  5
61C5
330
1F
100
AcDbEntity
  8
太線
100
AcDbCircle
 10
1198.288596173077
 20
1486.92771886395
 30
0.0
 40
5.5
  0
CIRCLE
  5
61C8
330
1F
100
AcDbEntity
  8
太線
100
AcDbCircle
 10
1838.288596173077
 20
1486.92771886395
 30
0.0
 40
5.5
  0
XLINE
  5
61D7
330
1F
100
AcDbEntity
  8
構築線
100
AcDbXline
 10
1943.288596173077
 20
1035.405501215887
 30
0.0
 11
0.0
 21
-1.0
 31
0.0
  0
XLINE
  5
61D8
330
1F
100
AcDbEntity
  8
構築線
100
AcDbXline
 10
1093.288596173077
 20
1035.405501215887
 30
0.0
 11
0.0
 21
-1.0
 31
0.0
  0
XLINE
  5
61D9
330
1F
100
AcDbEntity
  8
構築線
100
AcDbXline
 10
633.9457189804143
 20
1099.007621558688
 30
0.0
 11
0.0
 21
-1.0
 31
0.0
  0
ARC
  5
61DC
330
1F
100
AcDbEntity
  8
太線
100
AcDbCircle
 10
805.9027275137955
 20
1346.42584170132
 30
0.0
 40
17.0
100
AcDbArc
 50
122.0000000000001
 51
207.767656366196
  0
LINE
  5
61DD
330
1F
100
AcDbEntity
  8
太線
100
AcDbLine
 10
931.8192646369425
 20
1340.613607386906
 30
0.0
 11
931.8192646369425
 21
1521.927718863949
 31
0.0
  0
LINE
  5
61DE
330
1F
100
AcDbEntity
  8
想像線
100
AcDbLine
 10
870.4653639138193
 20
1324.908194148764
 30
0.0
 11
839.6597056201322
 21
1348.906179387344
 31
0.0
  0
LINE
  5
61DF
330
1F
100
AcDbEntity
  8
太線
100
AcDbLine
 10
867.6234972408296
 20
1321.260155666617
 30
0.0
 11
836.8178389471427
 21
1345.258140905196
 31
0.0
  0
CIRCLE
  5
61E0
330
1F
100
AcDbEntity
  8
太線
100
AcDbCircle
 10
817.0144550212993
 20
1343.93579244063
 30
0.0
 40
5.5
  0
LINE
  5
61E1
330
1F
100
AcDbEntity
  8
太線
100
AcDbLine
 10
928.2839436856219
 20
1399.128566974608
 30
0.0
 11
843.6255120022501
 21
1290.45449737293
 31
0.0
  0
LINE
  5
61E2
330
1F
100
AcDbEntity
  8
太線
100
AcDbLine
 10
812.8198537085632
 20
1314.452482611509
 30
0.0
 11
897.4443279709216
 21
1423.082961857669
 31
0.0
  0
LINE
  5
61E3
330
1F
100
AcDbEntity
  8
想像線
100
AcDbLine
 10
901.4101343530398
 20
1364.631279843256
 30
0.0
 11
870.6044760593526
 21
1388.629265081835
 31
0.0
  0
LINE
  5
61E4
330
1F
100
AcDbEntity
  8
太線
100
AcDbLine
 10
904.2520010260295
 20
1368.279318325403
 30
0.0
 11
873.446342732342
 21
1392.277303563982
 31
0.0
  0
LINE
  5
61E5
330
1F
100
AcDbEntity
  8
太線
100
AcDbLine
 10
891.8192646369424
 20
1420.158485428909
 30
0.0
 11
857.4749329501651
 21
1398.697765146034
 31
0.0
  0
LINE
  5
61E6
330
1F
100
AcDbEntity
  8
太線
100
AcDbLine
 10
812.3512362541555
 20
1370.501350035846
 30
0.0
 11
796.894100021831
 21
1360.842659335979
 31
0.0
  0
CIRCLE
  5
61E7
330
1F
100
AcDbEntity
  8
太線
100
AcDbCircle
 10
870.5349199865855
 20
1356.7687296153
 30
0.0
 40
1.798348999999999
  0
LINE
  5
61E8
330
1F
100
AcDbEntity
  8
太線
100
AcDbLine
 10
891.8192646369424
 20
1521.927718863949
 30
0.0
 11
891.8192646369424
 21
1420.158485428909
 31
0.0
  0
LINE
  5
61E9
330
1F
100
AcDbEntity
  8
太線
100
AcDbLine
 10
891.8192646369424
 20
1521.927718863949
 30
0.0
 11
931.8192646369425
 21
1521.927718863949
 31
0.0
  0
ARC
  5
61EA
330
1F
100
AcDbEntity
  8
太線
100
AcDbCircle
 10
901.8192646369426
 20
1396.927718863949
 30
0.0
 40
125.3993620398445
100
AcDbArc
 50
85.42607874009913
 51
94.57392125990084
  0
ARC
  5
61EB
330
1F
100
AcDbEntity
  8
太線
100
AcDbCircle
 10
901.8192646369426
 20
1396.927718863949
 30
0.0
 40
125.3993620398445
100
AcDbArc
 50
85.42607874009913
 51
94.57392125990084
  0
CIRCLE
  5
61EC
330
1F
100
AcDbEntity
  8
太線
100
AcDbCircle
 10
901.8192646369426
 20
1396.927718863949
 30
0.0
 40
5.5
  0
ARC
  5
61ED
330
1F
100
AcDbEntity
  8
太線
100
AcDbCircle
 10
904.0057941351305
 20
1399.734516182811
 30
0.0
 40
6.165767999999999
100
AcDbArc
 50
322.0809723780619
 51
142.0809723780618
  0
LINE
  5
61EE
330
1F
100
AcDbEntity
  8
太線
100
AcDbLine
 10
899.1417428256012
 20
1403.523671746797
 30
0.0
 11
894.0895354069528
 21
1397.038270000758
 31
0.0
  0
LINE
  5
61EF
330
1F
100
AcDbEntity
  8
太線
100
AcDbLine
 10
900.3287302620938
 20
1423.441260439517
 30
0.0
 11
927.935278038279
 21
1401.935421489249
 31
0.0
  0
ARC
  5
61F0
330
1F
100
AcDbEntity
  8
太線
100
AcDbCircle
 10
899.0656784074317
 20
1421.819910003008
 30
0.0
 40
2.055255999999999
100
AcDbArc
 50
52.08097237806183
 51
142.0809723780618
  0
LINE
  5
61F1
330
1F
100
AcDbEntity
  8
太線
100
AcDbLine
 10
908.86984544466
 20
1395.945360618825
 30
0.0
 11
903.8176380260118
 21
1389.459958872786
 31
0.0
  0
ARC
  5
61F2
330
1F
100
AcDbEntity
  8
太線
100
AcDbCircle
 10
898.9535867164827
 20
1393.249114436772
 30
0.0
 40
6.165767999999999
100
AcDbArc
 50
142.0809723780618
 51
322.0809723780619
  0
ARC
  5
61F3
330
1F
100
AcDbEntity
  8
太線
100
AcDbCircle
 10
926.70618360463
 20
1400.357661408257
 30
0.0
 40
2.0
100
AcDbArc
 50
322.0809723780618
 51
52.08097237806198
  0
ARC
  5
61F4
330
1F
100
AcDbEntity
  8
太線
100
AcDbCircle
 10
901.8192646369426
 20
1396.927718863949
 30
0.0
 40
125.3993620398445
100
AcDbArc
 50
207.767656366196
 51
265.4260787400999
  0
ARC
  5
61F6
330
1F
100
AcDbEntity
  8
太線
100
AcDbCircle
 10
842.116253256689
 20
1320.288344793828
 30
0.0
 40
6.165767999999999
100
AcDbArc
 50
322.0809723780619
 51
142.0809723780618
  0
CIRCLE
  5
61F7
330
1F
100
AcDbEntity
  8
太線
100
AcDbCircle
 10
840.2531171043792
 20
1318.126643503275
 30
0.0
 40
5.5
  0
ARC
  5
61F8
330
1F
100
AcDbEntity
  8
太線
100
AcDbCircle
 10
837.0640458380407
 20
1313.802943047789
 30
0.0
 40
6.165767999999999
100
AcDbArc
 50
142.0809723780618
 51
322.0809723780619
  0
LINE
  5
61F9
330
1F
100
AcDbEntity
  8
太線
100
AcDbLine
 10
840.7411097110784
 20
1290.096198791082
 30
0.0
 11
813.1781522904111
 21
1311.568080320337
 31
0.0
  0
ARC
  5
61FA
330
1F
100
AcDbEntity
  8
太線
100
AcDbCircle
 10
814.4412041450728
 20
1313.189430756847
 30
0.0
 40
2.055255999999999
100
AcDbArc
 50
142.0809723780618
 51
232.0809723780619
  0
LINE
  5
61FB
330
1F
100
AcDbEntity
  8
太線
100
AcDbLine
 10
837.2522019471599
 20
1324.077500357814
 30
0.0
 11
832.1999945285115
 21
1317.592098611775
 31
0.0
  0
ARC
  5
61FC
330
1F
100
AcDbEntity
  8
太線
100
AcDbCircle
 10
827.5047820892018
 20
1330.014658228065
 30
0.0
 40
5.5
100
AcDbArc
 50
73.63918829111327
 51
210.5227564650096
  0
ARC
  5
61FD
330
1F
100
AcDbEntity
  8
太線
100
AcDbCircle
 10
854.8721083583552
 20
1308.632959578056
 30
0.0
 40
5.5
100
AcDbArc
 50
256.7928873306155
 51
27.36905742550778
  0
LINE
  5
61FE
330
1F
100
AcDbEntity
  8
太線
100
AcDbLine
 10
846.9803045662187
 20
1316.499189229842
 30
0.0
 11
841.9280971475705
 21
1310.013787483803
 31
0.0
  0
ARC
  5
61FF
330
1F
100
AcDbEntity
  8
太線
100
AcDbCircle
 10
842.0041615657403
 20
1291.717549227592
 30
0.0
 40
2.055255999999999
100
AcDbArc
 50
232.0809723780619
 51
322.0809723780619
  0
LINE
  5
6202
330
1F
100
AcDbEntity
  8
太線
100
AcDbLine
 10
931.8192646369425
 20
1340.613607386906
 30
0.0
 11
931.8192646369425
 21
1277.162696633278
 31
0.0
  0
LINE
  5
6203
330
1F
100
AcDbEntity
  8
太線
100
AcDbLine
 10
812.3512362541555
 20
1370.501350035846
 30
0.0
 11
857.4749329501651
 21
1398.697765146034
 31
0.0
  0
DIMENSION
  5
6205
330
1F
100
AcDbEntity
  8
寸法線
100
AcDbDimension
  2
*D21
 10
1115.666364276656
 20
1486.92771886395
 30
0.0
 11
1107.166364276656
 21
1504.42771886395
 31
0.0
 70
    32
 71
     5
 42
35.0
  3
sunpo
100
AcDbAlignedDimension
 13
1093.288596173077
 23
1521.927718863949
 33
0.0
 14
1093.288596173077
 24
1486.92771886395
 34
0.0
 50
90.0
100
AcDbRotatedDimension
1001
ACAD
1000
DSTYLE
1002
{
1070
   140
1040
15.0
1070
    40
1040
1.0
1002
}
  0
DIMENSION
  5
6212
330
1F
100
AcDbEntity
  8
寸法線
100
AcDbDimension
  2
*D22
 10
1115.666364276656
 20
1381.927718863949
 30
0.0
 11
1107.166364276656
 21
1434.42771886395
 31
0.0
 70
    32
 71
     5
 42
105.0
  3
sunpo
100
AcDbAlignedDimension
 13
1093.288596173077
 23
1486.92771886395
 33
0.0
 14
1093.288596173077
 24
1381.927718863949
 34
0.0
 50
90.0
100
AcDbRotatedDimension
1001
ACAD
1000
DSTYLE
1002
{
1070
   140
1040
15.0
1070
    40
1040
1.0
1070
   279
1070
     1
1002
}
  0
DIMENSION
  5
621F
330
1F
100
AcDbEntity
  8
寸法線
100
AcDbDimension
  2
*D23
 10
1093.288596173077
 20
1461.927718863949
 30
0.0
 11
1075.788596173077
 21
1470.427718863949
 31
0.0
 70
    32
 71
     5
 42
35.0
  3
sunpo
100
AcDbAlignedDimension
 13
1058.288596173077
 23
1486.92771886395
 33
0.0
 14
1093.288596173077
 24
1486.92771886395
 34
0.0
100
AcDbRotatedDimension
1001
ACAD
1000
DSTYLE
1002
{
1070
   140
1040
15.0
1070
    40
1040
1.0
1002
}
  0
DIMENSION
  5
622C
330
1F
100
AcDbEntity
  8
寸法線
100
AcDbDimension
  2
*D24
 10
1198.288596173077
 20
1461.927718863949
 30
0.0
 11
1145.788596173077
 21
1470.427718863949
 31
0.0
 70
    32
 71
     5
 42
105.0
  3
sunpo
100
AcDbAlignedDimension
 13
1093.288596173077
 23
1486.92771886395
 33
0.0
 14
1198.288596173077
 24
1486.92771886395
 34
0.0
100
AcDbRotatedDimension
1001
ACAD
1000
DSTYLE
1002
{
1070
   140
1040
15.0
1070
    40
1040
1.0
1070
   279
1070
     1
1002
}
  0
DIMENSION
  5
62A7
330
1F
100
AcDbEntity
  8
寸法線
100
AcDbDimension
  2
*D25
 10
1088.865950666791
 20
1385.197307022378
 30
0.0
 11
1129.38083387835
 21
1355.245328687153
 31
0.0
 70
   163
 71
     5
 42
11.00000000000022
  3
sunpo
100
AcDbDiametricDimension
 15
1097.711241679361
 25
1378.65813070552
 35
0.0
 40
0.0
1001
ACAD
1000
DSTYLE
1002
{
1070
   140
1040
15.0
1070
    40
1040
1.0
1070
   288
1070
     1
1002
}
  0
XLINE
  5
62BB
330
1F
100
AcDbEntity
  8
構築線
100
AcDbXline
 10
931.8192646369425
 20
1521.927718863949
 30
0.0
 11
1.0
 21
0.0
 31
0.0
  0
XLINE
  5
62BC
330
1F
100
AcDbEntity
  8
構築線
100
AcDbXline
 10
931.8192646369425
 20
1521.927718863949
 30
0.0
 11
0.0
 21
1.0
 31
0.0
  0
XLINE
  5
62BD
330
1F
100
AcDbEntity
  8
構築線
100
AcDbXline
 10
931.8192646369425
 20
1271.927718863949
 30
0.0
 11
1.0
 21
0.0
 31
0.0
  0
XLINE
  5
62BE
330
1F
100
AcDbEntity
  8
構築線
100
AcDbXline
 10
931.8192646369425
 20
1516.927718863949
 30
0.0
 11
1.0
 21
0.0
 31
0.0
  0
XLINE
  5
62BF
330
1F
100
AcDbEntity
  8
構築線
100
AcDbXline
 10
926.8192646369426
 20
1521.927718863949
 30
0.0
 11
0.0
 21
1.0
 31
0.0
  0
XLINE
  5
62C1
330
1F
100
AcDbEntity
  8
構築線
100
AcDbXline
 10
931.8192646369425
 20
1276.92771886395
 30
0.0
 11
1.0
 21
0.0
 31
0.0
  0
LINE
  5
62C2
330
1F
100
AcDbEntity
  8
破線
100
AcDbLine
 10
926.8192646369426
 20
1276.92771886395
 30
0.0
 11
926.8192646369426
 21
1516.927718863949
 31
0.0
  0
LINE
  5
62C3
330
1F
100
AcDbEntity
  8
破線
100
AcDbLine
 10
926.8192646369426
 20
1516.927718863949
 30
0.0
 11
891.8192646369424
 21
1516.927718863949
 31
0.0
  0
LINE
  5
62C7
330
1F
100
AcDbEntity
  8
構築線
100
AcDbLine
 10
891.8192646369417
 20
1271.927718863949
 30
0.0
 11
891.8192646369417
 21
1281.254579512084
 31
0.0
  0
LINE
  5
62C8
330
1F
100
AcDbEntity
  8
破線
100
AcDbLine
 10
926.8192646369426
 20
1276.92771886395
 30
0.0
 11
891.8192646369417
 21
1276.92771886395
 31
0.0
  0
LINE
  5
62C9
330
1F
100
AcDbEntity
  8
破線
100
AcDbLine
 10
891.8192646369417
 20
1276.92771886395
 30
0.0
 11
891.8192646369417
 21
1271.927718863949
 31
0.0
  0
LINE
  5
62CA
330
1F
100
AcDbEntity
  8
太線
100
AcDbLine
 10
891.8192646369417
 20
1271.927718863949
 30
0.0
 11
931.8192646369425
 21
1271.927718863949
 31
0.0
  0
LINE
  5
62CB
330
1F
100
AcDbEntity
  8
太線
100
AcDbLine
 10
931.8192646369425
 20
1271.927718863949
 30
0.0
 11
931.8192646369425
 21
1277.162696633278
 31
0.0
  0
TEXT
  5
62CC
330
1F
100
AcDbEntity
  8
文字
100
AcDbText
 10
662.0926135387926
 20
1034.575690808517
 30
0.0
 40
25.0
  1
1　18-1U 2個
 51
15.0
  7
OKANO
100
AcDbText
  0
TEXT
  5
62CD
330
1F
100
AcDbEntity
  8
文字
100
AcDbText
 10
662.0926135387926
 20
985.1188793677666
 30
0.0
 40
25.0
  1
2　根角ボルト　（４セット　M10-30/1  B-1/W-1/SW1/N1 ）
 51
15.0
  7
OKANO
100
AcDbText
  0
TEXT
  5
62CE
330
1F
100
AcDbEntity
  8
文字
100
AcDbText
 10
662.0926135387926
 20
1088.978181003568
 30
0.0
 40
25.0
  1
組込みセット
 51
15.0
  7
OKANO
100
AcDbText
  0
TEXT
  5
62DE
330
1F
100
AcDbEntity
  8
文字
100
AcDbText
 10
1695.034104806951
 20
867.4596753472673
 30
0.0
 40
18.71999999999999
  1
F-999-2010120625Auto CAD
 51
15.0
  7
OKANO
100
AcDbText
  0
LINE
  5
62DF
330
1F
100
AcDbEntity
  8
太線
100
AcDbLine
 10
1588.087414898657
 20
863.868525510589
 30
0.0
 11
2009.287414898657
 21
863.868525510589
 31
0.0
  0
LWPOLYLINE
  5
62E0
330
1F
100
AcDbEntity
  8
太線
100
AcDbPolyline
 90
        4
 70
     1
 43
0.0
 10
1588.087414898657
 20
896.6285255105891
 10
2009.287414898657
 20
896.6285255105891
 10
2009.287414898657
 20
798.3485255105891
 10
1588.087414898657
 20
798.3485255105891
  0
TEXT
  5
62E1
330
1F
100
AcDbEntity
  8
文字
100
AcDbText
 10
1693.773197516689
 20
832.2880946454811
 30
0.0
 40
18.71999999999999
  1
ＫＰ-910×250　2.5ｔ ダクロ
 51
15.0
  7
OKANO
100
AcDbText
  0
TEXT
  5
62E2
330
1F
100
AcDbEntity
  8
文字
100
AcDbText
 10
1603.189710806281
 20
831.9138294950715
 30
0.0
 40
9.359999999999999
  1
CHECK
 51
15.0
  7
OKANO
100
AcDbText
  0
LINE
  5
62E3
330
1F
100
AcDbEntity
  8
太線
100
AcDbLine
 10
1681.687414898657
 20
896.6285255105891
 30
0.0
 11
1681.687414898657
 21
798.3485255105891
 31
0.0
  0
TEXT
  5
62E4
330
1F
100
AcDbEntity
  8
文字
100
AcDbText
 10
1724.238525552959
 20
809.925426468845
 30
0.0
 40
18.71999999999999
  1
joint kogyo T.okano
 51
15.0
  7
OKANO
100
AcDbText
  0
TEXT
  5
62E5
330
1F
100
AcDbEntity
  8
文字
100
AcDbText
 10
1603.189710806281
 20
804.9280618308298
 30
0.0
 40
9.359999999999999
  1
ISSUED
 51
15.0
  7
OKANO
100
AcDbText
  0
TEXT
  5
62E6
330
1F
100
AcDbEntity
  8
文字
100
AcDbText
 10
1604.190117094594
 20
817.9212089689753
 30
0.0
 40
9.359999999999999
  1
APPR
 51
15.0
  7
OKANO
100
AcDbText
  0
TEXT
  5
62E7
330
1F
100
AcDbEntity
  8
文字
100
AcDbText
 10
1596.186888154707
 20
870.8932686077732
 30
0.0
 40
9.359999999999999
  1
FILM NAME
 51
15.0
  7
OKANO
100
AcDbText
  0
TEXT
  5
62E8
330
1F
100
AcDbEntity
  8
文字
100
AcDbText
 10
1601.188906776302
 20
845.9064477194315
 30
0.0
 40
9.359999999999999
  1
DRAWN
 51
15.0
  7
OKANO
100
AcDbText
  0
XLINE
  5
630D
330
1F
100
AcDbEntity
  8
構築線
100
AcDbXline
 10
1518.288596173077
 20
1035.405501215887
 30
0.0
 11
0.0
 21
-1.0
 31
0.0
  0
XLINE
  5
630E
330
1F
100
AcDbEntity
  8
構築線
100
AcDbXline
 10
1075.59439102452
 20
1170.28153250755
 30
0.0
 11
1.0
 21
0.0
 31
0.0
  0
XLINE
  5
6312
330
1F
100
AcDbEntity
  8
構築線
100
AcDbXline
 10
1515.788596173077
 20
1035.405501215887
 30
0.0
 11
0.0
 21
-1.0
 31
0.0
  0
XLINE
  5
6313
330
1F
100
AcDbEntity
  8
構築線
100
AcDbXline
 10
1520.788596173077
 20
1035.405501215887
 30
0.0
 11
0.0
 21
-1.0
 31
0.0
  0
LINE
  5
6314
330
1F
100
AcDbEntity
  8
細線
100
AcDbLine
 10
1515.788596173077
 20
1271.927718863949
 30
0.0
 11
1515.788596173077
 21
1516.927718863949
 31
0.0
  0
LINE
  5
6315
330
1F
100
AcDbEntity
  8
細線
100
AcDbLine
 10
1520.788596173077
 20
1516.927718863949
 30
0.0
 11
1520.788596173077
 21
1271.927718863949
 31
0.0
  0
XLINE
  5
6317
330
1F
100
AcDbEntity
  8
構築線
100
AcDbXline
 10
1058.288596173077
 20
1266.927718863949
 30
0.0
 11
0.0
 21
-1.0
 31
0.0
  0
XLINE
  5
6318
330
1F
100
AcDbEntity
  8
構築線
100
AcDbXline
 10
1063.288596173077
 20
1271.927718863949
 30
0.0
 11
0.0
 21
-1.0
 31
0.0
  0
XLINE
  5
6319
330
1F
100
AcDbEntity
  8
構築線
100
AcDbXline
 10
1978.288596173077
 20
1266.927718863949
 30
0.0
 11
0.0
 21
-1.0
 31
0.0
  0
XLINE
  5
631A
330
1F
100
AcDbEntity
  8
構築線
100
AcDbXline
 10
1973.288596173077
 20
1271.927718863949
 30
0.0
 11
0.0
 21
-1.0
 31
0.0
  0
XLINE
  5
6328
330
1F
100
AcDbEntity
  8
構築線
100
AcDbXline
 10
1075.59439102452
 20
1210.28153250755
 30
0.0
 11
1.0
 21
0.0
 31
0.0
  0
LINE
  5
6329
330
1F
100
AcDbEntity
  8
太線
100
AcDbLine
 10
1058.288596173077
 20
1170.28153250755
 30
0.0
 11
1058.288596173077
 21
1210.28153250755
 31
0.0
  0
LINE
  5
632A
330
1F
100
AcDbEntity
  8
太線
100
AcDbLine
 10
1058.288596173077
 20
1210.28153250755
 30
0.0
 11
1978.288596173077
 21
1210.28153250755
 31
0.0
  0
LINE
  5
632B
330
1F
100
AcDbEntity
  8
太線
100
AcDbLine
 10
1978.288596173077
 20
1210.28153250755
 30
0.0
 11
1978.288596173077
 21
1170.28153250755
 31
0.0
  0
LINE
  5
632C
330
1F
100
AcDbEntity
  8
太線
100
AcDbLine
 10
1063.288596173077
 20
1170.28153250755
 30
0.0
 11
1973.288596173077
 21
1170.28153250755
 31
0.0
  0
LINE
  5
632E
330
1F
100
AcDbEntity
  8
細線
100
AcDbLine
 10
1063.288596173077
 20
1170.28153250755
 30
0.0
 11
1063.288596173077
 21
1205.28153250755
 31
0.0
  0
LINE
  5
632F
330
1F
100
AcDbEntity
  8
細線
100
AcDbLine
 10
1063.288596173077
 20
1205.28153250755
 30
0.0
 11
1973.288596173077
 21
1205.28153250755
 31
0.0
  0
LINE
  5
6330
330
1F
100
AcDbEntity
  8
細線
100
AcDbLine
 10
1973.288596173077
 20
1205.28153250755
 30
0.0
 11
1973.288596173077
 21
1170.28153250755
 31
0.0
  0
DIMENSION
  5
6331
330
1F
100
AcDbEntity
  8
細線
100
AcDbDimension
  2
*D26
 10
932.3765920571986
 20
1632.246806268195
 30
0.0
 11
860.4369511647218
 21
1635.746806268195
 31
0.0
 70
    32
 71
     5
 42
143.8792817849534
  3
sunpo
100
AcDbAlignedDimension
 13
788.4973102722451
 23
1349.881555809373
 33
0.0
 14
932.3765920571986
 24
1349.881555809373
 34
0.0
100
AcDbRotatedDimension
1001
ACAD
1000
DSTYLE
1002
{
1070
    40
1040
1.0
1002
}
  0
XLINE
  5
633F
330
1F
100
AcDbEntity
  8
構築線
100
AcDbXline
 10
1075.59439102452
 20
1066.28153250755
 30
0.0
 11
1.0
 21
0.0
 31
0.0
  0
LINE
  5
6340
330
1F
100
AcDbEntity
  8
太線
100
AcDbLine
 10
1973.288596173077
 20
1170.28153250755
 30
0.0
 11
1973.288596173077
 21
1066.28153250755
 31
0.0
  0
LINE
  5
6341
330
1F
100
AcDbEntity
  8
太線
100
AcDbLine
 10
1973.288596173077
 20
1066.28153250755
 30
0.0
 11
1978.288596173077
 21
1066.28153250755
 31
0.0
  0
LINE
  5
6342
330
1F
100
AcDbEntity
  8
太線
100
AcDbLine
 10
1978.288596173077
 20
1066.28153250755
 30
0.0
 11
1978.288596173077
 21
1170.28153250755
 31
0.0
  0
LINE
  5
6343
330
1F
100
AcDbEntity
  8
太線
100
AcDbLine
 10
1058.288596173077
 20
1170.28153250755
 30
0.0
 11
1058.288596173077
 21
1066.28153250755
 31
0.0
  0
LINE
  5
6344
330
1F
100
AcDbEntity
  8
太線
100
AcDbLine
 10
1058.288596173077
 20
1066.28153250755
 30
0.0
 11
1063.288596173077
 21
1066.28153250755
 31
0.0
  0
LINE
  5
6345
330
1F
100
AcDbEntity
  8
太線
100
AcDbLine
 10
1063.288596173077
 20
1066.28153250755
 30
0.0
 11
1063.288596173077
 21
1170.28153250755
 31
0.0
  0
LINE
  5
6346
330
1F
100
AcDbEntity
  8
細線
100
AcDbLine
 10
1520.788596173077
 20
1205.28153250755
 30
0.0
 11
1520.788596173077
 21
1170.28153250755
 31
0.0
  0
LINE
  5
6347
330
1F
100
AcDbEntity
  8
細線
100
AcDbLine
 10
1515.788596173077
 20
1205.28153250755
 30
0.0
 11
1515.788596173077
 21
1170.28153250755
 31
0.0
  0
DIMENSION
  5
6348
330
1F
100
AcDbEntity
  8
寸法線
100
AcDbDimension
  2
*D27
 10
1518.288596173077
 20
1225.961250147737
 30
0.0
 11
1288.288596173077
 21
1236.961250147737
 31
0.0
 70
    32
  1
460（310）
 71
     5
 42
460.0
  3
sunpo
100
AcDbAlignedDimension
 13
1058.288596173077
 23
1210.28153250755
 33
0.0
 14
1518.288596173077
 24
1210.28153250755
 34
0.0
100
AcDbRotatedDimension
1001
ACAD
1000
DSTYLE
1002
{
1070
   140
1040
20.0
1070
    40
1040
1.0
1002
}
  0
TEXT
  5
6377
330
1F
100
AcDbEntity
  8
文字
100
AcDbText
 10
658.5066384822839
 20
863.0978018067867
 30
0.0
 40
25.0
  1
出荷時のサドル取付角度52度
 51
15.0
  7
OKANO
100
AcDbText
  0
TEXT
  5
6385
330
1F
100
AcDbEntity
  8
文字
100
AcDbText
 10
662.5438851443605
 20
925.7523260358235
 30
0.0
 40
25.0
  1
3 角度調整　３２･４２･５２･６２　４角度
 51
15.0
  7
OKANO
100
AcDbText
  0
DIMENSION
  5
6387
330
1F
100
AcDbEntity
  8
寸法線
100
AcDbDimension
  2
*D28
 10
2010.353708461359
 20
1210.28153250755
 30
0.0
 11
1999.353708461359
 21
1190.28153250755
 31
0.0
 70
    32
 71
     5
 42
40.0
  3
sunpo
100
AcDbAlignedDimension
 13
1973.288596173077
 23
1170.28153250755
 33
0.0
 14
1978.288596173077
 24
1210.28153250755
 34
0.0
 50
90.0
100
AcDbRotatedDimension
1001
ACAD
1000
DSTYLE
1002
{
1070
   140
1040
20.0
1070
    40
1040
1.0
1002
}
  0
DIMENSION
  5
63A7
330
1F
100
AcDbEntity
  8
寸法線
100
AcDbDimension
  2
*D29
 10
1029.86750589135
 20
1210.28153250755
 30
0.0
 11
1018.86750589135
 21
1138.28153250755
 31
0.0
 70
    32
  1
140
 71
     5
 42
144.0
  3
sunpo
100
AcDbAlignedDimension
 13
1058.288596173077
 23
1066.28153250755
 33
0.0
 14
1058.288596173077
 24
1210.28153250755
 34
0.0
 50
90.0
100
AcDbRotatedDimension
1001
ACAD
1000
DSTYLE
1002
{
1070
   140
1040
20.0
1070
    40
1040
1.0
1002
}
  0
VIEWPORT
  5
2E
330
1B
100
AcDbEntity
 67
     1
  8
0
100
AcDbViewport
 10
248.5510210717075
 20
155.4233123462063
 30
0.0
 40
701.7361974527757
 41
356.4139590856036
 68
     2
 69
     1
 12
248.5510210717075
 22
155.4233123462063
 13
0.0
 23
0.0
 14
10.0
 24
10.0
 15
10.0
 25
10.0
 16
0.0
 26
0.0
 36
1.0
 17
0.0
 27
0.0
 37
0.0
 42
50.0
 43
0.0
 44
0.0
 45
356.4139590856036
 50
0.0
 51
0.0
 72
   100
 90
    32800
  1

281
     0
 71
     1
 74
     0
110
0.0
120
0.0
130
0.0
111
1.0
121
0.0
131
0.0
112
0.0
122
1.0
132
0.0
 79
     0
146
0.0
  0
VIEWPORT
  5
30
330
1B
100
AcDbEntity
 67
     1
  8
70-0-CON
100
AcDbViewport
 10
141.8594093064315
 20
100.3480256368386
 30
0.0
 40
261.6199023344245
 41
192.6196987113174
 68
     1
 69
     2
 12
1351.233123495717
 22
1311.531564350463
 13
0.0
 23
0.0
 14
5.0
 24
5.0
 15
10.0
 25
10.0
 16
0.0
 26
0.0
 36
1.0
 17
0.0
 27
0.0
 37
0.0
 42
50.0
 43
0.0
 44
0.0
 45
1137.975309623306
 50
0.0
 51
0.0
 72
   100
 90
    32864
  1

281
     0
 71
     1
 74
     0
110
0.0
120
0.0
130
0.0
111
1.0
121
0.0
131
0.0
112
0.0
122
1.0
132
0.0
 79
     0
146
0.0
  0
LWPOLYLINE
  5
45
330
1B
100
AcDbEntity
 67
     1
  8
50-0-CON
100
AcDbPolyline
 90
        4
 70
     1
 43
0.0
 10
11.04945813921926
 20
4.038176281179858
 10
272.2125713060605
 20
4.033520706629644
 10
273.4987754093466
 20
195.9297862125246
 10
11.04945813921926
 20
196.6578749924973
  0
LINE
  5
4A
330
1B
100
AcDbEntity
 67
     1
  8
50-0-CON
100
AcDbLine
 10
10.38768783662635
 20
100.3480256368386
 30
0.0
 11
-4.391850629656119
 21
100.3480256368386
 31
0.0
  0
LINE
  5
4B
330
1B
100
AcDbEntity
 67
     1
  8
50-0-CON
100
AcDbLine
 10
141.8594093064315
 20
197.098652626247
 30
0.0
 11
141.8594093064315
 21
202.387980773708
 31
0.0
  0
LINE
  5
4C
330
1B
100
AcDbEntity
 67
     1
  8
50-0-CON
100
AcDbLine
 10
272.4487699456857
 20
100.7888032705883
 30
0.0
 11
278.8458837249377
 21
100.7888032705883
 31
0.0
  0
LINE
  5
4D
330
1B
100
AcDbEntity
 67
     1
  8
50-0-CON
100
AcDbLine
 10
140.9770484758805
 20
4.038176281179858
 30
0.0
 11
140.9770484758805
 21
-3.455038652015446
 31
0.0
  0
ENDSEC
  0
SECTION
  2
OBJECTS
  0
DICTIONARY
  5
C
330
0
100
AcDbDictionary
281
     1
  3
ACAD_GROUP
350
D
  3
ACAD_LAYOUT
350
1A
  3
ACAD_MLINESTYLE
350
17
  3
ACAD_PLOTSETTINGS
350
19
  3
ACAD_PLOTSTYLENAME
350
E
  3
AcadDim
350
13D0
  3
AcDbVariableDictionary
350
6AD
  3
DWGPROPS
350
30F
  0
DICTIONARY
  5
D
102
{ACAD_REACTORS
330
C
102
}
330
C
100
AcDbDictionary
281
     1
  0
DICTIONARY
  5
1A
102
{ACAD_REACTORS
330
C
102
}
330
C
100
AcDbDictionary
281
     1
  3
A4
350
1E
  3
Model
350
22
  0
DICTIONARY
  5
17
102
{ACAD_REACTORS
330
C
102
}
330
C
100
AcDbDictionary
281
     1
  3
Standard
350
18
  0
DICTIONARY
  5
19
102
{ACAD_REACTORS
330
C
102
}
330
C
100
AcDbDictionary
281
     1
  0
ACDBDICTIONARYWDFLT
  5
E
102
{ACAD_REACTORS
330
C
102
}
330
C
100
AcDbDictionary
281
     1
  3
Normal
350
F
100
AcDbDictionaryWithDefault
340
F
  0
XRECORD
  5
13D0
102
{ACAD_REACTORS
330
C
102
}
330
C
100
AcDbXrecord
280
     1
 90
   990106
  3

 60
     0
 61
     0
 62
     1
 63
     3
 64
     0
 65
     0
 66
     0
 67
     3
 68
     1
 69
     0
 70
     0
 71
     0
 72
     0
 40
0.0
170
     0
  0
DICTIONARY
  5
6AD
102
{ACAD_REACTORS
330
C
102
}
330
C
100
AcDbDictionary
281
     1
  3
SORTENTS
350
6AE
  0
XRECORD
  5
30F
102
{ACAD_REACTORS
330
C
102
}
330
C
100
AcDbXrecord
280
     1
  1
DWGPROPS COOKIE
  2

  3

  4

  6

  7

  8

  9

300
=
301
=
302
=
303
=
304
=
305
=
306
=
307
=
308
=
309
=
 40
0.3303803125
 41
2452362.482225463
 42
2452370.969861285
  1

 90
        0
  0
LAYOUT
  5
1E
102
{ACAD_REACTORS
330
1A
102
}
330
1A
100
AcDbPlotSettings
  1

  2
EPSON PM-A900
  4
A4
  6

 40
3.757083177566528
 41
3.757076978683471
 42
3.757080078125
 43
3.757080078125
 44
209.9733276367187
 45
296.9683227539062
 46
0.0
 47
0.0
 48
0.0
 49
0.0
140
0.0
141
0.0
142
1.0
143
1.0
 70
   688
 72
     1
 73
     1
 74
     5
  7
joint.ctb
 75
    16
147
1.0
148
0.0
149
0.0
100
AcDbLayout
  1
A4
 70
     1
 71
     1
 10
-3.757080078125
 20
-3.757083177566528
 11
293.2112426757812
 21
206.2162444591522
 12
0.0
 22
0.0
 32
0.0
 14
-4.400932062405672
 24
-3.459116387827521
 34
-0.0015258207003583
 15
278.8478616361952
 25
202.393946056399
 35
0.0000000349246037
146
0.0
 13
0.0
 23
0.0
 33
0.0
 16
1.0
 26
0.0
 36
0.0
 17
0.0
 27
1.0
 37
0.0
 76
     0
330
1B
331
30
  0
LAYOUT
  5
22
102
{ACAD_REACTORS
330
1A
102
}
330
1A
100
AcDbPlotSettings
  1

  2
EPSON PM-920C
  4
A4
  6

 40
3.757083177566528
 41
14.7637300491333
 42
3.757080078125
 43
3.757080078125
 44
209.9733276367187
 45
296.9683227539062
 46
0.0
 47
0.0
 48
0.0
 49
0.0
140
0.0
141
0.0
142
1.0
143
1.0
 70
 11952
 72
     1
 73
     1
 74
     0
  7

 75
     0
147
1.0
148
-45.64199848979289
149
-84.48806419330498
100
AcDbLayout
  1
Model
 70
     1
 71
     0
 10
0.0
 20
0.0
 11
12.0
 21
9.0
 12
0.0
 22
0.0
 32
0.0
 14
0.0
 24
0.0
 34
0.0
 15
0.0
 25
0.0
 35
0.0
146
0.0
 13
0.0
 23
0.0
 33
0.0
 16
1.0
 26
0.0
 36
0.0
 17
0.0
 27
1.0
 37
0.0
 76
     0
330
1F
  0
MLINESTYLE
  5
18
102
{ACAD_REACTORS
330
17
102
}
330
17
100
AcDbMlineStyle
  2
STANDARD
 70
     0
  3

 62
   256
 51
90.0
 52
90.0
 71
     2
 49
0.5
 62
   256
  6
BYLAYER
 49
-0.5
 62
   256
  6
BYLAYER
  0
ACDBPLACEHOLDER
  5
F
102
{ACAD_REACTORS
330
E
102
}
330
E
  0
DICTIONARYVAR
  5
6AE
102
{ACAD_REACTORS
330
6AD
102
}
330
6AD
100
DictionaryVariables
280
     0
  1
96
  0
ENDSEC
  0
EOF
