  0
SECTION
  2
HEADER
  9
$ACADVER
  1
AC1015
  9
$ACADMAINTVER
 70
     6
  9
$DWGCODEPAGE
  3
ANSI_932
  9
$INSBASE
 10
0.0
 20
0.0
 30
0.0
  9
$EXTMIN
 10
377.6147908447569
 20
-224.860676326826
 30
0.0
  9
$EXTMAX
 10
856.5474633619926
 20
158.1204547173862
 30
0.0
  9
$LIMMIN
 10
0.0
 20
0.0
  9
$LIMMAX
 10
420.0
 20
297.0
  9
$ORTHOMODE
 70
     0
  9
$REGENMODE
 70
     1
  9
$FILLMODE
 70
     1
  9
$QTEXTMODE
 70
     0
  9
$MIRRTEXT
 70
     1
  9
$LTSCALE
 40
1.0
  9
$ATTMODE
 70
     1
  9
$TEXTSIZE
 40
5.0
  9
$TRACEWID
 40
1.0
  9
$TEXTSTYLE
  7
OKANO
  9
$CLAYER
  8
太線
  9
$CELTYPE
  6
ByLayer
  9
$CECOLOR
 62
   256
  9
$CELTSCALE
 40
1.0
  9
$DISPSILH
 70
     0
  9
$DIMSCALE
 40
0.0
  9
$DIMASZ
 40
3.0
  9
$DIMEXO
 40
2.0
  9
$DIMDLI
 40
8.0
  9
$DIMRND
 40
0.0
  9
$DIMDLE
 40
0.0
  9
$DIMEXE
 40
3.0
  9
$DIMTP
 40
0.0
  9
$DIMTM
 40
0.0
  9
$DIMTXT
 40
5.0
  9
$DIMCEN
 40
2.5
  9
$DIMTSZ
 40
0.0
  9
$DIMTOL
 70
     0
  9
$DIMLIM
 70
     0
  9
$DIMTIH
 70
     0
  9
$DIMTOH
 70
     0
  9
$DIMSE1
 70
     0
  9
$DIMSE2
 70
     0
  9
$DIMTAD
 70
     1
  9
$DIMZIN
 70
     8
  9
$DIMBLK
  1
Closed
  9
$DIMASO
 70
     1
  9
$DIMSHO
 70
     1
  9
$DIMPOST
  1

  9
$DIMAPOST
  1

  9
$DIMALT
 70
     0
  9
$DIMALTD
 70
     3
  9
$DIMALTF
 40
0.03937007874016
  9
$DIMLFAC
 40
1.0
  9
$DIMTOFL
 70
     1
  9
$DIMTVP
 40
0.0
  9
$DIMTIX
 70
     0
  9
$DIMSOXD
 70
     0
  9
$DIMSAH
 70
     0
  9
$DIMBLK1
  1

  9
$DIMBLK2
  1

  9
$DIMSTYLE
  2
sunpo
  9
$DIMCLRD
 70
     0
  9
$DIMCLRE
 70
     0
  9
$DIMCLRT
 70
     0
  9
$DIMTFAC
 40
1.0
  9
$DIMGAP
 40
1.0
  9
$DIMJUST
 70
     0
  9
$DIMSD1
 70
     0
  9
$DIMSD2
 70
     0
  9
$DIMTOLJ
 70
     0
  9
$DIMTZIN
 70
     8
  9
$DIMALTZ
 70
     0
  9
$DIMALTTZ
 70
     0
  9
$DIMUPT
 70
     0
  9
$DIMDEC
 70
     2
  9
$DIMTDEC
 70
     2
  9
$DIMALTU
 70
     2
  9
$DIMALTTD
 70
     3
  9
$DIMTXSTY
  7
OKANO
  9
$DIMAUNIT
 70
     0
  9
$DIMADEC
 70
     0
  9
$DIMALTRND
 40
0.0
  9
$DIMAZIN
 70
     0
  9
$DIMDSEP
 70
    46
  9
$DIMATFIT
 70
     3
  9
$DIMFRAC
 70
     0
  9
$DIMLDRBLK
  1
Closed
  9
$DIMLUNIT
 70
     2
  9
$DIMLWD
 70
    -2
  9
$DIMLWE
 70
    -2
  9
$DIMTMOVE
 70
     0
  9
$LUNITS
 70
     2
  9
$LUPREC
 70
     2
  9
$SKETCHINC
 40
1.0
  9
$FILLETRAD
 40
1.0
  9
$AUNITS
 70
     0
  9
$AUPREC
 70
     0
  9
$MENU
  1
.
  9
$ELEVATION
 40
0.0
  9
$PELEVATION
 40
0.0
  9
$THICKNESS
 40
0.0
  9
$LIMCHECK
 70
     0
  9
$CHAMFERA
 40
10.0
  9
$CHAMFERB
 40
10.0
  9
$CHAMFERC
 40
20.0
  9
$CHAMFERD
 40
0.0
  9
$SKPOLY
 70
     0
  9
$TDCREATE
 40
2452362.482225463
  9
$TDUCREATE
 40
2452362.107225463
  9
$TDUPDATE
 40
2456402.593007268
  9
$TDUUPDATE
 40
2456402.218007268
  9
$TDINDWG
 40
2.3416634838
  9
$TDUSRTIMER
 40
2.3416634838
  9
$USRTIMER
 70
     1
  9
$ANGBASE
 50
0.0
  9
$ANGDIR
 70
     0
  9
$PDMODE
 70
     0
  9
$PDSIZE
 40
0.0
  9
$PLINEWID
 40
0.0
  9
$SPLFRAME
 70
     0
  9
$SPLINETYPE
 70
     6
  9
$SPLINESEGS
 70
     8
  9
$HANDSEED
  5
4EA1
  9
$SURFTAB1
 70
     6
  9
$SURFTAB2
 70
     6
  9
$SURFTYPE
 70
     6
  9
$SURFU
 70
     6
  9
$SURFV
 70
     6
  9
$UCSBASE
  2

  9
$UCSNAME
  2

  9
$UCSORG
 10
0.0
 20
0.0
 30
0.0
  9
$UCSXDIR
 10
1.0
 20
0.0
 30
0.0
  9
$UCSYDIR
 10
0.0
 20
1.0
 30
0.0
  9
$UCSORTHOREF
  2

  9
$UCSORTHOVIEW
 70
     0
  9
$UCSORGTOP
 10
0.0
 20
0.0
 30
0.0
  9
$UCSORGBOTTOM
 10
0.0
 20
0.0
 30
0.0
  9
$UCSORGLEFT
 10
0.0
 20
0.0
 30
0.0
  9
$UCSORGRIGHT
 10
0.0
 20
0.0
 30
0.0
  9
$UCSORGFRONT
 10
0.0
 20
0.0
 30
0.0
  9
$UCSORGBACK
 10
0.0
 20
0.0
 30
0.0
  9
$PUCSBASE
  2

  9
$PUCSNAME
  2

  9
$PUCSORG
 10
0.0
 20
0.0
 30
0.0
  9
$PUCSXDIR
 10
1.0
 20
0.0
 30
0.0
  9
$PUCSYDIR
 10
0.0
 20
1.0
 30
0.0
  9
$PUCSORTHOREF
  2

  9
$PUCSORTHOVIEW
 70
     0
  9
$PUCSORGTOP
 10
0.0
 20
0.0
 30
0.0
  9
$PUCSORGBOTTOM
 10
0.0
 20
0.0
 30
0.0
  9
$PUCSORGLEFT
 10
0.0
 20
0.0
 30
0.0
  9
$PUCSORGRIGHT
 10
0.0
 20
0.0
 30
0.0
  9
$PUCSORGFRONT
 10
0.0
 20
0.0
 30
0.0
  9
$PUCSORGBACK
 10
0.0
 20
0.0
 30
0.0
  9
$USERI1
 70
     0
  9
$USERI2
 70
     0
  9
$USERI3
 70
     0
  9
$USERI4
 70
     0
  9
$USERI5
 70
     0
  9
$USERR1
 40
0.0
  9
$USERR2
 40
0.0
  9
$USERR3
 40
0.0
  9
$USERR4
 40
0.0
  9
$USERR5
 40
0.0
  9
$WORLDVIEW
 70
     1
  9
$SHADEDGE
 70
     3
  9
$SHADEDIF
 70
    70
  9
$TILEMODE
 70
     0
  9
$MAXACTVP
 70
    64
  9
$PINSBASE
 10
0.0
 20
0.0
 30
0.0
  9
$PLIMCHECK
 70
     0
  9
$PEXTMIN
 10
-4.400932062405672
 20
-3.459116387827521
 30
-0.0015258207003583
  9
$PEXTMAX
 10
278.8478616361952
 20
202.393946056399
 30
0.0000000349246037
  9
$PLIMMIN
 10
-3.757080078125
 20
-3.757083177566528
  9
$PLIMMAX
 10
293.2112426757812
 20
206.2162444591522
  9
$UNITMODE
 70
     0
  9
$VISRETAIN
 70
     1
  9
$PLINEGEN
 70
     0
  9
$PSLTSCALE
 70
     1
  9
$TREEDEPTH
 70
  3020
  9
$CMLSTYLE
  2
Standard
  9
$CMLJUST
 70
     0
  9
$CMLSCALE
 40
20.0
  9
$PROXYGRAPHICS
 70
     1
  9
$MEASUREMENT
 70
     1
  9
$CELWEIGHT
370
    -1
  9
$ENDCAPS
280
     0
  9
$JOINSTYLE
280
     0
  9
$LWDISPLAY
290
     0
  9
$INSUNITS
 70
     4
  9
$HYPERLINKBASE
  1

  9
$STYLESHEET
  1

  9
$XEDIT
290
     1
  9
$CEPSNTYPE
380
     0
  9
$PSTYLEMODE
290
     1
  9
$FINGERPRINTGUID
  2
{FF7F33C3-4233-11D6-AEE0-0000F45FD7F4}
  9
$VERSIONGUID
  2
{0036AF74-43E1-416C-AA65-C6A5D010ED9F}
  9
$EXTNAMES
290
     1
  9
$PSVPSCALE
 40
0.0
  9
$OLESTARTUP
290
     0
  0
ENDSEC
  0
SECTION
  2
CLASSES
  0
CLASS
  1
ACDBDICTIONARYWDFLT
  2
AcDbDictionaryWithDefault
  3
AutoCAD 2000
 90
        0
280
     0
281
     0
  0
CLASS
  1
ACDBPLACEHOLDER
  2
AcDbPlaceHolder
  3
AutoCAD 2000
 90
        0
280
     0
281
     0
  0
CLASS
  1
LAYOUT
  2
AcDbLayout
  3
AutoCAD 2000
 90
        0
280
     0
281
     0
  0
CLASS
  1
DICTIONARYVAR
  2
AcDbDictionaryVar
  3
AutoCAD 2000
 90
        0
280
     0
281
     0
  0
ENDSEC
  0
SECTION
  2
TABLES
  0
TABLE
  2
VPORT
  5
8
330
0
100
AcDbSymbolTable
 70
     3
  0
VPORT
  5
4EA0
330
8
100
AcDbSymbolTableRecord
100
AcDbViewportTableRecord
  2
*Active
 70
     0
 10
0.0
 20
0.0
 11
1.0
 21
1.0
 12
573.8783618881243
 22
59.37132045432207
 13
0.0
 23
0.0
 14
5.0
 24
5.0
 15
10.0
 25
10.0
 16
0.0
 26
0.0
 36
1.0
 17
0.0
 27
0.0
 37
0.0
 40
283.1591475225333
 41
1.968879668049792
 42
50.0
 43
0.0
 44
0.0
 50
0.0
 51
0.0
 71
     0
 72
   100
 73
     1
 74
     3
 75
     0
 76
     0
 77
     0
 78
     0
281
     0
 65
     1
110
0.0
120
0.0
130
0.0
111
1.0
121
0.0
131
0.0
112
0.0
122
1.0
132
0.0
 79
     0
146
0.0
  0
ENDTAB
  0
TABLE
  2
LTYPE
  5
5
330
0
100
AcDbSymbolTable
 70
     5
  0
LTYPE
  5
14
330
5
100
AcDbSymbolTableRecord
100
AcDbLinetypeTableRecord
  2
ByBlock
 70
     0
  3

 72
    65
 73
     0
 40
0.0
  0
LTYPE
  5
15
330
5
100
AcDbSymbolTableRecord
100
AcDbLinetypeTableRecord
  2
ByLayer
 70
     0
  3

 72
    65
 73
     0
 40
0.0
  0
LTYPE
  5
16
330
5
100
AcDbSymbolTableRecord
100
AcDbLinetypeTableRecord
  2
Continuous
 70
     0
  3
Solid line
 72
    65
 73
     0
 40
0.0
  0
LTYPE
  5
33
330
5
100
AcDbSymbolTableRecord
100
AcDbLinetypeTableRecord
  2
DASHED2
 70
     0
  3
Dashed (.5x) _ _ _ _ _ _ _ _ _ _ _ _ _ _ _ _ _
 72
    65
 73
     2
 40
9.524999999999998
 49
6.349999999999999
 74
     0
 49
-3.174999999999999
 74
     0
  0
LTYPE
  5
34
330
5
100
AcDbSymbolTableRecord
100
AcDbLinetypeTableRecord
  2
CENTER2
 70
     0
  3
Center (.5x) ___ _ ___ _ ___ _ ___ _ ___ _ ___
 72
    65
 73
     4
 40
28.57499999999999
 49
19.05
 74
     0
 49
-3.174999999999999
 74
     0
 49
3.174999999999999
 74
     0
 49
-3.174999999999999
 74
     0
  0
LTYPE
  5
35
330
5
100
AcDbSymbolTableRecord
100
AcDbLinetypeTableRecord
  2
PHANTOM2
 70
     0
  3
Phantom (.5x) ___ _ _ ___ _ _ ___ _ _ ___ _ _
 72
    65
 73
     6
 40
31.75
 49
15.875
 74
     0
 49
-3.174999999999999
 74
     0
 49
3.174999999999999
 74
     0
 49
-3.174999999999999
 74
     0
 49
3.174999999999999
 74
     0
 49
-3.174999999999999
 74
     0
  0
LTYPE
  5
36
330
5
100
AcDbSymbolTableRecord
100
AcDbLinetypeTableRecord
  2
HIDDEN2
 70
     0
  3
Hidden (.5x) _ _ _ _ _ _ _ _ _ _ _ _ _ _ _ _ _
 72
    65
 73
     2
 40
4.762499999999999
 49
3.174999999999999
 74
     0
 49
-1.587499999999999
 74
     0
  0
ENDTAB
  0
TABLE
  2
LAYER
  5
2
330
0
100
AcDbSymbolTable
 70
    13
  0
LAYER
  5
10
330
2
100
AcDbSymbolTableRecord
100
AcDbLayerTableRecord
  2
0
 70
     0
 62
     7
  6
Continuous
370
    -3
390
F
  0
LAYER
  5
40
330
2
100
AcDbSymbolTableRecord
100
AcDbLayerTableRecord
  2
50-0-CON
 70
     0
 62
     4
  6
Continuous
370
    50
390
F
  0
LAYER
  5
41
330
2
100
AcDbSymbolTableRecord
100
AcDbLayerTableRecord
  2
70-0-CON
 70
     0
 62
   202
  6
Continuous
370
    70
390
F
  0
LAYER
  5
4E
330
2
100
AcDbSymbolTableRecord
100
AcDbLayerTableRecord
  2
極太線
 70
     0
 62
     7
  6
Continuous
370
    70
390
F
  0
LAYER
  5
4F
330
2
100
AcDbSymbolTableRecord
100
AcDbLayerTableRecord
  2
細線
 70
     0
 62
     8
  6
Continuous
370
    18
390
F
  0
LAYER
  5
AB
330
2
100
AcDbSymbolTableRecord
100
AcDbLayerTableRecord
  2
構築線
 70
     0
 62
    -2
  6
Continuous
370
    18
390
F
  0
LAYER
  5
B8
330
2
100
AcDbSymbolTableRecord
100
AcDbLayerTableRecord
  2
太線
 70
     0
 62
     7
  6
Continuous
370
    35
390
F
  0
LAYER
  5
B9
330
2
100
AcDbSymbolTableRecord
100
AcDbLayerTableRecord
  2
寸法線
 70
     0
 62
     5
  6
Continuous
370
    18
390
F
  0
LAYER
  5
BA
330
2
100
AcDbSymbolTableRecord
100
AcDbLayerTableRecord
  2
破線
 70
     0
 62
     8
  6
HIDDEN2
370
    18
390
F
  0
LAYER
  5
BB
330
2
100
AcDbSymbolTableRecord
100
AcDbLayerTableRecord
  2
中心線
 70
     0
 62
     1
  6
CENTER2
370
    18
390
F
  0
LAYER
  5
BC
330
2
100
AcDbSymbolTableRecord
100
AcDbLayerTableRecord
  2
想像線
 70
     0
 62
     8
  6
PHANTOM2
370
    18
390
F
  0
LAYER
  5
BD
330
2
100
AcDbSymbolTableRecord
100
AcDbLayerTableRecord
  2
文字
 70
     0
 62
     7
  6
Continuous
370
    18
390
F
  0
LAYER
  5
180
330
2
100
AcDbSymbolTableRecord
100
AcDbLayerTableRecord
  2
Defpoints
 70
     0
 62
     7
  6
Continuous
290
     0
370
    -3
390
F
  0
ENDTAB
  0
TABLE
  2
STYLE
  5
3
330
0
100
AcDbSymbolTable
 70
     3
  0
STYLE
  5
11
330
3
100
AcDbSymbolTableRecord
100
AcDbTextStyleTableRecord
  2
Standard
 70
     0
 40
0.0
 41
1.0
 50
0.0
 71
     0
 42
3.0
  3
txt
  4

  0
STYLE
  5
32
330
3
100
AcDbSymbolTableRecord
100
AcDbTextStyleTableRecord
  2

 70
     1
 40
0.0
 41
1.0
 50
0.0
 71
     0
 42
2.5
  3
ltypeshp.shx
  4

  0
STYLE
  5
50
330
3
100
AcDbSymbolTableRecord
100
AcDbTextStyleTableRecord
  2
OKANO
 70
     0
 40
0.0
 41
1.0
 50
15.0
 71
     0
 42
5.0
  3
isocp.shx
  4
bigfont.shx
  0
ENDTAB
  0
TABLE
  2
VIEW
  5
6
330
0
100
AcDbSymbolTable
 70
     0
  0
ENDTAB
  0
TABLE
  2
UCS
  5
7
330
0
100
AcDbSymbolTable
 70
     0
  0
ENDTAB
  0
TABLE
  2
APPID
  5
9
330
0
100
AcDbSymbolTable
 70
     1
  0
APPID
  5
12
330
9
100
AcDbSymbolTableRecord
100
AcDbRegAppTableRecord
  2
ACAD
 70
     0
  0
ENDTAB
  0
TABLE
  2
DIMSTYLE
  5
A
330
0
100
AcDbSymbolTable
 70
     2
100
AcDbDimStyleTable
 71
     2
340
A2
340
27
  0
DIMSTYLE
105
27
102
{ACAD_REACTORS
330
4D8C
330
4D8D
330
3CB5
330
4D09
330
4D26
330
4D19
102
}
330
A
100
AcDbSymbolTableRecord
100
AcDbDimStyleTableRecord
  2
ISO-25
 70
     0
 41
2.5
 42
0.625
 43
3.75
 44
1.25
 73
     0
 74
     0
 77
     1
 78
     8
140
2.5
141
2.5
143
0.03937007874016
147
0.625
171
     3
172
     1
271
     2
272
     2
274
     3
283
     0
284
     8
340
11
  0
DIMSTYLE
105
A2
102
{ACAD_REACTORS
330
4B4A
330
4B57
330
4B7A
330
4B87
330
4C1C
330
4982
330
4C74
330
4C73
330
4D28
330
4DFA
330
4E07
330
4E27
330
4E34
330
4E42
330
4E51
330
4E60
102
}
330
A
100
AcDbSymbolTableRecord
100
AcDbDimStyleTableRecord
  2
sunpo
 70
     0
 40
0.0
 41
3.0
 42
2.0
 43
8.0
 44
3.0
 73
     0
 74
     0
 77
     1
 78
     8
140
5.0
141
2.5
143
0.03937007874016
147
1.0
171
     3
172
     1
271
     2
272
     2
274
     3
283
     0
284
     8
340
50
341
9B
342
9B
  0
ENDTAB
  0
TABLE
  2
BLOCK_RECORD
  5
1
330
0
100
AcDbSymbolTable
 70
    35
  0
BLOCK_RECORD
  5
1F
330
1
100
AcDbSymbolTableRecord
100
AcDbBlockTableRecord
  2
*Model_Space
340
22
  0
BLOCK_RECORD
  5
1B
330
1
100
AcDbSymbolTableRecord
100
AcDbBlockTableRecord
  2
*Paper_Space
340
1E
  0
BLOCK_RECORD
  5
9B
330
1
100
AcDbSymbolTableRecord
100
AcDbBlockTableRecord
  2
_Closed
340
0
102
{BLKREFS
331
49F9
331
49FA
331
4AFC
331
4AFD
331
4B12
331
4B13
331
4B4F
331
4B50
331
4B7F
331
4B80
331
4B8C
331
4B8D
331
4B9B
331
4B9C
331
4C16
331
4C17
331
4C2C
331
4C2D
331
4C45
331
4C46
331
4C4F
331
4C50
331
4C5B
331
4C5C
331
4C83
331
4C84
331
4C8F
331
4C90
331
4C9A
331
4C9B
331
4CA3
331
4CA4
331
4CD1
331
4CD2
331
4D5D
331
4D5E
331
4D83
331
4D84
331
4DEB
331
4DEC
331
4DF4
331
4DF5
331
4DFF
331
4E00
331
4E0C
331
4E0D
331
4E17
331
4E18
331
4E20
331
4E21
331
4E2C
331
4E2D
331
4E3A
331
4E3B
331
4E49
331
4E4A
331
4E58
331
4E59
331
4E66
331
4E67
331
4E73
331
4E74
331
4E7C
331
4E7D
331
4E85
331
4E86
331
4E8E
331
4E8F
331
4E97
331
4E98
102
}
  0
BLOCK_RECORD
  5
1510
330
1
100
AcDbSymbolTableRecord
100
AcDbBlockTableRecord
  2
A$C10A573AC
340
0
  0
BLOCK_RECORD
  5
3D12
330
1
100
AcDbSymbolTableRecord
100
AcDbBlockTableRecord
  2
*D2
340
0
  0
BLOCK_RECORD
  5
4983
330
1
100
AcDbSymbolTableRecord
100
AcDbBlockTableRecord
  2
*D3
340
0
  0
BLOCK_RECORD
  5
4B4B
330
1
100
AcDbSymbolTableRecord
100
AcDbBlockTableRecord
  2
*D7
340
0
  0
BLOCK_RECORD
  5
4B58
330
1
100
AcDbSymbolTableRecord
100
AcDbBlockTableRecord
  2
*D8
340
0
  0
BLOCK_RECORD
  5
4B7B
330
1
100
AcDbSymbolTableRecord
100
AcDbBlockTableRecord
  2
*D9
340
0
  0
BLOCK_RECORD
  5
4B88
330
1
100
AcDbSymbolTableRecord
100
AcDbBlockTableRecord
  2
*D10
340
0
  0
BLOCK_RECORD
  5
4C1D
330
1
100
AcDbSymbolTableRecord
100
AcDbBlockTableRecord
  2
*D11
340
0
  0
BLOCK_RECORD
  5
4C4B
330
1
100
AcDbSymbolTableRecord
100
AcDbBlockTableRecord
  2
*D12
340
0
  0
BLOCK_RECORD
  5
4C57
330
1
100
AcDbSymbolTableRecord
100
AcDbBlockTableRecord
  2
*D13
340
0
  0
BLOCK_RECORD
  5
4C7F
330
1
100
AcDbSymbolTableRecord
100
AcDbBlockTableRecord
  2
*D15
340
0
  0
BLOCK_RECORD
  5
4C8B
330
1
100
AcDbSymbolTableRecord
100
AcDbBlockTableRecord
  2
*D16
340
0
  0
BLOCK_RECORD
  5
4CA9
330
1
100
AcDbSymbolTableRecord
100
AcDbBlockTableRecord
  2
*D17
340
0
  0
BLOCK_RECORD
  5
4CB5
330
1
100
AcDbSymbolTableRecord
100
AcDbBlockTableRecord
  2
*D18
340
0
  0
BLOCK_RECORD
  5
4CC1
330
1
100
AcDbSymbolTableRecord
100
AcDbBlockTableRecord
  2
*D19
340
0
  0
BLOCK_RECORD
  5
4CCD
330
1
100
AcDbSymbolTableRecord
100
AcDbBlockTableRecord
  2
*D20
340
0
  0
BLOCK_RECORD
  5
4D35
330
1
100
AcDbSymbolTableRecord
100
AcDbBlockTableRecord
  2
*D22
340
0
  0
BLOCK_RECORD
  5
4D41
330
1
100
AcDbSymbolTableRecord
100
AcDbBlockTableRecord
  2
*D23
340
0
  0
BLOCK_RECORD
  5
4D4D
330
1
100
AcDbSymbolTableRecord
100
AcDbBlockTableRecord
  2
*D24
340
0
  0
BLOCK_RECORD
  5
4D59
330
1
100
AcDbSymbolTableRecord
100
AcDbBlockTableRecord
  2
*D25
340
0
  0
BLOCK_RECORD
  5
4D9F
330
1
100
AcDbSymbolTableRecord
100
AcDbBlockTableRecord
  2
*D26
340
0
  0
BLOCK_RECORD
  5
4DAB
330
1
100
AcDbSymbolTableRecord
100
AcDbBlockTableRecord
  2
*D27
340
0
  0
BLOCK_RECORD
  5
4DFB
330
1
100
AcDbSymbolTableRecord
100
AcDbBlockTableRecord
  2
*D28
340
0
  0
BLOCK_RECORD
  5
4E08
330
1
100
AcDbSymbolTableRecord
100
AcDbBlockTableRecord
  2
*D29
340
0
  0
BLOCK_RECORD
  5
4E28
330
1
100
AcDbSymbolTableRecord
100
AcDbBlockTableRecord
  2
*D30
340
0
  0
BLOCK_RECORD
  5
4E35
330
1
100
AcDbSymbolTableRecord
100
AcDbBlockTableRecord
  2
*D31
340
0
  0
BLOCK_RECORD
  5
4E43
330
1
100
AcDbSymbolTableRecord
100
AcDbBlockTableRecord
  2
*D32
340
0
  0
BLOCK_RECORD
  5
4E52
330
1
100
AcDbSymbolTableRecord
100
AcDbBlockTableRecord
  2
*D33
340
0
  0
BLOCK_RECORD
  5
4E61
330
1
100
AcDbSymbolTableRecord
100
AcDbBlockTableRecord
  2
*D34
340
0
  0
ENDTAB
  0
ENDSEC
  0
SECTION
  2
BLOCKS
  0
BLOCK
  5
20
330
1F
100
AcDbEntity
  8
0
100
AcDbBlockBegin
  2
*Model_Space
 70
     0
 10
0.0
 20
0.0
 30
0.0
  3
*Model_Space
  1

  0
ENDBLK
  5
21
330
1F
100
AcDbEntity
  8
0
100
AcDbBlockEnd
  0
BLOCK
  5
1C
330
1B
100
AcDbEntity
 67
     1
  8
0
100
AcDbBlockBegin
  2
*Paper_Space
 70
     0
 10
0.0
 20
0.0
 30
0.0
  3
*Paper_Space
  1

  0
ENDBLK
  5
1D
330
1B
100
AcDbEntity
 67
     1
  8
0
100
AcDbBlockEnd
  0
BLOCK
  5
A0
330
9B
100
AcDbEntity
  8
0
100
AcDbBlockBegin
  2
_Closed
 70
     0
 10
0.0
 20
0.0
 30
0.0
  3
_Closed
  1

  0
LINE
  5
9C
330
9B
100
AcDbEntity
  8
0
 62
     0
370
    -2
100
AcDbLine
 10
-1.0
 20
0.1666666666666666
 30
0.0
 11
0.0
 21
0.0
 31
0.0
  0
LINE
  5
9D
330
9B
100
AcDbEntity
  8
0
 62
     0
370
    -2
100
AcDbLine
 10
0.0
 20
0.0
 30
0.0
 11
-1.0
 21
-0.1666666666666666
 31
0.0
  0
LINE
  5
9E
330
9B
100
AcDbEntity
  8
0
 62
     0
370
    -2
100
AcDbLine
 10
-1.0
 20
0.1666666666666666
 30
0.0
 11
-1.0
 21
-0.1666666666666666
 31
0.0
  0
LINE
  5
9F
330
9B
100
AcDbEntity
  8
0
 62
     0
370
    -2
100
AcDbLine
 10
0.0
 20
0.0
 30
0.0
 11
-1.0
 21
0.0
 31
0.0
  0
ENDBLK
  5
A1
330
9B
100
AcDbEntity
  8
0
100
AcDbBlockEnd
  0
BLOCK
  5
155B
330
1510
100
AcDbEntity
  8
0
100
AcDbBlockBegin
  2
A$C10A573AC
 70
     0
 10
0.0
 20
0.0
 30
0.0
  3
A$C10A573AC
  1

  0
TEXT
  5
1511
330
1510
100
AcDbEntity
  8
文字
100
AcDbText
 10
0.9844302777919438
 20
5.224957122252135
 30
0.0
 40
3.0
  1
Materal : Steel.
 51
15.0
  7
OKANO
100
AcDbText
  0
TEXT
  5
1512
330
1510
100
AcDbEntity
  8
文字
100
AcDbText
 10
-0.1141909619694843
 20
0.7500001922403499
 30
0.0
 40
3.0
  1
Surface treatment : Electro galvanized.
 51
15.0
  7
OKANO
100
AcDbText
  0
TEXT
  5
1513
330
1510
100
AcDbEntity
  8
文字
100
AcDbText
 10
-0.4901926332574931
 20
9.159967445193728
 30
0.0
 40
3.0
  1
5 TORGUE SCREW  M5-6
 51
15.0
  7
OKANO
100
AcDbText
  0
TEXT
  5
1514
330
1510
100
AcDbEntity
  8
文字
100
AcDbText
 10
1.364713526390005
 20
78.88822913323082
 30
0.0
 40
3.0
  1
Special standard,
 51
15.0
  7
OKANO
100
AcDbText
  0
TEXT
  5
1515
330
1510
100
AcDbEntity
  8
文字
100
AcDbText
 10
92.88160823408942
 20
89.92753849837379
 30
0.0
 40
3.0
  1
Screw Type
 51
15.0
  7
OKANO
100
AcDbText
  0
LINE
  5
1516
330
1510
100
AcDbEntity
  8
太線
100
AcDbLine
 10
113.9464587597784
 20
81.93930390144641
 30
0.0
 11
112.4464587597784
 21
81.93930390144641
 31
0.0
  0
LINE
  5
1517
330
1510
100
AcDbEntity
  8
太線
100
AcDbLine
 10
112.4464587597784
 20
76.9393039014464
 30
0.0
 11
121.4644995438761
 21
76.9393039014464
 31
0.0
  0
TEXT
  5
1518
330
1510
100
AcDbEntity
  8
文字
100
AcDbText
 10
93.46068240437217
 20
77.96976862235396
 30
0.0
 40
2.0
  1
17-30
 51
15.0
  7
OKANO
100
AcDbText
  0
LINE
  5
1519
330
1510
100
AcDbEntity
  8
太線
100
AcDbLine
 10
111.9464587597784
 20
81.43930390144641
 30
0.0
 11
111.9464587597784
 21
77.4393039014464
 31
0.0
  0
LINE
  5
151A
330
1510
100
AcDbEntity
  8
太線
100
AcDbLine
 10
91.94645875977846
 20
81.43930390144641
 30
0.0
 11
91.94645875977846
 21
77.43930390144639
 31
0.0
  0
LINE
  5
151B
330
1510
100
AcDbEntity
  8
太線
100
AcDbLine
 10
101.9644995438761
 20
77.4393039014464
 30
0.0
 11
101.9644995438761
 21
81.43930390144641
 31
0.0
  0
LINE
  5
151C
330
1510
100
AcDbEntity
  8
太線
100
AcDbLine
 10
92.44645875977846
 20
76.9393039014464
 30
0.0
 11
101.4644995438761
 21
76.9393039014464
 31
0.0
  0
ARC
  5
151D
330
1510
100
AcDbEntity
  8
太線
100
AcDbCircle
 10
92.44645875977846
 20
77.43930390144639
 30
0.0
 40
0.5
100
AcDbArc
 50
180.0
 51
270.0
  0
ARC
  5
151E
330
1510
100
AcDbEntity
  8
太線
100
AcDbCircle
 10
101.4644995438761
 20
77.4393039014464
 30
0.0
 40
0.5
100
AcDbArc
 50
270.0
 51
0.0
  0
ARC
  5
151F
330
1510
100
AcDbEntity
  8
太線
100
AcDbCircle
 10
112.4464587597784
 20
77.4393039014464
 30
0.0
 40
0.5
100
AcDbArc
 50
180.0
 51
270.0
  0
LINE
  5
1520
330
1510
100
AcDbEntity
  8
想像線
100
AcDbLine
 10
93.94645875977847
 20
81.93930390144641
 30
0.0
 11
99.96449954387617
 21
81.93930390144641
 31
0.0
  0
LINE
  5
1521
330
1510
100
AcDbEntity
  8
極太線
100
AcDbLine
 10
96.38762957111168
 20
85.43930390144641
 30
0.0
 11
97.50528794844525
 21
85.43930390144641
 31
0.0
  0
CIRCLE
  5
1522
330
1510
100
AcDbEntity
  8
太線
100
AcDbCircle
 10
96.94645875977847
 20
85.43930390144641
 30
0.0
 40
0.5588291886667776
  0
LINE
  5
1523
330
1510
100
AcDbEntity
  8
太線
100
AcDbLine
 10
99.46449954387617
 20
86.93930390144641
 30
0.0
 11
94.44645875977846
 21
86.93930390144641
 31
0.0
  0
LINE
  5
1524
330
1510
100
AcDbEntity
  8
太線
100
AcDbLine
 10
93.94645875977847
 20
86.43930390144641
 30
0.0
 11
93.94645875977847
 21
81.93930390144641
 31
0.0
  0
ARC
  5
1525
330
1510
100
AcDbEntity
  8
太線
100
AcDbCircle
 10
92.44645875977846
 20
81.43930390144641
 30
0.0
 40
0.5
100
AcDbArc
 50
90.0
 51
180.0
  0
LINE
  5
1526
330
1510
100
AcDbEntity
  8
太線
100
AcDbLine
 10
93.94645875977847
 20
81.93930390144641
 30
0.0
 11
92.44645875977846
 21
81.93930390144641
 31
0.0
  0
ARC
  5
1527
330
1510
100
AcDbEntity
  8
太線
100
AcDbCircle
 10
94.44645875977846
 20
86.43930390144641
 30
0.0
 40
0.5
100
AcDbArc
 50
90.0
 51
180.0
  0
LINE
  5
1528
330
1510
100
AcDbEntity
  8
太線
100
AcDbLine
 10
99.96449954387617
 20
81.93930390144641
 30
0.0
 11
99.96449954387617
 21
86.43930390144641
 31
0.0
  0
LINE
  5
1529
330
1510
100
AcDbEntity
  8
太線
100
AcDbLine
 10
101.4644995438761
 20
81.93930390144641
 30
0.0
 11
99.96449954387617
 21
81.93930390144641
 31
0.0
  0
ARC
  5
152A
330
1510
100
AcDbEntity
  8
太線
100
AcDbCircle
 10
101.4644995438761
 20
81.43930390144641
 30
0.0
 40
0.5
100
AcDbArc
 50
0.0
 51
90.0
  0
ARC
  5
152B
330
1510
100
AcDbEntity
  8
太線
100
AcDbCircle
 10
99.46449954387617
 20
86.43930390144641
 30
0.0
 40
0.5
100
AcDbArc
 50
0.0
 51
90.0
  0
LINE
  5
152C
330
1510
100
AcDbEntity
  8
極太線
100
AcDbLine
 10
96.94645875977847
 20
85.99813309011318
 30
0.0
 11
96.94645875977847
 21
84.88047471277964
 31
0.0
  0
ARC
  5
152D
330
1510
100
AcDbEntity
  8
太線
100
AcDbCircle
 10
112.4464587597784
 20
81.43930390144641
 30
0.0
 40
0.5
100
AcDbArc
 50
90.0
 51
180.0
  0
TEXT
  5
152E
330
1510
100
AcDbEntity
  8
文字
100
AcDbText
 10
134.3819212586066
 20
78.16263579228063
 30
0.0
 40
2.0
  1
101
 51
15.0
  7
OKANO
100
AcDbText
  0
TEXT
  5
152F
330
1510
100
AcDbEntity
  8
文字
100
AcDbText
 10
113.3422276612066
 20
77.96976862235396
 30
0.0
 40
2.0
  1
38-83
 51
15.0
  7
OKANO
100
AcDbText
  0
LINE
  5
1530
330
1510
100
AcDbEntity
  8
太線
100
AcDbLine
 10
141.9825403279738
 20
77.4393039014464
 30
0.0
 11
141.9825403279738
 21
81.43930390144641
 31
0.0
  0
LINE
  5
1531
330
1510
100
AcDbEntity
  8
太線
100
AcDbLine
 10
131.9644995438761
 20
81.43930390144641
 30
0.0
 11
131.9644995438761
 21
77.4393039014464
 31
0.0
  0
LINE
  5
1532
330
1510
100
AcDbEntity
  8
太線
100
AcDbLine
 10
121.9644995438761
 20
77.4393039014464
 30
0.0
 11
121.9644995438761
 21
81.43930390144641
 31
0.0
  0
ARC
  5
1533
330
1510
100
AcDbEntity
  8
太線
100
AcDbCircle
 10
121.4644995438761
 20
77.4393039014464
 30
0.0
 40
0.5
100
AcDbArc
 50
270.0
 51
0.0
  0
LINE
  5
1534
330
1510
100
AcDbEntity
  8
太線
100
AcDbLine
 10
132.4644995438761
 20
76.9393039014464
 30
0.0
 11
141.4825403279738
 21
76.9393039014464
 31
0.0
  0
ARC
  5
1535
330
1510
100
AcDbEntity
  8
太線
100
AcDbCircle
 10
132.4644995438761
 20
77.4393039014464
 30
0.0
 40
0.5
100
AcDbArc
 50
180.0
 51
270.0
  0
ARC
  5
1536
330
1510
100
AcDbEntity
  8
太線
100
AcDbCircle
 10
141.4825403279738
 20
77.4393039014464
 30
0.0
 40
0.5
100
AcDbArc
 50
270.0
 51
0.0
  0
ARC
  5
1537
330
1510
100
AcDbEntity
  8
太線
100
AcDbCircle
 10
121.4644995438761
 20
81.43930390144641
 30
0.0
 40
0.5
100
AcDbArc
 50
0.0
 51
90.0
  0
LINE
  5
1538
330
1510
100
AcDbEntity
  8
太線
100
AcDbLine
 10
119.9644995438761
 20
81.93930390144641
 30
0.0
 11
119.9644995438761
 21
86.43930390144641
 31
0.0
  0
LINE
  5
1539
330
1510
100
AcDbEntity
  8
太線
100
AcDbLine
 10
113.9464587597784
 20
86.43930390144641
 30
0.0
 11
113.9464587597784
 21
81.93930390144641
 31
0.0
  0
LINE
  5
153A
330
1510
100
AcDbEntity
  8
想像線
100
AcDbLine
 10
113.9464587597784
 20
81.93930390144641
 30
0.0
 11
119.9644995438761
 21
81.93930390144641
 31
0.0
  0
LINE
  5
153B
330
1510
100
AcDbEntity
  8
太線
100
AcDbLine
 10
121.4644995438761
 20
81.93930390144641
 30
0.0
 11
119.9644995438761
 21
81.93930390144641
 31
0.0
  0
LINE
  5
153C
330
1510
100
AcDbEntity
  8
太線
100
AcDbLine
 10
119.4644995438761
 20
86.93930390144641
 30
0.0
 11
114.4464587597784
 21
86.93930390144641
 31
0.0
  0
ARC
  5
153D
330
1510
100
AcDbEntity
  8
太線
100
AcDbCircle
 10
114.4464587597784
 20
86.43930390144641
 30
0.0
 40
0.5
100
AcDbArc
 50
90.0
 51
180.0
  0
CIRCLE
  5
153E
330
1510
100
AcDbEntity
  8
太線
100
AcDbCircle
 10
115.4464587597784
 20
85.43930390144641
 30
0.0
 40
0.5588291886667776
  0
LINE
  5
153F
330
1510
100
AcDbEntity
  8
極太線
100
AcDbLine
 10
115.4464587597784
 20
85.99813309011318
 30
0.0
 11
115.4464587597784
 21
84.88047471277964
 31
0.0
  0
LINE
  5
1540
330
1510
100
AcDbEntity
  8
極太線
100
AcDbLine
 10
114.8876295711116
 20
85.43930390144641
 30
0.0
 11
116.0052879484452
 21
85.43930390144641
 31
0.0
  0
ARC
  5
1541
330
1510
100
AcDbEntity
  8
太線
100
AcDbCircle
 10
119.4644995438761
 20
86.43930390144641
 30
0.0
 40
0.5
100
AcDbArc
 50
0.0
 51
90.0
  0
LINE
  5
1542
330
1510
100
AcDbEntity
  8
極太線
100
AcDbLine
 10
117.9056703552094
 20
85.43930390144641
 30
0.0
 11
119.0233287325429
 21
85.43930390144641
 31
0.0
  0
LINE
  5
1543
330
1510
100
AcDbEntity
  8
極太線
100
AcDbLine
 10
118.4644995438761
 20
85.99813309011318
 30
0.0
 11
118.4644995438761
 21
84.88047471277964
 31
0.0
  0
CIRCLE
  5
1544
330
1510
100
AcDbEntity
  8
太線
100
AcDbCircle
 10
118.4644995438761
 20
85.43930390144641
 30
0.0
 40
0.5588291886667776
  0
LINE
  5
1545
330
1510
100
AcDbEntity
  8
想像線
100
AcDbLine
 10
133.9644995438761
 20
81.93930390144641
 30
0.0
 11
139.9825403279738
 21
81.93930390144641
 31
0.0
  0
LINE
  5
1546
330
1510
100
AcDbEntity
  8
極太線
100
AcDbLine
 10
137.9237111393071
 20
85.43930390144641
 30
0.0
 11
139.0413695166406
 21
85.43930390144641
 31
0.0
  0
CIRCLE
  5
1547
330
1510
100
AcDbEntity
  8
太線
100
AcDbCircle
 10
138.4825403279738
 20
85.43930390144641
 30
0.0
 40
0.5588291886667776
  0
CIRCLE
  5
1548
330
1510
100
AcDbEntity
  8
太線
100
AcDbCircle
 10
138.4825403279738
 20
83.26342923362075
 30
0.0
 40
0.5588291886667776
  0
LINE
  5
1549
330
1510
100
AcDbEntity
  8
極太線
100
AcDbLine
 10
137.9237111393071
 20
83.26342923362075
 30
0.0
 11
139.0413695166406
 21
83.26342923362075
 31
0.0
  0
LINE
  5
154A
330
1510
100
AcDbEntity
  8
太線
100
AcDbLine
 10
139.4825403279738
 20
86.93930390144641
 30
0.0
 11
134.4644995438761
 21
86.93930390144641
 31
0.0
  0
LINE
  5
154B
330
1510
100
AcDbEntity
  8
太線
100
AcDbLine
 10
133.9644995438761
 20
86.43930390144641
 30
0.0
 11
133.9644995438761
 21
81.93930390144641
 31
0.0
  0
ARC
  5
154C
330
1510
100
AcDbEntity
  8
太線
100
AcDbCircle
 10
132.4644995438761
 20
81.43930390144641
 30
0.0
 40
0.5
100
AcDbArc
 50
90.0
 51
180.0
  0
LINE
  5
154D
330
1510
100
AcDbEntity
  8
太線
100
AcDbLine
 10
133.9644995438761
 20
81.93930390144641
 30
0.0
 11
132.4644995438761
 21
81.93930390144641
 31
0.0
  0
LINE
  5
154E
330
1510
100
AcDbEntity
  8
極太線
100
AcDbLine
 10
134.9056703552093
 20
83.26342923362075
 30
0.0
 11
136.0233287325429
 21
83.26342923362075
 31
0.0
  0
LINE
  5
154F
330
1510
100
AcDbEntity
  8
極太線
100
AcDbLine
 10
135.4644995438761
 20
83.82225842228752
 30
0.0
 11
135.4644995438761
 21
82.70460004495395
 31
0.0
  0
CIRCLE
  5
1550
330
1510
100
AcDbEntity
  8
太線
100
AcDbCircle
 10
135.4644995438761
 20
83.26342923362075
 30
0.0
 40
0.5588291886667776
  0
ARC
  5
1551
330
1510
100
AcDbEntity
  8
太線
100
AcDbCircle
 10
134.4644995438761
 20
86.43930390144641
 30
0.0
 40
0.5
100
AcDbArc
 50
90.0
 51
180.0
  0
CIRCLE
  5
1552
330
1510
100
AcDbEntity
  8
太線
100
AcDbCircle
 10
135.4644995438761
 20
85.43930390144641
 30
0.0
 40
0.5588291886667776
  0
LINE
  5
1553
330
1510
100
AcDbEntity
  8
極太線
100
AcDbLine
 10
135.4644995438761
 20
85.99813309011318
 30
0.0
 11
135.4644995438761
 21
84.88047471277964
 31
0.0
  0
LINE
  5
1554
330
1510
100
AcDbEntity
  8
極太線
100
AcDbLine
 10
134.9056703552093
 20
85.43930390144641
 30
0.0
 11
136.0233287325429
 21
85.43930390144641
 31
0.0
  0
LINE
  5
1555
330
1510
100
AcDbEntity
  8
太線
100
AcDbLine
 10
139.9825403279738
 20
81.93930390144641
 30
0.0
 11
139.9825403279738
 21
86.43930390144641
 31
0.0
  0
ARC
  5
1556
330
1510
100
AcDbEntity
  8
太線
100
AcDbCircle
 10
141.4825403279738
 20
81.43930390144641
 30
0.0
 40
0.5
100
AcDbArc
 50
0.0
 51
90.0
  0
LINE
  5
1557
330
1510
100
AcDbEntity
  8
極太線
100
AcDbLine
 10
138.4825403279738
 20
83.82225842228752
 30
0.0
 11
138.4825403279738
 21
82.70460004495395
 31
0.0
  0
LINE
  5
1558
330
1510
100
AcDbEntity
  8
太線
100
AcDbLine
 10
141.4825403279738
 20
81.93930390144641
 30
0.0
 11
139.9825403279738
 21
81.93930390144641
 31
0.0
  0
ARC
  5
1559
330
1510
100
AcDbEntity
  8
太線
100
AcDbCircle
 10
139.4825403279738
 20
86.43930390144641
 30
0.0
 40
0.5
100
AcDbArc
 50
0.0
 51
90.0
  0
LINE
  5
155A
330
1510
100
AcDbEntity
  8
極太線
100
AcDbLine
 10
138.4825403279738
 20
85.99813309011318
 30
0.0
 11
138.4825403279738
 21
84.88047471277964
 31
0.0
  0
ENDBLK
  5
155C
330
1510
100
AcDbEntity
  8
0
100
AcDbBlockEnd
  0
BLOCK
  5
3D1B
330
3D12
100
AcDbEntity
  8
0
100
AcDbBlockBegin
  2
*D2
 70
     1
 10
0.0
 20
0.0
 30
0.0
  3
*D2
  1

  0
LINE
  5
4B64
330
3D12
100
AcDbEntity
  8
寸法線
 62
     0
370
    -2
100
AcDbLine
 10
665.9051015018299
 20
-43.65382601109939
 30
0.0
 11
637.5345728125873
 21
-41.12455975961987
 31
0.0
  0
LINE
  5
4B65
330
3D12
100
AcDbEntity
  8
寸法線
 62
     0
370
    -2
100
AcDbLine
 10
626.5780275875371
 20
-40.14777076939437
 30
0.0
 11
624.0879036727529
 21
-39.92577327161584
 31
0.0
  0
MTEXT
  5
4B66
330
3D12
100
AcDbEntity
  8
寸法線
 62
     0
100
AcDbMText
 10
660.6242190653444
 20
-39.54365196466065
 30
0.0
 40
6.0
 41
0.0
 71
     5
 72
     1
  1
\U+22056
 11
0.9960495659136705
 21
-0.0887989991114099
 31
0.0
 73
     1
 44
1.0
  0
LINE
  5
4B67
330
3D12
100
AcDbEntity
  8
寸法線
 62
     0
370
    -2
100
AcDbLine
 10
629.0681515023212
 20
-40.36976826717289
 30
0.0
 11
635.0444488978032
 21
-40.90256226184134
 31
0.0
  0
SOLID
  5
4B68
330
3D12
100
AcDbEntity
  8
寸法線
 62
     0
100
AcDbTrace
 10
626.6150271705003
 20
-39.73275011693034
 30
0.0
 11
626.541028004574
 21
-40.56279142185839
 31
0.0
 12
629.0681515023212
 22
-40.36976826717289
 32
0.0
 13
629.0681515023212
 23
-40.36976826717289
 33
0.0
  0
SOLID
  5
4B69
330
3D12
100
AcDbEntity
  8
寸法線
 62
     0
100
AcDbTrace
 10
637.5715723955505
 20
-40.70953910715584
 30
0.0
 11
637.4975732296243
 21
-41.53958041208389
 31
0.0
 12
635.0444488978032
 22
-40.90256226184134
 32
0.0
 13
635.0444488978032
 23
-40.90256226184134
 33
0.0
  0
POINT
  5
4B6A
330
3D12
100
AcDbEntity
  8
Defpoints
 62
     0
100
AcDbPoint
 10
635.0444488978032
 20
-40.90256226184134
 30
0.0
  0
POINT
  5
4B6B
330
3D12
100
AcDbEntity
  8
Defpoints
 62
     0
100
AcDbPoint
 10
629.0681515023212
 20
-40.36976826717289
 30
0.0
  0
ENDBLK
  5
3D1C
330
3D12
100
AcDbEntity
  8
0
100
AcDbBlockEnd
  0
BLOCK
  5
498D
330
4983
100
AcDbEntity
  8
0
100
AcDbBlockBegin
  2
*D3
 70
     1
 10
0.0
 20
0.0
 30
0.0
  3
*D3
  1

  0
LINE
  5
4C13
330
4983
100
AcDbEntity
  8
太線
 62
     0
370
    -2
100
AcDbLine
 10
410.9071804150158
 20
-33.42282308451263
 30
0.0
 11
388.1410134385177
 21
-33.42282308451262
 31
0.0
  0
LINE
  5
4C14
330
4983
100
AcDbEntity
  8
太線
 62
     0
370
    -2
100
AcDbLine
 10
414.2050863354507
 20
26.54492489029144
 30
0.0
 11
388.1410134385177
 21
26.54492489029145
 31
0.0
  0
LINE
  5
4C15
330
4983
100
AcDbEntity
  8
太線
 62
     0
370
    -2
100
AcDbLine
 10
391.1410134385178
 20
-30.42282308451262
 30
0.0
 11
391.1410134385178
 21
23.54492489029144
 31
0.0
  0
INSERT
  5
4C16
330
4983
100
AcDbEntity
  8
太線
 62
     0
370
    -2
100
AcDbBlockReference
  2
_Closed
 10
391.1410134385178
 20
-33.42282308451262
 30
0.0
 41
3.0
 42
3.0
 43
3.0
 50
270.0
  0
INSERT
  5
4C17
330
4983
100
AcDbEntity
  8
太線
 62
     0
370
    -2
100
AcDbBlockReference
  2
_Closed
 10
391.1410134385178
 20
26.54492489029145
 30
0.0
 41
3.0
 42
3.0
 43
3.0
 50
90.0
  0
MTEXT
  5
4C18
330
4983
100
AcDbEntity
  8
太線
 62
     0
100
AcDbMText
 10
385.1410134385178
 20
-3.438949097110524
 30
0.0
 40
10.0
 41
0.0
 71
     5
 72
     1
  1
60
  7
OKANO
 11
0.0000000000000001
 21
1.0
 31
0.0
 73
     1
 44
1.0
  0
POINT
  5
4C19
330
4983
100
AcDbEntity
  8
Defpoints
 62
     0
100
AcDbPoint
 10
412.9071804150157
 20
-33.42282308451263
 30
0.0
  0
POINT
  5
4C1A
330
4983
100
AcDbEntity
  8
Defpoints
 62
     0
100
AcDbPoint
 10
416.2050863354506
 20
26.54492489029144
 30
0.0
  0
POINT
  5
4C1B
330
4983
100
AcDbEntity
  8
Defpoints
 62
     0
100
AcDbPoint
 10
391.1410134385178
 20
26.54492489029145
 30
0.0
  0
ENDBLK
  5
498E
330
4983
100
AcDbEntity
  8
0
100
AcDbBlockEnd
  0
BLOCK
  5
4B55
330
4B4B
100
AcDbEntity
  8
0
100
AcDbBlockBegin
  2
*D7
 70
     1
 10
0.0
 20
0.0
 30
0.0
  3
*D7
  1

  0
LINE
  5
4B4C
330
4B4B
100
AcDbEntity
  8
太線
 62
     0
370
    -2
100
AcDbLine
 10
451.6596503615678
 20
-104.903314322491
 30
0.0
 11
522.4768958426429
 21
-104.903314322491
 31
0.0
  0
LINE
  5
4B4D
330
4B4B
100
AcDbEntity
  8
太線
 62
     0
370
    -2
100
AcDbLine
 10
451.6596503615678
 20
-94.90331432249105
 30
0.0
 11
522.4768958426429
 21
-94.90331432249105
 31
0.0
  0
LINE
  5
4B4E
330
4B4B
100
AcDbEntity
  8
太線
 62
     0
370
    -2
100
AcDbLine
 10
519.4768958426429
 20
-101.903314322491
 30
0.0
 11
519.4768958426429
 21
-97.90331432249105
 31
0.0
  0
INSERT
  5
4B4F
330
4B4B
100
AcDbEntity
  8
太線
 62
     0
370
    -2
100
AcDbBlockReference
  2
_Closed
 10
519.4768958426429
 20
-104.903314322491
 30
0.0
 41
3.0
 42
3.0
 43
3.0
 50
270.0
  0
INSERT
  5
4B50
330
4B4B
100
AcDbEntity
  8
太線
 62
     0
370
    -2
100
AcDbBlockReference
  2
_Closed
 10
519.4768958426429
 20
-94.90331432249105
 30
0.0
 41
3.0
 42
3.0
 43
3.0
 50
90.0
  0
MTEXT
  5
4B51
330
4B4B
100
AcDbEntity
  8
太線
 62
     0
100
AcDbMText
 10
515.976895842643
 20
-99.90331432249098
 30
0.0
 40
5.0
 41
0.0
 71
     5
 72
     1
  1
10
  7
OKANO
 11
0.0000000000000001
 21
1.0
 31
0.0
 73
     1
 44
1.0
  0
POINT
  5
4B52
330
4B4B
100
AcDbEntity
  8
Defpoints
 62
     0
100
AcDbPoint
 10
449.6596503615678
 20
-104.903314322491
 30
0.0
  0
POINT
  5
4B53
330
4B4B
100
AcDbEntity
  8
Defpoints
 62
     0
100
AcDbPoint
 10
449.6596503615678
 20
-94.90331432249105
 30
0.0
  0
POINT
  5
4B54
330
4B4B
100
AcDbEntity
  8
Defpoints
 62
     0
100
AcDbPoint
 10
519.4768958426429
 20
-94.90331432249105
 30
0.0
  0
ENDBLK
  5
4B56
330
4B4B
100
AcDbEntity
  8
0
100
AcDbBlockEnd
  0
BLOCK
  5
4B62
330
4B58
100
AcDbEntity
  8
0
100
AcDbBlockBegin
  2
*D8
 70
     1
 10
0.0
 20
0.0
 30
0.0
  3
*D8
  1

  0
LINE
  5
4B98
330
4B58
100
AcDbEntity
  8
太線
 62
     0
370
    -2
100
AcDbLine
 10
451.6596503615678
 20
-94.90331432249105
 30
0.0
 11
522.4768958426429
 21
-94.90331432249105
 31
0.0
  0
LINE
  5
4B99
330
4B58
100
AcDbEntity
  8
太線
 62
     0
370
    -2
100
AcDbLine
 10
445.6596503615678
 20
135.3099843127886
 30
0.0
 11
522.4768958426429
 21
135.3099843127886
 31
0.0
  0
LINE
  5
4B9A
330
4B58
100
AcDbEntity
  8
太線
 62
     0
370
    -2
100
AcDbLine
 10
519.4768958426429
 20
-91.90331432249106
 30
0.0
 11
519.4768958426429
 21
132.3099843127885
 31
0.0
  0
INSERT
  5
4B9B
330
4B58
100
AcDbEntity
  8
太線
 62
     0
370
    -2
100
AcDbBlockReference
  2
_Closed
 10
519.4768958426429
 20
-94.90331432249105
 30
0.0
 41
3.0
 42
3.0
 43
3.0
 50
270.0
  0
INSERT
  5
4B9C
330
4B58
100
AcDbEntity
  8
太線
 62
     0
370
    -2
100
AcDbBlockReference
  2
_Closed
 10
519.4768958426429
 20
135.3099843127886
 30
0.0
 41
3.0
 42
3.0
 43
3.0
 50
90.0
  0
MTEXT
  5
4B9D
330
4B58
100
AcDbEntity
  8
太線
 62
     0
100
AcDbMText
 10
515.9764037166588
 20
20.20333499514885
 30
0.0
 40
5.0
 41
0.0
 71
     5
 72
     1
  1
230
  7
OKANO
 11
0.0000000000000001
 21
1.0
 31
0.0
 73
     1
 44
1.0
  0
POINT
  5
4B9E
330
4B58
100
AcDbEntity
  8
Defpoints
 62
     0
100
AcDbPoint
 10
449.6596503615678
 20
-94.90331432249105
 30
0.0
  0
POINT
  5
4B9F
330
4B58
100
AcDbEntity
  8
Defpoints
 62
     0
100
AcDbPoint
 10
443.6596503615678
 20
135.3099843127886
 30
0.0
  0
POINT
  5
4BA0
330
4B58
100
AcDbEntity
  8
Defpoints
 62
     0
100
AcDbPoint
 10
519.4768958426429
 20
135.3099843127886
 30
0.0
  0
ENDBLK
  5
4B63
330
4B58
100
AcDbEntity
  8
0
100
AcDbBlockEnd
  0
BLOCK
  5
4B85
330
4B7B
100
AcDbEntity
  8
0
100
AcDbBlockBegin
  2
*D9
 70
     1
 10
0.0
 20
0.0
 30
0.0
  3
*D9
  1

  0
LINE
  5
4E94
330
4B7B
100
AcDbEntity
  8
太線
 62
     0
370
    -2
100
AcDbLine
 10
445.6596503615678
 20
-128.903314322491
 30
0.0
 11
522.7835618814934
 21
-128.903314322491
 31
0.0
  0
LINE
  5
4E95
330
4B7B
100
AcDbEntity
  8
太線
 62
     0
370
    -2
100
AcDbLine
 10
445.6596503615678
 20
-116.903314322491
 30
0.0
 11
522.7835618814934
 21
-116.903314322491
 31
0.0
  0
LINE
  5
4E96
330
4B7B
100
AcDbEntity
  8
太線
 62
     0
370
    -2
100
AcDbLine
 10
519.7835618814933
 20
-125.903314322491
 30
0.0
 11
519.7835618814933
 21
-119.903314322491
 31
0.0
  0
INSERT
  5
4E97
330
4B7B
100
AcDbEntity
  8
太線
 62
     0
370
    -2
100
AcDbBlockReference
  2
_Closed
 10
519.7835618814933
 20
-128.903314322491
 30
0.0
 41
3.0
 42
3.0
 43
3.0
 50
270.0
  0
INSERT
  5
4E98
330
4B7B
100
AcDbEntity
  8
太線
 62
     0
370
    -2
100
AcDbBlockReference
  2
_Closed
 10
519.7835618814933
 20
-116.903314322491
 30
0.0
 41
3.0
 42
3.0
 43
3.0
 50
90.0
  0
MTEXT
  5
4E99
330
4B7B
100
AcDbEntity
  8
太線
 62
     0
100
AcDbMText
 10
516.2835618814933
 20
-122.9033143224909
 30
0.0
 40
5.0
 41
0.0
 71
     5
 72
     1
  1
10
  7
OKANO
 11
0.0000000000000001
 21
1.0
 31
0.0
 73
     1
 44
1.0
  0
POINT
  5
4E9A
330
4B7B
100
AcDbEntity
  8
Defpoints
 62
     0
100
AcDbPoint
 10
443.6596503615678
 20
-128.903314322491
 30
0.0
  0
POINT
  5
4E9B
330
4B7B
100
AcDbEntity
  8
Defpoints
 62
     0
100
AcDbPoint
 10
443.6596503615678
 20
-116.903314322491
 30
0.0
  0
POINT
  5
4E9C
330
4B7B
100
AcDbEntity
  8
Defpoints
 62
     0
100
AcDbPoint
 10
519.7835618814933
 20
-116.903314322491
 30
0.0
  0
ENDBLK
  5
4B86
330
4B7B
100
AcDbEntity
  8
0
100
AcDbBlockEnd
  0
BLOCK
  5
4B92
330
4B88
100
AcDbEntity
  8
0
100
AcDbBlockBegin
  2
*D10
 70
     1
 10
0.0
 20
0.0
 30
0.0
  3
*D10
  1

  0
LINE
  5
4E8B
330
4B88
100
AcDbEntity
  8
太線
 62
     0
370
    -2
100
AcDbLine
 10
445.6596503615678
 20
-116.903314322491
 30
0.0
 11
522.7835618814934
 21
-116.903314322491
 31
0.0
  0
LINE
  5
4E8C
330
4B88
100
AcDbEntity
  8
太線
 62
     0
370
    -2
100
AcDbLine
 10
445.6596503615678
 20
-104.903314322491
 30
0.0
 11
522.7835618814934
 21
-104.903314322491
 31
0.0
  0
LINE
  5
4E8D
330
4B88
100
AcDbEntity
  8
太線
 62
     0
370
    -2
100
AcDbLine
 10
519.7835618814933
 20
-113.903314322491
 30
0.0
 11
519.7835618814933
 21
-107.903314322491
 31
0.0
  0
INSERT
  5
4E8E
330
4B88
100
AcDbEntity
  8
太線
 62
     0
370
    -2
100
AcDbBlockReference
  2
_Closed
 10
519.7835618814933
 20
-116.903314322491
 30
0.0
 41
3.0
 42
3.0
 43
3.0
 50
270.0
  0
INSERT
  5
4E8F
330
4B88
100
AcDbEntity
  8
太線
 62
     0
370
    -2
100
AcDbBlockReference
  2
_Closed
 10
519.7835618814933
 20
-104.903314322491
 30
0.0
 41
3.0
 42
3.0
 43
3.0
 50
90.0
  0
MTEXT
  5
4E90
330
4B88
100
AcDbEntity
  8
太線
 62
     0
100
AcDbMText
 10
516.2835618814933
 20
-110.9033143224909
 30
0.0
 40
5.0
 41
0.0
 71
     5
 72
     1
  1
10
  7
OKANO
 11
0.0000000000000001
 21
1.0
 31
0.0
 73
     1
 44
1.0
  0
POINT
  5
4E91
330
4B88
100
AcDbEntity
  8
Defpoints
 62
     0
100
AcDbPoint
 10
443.6596503615678
 20
-116.903314322491
 30
0.0
  0
POINT
  5
4E92
330
4B88
100
AcDbEntity
  8
Defpoints
 62
     0
100
AcDbPoint
 10
443.6596503615678
 20
-104.903314322491
 30
0.0
  0
POINT
  5
4E93
330
4B88
100
AcDbEntity
  8
Defpoints
 62
     0
100
AcDbPoint
 10
519.7835618814933
 20
-104.903314322491
 30
0.0
  0
ENDBLK
  5
4B93
330
4B88
100
AcDbEntity
  8
0
100
AcDbBlockEnd
  0
BLOCK
  5
4C27
330
4C1D
100
AcDbEntity
  8
0
100
AcDbBlockBegin
  2
*D11
 70
     1
 10
0.0
 20
0.0
 30
0.0
  3
*D11
  1

  0
LINE
  5
4C42
330
4C1D
100
AcDbEntity
  8
寸法線
 62
     0
370
    -2
100
AcDbLine
 10
409.6699970991915
 20
-154.6764218792595
 30
0.0
 11
409.6699970991915
 21
-179.240767410105
 31
0.0
  0
LINE
  5
4C43
330
4C1D
100
AcDbEntity
  8
寸法線
 62
     0
370
    -2
100
AcDbLine
 10
466.8621812510711
 20
-154.6764218792595
 30
0.0
 11
466.8621812510711
 21
-179.240767410105
 31
0.0
  0
LINE
  5
4C44
330
4C1D
100
AcDbEntity
  8
寸法線
 62
     0
370
    -2
100
AcDbLine
 10
412.6699970991914
 20
-176.240767410105
 30
0.0
 11
463.8621812510712
 21
-176.240767410105
 31
0.0
  0
INSERT
  5
4C45
330
4C1D
100
AcDbEntity
  8
寸法線
 62
     0
370
    -2
100
AcDbBlockReference
  2
_Closed
 10
409.6699970991915
 20
-176.240767410105
 30
0.0
 41
3.0
 42
3.0
 43
3.0
 50
180.0
  0
INSERT
  5
4C46
330
4C1D
100
AcDbEntity
  8
寸法線
 62
     0
370
    -2
100
AcDbBlockReference
  2
_Closed
 10
466.8621812510711
 20
-176.240767410105
 30
0.0
 41
3.0
 42
3.0
 43
3.0
  0
MTEXT
  5
4C47
330
4C1D
100
AcDbEntity
  8
寸法線
 62
     0
100
AcDbMText
 10
438.2660891751313
 20
-172.740767410105
 30
0.0
 40
5.0
 41
0.0
 71
     5
 72
     1
  1
60
  7
OKANO
 73
     1
 44
1.0
  0
POINT
  5
4C48
330
4C1D
100
AcDbEntity
  8
Defpoints
 62
     0
100
AcDbPoint
 10
409.6699970991915
 20
-152.6764218792595
 30
0.0
  0
POINT
  5
4C49
330
4C1D
100
AcDbEntity
  8
Defpoints
 62
     0
100
AcDbPoint
 10
466.8621812510711
 20
-152.6764218792595
 30
0.0
  0
POINT
  5
4C4A
330
4C1D
100
AcDbEntity
  8
Defpoints
 62
     0
100
AcDbPoint
 10
466.8621812510711
 20
-176.240767410105
 30
0.0
  0
ENDBLK
  5
4C28
330
4C1D
100
AcDbEntity
  8
0
100
AcDbBlockEnd
  0
BLOCK
  5
4C55
330
4C4B
100
AcDbEntity
  8
0
100
AcDbBlockBegin
  2
*D12
 70
     1
 10
0.0
 20
0.0
 30
0.0
  3
*D12
  1

  0
LINE
  5
4C4C
330
4C4B
100
AcDbEntity
  8
寸法線
 62
     0
370
    -2
100
AcDbLine
 10
348.5645119939427
 20
30.80294005130598
 30
0.0
 11
398.9163778198013
 21
30.80294005130597
 31
0.0
  0
LINE
  5
4C4D
330
4C4B
100
AcDbEntity
  8
寸法線
 62
     0
370
    -2
100
AcDbLine
 10
348.5645119939427
 20
89.802940051306
 30
0.0
 11
398.9163778198013
 21
89.80294005130598
 31
0.0
  0
LINE
  5
4C4E
330
4C4B
100
AcDbEntity
  8
寸法線
 62
     0
370
    -2
100
AcDbLine
 10
395.9163778198013
 20
33.80294005130598
 30
0.0
 11
395.9163778198013
 21
86.80294005130598
 31
0.0
  0
INSERT
  5
4C4F
330
4C4B
100
AcDbEntity
  8
寸法線
 62
     0
370
    -2
100
AcDbBlockReference
  2
_Closed
 10
395.9163778198013
 20
30.80294005130597
 30
0.0
 41
3.0
 42
3.0
 43
3.0
 50
270.0
  0
INSERT
  5
4C50
330
4C4B
100
AcDbEntity
  8
寸法線
 62
     0
370
    -2
100
AcDbBlockReference
  2
_Closed
 10
395.9163778198013
 20
89.80294005130598
 30
0.0
 41
3.0
 42
3.0
 43
3.0
 50
90.0
  0
MTEXT
  5
4C51
330
4C4B
100
AcDbEntity
  8
寸法線
 62
     0
100
AcDbMText
 10
392.4163778198013
 20
60.30294005130604
 30
0.0
 40
5.0
 41
0.0
 71
     5
 72
     1
  1
60
  7
OKANO
 11
0.0000000000000001
 21
1.0
 31
0.0
 73
     1
 44
1.0
  0
POINT
  5
4C52
330
4C4B
100
AcDbEntity
  8
Defpoints
 62
     0
100
AcDbPoint
 10
346.5645119939427
 20
30.80294005130598
 30
0.0
  0
POINT
  5
4C53
330
4C4B
100
AcDbEntity
  8
Defpoints
 62
     0
100
AcDbPoint
 10
346.5645119939427
 20
89.802940051306
 30
0.0
  0
POINT
  5
4C54
330
4C4B
100
AcDbEntity
  8
Defpoints
 62
     0
100
AcDbPoint
 10
395.9163778198013
 20
89.80294005130598
 30
0.0
  0
ENDBLK
  5
4C56
330
4C4B
100
AcDbEntity
  8
0
100
AcDbBlockEnd
  0
BLOCK
  5
4C61
330
4C57
100
AcDbEntity
  8
0
100
AcDbBlockBegin
  2
*D13
 70
     1
 10
0.0
 20
0.0
 30
0.0
  3
*D13
  1

  0
LINE
  5
4C58
330
4C57
100
AcDbEntity
  8
寸法線
 62
     0
370
    -2
100
AcDbLine
 10
312.8544152206443
 20
62.30294005130599
 30
0.0
 11
312.8544152206443
 21
99.93016154099041
 31
0.0
  0
LINE
  5
4C59
330
4C57
100
AcDbEntity
  8
寸法線
 62
     0
370
    -2
100
AcDbLine
 10
376.0645119939427
 20
62.30294005130599
 30
0.0
 11
376.0645119939427
 21
99.93016154099041
 31
0.0
  0
LINE
  5
4C5A
330
4C57
100
AcDbEntity
  8
寸法線
 62
     0
370
    -2
100
AcDbLine
 10
315.8544152206443
 20
96.93016154099041
 30
0.0
 11
373.0645119939426
 21
96.93016154099041
 31
0.0
  0
INSERT
  5
4C5B
330
4C57
100
AcDbEntity
  8
寸法線
 62
     0
370
    -2
100
AcDbBlockReference
  2
_Closed
 10
312.8544152206443
 20
96.93016154099041
 30
0.0
 41
3.0
 42
3.0
 43
3.0
 50
180.0
  0
INSERT
  5
4C5C
330
4C57
100
AcDbEntity
  8
寸法線
 62
     0
370
    -2
100
AcDbBlockReference
  2
_Closed
 10
376.0645119939427
 20
96.93016154099041
 30
0.0
 41
3.0
 42
3.0
 43
3.0
  0
MTEXT
  5
4C5D
330
4C57
100
AcDbEntity
  8
寸法線
 62
     0
100
AcDbMText
 10
344.4594636072935
 20
100.4301615409904
 30
0.0
 40
5.0
 41
0.0
 71
     5
 72
     1
  1
65
  7
OKANO
 73
     1
 44
1.0
  0
POINT
  5
4C5E
330
4C57
100
AcDbEntity
  8
Defpoints
 62
     0
100
AcDbPoint
 10
312.8544152206443
 20
60.30294005130599
 30
0.0
  0
POINT
  5
4C5F
330
4C57
100
AcDbEntity
  8
Defpoints
 62
     0
100
AcDbPoint
 10
376.0645119939427
 20
60.30294005130599
 30
0.0
  0
POINT
  5
4C60
330
4C57
100
AcDbEntity
  8
Defpoints
 62
     0
100
AcDbPoint
 10
376.0645119939427
 20
96.93016154099041
 30
0.0
  0
ENDBLK
  5
4C62
330
4C57
100
AcDbEntity
  8
0
100
AcDbBlockEnd
  0
BLOCK
  5
4C89
330
4C7F
100
AcDbEntity
  8
0
100
AcDbBlockBegin
  2
*D15
 70
     1
 10
0.0
 20
0.0
 30
0.0
  3
*D15
  1

  0
LINE
  5
4DE8
330
4C7F
100
AcDbEntity
  8
寸法線
 62
     0
370
    -2
100
AcDbLine
 10
616.3027794224813
 20
-80.38616526450709
 30
0.0
 11
666.65464524834
 21
-80.38616526450709
 31
0.0
  0
LINE
  5
4DE9
330
4C7F
100
AcDbEntity
  8
寸法線
 62
     0
370
    -2
100
AcDbLine
 10
616.3027794224813
 20
-21.3861652645071
 30
0.0
 11
666.65464524834
 21
-21.38616526450711
 31
0.0
  0
LINE
  5
4DEA
330
4C7F
100
AcDbEntity
  8
寸法線
 62
     0
370
    -2
100
AcDbLine
 10
663.65464524834
 20
-77.3861652645071
 30
0.0
 11
663.65464524834
 21
-24.38616526450711
 31
0.0
  0
INSERT
  5
4DEB
330
4C7F
100
AcDbEntity
  8
寸法線
 62
     0
370
    -2
100
AcDbBlockReference
  2
_Closed
 10
663.65464524834
 20
-80.38616526450709
 30
0.0
 41
3.0
 42
3.0
 43
3.0
 50
270.0
  0
INSERT
  5
4DEC
330
4C7F
100
AcDbEntity
  8
寸法線
 62
     0
370
    -2
100
AcDbBlockReference
  2
_Closed
 10
663.65464524834
 20
-21.38616526450711
 30
0.0
 41
3.0
 42
3.0
 43
3.0
 50
90.0
  0
MTEXT
  5
4DED
330
4C7F
100
AcDbEntity
  8
寸法線
 62
     0
100
AcDbMText
 10
660.1546452483399
 20
-50.886165264507
 30
0.0
 40
5.0
 41
0.0
 71
     5
 72
     1
  1
60
  7
OKANO
 11
0.0000000000000001
 21
1.0
 31
0.0
 73
     1
 44
1.0
  0
POINT
  5
4DEE
330
4C7F
100
AcDbEntity
  8
Defpoints
 62
     0
100
AcDbPoint
 10
614.3027794224813
 20
-80.38616526450709
 30
0.0
  0
POINT
  5
4DEF
330
4C7F
100
AcDbEntity
  8
Defpoints
 62
     0
100
AcDbPoint
 10
614.3027794224813
 20
-21.38616526450709
 30
0.0
  0
POINT
  5
4DF0
330
4C7F
100
AcDbEntity
  8
Defpoints
 62
     0
100
AcDbPoint
 10
663.65464524834
 20
-21.38616526450711
 30
0.0
  0
ENDBLK
  5
4C8A
330
4C7F
100
AcDbEntity
  8
0
100
AcDbBlockEnd
  0
BLOCK
  5
4C95
330
4C8B
100
AcDbEntity
  8
0
100
AcDbBlockBegin
  2
*D16
 70
     1
 10
0.0
 20
0.0
 30
0.0
  3
*D16
  1

  0
LINE
  5
4DF1
330
4C8B
100
AcDbEntity
  8
寸法線
 62
     0
370
    -2
100
AcDbLine
 10
580.592682649183
 20
-48.8861652645071
 30
0.0
 11
580.592682649183
 21
-11.25894377482268
 31
0.0
  0
LINE
  5
4DF2
330
4C8B
100
AcDbEntity
  8
寸法線
 62
     0
370
    -2
100
AcDbLine
 10
643.8027794224812
 20
-48.8861652645071
 30
0.0
 11
643.8027794224812
 21
-11.25894377482268
 31
0.0
  0
LINE
  5
4DF3
330
4C8B
100
AcDbEntity
  8
寸法線
 62
     0
370
    -2
100
AcDbLine
 10
583.5926826491829
 20
-14.25894377482268
 30
0.0
 11
640.8027794224813
 21
-14.25894377482268
 31
0.0
  0
INSERT
  5
4DF4
330
4C8B
100
AcDbEntity
  8
寸法線
 62
     0
370
    -2
100
AcDbBlockReference
  2
_Closed
 10
580.592682649183
 20
-14.25894377482268
 30
0.0
 41
3.0
 42
3.0
 43
3.0
 50
180.0
  0
INSERT
  5
4DF5
330
4C8B
100
AcDbEntity
  8
寸法線
 62
     0
370
    -2
100
AcDbBlockReference
  2
_Closed
 10
643.8027794224812
 20
-14.25894377482268
 30
0.0
 41
3.0
 42
3.0
 43
3.0
  0
MTEXT
  5
4DF6
330
4C8B
100
AcDbEntity
  8
寸法線
 62
     0
100
AcDbMText
 10
612.1977310358321
 20
-10.75894377482268
 30
0.0
 40
5.0
 41
0.0
 71
     5
 72
     1
  1
65
  7
OKANO
 73
     1
 44
1.0
  0
POINT
  5
4DF7
330
4C8B
100
AcDbEntity
  8
Defpoints
 62
     0
100
AcDbPoint
 10
580.592682649183
 20
-50.8861652645071
 30
0.0
  0
POINT
  5
4DF8
330
4C8B
100
AcDbEntity
  8
Defpoints
 62
     0
100
AcDbPoint
 10
643.8027794224812
 20
-50.8861652645071
 30
0.0
  0
POINT
  5
4DF9
330
4C8B
100
AcDbEntity
  8
Defpoints
 62
     0
100
AcDbPoint
 10
643.8027794224812
 20
-14.25894377482268
 30
0.0
  0
ENDBLK
  5
4C96
330
4C8B
100
AcDbEntity
  8
0
100
AcDbBlockEnd
  0
BLOCK
  5
4CB3
330
4CA9
100
AcDbEntity
  8
0
100
AcDbBlockBegin
  2
*D17
 70
     1
 10
0.0
 20
0.0
 30
0.0
  3
*D17
  1

  0
LINE
  5
4CAA
330
4CA9
100
AcDbEntity
  8
寸法線
 62
     0
370
    -2
100
AcDbLine
 10
684.1393403857444
 20
17.6200095177808
 30
0.0
 11
664.3772526316872
 21
17.6200095177808
 31
0.0
  0
LINE
  5
4CAB
330
4CA9
100
AcDbEntity
  8
寸法線
 62
     0
370
    -2
100
AcDbLine
 10
684.8855061582087
 20
5.722959512952002
 30
0.0
 11
664.3772526316872
 21
5.722959512952007
 31
0.0
  0
LINE
  5
4CAC
330
4CA9
100
AcDbEntity
  8
寸法線
 62
     0
370
    -2
100
AcDbLine
 10
665.6272526316873
 20
15.1200095177808
 30
0.0
 11
665.6272526316873
 21
8.222959512952007
 31
0.0
  0
SOLID
  5
4CAD
330
4CA9
100
AcDbEntity
  8
寸法線
 62
     0
100
AcDbTrace
 10
665.2105859650206
 20
15.1200095177808
 30
0.0
 11
666.0439192983538
 21
15.1200095177808
 31
0.0
 12
665.6272526316873
 22
17.6200095177808
 32
0.0
 13
665.6272526316873
 23
17.6200095177808
 33
0.0
  0
SOLID
  5
4CAE
330
4CA9
100
AcDbEntity
  8
寸法線
 62
     0
100
AcDbTrace
 10
665.2105859650206
 20
8.222959512952007
 30
0.0
 11
666.0439192983538
 21
8.222959512952007
 31
0.0
 12
665.6272526316873
 22
5.722959512952007
 32
0.0
 13
665.6272526316873
 23
5.722959512952007
 33
0.0
  0
MTEXT
  5
4CAF
330
4CA9
100
AcDbEntity
  8
寸法線
 62
     0
370
    25
100
AcDbMText
 10
663.7522526316872
 20
11.67148451536651
 30
0.0
 40
2.5
 41
0.0
 71
     5
 72
     1
  1
12
 11
0.0000000000000001
 21
1.0
 31
0.0
 73
     1
 44
1.0
  0
POINT
  5
4CB0
330
4CA9
100
AcDbEntity
  8
Defpoints
 62
     0
100
AcDbPoint
 10
684.7643403857444
 20
17.6200095177808
 30
0.0
  0
POINT
  5
4CB1
330
4CA9
100
AcDbEntity
  8
Defpoints
 62
     0
100
AcDbPoint
 10
685.5105061582086
 20
5.722959512952002
 30
0.0
  0
POINT
  5
4CB2
330
4CA9
100
AcDbEntity
  8
Defpoints
 62
     0
100
AcDbPoint
 10
665.6272526316873
 20
5.722959512952007
 30
0.0
  0
ENDBLK
  5
4CB4
330
4CA9
100
AcDbEntity
  8
0
100
AcDbBlockEnd
  0
BLOCK
  5
4CBF
330
4CB5
100
AcDbEntity
  8
0
100
AcDbBlockBegin
  2
*D18
 70
     1
 10
0.0
 20
0.0
 30
0.0
  3
*D18
  1

  0
LINE
  5
4CB6
330
4CB5
100
AcDbEntity
  8
寸法線
 62
     0
370
    -2
100
AcDbLine
 10
676.5156989326826
 20
9.65845954194674
 30
0.0
 11
676.5156989326826
 21
30.14645605612736
 31
0.0
  0
LINE
  5
4CB7
330
4CB5
100
AcDbEntity
  8
寸法線
 62
     0
370
    -2
100
AcDbLine
 10
686.9307390676519
 20
8.239673030994254
 30
0.0
 11
686.9307390676519
 21
30.14645605612736
 31
0.0
  0
LINE
  5
4CB8
330
4CB5
100
AcDbEntity
  8
寸法線
 62
     0
370
    -2
100
AcDbLine
 10
679.0156989326826
 20
28.89645605612736
 30
0.0
 11
684.430739067652
 21
28.89645605612736
 31
0.0
  0
SOLID
  5
4CB9
330
4CB5
100
AcDbEntity
  8
寸法線
 62
     0
100
AcDbTrace
 10
679.0156989326826
 20
29.31312272279403
 30
0.0
 11
679.0156989326826
 21
28.47978938946069
 31
0.0
 12
676.5156989326826
 22
28.89645605612736
 32
0.0
 13
676.5156989326826
 23
28.89645605612736
 33
0.0
  0
SOLID
  5
4CBA
330
4CB5
100
AcDbEntity
  8
寸法線
 62
     0
100
AcDbTrace
 10
684.430739067652
 20
29.31312272279403
 30
0.0
 11
684.430739067652
 21
28.47978938946069
 31
0.0
 12
686.9307390676519
 22
28.89645605612736
 32
0.0
 13
686.9307390676519
 23
28.89645605612736
 33
0.0
  0
MTEXT
  5
4CBB
330
4CB5
100
AcDbEntity
  8
寸法線
 62
     0
370
    25
100
AcDbMText
 10
681.7232190001673
 20
30.77145605612736
 30
0.0
 40
2.5
 41
0.0
 71
     5
 72
     1
  1
10
 73
     1
 44
1.0
  0
POINT
  5
4CBC
330
4CB5
100
AcDbEntity
  8
Defpoints
 62
     0
100
AcDbPoint
 10
676.5156989326826
 20
9.03345954194674
 30
0.0
  0
POINT
  5
4CBD
330
4CB5
100
AcDbEntity
  8
Defpoints
 62
     0
100
AcDbPoint
 10
686.9307390676519
 20
7.614673030994254
 30
0.0
  0
POINT
  5
4CBE
330
4CB5
100
AcDbEntity
  8
Defpoints
 62
     0
100
AcDbPoint
 10
686.9307390676519
 20
28.89645605612736
 30
0.0
  0
ENDBLK
  5
4CC0
330
4CB5
100
AcDbEntity
  8
0
100
AcDbBlockEnd
  0
BLOCK
  5
4CCB
330
4CC1
100
AcDbEntity
  8
0
100
AcDbBlockBegin
  2
*D19
 70
     1
 10
0.0
 20
0.0
 30
0.0
  3
*D19
  1

  0
LINE
  5
4CC2
330
4CC1
100
AcDbEntity
  8
寸法線
 62
     0
370
    -2
100
AcDbLine
 10
737.0333448042863
 20
-22.37999048221922
 30
0.0
 11
757.2987202444508
 21
-22.37999048221923
 31
0.0
  0
LINE
  5
4CC3
330
4CC1
100
AcDbEntity
  8
寸法線
 62
     0
370
    -2
100
AcDbLine
 10
737.3893403857444
 20
17.62000951778077
 30
0.0
 11
757.2987202444508
 21
17.62000951778077
 31
0.0
  0
LINE
  5
4CC4
330
4CC1
100
AcDbEntity
  8
寸法線
 62
     0
370
    -2
100
AcDbLine
 10
756.0487202444508
 20
-19.87999048221923
 30
0.0
 11
756.0487202444508
 21
15.12000951778076
 31
0.0
  0
SOLID
  5
4CC5
330
4CC1
100
AcDbEntity
  8
寸法線
 62
     0
100
AcDbTrace
 10
755.6320535777842
 20
-19.87999048221923
 30
0.0
 11
756.4653869111174
 21
-19.87999048221923
 31
0.0
 12
756.0487202444508
 22
-22.37999048221923
 32
0.0
 13
756.0487202444508
 23
-22.37999048221923
 33
0.0
  0
SOLID
  5
4CC6
330
4CC1
100
AcDbEntity
  8
寸法線
 62
     0
100
AcDbTrace
 10
755.6320535777842
 20
15.12000951778077
 30
0.0
 11
756.4653869111174
 21
15.12000951778076
 31
0.0
 12
756.0487202444508
 22
17.62000951778077
 32
0.0
 13
756.0487202444508
 23
17.62000951778077
 33
0.0
  0
MTEXT
  5
4CC7
330
4CC1
100
AcDbEntity
  8
寸法線
 62
     0
370
    25
100
AcDbMText
 10
752.9237202444508
 20
-2.37999048221911
 30
0.0
 40
5.0
 41
0.0
 71
     5
 72
     1
  1
40
 11
0.0000000000000001
 21
1.0
 31
0.0
 73
     1
 44
1.0
  0
POINT
  5
4CC8
330
4CC1
100
AcDbEntity
  8
Defpoints
 62
     0
100
AcDbPoint
 10
736.4083448042863
 20
-22.37999048221922
 30
0.0
  0
POINT
  5
4CC9
330
4CC1
100
AcDbEntity
  8
Defpoints
 62
     0
100
AcDbPoint
 10
736.7643403857443
 20
17.62000951778077
 30
0.0
  0
POINT
  5
4CCA
330
4CC1
100
AcDbEntity
  8
Defpoints
 62
     0
100
AcDbPoint
 10
756.0487202444508
 20
17.62000951778077
 30
0.0
  0
ENDBLK
  5
4CCC
330
4CC1
100
AcDbEntity
  8
0
100
AcDbBlockEnd
  0
BLOCK
  5
4CD7
330
4CCD
100
AcDbEntity
  8
0
100
AcDbBlockBegin
  2
*D20
 70
     1
 10
0.0
 20
0.0
 30
0.0
  3
*D20
  1

  0
LINE
  5
4CCE
330
4CCD
100
AcDbEntity
  8
寸法線
 62
     0
370
    -2
100
AcDbLine
 10
738.7643403857444
 20
-32.37999048221922
 30
0.0
 11
759.0487202444507
 21
-32.37999048221923
 31
0.0
  0
LINE
  5
4CCF
330
4CCD
100
AcDbEntity
  8
寸法線
 62
     0
370
    -2
100
AcDbLine
 10
743.7643403857443
 20
-22.37999048221922
 30
0.0
 11
759.0487202444507
 21
-22.37999048221923
 31
0.0
  0
LINE
  5
4CD0
330
4CCD
100
AcDbEntity
  8
寸法線
 62
     0
370
    -2
100
AcDbLine
 10
756.0487202444508
 20
-29.37999048221923
 30
0.0
 11
756.0487202444508
 21
-25.37999048221923
 31
0.0
  0
INSERT
  5
4CD1
330
4CCD
100
AcDbEntity
  8
寸法線
 62
     0
370
    -2
100
AcDbBlockReference
  2
_Closed
 10
756.0487202444508
 20
-32.37999048221923
 30
0.0
 41
3.0
 42
3.0
 43
3.0
 50
270.0
  0
INSERT
  5
4CD2
330
4CCD
100
AcDbEntity
  8
寸法線
 62
     0
370
    -2
100
AcDbBlockReference
  2
_Closed
 10
756.0487202444508
 20
-22.37999048221923
 30
0.0
 41
3.0
 42
3.0
 43
3.0
 50
90.0
  0
MTEXT
  5
4CD3
330
4CCD
100
AcDbEntity
  8
寸法線
 62
     0
100
AcDbMText
 10
752.5487202444508
 20
-27.37999048221911
 30
0.0
 40
5.0
 41
0.0
 71
     5
 72
     1
  1
10
  7
OKANO
 11
0.0000000000000001
 21
1.0
 31
0.0
 73
     1
 44
1.0
  0
POINT
  5
4CD4
330
4CCD
100
AcDbEntity
  8
Defpoints
 62
     0
100
AcDbPoint
 10
736.7643403857443
 20
-32.37999048221922
 30
0.0
  0
POINT
  5
4CD5
330
4CCD
100
AcDbEntity
  8
Defpoints
 62
     0
100
AcDbPoint
 10
741.7643403857444
 20
-22.37999048221922
 30
0.0
  0
POINT
  5
4CD6
330
4CCD
100
AcDbEntity
  8
Defpoints
 62
     0
100
AcDbPoint
 10
756.0487202444508
 20
-22.37999048221923
 30
0.0
  0
ENDBLK
  5
4CD8
330
4CCD
100
AcDbEntity
  8
0
100
AcDbBlockEnd
  0
BLOCK
  5
4D3F
330
4D35
100
AcDbEntity
  8
0
100
AcDbBlockBegin
  2
*D22
 70
     1
 10
0.0
 20
0.0
 30
0.0
  3
*D22
  1

  0
LINE
  5
4D65
330
4D35
100
AcDbEntity
  8
寸法線
 62
     0
370
    -2
100
AcDbLine
 10
695.8423495440354
 20
-113.6729215257789
 30
0.0
 11
695.8423495440354
 21
-93.18492501159836
 31
0.0
  0
LINE
  5
4D66
330
4D35
100
AcDbEntity
  8
寸法線
 62
     0
370
    -2
100
AcDbLine
 10
706.2573896790047
 20
-115.0917080367314
 30
0.0
 11
706.2573896790047
 21
-93.18492501159836
 31
0.0
  0
LINE
  5
4D67
330
4D35
100
AcDbEntity
  8
寸法線
 62
     0
370
    -2
100
AcDbLine
 10
698.3423495440354
 20
-94.43492501159836
 30
0.0
 11
703.7573896790047
 21
-94.43492501159836
 31
0.0
  0
SOLID
  5
4D68
330
4D35
100
AcDbEntity
  8
寸法線
 62
     0
100
AcDbTrace
 10
698.3423495440354
 20
-94.01825834493168
 30
0.0
 11
698.3423495440354
 21
-94.85159167826502
 31
0.0
 12
695.8423495440354
 22
-94.43492501159836
 32
0.0
 13
695.8423495440354
 23
-94.43492501159836
 33
0.0
  0
SOLID
  5
4D69
330
4D35
100
AcDbEntity
  8
寸法線
 62
     0
100
AcDbTrace
 10
703.7573896790047
 20
-94.01825834493168
 30
0.0
 11
703.7573896790047
 21
-94.85159167826502
 31
0.0
 12
706.2573896790047
 22
-94.43492501159836
 32
0.0
 13
706.2573896790047
 23
-94.43492501159836
 33
0.0
  0
MTEXT
  5
4D6A
330
4D35
100
AcDbEntity
  8
寸法線
 62
     0
370
    25
100
AcDbMText
 10
701.0498696115201
 20
-92.55992501159836
 30
0.0
 40
2.5
 41
0.0
 71
     5
 72
     1
  1
10
 73
     1
 44
1.0
  0
POINT
  5
4D6B
330
4D35
100
AcDbEntity
  8
Defpoints
 62
     0
100
AcDbPoint
 10
695.8423495440354
 20
-114.2979215257789
 30
0.0
  0
POINT
  5
4D6C
330
4D35
100
AcDbEntity
  8
Defpoints
 62
     0
100
AcDbPoint
 10
706.2573896790047
 20
-115.7167080367314
 30
0.0
  0
POINT
  5
4D6D
330
4D35
100
AcDbEntity
  8
Defpoints
 62
     0
100
AcDbPoint
 10
706.2573896790047
 20
-94.43492501159836
 30
0.0
  0
ENDBLK
  5
4D40
330
4D35
100
AcDbEntity
  8
0
100
AcDbBlockEnd
  0
BLOCK
  5
4D4B
330
4D41
100
AcDbEntity
  8
0
100
AcDbBlockBegin
  2
*D23
 70
     1
 10
0.0
 20
0.0
 30
0.0
  3
*D23
  1

  0
LINE
  5
4D6E
330
4D41
100
AcDbEntity
  8
寸法線
 62
     0
370
    -2
100
AcDbLine
 10
703.4659909970971
 20
-105.7113715499449
 30
0.0
 11
683.70390324304
 21
-105.7113715499449
 31
0.0
  0
LINE
  5
4D6F
330
4D41
100
AcDbEntity
  8
寸法線
 62
     0
370
    -2
100
AcDbLine
 10
704.2121567695614
 20
-117.6084215547737
 30
0.0
 11
683.70390324304
 21
-117.6084215547737
 31
0.0
  0
LINE
  5
4D70
330
4D41
100
AcDbEntity
  8
寸法線
 62
     0
370
    -2
100
AcDbLine
 10
684.95390324304
 20
-108.2113715499449
 30
0.0
 11
684.95390324304
 21
-115.1084215547737
 31
0.0
  0
SOLID
  5
4D71
330
4D41
100
AcDbEntity
  8
寸法線
 62
     0
100
AcDbTrace
 10
684.5372365763734
 20
-108.2113715499449
 30
0.0
 11
685.3705699097067
 21
-108.2113715499449
 31
0.0
 12
684.95390324304
 22
-105.7113715499449
 32
0.0
 13
684.95390324304
 23
-105.7113715499449
 33
0.0
  0
SOLID
  5
4D72
330
4D41
100
AcDbEntity
  8
寸法線
 62
     0
100
AcDbTrace
 10
684.5372365763734
 20
-115.1084215547737
 30
0.0
 11
685.3705699097067
 21
-115.1084215547737
 31
0.0
 12
684.95390324304
 22
-117.6084215547737
 32
0.0
 13
684.95390324304
 23
-117.6084215547737
 33
0.0
  0
MTEXT
  5
4D73
330
4D41
100
AcDbEntity
  8
寸法線
 62
     0
370
    25
100
AcDbMText
 10
683.07890324304
 20
-111.6598965523591
 30
0.0
 40
2.5
 41
0.0
 71
     5
 72
     1
  1
12
 11
0.0000000000000001
 21
1.0
 31
0.0
 73
     1
 44
1.0
  0
POINT
  5
4D74
330
4D41
100
AcDbEntity
  8
Defpoints
 62
     0
100
AcDbPoint
 10
704.0909909970971
 20
-105.7113715499449
 30
0.0
  0
POINT
  5
4D75
330
4D41
100
AcDbEntity
  8
Defpoints
 62
     0
100
AcDbPoint
 10
704.8371567695615
 20
-117.6084215547737
 30
0.0
  0
POINT
  5
4D76
330
4D41
100
AcDbEntity
  8
Defpoints
 62
     0
100
AcDbPoint
 10
684.95390324304
 20
-117.6084215547737
 30
0.0
  0
ENDBLK
  5
4D4C
330
4D41
100
AcDbEntity
  8
0
100
AcDbBlockEnd
  0
BLOCK
  5
4D57
330
4D4D
100
AcDbEntity
  8
0
100
AcDbBlockBegin
  2
*D24
 70
     1
 10
0.0
 20
0.0
 30
0.0
  3
*D24
  1

  0
LINE
  5
4D77
330
4D4D
100
AcDbEntity
  8
寸法線
 62
     0
370
    -2
100
AcDbLine
 10
756.3599954156391
 20
-145.7113715499449
 30
0.0
 11
776.6253708558036
 21
-145.7113715499449
 31
0.0
  0
LINE
  5
4D78
330
4D4D
100
AcDbEntity
  8
寸法線
 62
     0
370
    -2
100
AcDbLine
 10
756.7159909970971
 20
-105.7113715499449
 30
0.0
 11
776.6253708558036
 21
-105.7113715499449
 31
0.0
  0
LINE
  5
4D79
330
4D4D
100
AcDbEntity
  8
寸法線
 62
     0
370
    -2
100
AcDbLine
 10
775.3753708558035
 20
-143.2113715499449
 30
0.0
 11
775.3753708558035
 21
-108.2113715499449
 31
0.0
  0
SOLID
  5
4D7A
330
4D4D
100
AcDbEntity
  8
寸法線
 62
     0
100
AcDbTrace
 10
774.9587041891369
 20
-143.2113715499449
 30
0.0
 11
775.7920375224702
 21
-143.2113715499449
 31
0.0
 12
775.3753708558035
 22
-145.7113715499449
 32
0.0
 13
775.3753708558035
 23
-145.7113715499449
 33
0.0
  0
SOLID
  5
4D7B
330
4D4D
100
AcDbEntity
  8
寸法線
 62
     0
100
AcDbTrace
 10
774.9587041891369
 20
-108.2113715499449
 30
0.0
 11
775.7920375224702
 21
-108.2113715499449
 31
0.0
 12
775.3753708558035
 22
-105.7113715499449
 32
0.0
 13
775.3753708558035
 23
-105.7113715499449
 33
0.0
  0
MTEXT
  5
4D7C
330
4D4D
100
AcDbEntity
  8
寸法線
 62
     0
370
    25
100
AcDbMText
 10
772.2503708558035
 20
-125.7113715499448
 30
0.0
 40
5.0
 41
0.0
 71
     5
 72
     1
  1
40
 11
0.0000000000000001
 21
1.0
 31
0.0
 73
     1
 44
1.0
  0
POINT
  5
4D7D
330
4D4D
100
AcDbEntity
  8
Defpoints
 62
     0
100
AcDbPoint
 10
755.7349954156391
 20
-145.7113715499449
 30
0.0
  0
POINT
  5
4D7E
330
4D4D
100
AcDbEntity
  8
Defpoints
 62
     0
100
AcDbPoint
 10
756.0909909970972
 20
-105.7113715499449
 30
0.0
  0
POINT
  5
4D7F
330
4D4D
100
AcDbEntity
  8
Defpoints
 62
     0
100
AcDbPoint
 10
775.3753708558035
 20
-105.7113715499449
 30
0.0
  0
ENDBLK
  5
4D58
330
4D4D
100
AcDbEntity
  8
0
100
AcDbBlockEnd
  0
BLOCK
  5
4D63
330
4D59
100
AcDbEntity
  8
0
100
AcDbBlockBegin
  2
*D25
 70
     1
 10
0.0
 20
0.0
 30
0.0
  3
*D25
  1

  0
LINE
  5
4D80
330
4D59
100
AcDbEntity
  8
寸法線
 62
     0
370
    -2
100
AcDbLine
 10
758.0909909970971
 20
-155.7113715499449
 30
0.0
 11
778.3753708558036
 21
-155.7113715499449
 31
0.0
  0
LINE
  5
4D81
330
4D59
100
AcDbEntity
  8
寸法線
 62
     0
370
    -2
100
AcDbLine
 10
763.0909909970971
 20
-145.7113715499449
 30
0.0
 11
778.3753708558036
 21
-145.7113715499449
 31
0.0
  0
LINE
  5
4D82
330
4D59
100
AcDbEntity
  8
寸法線
 62
     0
370
    -2
100
AcDbLine
 10
775.3753708558035
 20
-152.7113715499449
 30
0.0
 11
775.3753708558035
 21
-148.7113715499449
 31
0.0
  0
INSERT
  5
4D83
330
4D59
100
AcDbEntity
  8
寸法線
 62
     0
370
    -2
100
AcDbBlockReference
  2
_Closed
 10
775.3753708558035
 20
-155.7113715499449
 30
0.0
 41
3.0
 42
3.0
 43
3.0
 50
270.0
  0
INSERT
  5
4D84
330
4D59
100
AcDbEntity
  8
寸法線
 62
     0
370
    -2
100
AcDbBlockReference
  2
_Closed
 10
775.3753708558035
 20
-145.7113715499449
 30
0.0
 41
3.0
 42
3.0
 43
3.0
 50
90.0
  0
MTEXT
  5
4D85
330
4D59
100
AcDbEntity
  8
寸法線
 62
     0
100
AcDbMText
 10
771.8753708558035
 20
-150.7113715499448
 30
0.0
 40
5.0
 41
0.0
 71
     5
 72
     1
  1
10
  7
OKANO
 11
0.0000000000000001
 21
1.0
 31
0.0
 73
     1
 44
1.0
  0
POINT
  5
4D86
330
4D59
100
AcDbEntity
  8
Defpoints
 62
     0
100
AcDbPoint
 10
756.0909909970972
 20
-155.7113715499449
 30
0.0
  0
POINT
  5
4D87
330
4D59
100
AcDbEntity
  8
Defpoints
 62
     0
100
AcDbPoint
 10
761.0909909970971
 20
-145.7113715499449
 30
0.0
  0
POINT
  5
4D88
330
4D59
100
AcDbEntity
  8
Defpoints
 62
     0
100
AcDbPoint
 10
775.3753708558035
 20
-145.7113715499449
 30
0.0
  0
ENDBLK
  5
4D64
330
4D59
100
AcDbEntity
  8
0
100
AcDbBlockEnd
  0
BLOCK
  5
4DA9
330
4D9F
100
AcDbEntity
  8
0
100
AcDbBlockBegin
  2
*D26
 70
     1
 10
0.0
 20
0.0
 30
0.0
  3
*D26
  1

  0
LINE
  5
4DB7
330
4D9F
100
AcDbEntity
  8
寸法線
 62
     0
370
    -2
100
AcDbLine
 10
585.2366907332184
 20
-138.5874001082754
 30
0.0
 11
585.2366907332184
 21
-118.0994035940948
 31
0.0
  0
LINE
  5
4DB8
330
4D9F
100
AcDbEntity
  8
寸法線
 62
     0
370
    -2
100
AcDbLine
 10
595.6517308681878
 20
-140.0061866192279
 30
0.0
 11
595.6517308681878
 21
-118.0994035940948
 31
0.0
  0
LINE
  5
4DB9
330
4D9F
100
AcDbEntity
  8
寸法線
 62
     0
370
    -2
100
AcDbLine
 10
587.7366907332184
 20
-119.3494035940948
 30
0.0
 11
593.1517308681877
 21
-119.3494035940948
 31
0.0
  0
SOLID
  5
4DBA
330
4D9F
100
AcDbEntity
  8
寸法線
 62
     0
100
AcDbTrace
 10
587.7366907332184
 20
-118.9327369274282
 30
0.0
 11
587.7366907332184
 21
-119.7660702607615
 31
0.0
 12
585.2366907332184
 22
-119.3494035940948
 32
0.0
 13
585.2366907332184
 23
-119.3494035940948
 33
0.0
  0
SOLID
  5
4DBB
330
4D9F
100
AcDbEntity
  8
寸法線
 62
     0
100
AcDbTrace
 10
593.1517308681877
 20
-118.9327369274282
 30
0.0
 11
593.1517308681877
 21
-119.7660702607615
 31
0.0
 12
595.6517308681878
 22
-119.3494035940948
 32
0.0
 13
595.6517308681878
 23
-119.3494035940948
 33
0.0
  0
MTEXT
  5
4DBC
330
4D9F
100
AcDbEntity
  8
寸法線
 62
     0
370
    25
100
AcDbMText
 10
590.4442108007031
 20
-117.4744035940948
 30
0.0
 40
2.5
 41
0.0
 71
     5
 72
     1
  1
10
 73
     1
 44
1.0
  0
POINT
  5
4DBD
330
4D9F
100
AcDbEntity
  8
Defpoints
 62
     0
100
AcDbPoint
 10
585.2366907332184
 20
-139.2124001082754
 30
0.0
  0
POINT
  5
4DBE
330
4D9F
100
AcDbEntity
  8
Defpoints
 62
     0
100
AcDbPoint
 10
595.6517308681878
 20
-140.6311866192279
 30
0.0
  0
POINT
  5
4DBF
330
4D9F
100
AcDbEntity
  8
Defpoints
 62
     0
100
AcDbPoint
 10
595.6517308681878
 20
-119.3494035940948
 30
0.0
  0
ENDBLK
  5
4DAA
330
4D9F
100
AcDbEntity
  8
0
100
AcDbBlockEnd
  0
BLOCK
  5
4DB5
330
4DAB
100
AcDbEntity
  8
0
100
AcDbBlockBegin
  2
*D27
 70
     1
 10
0.0
 20
0.0
 30
0.0
  3
*D27
  1

  0
LINE
  5
4DC0
330
4DAB
100
AcDbEntity
  8
寸法線
 62
     0
370
    -2
100
AcDbLine
 10
592.8603321862802
 20
-130.6258501324414
 30
0.0
 11
573.098244432223
 21
-130.6258501324414
 31
0.0
  0
LINE
  5
4DC1
330
4DAB
100
AcDbEntity
  8
寸法線
 62
     0
370
    -2
100
AcDbLine
 10
593.6064979587444
 20
-142.5229001372702
 30
0.0
 11
573.098244432223
 21
-142.5229001372701
 31
0.0
  0
LINE
  5
4DC2
330
4DAB
100
AcDbEntity
  8
寸法線
 62
     0
370
    -2
100
AcDbLine
 10
574.348244432223
 20
-133.1258501324414
 30
0.0
 11
574.348244432223
 21
-140.0229001372702
 31
0.0
  0
SOLID
  5
4DC3
330
4DAB
100
AcDbEntity
  8
寸法線
 62
     0
100
AcDbTrace
 10
573.9315777655564
 20
-133.1258501324414
 30
0.0
 11
574.7649110988897
 21
-133.1258501324414
 31
0.0
 12
574.348244432223
 22
-130.6258501324414
 32
0.0
 13
574.348244432223
 23
-130.6258501324414
 33
0.0
  0
SOLID
  5
4DC4
330
4DAB
100
AcDbEntity
  8
寸法線
 62
     0
100
AcDbTrace
 10
573.9315777655564
 20
-140.0229001372702
 30
0.0
 11
574.7649110988897
 21
-140.0229001372702
 31
0.0
 12
574.348244432223
 22
-142.5229001372701
 32
0.0
 13
574.348244432223
 23
-142.5229001372701
 33
0.0
  0
MTEXT
  5
4DC5
330
4DAB
100
AcDbEntity
  8
寸法線
 62
     0
370
    25
100
AcDbMText
 10
572.473244432223
 20
-136.5743751348557
 30
0.0
 40
2.5
 41
0.0
 71
     5
 72
     1
  1
12
 11
0.0000000000000001
 21
1.0
 31
0.0
 73
     1
 44
1.0
  0
POINT
  5
4DC6
330
4DAB
100
AcDbEntity
  8
Defpoints
 62
     0
100
AcDbPoint
 10
593.4853321862801
 20
-130.6258501324414
 30
0.0
  0
POINT
  5
4DC7
330
4DAB
100
AcDbEntity
  8
Defpoints
 62
     0
100
AcDbPoint
 10
594.2314979587445
 20
-142.5229001372702
 30
0.0
  0
POINT
  5
4DC8
330
4DAB
100
AcDbEntity
  8
Defpoints
 62
     0
100
AcDbPoint
 10
574.348244432223
 20
-142.5229001372701
 30
0.0
  0
ENDBLK
  5
4DB6
330
4DAB
100
AcDbEntity
  8
0
100
AcDbBlockEnd
  0
BLOCK
  5
4E05
330
4DFB
100
AcDbEntity
  8
0
100
AcDbBlockBegin
  2
*D28
 70
     1
 10
0.0
 20
0.0
 30
0.0
  3
*D28
  1

  0
LINE
  5
4E1D
330
4DFB
100
AcDbEntity
  8
寸法線
 62
     0
370
    -2
100
AcDbLine
 10
412.1385298764233
 20
-154.5229001372701
 30
0.0
 11
380.3667593486938
 21
-154.5229001372701
 31
0.0
  0
LINE
  5
4E1E
330
4DFB
100
AcDbEntity
  8
寸法線
 62
     0
370
    -2
100
AcDbLine
 10
416.2869328874891
 20
-104.903314322491
 30
0.0
 11
380.3667593486938
 21
-104.903314322491
 31
0.0
  0
LINE
  5
4E1F
330
4DFB
100
AcDbEntity
  8
寸法線
 62
     0
370
    -2
100
AcDbLine
 10
383.3667593486938
 20
-151.5229001372702
 30
0.0
 11
383.3667593486939
 21
-107.903314322491
 31
0.0
  0
INSERT
  5
4E20
330
4DFB
100
AcDbEntity
  8
寸法線
 62
     0
370
    -2
100
AcDbBlockReference
  2
_Closed
 10
383.3667593486938
 20
-154.5229001372701
 30
0.0
 41
3.0
 42
3.0
 43
3.0
 50
270.0
  0
INSERT
  5
4E21
330
4DFB
100
AcDbEntity
  8
寸法線
 62
     0
370
    -2
100
AcDbBlockReference
  2
_Closed
 10
383.3667593486939
 20
-104.903314322491
 30
0.0
 41
3.0
 42
3.0
 43
3.0
 50
90.0
  0
MTEXT
  5
4E22
330
4DFB
100
AcDbEntity
  8
寸法線
 62
     0
100
AcDbMText
 10
379.8667593486939
 20
-129.7131072298805
 30
0.0
 40
5.0
 41
0.0
 71
     5
 72
     1
  1
50
  7
OKANO
 11
0.0000000000000001
 21
1.0
 31
0.0
 73
     1
 44
1.0
  0
POINT
  5
4E23
330
4DFB
100
AcDbEntity
  8
Defpoints
 62
     0
100
AcDbPoint
 10
414.1385298764233
 20
-154.5229001372701
 30
0.0
  0
POINT
  5
4E24
330
4DFB
100
AcDbEntity
  8
Defpoints
 62
     0
100
AcDbPoint
 10
418.2869328874891
 20
-104.903314322491
 30
0.0
  0
POINT
  5
4E25
330
4DFB
100
AcDbEntity
  8
Defpoints
 62
     0
100
AcDbPoint
 10
383.3667593486939
 20
-104.903314322491
 30
0.0
  0
ENDBLK
  5
4E06
330
4DFB
100
AcDbEntity
  8
0
100
AcDbBlockEnd
  0
BLOCK
  5
4E12
330
4E08
100
AcDbEntity
  8
0
100
AcDbBlockBegin
  2
*D29
 70
     1
 10
0.0
 20
0.0
 30
0.0
  3
*D29
  1

  0
LINE
  5
4E14
330
4E08
100
AcDbEntity
  8
寸法線
 62
     0
370
    -2
100
AcDbLine
 10
411.2210310658728
 20
-32.6521385909009
 30
0.0
 11
382.2986619038893
 21
-32.65213859090089
 31
0.0
  0
LINE
  5
4E15
330
4E08
100
AcDbEntity
  8
寸法線
 62
     0
370
    -2
100
AcDbLine
 10
411.2210310658728
 20
19.58703303865741
 30
0.0
 11
382.2986619038893
 21
19.58703303865742
 31
0.0
  0
LINE
  5
4E16
330
4E08
100
AcDbEntity
  8
寸法線
 62
     0
370
    -2
100
AcDbLine
 10
385.2986619038892
 20
-29.6521385909009
 30
0.0
 11
385.2986619038892
 21
16.58703303865741
 31
0.0
  0
INSERT
  5
4E17
330
4E08
100
AcDbEntity
  8
寸法線
 62
     0
370
    -2
100
AcDbBlockReference
  2
_Closed
 10
385.2986619038892
 20
-32.65213859090089
 30
0.0
 41
3.0
 42
3.0
 43
3.0
 50
270.0
  0
INSERT
  5
4E18
330
4E08
100
AcDbEntity
  8
寸法線
 62
     0
370
    -2
100
AcDbBlockReference
  2
_Closed
 10
385.2986619038892
 20
19.58703303865741
 30
0.0
 41
3.0
 42
3.0
 43
3.0
 50
90.0
  0
MTEXT
  5
4E19
330
4E08
100
AcDbEntity
  8
寸法線
 62
     0
100
AcDbMText
 10
381.7986619038892
 20
-6.532552776121677
 30
0.0
 40
5.0
 41
0.0
 71
     5
 72
     1
  1
50
  7
OKANO
 11
0.0000000000000001
 21
1.0
 31
0.0
 73
     1
 44
1.0
  0
POINT
  5
4E1A
330
4E08
100
AcDbEntity
  8
Defpoints
 62
     0
100
AcDbPoint
 10
413.2210310658727
 20
-32.6521385909009
 30
0.0
  0
POINT
  5
4E1B
330
4E08
100
AcDbEntity
  8
Defpoints
 62
     0
100
AcDbPoint
 10
413.2210310658727
 20
19.58703303865741
 30
0.0
  0
POINT
  5
4E1C
330
4E08
100
AcDbEntity
  8
Defpoints
 62
     0
100
AcDbPoint
 10
385.2986619038892
 20
19.58703303865741
 30
0.0
  0
ENDBLK
  5
4E13
330
4E08
100
AcDbEntity
  8
0
100
AcDbBlockEnd
  0
BLOCK
  5
4E32
330
4E28
100
AcDbEntity
  8
0
100
AcDbBlockBegin
  2
*D30
 70
     1
 10
0.0
 20
0.0
 30
0.0
  3
*D30
  1

  0
LINE
  5
4E29
330
4E28
100
AcDbEntity
  8
寸法線
 62
     0
370
    -2
100
AcDbLine
 10
465.2210310658728
 20
7.587033038657437
 30
0.0
 11
495.7797649778536
 21
7.587033038657428
 31
0.0
  0
LINE
  5
4E2A
330
4E28
100
AcDbEntity
  8
寸法線
 62
     0
370
    -2
100
AcDbLine
 10
465.2210310658728
 20
19.58703303865743
 30
0.0
 11
495.7797649778536
 21
19.58703303865742
 31
0.0
  0
LINE
  5
4E2B
330
4E28
100
AcDbEntity
  8
寸法線
 62
     0
370
    -2
100
AcDbLine
 10
492.7797649778535
 20
10.58703303865742
 30
0.0
 11
492.7797649778535
 21
16.58703303865742
 31
0.0
  0
INSERT
  5
4E2C
330
4E28
100
AcDbEntity
  8
寸法線
 62
     0
370
    -2
100
AcDbBlockReference
  2
_Closed
 10
492.7797649778535
 20
7.587033038657429
 30
0.0
 41
3.0
 42
3.0
 43
3.0
 50
270.0
  0
INSERT
  5
4E2D
330
4E28
100
AcDbEntity
  8
寸法線
 62
     0
370
    -2
100
AcDbBlockReference
  2
_Closed
 10
492.7797649778535
 20
19.58703303865742
 30
0.0
 41
3.0
 42
3.0
 43
3.0
 50
90.0
  0
MTEXT
  5
4E2E
330
4E28
100
AcDbEntity
  8
寸法線
 62
     0
100
AcDbMText
 10
489.2792728518693
 20
13.5870330386575
 30
0.0
 40
5.0
 41
0.0
 71
     5
 72
     1
  1
12
  7
OKANO
 11
0.0000000000000001
 21
1.0
 31
0.0
 73
     1
 44
1.0
  0
POINT
  5
4E2F
330
4E28
100
AcDbEntity
  8
Defpoints
 62
     0
100
AcDbPoint
 10
463.2210310658727
 20
7.587033038657437
 30
0.0
  0
POINT
  5
4E30
330
4E28
100
AcDbEntity
  8
Defpoints
 62
     0
100
AcDbPoint
 10
463.2210310658727
 20
19.58703303865743
 30
0.0
  0
POINT
  5
4E31
330
4E28
100
AcDbEntity
  8
Defpoints
 62
     0
100
AcDbPoint
 10
492.7797649778535
 20
19.58703303865742
 30
0.0
  0
ENDBLK
  5
4E33
330
4E28
100
AcDbEntity
  8
0
100
AcDbBlockEnd
  0
BLOCK
  5
4E40
330
4E35
100
AcDbEntity
  8
0
100
AcDbBlockBegin
  2
*D31
 70
     1
 10
0.0
 20
0.0
 30
0.0
  3
*D31
  1

  0
LINE
  5
4E79
330
4E35
100
AcDbEntity
  8
寸法線
 62
     0
370
    -2
100
AcDbLine
 10
463.2210310658727
 20
21.58703303865743
 30
0.0
 11
463.2210310658727
 21
36.36553457592436
 31
0.0
  0
LINE
  5
4E7A
330
4E35
100
AcDbEntity
  8
寸法線
 62
     0
370
    -2
100
AcDbLine
 10
472.5621408379469
 20
16.50624698747344
 30
0.0
 11
472.5621408379469
 21
36.36553457592436
 31
0.0
  0
LINE
  5
4E7B
330
4E35
100
AcDbEntity
  8
寸法線
 62
     0
370
    -2
100
AcDbLine
 10
466.2210310658728
 20
33.36553457592435
 30
0.0
 11
469.5621408379468
 21
33.36553457592435
 31
0.0
  0
INSERT
  5
4E7C
330
4E35
100
AcDbEntity
  8
寸法線
 62
     0
370
    -2
100
AcDbBlockReference
  2
_Closed
 10
463.2210310658727
 20
33.36553457592435
 30
0.0
 41
3.0
 42
3.0
 43
3.0
 50
180.0
  0
INSERT
  5
4E7D
330
4E35
100
AcDbEntity
  8
寸法線
 62
     0
370
    -2
100
AcDbBlockReference
  2
_Closed
 10
472.5621408379469
 20
33.36553457592435
 30
0.0
 41
3.0
 42
3.0
 43
3.0
  0
MTEXT
  5
4E7E
330
4E35
100
AcDbEntity
  8
寸法線
 62
     0
100
AcDbMText
 10
467.8915859519098
 20
36.86553457592435
 30
0.0
 40
5.0
 41
0.0
 71
     5
 72
     1
  1
10
  7
OKANO
 73
     1
 44
1.0
  0
POINT
  5
4E7F
330
4E35
100
AcDbEntity
  8
Defpoints
 62
     0
100
AcDbPoint
 10
463.2210310658727
 20
19.58703303865743
 30
0.0
  0
POINT
  5
4E80
330
4E35
100
AcDbEntity
  8
Defpoints
 62
     0
100
AcDbPoint
 10
472.5621408379469
 20
14.50624698747344
 30
0.0
  0
POINT
  5
4E81
330
4E35
100
AcDbEntity
  8
Defpoints
 62
     0
100
AcDbPoint
 10
472.5621408379469
 20
33.36553457592435
 30
0.0
  0
ENDBLK
  5
4E41
330
4E35
100
AcDbEntity
  8
0
100
AcDbBlockEnd
  0
BLOCK
  5
4E4F
330
4E43
100
AcDbEntity
  8
0
100
AcDbBlockBegin
  2
*D32
 70
     1
 10
0.0
 20
0.0
 30
0.0
  3
*D32
  1

  0
LINE
  5
4E44
330
4E43
100
AcDbEntity
  8
寸法線
 62
     0
370
    -2
100
AcDbLine
 10
410.2210310658728
 20
18.5870330386574
 30
0.0
 11
410.2210310658728
 21
41.52583824516523
 31
0.0
  0
LINE
  5
4E45
330
4E43
100
AcDbEntity
  8
寸法線
 62
     0
370
    -2
100
AcDbLine
 10
413.2210310658727
 20
18.5870330386574
 30
0.0
 11
413.2210310658727
 21
41.52583824516523
 31
0.0
  0
LINE
  5
4E46
330
4E43
100
AcDbEntity
  8
寸法線
 62
     0
370
    -2
100
AcDbLine
 10
407.2210310658728
 20
38.52583824516523
 30
0.0
 11
404.2210310658727
 21
38.52583824516523
 31
0.0
  0
LINE
  5
4E47
330
4E43
100
AcDbEntity
  8
寸法線
 62
     0
370
    -2
100
AcDbLine
 10
416.2210310658728
 20
38.52583824516523
 30
0.0
 11
424.4268024318128
 21
38.52583824516523
 31
0.0
  0
LINE
  5
4E48
330
4E43
100
AcDbEntity
  8
寸法線
 62
     0
370
    -2
100
AcDbLine
 10
410.2210310658728
 20
38.52583824516523
 30
0.0
 11
413.2210310658727
 21
38.52583824516523
 31
0.0
  0
INSERT
  5
4E49
330
4E43
100
AcDbEntity
  8
寸法線
 62
     0
370
    -2
100
AcDbBlockReference
  2
_Closed
 10
410.2210310658728
 20
38.52583824516523
 30
0.0
 41
3.0
 42
3.0
 43
3.0
  0
INSERT
  5
4E4A
330
4E43
100
AcDbEntity
  8
寸法線
 62
     0
370
    -2
100
AcDbBlockReference
  2
_Closed
 10
413.2210310658727
 20
38.52583824516523
 30
0.0
 41
3.0
 42
3.0
 43
3.0
 50
180.0
  0
MTEXT
  5
4E4B
330
4E43
100
AcDbEntity
  8
寸法線
 62
     0
100
AcDbMText
 10
421.8239167488428
 20
42.02583824516523
 30
0.0
 40
5.0
 41
0.0
 71
     5
 72
     1
  1
3
  7
OKANO
 73
     1
 44
1.0
  0
POINT
  5
4E4C
330
4E43
100
AcDbEntity
  8
Defpoints
 62
     0
100
AcDbPoint
 10
410.2210310658728
 20
16.58703303865741
 30
0.0
  0
POINT
  5
4E4D
330
4E43
100
AcDbEntity
  8
Defpoints
 62
     0
100
AcDbPoint
 10
413.2210310658727
 20
16.58703303865741
 30
0.0
  0
POINT
  5
4E4E
330
4E43
100
AcDbEntity
  8
Defpoints
 62
     0
100
AcDbPoint
 10
413.2210310658727
 20
38.52583824516523
 30
0.0
  0
ENDBLK
  5
4E50
330
4E43
100
AcDbEntity
  8
0
100
AcDbBlockEnd
  0
BLOCK
  5
4E5E
330
4E52
100
AcDbEntity
  8
0
100
AcDbBlockBegin
  2
*D33
 70
     1
 10
0.0
 20
0.0
 30
0.0
  3
*D33
  1

  0
LINE
  5
4E6E
330
4E52
100
AcDbEntity
  8
寸法線
 62
     0
370
    -2
100
AcDbLine
 10
410.2207575278298
 20
18.24384150833975
 30
0.0
 11
410.2207575278298
 21
28.2418149230848
 31
0.0
  0
LINE
  5
4E6F
330
4E52
100
AcDbEntity
  8
寸法線
 62
     0
370
    -2
100
AcDbLine
 10
414.5431882323691
 20
18.24384150833975
 30
0.0
 11
414.5431882323691
 21
28.2418149230848
 31
0.0
  0
LINE
  5
4E70
330
4E52
100
AcDbEntity
  8
寸法線
 62
     0
370
    -2
100
AcDbLine
 10
407.2207575278298
 20
25.2418149230848
 30
0.0
 11
404.2207575278298
 21
25.2418149230848
 31
0.0
  0
LINE
  5
4E71
330
4E52
100
AcDbEntity
  8
寸法線
 62
     0
370
    -2
100
AcDbLine
 10
417.5431882323692
 20
25.2418149230848
 30
0.0
 11
425.4989595983092
 21
25.2418149230848
 31
0.0
  0
LINE
  5
4E72
330
4E52
100
AcDbEntity
  8
寸法線
 62
     0
370
    -2
100
AcDbLine
 10
410.2207575278298
 20
25.2418149230848
 30
0.0
 11
414.5431882323691
 21
25.2418149230848
 31
0.0
  0
INSERT
  5
4E73
330
4E52
100
AcDbEntity
  8
寸法線
 62
     0
370
    -2
100
AcDbBlockReference
  2
_Closed
 10
410.2207575278298
 20
25.2418149230848
 30
0.0
 41
3.0
 42
3.0
 43
3.0
  0
INSERT
  5
4E74
330
4E52
100
AcDbEntity
  8
寸法線
 62
     0
370
    -2
100
AcDbBlockReference
  2
_Closed
 10
414.5431882323691
 20
25.2418149230848
 30
0.0
 41
3.0
 42
3.0
 43
3.0
 50
180.0
  0
MTEXT
  5
4E75
330
4E52
100
AcDbEntity
  8
寸法線
 62
     0
100
AcDbMText
 10
423.0210739153392
 20
28.7418149230848
 30
0.0
 40
5.0
 41
0.0
 71
     5
 72
     1
  1
5
  7
OKANO
 73
     1
 44
1.0
  0
POINT
  5
4E76
330
4E52
100
AcDbEntity
  8
Defpoints
 62
     0
100
AcDbPoint
 10
410.2207575278298
 20
16.24384150833975
 30
0.0
  0
POINT
  5
4E77
330
4E52
100
AcDbEntity
  8
Defpoints
 62
     0
100
AcDbPoint
 10
414.5431882323691
 20
16.24384150833975
 30
0.0
  0
POINT
  5
4E78
330
4E52
100
AcDbEntity
  8
Defpoints
 62
     0
100
AcDbPoint
 10
414.5431882323691
 20
25.2418149230848
 30
0.0
  0
ENDBLK
  5
4E5F
330
4E52
100
AcDbEntity
  8
0
100
AcDbBlockEnd
  0
BLOCK
  5
4E6C
330
4E61
100
AcDbEntity
  8
0
100
AcDbBlockBegin
  2
*D34
 70
     1
 10
0.0
 20
0.0
 30
0.0
  3
*D34
  1

  0
LINE
  5
4E82
330
4E61
100
AcDbEntity
  8
寸法線
 62
     0
370
    -2
100
AcDbLine
 10
464.87557579855
 20
-32.81672993349867
 30
0.0
 11
492.3576025798811
 21
-32.81672993349867
 31
0.0
  0
LINE
  5
4E83
330
4E61
100
AcDbEntity
  8
寸法線
 62
     0
370
    -2
100
AcDbLine
 10
464.87557579855
 20
-22.76148721971321
 30
0.0
 11
492.3576025798811
 21
-22.76148721971322
 31
0.0
  0
LINE
  5
4E84
330
4E61
100
AcDbEntity
  8
寸法線
 62
     0
370
    -2
100
AcDbLine
 10
489.3576025798811
 20
-29.81672993349867
 30
0.0
 11
489.3576025798811
 21
-25.76148721971322
 31
0.0
  0
INSERT
  5
4E85
330
4E61
100
AcDbEntity
  8
寸法線
 62
     0
370
    -2
100
AcDbBlockReference
  2
_Closed
 10
489.3576025798811
 20
-32.81672993349867
 30
0.0
 41
3.0
 42
3.0
 43
3.0
 50
270.0
  0
INSERT
  5
4E86
330
4E61
100
AcDbEntity
  8
寸法線
 62
     0
370
    -2
100
AcDbBlockReference
  2
_Closed
 10
489.3576025798811
 20
-22.76148721971322
 30
0.0
 41
3.0
 42
3.0
 43
3.0
 50
90.0
  0
MTEXT
  5
4E87
330
4E61
100
AcDbEntity
  8
寸法線
 62
     0
100
AcDbMText
 10
485.8576025798811
 20
-27.78910857660587
 30
0.0
 40
5.0
 41
0.0
 71
     5
 72
     1
  1
10
  7
OKANO
 11
0.0000000000000001
 21
1.0
 31
0.0
 73
     1
 44
1.0
  0
POINT
  5
4E88
330
4E61
100
AcDbEntity
  8
Defpoints
 62
     0
100
AcDbPoint
 10
462.87557579855
 20
-32.81672993349866
 30
0.0
  0
POINT
  5
4E89
330
4E61
100
AcDbEntity
  8
Defpoints
 62
     0
100
AcDbPoint
 10
462.87557579855
 20
-22.76148721971321
 30
0.0
  0
POINT
  5
4E8A
330
4E61
100
AcDbEntity
  8
Defpoints
 62
     0
100
AcDbPoint
 10
489.3576025798811
 20
-22.76148721971322
 30
0.0
  0
ENDBLK
  5
4E6D
330
4E61
100
AcDbEntity
  8
0
100
AcDbBlockEnd
  0
ENDSEC
  0
SECTION
  2
ENTITIES
  0
TEXT
  5
321D
330
1F
100
AcDbEntity
  8
文字
100
AcDbText
 10
430.374021212378
 20
148.1184862134491
 30
0.0
 40
10.0
  1
Ｓ-12-2R-200　伸縮（水平・高さ・突っ張り）
 51
15.0
  7
OKANO
100
AcDbText
  0
LWPOLYLINE
  5
358D
330
1F
100
AcDbEntity
  8
太線
100
AcDbPolyline
 90
        4
 70
     1
 43
0.0
 10
644.8674633619926
 20
-175.468676326826
 10
856.5474633619926
 20
-175.468676326826
 10
856.5474633619926
 20
-224.860676326826
 10
644.8674633619926
 20
-224.860676326826
  0
LINE
  5
358E
330
1F
100
AcDbEntity
  8
太線
100
AcDbLine
 10
644.8674633619925
 20
-191.932676326826
 30
0.0
 11
856.5474633619926
 21
-191.932676326826
 31
0.0
  0
TEXT
  5
358F
330
1F
100
AcDbEntity
  8
文字
100
AcDbText
 10
698.6150305979558
 20
-190.1278933319825
 30
0.0
 40
9.407999999999999
  1
F-999-20110628 Auto CAD
 51
15.0
  7
OKANO
100
AcDbText
  0
TEXT
  5
3590
330
1F
100
AcDbEntity
  8
文字
100
AcDbText
 10
713.2921241010777
 20
-219.0425414862665
 30
0.0
 40
9.407999999999999
  1
joint kogyo T.okano
 51
15.0
  7
OKANO
100
AcDbText
  0
TEXT
  5
3593
330
1F
100
AcDbEntity
  8
文字
100
AcDbText
 10
651.451802869732
 20
-200.9597718321256
 30
0.0
 40
4.703999999999999
  1
DRAWN
 51
15.0
  7
OKANO
100
AcDbText
  0
LINE
  5
3594
330
1F
100
AcDbEntity
  8
太線
100
AcDbLine
 10
691.9074633619926
 20
-175.468676326826
 30
0.0
 11
691.9074633619926
 21
-224.860676326826
 31
0.0
  0
TEXT
  5
3595
330
1F
100
AcDbEntity
  8
文字
100
AcDbText
 10
652.9601034399507
 20
-215.0241482297908
 30
0.0
 40
4.703999999999999
  1
APPR
 51
15.0
  7
OKANO
100
AcDbText
  0
TEXT
  5
3596
330
1F
100
AcDbEntity
  8
文字
100
AcDbText
 10
652.4573351514654
 20
-221.5540375607563
 30
0.0
 40
4.703999999999999
  1
ISSUED
 51
15.0
  7
OKANO
100
AcDbText
  0
TEXT
  5
3597
330
1F
100
AcDbEntity
  8
文字
100
AcDbText
 10
652.4573351514654
 20
-207.9919594525733
 30
0.0
 40
4.703999999999999
  1
CHECK
 51
15.0
  7
OKANO
100
AcDbText
  0
TEXT
  5
3598
330
1F
100
AcDbEntity
  8
文字
100
AcDbText
 10
648.9379678701612
 20
-188.4022926164463
 30
0.0
 40
4.703999999999999
  1
FILM NAME
 51
15.0
  7
OKANO
100
AcDbText
  0
TEXT
  5
3986
330
1F
100
AcDbEntity
  8
文字
100
AcDbText
 10
410.7961373567804
 20
-214.9654464026563
 30
0.0
 40
10.0
  1
調整範囲200mm　                                                                                                  
 51
15.0
  7
OKANO
100
AcDbText
  0
ARC
  5
478E
330
1F
100
AcDbEntity
  8
太線
100
AcDbCircle
 10
417.4480722899065
 20
-30.88863585339527
 30
0.0
 40
1.0
100
AcDbArc
 50
262.2979531506369
 51
270.0
  0
LINE
  5
47F6
330
1F
100
AcDbEntity
  8
太線
370
    25
100
AcDbLine
 10
413.2210310658727
 20
19.58703303865741
 30
0.0
 11
464.2210310658728
 21
19.58703303865743
 31
0.0
  0
LINE
  5
47F7
330
1F
100
AcDbEntity
  8
太線
370
    25
100
AcDbLine
 10
428.7210310658728
 20
-22.6521385909009
 30
0.0
 11
414.2210310658728
 21
-22.6521385909009
 31
0.0
  0
LINE
  5
47F9
330
1F
100
AcDbEntity
  8
太線
370
    25
100
AcDbLine
 10
410.2210310658728
 20
-20.03255277612174
 30
0.0
 11
410.2210310658728
 21
16.58703303865741
 31
0.0
  0
LINE
  5
47FA
330
1F
100
AcDbEntity
  8
太線
370
    25
100
AcDbLine
 10
414.2210310658728
 20
-22.6521385909009
 30
0.0
 11
414.2210310658728
 21
19.58703303865741
 31
0.0
  0
ARC
  5
47FB
330
1F
100
AcDbEntity
  8
太線
370
    25
100
AcDbCircle
 10
413.2210310658727
 20
-29.6521385909009
 30
0.0
 40
3.0
100
AcDbArc
 50
180.0
 51
270.0
  0
LINE
  5
47FC
330
1F
100
AcDbEntity
  8
太線
100
AcDbLine
 10
410.2210310658728
 20
-29.6521385909009
 30
0.0
 11
410.2210310658728
 21
-20.03255277612174
 31
0.0
  0
LINE
  5
47FD
330
1F
100
AcDbEntity
  8
太線
370
    25
100
AcDbLine
 10
418.3694340769385
 20
-22.6521385909009
 30
0.0
 11
418.3694340769385
 21
-32.6521385909009
 31
0.0
  0
ARC
  5
47FF
330
1F
100
AcDbEntity
  8
太線
370
    25
100
AcDbCircle
 10
413.2210310658727
 20
16.58703303865741
 30
0.0
 40
3.0
100
AcDbArc
 50
90.0
 51
180.0
  0
LINE
  5
4800
330
1F
100
AcDbEntity
  8
太線
370
    25
100
AcDbLine
 10
463.2210310658727
 20
19.58703303865741
 30
0.0
 11
463.2210310658727
 21
-22.6521385909009
 31
0.0
  0
LINE
  5
4801
330
1F
100
AcDbEntity
  8
太線
370
    25
100
AcDbLine
 10
467.2210310658727
 20
16.58703303865743
 30
0.0
 11
467.2210310658727
 21
-20.03255277612174
 31
0.0
  0
LINE
  5
4809
330
1F
100
AcDbEntity
  8
太線
370
    25
100
AcDbLine
 10
463.2210310658727
 20
-22.6521385909009
 30
0.0
 11
448.7210310658728
 21
-22.6521385909009
 31
0.0
  0
LINE
  5
480A
330
1F
100
AcDbEntity
  8
太線
370
    25
100
AcDbLine
 10
459.2210310658727
 20
-22.6521385909009
 30
0.0
 11
459.2210310658727
 21
-32.6521385909009
 31
0.0
  0
LINE
  5
480E
330
1F
100
AcDbEntity
  8
太線
100
AcDbLine
 10
467.2210310658727
 20
-20.03255277612174
 30
0.0
 11
467.2210310658727
 21
-29.6521385909009
 31
0.0
  0
ARC
  5
480F
330
1F
100
AcDbEntity
  8
太線
370
    25
100
AcDbCircle
 10
464.2210310658728
 20
-29.6521385909009
 30
0.0
 40
3.0
100
AcDbArc
 50
270.0
 51
0.0
  0
ARC
  5
4828
330
1F
100
AcDbEntity
  8
太線
370
    25
100
AcDbCircle
 10
464.2210310658728
 20
16.58703303865743
 30
0.0
 40
3.0
100
AcDbArc
 50
0.0
 51
90.0
  0
ARC
  5
490D
330
1F
100
AcDbEntity
  8
太線
370
    25
100
AcDbCircle
 10
464.1385298764233
 20
-151.5229001372702
 30
0.0
 40
3.0
100
AcDbArc
 50
270.0
 51
0.0
  0
ARC
  5
4915
330
1F
100
AcDbEntity
  8
太線
370
    25
100
AcDbCircle
 10
464.1385298764233
 20
-107.903314322491
 30
0.0
 40
3.0
100
AcDbArc
 50
0.0
 51
90.00000000000003
  0
LINE
  5
4918
330
1F
100
AcDbEntity
  8
太線
370
    25
100
AcDbLine
 10
467.1385298764233
 20
-151.5229001372702
 30
0.0
 11
467.1385298764233
 21
-128.903314322491
 31
0.0
  0
LINE
  5
4919
330
1F
100
AcDbEntity
  8
太線
370
    25
100
AcDbLine
 10
463.1385298764233
 20
-154.5229001372701
 30
0.0
 11
463.1385298764233
 21
-128.903314322491
 31
0.0
  0
LINE
  5
491A
330
1F
100
AcDbEntity
  8
太線
370
    25
100
AcDbLine
 10
414.1385298764233
 20
-124.5229001372702
 30
0.0
 11
414.1385298764233
 21
-128.903314322491
 31
0.0
  0
LINE
  5
491B
330
1F
100
AcDbEntity
  8
太線
370
    25
100
AcDbLine
 10
410.1385298764233
 20
-117.5229001372702
 30
0.0
 11
410.1385298764233
 21
-128.903314322491
 31
0.0
  0
LINE
  5
491E
330
1F
100
AcDbEntity
  8
太線
370
    25
100
AcDbLine
 10
464.1385298764233
 20
-104.903314322491
 30
0.0
 11
413.1385298764233
 21
-104.903314322491
 31
0.0
  0
ARC
  5
4920
330
1F
100
AcDbEntity
  8
太線
370
    25
100
AcDbCircle
 10
413.1385298764233
 20
-107.903314322491
 30
0.0
 40
3.0
100
AcDbArc
 50
90.00000000000003
 51
180.0
  0
LINE
  5
4921
330
1F
100
AcDbEntity
  8
太線
370
    25
100
AcDbLine
 10
428.6385298764233
 20
-114.903314322491
 30
0.0
 11
414.1385298764233
 21
-114.903314322491
 31
0.0
  0
LINE
  5
4922
330
1F
100
AcDbEntity
  8
太線
370
    25
100
AcDbLine
 10
418.2869328874891
 20
-114.903314322491
 30
0.0
 11
418.2869328874891
 21
-104.903314322491
 31
0.0
  0
LINE
  5
4923
330
1F
100
AcDbEntity
  8
太線
100
AcDbLine
 10
410.1385298764233
 20
-107.903314322491
 30
0.0
 11
410.1385298764233
 21
-117.5229001372702
 31
0.0
  0
ARC
  5
4924
330
1F
100
AcDbEntity
  8
太線
100
AcDbCircle
 10
417.0975279255072
 20
-104.6848602349465
 30
0.0
 40
1.0
100
AcDbArc
 50
261.1042047134966
 51
277.702046849363
  0
ARC
  5
4925
330
1F
100
AcDbEntity
  8
太線
100
AcDbCircle
 10
417.3655711004571
 20
-106.6668170599966
 30
0.0
 40
1.0
100
AcDbArc
 50
90.00000000000003
 51
97.70204684936311
  0
LINE
  5
4926
330
1F
100
AcDbEntity
  8
太線
100
AcDbLine
 10
414.1385298764233
 20
-124.5229001372702
 30
0.0
 11
414.1385298764233
 21
-114.903314322491
 31
0.0
  0
LINE
  5
4929
330
1F
100
AcDbEntity
  8
太線
370
    25
100
AcDbLine
 10
463.1385298764233
 20
-114.903314322491
 30
0.0
 11
448.6385298764234
 21
-114.903314322491
 31
0.0
  0
LINE
  5
492D
330
1F
100
AcDbEntity
  8
太線
100
AcDbLine
 10
467.1385298764233
 20
-117.5229001372702
 30
0.0
 11
467.1385298764233
 21
-107.903314322491
 31
0.0
  0
LINE
  5
492F
330
1F
100
AcDbEntity
  8
太線
370
    25
100
AcDbLine
 10
459.1385298764233
 20
-114.903314322491
 30
0.0
 11
459.1385298764233
 21
-104.903314322491
 31
0.0
  0
LINE
  5
4930
330
1F
100
AcDbEntity
  8
太線
100
AcDbLine
 10
463.1385298764233
 20
-124.5229001372702
 30
0.0
 11
463.1385298764233
 21
-114.903314322491
 31
0.0
  0
LINE
  5
4932
330
1F
100
AcDbEntity
  8
太線
370
    25
100
AcDbLine
 10
413.1385298764233
 20
-154.5229001372701
 30
0.0
 11
464.1385298764233
 21
-154.5229001372702
 31
0.0
  0
ARC
  5
4934
330
1F
100
AcDbEntity
  8
太線
370
    25
100
AcDbCircle
 10
413.1385298764233
 20
-151.5229001372702
 30
0.0
 40
3.0
100
AcDbArc
 50
180.0
 51
270.0
  0
LINE
  5
4959
330
1F
100
AcDbEntity
  8
太線
100
AcDbLine
 10
413.2210310658727
 20
-32.6521385909009
 30
0.0
 11
464.2210310658728
 21
-32.6521385909009
 31
0.0
  0
TEXT
  5
49CD
330
1F
100
AcDbEntity
  8
文字
100
AcDbText
 10
560.8616467133888
 20
131.2046569478918
 30
0.0
 40
10.0
  1
中間水平調金具
 51
15.0
  7
OKANO
100
AcDbText
  0
TEXT
  5
4A27
330
1F
100
AcDbEntity
  8
文字
100
AcDbText
 10
708.0151612823167
 20
-204.7793360295087
 30
0.0
 40
8.399999999999998
  1
Ｓ-12-2Ｒ200
 51
15.0
  7
OKANO
100
AcDbText
  0
TEXT
  5
4A38
330
1F
100
AcDbEntity
  8
文字
100
AcDbText
 10
566.1692410913669
 20
4.111419631404487
 30
0.0
 40
10.0
  1
JAN 4562182300317
 51
15.0
  7
OKANO
100
AcDbText
  0
XLINE
  5
4A62
330
1F
100
AcDbEntity
  8
構築線
100
AcDbXline
 10
437.6596503615679
 20
-104.4488224068427
 30
0.0
 11
0.0
 21
1.0
 31
0.0
  0
LINE
  5
4A72
330
1F
100
AcDbEntity
  8
太線
100
AcDbLine
 10
429.6596503615679
 20
-116.903314322491
 30
0.0
 11
429.6596503615678
 21
-104.903314322491
 31
0.0
  0
LINE
  5
4A76
330
1F
100
AcDbEntity
  8
太線
100
AcDbLine
 10
429.6596503615679
 20
133.3099843127886
 30
0.0
 11
431.6596503615678
 21
135.3099843127886
 31
0.0
  0
LINE
  5
4A77
330
1F
100
AcDbEntity
  8
太線
100
AcDbLine
 10
431.6596503615678
 20
135.3099843127886
 30
0.0
 11
443.6596503615678
 21
135.3099843127886
 31
0.0
  0
LINE
  5
4A78
330
1F
100
AcDbEntity
  8
太線
100
AcDbLine
 10
443.6596503615678
 20
135.3099843127886
 30
0.0
 11
445.6596503615678
 21
133.3099843127886
 31
0.0
  0
LINE
  5
4A79
330
1F
100
AcDbEntity
  8
太線
100
AcDbLine
 10
445.6596503615678
 20
95.09668567750896
 30
0.0
 11
445.6596503615678
 21
-94.90331432249105
 31
0.0
  0
LINE
  5
4A7D
330
1F
100
AcDbEntity
  8
太線
100
AcDbLine
 10
429.6596503615679
 20
133.3099843127886
 30
0.0
 11
445.6596503615678
 21
133.3099843127886
 31
0.0
  0
LINE
  5
4A80
330
1F
100
AcDbEntity
  8
細線
100
AcDbLine
 10
431.6596503615678
 20
95.09668567750896
 30
0.0
 11
431.6596503615677
 21
-94.90331432249105
 31
0.0
  0
LINE
  5
4A81
330
1F
100
AcDbEntity
  8
細線
100
AcDbLine
 10
443.6596503615678
 20
95.09668567750896
 30
0.0
 11
443.6596503615677
 21
-94.90331432249105
 31
0.0
  0
LINE
  5
4A84
330
1F
100
AcDbEntity
  8
太線
100
AcDbLine
 10
425.6596503615678
 20
-94.90331432249105
 30
0.0
 11
449.6596503615678
 21
-94.90331432249105
 31
0.0
  0
LINE
  5
4A85
330
1F
100
AcDbEntity
  8
太線
100
AcDbLine
 10
449.6596503615678
 20
-94.90331432249105
 30
0.0
 11
449.6596503615678
 21
-104.903314322491
 31
0.0
  0
LINE
  5
4A86
330
1F
100
AcDbEntity
  8
太線
100
AcDbLine
 10
449.6596503615678
 20
-104.903314322491
 30
0.0
 11
425.6596503615678
 21
-104.903314322491
 31
0.0
  0
LINE
  5
4A87
330
1F
100
AcDbEntity
  8
太線
100
AcDbLine
 10
425.6596503615678
 20
-104.903314322491
 30
0.0
 11
425.6596503615678
 21
-94.90331432249105
 31
0.0
  0
LINE
  5
4A89
330
1F
100
AcDbEntity
  8
太線
100
AcDbLine
 10
445.6596503615678
 20
-104.903314322491
 30
0.0
 11
445.6596503615678
 21
-116.903314322491
 31
0.0
  0
LINE
  5
4A8C
330
1F
100
AcDbEntity
  8
太線
100
AcDbLine
 10
429.6596503615678
 20
-94.90331432249105
 30
0.0
 11
429.6596503615679
 21
95.09668567750896
 31
0.0
  0
LINE
  5
4A8D
330
1F
100
AcDbEntity
  8
太線
100
AcDbLine
 10
425.6596503615678
 20
-130.3528633078747
 30
0.0
 11
429.6596503615679
 21
-130.3528633078747
 31
0.0
  0
LINE
  5
4A8E
330
1F
100
AcDbEntity
  8
太線
100
AcDbLine
 10
449.6596503615678
 20
-140.3528633078747
 30
0.0
 11
425.6596503615678
 21
-140.3528633078747
 31
0.0
  0
LINE
  5
4A8F
330
1F
100
AcDbEntity
  8
太線
100
AcDbLine
 10
425.6596503615678
 20
-140.3528633078747
 30
0.0
 11
425.6596503615678
 21
-130.3528633078747
 31
0.0
  0
LINE
  5
4A90
330
1F
100
AcDbEntity
  8
太線
100
AcDbLine
 10
429.6596503615679
 20
-130.3528633078747
 30
0.0
 11
449.6596503615678
 21
-130.3528633078747
 31
0.0
  0
LINE
  5
4A91
330
1F
100
AcDbEntity
  8
太線
100
AcDbLine
 10
449.6596503615678
 20
-130.3528633078747
 30
0.0
 11
449.6596503615678
 21
-140.3528633078747
 31
0.0
  0
LINE
  5
4AA8
330
1F
100
AcDbEntity
  8
細線
100
AcDbLine
 10
443.6596503615678
 20
-116.903314322491
 30
0.0
 11
443.6596503615678
 21
-126.903314322491
 31
0.0
  0
LINE
  5
4AAA
330
1F
100
AcDbEntity
  8
細線
100
AcDbLine
 10
431.6596503615678
 20
-116.903314322491
 30
0.0
 11
431.6596503615678
 21
-126.903314322491
 31
0.0
  0
LINE
  5
4AAB
330
1F
100
AcDbEntity
  8
細線
100
AcDbLine
 10
443.6596503615678
 20
-126.903314322491
 30
0.0
 11
443.6596503615678
 21
-128.903314322491
 31
0.0
  0
LINE
  5
4AAC
330
1F
100
AcDbEntity
  8
細線
100
AcDbLine
 10
431.6596503615678
 20
-126.903314322491
 30
0.0
 11
431.6596503615678
 21
-128.903314322491
 31
0.0
  0
LINE
  5
4AAE
330
1F
100
AcDbEntity
  8
太線
100
AcDbLine
 10
429.6596503615679
 20
-116.903314322491
 30
0.0
 11
429.6596503615679
 21
-126.903314322491
 31
0.0
  0
LINE
  5
4AAF
330
1F
100
AcDbEntity
  8
太線
100
AcDbLine
 10
429.6596503615679
 20
-126.903314322491
 30
0.0
 11
431.6596503615678
 21
-128.903314322491
 31
0.0
  0
LINE
  5
4AB0
330
1F
100
AcDbEntity
  8
太線
100
AcDbLine
 10
431.6596503615678
 20
-128.903314322491
 30
0.0
 11
443.6596503615678
 21
-128.903314322491
 31
0.0
  0
LINE
  5
4AB1
330
1F
100
AcDbEntity
  8
太線
100
AcDbLine
 10
443.6596503615678
 20
-128.903314322491
 30
0.0
 11
445.6596503615678
 21
-126.903314322491
 31
0.0
  0
LINE
  5
4AB2
330
1F
100
AcDbEntity
  8
太線
100
AcDbLine
 10
445.6596503615678
 20
-126.903314322491
 30
0.0
 11
445.6596503615678
 21
-116.903314322491
 31
0.0
  0
LINE
  5
4AB8
330
1F
100
AcDbEntity
  8
太線
100
AcDbLine
 10
443.6596503615678
 20
-130.3528633078747
 30
0.0
 11
443.6596503615678
 21
-140.3528633078747
 31
0.0
  0
LINE
  5
4AB9
330
1F
100
AcDbEntity
  8
太線
100
AcDbLine
 10
431.6596503615678
 20
-130.3528633078747
 30
0.0
 11
431.6596503615678
 21
-140.3528633078747
 31
0.0
  0
LINE
  5
4ABA
330
1F
100
AcDbEntity
  8
太線
100
AcDbLine
 10
443.6596503615677
 20
-94.90331432249105
 30
0.0
 11
443.6596503615678
 21
-104.903314322491
 31
0.0
  0
LINE
  5
4ABB
330
1F
100
AcDbEntity
  8
太線
100
AcDbLine
 10
431.6596503615677
 20
-94.90331432249105
 30
0.0
 11
431.6596503615678
 21
-104.903314322491
 31
0.0
  0
LINE
  5
4ABC
330
1F
100
AcDbEntity
  8
太線
100
AcDbLine
 10
449.6596503615678
 20
-42.92951302727124
 30
0.0
 11
425.6596503615678
 21
-42.92951302727124
 31
0.0
  0
LINE
  5
4ABD
330
1F
100
AcDbEntity
  8
太線
100
AcDbLine
 10
425.6596503615678
 20
-32.92951302727124
 30
0.0
 11
429.6596503615679
 21
-32.92951302727124
 31
0.0
  0
LINE
  5
4ABE
330
1F
100
AcDbEntity
  8
太線
100
AcDbLine
 10
425.6596503615678
 20
-42.92951302727124
 30
0.0
 11
425.6596503615678
 21
-32.92951302727124
 31
0.0
  0
LINE
  5
4ABF
330
1F
100
AcDbEntity
  8
太線
100
AcDbLine
 10
431.6596503615678
 20
-32.92951302727124
 30
0.0
 11
431.6596503615678
 21
-42.92951302727124
 31
0.0
  0
LINE
  5
4AC0
330
1F
100
AcDbEntity
  8
太線
100
AcDbLine
 10
443.6596503615678
 20
-32.92951302727124
 30
0.0
 11
443.6596503615678
 21
-42.92951302727124
 31
0.0
  0
LINE
  5
4AC1
330
1F
100
AcDbEntity
  8
太線
100
AcDbLine
 10
449.6596503615678
 20
-32.92951302727124
 30
0.0
 11
449.6596503615678
 21
-42.92951302727124
 31
0.0
  0
LINE
  5
4AC2
330
1F
100
AcDbEntity
  8
太線
100
AcDbLine
 10
429.6596503615679
 20
-32.92951302727124
 30
0.0
 11
449.6596503615678
 21
-32.92951302727124
 31
0.0
  0
LINE
  5
4AC3
330
1F
100
AcDbEntity
  8
太線
100
AcDbLine
 10
448.7210310658728
 20
-22.6521385909009
 30
0.0
 11
448.7210310658728
 21
-22.6521385909009
 31
0.0
  0
LINE
  5
4AC4
330
1F
100
AcDbEntity
  8
太線
100
AcDbLine
 10
428.7210310658728
 20
-22.6521385909009
 30
0.0
 11
448.7210310658728
 21
-22.6521385909009
 31
0.0
  0
LINE
  5
4ACE
330
1F
100
AcDbEntity
  8
細線
100
AcDbLine
 10
446.0490992195964
 20
-22.6521385909009
 30
0.0
 11
446.0490992195964
 21
-32.6521385909009
 31
0.0
  0
LINE
  5
4ACF
330
1F
100
AcDbEntity
  8
細線
100
AcDbLine
 10
444.0490992195964
 20
-22.6521385909009
 30
0.0
 11
444.0490992195964
 21
-32.6521385909009
 31
0.0
  0
LINE
  5
4AD2
330
1F
100
AcDbEntity
  8
細線
100
AcDbLine
 10
430.0490992195964
 20
-22.6521385909009
 30
0.0
 11
430.0490992195964
 21
-32.6521385909009
 31
0.0
  0
LINE
  5
4AD3
330
1F
100
AcDbEntity
  8
細線
100
AcDbLine
 10
432.0490992195963
 20
-22.6521385909009
 30
0.0
 11
432.0490992195963
 21
-32.6521385909009
 31
0.0
  0
LINE
  5
4AD4
330
1F
100
AcDbEntity
  8
細線
100
AcDbLine
 10
443.6596503615678
 20
95.09668567750896
 30
0.0
 11
443.6596503615678
 21
133.3099843127886
 31
0.0
  0
LINE
  5
4AD5
330
1F
100
AcDbEntity
  8
細線
100
AcDbLine
 10
431.6596503615678
 20
95.09668567750896
 30
0.0
 11
431.6596503615678
 21
133.3099843127886
 31
0.0
  0
LINE
  5
4AD6
330
1F
100
AcDbEntity
  8
太線
100
AcDbLine
 10
445.6596503615678
 20
95.09668567750896
 30
0.0
 11
445.6596503615678
 21
133.3099843127886
 31
0.0
  0
LINE
  5
4AD7
330
1F
100
AcDbEntity
  8
太線
100
AcDbLine
 10
429.6596503615679
 20
95.09668567750896
 30
0.0
 11
429.6596503615679
 21
133.3099843127886
 31
0.0
  0
LINE
  5
4AE8
330
1F
100
AcDbEntity
  8
太線
100
AcDbLine
 10
428.6385298764233
 20
-114.903314322491
 30
0.0
 11
448.6385298764234
 21
-114.903314322491
 31
0.0
  0
LINE
  5
4AE9
330
1F
100
AcDbEntity
  8
破線
100
AcDbLine
 10
446.966598030147
 20
-104.903314322491
 30
0.0
 11
446.966598030147
 21
-114.903314322491
 31
0.0
  0
LINE
  5
4AEA
330
1F
100
AcDbEntity
  8
破線
100
AcDbLine
 10
428.966598030147
 20
-104.903314322491
 30
0.0
 11
428.966598030147
 21
-114.6900156872113
 31
0.0
  0
TEXT
  5
4B24
330
1F
100
AcDbEntity
  8
文字
100
AcDbText
 10
452.993969442878
 20
85.439493164444
 30
0.0
 40
10.0
  1
Ｍ16
 51
15.0
  7
OKANO
100
AcDbText
  0
TEXT
  5
4B25
330
1F
100
AcDbEntity
  8
文字
100
AcDbText
 10
465.8145215169965
 20
-75.18087539184694
 30
0.0
 40
10.0
  1
一体加工
 51
15.0
  7
OKANO
100
AcDbText
  0
MTEXT
  5
4B27
330
1F
100
AcDbEntity
  8
太線
100
AcDbMText
 10
462.5312526005464
 20
-94.50898252261822
 30
0.0
 40
5.0
 41
3.16
 71
     1
 72
     1
  1

  7
OKANO
 73
     1
 44
1.0
  0
TEXT
  5
4B2A
330
1F
100
AcDbEntity
  8
文字
100
AcDbText
 10
378.6186828290528
 20
-61.67889014064463
 30
0.0
 40
10.0
  1
Ｂ16
 51
15.0
  7
OKANO
100
AcDbText
  0
DIMENSION
  5
4B4A
330
1F
100
AcDbEntity
  8
太線
100
AcDbDimension
  2
*D7
 10
519.4768958426429
 20
-94.90331432249105
 30
0.0
 11
515.976895842643
 21
-99.90331432249098
 31
0.0
 70
    32
 71
     5
 42
10.0
  3
sunpo
100
AcDbAlignedDimension
 13
449.6596503615678
 23
-104.903314322491
 33
0.0
 14
449.6596503615678
 24
-94.90331432249105
 34
0.0
 50
90.0
100
AcDbRotatedDimension
1001
ACAD
1000
DSTYLE
1002
{
1070
    40
1040
1.0
1070
   279
1070
     1
1002
}
  0
DIMENSION
  5
4B57
330
1F
100
AcDbEntity
  8
太線
100
AcDbDimension
  2
*D8
 10
519.4768958426429
 20
135.3099843127886
 30
0.0
 11
515.9764037166588
 21
20.20333499514885
 31
0.0
 70
    32
  1
230
 71
     5
 42
230.2132986352796
  3
sunpo
100
AcDbAlignedDimension
 13
449.6596503615678
 23
-94.90331432249105
 33
0.0
 14
443.6596503615678
 24
135.3099843127886
 34
0.0
 50
90.0
100
AcDbRotatedDimension
1001
ACAD
1000
DSTYLE
1002
{
1070
    40
1040
1.0
1070
   279
1070
     1
1002
}
  0
LEADER
  5
4B6C
330
1F
100
AcDbEntity
  8
太線
100
AcDbLeader
  3
sunpo
 76
     2
 10
439.9113314241576
 20
-98.00953047291137
 30
0.0
 10
463.6046630702312
 20
-74.3320805403348
 30
0.0
1001
ACAD
1000
DSTYLE
1002
{
1070
   147
1040
1.0
1070
    77
1070
     0
1002
}
  0
LEADER
  5
4B6D
330
1F
100
AcDbEntity
  8
太線
100
AcDbLeader
  3
sunpo
 76
     2
 10
435.8410340341533
 20
-55.55392294559965
 30
0.0
 10
462.6411202674794
 20
-73.24023080111079
 30
0.0
1001
ACAD
1000
DSTYLE
1002
{
1070
   147
1040
1.0
1070
    77
1070
     0
1002
}
  0
LINE
  5
4B79
330
1F
100
AcDbEntity
  8
太線
100
AcDbLine
 10
429.6596503615679
 20
-116.903314322491
 30
0.0
 11
445.6596503615678
 21
-116.903314322491
 31
0.0
  0
DIMENSION
  5
4B7A
330
1F
100
AcDbEntity
  8
太線
100
AcDbDimension
  2
*D9
 10
519.7835618814933
 20
-116.903314322491
 30
0.0
 11
516.2835618814933
 21
-122.9033143224909
 31
0.0
 70
    32
  1
10
 71
     5
 42
12.00000000000001
  3
sunpo
100
AcDbAlignedDimension
 13
443.6596503615678
 23
-128.903314322491
 33
0.0
 14
443.6596503615678
 24
-116.903314322491
 34
0.0
 50
90.0
100
AcDbRotatedDimension
1001
ACAD
1000
DSTYLE
1002
{
1070
    40
1040
1.0
1002
}
  0
DIMENSION
  5
4B87
330
1F
100
AcDbEntity
  8
太線
100
AcDbDimension
  2
*D10
 10
519.7835618814933
 20
-104.903314322491
 30
0.0
 11
516.2835618814933
 21
-110.9033143224909
 31
0.0
 70
    32
  1
10
 71
     5
 42
12.0
  3
sunpo
100
AcDbAlignedDimension
 13
443.6596503615678
 23
-116.903314322491
 33
0.0
 14
443.6596503615678
 24
-104.903314322491
 34
0.0
 50
90.0
100
AcDbRotatedDimension
1001
ACAD
1000
DSTYLE
1002
{
1070
    40
1040
1.0
1070
   279
1070
     1
1002
}
  0
LEADER
  5
4B94
330
1F
100
AcDbEntity
  8
太線
100
AcDbLeader
  3
sunpo
 76
     2
 10
435.972444505322
 20
-38.43189452524939
 30
0.0
 10
405.6268184602572
 20
-56.27029836390011
 30
0.0
1001
ACAD
1000
DSTYLE
1002
{
1070
   147
1040
1.0
1070
    77
1070
     0
1002
}
  0
TEXT
  5
4B95
330
1F
100
AcDbEntity
  8
文字
100
AcDbText
 10
565.9354473804696
 20
-149.7676102383306
 30
0.0
 40
10.0
  1
ナット取付後カシメ加工
 51
15.0
  7
OKANO
100
AcDbText
  0
LEADER
  5
4B96
330
1F
100
AcDbEntity
  8
太線
100
AcDbLeader
  3
sunpo
 73
     0
 40
5.0
 76
     2
 10
442.482581360031
 20
-121.0694982644365
 30
0.0
 10
555.379532936176
 20
-144.7272591457872
 30
0.0
340
4B97
213
81.48057821417159
223
-3.579674525972222
233
0.0
1001
ACAD
1000
DSTYLE
1002
{
1070
   147
1040
1.0
1070
    77
1070
     0
1002
}
  0
MTEXT
  5
4B97
102
{ACAD_REACTORS
330
4B96
102
}
330
1F
100
AcDbEntity
  8
太線
100
AcDbMText
 10
474.8989547220044
 20
-151.147584619815
 30
0.0
 40
5.0
 41
5.29
 71
     1
 72
     1
  1

  7
OKANO
 73
     1
 44
1.0
  0
DIMENSION
  5
4C1C
330
1F
100
AcDbEntity
  8
寸法線
100
AcDbDimension
  2
*D11
 10
466.8621812510711
 20
-176.240767410105
 30
0.0
 11
438.2660891751313
 21
-172.740767410105
 31
0.0
 70
    32
  1
60
 71
     5
 42
57.1921841518797
  3
sunpo
100
AcDbAlignedDimension
 13
409.6699970991915
 23
-152.6764218792595
 33
0.0
 14
466.8621812510711
 24
-152.6764218792595
 34
0.0
100
AcDbRotatedDimension
1001
ACAD
1000
DSTYLE
1002
{
1070
    40
1040
1.0
1002
}
  0
LINE
  5
4C3E
330
1F
100
AcDbEntity
  8
太線
370
    25
100
AcDbLine
 10
467.1385298764233
 20
-128.903314322491
 30
0.0
 11
467.1385298764233
 21
-117.5229001372702
 31
0.0
  0
LINE
  5
4C3F
330
1F
100
AcDbEntity
  8
太線
370
    25
100
AcDbLine
 10
463.1385298764233
 20
-128.903314322491
 30
0.0
 11
463.1385298764233
 21
-124.5229001372702
 31
0.0
  0
LINE
  5
4C40
330
1F
100
AcDbEntity
  8
太線
370
    25
100
AcDbLine
 10
414.1385298764233
 20
-128.903314322491
 30
0.0
 11
414.1385298764233
 21
-154.5229001372701
 31
0.0
  0
LINE
  5
4C41
330
1F
100
AcDbEntity
  8
太線
370
    25
100
AcDbLine
 10
410.1385298764233
 20
-128.903314322491
 30
0.0
 11
410.1385298764233
 21
-151.5229001372702
 31
0.0
  0
DIMENSION
  5
4C73
330
1F
100
AcDbEntity
  8
寸法線
100
AcDbDimension
  2
*D15
 10
663.65464524834
 20
-21.38616526450711
 30
0.0
 11
660.1546452483399
 21
-50.886165264507
 31
0.0
 70
    32
  1
60
 71
     5
 42
58.99999999999999
  3
sunpo
100
AcDbAlignedDimension
 13
614.3027794224813
 23
-80.38616526450709
 33
0.0
 14
614.3027794224813
 24
-21.38616526450709
 34
0.0
 50
90.0
100
AcDbRotatedDimension
1001
ACAD
1000
DSTYLE
1002
{
1070
    40
1040
1.0
1002
}
  0
DIMENSION
  5
4C74
330
1F
100
AcDbEntity
  8
寸法線
100
AcDbDimension
  2
*D16
 10
643.8027794224812
 20
-14.25894377482268
 30
0.0
 11
612.1977310358321
 21
-10.75894377482268
 31
0.0
 70
    32
  1
65
 71
     5
 42
63.21009677329834
  3
sunpo
100
AcDbAlignedDimension
 13
580.592682649183
 23
-50.8861652645071
 33
0.0
 14
643.8027794224812
 24
-50.8861652645071
 34
0.0
100
AcDbRotatedDimension
1001
ACAD
1000
DSTYLE
1002
{
1070
    40
1040
1.0
1002
}
  0
CIRCLE
  5
4C75
330
1F
100
AcDbEntity
  8
太線
100
AcDbCircle
 10
614.3027794224813
 20
-50.8861652645071
 30
0.0
 40
29.5
  0
ARC
  5
4C76
330
1F
100
AcDbEntity
  8
太線
370
    25
100
AcDbCircle
 10
615.2412428558559
 20
-50.57029249809684
 30
0.0
 40
34.65
100
AcDbArc
 50
167.4993777707554
 51
192.5006222292446
  0
LINE
  5
4C77
330
1F
100
AcDbEntity
  8
太線
370
    25
100
AcDbLine
 10
585.5912428558561
 20
-59.83614353615752
 30
0.0
 11
581.4126676567732
 21
-58.07029249809687
 31
0.0
  0
LINE
  5
4C78
330
1F
100
AcDbEntity
  8
太線
370
    25
100
AcDbLine
 10
585.7675923939173
 20
-41.22991677159319
 30
0.0
 11
581.4126676567732
 21
-43.07029249809676
 31
0.0
  0
CIRCLE
  5
4C79
330
1F
100
AcDbEntity
  8
太線
100
AcDbCircle
 10
614.3027794224813
 20
-50.8861652645071
 30
0.0
 40
24.5
  0
CIRCLE
  5
4C7A
330
1F
100
AcDbEntity
  8
太線
100
AcDbCircle
 10
623.3900765499854
 20
-66.6258255928189
 30
0.0
 40
4.0
  0
CIRCLE
  5
4C7B
330
1F
100
AcDbEntity
  8
太線
100
AcDbCircle
 10
596.1281851674733
 20
-50.88616526450692
 30
0.0
 40
4.0
  0
CIRCLE
  5
4C7C
330
1F
100
AcDbEntity
  8
寸法線
100
AcDbCircle
 10
614.3027794224813
 20
-50.8861652645071
 30
0.0
 40
7.270589550345224
  0
CIRCLE
  5
4C7D
330
1F
100
AcDbEntity
  8
太線
100
AcDbCircle
 10
614.3027794224813
 20
-50.8861652645071
 30
0.0
 40
5.076384983987622
  0
CIRCLE
  5
4C7E
330
1F
100
AcDbEntity
  8
太線
100
AcDbCircle
 10
623.3900765499852
 20
-35.14650493619535
 30
0.0
 40
4.0
  0
ARC
  5
4DCB
330
1F
100
AcDbEntity
  8
太線
370
    25
100
AcDbCircle
 10
438.6510644494148
 20
-143.1036861884542
 30
0.0
 40
34.65
100
AcDbArc
 50
347.4993777707553
 51
12.50062222924464
  0
LINE
  5
4DCC
330
1F
100
AcDbEntity
  8
想像線
370
    25
100
AcDbLine
 10
472.845033308435
 20
-148.0487474765477
 30
0.0
 11
463.4826439641354
 21
-148.0487474765477
 31
0.0
  0
LINE
  5
4DCD
330
1F
100
AcDbEntity
  8
太線
370
    25
100
AcDbLine
 10
466.7306350129941
 20
-153.0331951286421
 30
0.0
 11
472.4796396484975
 21
-150.6036861884543
 31
0.0
  0
LINE
  5
4DCE
330
1F
100
AcDbEntity
  8
破線
100
AcDbLine
 10
468.3010644494146
 20
-151.2253124384266
 30
0.0
 11
468.3010644494146
 21
-151.2253124384266
 31
0.0
  0
LINE
  5
4DCF
330
1F
100
AcDbEntity
  8
細線
100
AcDbLine
 10
463.3049285583309
 20
-148.1036861884543
 30
0.0
 11
463.1603589368745
 21
-148.1036861884543
 31
0.0
  0
LINE
  5
4DD0
330
1F
100
AcDbEntity
  8
想像線
370
    25
100
AcDbLine
 10
472.591993963343
 20
-138.1917577356261
 30
0.0
 11
463.229604619043
 21
-138.1917577356261
 31
0.0
  0
LINE
  5
4DD1
330
1F
100
AcDbEntity
  8
想像線
370
    25
100
AcDbLine
 10
472.7523749891405
 20
-146.4160684442431
 30
0.0
 11
463.5474739004279
 21
-146.4160684442431
 31
0.0
  0
LINE
  5
4DD2
330
1F
100
AcDbEntity
  8
細線
100
AcDbLine
 10
463.3049285583309
 20
-138.1036861884543
 30
0.0
 11
463.1603589368745
 21
-138.1036861884543
 31
0.0
  0
LINE
  5
4DD3
330
1F
100
AcDbEntity
  8
細線
100
AcDbLine
 10
463.3049285583309
 20
-139.1036861884543
 30
0.0
 11
463.1603589368745
 21
-139.1036861884543
 31
0.0
  0
LINE
  5
4DD4
330
1F
100
AcDbEntity
  8
細線
100
AcDbLine
 10
463.3049285583309
 20
-147.1036861884543
 30
0.0
 11
463.1603589368745
 21
-147.1036861884543
 31
0.0
  0
LINE
  5
4DD5
330
1F
100
AcDbEntity
  8
想像線
370
    25
100
AcDbLine
 10
472.0705314481119
 20
-136.8813430668176
 30
0.0
 11
463.5474739004279
 21
-136.8813430668176
 31
0.0
  0
LINE
  5
4DD6
330
1F
100
AcDbEntity
  8
太線
370
    25
100
AcDbLine
 10
467.1385298764233
 20
-133.3465521688288
 30
0.0
 11
472.4796396484975
 21
-135.6036861884542
 31
0.0
  0
ARC
  5
4DD9
330
1F
100
AcDbEntity
  8
太線
370
    25
100
AcDbCircle
 10
438.7335656388642
 20
7.006246987473446
 30
0.0
 40
34.65
100
AcDbArc
 50
347.4993777707553
 51
12.50062222924464
  0
LINE
  5
4DDB
330
1F
100
AcDbEntity
  8
太線
370
    25
100
AcDbLine
 10
467.2210310658728
 20
-2.750887032152083
 30
0.0
 11
472.5621408379469
 21
-0.4937530125266676
 31
0.0
  0
LINE
  5
4DDC
330
1F
100
AcDbEntity
  8
想像線
370
    25
100
AcDbLine
 10
472.9275344978844
 20
2.061185699379905
 30
0.0
 11
463.5651451535848
 21
2.061185699379905
 31
0.0
  0
LINE
  5
4DDD
330
1F
100
AcDbEntity
  8
細線
100
AcDbLine
 10
463.3874297477803
 20
2.006246987473275
 30
0.0
 11
463.242860126324
 21
2.006246987473275
 31
0.0
  0
LINE
  5
4DDE
330
1F
100
AcDbEntity
  8
破線
100
AcDbLine
 10
468.383565638864
 20
-1.115379262498947
 30
0.0
 11
468.383565638864
 21
-1.115379262498947
 31
0.0
  0
LINE
  5
4DDF
330
1F
100
AcDbEntity
  8
想像線
370
    25
100
AcDbLine
 10
472.8348761785899
 20
3.693864731684527
 30
0.0
 11
463.6299750898773
 21
3.693864731684527
 31
0.0
  0
LINE
  5
4DE0
330
1F
100
AcDbEntity
  8
想像線
370
    25
100
AcDbLine
 10
472.6744951527924
 20
11.91817544030146
 30
0.0
 11
463.3121058084924
 21
11.91817544030146
 31
0.0
  0
LINE
  5
4DE1
330
1F
100
AcDbEntity
  8
細線
100
AcDbLine
 10
463.3874297477803
 20
3.006246987473275
 30
0.0
 11
463.242860126324
 21
3.006246987473275
 31
0.0
  0
LINE
  5
4DE2
330
1F
100
AcDbEntity
  8
細線
100
AcDbLine
 10
463.3874297477803
 20
11.00624698747327
 30
0.0
 11
463.242860126324
 21
11.00624698747327
 31
0.0
  0
LINE
  5
4DE3
330
1F
100
AcDbEntity
  8
細線
100
AcDbLine
 10
463.3874297477803
 20
12.00624698747327
 30
0.0
 11
463.242860126324
 21
12.00624698747327
 31
0.0
  0
LINE
  5
4DE4
330
1F
100
AcDbEntity
  8
太線
370
    25
100
AcDbLine
 10
467.2157102268665
 20
16.76562957476484
 30
0.0
 11
472.5621408379469
 21
14.50624698747344
 31
0.0
  0
LINE
  5
4DE5
330
1F
100
AcDbEntity
  8
想像線
370
    25
100
AcDbLine
 10
472.1530326375613
 20
13.22859010911002
 30
0.0
 11
463.6299750898773
 21
13.22859010911002
 31
0.0
  0
XLINE
  5
4DE6
330
1F
100
AcDbEntity
  8
構築線
100
AcDbXline
 10
614.3027794224813
 20
-50.8861652645071
 30
0.0
 11
0.0
 21
1.0
 31
0.0
  0
XLINE
  5
4DE7
330
1F
100
AcDbEntity
  8
構築線
100
AcDbXline
 10
614.3027794224813
 20
-50.8861652645071
 30
0.0
 11
1.0
 21
0.0
 31
0.0
  0
DIMENSION
  5
4DFA
330
1F
100
AcDbEntity
  8
寸法線
100
AcDbDimension
  2
*D28
 10
383.3667593486939
 20
-104.903314322491
 30
0.0
 11
379.8667593486939
 21
-129.7131072298805
 31
0.0
 70
    32
  1
50
 71
     5
 42
49.61958581477917
  3
sunpo
100
AcDbAlignedDimension
 13
414.1385298764233
 23
-154.5229001372701
 33
0.0
 14
418.2869328874891
 24
-104.903314322491
 34
0.0
 50
90.0
100
AcDbRotatedDimension
1001
ACAD
1000
DSTYLE
1002
{
1070
    40
1040
1.0
1002
}
  0
DIMENSION
  5
4E07
330
1F
100
AcDbEntity
  8
寸法線
100
AcDbDimension
  2
*D29
 10
385.2986619038892
 20
19.58703303865741
 30
0.0
 11
381.7986619038892
 21
-6.532552776121677
 31
0.0
 70
    32
  1
50
 71
     5
 42
52.23917162955832
  3
sunpo
100
AcDbAlignedDimension
 13
413.2210310658727
 23
-32.6521385909009
 33
0.0
 14
413.2210310658727
 24
19.58703303865741
 34
0.0
 50
90.0
100
AcDbRotatedDimension
1001
ACAD
1000
DSTYLE
1002
{
1070
    40
1040
1.0
1002
}
  0
DIMENSION
  5
4E27
330
1F
100
AcDbEntity
  8
寸法線
100
AcDbDimension
  2
*D30
 10
492.7797649778535
 20
19.58703303865742
 30
0.0
 11
489.2792728518693
 21
13.5870330386575
 31
0.0
 70
    32
 71
     5
 42
12.0
  3
sunpo
100
AcDbAlignedDimension
 13
463.2210310658727
 23
7.587033038657437
 33
0.0
 14
463.2210310658727
 24
19.58703303865743
 34
0.0
 50
90.0
100
AcDbRotatedDimension
1001
ACAD
1000
DSTYLE
1002
{
1070
    40
1040
1.0
1002
}
  0
DIMENSION
  5
4E34
330
1F
100
AcDbEntity
  8
寸法線
100
AcDbDimension
  2
*D31
 10
472.5621408379469
 20
33.36553457592435
 30
0.0
 11
467.8915859519098
 21
36.86553457592435
 31
0.0
 70
    32
  1
10
 71
     5
 42
9.341109772074105
  3
sunpo
100
AcDbAlignedDimension
 13
463.2210310658727
 23
19.58703303865743
 33
0.0
 14
472.5621408379469
 24
14.50624698747344
 34
0.0
100
AcDbRotatedDimension
1001
ACAD
1000
DSTYLE
1002
{
1070
    40
1040
1.0
1002
}
  0
DIMENSION
  5
4E51
330
1F
100
AcDbEntity
  8
寸法線
100
AcDbDimension
  2
*D33
 10
414.5431882323691
 20
25.2418149230848
 30
0.0
 11
423.0210739153392
 21
28.7418149230848
 31
0.0
 70
    32
  1
5
 71
     5
 42
4.322430704539328
  3
sunpo
100
AcDbAlignedDimension
 13
410.2207575278298
 23
16.24384150833975
 33
0.0
 14
414.5431882323691
 24
16.24384150833975
 34
0.0
100
AcDbRotatedDimension
1001
ACAD
1000
DSTYLE
1002
{
1070
    40
1040
1.0
1002
}
  0
DIMENSION
  5
4E60
330
1F
100
AcDbEntity
  8
寸法線
100
AcDbDimension
  2
*D34
 10
489.3576025798811
 20
-22.76148721971322
 30
0.0
 11
485.8576025798811
 21
-27.78910857660587
 31
0.0
 70
    32
  1
10
 71
     5
 42
10.05524271378545
  3
sunpo
100
AcDbAlignedDimension
 13
462.87557579855
 23
-32.81672993349866
 33
0.0
 14
462.87557579855
 24
-22.76148721971321
 34
0.0
 50
90.0
100
AcDbRotatedDimension
1001
ACAD
1000
DSTYLE
1002
{
1070
    40
1040
1.0
1002
}
  0
LEADER
  5
4E9D
330
1F
100
AcDbEntity
  8
寸法線
100
AcDbLeader
  3
sunpo
 76
     2
 10
473.9647072392872
 20
-144.9162453565777
 30
0.0
 10
502.7711861505641
 20
-160.9072395673497
 30
0.0
1001
ACAD
1000
DSTYLE
1002
{
1070
   147
1040
1.0
1070
    77
1070
     0
1002
}
  0
TEXT
  5
4E9E
330
1F
100
AcDbEntity
  8
文字
100
AcDbText
 10
502.1548461709776
 20
-166.4591683942856
 30
0.0
 40
10.0
  1
ＰＦ8/3-13
 51
15.0
  7
OKANO
100
AcDbText
  0
VIEWPORT
  5
2E
330
1B
100
AcDbEntity
 67
     1
  8
0
100
AcDbViewport
 10
238.5103480804351
 20
88.93063055742368
 30
0.0
 40
497.4808286618038
 41
252.6720331032554
 68
     1
 69
     1
 12
238.5103480804351
 22
88.93063055742368
 13
0.0
 23
0.0
 14
10.0
 24
10.0
 15
10.0
 25
10.0
 16
0.0
 26
0.0
 36
1.0
 17
0.0
 27
0.0
 37
0.0
 42
50.0
 43
0.0
 44
0.0
 45
252.6720331032554
 50
0.0
 51
0.0
 72
   100
 90
    32800
  1

281
     0
 71
     1
 74
     0
110
0.0
120
0.0
130
0.0
111
1.0
121
0.0
131
0.0
112
0.0
122
1.0
132
0.0
 79
     0
146
0.0
  0
VIEWPORT
  5
30
330
1B
100
AcDbEntity
 67
     1
  8
70-0-CON
100
AcDbViewport
 10
141.8594093064315
 20
100.3480256368386
 30
0.0
 40
261.6199023344245
 41
192.6196987113174
 68
     2
 69
     2
 12
603.9068787400769
 22
-24.32051915122896
 13
0.0
 23
0.0
 14
5.0
 24
5.0
 15
10.0
 25
10.0
 16
0.0
 26
0.0
 36
1.0
 17
0.0
 27
0.0
 37
0.0
 42
50.0
 43
0.0
 44
0.0
 45
459.556069195584
 50
0.0
 51
0.0
 72
   100
 90
    32864
  1

281
     0
 71
     1
 74
     0
110
0.0
120
0.0
130
0.0
111
1.0
121
0.0
131
0.0
112
0.0
122
1.0
132
0.0
 79
     0
146
0.0
  0
LWPOLYLINE
  5
45
330
1B
100
AcDbEntity
 67
     1
  8
50-0-CON
100
AcDbPolyline
 90
        4
 70
     1
 43
0.0
 10
11.04945813921926
 20
4.038176281179858
 10
272.2125713060605
 20
4.033520706629644
 10
273.4987754093466
 20
195.9297862125246
 10
11.04945813921926
 20
196.6578749924973
  0
LINE
  5
4A
330
1B
100
AcDbEntity
 67
     1
  8
50-0-CON
100
AcDbLine
 10
10.38768783662635
 20
100.3480256368386
 30
0.0
 11
-4.391850629656119
 21
100.3480256368386
 31
0.0
  0
LINE
  5
4B
330
1B
100
AcDbEntity
 67
     1
  8
50-0-CON
100
AcDbLine
 10
141.8594093064315
 20
197.098652626247
 30
0.0
 11
141.8594093064315
 21
202.387980773708
 31
0.0
  0
LINE
  5
4C
330
1B
100
AcDbEntity
 67
     1
  8
50-0-CON
100
AcDbLine
 10
272.4487699456857
 20
100.7888032705883
 30
0.0
 11
278.8458837249377
 21
100.7888032705883
 31
0.0
  0
LINE
  5
4D
330
1B
100
AcDbEntity
 67
     1
  8
50-0-CON
100
AcDbLine
 10
140.9770484758805
 20
4.038176281179858
 30
0.0
 11
140.9770484758805
 21
-3.455038652015446
 31
0.0
  0
ENDSEC
  0
SECTION
  2
OBJECTS
  0
DICTIONARY
  5
C
330
0
100
AcDbDictionary
281
     1
  3
ACAD_GROUP
350
D
  3
ACAD_LAYOUT
350
1A
  3
ACAD_MLINESTYLE
350
17
  3
ACAD_PLOTSETTINGS
350
19
  3
ACAD_PLOTSTYLENAME
350
E
  3
AcadDim
350
4B28
  3
AcDbVariableDictionary
350
6AD
  3
DWGPROPS
350
30F
  0
DICTIONARY
  5
D
102
{ACAD_REACTORS
330
C
102
}
330
C
100
AcDbDictionary
281
     1
  0
DICTIONARY
  5
1A
102
{ACAD_REACTORS
330
C
102
}
330
C
100
AcDbDictionary
281
     1
  3
A4
350
1E
  3
Model
350
22
  0
DICTIONARY
  5
17
102
{ACAD_REACTORS
330
C
102
}
330
C
100
AcDbDictionary
281
     1
  3
Standard
350
18
  0
DICTIONARY
  5
19
102
{ACAD_REACTORS
330
C
102
}
330
C
100
AcDbDictionary
281
     1
  0
ACDBDICTIONARYWDFLT
  5
E
102
{ACAD_REACTORS
330
C
102
}
330
C
100
AcDbDictionary
281
     1
  3
Normal
350
F
100
AcDbDictionaryWithDefault
340
F
  0
XRECORD
  5
4B28
102
{ACAD_REACTORS
330
C
102
}
330
C
100
AcDbXrecord
280
     1
 90
   990106
  3

 60
     0
 61
     0
 62
     1
 63
     3
 64
     0
 65
     0
 66
     0
 67
     3
 68
     1
 69
     0
 70
     0
 71
     0
 72
     0
 40
5.289437345326171
170
     0
340
4B97
  0
DICTIONARY
  5
6AD
102
{ACAD_REACTORS
330
C
102
}
330
C
100
AcDbDictionary
281
     1
  3
SORTENTS
350
6AE
  0
XRECORD
  5
30F
102
{ACAD_REACTORS
330
C
102
}
330
C
100
AcDbXrecord
280
     1
  1
DWGPROPS COOKIE
  2

  3

  4

  6

  7

  8

  9

300
=
301
=
302
=
303
=
304
=
305
=
306
=
307
=
308
=
309
=
 40
0.3303803125
 41
2452362.482225463
 42
2452370.969861285
  1

 90
        0
  0
LAYOUT
  5
1E
102
{ACAD_REACTORS
330
1A
102
}
330
1A
100
AcDbPlotSettings
  1

  2
EPSON PM-920C
  4
A4
  6

 40
3.757083177566528
 41
14.7637300491333
 42
3.757080078125
 43
3.757080078125
 44
209.9733276367187
 45
296.9683227539062
 46
0.0
 47
0.0
 48
0.0
 49
0.0
140
0.0
141
0.0
142
1.0
143
1.0
 70
   688
 72
     1
 73
     1
 74
     5
  7
joint.ctb
 75
    16
147
1.0
148
0.0
149
0.0
100
AcDbLayout
  1
A4
 70
     1
 71
     1
 10
-3.757080078125
 20
-3.757083177566528
 11
293.2112426757812
 21
206.2162444591522
 12
0.0
 22
0.0
 32
0.0
 14
-4.400932062405672
 24
-3.459116387827521
 34
-0.0015258207003583
 15
278.8478616361952
 25
202.393946056399
 35
0.0000000349246037
146
0.0
 13
0.0
 23
0.0
 33
0.0
 16
1.0
 26
0.0
 36
0.0
 17
0.0
 27
1.0
 37
0.0
 76
     0
330
1B
331
2E
  0
LAYOUT
  5
22
102
{ACAD_REACTORS
330
1A
102
}
330
1A
100
AcDbPlotSettings
  1

  2
EPSON PM-920C
  4
A4
  6

 40
3.757083177566528
 41
14.7637300491333
 42
3.757080078125
 43
3.757080078125
 44
209.9733276367187
 45
296.9683227539062
 46
0.0
 47
0.0
 48
0.0
 49
0.0
140
0.0
141
0.0
142
1.0
143
1.0
 70
 11952
 72
     1
 73
     1
 74
     0
  7

 75
     0
147
1.0
148
-45.64199848979289
149
-84.48806419330498
100
AcDbLayout
  1
Model
 70
     1
 71
     0
 10
0.0
 20
0.0
 11
12.0
 21
9.0
 12
0.0
 22
0.0
 32
0.0
 14
0.0
 24
0.0
 34
0.0
 15
0.0
 25
0.0
 35
0.0
146
0.0
 13
0.0
 23
0.0
 33
0.0
 16
1.0
 26
0.0
 36
0.0
 17
0.0
 27
1.0
 37
0.0
 76
     0
330
1F
  0
MLINESTYLE
  5
18
102
{ACAD_REACTORS
330
17
102
}
330
17
100
AcDbMlineStyle
  2
STANDARD
 70
     0
  3

 62
   256
 51
90.0
 52
90.0
 71
     2
 49
0.5
 62
   256
  6
BYLAYER
 49
-0.5
 62
   256
  6
BYLAYER
  0
ACDBPLACEHOLDER
  5
F
102
{ACAD_REACTORS
330
E
102
}
330
E
  0
DICTIONARYVAR
  5
6AE
102
{ACAD_REACTORS
330
6AD
102
}
330
6AD
100
DictionaryVariables
280
     0
  1
96
  0
ENDSEC
  0
EOF
