  0
SECTION
  2
HEADER
  9
$ACADVER
  1
AC1015
  9
$ACADMAINTVER
 70
     6
  9
$DWGCODEPAGE
  3
ANSI_932
  9
$INSBASE
 10
0.0
 20
0.0
 30
0.0
  9
$EXTMIN
 10
12.16639270959995
 20
-6.750747223656389
 30
0.0
  9
$EXTMAX
 10
324.4769407644665
 20
230.0009759234054
 30
0.0
  9
$LIMMIN
 10
0.0
 20
0.0
  9
$LIMMAX
 10
420.0
 20
297.0
  9
$ORTHOMODE
 70
     1
  9
$REGENMODE
 70
     1
  9
$FILLMODE
 70
     1
  9
$QTEXTMODE
 70
     0
  9
$MIRRTEXT
 70
     1
  9
$LTSCALE
 40
1.0
  9
$ATTMODE
 70
     1
  9
$TEXTSIZE
 40
5.0
  9
$TRACEWID
 40
1.0
  9
$TEXTSTYLE
  7
OKANO
  9
$CLAYER
  8
太線
  9
$CELTYPE
  6
ByLayer
  9
$CECOLOR
 62
   256
  9
$CELTSCALE
 40
1.0
  9
$DISPSILH
 70
     0
  9
$DIMSCALE
 40
0.0
  9
$DIMASZ
 40
3.0
  9
$DIMEXO
 40
2.0
  9
$DIMDLI
 40
8.0
  9
$DIMRND
 40
0.0
  9
$DIMDLE
 40
0.0
  9
$DIMEXE
 40
3.0
  9
$DIMTP
 40
0.0
  9
$DIMTM
 40
0.0
  9
$DIMTXT
 40
5.0
  9
$DIMCEN
 40
2.5
  9
$DIMTSZ
 40
0.0
  9
$DIMTOL
 70
     0
  9
$DIMLIM
 70
     0
  9
$DIMTIH
 70
     0
  9
$DIMTOH
 70
     0
  9
$DIMSE1
 70
     0
  9
$DIMSE2
 70
     0
  9
$DIMTAD
 70
     1
  9
$DIMZIN
 70
     8
  9
$DIMBLK
  1
Closed
  9
$DIMASO
 70
     1
  9
$DIMSHO
 70
     1
  9
$DIMPOST
  1

  9
$DIMAPOST
  1

  9
$DIMALT
 70
     0
  9
$DIMALTD
 70
     3
  9
$DIMALTF
 40
0.03937007874016
  9
$DIMLFAC
 40
1.0
  9
$DIMTOFL
 70
     1
  9
$DIMTVP
 40
0.0
  9
$DIMTIX
 70
     0
  9
$DIMSOXD
 70
     0
  9
$DIMSAH
 70
     0
  9
$DIMBLK1
  1

  9
$DIMBLK2
  1

  9
$DIMSTYLE
  2
sunpo
  9
$DIMCLRD
 70
     0
  9
$DIMCLRE
 70
     0
  9
$DIMCLRT
 70
     0
  9
$DIMTFAC
 40
1.0
  9
$DIMGAP
 40
1.0
  9
$DIMJUST
 70
     0
  9
$DIMSD1
 70
     0
  9
$DIMSD2
 70
     0
  9
$DIMTOLJ
 70
     0
  9
$DIMTZIN
 70
     8
  9
$DIMALTZ
 70
     0
  9
$DIMALTTZ
 70
     0
  9
$DIMUPT
 70
     0
  9
$DIMDEC
 70
     2
  9
$DIMTDEC
 70
     2
  9
$DIMALTU
 70
     2
  9
$DIMALTTD
 70
     3
  9
$DIMTXSTY
  7
OKANO
  9
$DIMAUNIT
 70
     0
  9
$DIMADEC
 70
     0
  9
$DIMALTRND
 40
0.0
  9
$DIMAZIN
 70
     0
  9
$DIMDSEP
 70
    46
  9
$DIMATFIT
 70
     3
  9
$DIMFRAC
 70
     0
  9
$DIMLDRBLK
  1
Closed
  9
$DIMLUNIT
 70
     2
  9
$DIMLWD
 70
    -2
  9
$DIMLWE
 70
    -2
  9
$DIMTMOVE
 70
     0
  9
$LUNITS
 70
     2
  9
$LUPREC
 70
     2
  9
$SKETCHINC
 40
1.0
  9
$FILLETRAD
 40
2.0
  9
$AUNITS
 70
     0
  9
$AUPREC
 70
     0
  9
$MENU
  1
.
  9
$ELEVATION
 40
0.0
  9
$PELEVATION
 40
0.0
  9
$THICKNESS
 40
0.0
  9
$LIMCHECK
 70
     0
  9
$CHAMFERA
 40
10.0
  9
$CHAMFERB
 40
10.0
  9
$CHAMFERC
 40
20.0
  9
$CHAMFERD
 40
0.0
  9
$SKPOLY
 70
     0
  9
$TDCREATE
 40
2452362.482225463
  9
$TDUCREATE
 40
2452362.107225463
  9
$TDUPDATE
 40
2455999.525838877
  9
$TDUUPDATE
 40
2455999.150838877
  9
$TDINDWG
 40
2.4291106019
  9
$TDUSRTIMER
 40
2.4291106019
  9
$USRTIMER
 70
     1
  9
$ANGBASE
 50
0.0
  9
$ANGDIR
 70
     0
  9
$PDMODE
 70
     0
  9
$PDSIZE
 40
0.0
  9
$PLINEWID
 40
0.0
  9
$SPLFRAME
 70
     0
  9
$SPLINETYPE
 70
     6
  9
$SPLINESEGS
 70
     8
  9
$HANDSEED
  5
341C
  9
$SURFTAB1
 70
     6
  9
$SURFTAB2
 70
     6
  9
$SURFTYPE
 70
     6
  9
$SURFU
 70
     6
  9
$SURFV
 70
     6
  9
$UCSBASE
  2

  9
$UCSNAME
  2

  9
$UCSORG
 10
0.0
 20
0.0
 30
0.0
  9
$UCSXDIR
 10
1.0
 20
0.0
 30
0.0
  9
$UCSYDIR
 10
0.0
 20
1.0
 30
0.0
  9
$UCSORTHOREF
  2

  9
$UCSORTHOVIEW
 70
     0
  9
$UCSORGTOP
 10
0.0
 20
0.0
 30
0.0
  9
$UCSORGBOTTOM
 10
0.0
 20
0.0
 30
0.0
  9
$UCSORGLEFT
 10
0.0
 20
0.0
 30
0.0
  9
$UCSORGRIGHT
 10
0.0
 20
0.0
 30
0.0
  9
$UCSORGFRONT
 10
0.0
 20
0.0
 30
0.0
  9
$UCSORGBACK
 10
0.0
 20
0.0
 30
0.0
  9
$PUCSBASE
  2

  9
$PUCSNAME
  2

  9
$PUCSORG
 10
0.0
 20
0.0
 30
0.0
  9
$PUCSXDIR
 10
1.0
 20
0.0
 30
0.0
  9
$PUCSYDIR
 10
0.0
 20
1.0
 30
0.0
  9
$PUCSORTHOREF
  2

  9
$PUCSORTHOVIEW
 70
     0
  9
$PUCSORGTOP
 10
0.0
 20
0.0
 30
0.0
  9
$PUCSORGBOTTOM
 10
0.0
 20
0.0
 30
0.0
  9
$PUCSORGLEFT
 10
0.0
 20
0.0
 30
0.0
  9
$PUCSORGRIGHT
 10
0.0
 20
0.0
 30
0.0
  9
$PUCSORGFRONT
 10
0.0
 20
0.0
 30
0.0
  9
$PUCSORGBACK
 10
0.0
 20
0.0
 30
0.0
  9
$USERI1
 70
     0
  9
$USERI2
 70
     0
  9
$USERI3
 70
     0
  9
$USERI4
 70
     0
  9
$USERI5
 70
     0
  9
$USERR1
 40
0.0
  9
$USERR2
 40
0.0
  9
$USERR3
 40
0.0
  9
$USERR4
 40
0.0
  9
$USERR5
 40
0.0
  9
$WORLDVIEW
 70
     1
  9
$SHADEDGE
 70
     3
  9
$SHADEDIF
 70
    70
  9
$TILEMODE
 70
     0
  9
$MAXACTVP
 70
    64
  9
$PINSBASE
 10
0.0
 20
0.0
 30
0.0
  9
$PLIMCHECK
 70
     0
  9
$PEXTMIN
 10
-4.391850629656119
 20
-3.455038652015446
 30
0.0
  9
$PEXTMAX
 10
278.8458837249377
 20
202.387980773708
 30
0.0
  9
$PLIMMIN
 10
-3.757080078125
 20
-3.757083177566528
  9
$PLIMMAX
 10
293.2112426757812
 20
206.2162444591522
  9
$UNITMODE
 70
     0
  9
$VISRETAIN
 70
     1
  9
$PLINEGEN
 70
     0
  9
$PSLTSCALE
 70
     1
  9
$TREEDEPTH
 70
  3020
  9
$CMLSTYLE
  2
Standard
  9
$CMLJUST
 70
     0
  9
$CMLSCALE
 40
20.0
  9
$PROXYGRAPHICS
 70
     1
  9
$MEASUREMENT
 70
     1
  9
$CELWEIGHT
370
    -1
  9
$ENDCAPS
280
     0
  9
$JOINSTYLE
280
     0
  9
$LWDISPLAY
290
     0
  9
$INSUNITS
 70
     4
  9
$HYPERLINKBASE
  1

  9
$STYLESHEET
  1

  9
$XEDIT
290
     1
  9
$CEPSNTYPE
380
     0
  9
$PSTYLEMODE
290
     1
  9
$FINGERPRINTGUID
  2
{FF7F33C3-4233-11D6-AEE0-0000F45FD7F4}
  9
$VERSIONGUID
  2
{FDB3DE86-E6B9-4F72-BDA3-E2C34D58CB4F}
  9
$EXTNAMES
290
     1
  9
$PSVPSCALE
 40
0.0
  9
$OLESTARTUP
290
     0
  0
ENDSEC
  0
SECTION
  2
CLASSES
  0
CLASS
  1
ACDBDICTIONARYWDFLT
  2
AcDbDictionaryWithDefault
  3
AutoCAD 2000
 90
        0
280
     0
281
     0
  0
CLASS
  1
ACDBPLACEHOLDER
  2
AcDbPlaceHolder
  3
AutoCAD 2000
 90
        0
280
     0
281
     0
  0
CLASS
  1
LAYOUT
  2
AcDbLayout
  3
AutoCAD 2000
 90
        0
280
     0
281
     0
  0
CLASS
  1
DICTIONARYVAR
  2
AcDbDictionaryVar
  3
AutoCAD 2000
 90
        0
280
     0
281
     0
  0
ENDSEC
  0
SECTION
  2
TABLES
  0
TABLE
  2
VPORT
  5
8
330
0
100
AcDbSymbolTable
 70
     3
  0
VPORT
  5
341B
330
8
100
AcDbSymbolTableRecord
100
AcDbViewportTableRecord
  2
*Active
 70
     0
 10
0.0
 20
0.0
 11
1.0
 21
1.0
 12
84.85394442214783
 22
200.5907881942187
 13
0.0
 23
0.0
 14
5.0
 24
5.0
 15
10.0
 25
10.0
 16
0.0
 26
0.0
 36
1.0
 17
0.0
 27
0.0
 37
0.0
 40
209.3823220887556
 41
1.968879668049792
 42
50.0
 43
0.0
 44
0.0
 50
0.0
 51
0.0
 71
     0
 72
   100
 73
     1
 74
     3
 75
     0
 76
     0
 77
     0
 78
     0
281
     0
 65
     1
110
0.0
120
0.0
130
0.0
111
1.0
121
0.0
131
0.0
112
0.0
122
1.0
132
0.0
 79
     0
146
0.0
  0
ENDTAB
  0
TABLE
  2
LTYPE
  5
5
330
0
100
AcDbSymbolTable
 70
     5
  0
LTYPE
  5
14
330
5
100
AcDbSymbolTableRecord
100
AcDbLinetypeTableRecord
  2
ByBlock
 70
     0
  3

 72
    65
 73
     0
 40
0.0
  0
LTYPE
  5
15
330
5
100
AcDbSymbolTableRecord
100
AcDbLinetypeTableRecord
  2
ByLayer
 70
     0
  3

 72
    65
 73
     0
 40
0.0
  0
LTYPE
  5
16
330
5
100
AcDbSymbolTableRecord
100
AcDbLinetypeTableRecord
  2
Continuous
 70
     0
  3
Solid line
 72
    65
 73
     0
 40
0.0
  0
LTYPE
  5
33
330
5
100
AcDbSymbolTableRecord
100
AcDbLinetypeTableRecord
  2
DASHED2
 70
     0
  3
Dashed (.5x) _ _ _ _ _ _ _ _ _ _ _ _ _ _ _ _ _
 72
    65
 73
     2
 40
9.524999999999998
 49
6.349999999999999
 74
     0
 49
-3.174999999999999
 74
     0
  0
LTYPE
  5
34
330
5
100
AcDbSymbolTableRecord
100
AcDbLinetypeTableRecord
  2
CENTER2
 70
     0
  3
Center (.5x) ___ _ ___ _ ___ _ ___ _ ___ _ ___
 72
    65
 73
     4
 40
28.57499999999999
 49
19.05
 74
     0
 49
-3.174999999999999
 74
     0
 49
3.174999999999999
 74
     0
 49
-3.174999999999999
 74
     0
  0
LTYPE
  5
35
330
5
100
AcDbSymbolTableRecord
100
AcDbLinetypeTableRecord
  2
PHANTOM2
 70
     0
  3
Phantom (.5x) ___ _ _ ___ _ _ ___ _ _ ___ _ _
 72
    65
 73
     6
 40
31.75
 49
15.875
 74
     0
 49
-3.174999999999999
 74
     0
 49
3.174999999999999
 74
     0
 49
-3.174999999999999
 74
     0
 49
3.174999999999999
 74
     0
 49
-3.174999999999999
 74
     0
  0
LTYPE
  5
36
330
5
100
AcDbSymbolTableRecord
100
AcDbLinetypeTableRecord
  2
HIDDEN2
 70
     0
  3
Hidden (.5x) _ _ _ _ _ _ _ _ _ _ _ _ _ _ _ _ _
 72
    65
 73
     2
 40
4.762499999999999
 49
3.174999999999999
 74
     0
 49
-1.587499999999999
 74
     0
  0
ENDTAB
  0
TABLE
  2
LAYER
  5
2
330
0
100
AcDbSymbolTable
 70
    13
  0
LAYER
  5
10
330
2
100
AcDbSymbolTableRecord
100
AcDbLayerTableRecord
  2
0
 70
     0
 62
     7
  6
Continuous
370
    -3
390
F
  0
LAYER
  5
40
330
2
100
AcDbSymbolTableRecord
100
AcDbLayerTableRecord
  2
50-0-CON
 70
     0
 62
     4
  6
Continuous
370
    50
390
F
  0
LAYER
  5
41
330
2
100
AcDbSymbolTableRecord
100
AcDbLayerTableRecord
  2
70-0-CON
 70
     0
 62
   202
  6
Continuous
370
    70
390
F
  0
LAYER
  5
4E
330
2
100
AcDbSymbolTableRecord
100
AcDbLayerTableRecord
  2
極太線
 70
     0
 62
     7
  6
Continuous
370
    70
390
F
  0
LAYER
  5
4F
330
2
100
AcDbSymbolTableRecord
100
AcDbLayerTableRecord
  2
細線
 70
     0
 62
     8
  6
Continuous
370
    18
390
F
  0
LAYER
  5
AB
330
2
100
AcDbSymbolTableRecord
100
AcDbLayerTableRecord
  2
構築線
 70
     0
 62
    -2
  6
Continuous
290
     0
370
    18
390
F
  0
LAYER
  5
B8
330
2
100
AcDbSymbolTableRecord
100
AcDbLayerTableRecord
  2
太線
 70
     0
 62
     7
  6
Continuous
370
    35
390
F
  0
LAYER
  5
B9
330
2
100
AcDbSymbolTableRecord
100
AcDbLayerTableRecord
  2
寸法線
 70
     0
 62
     5
  6
Continuous
370
    18
390
F
  0
LAYER
  5
BA
330
2
100
AcDbSymbolTableRecord
100
AcDbLayerTableRecord
  2
破線
 70
     0
 62
     8
  6
HIDDEN2
370
    18
390
F
  0
LAYER
  5
BB
330
2
100
AcDbSymbolTableRecord
100
AcDbLayerTableRecord
  2
中心線
 70
     0
 62
     1
  6
CENTER2
370
    18
390
F
  0
LAYER
  5
BC
330
2
100
AcDbSymbolTableRecord
100
AcDbLayerTableRecord
  2
想像線
 70
     0
 62
     8
  6
PHANTOM2
370
    18
390
F
  0
LAYER
  5
BD
330
2
100
AcDbSymbolTableRecord
100
AcDbLayerTableRecord
  2
文字
 70
     0
 62
     7
  6
Continuous
370
    18
390
F
  0
LAYER
  5
180
330
2
100
AcDbSymbolTableRecord
100
AcDbLayerTableRecord
  2
Defpoints
 70
     0
 62
     7
  6
Continuous
290
     0
370
    -3
390
F
  0
ENDTAB
  0
TABLE
  2
STYLE
  5
3
330
0
100
AcDbSymbolTable
 70
     3
  0
STYLE
  5
11
330
3
100
AcDbSymbolTableRecord
100
AcDbTextStyleTableRecord
  2
Standard
 70
     0
 40
0.0
 41
1.0
 50
0.0
 71
     0
 42
3.0
  3
txt
  4

  0
STYLE
  5
32
330
3
100
AcDbSymbolTableRecord
100
AcDbTextStyleTableRecord
  2

 70
     1
 40
0.0
 41
1.0
 50
0.0
 71
     0
 42
2.5
  3
ltypeshp.shx
  4

  0
STYLE
  5
50
330
3
100
AcDbSymbolTableRecord
100
AcDbTextStyleTableRecord
  2
OKANO
 70
     0
 40
0.0
 41
1.0
 50
15.0
 71
     0
 42
5.0
  3
isocp.shx
  4
bigfont.shx
  0
ENDTAB
  0
TABLE
  2
VIEW
  5
6
330
0
100
AcDbSymbolTable
 70
     0
  0
ENDTAB
  0
TABLE
  2
UCS
  5
7
330
0
100
AcDbSymbolTable
 70
     0
  0
ENDTAB
  0
TABLE
  2
APPID
  5
9
330
0
100
AcDbSymbolTable
 70
     1
  0
APPID
  5
12
330
9
100
AcDbSymbolTableRecord
100
AcDbRegAppTableRecord
  2
ACAD
 70
     0
  0
ENDTAB
  0
TABLE
  2
DIMSTYLE
  5
A
330
0
100
AcDbSymbolTable
 70
     2
100
AcDbDimStyleTable
 71
     2
340
A2
340
27
  0
DIMSTYLE
105
27
330
A
100
AcDbSymbolTableRecord
100
AcDbDimStyleTableRecord
  2
ISO-25
 70
     0
 41
2.5
 42
0.625
 43
3.75
 44
1.25
 73
     0
 74
     0
 77
     1
 78
     8
140
2.5
141
2.5
143
0.03937007874016
147
0.625
171
     3
172
     1
271
     2
272
     2
274
     3
283
     0
284
     8
340
11
  0
DIMSTYLE
105
A2
102
{ACAD_REACTORS
330
3148
330
31FB
330
333F
330
3362
330
336F
330
3389
330
33B7
330
332C
330
340E
102
}
330
A
100
AcDbSymbolTableRecord
100
AcDbDimStyleTableRecord
  2
sunpo
 70
     0
 40
0.0
 41
3.0
 42
2.0
 43
8.0
 44
3.0
 73
     0
 74
     0
 77
     1
 78
     8
140
5.0
141
2.5
143
0.03937007874016
147
1.0
171
     3
172
     1
271
     2
272
     2
274
     3
283
     0
284
     8
340
50
341
9B
342
9B
  0
ENDTAB
  0
TABLE
  2
BLOCK_RECORD
  5
1
330
0
100
AcDbSymbolTable
 70
    11
  0
BLOCK_RECORD
  5
1F
330
1
100
AcDbSymbolTableRecord
100
AcDbBlockTableRecord
  2
*Model_Space
340
22
  0
BLOCK_RECORD
  5
1B
330
1
100
AcDbSymbolTableRecord
100
AcDbBlockTableRecord
  2
*Paper_Space
340
1E
  0
BLOCK_RECORD
  5
9B
330
1
100
AcDbSymbolTableRecord
100
AcDbBlockTableRecord
  2
_Closed
340
0
102
{BLKREFS
331
320C
331
320D
331
32AC
331
32AD
331
3331
331
3332
331
334F
331
3350
331
3367
331
3368
331
3376
331
3377
331
3390
331
3391
331
33BC
331
33BD
331
33D2
331
33D3
331
33DD
331
33DE
331
33E8
331
33E9
331
33F5
331
33F6
331
33FE
331
33FF
331
3413
331
3414
102
}
  0
BLOCK_RECORD
  5
1510
330
1
100
AcDbSymbolTableRecord
100
AcDbBlockTableRecord
  2
A$C10A573AC
340
0
  0
BLOCK_RECORD
  5
3153
330
1
100
AcDbSymbolTableRecord
100
AcDbBlockTableRecord
  2
*D2
340
0
  0
BLOCK_RECORD
  5
31FC
330
1
100
AcDbSymbolTableRecord
100
AcDbBlockTableRecord
  2
*D3
340
0
  0
BLOCK_RECORD
  5
332D
330
1
100
AcDbSymbolTableRecord
100
AcDbBlockTableRecord
  2
*D4
340
0
  0
BLOCK_RECORD
  5
3340
330
1
100
AcDbSymbolTableRecord
100
AcDbBlockTableRecord
  2
*D5
340
0
  0
BLOCK_RECORD
  5
3363
330
1
100
AcDbSymbolTableRecord
100
AcDbBlockTableRecord
  2
*D6
340
0
  0
BLOCK_RECORD
  5
3370
330
1
100
AcDbSymbolTableRecord
100
AcDbBlockTableRecord
  2
*D7
340
0
  0
BLOCK_RECORD
  5
338A
330
1
100
AcDbSymbolTableRecord
100
AcDbBlockTableRecord
  2
*D8
340
0
  0
BLOCK_RECORD
  5
33B8
330
1
100
AcDbSymbolTableRecord
100
AcDbBlockTableRecord
  2
*D9
340
0
  0
BLOCK_RECORD
  5
340F
330
1
100
AcDbSymbolTableRecord
100
AcDbBlockTableRecord
  2
*D10
340
0
  0
ENDTAB
  0
ENDSEC
  0
SECTION
  2
BLOCKS
  0
BLOCK
  5
20
330
1F
100
AcDbEntity
  8
0
100
AcDbBlockBegin
  2
*Model_Space
 70
     0
 10
0.0
 20
0.0
 30
0.0
  3
*Model_Space
  1

  0
ENDBLK
  5
21
330
1F
100
AcDbEntity
  8
0
100
AcDbBlockEnd
  0
BLOCK
  5
1C
330
1B
100
AcDbEntity
 67
     1
  8
0
100
AcDbBlockBegin
  2
*Paper_Space
 70
     0
 10
0.0
 20
0.0
 30
0.0
  3
*Paper_Space
  1

  0
ENDBLK
  5
1D
330
1B
100
AcDbEntity
 67
     1
  8
0
100
AcDbBlockEnd
  0
BLOCK
  5
A0
330
9B
100
AcDbEntity
  8
0
100
AcDbBlockBegin
  2
_Closed
 70
     0
 10
0.0
 20
0.0
 30
0.0
  3
_Closed
  1

  0
LINE
  5
9C
330
9B
100
AcDbEntity
  8
0
 62
     0
370
    -2
100
AcDbLine
 10
-1.0
 20
0.1666666666666666
 30
0.0
 11
0.0
 21
0.0
 31
0.0
  0
LINE
  5
9D
330
9B
100
AcDbEntity
  8
0
 62
     0
370
    -2
100
AcDbLine
 10
0.0
 20
0.0
 30
0.0
 11
-1.0
 21
-0.1666666666666666
 31
0.0
  0
LINE
  5
9E
330
9B
100
AcDbEntity
  8
0
 62
     0
370
    -2
100
AcDbLine
 10
-1.0
 20
0.1666666666666666
 30
0.0
 11
-1.0
 21
-0.1666666666666666
 31
0.0
  0
LINE
  5
9F
330
9B
100
AcDbEntity
  8
0
 62
     0
370
    -2
100
AcDbLine
 10
0.0
 20
0.0
 30
0.0
 11
-1.0
 21
0.0
 31
0.0
  0
ENDBLK
  5
A1
330
9B
100
AcDbEntity
  8
0
100
AcDbBlockEnd
  0
BLOCK
  5
155B
330
1510
100
AcDbEntity
  8
0
100
AcDbBlockBegin
  2
A$C10A573AC
 70
     0
 10
0.0
 20
0.0
 30
0.0
  3
A$C10A573AC
  1

  0
TEXT
  5
1511
330
1510
100
AcDbEntity
  8
文字
100
AcDbText
 10
0.9844302777919438
 20
5.224957122252135
 30
0.0
 40
3.0
  1
Materal : Steel.
 51
15.0
  7
OKANO
100
AcDbText
  0
TEXT
  5
1512
330
1510
100
AcDbEntity
  8
文字
100
AcDbText
 10
-0.1141909619694843
 20
0.7500001922403499
 30
0.0
 40
3.0
  1
Surface treatment : Electro galvanized.
 51
15.0
  7
OKANO
100
AcDbText
  0
TEXT
  5
1513
330
1510
100
AcDbEntity
  8
文字
100
AcDbText
 10
-0.4901926332574931
 20
9.159967445193728
 30
0.0
 40
3.0
  1
5 TORGUE SCREW  M5-6
 51
15.0
  7
OKANO
100
AcDbText
  0
TEXT
  5
1514
330
1510
100
AcDbEntity
  8
文字
100
AcDbText
 10
1.364713526390005
 20
78.88822913323082
 30
0.0
 40
3.0
  1
Special standard,
 51
15.0
  7
OKANO
100
AcDbText
  0
TEXT
  5
1515
330
1510
100
AcDbEntity
  8
文字
100
AcDbText
 10
92.88160823408942
 20
89.92753849837379
 30
0.0
 40
3.0
  1
Screw Type
 51
15.0
  7
OKANO
100
AcDbText
  0
LINE
  5
1516
330
1510
100
AcDbEntity
  8
太線
100
AcDbLine
 10
113.9464587597784
 20
81.93930390144641
 30
0.0
 11
112.4464587597784
 21
81.93930390144641
 31
0.0
  0
LINE
  5
1517
330
1510
100
AcDbEntity
  8
太線
100
AcDbLine
 10
112.4464587597784
 20
76.9393039014464
 30
0.0
 11
121.4644995438761
 21
76.9393039014464
 31
0.0
  0
TEXT
  5
1518
330
1510
100
AcDbEntity
  8
文字
100
AcDbText
 10
93.46068240437217
 20
77.96976862235396
 30
0.0
 40
2.0
  1
17-30
 51
15.0
  7
OKANO
100
AcDbText
  0
LINE
  5
1519
330
1510
100
AcDbEntity
  8
太線
100
AcDbLine
 10
111.9464587597784
 20
81.43930390144641
 30
0.0
 11
111.9464587597784
 21
77.4393039014464
 31
0.0
  0
LINE
  5
151A
330
1510
100
AcDbEntity
  8
太線
100
AcDbLine
 10
91.94645875977846
 20
81.43930390144641
 30
0.0
 11
91.94645875977846
 21
77.43930390144639
 31
0.0
  0
LINE
  5
151B
330
1510
100
AcDbEntity
  8
太線
100
AcDbLine
 10
101.9644995438761
 20
77.4393039014464
 30
0.0
 11
101.9644995438761
 21
81.43930390144641
 31
0.0
  0
LINE
  5
151C
330
1510
100
AcDbEntity
  8
太線
100
AcDbLine
 10
92.44645875977846
 20
76.9393039014464
 30
0.0
 11
101.4644995438761
 21
76.9393039014464
 31
0.0
  0
ARC
  5
151D
330
1510
100
AcDbEntity
  8
太線
100
AcDbCircle
 10
92.44645875977846
 20
77.43930390144639
 30
0.0
 40
0.5
100
AcDbArc
 50
180.0
 51
270.0
  0
ARC
  5
151E
330
1510
100
AcDbEntity
  8
太線
100
AcDbCircle
 10
101.4644995438761
 20
77.4393039014464
 30
0.0
 40
0.5
100
AcDbArc
 50
270.0
 51
0.0
  0
ARC
  5
151F
330
1510
100
AcDbEntity
  8
太線
100
AcDbCircle
 10
112.4464587597784
 20
77.4393039014464
 30
0.0
 40
0.5
100
AcDbArc
 50
180.0
 51
270.0
  0
LINE
  5
1520
330
1510
100
AcDbEntity
  8
想像線
100
AcDbLine
 10
93.94645875977847
 20
81.93930390144641
 30
0.0
 11
99.96449954387617
 21
81.93930390144641
 31
0.0
  0
LINE
  5
1521
330
1510
100
AcDbEntity
  8
極太線
100
AcDbLine
 10
96.38762957111168
 20
85.43930390144641
 30
0.0
 11
97.50528794844525
 21
85.43930390144641
 31
0.0
  0
CIRCLE
  5
1522
330
1510
100
AcDbEntity
  8
太線
100
AcDbCircle
 10
96.94645875977847
 20
85.43930390144641
 30
0.0
 40
0.5588291886667776
  0
LINE
  5
1523
330
1510
100
AcDbEntity
  8
太線
100
AcDbLine
 10
99.46449954387617
 20
86.93930390144641
 30
0.0
 11
94.44645875977846
 21
86.93930390144641
 31
0.0
  0
LINE
  5
1524
330
1510
100
AcDbEntity
  8
太線
100
AcDbLine
 10
93.94645875977847
 20
86.43930390144641
 30
0.0
 11
93.94645875977847
 21
81.93930390144641
 31
0.0
  0
ARC
  5
1525
330
1510
100
AcDbEntity
  8
太線
100
AcDbCircle
 10
92.44645875977846
 20
81.43930390144641
 30
0.0
 40
0.5
100
AcDbArc
 50
90.0
 51
180.0
  0
LINE
  5
1526
330
1510
100
AcDbEntity
  8
太線
100
AcDbLine
 10
93.94645875977847
 20
81.93930390144641
 30
0.0
 11
92.44645875977846
 21
81.93930390144641
 31
0.0
  0
ARC
  5
1527
330
1510
100
AcDbEntity
  8
太線
100
AcDbCircle
 10
94.44645875977846
 20
86.43930390144641
 30
0.0
 40
0.5
100
AcDbArc
 50
90.0
 51
180.0
  0
LINE
  5
1528
330
1510
100
AcDbEntity
  8
太線
100
AcDbLine
 10
99.96449954387617
 20
81.93930390144641
 30
0.0
 11
99.96449954387617
 21
86.43930390144641
 31
0.0
  0
LINE
  5
1529
330
1510
100
AcDbEntity
  8
太線
100
AcDbLine
 10
101.4644995438761
 20
81.93930390144641
 30
0.0
 11
99.96449954387617
 21
81.93930390144641
 31
0.0
  0
ARC
  5
152A
330
1510
100
AcDbEntity
  8
太線
100
AcDbCircle
 10
101.4644995438761
 20
81.43930390144641
 30
0.0
 40
0.5
100
AcDbArc
 50
0.0
 51
90.0
  0
ARC
  5
152B
330
1510
100
AcDbEntity
  8
太線
100
AcDbCircle
 10
99.46449954387617
 20
86.43930390144641
 30
0.0
 40
0.5
100
AcDbArc
 50
0.0
 51
90.0
  0
LINE
  5
152C
330
1510
100
AcDbEntity
  8
極太線
100
AcDbLine
 10
96.94645875977847
 20
85.99813309011318
 30
0.0
 11
96.94645875977847
 21
84.88047471277964
 31
0.0
  0
ARC
  5
152D
330
1510
100
AcDbEntity
  8
太線
100
AcDbCircle
 10
112.4464587597784
 20
81.43930390144641
 30
0.0
 40
0.5
100
AcDbArc
 50
90.0
 51
180.0
  0
TEXT
  5
152E
330
1510
100
AcDbEntity
  8
文字
100
AcDbText
 10
134.3819212586066
 20
78.16263579228063
 30
0.0
 40
2.0
  1
101
 51
15.0
  7
OKANO
100
AcDbText
  0
TEXT
  5
152F
330
1510
100
AcDbEntity
  8
文字
100
AcDbText
 10
113.3422276612066
 20
77.96976862235396
 30
0.0
 40
2.0
  1
38-83
 51
15.0
  7
OKANO
100
AcDbText
  0
LINE
  5
1530
330
1510
100
AcDbEntity
  8
太線
100
AcDbLine
 10
141.9825403279738
 20
77.4393039014464
 30
0.0
 11
141.9825403279738
 21
81.43930390144641
 31
0.0
  0
LINE
  5
1531
330
1510
100
AcDbEntity
  8
太線
100
AcDbLine
 10
131.9644995438761
 20
81.43930390144641
 30
0.0
 11
131.9644995438761
 21
77.4393039014464
 31
0.0
  0
LINE
  5
1532
330
1510
100
AcDbEntity
  8
太線
100
AcDbLine
 10
121.9644995438761
 20
77.4393039014464
 30
0.0
 11
121.9644995438761
 21
81.43930390144641
 31
0.0
  0
ARC
  5
1533
330
1510
100
AcDbEntity
  8
太線
100
AcDbCircle
 10
121.4644995438761
 20
77.4393039014464
 30
0.0
 40
0.5
100
AcDbArc
 50
270.0
 51
0.0
  0
LINE
  5
1534
330
1510
100
AcDbEntity
  8
太線
100
AcDbLine
 10
132.4644995438761
 20
76.9393039014464
 30
0.0
 11
141.4825403279738
 21
76.9393039014464
 31
0.0
  0
ARC
  5
1535
330
1510
100
AcDbEntity
  8
太線
100
AcDbCircle
 10
132.4644995438761
 20
77.4393039014464
 30
0.0
 40
0.5
100
AcDbArc
 50
180.0
 51
270.0
  0
ARC
  5
1536
330
1510
100
AcDbEntity
  8
太線
100
AcDbCircle
 10
141.4825403279738
 20
77.4393039014464
 30
0.0
 40
0.5
100
AcDbArc
 50
270.0
 51
0.0
  0
ARC
  5
1537
330
1510
100
AcDbEntity
  8
太線
100
AcDbCircle
 10
121.4644995438761
 20
81.43930390144641
 30
0.0
 40
0.5
100
AcDbArc
 50
0.0
 51
90.0
  0
LINE
  5
1538
330
1510
100
AcDbEntity
  8
太線
100
AcDbLine
 10
119.9644995438761
 20
81.93930390144641
 30
0.0
 11
119.9644995438761
 21
86.43930390144641
 31
0.0
  0
LINE
  5
1539
330
1510
100
AcDbEntity
  8
太線
100
AcDbLine
 10
113.9464587597784
 20
86.43930390144641
 30
0.0
 11
113.9464587597784
 21
81.93930390144641
 31
0.0
  0
LINE
  5
153A
330
1510
100
AcDbEntity
  8
想像線
100
AcDbLine
 10
113.9464587597784
 20
81.93930390144641
 30
0.0
 11
119.9644995438761
 21
81.93930390144641
 31
0.0
  0
LINE
  5
153B
330
1510
100
AcDbEntity
  8
太線
100
AcDbLine
 10
121.4644995438761
 20
81.93930390144641
 30
0.0
 11
119.9644995438761
 21
81.93930390144641
 31
0.0
  0
LINE
  5
153C
330
1510
100
AcDbEntity
  8
太線
100
AcDbLine
 10
119.4644995438761
 20
86.93930390144641
 30
0.0
 11
114.4464587597784
 21
86.93930390144641
 31
0.0
  0
ARC
  5
153D
330
1510
100
AcDbEntity
  8
太線
100
AcDbCircle
 10
114.4464587597784
 20
86.43930390144641
 30
0.0
 40
0.5
100
AcDbArc
 50
90.0
 51
180.0
  0
CIRCLE
  5
153E
330
1510
100
AcDbEntity
  8
太線
100
AcDbCircle
 10
115.4464587597784
 20
85.43930390144641
 30
0.0
 40
0.5588291886667776
  0
LINE
  5
153F
330
1510
100
AcDbEntity
  8
極太線
100
AcDbLine
 10
115.4464587597784
 20
85.99813309011318
 30
0.0
 11
115.4464587597784
 21
84.88047471277964
 31
0.0
  0
LINE
  5
1540
330
1510
100
AcDbEntity
  8
極太線
100
AcDbLine
 10
114.8876295711116
 20
85.43930390144641
 30
0.0
 11
116.0052879484452
 21
85.43930390144641
 31
0.0
  0
ARC
  5
1541
330
1510
100
AcDbEntity
  8
太線
100
AcDbCircle
 10
119.4644995438761
 20
86.43930390144641
 30
0.0
 40
0.5
100
AcDbArc
 50
0.0
 51
90.0
  0
LINE
  5
1542
330
1510
100
AcDbEntity
  8
極太線
100
AcDbLine
 10
117.9056703552094
 20
85.43930390144641
 30
0.0
 11
119.0233287325429
 21
85.43930390144641
 31
0.0
  0
LINE
  5
1543
330
1510
100
AcDbEntity
  8
極太線
100
AcDbLine
 10
118.4644995438761
 20
85.99813309011318
 30
0.0
 11
118.4644995438761
 21
84.88047471277964
 31
0.0
  0
CIRCLE
  5
1544
330
1510
100
AcDbEntity
  8
太線
100
AcDbCircle
 10
118.4644995438761
 20
85.43930390144641
 30
0.0
 40
0.5588291886667776
  0
LINE
  5
1545
330
1510
100
AcDbEntity
  8
想像線
100
AcDbLine
 10
133.9644995438761
 20
81.93930390144641
 30
0.0
 11
139.9825403279738
 21
81.93930390144641
 31
0.0
  0
LINE
  5
1546
330
1510
100
AcDbEntity
  8
極太線
100
AcDbLine
 10
137.9237111393071
 20
85.43930390144641
 30
0.0
 11
139.0413695166406
 21
85.43930390144641
 31
0.0
  0
CIRCLE
  5
1547
330
1510
100
AcDbEntity
  8
太線
100
AcDbCircle
 10
138.4825403279738
 20
85.43930390144641
 30
0.0
 40
0.5588291886667776
  0
CIRCLE
  5
1548
330
1510
100
AcDbEntity
  8
太線
100
AcDbCircle
 10
138.4825403279738
 20
83.26342923362075
 30
0.0
 40
0.5588291886667776
  0
LINE
  5
1549
330
1510
100
AcDbEntity
  8
極太線
100
AcDbLine
 10
137.9237111393071
 20
83.26342923362075
 30
0.0
 11
139.0413695166406
 21
83.26342923362075
 31
0.0
  0
LINE
  5
154A
330
1510
100
AcDbEntity
  8
太線
100
AcDbLine
 10
139.4825403279738
 20
86.93930390144641
 30
0.0
 11
134.4644995438761
 21
86.93930390144641
 31
0.0
  0
LINE
  5
154B
330
1510
100
AcDbEntity
  8
太線
100
AcDbLine
 10
133.9644995438761
 20
86.43930390144641
 30
0.0
 11
133.9644995438761
 21
81.93930390144641
 31
0.0
  0
ARC
  5
154C
330
1510
100
AcDbEntity
  8
太線
100
AcDbCircle
 10
132.4644995438761
 20
81.43930390144641
 30
0.0
 40
0.5
100
AcDbArc
 50
90.0
 51
180.0
  0
LINE
  5
154D
330
1510
100
AcDbEntity
  8
太線
100
AcDbLine
 10
133.9644995438761
 20
81.93930390144641
 30
0.0
 11
132.4644995438761
 21
81.93930390144641
 31
0.0
  0
LINE
  5
154E
330
1510
100
AcDbEntity
  8
極太線
100
AcDbLine
 10
134.9056703552093
 20
83.26342923362075
 30
0.0
 11
136.0233287325429
 21
83.26342923362075
 31
0.0
  0
LINE
  5
154F
330
1510
100
AcDbEntity
  8
極太線
100
AcDbLine
 10
135.4644995438761
 20
83.82225842228752
 30
0.0
 11
135.4644995438761
 21
82.70460004495395
 31
0.0
  0
CIRCLE
  5
1550
330
1510
100
AcDbEntity
  8
太線
100
AcDbCircle
 10
135.4644995438761
 20
83.26342923362075
 30
0.0
 40
0.5588291886667776
  0
ARC
  5
1551
330
1510
100
AcDbEntity
  8
太線
100
AcDbCircle
 10
134.4644995438761
 20
86.43930390144641
 30
0.0
 40
0.5
100
AcDbArc
 50
90.0
 51
180.0
  0
CIRCLE
  5
1552
330
1510
100
AcDbEntity
  8
太線
100
AcDbCircle
 10
135.4644995438761
 20
85.43930390144641
 30
0.0
 40
0.5588291886667776
  0
LINE
  5
1553
330
1510
100
AcDbEntity
  8
極太線
100
AcDbLine
 10
135.4644995438761
 20
85.99813309011318
 30
0.0
 11
135.4644995438761
 21
84.88047471277964
 31
0.0
  0
LINE
  5
1554
330
1510
100
AcDbEntity
  8
極太線
100
AcDbLine
 10
134.9056703552093
 20
85.43930390144641
 30
0.0
 11
136.0233287325429
 21
85.43930390144641
 31
0.0
  0
LINE
  5
1555
330
1510
100
AcDbEntity
  8
太線
100
AcDbLine
 10
139.9825403279738
 20
81.93930390144641
 30
0.0
 11
139.9825403279738
 21
86.43930390144641
 31
0.0
  0
ARC
  5
1556
330
1510
100
AcDbEntity
  8
太線
100
AcDbCircle
 10
141.4825403279738
 20
81.43930390144641
 30
0.0
 40
0.5
100
AcDbArc
 50
0.0
 51
90.0
  0
LINE
  5
1557
330
1510
100
AcDbEntity
  8
極太線
100
AcDbLine
 10
138.4825403279738
 20
83.82225842228752
 30
0.0
 11
138.4825403279738
 21
82.70460004495395
 31
0.0
  0
LINE
  5
1558
330
1510
100
AcDbEntity
  8
太線
100
AcDbLine
 10
141.4825403279738
 20
81.93930390144641
 30
0.0
 11
139.9825403279738
 21
81.93930390144641
 31
0.0
  0
ARC
  5
1559
330
1510
100
AcDbEntity
  8
太線
100
AcDbCircle
 10
139.4825403279738
 20
86.43930390144641
 30
0.0
 40
0.5
100
AcDbArc
 50
0.0
 51
90.0
  0
LINE
  5
155A
330
1510
100
AcDbEntity
  8
極太線
100
AcDbLine
 10
138.4825403279738
 20
85.99813309011318
 30
0.0
 11
138.4825403279738
 21
84.88047471277964
 31
0.0
  0
ENDBLK
  5
155C
330
1510
100
AcDbEntity
  8
0
100
AcDbBlockEnd
  0
BLOCK
  5
315D
330
3153
100
AcDbEntity
  8
0
100
AcDbBlockBegin
  2
*D2
 70
     1
 10
0.0
 20
0.0
 30
0.0
  3
*D2
  1

  0
LINE
  5
32A9
330
3153
100
AcDbEntity
  8
寸法線
 62
     0
370
    -2
100
AcDbLine
 10
175.4585953611976
 20
108.9826672669605
 30
0.0
 11
186.1067688869815
 21
108.7643273804558
 31
0.0
  0
LINE
  5
32AA
330
3153
100
AcDbEntity
  8
寸法線
 62
     0
370
    -2
100
AcDbLine
 10
175.253589310369
 20
98.98476886183944
 30
0.0
 11
185.9017628361528
 21
98.76642897533479
 31
0.0
  0
LINE
  5
32AB
330
3153
100
AcDbEntity
  8
寸法線
 62
     0
370
    -2
100
AcDbLine
 10
183.0458975501965
 20
105.8264596741681
 30
0.0
 11
182.9638951298651
 21
101.8273003121197
 31
0.0
  0
INSERT
  5
32AC
330
3153
100
AcDbEntity
  8
寸法線
 62
     0
370
    -2
100
AcDbBlockReference
  2
_Closed
 10
183.1073993654452
 20
108.8258291957044
 30
0.0
 41
3.0
 42
3.0
 43
3.0
 50
88.82531956005456
  0
INSERT
  5
32AD
330
3153
100
AcDbEntity
  8
寸法線
 62
     0
370
    -2
100
AcDbBlockReference
  2
_Closed
 10
182.9023933146165
 20
98.82793079058338
 30
0.0
 41
3.0
 42
3.0
 43
3.0
 50
268.8253195600545
  0
MTEXT
  5
32AE
330
3153
100
AcDbEntity
  8
寸法線
 62
     0
100
AcDbMText
 10
179.5056318982384
 20
103.8986321109339
 30
0.0
 40
5.0
 41
0.0
 71
     5
 72
     1
  1
13
  7
OKANO
 11
0.0205006050828647
 21
0.999789840512113
 31
0.0
 73
     1
 44
1.0
  0
POINT
  5
32AF
330
3153
100
AcDbEntity
  8
Defpoints
 62
     0
100
AcDbPoint
 10
173.4590156801734
 20
109.0236684771262
 30
0.0
  0
POINT
  5
32B0
330
3153
100
AcDbEntity
  8
Defpoints
 62
     0
100
AcDbPoint
 10
173.2540096293448
 20
99.02577007200516
 30
0.0
  0
POINT
  5
32B1
330
3153
100
AcDbEntity
  8
Defpoints
 62
     0
100
AcDbPoint
 10
182.9023933146165
 20
98.82793079058338
 30
0.0
  0
ENDBLK
  5
315E
330
3153
100
AcDbEntity
  8
0
100
AcDbBlockEnd
  0
BLOCK
  5
3207
330
31FC
100
AcDbEntity
  8
0
100
AcDbBlockBegin
  2
*D3
 70
     1
 10
0.0
 20
0.0
 30
0.0
  3
*D3
  1

  0
LINE
  5
33FB
330
31FC
100
AcDbEntity
  8
寸法線
 62
     0
370
    -2
100
AcDbLine
 10
121.7141682685781
 20
85.2673000047929
 30
0.0
 11
151.1296154742684
 21
85.2673000047929
 31
0.0
  0
LINE
  5
33FC
330
31FC
100
AcDbEntity
  8
寸法線
 62
     0
370
    -2
100
AcDbLine
 10
122.1201034369404
 20
75.12692018799874
 30
0.0
 11
151.1296154742684
 21
75.12692018799874
 31
0.0
  0
LINE
  5
33FD
330
31FC
100
AcDbEntity
  8
寸法線
 62
     0
370
    -2
100
AcDbLine
 10
148.1296154742684
 20
82.26730000479291
 30
0.0
 11
148.1296154742684
 21
78.12692018799873
 31
0.0
  0
INSERT
  5
33FE
330
31FC
100
AcDbEntity
  8
寸法線
 62
     0
370
    -2
100
AcDbBlockReference
  2
_Closed
 10
148.1296154742684
 20
85.2673000047929
 30
0.0
 41
3.0
 42
3.0
 43
3.0
 50
90.0
  0
INSERT
  5
33FF
330
31FC
100
AcDbEntity
  8
寸法線
 62
     0
370
    -2
100
AcDbBlockReference
  2
_Closed
 10
148.1296154742684
 20
75.12692018799874
 30
0.0
 41
3.0
 42
3.0
 43
3.0
 50
270.0
  0
MTEXT
  5
3400
330
31FC
100
AcDbEntity
  8
寸法線
 62
     0
100
AcDbMText
 10
144.6296154742683
 20
80.19711009639584
 30
0.0
 40
5.0
 41
0.0
 71
     5
 72
     1
  1
10
  7
OKANO
 11
0.0000000000000001
 21
1.0
 31
0.0
 73
     1
 44
1.0
  0
POINT
  5
3401
330
31FC
100
AcDbEntity
  8
Defpoints
 62
     0
100
AcDbPoint
 10
119.7141682685781
 20
85.2673000047929
 30
0.0
  0
POINT
  5
3402
330
31FC
100
AcDbEntity
  8
Defpoints
 62
     0
100
AcDbPoint
 10
120.1201034369404
 20
75.12692018799874
 30
0.0
  0
POINT
  5
3403
330
31FC
100
AcDbEntity
  8
Defpoints
 62
     0
100
AcDbPoint
 10
148.1296154742684
 20
75.12692018799874
 30
0.0
  0
ENDBLK
  5
3208
330
31FC
100
AcDbEntity
  8
0
100
AcDbBlockEnd
  0
BLOCK
  5
3337
330
332D
100
AcDbEntity
  8
0
100
AcDbBlockBegin
  2
*D4
 70
     1
 10
0.0
 20
0.0
 30
0.0
  3
*D4
  1

  0
LINE
  5
332E
330
332D
100
AcDbEntity
  8
寸法線
 62
     0
370
    -2
100
AcDbLine
 10
24.85151402540433
 20
207.1211488256961
 30
0.0
 11
24.85151402540433
 21
231.3706079981676
 31
0.0
  0
LINE
  5
332F
330
332D
100
AcDbEntity
  8
寸法線
 62
     0
370
    -2
100
AcDbLine
 10
136.8515140254043
 20
207.1211488256961
 30
0.0
 11
136.8515140254043
 21
231.3706079981676
 31
0.0
  0
LINE
  5
3330
330
332D
100
AcDbEntity
  8
寸法線
 62
     0
370
    -2
100
AcDbLine
 10
27.85151402540432
 20
228.3706079981676
 30
0.0
 11
133.8515140254043
 21
228.3706079981676
 31
0.0
  0
INSERT
  5
3331
330
332D
100
AcDbEntity
  8
寸法線
 62
     0
370
    -2
100
AcDbBlockReference
  2
_Closed
 10
24.85151402540433
 20
228.3706079981676
 30
0.0
 41
3.0
 42
3.0
 43
3.0
 50
180.0
  0
INSERT
  5
3332
330
332D
100
AcDbEntity
  8
寸法線
 62
     0
370
    -2
100
AcDbBlockReference
  2
_Closed
 10
136.8515140254043
 20
228.3706079981676
 30
0.0
 41
3.0
 42
3.0
 43
3.0
  0
MTEXT
  5
3333
330
332D
100
AcDbEntity
  8
寸法線
 62
     0
100
AcDbMText
 10
80.85151402540432
 20
231.8711001241519
 30
0.0
 40
5.0
 41
0.0
 71
     5
 72
     1
  1
112
  7
OKANO
 73
     1
 44
1.0
  0
POINT
  5
3334
330
332D
100
AcDbEntity
  8
Defpoints
 62
     0
100
AcDbPoint
 10
24.85151402540433
 20
205.1211488256961
 30
0.0
  0
POINT
  5
3335
330
332D
100
AcDbEntity
  8
Defpoints
 62
     0
100
AcDbPoint
 10
136.8515140254043
 20
205.1211488256961
 30
0.0
  0
POINT
  5
3336
330
332D
100
AcDbEntity
  8
Defpoints
 62
     0
100
AcDbPoint
 10
136.8515140254043
 20
228.3706079981676
 30
0.0
  0
ENDBLK
  5
3338
330
332D
100
AcDbEntity
  8
0
100
AcDbBlockEnd
  0
BLOCK
  5
334A
330
3340
100
AcDbEntity
  8
0
100
AcDbBlockBegin
  2
*D5
 70
     1
 10
0.0
 20
0.0
 30
0.0
  3
*D5
  1

  0
LINE
  5
33CF
330
3340
100
AcDbEntity
  8
破線
 62
     0
370
    -2
100
AcDbLine
 10
133.7875990227082
 20
157.8211488256961
 30
0.0
 11
158.4380475640637
 21
157.8211488256961
 31
0.0
  0
LINE
  5
33D0
330
3340
100
AcDbEntity
  8
破線
 62
     0
370
    -2
100
AcDbLine
 10
133.7875990227082
 20
205.1211488256961
 30
0.0
 11
158.4380475640637
 21
205.1211488256961
 31
0.0
  0
LINE
  5
33D1
330
3340
100
AcDbEntity
  8
破線
 62
     0
370
    -2
100
AcDbLine
 10
155.4380475640637
 20
160.8211488256961
 30
0.0
 11
155.4380475640638
 21
202.1211488256961
 31
0.0
  0
INSERT
  5
33D2
330
3340
100
AcDbEntity
  8
破線
 62
     0
370
    -2
100
AcDbBlockReference
  2
_Closed
 10
155.4380475640637
 20
157.8211488256961
 30
0.0
 41
3.0
 42
3.0
 43
3.0
 50
270.0
  0
INSERT
  5
33D3
330
3340
100
AcDbEntity
  8
破線
 62
     0
370
    -2
100
AcDbBlockReference
  2
_Closed
 10
155.4380475640638
 20
205.1211488256961
 30
0.0
 41
3.0
 42
3.0
 43
3.0
 50
90.0
  0
MTEXT
  5
33D4
330
3340
100
AcDbEntity
  8
破線
 62
     0
100
AcDbMText
 10
151.9380475640637
 20
181.4711488256961
 30
0.0
 40
5.0
 41
0.0
 71
     5
 72
     1
  1
50～51
  7
OKANO
 11
0.0000000000000001
 21
1.0
 31
0.0
 73
     1
 44
1.0
  0
POINT
  5
33D5
330
3340
100
AcDbEntity
  8
Defpoints
 62
     0
100
AcDbPoint
 10
131.7875990227082
 20
157.8211488256961
 30
0.0
  0
POINT
  5
33D6
330
3340
100
AcDbEntity
  8
Defpoints
 62
     0
100
AcDbPoint
 10
131.7875990227082
 20
205.1211488256961
 30
0.0
  0
POINT
  5
33D7
330
3340
100
AcDbEntity
  8
Defpoints
 62
     0
100
AcDbPoint
 10
155.4380475640638
 20
205.1211488256961
 30
0.0
  0
ENDBLK
  5
334B
330
3340
100
AcDbEntity
  8
0
100
AcDbBlockEnd
  0
BLOCK
  5
336D
330
3363
100
AcDbEntity
  8
0
100
AcDbBlockBegin
  2
*D6
 70
     1
 10
0.0
 20
0.0
 30
0.0
  3
*D6
  1

  0
LINE
  5
33F2
330
3363
100
AcDbEntity
  8
寸法線
 62
     0
370
    -2
100
AcDbLine
 10
29.88683877496601
 20
80.14019332955458
 30
0.0
 11
29.88683877496601
 21
99.33604403041762
 31
0.0
  0
LINE
  5
33F3
330
3363
100
AcDbEntity
  8
寸法線
 62
     0
370
    -2
100
AcDbLine
 10
44.886838774966
 20
87.16740528921935
 30
0.0
 11
44.886838774966
 21
99.33604403041762
 31
0.0
  0
LINE
  5
33F4
330
3363
100
AcDbEntity
  8
寸法線
 62
     0
370
    -2
100
AcDbLine
 10
32.886838774966
 20
96.33604403041761
 30
0.0
 11
41.886838774966
 21
96.33604403041761
 31
0.0
  0
INSERT
  5
33F5
330
3363
100
AcDbEntity
  8
寸法線
 62
     0
370
    -2
100
AcDbBlockReference
  2
_Closed
 10
29.88683877496601
 20
96.33604403041761
 30
0.0
 41
3.0
 42
3.0
 43
3.0
 50
180.0
  0
INSERT
  5
33F6
330
3363
100
AcDbEntity
  8
寸法線
 62
     0
370
    -2
100
AcDbBlockReference
  2
_Closed
 10
44.886838774966
 20
96.33604403041761
 30
0.0
 41
3.0
 42
3.0
 43
3.0
  0
MTEXT
  5
33F7
330
3363
100
AcDbEntity
  8
寸法線
 62
     0
100
AcDbMText
 10
37.38683877496601
 20
99.83604403041761
 30
0.0
 40
5.0
 41
0.0
 71
     5
 72
     1
  1
15
  7
OKANO
 73
     1
 44
1.0
  0
POINT
  5
33F8
330
3363
100
AcDbEntity
  8
Defpoints
 62
     0
100
AcDbPoint
 10
29.88683877496601
 20
78.14019332955457
 30
0.0
  0
POINT
  5
33F9
330
3363
100
AcDbEntity
  8
Defpoints
 62
     0
100
AcDbPoint
 10
44.886838774966
 20
85.16740528921934
 30
0.0
  0
POINT
  5
33FA
330
3363
100
AcDbEntity
  8
Defpoints
 62
     0
100
AcDbPoint
 10
44.886838774966
 20
96.33604403041761
 30
0.0
  0
ENDBLK
  5
336E
330
3363
100
AcDbEntity
  8
0
100
AcDbBlockEnd
  0
BLOCK
  5
337C
330
3370
100
AcDbEntity
  8
0
100
AcDbBlockBegin
  2
*D7
 70
     1
 10
0.0
 20
0.0
 30
0.0
  3
*D7
  1

  0
LINE
  5
33E3
330
3370
100
AcDbEntity
  8
寸法線
 62
     0
370
    -2
100
AcDbLine
 10
29.78759902270826
 20
152.8211488256961
 30
0.0
 11
18.55744529431317
 21
152.8211488256961
 31
0.0
  0
LINE
  5
33E4
330
3370
100
AcDbEntity
  8
寸法線
 62
     0
370
    -2
100
AcDbLine
 10
27.78759902270826
 20
157.8211488256961
 30
0.0
 11
18.55744529431317
 21
157.8211488256961
 31
0.0
  0
LINE
  5
33E5
330
3370
100
AcDbEntity
  8
寸法線
 62
     0
370
    -2
100
AcDbLine
 10
21.55744529431316
 20
149.8211488256961
 30
0.0
 11
21.55744529431316
 21
146.8211488256961
 31
0.0
  0
LINE
  5
33E6
330
3370
100
AcDbEntity
  8
寸法線
 62
     0
370
    -2
100
AcDbLine
 10
21.55744529431316
 20
160.8211488256961
 30
0.0
 11
21.55744529431316
 21
163.8211488256961
 31
0.0
  0
LINE
  5
33E7
330
3370
100
AcDbEntity
  8
寸法線
 62
     0
370
    -2
100
AcDbLine
 10
21.55744529431316
 20
152.8211488256961
 30
0.0
 11
21.55744529431316
 21
157.8211488256961
 31
0.0
  0
INSERT
  5
33E8
330
3370
100
AcDbEntity
  8
寸法線
 62
     0
370
    -2
100
AcDbBlockReference
  2
_Closed
 10
21.55744529431316
 20
152.8211488256961
 30
0.0
 41
3.0
 42
3.0
 43
3.0
 50
90.0
  0
INSERT
  5
33E9
330
3370
100
AcDbEntity
  8
寸法線
 62
     0
370
    -2
100
AcDbBlockReference
  2
_Closed
 10
21.55744529431316
 20
157.8211488256961
 30
0.0
 41
3.0
 42
3.0
 43
3.0
 50
270.0
  0
MTEXT
  5
33EA
330
3370
100
AcDbEntity
  8
寸法線
 62
     0
100
AcDbMText
 10
18.05744529431314
 20
155.3211488256961
 30
0.0
 40
5.0
 41
0.0
 71
     5
 72
     1
  1
5
  7
OKANO
 11
0.0000000000000001
 21
1.0
 31
0.0
 73
     1
 44
1.0
  0
POINT
  5
33EB
330
3370
100
AcDbEntity
  8
Defpoints
 62
     0
100
AcDbPoint
 10
31.78759902270826
 20
152.8211488256961
 30
0.0
  0
POINT
  5
33EC
330
3370
100
AcDbEntity
  8
Defpoints
 62
     0
100
AcDbPoint
 10
29.78759902270826
 20
157.8211488256961
 30
0.0
  0
POINT
  5
33ED
330
3370
100
AcDbEntity
  8
Defpoints
 62
     0
100
AcDbPoint
 10
21.55744529431316
 20
157.8211488256961
 30
0.0
  0
ENDBLK
  5
337D
330
3370
100
AcDbEntity
  8
0
100
AcDbBlockEnd
  0
BLOCK
  5
3396
330
338A
100
AcDbEntity
  8
0
100
AcDbBlockBegin
  2
*D8
 70
     1
 10
0.0
 20
0.0
 30
0.0
  3
*D8
  1

  0
LINE
  5
33D8
330
338A
100
AcDbEntity
  8
寸法線
 62
     0
370
    -2
100
AcDbLine
 10
27.78759902270826
 20
205.1211488256961
 30
0.0
 11
14.91639270959999
 21
205.1211488256961
 31
0.0
  0
LINE
  5
33D9
330
338A
100
AcDbEntity
  8
寸法線
 62
     0
370
    -2
100
AcDbLine
 10
29.78759902270826
 20
210.1211488256961
 30
0.0
 11
14.91639270959999
 21
210.1211488256961
 31
0.0
  0
LINE
  5
33DA
330
338A
100
AcDbEntity
  8
寸法線
 62
     0
370
    -2
100
AcDbLine
 10
17.91639270959999
 20
202.1211488256961
 30
0.0
 11
17.91639270959998
 21
199.1211488256961
 31
0.0
  0
LINE
  5
33DB
330
338A
100
AcDbEntity
  8
寸法線
 62
     0
370
    -2
100
AcDbLine
 10
17.91639270959999
 20
213.1211488256961
 30
0.0
 11
17.91639270959999
 21
216.1211488256961
 31
0.0
  0
LINE
  5
33DC
330
338A
100
AcDbEntity
  8
寸法線
 62
     0
370
    -2
100
AcDbLine
 10
17.91639270959999
 20
205.1211488256961
 30
0.0
 11
17.91639270959999
 21
210.1211488256961
 31
0.0
  0
INSERT
  5
33DD
330
338A
100
AcDbEntity
  8
寸法線
 62
     0
370
    -2
100
AcDbBlockReference
  2
_Closed
 10
17.91639270959999
 20
205.1211488256961
 30
0.0
 41
3.0
 42
3.0
 43
3.0
 50
90.0
  0
INSERT
  5
33DE
330
338A
100
AcDbEntity
  8
寸法線
 62
     0
370
    -2
100
AcDbBlockReference
  2
_Closed
 10
17.91639270959999
 20
210.1211488256961
 30
0.0
 41
3.0
 42
3.0
 43
3.0
 50
270.0
  0
MTEXT
  5
33DF
330
338A
100
AcDbEntity
  8
寸法線
 62
     0
100
AcDbMText
 10
14.41639270959995
 20
207.6211488256961
 30
0.0
 40
5.0
 41
0.0
 71
     5
 72
     1
  1
5
  7
OKANO
 11
0.0000000000000001
 21
1.0
 31
0.0
 73
     1
 44
1.0
  0
POINT
  5
33E0
330
338A
100
AcDbEntity
  8
Defpoints
 62
     0
100
AcDbPoint
 10
29.78759902270826
 20
205.1211488256961
 30
0.0
  0
POINT
  5
33E1
330
338A
100
AcDbEntity
  8
Defpoints
 62
     0
100
AcDbPoint
 10
31.78759902270826
 20
210.1211488256961
 30
0.0
  0
POINT
  5
33E2
330
338A
100
AcDbEntity
  8
Defpoints
 62
     0
100
AcDbPoint
 10
17.91639270959999
 20
210.1211488256961
 30
0.0
  0
ENDBLK
  5
3397
330
338A
100
AcDbEntity
  8
0
100
AcDbBlockEnd
  0
BLOCK
  5
33C2
330
33B8
100
AcDbEntity
  8
0
100
AcDbBlockBegin
  2
*D9
 70
     1
 10
0.0
 20
0.0
 30
0.0
  3
*D9
  1

  0
LINE
  5
33B9
330
33B8
100
AcDbEntity
  8
寸法線
 62
     0
370
    -2
100
AcDbLine
 10
24.85151402540433
 20
210.1211488256961
 30
0.0
 11
24.85151402540433
 21
273.4196170848152
 31
0.0
  0
LINE
  5
33BA
330
33B8
100
AcDbEntity
  8
寸法線
 62
     0
370
    -2
100
AcDbLine
 10
136.8515140254043
 20
210.1211488256961
 30
0.0
 11
136.8515140254043
 21
273.4196170848152
 31
0.0
  0
LINE
  5
33BB
330
33B8
100
AcDbEntity
  8
寸法線
 62
     0
370
    -2
100
AcDbLine
 10
27.85151402540433
 20
270.4196170848153
 30
0.0
 11
133.8515140254043
 21
270.4196170848153
 31
0.0
  0
INSERT
  5
33BC
330
33B8
100
AcDbEntity
  8
寸法線
 62
     0
370
    -2
100
AcDbBlockReference
  2
_Closed
 10
24.85151402540433
 20
270.4196170848153
 30
0.0
 41
3.0
 42
3.0
 43
3.0
 50
180.0
  0
INSERT
  5
33BD
330
33B8
100
AcDbEntity
  8
寸法線
 62
     0
370
    -2
100
AcDbBlockReference
  2
_Closed
 10
136.8515140254043
 20
270.4196170848153
 30
0.0
 41
3.0
 42
3.0
 43
3.0
  0
MTEXT
  5
33BE
330
33B8
100
AcDbEntity
  8
寸法線
 62
     0
100
AcDbMText
 10
80.85151402540432
 20
273.9201092107995
 30
0.0
 40
5.0
 41
0.0
 71
     5
 72
     1
  1
112
  7
OKANO
 73
     1
 44
1.0
  0
POINT
  5
33BF
330
33B8
100
AcDbEntity
  8
Defpoints
 62
     0
100
AcDbPoint
 10
24.85151402540433
 20
208.1211488256961
 30
0.0
  0
POINT
  5
33C0
330
33B8
100
AcDbEntity
  8
Defpoints
 62
     0
100
AcDbPoint
 10
136.8515140254043
 20
208.1211488256961
 30
0.0
  0
POINT
  5
33C1
330
33B8
100
AcDbEntity
  8
Defpoints
 62
     0
100
AcDbPoint
 10
136.8515140254043
 20
270.4196170848153
 30
0.0
  0
ENDBLK
  5
33C3
330
33B8
100
AcDbEntity
  8
0
100
AcDbBlockEnd
  0
BLOCK
  5
3419
330
340F
100
AcDbEntity
  8
0
100
AcDbBlockBegin
  2
*D10
 70
     1
 10
0.0
 20
0.0
 30
0.0
  3
*D10
  1

  0
LINE
  5
3410
330
340F
100
AcDbEntity
  8
寸法線
 62
     0
370
    -2
100
AcDbLine
 10
29.78759902270827
 20
210.1211488256961
 30
0.0
 11
29.78759902270827
 21
226.999991671437
 31
0.0
  0
LINE
  5
3411
330
340F
100
AcDbEntity
  8
寸法線
 62
     0
370
    -2
100
AcDbLine
 10
131.7875990227082
 20
207.1211488256961
 30
0.0
 11
131.7875990227082
 21
226.999991671437
 31
0.0
  0
LINE
  5
3412
330
340F
100
AcDbEntity
  8
寸法線
 62
     0
370
    -2
100
AcDbLine
 10
32.78759902270826
 20
223.9999916714371
 30
0.0
 11
128.7875990227082
 21
223.9999916714371
 31
0.0
  0
INSERT
  5
3413
330
340F
100
AcDbEntity
  8
寸法線
 62
     0
370
    -2
100
AcDbBlockReference
  2
_Closed
 10
29.78759902270827
 20
223.9999916714371
 30
0.0
 41
3.0
 42
3.0
 43
3.0
 50
180.0
  0
INSERT
  5
3414
330
340F
100
AcDbEntity
  8
寸法線
 62
     0
370
    -2
100
AcDbBlockReference
  2
_Closed
 10
131.7875990227082
 20
223.9999916714371
 30
0.0
 41
3.0
 42
3.0
 43
3.0
  0
MTEXT
  5
3415
330
340F
100
AcDbEntity
  8
寸法線
 62
     0
100
AcDbMText
 10
80.78759902270826
 20
227.5004837974213
 30
0.0
 40
5.0
 41
0.0
 71
     5
 72
     1
  1
102
  7
OKANO
 73
     1
 44
1.0
  0
POINT
  5
3416
330
340F
100
AcDbEntity
  8
Defpoints
 62
     0
100
AcDbPoint
 10
29.78759902270827
 20
208.1211488256961
 30
0.0
  0
POINT
  5
3417
330
340F
100
AcDbEntity
  8
Defpoints
 62
     0
100
AcDbPoint
 10
131.7875990227082
 20
205.1211488256961
 30
0.0
  0
POINT
  5
3418
330
340F
100
AcDbEntity
  8
Defpoints
 62
     0
100
AcDbPoint
 10
131.7875990227082
 20
223.9999916714371
 30
0.0
  0
ENDBLK
  5
341A
330
340F
100
AcDbEntity
  8
0
100
AcDbBlockEnd
  0
ENDSEC
  0
SECTION
  2
ENTITIES
  0
TEXT
  5
29C1
330
1F
100
AcDbEntity
  8
文字
100
AcDbText
 10
280.17557812536
 20
3.315952255566458
 30
0.0
 40
3.599999999999999
  1
SET SCREW COUP
 51
15.0
  7
OKANO
100
AcDbText
  0
TEXT
  5
29C2
330
1F
100
AcDbEntity
  8
文字
100
AcDbText
 10
251.3874819578773
 20
-3.782311080513817
 30
0.0
 40
4.799999999999999
  1
joint kogyo T.okano
 51
15.0
  7
OKANO
100
AcDbText
  0
TEXT
  5
29C3
330
1F
100
AcDbEntity
  8
文字
100
AcDbText
 10
243.8991689460804
 20
10.97006042677396
 30
0.0
 40
4.799999999999999
  1
F-999-20120225 Auto CAD
 51
15.0
  7
OKANO
100
AcDbText
  0
LINE
  5
29C4
330
1F
100
AcDbEntity
  8
太線
100
AcDbLine
 10
216.4769407644665
 20
10.04925277634361
 30
0.0
 11
324.4769407644665
 21
10.04925277634361
 31
0.0
  0
LWPOLYLINE
  5
29C5
330
1F
100
AcDbEntity
  8
太線
100
AcDbPolyline
 90
        4
 70
     1
 43
0.0
 10
216.4769407644665
 20
18.4492527763436
 10
324.4769407644665
 20
18.4492527763436
 10
324.4769407644665
 20
-6.750747223656389
 10
216.4769407644665
 20
-6.750747223656389
  0
TEXT
  5
29C6
330
1F
100
AcDbEntity
  8
文字
100
AcDbText
 10
220.3493243305241
 20
1.855740977492928
 30
0.0
 40
2.399999999999999
  1
CHECK
 51
15.0
  7
OKANO
100
AcDbText
  0
LINE
  5
29C7
330
1F
100
AcDbEntity
  8
太線
100
AcDbLine
 10
240.4769407644665
 20
18.4492527763436
 30
0.0
 11
240.4769407644665
 21
-6.750747223656389
 31
0.0
  0
TEXT
  5
29C8
330
1F
100
AcDbEntity
  8
文字
100
AcDbText
 10
220.3493243305241
 20
-5.063686628722894
 30
0.0
 40
2.399999999999999
  1
ISSUED
 51
15.0
  7
OKANO
100
AcDbText
  0
TEXT
  5
29C9
330
1F
100
AcDbEntity
  8
文字
100
AcDbText
 10
220.6058387634247
 20
-1.732110439454753
 30
0.0
 40
2.399999999999999
  1
APPR
 51
15.0
  7
OKANO
100
AcDbText
  0
TEXT
  5
29CA
330
1F
100
AcDbEntity
  8
文字
100
AcDbText
 10
218.5537287788383
 20
11.85046895510877
 30
0.0
 40
2.399999999999999
  1
FILM NAME
 51
15.0
  7
OKANO
100
AcDbText
  0
TEXT
  5
29CB
330
1F
100
AcDbEntity
  8
文字
100
AcDbText
 10
219.8362976561704
 20
5.443591804251965
 30
0.0
 40
2.399999999999999
  1
DRAWN
 51
15.0
  7
OKANO
100
AcDbText
  0
TEXT
  5
29CC
330
1F
100
AcDbEntity
  8
文字
100
AcDbText
 10
246.0529359624883
 20
2.22791308182559
 30
0.0
 40
4.799999999999999
  1
ｓ-12-2ｒ
 51
15.0
  7
OKANO
100
AcDbText
  0
TEXT
  5
2DA4
330
1F
100
AcDbEntity
  8
文字
100
AcDbText
 10
195.8069118357725
 20
55.91255623884308
 30
0.0
 40
4.799999999999999
  1
パイプつなぎ
 51
15.0
  7
OKANO
100
AcDbText
  0
XLINE
  5
2DB6
330
1F
100
AcDbEntity
  8
構築線
100
AcDbXline
 10
72.20151402540432
 20
180.4711488256961
 30
0.0
 11
1.0
 21
0.0
 31
0.0
  0
XLINE
  5
2DB7
330
1F
100
AcDbEntity
  8
構築線
370
     5
100
AcDbXline
 10
4921.501514025404
 20
178.0193172078315
 30
0.0
 11
0.0
 21
-1.0
 31
0.0
  0
XLINE
  5
2DB8
330
1F
100
AcDbEntity
  8
構築線
370
     5
100
AcDbXline
 10
-4777.098485974596
 20
178.0193172078315
 30
0.0
 11
0.0
 21
-1.0
 31
0.0
  0
LINE
  5
2DEA
330
1F
100
AcDbEntity
  8
太線
100
AcDbLine
 10
131.7875990227082
 20
208.1211488256961
 30
0.0
 11
131.7875990227082
 21
154.8211488256961
 31
0.0
  0
CIRCLE
  5
2E3E
330
1F
100
AcDbEntity
  8
太線
100
AcDbCircle
 10
116.7875990227082
 20
180.4711488256961
 30
0.0
 40
10.0
  0
CIRCLE
  5
2E41
330
1F
100
AcDbEntity
  8
太線
100
AcDbCircle
 10
116.7875990227082
 20
180.4711488256961
 30
0.0
 40
7.500000000000017
  0
XLINE
  5
2E46
330
1F
100
AcDbEntity
  8
構築線
100
AcDbXline
 10
231.4121096629795
 20
179.4103712277987
 30
0.0
 11
0.0
 21
1.0
 31
0.0
  0
LINE
  5
2EB4
330
1F
100
AcDbEntity
  8
太線
100
AcDbLine
 10
49.586838774966
 20
80.14019332955458
 30
0.0
 11
80.88683877496601
 21
80.14019332955458
 31
0.0
  0
LINE
  5
2EB5
330
1F
100
AcDbEntity
  8
太線
100
AcDbLine
 10
131.886838774966
 20
78.14019332955459
 30
0.0
 11
131.886838774966
 21
22.84019332955459
 31
0.0
  0
LINE
  5
2EB6
330
1F
100
AcDbEntity
  8
太線
100
AcDbLine
 10
129.886838774966
 20
20.84019332955459
 30
0.0
 11
80.88683877496601
 21
20.84019332955459
 31
0.0
  0
LINE
  5
2EC8
330
1F
100
AcDbEntity
  8
破線
100
AcDbLine
 10
131.886838774966
 20
75.14019332955459
 30
0.0
 11
96.886838774966
 21
75.14019332955459
 31
0.0
  0
LINE
  5
2ECD
330
1F
100
AcDbEntity
  8
破線
100
AcDbLine
 10
131.886838774966
 20
25.84019332955459
 30
0.0
 11
96.886838774966
 21
25.84019332955459
 31
0.0
  0
ARC
  5
2FF9
330
1F
100
AcDbEntity
  8
太線
100
AcDbCircle
 10
129.886838774966
 20
22.84019332955459
 30
0.0
 40
2.0
100
AcDbArc
 50
270.0
 51
0.0
  0
LINE
  5
30B8
330
1F
100
AcDbEntity
  8
破線
100
AcDbLine
 10
29.88683877496601
 20
25.84019332955458
 30
0.0
 11
47.586838774966
 21
25.84019332955458
 31
0.0
  0
LINE
  5
30B9
330
1F
100
AcDbEntity
  8
破線
100
AcDbLine
 10
29.88683877496601
 20
75.14019332955459
 30
0.0
 11
47.586838774966
 21
75.14019332955459
 31
0.0
  0
LINE
  5
30CC
330
1F
100
AcDbEntity
  8
太線
100
AcDbLine
 10
31.886838774966
 20
80.14019332955458
 30
0.0
 11
49.586838774966
 21
80.14019332955458
 31
0.0
  0
LINE
  5
30CD
330
1F
100
AcDbEntity
  8
太線
100
AcDbLine
 10
31.886838774966
 20
20.84019332955458
 30
0.0
 11
49.586838774966
 21
20.84019332955458
 31
0.0
  0
LINE
  5
3142
330
1F
100
AcDbEntity
  8
破線
100
AcDbLine
 10
172.2747203939155
 20
100.0460605176
 30
0.0
 11
172.4592258396613
 21
109.0441690822091
 31
0.0
  0
LINE
  5
3143
330
1F
100
AcDbEntity
  8
破線
100
AcDbLine
 10
160.7752838935712
 20
100.1690641480973
 30
0.0
 11
160.959789339317
 21
109.1671727127063
 31
0.0
  0
LINE
  5
3144
330
1F
100
AcDbEntity
  8
破線
100
AcDbLine
 10
159.9599994988049
 20
109.1876733177891
 30
0.0
 11
159.775494053059
 21
100.1895647531802
 31
0.0
  0
LINE
  5
3145
330
1F
100
AcDbEntity
  8
太線
100
AcDbLine
 10
158.9602096582928
 20
109.208173922872
 30
0.0
 11
158.7757042125469
 21
100.2100653582629
 31
0.0
  0
LINE
  5
3146
330
1F
100
AcDbEntity
  8
太線
100
AcDbLine
 10
174.2743000749398
 20
100.0050593074343
 30
0.0
 11
174.4588055206856
 21
109.0031678720434
 31
0.0
  0
LINE
  5
3147
330
1F
100
AcDbEntity
  8
破線
100
AcDbLine
 10
173.4590156801734
 20
109.0236684771262
 30
0.0
 11
173.2745102344277
 21
100.0255599125172
 31
0.0
  0
DIMENSION
  5
3148
330
1F
100
AcDbEntity
  8
寸法線
100
AcDbDimension
  2
*D2
 10
182.9023933146165
 20
98.82793079058338
 30
0.0
 11
179.5056318982384
 21
103.8986321109339
 31
0.0
 70
    33
  1
13
 71
     5
 42
9.999999999999943
  3
sunpo
100
AcDbAlignedDimension
 13
173.4590156801734
 23
109.0236684771262
 33
0.0
 14
173.2540096293448
 24
99.02577007200518
 34
0.0
1001
ACAD
1000
DSTYLE
1002
{
1070
    40
1040
1.0
1002
}
  0
LINE
  5
3149
330
1F
100
AcDbEntity
  8
太線
100
AcDbLine
 10
165.2556909052479
 20
99.18977491266804
 30
0.0
 11
173.2540096293448
 21
99.02577007200518
 31
0.0
  0
LINE
  5
314A
330
1F
100
AcDbEntity
  8
破線
100
AcDbLine
 10
164.2764016698186
 20
100.2100653582629
 30
0.0
 11
174.2743000749398
 21
100.0050593074343
 31
0.0
  0
LINE
  5
314B
330
1F
100
AcDbEntity
  8
破線
100
AcDbLine
 10
159.7549934479762
 20
99.18977491266804
 30
0.0
 11
160.7752838935712
 21
100.1690641480973
 31
0.0
  0
LINE
  5
314C
330
1F
100
AcDbEntity
  8
太線
100
AcDbLine
 10
158.7757042125469
 20
100.2100653582629
 30
0.0
 11
159.7549934479762
 21
99.18977491266804
 31
0.0
  0
LINE
  5
314D
330
1F
100
AcDbEntity
  8
破線
100
AcDbLine
 10
173.2540096293448
 20
99.02577007200518
 30
0.0
 11
172.2747203939155
 21
100.0460605176
 31
0.0
  0
LINE
  5
314E
330
1F
100
AcDbEntity
  8
太線
100
AcDbLine
 10
173.2540096293448
 20
99.02577007200518
 30
0.0
 11
174.2743000749398
 21
100.0050593074343
 31
0.0
  0
LINE
  5
3152
330
1F
100
AcDbEntity
  8
太線
100
AcDbLine
 10
174.4588055206856
 20
109.0031678720434
 30
0.0
 11
164.4609071155645
 21
109.208173922872
 31
0.0
  0
DIMENSION
  5
31FB
330
1F
100
AcDbEntity
  8
寸法線
100
AcDbDimension
  2
*D3
 10
148.1296154742684
 20
75.12692018799874
 30
0.0
 11
144.6296154742683
 21
80.19711009639584
 31
0.0
 70
    32
  1
10
 71
     5
 42
10.14037981679416
  3
sunpo
100
AcDbAlignedDimension
 13
119.7141682685781
 23
85.2673000047929
 33
0.0
 14
120.1201034369404
 24
75.12692018799874
 34
0.0
 50
90.0
100
AcDbRotatedDimension
1001
ACAD
1000
DSTYLE
1002
{
1070
    40
1040
1.0
1002
}
  0
TEXT
  5
328B
330
1F
100
AcDbEntity
  8
文字
100
AcDbText
 10
199.2844882353858
 20
129.7844617010321
 30
0.0
 40
4.799999999999999
  1
8mm六角レンチ仕様
 51
15.0
  7
OKANO
100
AcDbText
  0
CIRCLE
  5
32D2
330
1F
100
AcDbEntity
  8
太線
100
AcDbCircle
 10
116.7875990227082
 20
180.4711488256961
 30
0.0
 40
8.0
  0
CIRCLE
  5
32D4
330
1F
100
AcDbEntity
  8
太線
100
AcDbCircle
 10
116.7875990227082
 20
180.4711488256961
 30
0.0
 40
12.0
  0
CIRCLE
  5
32D5
330
1F
100
AcDbEntity
  8
太線
100
AcDbCircle
 10
44.78759902270826
 20
180.4711488256961
 30
0.0
 40
12.0
  0
CIRCLE
  5
32D6
330
1F
100
AcDbEntity
  8
太線
100
AcDbCircle
 10
44.78759902270826
 20
180.4711488256961
 30
0.0
 40
8.0
  0
CIRCLE
  5
32D7
330
1F
100
AcDbEntity
  8
太線
100
AcDbCircle
 10
44.78759902270826
 20
180.4711488256961
 30
0.0
 40
10.0
  0
CIRCLE
  5
32D8
330
1F
100
AcDbEntity
  8
太線
100
AcDbCircle
 10
44.78759902270826
 20
180.4711488256961
 30
0.0
 40
7.500000000000017
  0
LINE
  5
32D9
330
1F
100
AcDbEntity
  8
太線
100
AcDbLine
 10
131.7875990227082
 20
208.1211488256961
 30
0.0
 11
131.7875990227082
 21
210.1211488256961
 31
0.0
  0
LINE
  5
32DA
330
1F
100
AcDbEntity
  8
太線
100
AcDbLine
 10
129.7875990227082
 20
210.1211488256961
 30
0.0
 11
80.78759902270826
 21
210.1211488256961
 31
0.0
  0
LINE
  5
32DB
330
1F
100
AcDbEntity
  8
太線
100
AcDbLine
 10
29.78759902270826
 20
208.1211488256961
 30
0.0
 11
29.78759902270826
 21
154.8211488256961
 31
0.0
  0
LINE
  5
32DC
330
1F
100
AcDbEntity
  8
太線
100
AcDbLine
 10
31.78759902270826
 20
152.8211488256961
 30
0.0
 11
80.78759902270826
 21
152.8211488256961
 31
0.0
  0
LINE
  5
32DD
330
1F
100
AcDbEntity
  8
太線
100
AcDbLine
 10
29.88683877496601
 20
78.14019332955457
 30
0.0
 11
29.88683877496601
 21
22.84019332955459
 31
0.0
  0
CIRCLE
  5
32E0
330
1F
100
AcDbEntity
  8
太線
100
AcDbCircle
 10
231.4121096629795
 20
180.4711488256961
 30
0.0
 40
24.65
  0
CIRCLE
  5
32E1
330
1F
100
AcDbEntity
  8
太線
100
AcDbCircle
 10
231.4121096629795
 20
180.4711488256961
 30
0.0
 40
29.65
  0
LINE
  5
32E9
330
1F
100
AcDbEntity
  8
破線
100
AcDbLine
 10
47.586838774966
 20
25.84019332955458
 30
0.0
 11
80.88683877496601
 21
25.84019332955458
 31
0.0
  0
LINE
  5
32EA
330
1F
100
AcDbEntity
  8
破線
100
AcDbLine
 10
96.886838774966
 20
75.14019332955459
 30
0.0
 11
80.88683877496601
 21
75.14019332955459
 31
0.0
  0
ARC
  5
32EB
330
1F
100
AcDbEntity
  8
太線
100
AcDbCircle
 10
31.886838774966
 20
78.14019332955457
 30
0.0
 40
2.0
100
AcDbArc
 50
90.0
 51
180.0
  0
ARC
  5
32EC
330
1F
100
AcDbEntity
  8
太線
100
AcDbCircle
 10
129.886838774966
 20
78.14019332955459
 30
0.0
 40
2.0
100
AcDbArc
 50
0.0000000000000254
 51
90.0
  0
ARC
  5
32ED
330
1F
100
AcDbEntity
  8
太線
100
AcDbCircle
 10
31.886838774966
 20
22.84019332955459
 30
0.0
 40
2.0
100
AcDbArc
 50
180.0
 51
270.0
  0
ARC
  5
32EE
330
1F
100
AcDbEntity
  8
太線
100
AcDbCircle
 10
31.78759902270826
 20
208.1211488256961
 30
0.0
 40
2.0
100
AcDbArc
 50
90.0
 51
180.0
  0
ARC
  5
32EF
330
1F
100
AcDbEntity
  8
太線
100
AcDbCircle
 10
129.7875990227082
 20
208.1211488256961
 30
0.0
 40
2.0
100
AcDbArc
 50
0.0
 51
90.0
  0
ARC
  5
32F0
330
1F
100
AcDbEntity
  8
太線
100
AcDbCircle
 10
129.7875990227082
 20
154.8211488256961
 30
0.0
 40
2.0
100
AcDbArc
 50
270.0
 51
0.0
  0
ARC
  5
32F1
330
1F
100
AcDbEntity
  8
太線
100
AcDbCircle
 10
31.78759902270826
 20
154.8211488256961
 30
0.0
 40
2.0
100
AcDbArc
 50
180.0
 51
270.0
  0
LINE
  5
32F4
330
1F
100
AcDbEntity
  8
太線
100
AcDbLine
 10
164.4609071155645
 20
109.208173922872
 30
0.0
 11
160.959789339317
 21
109.1671727127063
 31
0.0
  0
LINE
  5
32F5
330
1F
100
AcDbEntity
  8
太線
100
AcDbLine
 10
165.2556909052479
 20
99.18977491266804
 30
0.0
 11
159.7549934479762
 21
99.18977491266804
 31
0.0
  0
LINE
  5
32F6
330
1F
100
AcDbEntity
  8
太線
100
AcDbLine
 10
160.959789339317
 20
109.1671727127063
 30
0.0
 11
159.9599994988049
 21
109.1876733177891
 31
0.0
  0
LINE
  5
32F7
330
1F
100
AcDbEntity
  8
太線
100
AcDbLine
 10
159.9599994988049
 20
109.1876733177891
 30
0.0
 11
158.9602096582928
 21
109.208173922872
 31
0.0
  0
XLINE
  5
32F8
330
1F
100
AcDbEntity
  8
構築線
100
AcDbXline
 10
166.2743000749398
 20
100.0050593074343
 30
0.0
 11
0.0
 21
-1.0
 31
0.0
  0
XLINE
  5
32F9
330
1F
100
AcDbEntity
  8
構築線
100
AcDbXline
 10
154.2251865563937
 20
121.5314201431616
 30
0.0
 11
1.0
 21
0.0
 31
0.0
  0
CIRCLE
  5
32FA
330
1F
100
AcDbEntity
  8
太線
100
AcDbCircle
 10
166.2743000749398
 20
121.5314201431616
 30
0.0
 40
8.0
  0
LWPOLYLINE
  5
32FC
330
1F
100
AcDbEntity
  8
太線
100
AcDbPolyline
 90
        6
 70
     1
 43
0.0
 10
166.2743000749398
 20
115.5314201431616
 10
171.4704524976464
 20
118.5314201431616
 10
171.4704524976464
 20
124.5314201431616
 10
166.2743000749398
 20
127.5314201431616
 10
161.0781476522331
 20
124.5314201431616
 10
161.0781476522331
 20
118.5314201431616
  0
LINE
  5
32FD
330
1F
100
AcDbEntity
  8
破線
100
AcDbLine
 10
164.2764016698186
 20
100.2100653582629
 30
0.0
 11
160.7752838935712
 21
100.1690641480973
 31
0.0
  0
LINE
  5
3308
330
1F
100
AcDbEntity
  8
太線
100
AcDbLine
 10
128.7079394552125
 20
80.14019332955459
 30
0.0
 11
126.886838774966
 21
85.16740528921934
 31
0.0
  0
LINE
  5
3309
330
1F
100
AcDbEntity
  8
太線
100
AcDbLine
 10
126.886838774966
 20
85.16740528921934
 30
0.0
 11
106.886838774966
 21
85.16740528921934
 31
0.0
  0
LINE
  5
330A
330
1F
100
AcDbEntity
  8
太線
100
AcDbLine
 10
106.886838774966
 20
85.16740528921934
 30
0.0
 11
104.886838774966
 21
80.14019332955461
 31
0.0
  0
LINE
  5
330B
330
1F
100
AcDbEntity
  8
破線
100
AcDbLine
 10
124.386838774966
 20
85.16740528921934
 30
0.0
 11
124.386838774966
 21
75.14019332955459
 31
0.0
  0
LINE
  5
330C
330
1F
100
AcDbEntity
  8
破線
100
AcDbLine
 10
109.3868387749659
 20
85.16740528921937
 30
0.0
 11
109.3868387749659
 21
75.14019332955459
 31
0.0
  0
LINE
  5
3314
330
1F
100
AcDbEntity
  8
太線
100
AcDbLine
 10
56.70793945521253
 20
80.14019332955459
 30
0.0
 11
54.88683877496601
 21
85.16740528921934
 31
0.0
  0
LINE
  5
3315
330
1F
100
AcDbEntity
  8
太線
100
AcDbLine
 10
34.88683877496601
 20
85.16740528921934
 30
0.0
 11
32.886838774966
 21
80.14019332955461
 31
0.0
  0
LINE
  5
3316
330
1F
100
AcDbEntity
  8
太線
100
AcDbLine
 10
54.88683877496601
 20
85.16740528921934
 30
0.0
 11
34.88683877496601
 21
85.16740528921934
 31
0.0
  0
LINE
  5
3317
330
1F
100
AcDbEntity
  8
破線
100
AcDbLine
 10
37.38683877496599
 20
85.16740528921936
 30
0.0
 11
37.38683877496599
 21
75.14019332955459
 31
0.0
  0
LINE
  5
3318
330
1F
100
AcDbEntity
  8
破線
100
AcDbLine
 10
52.38683877496604
 20
85.16740528921934
 30
0.0
 11
52.38683877496604
 21
75.14019332955459
 31
0.0
  0
LINE
  5
3319
330
1F
100
AcDbEntity
  8
太線
100
AcDbLine
 10
241.4121096629795
 20
215.1211488256961
 30
0.0
 11
221.4121096629795
 21
215.1211488256961
 31
0.0
  0
LINE
  5
331B
330
1F
100
AcDbEntity
  8
太線
100
AcDbLine
 10
221.4121096629795
 20
215.1211488256961
 30
0.0
 11
219.4121096629795
 21
210.0939368660314
 31
0.0
  0
LINE
  5
331D
330
1F
100
AcDbEntity
  8
太線
100
AcDbLine
 10
243.2332103432261
 20
210.0939368660314
 30
0.0
 11
241.4121096629795
 21
215.1211488256961
 31
0.0
  0
LINE
  5
331E
330
1F
100
AcDbEntity
  8
太線
100
AcDbLine
 10
219.4121096629795
 20
210.0939368660314
 30
0.0
 11
218.1237518353625
 21
206.6186891343261
 31
0.0
  0
LINE
  5
331F
330
1F
100
AcDbEntity
  8
太線
100
AcDbLine
 10
243.2233528479276
 20
210.1211488256961
 30
0.0
 11
244.8175158393901
 21
206.3086574369565
 31
0.0
  0
LINE
  5
3324
330
1F
100
AcDbEntity
  8
破線
100
AcDbLine
 10
233.9121096629795
 20
215.1211488256961
 30
0.0
 11
233.9121096629795
 21
205.1211488256961
 31
0.0
  0
LINE
  5
3325
330
1F
100
AcDbEntity
  8
破線
100
AcDbLine
 10
228.9121096629795
 20
215.1211488256961
 30
0.0
 11
228.9121096629795
 21
204.9940462890873
 31
0.0
  0
LINE
  5
3326
330
1F
100
AcDbEntity
  8
破線
100
AcDbLine
 10
239.4121096629795
 20
215.1211488256961
 30
0.0
 11
239.4121096629795
 21
203.7868624111732
 31
0.0
  0
LINE
  5
3327
330
1F
100
AcDbEntity
  8
破線
100
AcDbLine
 10
223.4121096629795
 20
215.1211488256961
 30
0.0
 11
223.4121096629795
 21
203.7868624111732
 31
0.0
  0
LINE
  5
3328
330
1F
100
AcDbEntity
  8
破線
100
AcDbLine
 10
29.78759902270826
 20
205.1211488256961
 30
0.0
 11
80.78759902270826
 21
205.1211488256961
 31
0.0
  0
LINE
  5
333E
330
1F
100
AcDbEntity
  8
破線
100
AcDbLine
 10
131.7875990227082
 20
157.8211488256961
 30
0.0
 11
80.78759902270826
 21
157.8211488256961
 31
0.0
  0
DIMENSION
  5
333F
330
1F
100
AcDbEntity
  8
破線
100
AcDbDimension
  2
*D5
 10
155.4380475640638
 20
205.1211488256961
 30
0.0
 11
151.9380475640637
 21
181.4711488256961
 31
0.0
 70
    32
  1
50～51
 71
     5
 42
47.30000000000001
  3
sunpo
100
AcDbAlignedDimension
 13
131.7875990227082
 23
157.8211488256961
 33
0.0
 14
131.7875990227082
 24
205.1211488256961
 34
0.0
 50
90.0
100
AcDbRotatedDimension
1001
ACAD
1000
DSTYLE
1002
{
1070
    40
1040
1.0
1002
}
  0
DIMENSION
  5
3362
330
1F
100
AcDbEntity
  8
寸法線
100
AcDbDimension
  2
*D6
 10
44.886838774966
 20
96.33604403041761
 30
0.0
 11
37.38683877496601
 21
99.83604403041761
 31
0.0
 70
    32
 71
     5
 42
15.0
  3
sunpo
100
AcDbAlignedDimension
 13
29.88683877496601
 23
78.14019332955457
 33
0.0
 14
44.886838774966
 24
85.16740528921934
 34
0.0
100
AcDbRotatedDimension
1001
ACAD
1000
DSTYLE
1002
{
1070
    40
1040
1.0
1002
}
  0
DIMENSION
  5
336F
330
1F
100
AcDbEntity
  8
寸法線
100
AcDbDimension
  2
*D7
 10
21.55744529431316
 20
157.8211488256961
 30
0.0
 11
18.05744529431314
 21
155.3211488256961
 31
0.0
 70
    32
 71
     5
 42
5.0
  3
sunpo
100
AcDbAlignedDimension
 13
31.78759902270826
 23
152.8211488256961
 33
0.0
 14
29.78759902270826
 24
157.8211488256961
 34
0.0
 50
90.0
100
AcDbRotatedDimension
1001
ACAD
1000
DSTYLE
1002
{
1070
    40
1040
1.0
1002
}
  0
LEADER
  5
337E
330
1F
100
AcDbEntity
  8
寸法線
100
AcDbLeader
  3
sunpo
 76
     2
 10
170.1296364649001
 20
123.8629713307608
 30
0.0
 10
196.7890027700282
 20
132.5326724984895
 30
0.0
1001
ACAD
1000
DSTYLE
1002
{
1070
   147
1040
1.0
1070
    77
1070
     0
1002
}
  0
LEADER
  5
337F
330
1F
100
AcDbEntity
  8
寸法線
100
AcDbLeader
  3
sunpo
 76
     2
 10
81.46293761597553
 20
81.73460780912284
 30
0.0
 10
93.95490441819992
 20
99.55952681596386
 30
0.0
1001
ACAD
1000
DSTYLE
1002
{
1070
   147
1040
1.0
1070
    77
1070
     0
1002
}
  0
TEXT
  5
3381
330
1F
100
AcDbEntity
  8
文字
100
AcDbText
 10
84.47735385257692
 20
103.0470836231104
 30
0.0
 40
4.799999999999999
  1
Ｍ5
 51
15.0
  7
OKANO
100
AcDbText
  0
LEADER
  5
3384
330
1F
100
AcDbEntity
  8
寸法線
100
AcDbLeader
  3
sunpo
 76
     2
 10
113.396459492778
 20
173.3722225870419
 30
0.0
 10
133.0947613600258
 20
142.1023943408346
 30
0.0
1001
ACAD
1000
DSTYLE
1002
{
1070
   147
1040
1.0
1070
    77
1070
     0
1002
}
  0
TEXT
  5
3385
330
1F
100
AcDbEntity
  8
文字
100
AcDbText
 10
118.5708926465416
 20
135.8580610331794
 30
0.0
 40
4.799999999999999
  1
M16-13mm細目×2
 51
15.0
  7
OKANO
100
AcDbText
  0
DIMENSION
  5
3389
330
1F
100
AcDbEntity
  8
寸法線
100
AcDbDimension
  2
*D8
 10
17.91639270959999
 20
210.1211488256961
 30
0.0
 11
14.41639270959995
 21
207.6211488256961
 31
0.0
 70
    32
 71
     5
 42
5.0
  3
sunpo
100
AcDbAlignedDimension
 13
29.78759902270826
 23
205.1211488256961
 33
0.0
 14
31.78759902270826
 24
210.1211488256961
 34
0.0
 50
90.0
100
AcDbRotatedDimension
1001
ACAD
1000
DSTYLE
1002
{
1070
    40
1040
1.0
1002
}
  0
TEXT
  5
339A
330
1F
100
AcDbEntity
  8
文字
100
AcDbText
 10
78.94337390000896
 20
111.1895337901672
 30
0.0
 40
4.799999999999999
  1
M５－８mmﾋﾞｽ×1
 51
15.0
  7
OKANO
100
AcDbText
  0
TEXT
  5
33A2
330
1F
100
AcDbEntity
  8
文字
100
AcDbText
 10
191.4649097507667
 20
44.7997293994606
 30
0.0
 40
4.799999999999999
  1
JAN 4562182300768
 51
15.0
  7
OKANO
100
AcDbText
  0
TEXT
  5
33AF
330
1F
100
AcDbEntity
  8
寸法線
100
AcDbText
 10
165.6228601813206
 20
88.89555750156057
 30
0.0
 40
4.799999999999999
  1
PF3/8 inch19yama クボミ先ホーローセット使用
 51
15.0
  7
OKANO
100
AcDbText
  0
XLINE
  5
33C8
330
1F
100
AcDbEntity
  8
構築線
100
AcDbXline
 10
80.85151402540432
 20
180.4711488256961
 30
0.0
 11
0.0
 21
-1.0
 31
0.0
  0
LINE
  5
33CB
330
1F
100
AcDbEntity
  8
太線
100
AcDbLine
 10
80.78759902270826
 20
210.1211488256961
 30
0.0
 11
31.78759902270826
 21
210.1211488256961
 31
0.0
  0
LINE
  5
33CC
330
1F
100
AcDbEntity
  8
破線
100
AcDbLine
 10
80.78759902270826
 20
205.1211488256961
 30
0.0
 11
131.7875990227082
 21
205.1211488256961
 31
0.0
  0
LINE
  5
33CD
330
1F
100
AcDbEntity
  8
破線
100
AcDbLine
 10
80.78759902270826
 20
157.8211488256961
 30
0.0
 11
29.78759902270826
 21
157.8211488256961
 31
0.0
  0
LINE
  5
33CE
330
1F
100
AcDbEntity
  8
太線
100
AcDbLine
 10
80.78759902270826
 20
152.8211488256961
 30
0.0
 11
129.7875990227082
 21
152.8211488256961
 31
0.0
  0
LINE
  5
33EE
330
1F
100
AcDbEntity
  8
破線
100
AcDbLine
 10
80.88683877496601
 20
25.84019332955459
 30
0.0
 11
96.886838774966
 21
25.84019332955459
 31
0.0
  0
LINE
  5
33EF
330
1F
100
AcDbEntity
  8
太線
100
AcDbLine
 10
80.88683877496601
 20
20.84019332955458
 30
0.0
 11
49.586838774966
 21
20.84019332955458
 31
0.0
  0
LINE
  5
33F0
330
1F
100
AcDbEntity
  8
太線
100
AcDbLine
 10
80.88683877496601
 20
80.14019332955459
 30
0.0
 11
129.886838774966
 21
80.14019332955459
 31
0.0
  0
LINE
  5
33F1
330
1F
100
AcDbEntity
  8
破線
100
AcDbLine
 10
80.88683877496601
 20
75.14019332955459
 30
0.0
 11
47.586838774966
 21
75.14019332955459
 31
0.0
  0
CIRCLE
  5
3404
330
1F
100
AcDbEntity
  8
構築線
100
AcDbCircle
 10
80.85151402540432
 20
180.4711488256961
 30
0.0
 40
2.5
  0
CIRCLE
  5
3405
330
1F
100
AcDbEntity
  8
太線
100
AcDbCircle
 10
80.85151402540432
 20
180.4711488256961
 30
0.0
 40
2.5
  0
CIRCLE
  5
3406
330
1F
100
AcDbEntity
  8
太線
100
AcDbCircle
 10
80.85151402540432
 20
180.4711488256961
 30
0.0
 40
3.086448027123036
  0
LINE
  5
3409
330
1F
100
AcDbEntity
  8
破線
100
AcDbLine
 10
83.35151402540432
 20
80.14019332955459
 30
0.0
 11
83.35151402540432
 21
75.14019332955459
 31
0.0
  0
LINE
  5
340A
330
1F
100
AcDbEntity
  8
破線
100
AcDbLine
 10
78.35151402540432
 20
80.14019332955458
 30
0.0
 11
78.35151402540432
 21
75.14019332955459
 31
0.0
  0
XLINE
  5
340C
330
1F
100
AcDbEntity
  8
構築線
100
AcDbXline
 10
116.7875990227082
 20
180.4711488256961
 30
0.0
 11
0.0
 21
-1.0
 31
0.0
  0
XLINE
  5
340D
330
1F
100
AcDbEntity
  8
構築線
100
AcDbXline
 10
44.78759902270826
 20
180.4711488256961
 30
0.0
 11
0.0
 21
-1.0
 31
0.0
  0
DIMENSION
  5
340E
330
1F
100
AcDbEntity
  8
寸法線
100
AcDbDimension
  2
*D10
 10
131.7875990227082
 20
223.9999916714371
 30
0.0
 11
80.78759902270826
 21
227.5004837974213
 31
0.0
 70
    32
 71
     5
 42
102.0
  3
sunpo
100
AcDbAlignedDimension
 13
29.78759902270827
 23
208.1211488256961
 33
0.0
 14
131.7875990227082
 24
205.1211488256961
 34
0.0
100
AcDbRotatedDimension
1001
ACAD
1000
DSTYLE
1002
{
1070
    40
1040
1.0
1002
}
  0
VIEWPORT
  5
2E
330
1B
100
AcDbEntity
 67
     1
  8
0
100
AcDbViewport
 10
250.1540502111825
 20
152.5631822071171
 30
0.0
 40
652.8410059712167
 41
331.579941915834
 68
     2
 69
     1
 12
250.1540502111825
 22
152.5631822071171
 13
0.0
 23
0.0
 14
10.0
 24
10.0
 15
10.0
 25
10.0
 16
0.0
 26
0.0
 36
1.0
 17
0.0
 27
0.0
 37
0.0
 42
50.0
 43
0.0
 44
0.0
 45
331.579941915834
 50
0.0
 51
0.0
 72
   100
 90
    32800
  1

281
     0
 71
     1
 74
     0
110
0.0
120
0.0
130
0.0
111
1.0
121
0.0
131
0.0
112
0.0
122
1.0
132
0.0
 79
     0
146
0.0
  0
VIEWPORT
  5
30
330
1B
100
AcDbEntity
 67
     1
  8
70-0-CON
100
AcDbViewport
 10
141.8594093064315
 20
100.3480256368386
 30
0.0
 40
261.6199023344245
 41
192.6196987113174
 68
     1
 69
     2
 12
155.8994053478254
 22
116.7278618629937
 13
0.0
 23
0.0
 14
5.0
 24
5.0
 15
10.0
 25
10.0
 16
0.0
 26
0.0
 36
1.0
 17
0.0
 27
0.0
 37
0.0
 42
50.0
 43
0.0
 44
0.0
 45
270.3413414522777
 50
0.0
 51
0.0
 72
   100
 90
    32864
  1

281
     0
 71
     1
 74
     0
110
0.0
120
0.0
130
0.0
111
1.0
121
0.0
131
0.0
112
0.0
122
1.0
132
0.0
 79
     0
146
0.0
  0
LWPOLYLINE
  5
45
330
1B
100
AcDbEntity
 67
     1
  8
50-0-CON
100
AcDbPolyline
 90
        4
 70
     1
 43
0.0
 10
11.04945813921926
 20
4.038176281179858
 10
272.2125713060605
 20
4.033520706629644
 10
273.4987754093466
 20
195.9297862125246
 10
11.04945813921926
 20
196.6578749924973
  0
LINE
  5
4A
330
1B
100
AcDbEntity
 67
     1
  8
50-0-CON
100
AcDbLine
 10
10.38768783662635
 20
100.3480256368386
 30
0.0
 11
-4.391850629656119
 21
100.3480256368386
 31
0.0
  0
LINE
  5
4B
330
1B
100
AcDbEntity
 67
     1
  8
50-0-CON
100
AcDbLine
 10
141.8594093064315
 20
197.098652626247
 30
0.0
 11
141.8594093064315
 21
202.387980773708
 31
0.0
  0
LINE
  5
4C
330
1B
100
AcDbEntity
 67
     1
  8
50-0-CON
100
AcDbLine
 10
272.4487699456857
 20
100.7888032705883
 30
0.0
 11
278.8458837249377
 21
100.7888032705883
 31
0.0
  0
LINE
  5
4D
330
1B
100
AcDbEntity
 67
     1
  8
50-0-CON
100
AcDbLine
 10
140.9770484758805
 20
4.038176281179858
 30
0.0
 11
140.9770484758805
 21
-3.455038652015446
 31
0.0
  0
ENDSEC
  0
SECTION
  2
OBJECTS
  0
DICTIONARY
  5
C
330
0
100
AcDbDictionary
281
     1
  3
ACAD_GROUP
350
D
  3
ACAD_LAYOUT
350
1A
  3
ACAD_MLINESTYLE
350
17
  3
ACAD_PLOTSETTINGS
350
19
  3
ACAD_PLOTSTYLENAME
350
E
  3
AcadDim
350
3380
  3
AcDbVariableDictionary
350
6AD
  3
DWGPROPS
350
30F
  0
DICTIONARY
  5
D
102
{ACAD_REACTORS
330
C
102
}
330
C
100
AcDbDictionary
281
     1
  0
DICTIONARY
  5
1A
102
{ACAD_REACTORS
330
C
102
}
330
C
100
AcDbDictionary
281
     1
  3
A4
350
1E
  3
Model
350
22
  0
DICTIONARY
  5
17
102
{ACAD_REACTORS
330
C
102
}
330
C
100
AcDbDictionary
281
     1
  3
Standard
350
18
  0
DICTIONARY
  5
19
102
{ACAD_REACTORS
330
C
102
}
330
C
100
AcDbDictionary
281
     1
  0
ACDBDICTIONARYWDFLT
  5
E
102
{ACAD_REACTORS
330
C
102
}
330
C
100
AcDbDictionary
281
     1
  3
Normal
350
F
100
AcDbDictionaryWithDefault
340
F
  0
XRECORD
  5
3380
102
{ACAD_REACTORS
330
C
102
}
330
C
100
AcDbXrecord
280
     1
 90
   990106
  3

 60
     0
 61
     0
 62
     1
 63
     3
 64
     0
 65
     0
 66
     0
 67
     3
 68
     1
 69
     0
 70
     0
 71
     0
 72
     0
 40
0.3517538757430429
170
     0
  0
DICTIONARY
  5
6AD
102
{ACAD_REACTORS
330
C
102
}
330
C
100
AcDbDictionary
281
     1
  3
SORTENTS
350
6AE
  0
XRECORD
  5
30F
102
{ACAD_REACTORS
330
C
102
}
330
C
100
AcDbXrecord
280
     1
  1
DWGPROPS COOKIE
  2

  3

  4

  6

  7

  8

  9

300
=
301
=
302
=
303
=
304
=
305
=
306
=
307
=
308
=
309
=
 40
0.3303803125
 41
2452362.482225463
 42
2452370.969861285
  1

 90
        0
  0
LAYOUT
  5
1E
102
{ACAD_REACTORS
330
1A
102
}
330
1A
100
AcDbPlotSettings
  1

  2
EPSON PM-920C
  4
A4
  6

 40
3.757083177566528
 41
14.7637300491333
 42
3.757080078125
 43
3.757080078125
 44
209.9733276367187
 45
296.9683227539062
 46
0.0
 47
0.0
 48
0.0
 49
0.0
140
0.0
141
0.0
142
1.0
143
1.0
 70
   688
 72
     1
 73
     1
 74
     5
  7
joint.ctb
 75
    16
147
1.0
148
0.0
149
0.0
100
AcDbLayout
  1
A4
 70
     1
 71
     1
 10
-3.757080078125
 20
-3.757083177566528
 11
293.2112426757812
 21
206.2162444591522
 12
0.0
 22
0.0
 32
0.0
 14
-4.391850629656119
 24
-3.455038652015446
 34
0.0
 15
278.8458837249377
 25
202.387980773708
 35
0.0
146
0.0
 13
0.0
 23
0.0
 33
0.0
 16
1.0
 26
0.0
 36
0.0
 17
0.0
 27
1.0
 37
0.0
 76
     0
330
1B
331
30
  0
LAYOUT
  5
22
102
{ACAD_REACTORS
330
1A
102
}
330
1A
100
AcDbPlotSettings
  1

  2
EPSON PM-920C
  4
A4
  6

 40
3.757083177566528
 41
14.7637300491333
 42
3.757080078125
 43
3.757080078125
 44
209.9733276367187
 45
296.9683227539062
 46
0.0
 47
0.0
 48
0.0
 49
0.0
140
0.0
141
0.0
142
1.0
143
1.0
 70
 11952
 72
     1
 73
     1
 74
     0
  7

 75
     0
147
1.0
148
-45.64199848979289
149
-84.48806419330498
100
AcDbLayout
  1
Model
 70
     1
 71
     0
 10
0.0
 20
0.0
 11
12.0
 21
9.0
 12
0.0
 22
0.0
 32
0.0
 14
0.0
 24
0.0
 34
0.0
 15
0.0
 25
0.0
 35
0.0
146
0.0
 13
0.0
 23
0.0
 33
0.0
 16
1.0
 26
0.0
 36
0.0
 17
0.0
 27
1.0
 37
0.0
 76
     0
330
1F
  0
MLINESTYLE
  5
18
102
{ACAD_REACTORS
330
17
102
}
330
17
100
AcDbMlineStyle
  2
STANDARD
 70
     0
  3

 62
   256
 51
90.0
 52
90.0
 71
     2
 49
0.5
 62
   256
  6
BYLAYER
 49
-0.5
 62
   256
  6
BYLAYER
  0
ACDBPLACEHOLDER
  5
F
102
{ACAD_REACTORS
330
E
102
}
330
E
  0
DICTIONARYVAR
  5
6AE
102
{ACAD_REACTORS
330
6AD
102
}
330
6AD
100
DictionaryVariables
280
     0
  1
96
  0
ENDSEC
  0
EOF
