  0
SECTION
  2
HEADER
  9
$ACADVER
  1
AC1015
  9
$ACADMAINTVER
 70
     6
  9
$DWGCODEPAGE
  3
ANSI_932
  9
$INSBASE
 10
0.0
 20
0.0
 30
0.0
  9
$EXTMIN
 10
-33.27421480457559
 20
-238.0917626337977
 30
0.0
  9
$EXTMAX
 10
807.350160970409
 20
253.9260629425571
 30
0.0
  9
$LIMMIN
 10
0.0
 20
0.0
  9
$LIMMAX
 10
420.0
 20
297.0
  9
$ORTHOMODE
 70
     0
  9
$REGENMODE
 70
     1
  9
$FILLMODE
 70
     1
  9
$QTEXTMODE
 70
     0
  9
$MIRRTEXT
 70
     1
  9
$LTSCALE
 40
1.0
  9
$ATTMODE
 70
     1
  9
$TEXTSIZE
 40
5.0
  9
$TRACEWID
 40
1.0
  9
$TEXTSTYLE
  7
OKANO
  9
$CLAYER
  8
太線
  9
$CELTYPE
  6
ByLayer
  9
$CECOLOR
 62
   256
  9
$CELTSCALE
 40
1.0
  9
$DISPSILH
 70
     0
  9
$DIMSCALE
 40
0.0
  9
$DIMASZ
 40
3.0
  9
$DIMEXO
 40
2.0
  9
$DIMDLI
 40
8.0
  9
$DIMRND
 40
0.0
  9
$DIMDLE
 40
0.0
  9
$DIMEXE
 40
3.0
  9
$DIMTP
 40
0.0
  9
$DIMTM
 40
0.0
  9
$DIMTXT
 40
5.0
  9
$DIMCEN
 40
2.5
  9
$DIMTSZ
 40
0.0
  9
$DIMTOL
 70
     0
  9
$DIMLIM
 70
     0
  9
$DIMTIH
 70
     0
  9
$DIMTOH
 70
     0
  9
$DIMSE1
 70
     0
  9
$DIMSE2
 70
     0
  9
$DIMTAD
 70
     1
  9
$DIMZIN
 70
     8
  9
$DIMBLK
  1
Closed
  9
$DIMASO
 70
     1
  9
$DIMSHO
 70
     1
  9
$DIMPOST
  1

  9
$DIMAPOST
  1

  9
$DIMALT
 70
     0
  9
$DIMALTD
 70
     3
  9
$DIMALTF
 40
0.03937007874016
  9
$DIMLFAC
 40
1.0
  9
$DIMTOFL
 70
     1
  9
$DIMTVP
 40
0.0
  9
$DIMTIX
 70
     0
  9
$DIMSOXD
 70
     0
  9
$DIMSAH
 70
     0
  9
$DIMBLK1
  1

  9
$DIMBLK2
  1

  9
$DIMSTYLE
  2
sunpo
  9
$DIMCLRD
 70
     0
  9
$DIMCLRE
 70
     0
  9
$DIMCLRT
 70
     0
  9
$DIMTFAC
 40
1.0
  9
$DIMGAP
 40
1.0
  9
$DIMJUST
 70
     0
  9
$DIMSD1
 70
     0
  9
$DIMSD2
 70
     0
  9
$DIMTOLJ
 70
     0
  9
$DIMTZIN
 70
     8
  9
$DIMALTZ
 70
     0
  9
$DIMALTTZ
 70
     0
  9
$DIMUPT
 70
     0
  9
$DIMDEC
 70
     2
  9
$DIMTDEC
 70
     2
  9
$DIMALTU
 70
     2
  9
$DIMALTTD
 70
     3
  9
$DIMTXSTY
  7
OKANO
  9
$DIMAUNIT
 70
     0
  9
$DIMADEC
 70
     0
  9
$DIMALTRND
 40
0.0
  9
$DIMAZIN
 70
     0
  9
$DIMDSEP
 70
    46
  9
$DIMATFIT
 70
     3
  9
$DIMFRAC
 70
     0
  9
$DIMLDRBLK
  1
Closed
  9
$DIMLUNIT
 70
     2
  9
$DIMLWD
 70
    -2
  9
$DIMLWE
 70
    -2
  9
$DIMTMOVE
 70
     0
  9
$LUNITS
 70
     2
  9
$LUPREC
 70
     2
  9
$SKETCHINC
 40
1.0
  9
$FILLETRAD
 40
1.0
  9
$AUNITS
 70
     0
  9
$AUPREC
 70
     0
  9
$MENU
  1
.
  9
$ELEVATION
 40
0.0
  9
$PELEVATION
 40
0.0
  9
$THICKNESS
 40
0.0
  9
$LIMCHECK
 70
     0
  9
$CHAMFERA
 40
10.0
  9
$CHAMFERB
 40
10.0
  9
$CHAMFERC
 40
20.0
  9
$CHAMFERD
 40
0.0
  9
$SKPOLY
 70
     0
  9
$TDCREATE
 40
2452362.482225463
  9
$TDUCREATE
 40
2452362.107225463
  9
$TDUPDATE
 40
2456258.489498333
  9
$TDUUPDATE
 40
2456258.114498333
  9
$TDINDWG
 40
2.3116433102
  9
$TDUSRTIMER
 40
2.3116433102
  9
$USRTIMER
 70
     1
  9
$ANGBASE
 50
0.0
  9
$ANGDIR
 70
     0
  9
$PDMODE
 70
     0
  9
$PDSIZE
 40
0.0
  9
$PLINEWID
 40
0.0
  9
$SPLFRAME
 70
     0
  9
$SPLINETYPE
 70
     6
  9
$SPLINESEGS
 70
     8
  9
$HANDSEED
  5
5891
  9
$SURFTAB1
 70
     6
  9
$SURFTAB2
 70
     6
  9
$SURFTYPE
 70
     6
  9
$SURFU
 70
     6
  9
$SURFV
 70
     6
  9
$UCSBASE
  2

  9
$UCSNAME
  2

  9
$UCSORG
 10
0.0
 20
0.0
 30
0.0
  9
$UCSXDIR
 10
1.0
 20
0.0
 30
0.0
  9
$UCSYDIR
 10
0.0
 20
1.0
 30
0.0
  9
$UCSORTHOREF
  2

  9
$UCSORTHOVIEW
 70
     0
  9
$UCSORGTOP
 10
0.0
 20
0.0
 30
0.0
  9
$UCSORGBOTTOM
 10
0.0
 20
0.0
 30
0.0
  9
$UCSORGLEFT
 10
0.0
 20
0.0
 30
0.0
  9
$UCSORGRIGHT
 10
0.0
 20
0.0
 30
0.0
  9
$UCSORGFRONT
 10
0.0
 20
0.0
 30
0.0
  9
$UCSORGBACK
 10
0.0
 20
0.0
 30
0.0
  9
$PUCSBASE
  2

  9
$PUCSNAME
  2

  9
$PUCSORG
 10
0.0
 20
0.0
 30
0.0
  9
$PUCSXDIR
 10
1.0
 20
0.0
 30
0.0
  9
$PUCSYDIR
 10
0.0
 20
1.0
 30
0.0
  9
$PUCSORTHOREF
  2

  9
$PUCSORTHOVIEW
 70
     0
  9
$PUCSORGTOP
 10
0.0
 20
0.0
 30
0.0
  9
$PUCSORGBOTTOM
 10
0.0
 20
0.0
 30
0.0
  9
$PUCSORGLEFT
 10
0.0
 20
0.0
 30
0.0
  9
$PUCSORGRIGHT
 10
0.0
 20
0.0
 30
0.0
  9
$PUCSORGFRONT
 10
0.0
 20
0.0
 30
0.0
  9
$PUCSORGBACK
 10
0.0
 20
0.0
 30
0.0
  9
$USERI1
 70
     0
  9
$USERI2
 70
     0
  9
$USERI3
 70
     0
  9
$USERI4
 70
     0
  9
$USERI5
 70
     0
  9
$USERR1
 40
0.0
  9
$USERR2
 40
0.0
  9
$USERR3
 40
0.0
  9
$USERR4
 40
0.0
  9
$USERR5
 40
0.0
  9
$WORLDVIEW
 70
     1
  9
$SHADEDGE
 70
     3
  9
$SHADEDIF
 70
    70
  9
$TILEMODE
 70
     0
  9
$MAXACTVP
 70
    64
  9
$PINSBASE
 10
0.0
 20
0.0
 30
0.0
  9
$PLIMCHECK
 70
     0
  9
$PEXTMIN
 10
-4.391850629656119
 20
-3.455038652015446
 30
0.0
  9
$PEXTMAX
 10
278.8458837249377
 20
202.387980773708
 30
0.0
  9
$PLIMMIN
 10
-3.757080078125
 20
-3.757083177566528
  9
$PLIMMAX
 10
293.2112426757812
 20
206.2162444591522
  9
$UNITMODE
 70
     0
  9
$VISRETAIN
 70
     1
  9
$PLINEGEN
 70
     0
  9
$PSLTSCALE
 70
     1
  9
$TREEDEPTH
 70
  3020
  9
$CMLSTYLE
  2
Standard
  9
$CMLJUST
 70
     0
  9
$CMLSCALE
 40
20.0
  9
$PROXYGRAPHICS
 70
     1
  9
$MEASUREMENT
 70
     0
  9
$CELWEIGHT
370
    -1
  9
$ENDCAPS
280
     0
  9
$JOINSTYLE
280
     0
  9
$LWDISPLAY
290
     0
  9
$INSUNITS
 70
     4
  9
$HYPERLINKBASE
  1

  9
$STYLESHEET
  1

  9
$XEDIT
290
     1
  9
$CEPSNTYPE
380
     0
  9
$PSTYLEMODE
290
     1
  9
$FINGERPRINTGUID
  2
{FF7F33C3-4233-11D6-AEE0-0000F45FD7F4}
  9
$VERSIONGUID
  2
{CA2C2A13-0569-4B3A-990D-0D984AC16493}
  9
$EXTNAMES
290
     1
  9
$PSVPSCALE
 40
0.0
  9
$OLESTARTUP
290
     0
  0
ENDSEC
  0
SECTION
  2
CLASSES
  0
CLASS
  1
ACDBDICTIONARYWDFLT
  2
AcDbDictionaryWithDefault
  3
AutoCAD 2000
 90
        0
280
     0
281
     0
  0
CLASS
  1
ACDBPLACEHOLDER
  2
AcDbPlaceHolder
  3
AutoCAD 2000
 90
        0
280
     0
281
     0
  0
CLASS
  1
LAYOUT
  2
AcDbLayout
  3
AutoCAD 2000
 90
        0
280
     0
281
     0
  0
CLASS
  1
DICTIONARYVAR
  2
AcDbDictionaryVar
  3
AutoCAD 2000
 90
        0
280
     0
281
     0
  0
ENDSEC
  0
SECTION
  2
TABLES
  0
TABLE
  2
VPORT
  5
8
330
0
100
AcDbSymbolTable
 70
     5
  0
VPORT
  5
5890
330
8
100
AcDbSymbolTableRecord
100
AcDbViewportTableRecord
  2
*Active
 70
     0
 10
0.0
 20
0.0
 11
1.0
 21
1.0
 12
496.8667264635034
 22
11.78230535090483
 13
0.0
 23
0.0
 14
5.0
 24
5.0
 15
10.0
 25
10.0
 16
0.0
 26
0.0
 36
1.0
 17
0.0
 27
0.0
 37
0.0
 40
659.2737583379935
 41
1.968879668049792
 42
50.0
 43
0.0
 44
0.0
 50
0.0
 51
0.0
 71
     0
 72
   100
 73
     1
 74
     3
 75
     0
 76
     0
 77
     0
 78
     0
281
     0
 65
     1
110
0.0
120
0.0
130
0.0
111
1.0
121
0.0
131
0.0
112
0.0
122
1.0
132
0.0
 79
     0
146
0.0
  0
ENDTAB
  0
TABLE
  2
LTYPE
  5
5
330
0
100
AcDbSymbolTable
 70
     5
  0
LTYPE
  5
14
330
5
100
AcDbSymbolTableRecord
100
AcDbLinetypeTableRecord
  2
ByBlock
 70
     0
  3

 72
    65
 73
     0
 40
0.0
  0
LTYPE
  5
15
330
5
100
AcDbSymbolTableRecord
100
AcDbLinetypeTableRecord
  2
ByLayer
 70
     0
  3

 72
    65
 73
     0
 40
0.0
  0
LTYPE
  5
16
330
5
100
AcDbSymbolTableRecord
100
AcDbLinetypeTableRecord
  2
Continuous
 70
     0
  3
Solid line
 72
    65
 73
     0
 40
0.0
  0
LTYPE
  5
33
330
5
100
AcDbSymbolTableRecord
100
AcDbLinetypeTableRecord
  2
DASHED2
 70
     0
  3
Dashed (.5x) _ _ _ _ _ _ _ _ _ _ _ _ _ _ _ _ _
 72
    65
 73
     2
 40
9.524999999999998
 49
6.349999999999999
 74
     0
 49
-3.174999999999999
 74
     0
  0
LTYPE
  5
34
330
5
100
AcDbSymbolTableRecord
100
AcDbLinetypeTableRecord
  2
CENTER2
 70
     0
  3
Center (.5x) ___ _ ___ _ ___ _ ___ _ ___ _ ___
 72
    65
 73
     4
 40
28.57499999999999
 49
19.05
 74
     0
 49
-3.174999999999999
 74
     0
 49
3.174999999999999
 74
     0
 49
-3.174999999999999
 74
     0
  0
LTYPE
  5
35
330
5
100
AcDbSymbolTableRecord
100
AcDbLinetypeTableRecord
  2
PHANTOM2
 70
     0
  3
Phantom (.5x) ___ _ _ ___ _ _ ___ _ _ ___ _ _
 72
    65
 73
     6
 40
31.75
 49
15.875
 74
     0
 49
-3.174999999999999
 74
     0
 49
3.174999999999999
 74
     0
 49
-3.174999999999999
 74
     0
 49
3.174999999999999
 74
     0
 49
-3.174999999999999
 74
     0
  0
LTYPE
  5
36
330
5
100
AcDbSymbolTableRecord
100
AcDbLinetypeTableRecord
  2
HIDDEN2
 70
     0
  3
Hidden (.5x) _ _ _ _ _ _ _ _ _ _ _ _ _ _ _ _ _
 72
    65
 73
     2
 40
4.762499999999999
 49
3.174999999999999
 74
     0
 49
-1.587499999999999
 74
     0
  0
ENDTAB
  0
TABLE
  2
LAYER
  5
2
330
0
100
AcDbSymbolTable
 70
    13
  0
LAYER
  5
10
330
2
100
AcDbSymbolTableRecord
100
AcDbLayerTableRecord
  2
0
 70
     0
 62
     7
  6
Continuous
370
    -3
390
F
  0
LAYER
  5
40
330
2
100
AcDbSymbolTableRecord
100
AcDbLayerTableRecord
  2
50-0-CON
 70
     0
 62
     4
  6
Continuous
370
    50
390
F
  0
LAYER
  5
41
330
2
100
AcDbSymbolTableRecord
100
AcDbLayerTableRecord
  2
70-0-CON
 70
     0
 62
   202
  6
Continuous
370
    70
390
F
  0
LAYER
  5
4E
330
2
100
AcDbSymbolTableRecord
100
AcDbLayerTableRecord
  2
極太線
 70
     0
 62
     7
  6
Continuous
370
    70
390
F
  0
LAYER
  5
4F
330
2
100
AcDbSymbolTableRecord
100
AcDbLayerTableRecord
  2
細線
 70
     0
 62
     8
  6
Continuous
370
    18
390
F
  0
LAYER
  5
AB
330
2
100
AcDbSymbolTableRecord
100
AcDbLayerTableRecord
  2
構築線
 70
     0
 62
    -2
  6
Continuous
370
    18
390
F
  0
LAYER
  5
B8
330
2
100
AcDbSymbolTableRecord
100
AcDbLayerTableRecord
  2
太線
 70
     0
 62
     7
  6
Continuous
370
    35
390
F
  0
LAYER
  5
B9
330
2
100
AcDbSymbolTableRecord
100
AcDbLayerTableRecord
  2
寸法線
 70
     0
 62
     5
  6
Continuous
370
    18
390
F
  0
LAYER
  5
BA
330
2
100
AcDbSymbolTableRecord
100
AcDbLayerTableRecord
  2
破線
 70
     0
 62
     8
  6
HIDDEN2
370
    18
390
F
  0
LAYER
  5
BB
330
2
100
AcDbSymbolTableRecord
100
AcDbLayerTableRecord
  2
中心線
 70
     0
 62
     1
  6
CENTER2
370
    18
390
F
  0
LAYER
  5
BC
330
2
100
AcDbSymbolTableRecord
100
AcDbLayerTableRecord
  2
想像線
 70
     0
 62
     8
  6
PHANTOM2
370
    18
390
F
  0
LAYER
  5
BD
330
2
100
AcDbSymbolTableRecord
100
AcDbLayerTableRecord
  2
文字
 70
     0
 62
     7
  6
Continuous
370
    18
390
F
  0
LAYER
  5
180
330
2
100
AcDbSymbolTableRecord
100
AcDbLayerTableRecord
  2
Defpoints
 70
     0
 62
     7
  6
Continuous
290
     0
370
    -3
390
F
  0
ENDTAB
  0
TABLE
  2
STYLE
  5
3
330
0
100
AcDbSymbolTable
 70
     3
  0
STYLE
  5
11
330
3
100
AcDbSymbolTableRecord
100
AcDbTextStyleTableRecord
  2
Standard
 70
     0
 40
0.0
 41
1.0
 50
0.0
 71
     0
 42
3.0
  3
txt
  4

  0
STYLE
  5
32
330
3
100
AcDbSymbolTableRecord
100
AcDbTextStyleTableRecord
  2

 70
     1
 40
0.0
 41
1.0
 50
0.0
 71
     0
 42
2.5
  3
ltypeshp.shx
  4

  0
STYLE
  5
50
330
3
100
AcDbSymbolTableRecord
100
AcDbTextStyleTableRecord
  2
OKANO
 70
     0
 40
0.0
 41
1.0
 50
15.0
 71
     0
 42
5.0
  3
isocp.shx
  4
bigfont.shx
  0
ENDTAB
  0
TABLE
  2
VIEW
  5
6
330
0
100
AcDbSymbolTable
 70
     0
  0
ENDTAB
  0
TABLE
  2
UCS
  5
7
330
0
100
AcDbSymbolTable
 70
     0
  0
ENDTAB
  0
TABLE
  2
APPID
  5
9
330
0
100
AcDbSymbolTable
 70
     1
  0
APPID
  5
12
330
9
100
AcDbSymbolTableRecord
100
AcDbRegAppTableRecord
  2
ACAD
 70
     0
  0
ENDTAB
  0
TABLE
  2
DIMSTYLE
  5
A
330
0
100
AcDbSymbolTable
 70
     2
100
AcDbDimStyleTable
 71
     2
340
A2
340
27
  0
DIMSTYLE
105
27
102
{ACAD_REACTORS
330
38A6
330
38A8
330
38AB
330
38AC
330
4B46
330
4B4B
330
4B4A
330
4B5E
102
}
330
A
100
AcDbSymbolTableRecord
100
AcDbDimStyleTableRecord
  2
ISO-25
 70
     0
 41
2.5
 42
0.625
 43
3.75
 44
1.25
 73
     0
 74
     0
 77
     1
 78
     8
140
2.5
141
2.5
143
0.03937007874016
147
0.625
171
     3
172
     1
271
     2
272
     2
274
     3
283
     0
284
     8
340
11
  0
DIMSTYLE
105
A2
102
{ACAD_REACTORS
330
3495
330
37DE
330
390D
330
3488
330
3987
330
39E0
330
39ED
330
39FA
330
3A07
330
3A14
330
3A69
330
40DC
330
40E1
330
40E6
330
40F3
330
40F4
330
4176
330
4415
330
442D
330
4733
330
47AF
330
4924
330
492D
330
512B
330
514E
330
5168
330
5175
330
519D
330
51AA
330
51D2
330
51F8
330
5205
330
5212
330
523A
330
5264
330
533E
330
5394
330
570E
330
5716
330
5715
330
5714
330
5771
330
4138
330
3AAC
330
5844
330
5856
330
586E
102
}
330
A
100
AcDbSymbolTableRecord
100
AcDbDimStyleTableRecord
  2
sunpo
 70
     0
 40
0.0
 41
3.0
 42
2.0
 43
8.0
 44
3.0
 73
     0
 74
     0
 77
     1
 78
     8
140
5.0
141
2.5
143
0.03937007874016
147
1.0
171
     3
172
     1
271
     2
272
     2
274
     3
283
     0
284
     8
340
50
341
9B
342
9B
  0
ENDTAB
  0
TABLE
  2
BLOCK_RECORD
  5
1
330
0
100
AcDbSymbolTable
 70
    72
  0
BLOCK_RECORD
  5
1F
330
1
100
AcDbSymbolTableRecord
100
AcDbBlockTableRecord
  2
*Model_Space
340
22
  0
BLOCK_RECORD
  5
1B
330
1
100
AcDbSymbolTableRecord
100
AcDbBlockTableRecord
  2
*Paper_Space
340
1E
  0
BLOCK_RECORD
  5
9B
330
1
100
AcDbSymbolTableRecord
100
AcDbBlockTableRecord
  2
_Closed
340
0
102
{BLKREFS
331
53B9
331
53BA
331
53CE
331
53CF
331
53E6
331
53E7
331
53DA
331
53DB
331
53C5
331
5537
331
5538
331
5540
331
5541
331
5549
331
554A
331
5569
331
556A
331
5570
331
5571
331
5579
331
557A
331
5582
331
5583
331
558B
331
558C
331
5594
331
5595
331
55A0
331
55A1
331
55AA
331
55AB
331
55B3
331
55B4
331
55BC
331
55BD
331
55C5
331
55CB
331
55CC
331
55D4
331
55D5
331
55DD
331
55DE
331
55E6
331
55E7
331
55F1
331
55F2
331
55FA
331
55FB
331
5603
331
5604
331
560B
331
5611
331
5612
331
5619
331
561E
331
5636
331
5637
331
563F
331
5640
331
5648
331
5649
331
5651
331
5652
331
565A
331
565B
331
5665
331
5666
331
566E
331
566F
331
5677
331
5678
331
5680
331
5681
331
5694
331
5695
331
569D
331
569E
331
56A7
331
56A8
331
56AF
331
56B0
331
56BB
331
56BC
331
56C7
331
56C8
331
56D3
331
56D4
331
56DF
331
56E7
331
56E8
331
56F0
331
56F1
331
56F9
331
56FA
331
5702
331
5703
331
570B
331
57B6
331
57B7
331
57BF
331
57C0
331
57C8
331
57C9
331
57D1
331
57D2
331
57DA
331
57F0
331
57F1
331
5809
331
580A
331
581B
331
581C
331
582A
331
582B
331
5833
331
5834
331
583C
331
583D
331
5849
331
584A
331
585B
331
585C
331
5866
331
5867
331
5874
331
5875
331
587E
331
587F
102
}
  0
BLOCK_RECORD
  5
1510
330
1
100
AcDbSymbolTableRecord
100
AcDbBlockTableRecord
  2
A$C10A573AC
340
0
  0
BLOCK_RECORD
  5
3489
330
1
100
AcDbSymbolTableRecord
100
AcDbBlockTableRecord
  2
*D2
340
0
  0
BLOCK_RECORD
  5
3496
330
1
100
AcDbSymbolTableRecord
100
AcDbBlockTableRecord
  2
*D3
340
0
  0
BLOCK_RECORD
  5
384B
330
1
100
AcDbSymbolTableRecord
100
AcDbBlockTableRecord
  2
*D4
340
0
  0
BLOCK_RECORD
  5
38B4
330
1
100
AcDbSymbolTableRecord
100
AcDbBlockTableRecord
  2
*D5
340
0
  0
BLOCK_RECORD
  5
38C0
330
1
100
AcDbSymbolTableRecord
100
AcDbBlockTableRecord
  2
*D6
340
0
  0
BLOCK_RECORD
  5
38CB
330
1
100
AcDbSymbolTableRecord
100
AcDbBlockTableRecord
  2
*D7
340
0
  0
BLOCK_RECORD
  5
38D6
330
1
100
AcDbSymbolTableRecord
100
AcDbBlockTableRecord
  2
*D8
340
0
  0
BLOCK_RECORD
  5
390E
330
1
100
AcDbSymbolTableRecord
100
AcDbBlockTableRecord
  2
*D9
340
0
  0
BLOCK_RECORD
  5
3988
330
1
100
AcDbSymbolTableRecord
100
AcDbBlockTableRecord
  2
*D10
340
0
  0
BLOCK_RECORD
  5
39E1
330
1
100
AcDbSymbolTableRecord
100
AcDbBlockTableRecord
  2
*D11
340
0
  0
BLOCK_RECORD
  5
39EE
330
1
100
AcDbSymbolTableRecord
100
AcDbBlockTableRecord
  2
*D12
340
0
  0
BLOCK_RECORD
  5
39FB
330
1
100
AcDbSymbolTableRecord
100
AcDbBlockTableRecord
  2
*D13
340
0
  0
BLOCK_RECORD
  5
3A08
330
1
100
AcDbSymbolTableRecord
100
AcDbBlockTableRecord
  2
*D14
340
0
  0
BLOCK_RECORD
  5
3A15
330
1
100
AcDbSymbolTableRecord
100
AcDbBlockTableRecord
  2
*D15
340
0
  0
BLOCK_RECORD
  5
3A6A
330
1
100
AcDbSymbolTableRecord
100
AcDbBlockTableRecord
  2
*D16
340
0
  0
BLOCK_RECORD
  5
3AAD
330
1
100
AcDbSymbolTableRecord
100
AcDbBlockTableRecord
  2
*D17
340
0
  0
BLOCK_RECORD
  5
419B
330
1
100
AcDbSymbolTableRecord
100
AcDbBlockTableRecord
  2
*D18
340
0
  0
BLOCK_RECORD
  5
41A7
330
1
100
AcDbSymbolTableRecord
100
AcDbBlockTableRecord
  2
*D19
340
0
  0
BLOCK_RECORD
  5
41B0
330
1
100
AcDbSymbolTableRecord
100
AcDbBlockTableRecord
  2
*D20
340
0
  0
BLOCK_RECORD
  5
41C8
330
1
100
AcDbSymbolTableRecord
100
AcDbBlockTableRecord
  2
*D21
340
0
  0
BLOCK_RECORD
  5
41D6
330
1
100
AcDbSymbolTableRecord
100
AcDbBlockTableRecord
  2
*D22
340
0
  0
BLOCK_RECORD
  5
41E2
330
1
100
AcDbSymbolTableRecord
100
AcDbBlockTableRecord
  2
*D23
340
0
  0
BLOCK_RECORD
  5
41EE
330
1
100
AcDbSymbolTableRecord
100
AcDbBlockTableRecord
  2
*D24
340
0
  0
BLOCK_RECORD
  5
446F
330
1
100
AcDbSymbolTableRecord
100
AcDbBlockTableRecord
  2
*D25
340
0
  0
BLOCK_RECORD
  5
447B
330
1
100
AcDbSymbolTableRecord
100
AcDbBlockTableRecord
  2
*D26
340
0
  0
BLOCK_RECORD
  5
47C6
330
1
100
AcDbSymbolTableRecord
100
AcDbBlockTableRecord
  2
*D27
340
0
  0
BLOCK_RECORD
  5
47CE
330
1
100
AcDbSymbolTableRecord
100
AcDbBlockTableRecord
  2
*D28
340
0
  0
BLOCK_RECORD
  5
4925
330
1
100
AcDbSymbolTableRecord
100
AcDbBlockTableRecord
  2
*D29
340
0
  0
BLOCK_RECORD
  5
492E
330
1
100
AcDbSymbolTableRecord
100
AcDbBlockTableRecord
  2
*D30
340
0
  0
BLOCK_RECORD
  5
4B70
330
1
100
AcDbSymbolTableRecord
100
AcDbBlockTableRecord
  2
*D31
340
0
  0
BLOCK_RECORD
  5
4B7E
330
1
100
AcDbSymbolTableRecord
100
AcDbBlockTableRecord
  2
*D32
340
0
  0
BLOCK_RECORD
  5
4B8A
330
1
100
AcDbSymbolTableRecord
100
AcDbBlockTableRecord
  2
*D33
340
0
  0
BLOCK_RECORD
  5
4B96
330
1
100
AcDbSymbolTableRecord
100
AcDbBlockTableRecord
  2
*D34
340
0
  0
BLOCK_RECORD
  5
5138
330
1
100
AcDbSymbolTableRecord
100
AcDbBlockTableRecord
  2
*D35
340
0
  0
BLOCK_RECORD
  5
514F
330
1
100
AcDbSymbolTableRecord
100
AcDbBlockTableRecord
  2
*D36
340
0
  0
BLOCK_RECORD
  5
5169
330
1
100
AcDbSymbolTableRecord
100
AcDbBlockTableRecord
  2
*D37
340
0
  0
BLOCK_RECORD
  5
5176
330
1
100
AcDbSymbolTableRecord
100
AcDbBlockTableRecord
  2
*D38
340
0
  0
BLOCK_RECORD
  5
519E
330
1
100
AcDbSymbolTableRecord
100
AcDbBlockTableRecord
  2
*D39
340
0
  0
BLOCK_RECORD
  5
51AB
330
1
100
AcDbSymbolTableRecord
100
AcDbBlockTableRecord
  2
*D40
340
0
  0
BLOCK_RECORD
  5
51D3
330
1
100
AcDbSymbolTableRecord
100
AcDbBlockTableRecord
  2
*D41
340
0
  0
BLOCK_RECORD
  5
51F9
330
1
100
AcDbSymbolTableRecord
100
AcDbBlockTableRecord
  2
*D42
340
0
  0
BLOCK_RECORD
  5
5206
330
1
100
AcDbSymbolTableRecord
100
AcDbBlockTableRecord
  2
*D43
340
0
  0
BLOCK_RECORD
  5
5213
330
1
100
AcDbSymbolTableRecord
100
AcDbBlockTableRecord
  2
*D44
340
0
  0
BLOCK_RECORD
  5
523B
330
1
100
AcDbSymbolTableRecord
100
AcDbBlockTableRecord
  2
*D45
340
0
  0
BLOCK_RECORD
  5
5265
330
1
100
AcDbSymbolTableRecord
100
AcDbBlockTableRecord
  2
*D46
340
0
  0
BLOCK_RECORD
  5
533F
330
1
100
AcDbSymbolTableRecord
100
AcDbBlockTableRecord
  2
*D47
340
0
  0
BLOCK_RECORD
  5
5395
330
1
100
AcDbSymbolTableRecord
100
AcDbBlockTableRecord
  2
*D48
340
0
  0
BLOCK_RECORD
  5
577A
330
1
100
AcDbSymbolTableRecord
100
AcDbBlockTableRecord
  2
*D64
340
0
  0
BLOCK_RECORD
  5
5786
330
1
100
AcDbSymbolTableRecord
100
AcDbBlockTableRecord
  2
*D65
340
0
  0
BLOCK_RECORD
  5
5792
330
1
100
AcDbSymbolTableRecord
100
AcDbBlockTableRecord
  2
*D66
340
0
  0
BLOCK_RECORD
  5
579E
330
1
100
AcDbSymbolTableRecord
100
AcDbBlockTableRecord
  2
*D67
340
0
  0
BLOCK_RECORD
  5
57AA
330
1
100
AcDbSymbolTableRecord
100
AcDbBlockTableRecord
  2
*D68
340
0
  0
BLOCK_RECORD
  5
5845
330
1
100
AcDbSymbolTableRecord
100
AcDbBlockTableRecord
  2
*D69
340
0
  0
BLOCK_RECORD
  5
5857
330
1
100
AcDbSymbolTableRecord
100
AcDbBlockTableRecord
  2
*D70
340
0
  0
BLOCK_RECORD
  5
586F
330
1
100
AcDbSymbolTableRecord
100
AcDbBlockTableRecord
  2
*D71
340
0
  0
ENDTAB
  0
ENDSEC
  0
SECTION
  2
BLOCKS
  0
BLOCK
  5
20
330
1F
100
AcDbEntity
  8
0
100
AcDbBlockBegin
  2
*Model_Space
 70
     0
 10
0.0
 20
0.0
 30
0.0
  3
*Model_Space
  1

  0
ENDBLK
  5
21
330
1F
100
AcDbEntity
  8
0
100
AcDbBlockEnd
  0
BLOCK
  5
1C
330
1B
100
AcDbEntity
 67
     1
  8
0
100
AcDbBlockBegin
  2
*Paper_Space
 70
     0
 10
0.0
 20
0.0
 30
0.0
  3
*Paper_Space
  1

  0
ENDBLK
  5
1D
330
1B
100
AcDbEntity
 67
     1
  8
0
100
AcDbBlockEnd
  0
BLOCK
  5
A0
330
9B
100
AcDbEntity
  8
0
100
AcDbBlockBegin
  2
_Closed
 70
     0
 10
0.0
 20
0.0
 30
0.0
  3
_Closed
  1

  0
LINE
  5
9C
330
9B
100
AcDbEntity
  8
0
 62
     0
370
    -2
100
AcDbLine
 10
-1.0
 20
0.1666666666666666
 30
0.0
 11
0.0
 21
0.0
 31
0.0
  0
LINE
  5
9D
330
9B
100
AcDbEntity
  8
0
 62
     0
370
    -2
100
AcDbLine
 10
0.0
 20
0.0
 30
0.0
 11
-1.0
 21
-0.1666666666666666
 31
0.0
  0
LINE
  5
9E
330
9B
100
AcDbEntity
  8
0
 62
     0
370
    -2
100
AcDbLine
 10
-1.0
 20
0.1666666666666666
 30
0.0
 11
-1.0
 21
-0.1666666666666666
 31
0.0
  0
LINE
  5
9F
330
9B
100
AcDbEntity
  8
0
 62
     0
370
    -2
100
AcDbLine
 10
0.0
 20
0.0
 30
0.0
 11
-1.0
 21
0.0
 31
0.0
  0
ENDBLK
  5
A1
330
9B
100
AcDbEntity
  8
0
100
AcDbBlockEnd
  0
BLOCK
  5
155B
330
1510
100
AcDbEntity
  8
0
100
AcDbBlockBegin
  2
A$C10A573AC
 70
     0
 10
0.0
 20
0.0
 30
0.0
  3
A$C10A573AC
  1

  0
TEXT
  5
1511
330
1510
100
AcDbEntity
  8
文字
100
AcDbText
 10
0.9844302777919438
 20
5.224957122252135
 30
0.0
 40
3.0
  1
Materal : Steel.
 51
15.0
  7
OKANO
100
AcDbText
  0
TEXT
  5
1512
330
1510
100
AcDbEntity
  8
文字
100
AcDbText
 10
-0.1141909619694843
 20
0.7500001922403499
 30
0.0
 40
3.0
  1
Surface treatment : Electro galvanized.
 51
15.0
  7
OKANO
100
AcDbText
  0
TEXT
  5
1513
330
1510
100
AcDbEntity
  8
文字
100
AcDbText
 10
-0.4901926332574931
 20
9.159967445193728
 30
0.0
 40
3.0
  1
5 TORGUE SCREW  M5-6
 51
15.0
  7
OKANO
100
AcDbText
  0
TEXT
  5
1514
330
1510
100
AcDbEntity
  8
文字
100
AcDbText
 10
1.364713526390005
 20
78.88822913323082
 30
0.0
 40
3.0
  1
Special standard,
 51
15.0
  7
OKANO
100
AcDbText
  0
TEXT
  5
1515
330
1510
100
AcDbEntity
  8
文字
100
AcDbText
 10
92.88160823408942
 20
89.92753849837379
 30
0.0
 40
3.0
  1
Screw Type
 51
15.0
  7
OKANO
100
AcDbText
  0
LINE
  5
1516
330
1510
100
AcDbEntity
  8
太線
100
AcDbLine
 10
113.9464587597784
 20
81.93930390144641
 30
0.0
 11
112.4464587597784
 21
81.93930390144641
 31
0.0
  0
LINE
  5
1517
330
1510
100
AcDbEntity
  8
太線
100
AcDbLine
 10
112.4464587597784
 20
76.9393039014464
 30
0.0
 11
121.4644995438761
 21
76.9393039014464
 31
0.0
  0
TEXT
  5
1518
330
1510
100
AcDbEntity
  8
文字
100
AcDbText
 10
93.46068240437217
 20
77.96976862235396
 30
0.0
 40
2.0
  1
17-30
 51
15.0
  7
OKANO
100
AcDbText
  0
LINE
  5
1519
330
1510
100
AcDbEntity
  8
太線
100
AcDbLine
 10
111.9464587597784
 20
81.43930390144641
 30
0.0
 11
111.9464587597784
 21
77.4393039014464
 31
0.0
  0
LINE
  5
151A
330
1510
100
AcDbEntity
  8
太線
100
AcDbLine
 10
91.94645875977846
 20
81.43930390144641
 30
0.0
 11
91.94645875977846
 21
77.43930390144639
 31
0.0
  0
LINE
  5
151B
330
1510
100
AcDbEntity
  8
太線
100
AcDbLine
 10
101.9644995438761
 20
77.4393039014464
 30
0.0
 11
101.9644995438761
 21
81.43930390144641
 31
0.0
  0
LINE
  5
151C
330
1510
100
AcDbEntity
  8
太線
100
AcDbLine
 10
92.44645875977846
 20
76.9393039014464
 30
0.0
 11
101.4644995438761
 21
76.9393039014464
 31
0.0
  0
ARC
  5
151D
330
1510
100
AcDbEntity
  8
太線
100
AcDbCircle
 10
92.44645875977846
 20
77.43930390144639
 30
0.0
 40
0.5
100
AcDbArc
 50
180.0
 51
270.0
  0
ARC
  5
151E
330
1510
100
AcDbEntity
  8
太線
100
AcDbCircle
 10
101.4644995438761
 20
77.4393039014464
 30
0.0
 40
0.5
100
AcDbArc
 50
270.0
 51
0.0
  0
ARC
  5
151F
330
1510
100
AcDbEntity
  8
太線
100
AcDbCircle
 10
112.4464587597784
 20
77.4393039014464
 30
0.0
 40
0.5
100
AcDbArc
 50
180.0
 51
270.0
  0
LINE
  5
1520
330
1510
100
AcDbEntity
  8
想像線
100
AcDbLine
 10
93.94645875977847
 20
81.93930390144641
 30
0.0
 11
99.96449954387617
 21
81.93930390144641
 31
0.0
  0
LINE
  5
1521
330
1510
100
AcDbEntity
  8
極太線
100
AcDbLine
 10
96.38762957111168
 20
85.43930390144641
 30
0.0
 11
97.50528794844525
 21
85.43930390144641
 31
0.0
  0
CIRCLE
  5
1522
330
1510
100
AcDbEntity
  8
太線
100
AcDbCircle
 10
96.94645875977847
 20
85.43930390144641
 30
0.0
 40
0.5588291886667776
  0
LINE
  5
1523
330
1510
100
AcDbEntity
  8
太線
100
AcDbLine
 10
99.46449954387617
 20
86.93930390144641
 30
0.0
 11
94.44645875977846
 21
86.93930390144641
 31
0.0
  0
LINE
  5
1524
330
1510
100
AcDbEntity
  8
太線
100
AcDbLine
 10
93.94645875977847
 20
86.43930390144641
 30
0.0
 11
93.94645875977847
 21
81.93930390144641
 31
0.0
  0
ARC
  5
1525
330
1510
100
AcDbEntity
  8
太線
100
AcDbCircle
 10
92.44645875977846
 20
81.43930390144641
 30
0.0
 40
0.5
100
AcDbArc
 50
90.0
 51
180.0
  0
LINE
  5
1526
330
1510
100
AcDbEntity
  8
太線
100
AcDbLine
 10
93.94645875977847
 20
81.93930390144641
 30
0.0
 11
92.44645875977846
 21
81.93930390144641
 31
0.0
  0
ARC
  5
1527
330
1510
100
AcDbEntity
  8
太線
100
AcDbCircle
 10
94.44645875977846
 20
86.43930390144641
 30
0.0
 40
0.5
100
AcDbArc
 50
90.0
 51
180.0
  0
LINE
  5
1528
330
1510
100
AcDbEntity
  8
太線
100
AcDbLine
 10
99.96449954387617
 20
81.93930390144641
 30
0.0
 11
99.96449954387617
 21
86.43930390144641
 31
0.0
  0
LINE
  5
1529
330
1510
100
AcDbEntity
  8
太線
100
AcDbLine
 10
101.4644995438761
 20
81.93930390144641
 30
0.0
 11
99.96449954387617
 21
81.93930390144641
 31
0.0
  0
ARC
  5
152A
330
1510
100
AcDbEntity
  8
太線
100
AcDbCircle
 10
101.4644995438761
 20
81.43930390144641
 30
0.0
 40
0.5
100
AcDbArc
 50
0.0
 51
90.0
  0
ARC
  5
152B
330
1510
100
AcDbEntity
  8
太線
100
AcDbCircle
 10
99.46449954387617
 20
86.43930390144641
 30
0.0
 40
0.5
100
AcDbArc
 50
0.0
 51
90.0
  0
LINE
  5
152C
330
1510
100
AcDbEntity
  8
極太線
100
AcDbLine
 10
96.94645875977847
 20
85.99813309011318
 30
0.0
 11
96.94645875977847
 21
84.88047471277964
 31
0.0
  0
ARC
  5
152D
330
1510
100
AcDbEntity
  8
太線
100
AcDbCircle
 10
112.4464587597784
 20
81.43930390144641
 30
0.0
 40
0.5
100
AcDbArc
 50
90.0
 51
180.0
  0
TEXT
  5
152E
330
1510
100
AcDbEntity
  8
文字
100
AcDbText
 10
134.3819212586066
 20
78.16263579228063
 30
0.0
 40
2.0
  1
101
 51
15.0
  7
OKANO
100
AcDbText
  0
TEXT
  5
152F
330
1510
100
AcDbEntity
  8
文字
100
AcDbText
 10
113.3422276612066
 20
77.96976862235396
 30
0.0
 40
2.0
  1
38-83
 51
15.0
  7
OKANO
100
AcDbText
  0
LINE
  5
1530
330
1510
100
AcDbEntity
  8
太線
100
AcDbLine
 10
141.9825403279738
 20
77.4393039014464
 30
0.0
 11
141.9825403279738
 21
81.43930390144641
 31
0.0
  0
LINE
  5
1531
330
1510
100
AcDbEntity
  8
太線
100
AcDbLine
 10
131.9644995438761
 20
81.43930390144641
 30
0.0
 11
131.9644995438761
 21
77.4393039014464
 31
0.0
  0
LINE
  5
1532
330
1510
100
AcDbEntity
  8
太線
100
AcDbLine
 10
121.9644995438761
 20
77.4393039014464
 30
0.0
 11
121.9644995438761
 21
81.43930390144641
 31
0.0
  0
ARC
  5
1533
330
1510
100
AcDbEntity
  8
太線
100
AcDbCircle
 10
121.4644995438761
 20
77.4393039014464
 30
0.0
 40
0.5
100
AcDbArc
 50
270.0
 51
0.0
  0
LINE
  5
1534
330
1510
100
AcDbEntity
  8
太線
100
AcDbLine
 10
132.4644995438761
 20
76.9393039014464
 30
0.0
 11
141.4825403279738
 21
76.9393039014464
 31
0.0
  0
ARC
  5
1535
330
1510
100
AcDbEntity
  8
太線
100
AcDbCircle
 10
132.4644995438761
 20
77.4393039014464
 30
0.0
 40
0.5
100
AcDbArc
 50
180.0
 51
270.0
  0
ARC
  5
1536
330
1510
100
AcDbEntity
  8
太線
100
AcDbCircle
 10
141.4825403279738
 20
77.4393039014464
 30
0.0
 40
0.5
100
AcDbArc
 50
270.0
 51
0.0
  0
ARC
  5
1537
330
1510
100
AcDbEntity
  8
太線
100
AcDbCircle
 10
121.4644995438761
 20
81.43930390144641
 30
0.0
 40
0.5
100
AcDbArc
 50
0.0
 51
90.0
  0
LINE
  5
1538
330
1510
100
AcDbEntity
  8
太線
100
AcDbLine
 10
119.9644995438761
 20
81.93930390144641
 30
0.0
 11
119.9644995438761
 21
86.43930390144641
 31
0.0
  0
LINE
  5
1539
330
1510
100
AcDbEntity
  8
太線
100
AcDbLine
 10
113.9464587597784
 20
86.43930390144641
 30
0.0
 11
113.9464587597784
 21
81.93930390144641
 31
0.0
  0
LINE
  5
153A
330
1510
100
AcDbEntity
  8
想像線
100
AcDbLine
 10
113.9464587597784
 20
81.93930390144641
 30
0.0
 11
119.9644995438761
 21
81.93930390144641
 31
0.0
  0
LINE
  5
153B
330
1510
100
AcDbEntity
  8
太線
100
AcDbLine
 10
121.4644995438761
 20
81.93930390144641
 30
0.0
 11
119.9644995438761
 21
81.93930390144641
 31
0.0
  0
LINE
  5
153C
330
1510
100
AcDbEntity
  8
太線
100
AcDbLine
 10
119.4644995438761
 20
86.93930390144641
 30
0.0
 11
114.4464587597784
 21
86.93930390144641
 31
0.0
  0
ARC
  5
153D
330
1510
100
AcDbEntity
  8
太線
100
AcDbCircle
 10
114.4464587597784
 20
86.43930390144641
 30
0.0
 40
0.5
100
AcDbArc
 50
90.0
 51
180.0
  0
CIRCLE
  5
153E
330
1510
100
AcDbEntity
  8
太線
100
AcDbCircle
 10
115.4464587597784
 20
85.43930390144641
 30
0.0
 40
0.5588291886667776
  0
LINE
  5
153F
330
1510
100
AcDbEntity
  8
極太線
100
AcDbLine
 10
115.4464587597784
 20
85.99813309011318
 30
0.0
 11
115.4464587597784
 21
84.88047471277964
 31
0.0
  0
LINE
  5
1540
330
1510
100
AcDbEntity
  8
極太線
100
AcDbLine
 10
114.8876295711116
 20
85.43930390144641
 30
0.0
 11
116.0052879484452
 21
85.43930390144641
 31
0.0
  0
ARC
  5
1541
330
1510
100
AcDbEntity
  8
太線
100
AcDbCircle
 10
119.4644995438761
 20
86.43930390144641
 30
0.0
 40
0.5
100
AcDbArc
 50
0.0
 51
90.0
  0
LINE
  5
1542
330
1510
100
AcDbEntity
  8
極太線
100
AcDbLine
 10
117.9056703552094
 20
85.43930390144641
 30
0.0
 11
119.0233287325429
 21
85.43930390144641
 31
0.0
  0
LINE
  5
1543
330
1510
100
AcDbEntity
  8
極太線
100
AcDbLine
 10
118.4644995438761
 20
85.99813309011318
 30
0.0
 11
118.4644995438761
 21
84.88047471277964
 31
0.0
  0
CIRCLE
  5
1544
330
1510
100
AcDbEntity
  8
太線
100
AcDbCircle
 10
118.4644995438761
 20
85.43930390144641
 30
0.0
 40
0.5588291886667776
  0
LINE
  5
1545
330
1510
100
AcDbEntity
  8
想像線
100
AcDbLine
 10
133.9644995438761
 20
81.93930390144641
 30
0.0
 11
139.9825403279738
 21
81.93930390144641
 31
0.0
  0
LINE
  5
1546
330
1510
100
AcDbEntity
  8
極太線
100
AcDbLine
 10
137.9237111393071
 20
85.43930390144641
 30
0.0
 11
139.0413695166406
 21
85.43930390144641
 31
0.0
  0
CIRCLE
  5
1547
330
1510
100
AcDbEntity
  8
太線
100
AcDbCircle
 10
138.4825403279738
 20
85.43930390144641
 30
0.0
 40
0.5588291886667776
  0
CIRCLE
  5
1548
330
1510
100
AcDbEntity
  8
太線
100
AcDbCircle
 10
138.4825403279738
 20
83.26342923362075
 30
0.0
 40
0.5588291886667776
  0
LINE
  5
1549
330
1510
100
AcDbEntity
  8
極太線
100
AcDbLine
 10
137.9237111393071
 20
83.26342923362075
 30
0.0
 11
139.0413695166406
 21
83.26342923362075
 31
0.0
  0
LINE
  5
154A
330
1510
100
AcDbEntity
  8
太線
100
AcDbLine
 10
139.4825403279738
 20
86.93930390144641
 30
0.0
 11
134.4644995438761
 21
86.93930390144641
 31
0.0
  0
LINE
  5
154B
330
1510
100
AcDbEntity
  8
太線
100
AcDbLine
 10
133.9644995438761
 20
86.43930390144641
 30
0.0
 11
133.9644995438761
 21
81.93930390144641
 31
0.0
  0
ARC
  5
154C
330
1510
100
AcDbEntity
  8
太線
100
AcDbCircle
 10
132.4644995438761
 20
81.43930390144641
 30
0.0
 40
0.5
100
AcDbArc
 50
90.0
 51
180.0
  0
LINE
  5
154D
330
1510
100
AcDbEntity
  8
太線
100
AcDbLine
 10
133.9644995438761
 20
81.93930390144641
 30
0.0
 11
132.4644995438761
 21
81.93930390144641
 31
0.0
  0
LINE
  5
154E
330
1510
100
AcDbEntity
  8
極太線
100
AcDbLine
 10
134.9056703552093
 20
83.26342923362075
 30
0.0
 11
136.0233287325429
 21
83.26342923362075
 31
0.0
  0
LINE
  5
154F
330
1510
100
AcDbEntity
  8
極太線
100
AcDbLine
 10
135.4644995438761
 20
83.82225842228752
 30
0.0
 11
135.4644995438761
 21
82.70460004495395
 31
0.0
  0
CIRCLE
  5
1550
330
1510
100
AcDbEntity
  8
太線
100
AcDbCircle
 10
135.4644995438761
 20
83.26342923362075
 30
0.0
 40
0.5588291886667776
  0
ARC
  5
1551
330
1510
100
AcDbEntity
  8
太線
100
AcDbCircle
 10
134.4644995438761
 20
86.43930390144641
 30
0.0
 40
0.5
100
AcDbArc
 50
90.0
 51
180.0
  0
CIRCLE
  5
1552
330
1510
100
AcDbEntity
  8
太線
100
AcDbCircle
 10
135.4644995438761
 20
85.43930390144641
 30
0.0
 40
0.5588291886667776
  0
LINE
  5
1553
330
1510
100
AcDbEntity
  8
極太線
100
AcDbLine
 10
135.4644995438761
 20
85.99813309011318
 30
0.0
 11
135.4644995438761
 21
84.88047471277964
 31
0.0
  0
LINE
  5
1554
330
1510
100
AcDbEntity
  8
極太線
100
AcDbLine
 10
134.9056703552093
 20
85.43930390144641
 30
0.0
 11
136.0233287325429
 21
85.43930390144641
 31
0.0
  0
LINE
  5
1555
330
1510
100
AcDbEntity
  8
太線
100
AcDbLine
 10
139.9825403279738
 20
81.93930390144641
 30
0.0
 11
139.9825403279738
 21
86.43930390144641
 31
0.0
  0
ARC
  5
1556
330
1510
100
AcDbEntity
  8
太線
100
AcDbCircle
 10
141.4825403279738
 20
81.43930390144641
 30
0.0
 40
0.5
100
AcDbArc
 50
0.0
 51
90.0
  0
LINE
  5
1557
330
1510
100
AcDbEntity
  8
極太線
100
AcDbLine
 10
138.4825403279738
 20
83.82225842228752
 30
0.0
 11
138.4825403279738
 21
82.70460004495395
 31
0.0
  0
LINE
  5
1558
330
1510
100
AcDbEntity
  8
太線
100
AcDbLine
 10
141.4825403279738
 20
81.93930390144641
 30
0.0
 11
139.9825403279738
 21
81.93930390144641
 31
0.0
  0
ARC
  5
1559
330
1510
100
AcDbEntity
  8
太線
100
AcDbCircle
 10
139.4825403279738
 20
86.43930390144641
 30
0.0
 40
0.5
100
AcDbArc
 50
0.0
 51
90.0
  0
LINE
  5
155A
330
1510
100
AcDbEntity
  8
極太線
100
AcDbLine
 10
138.4825403279738
 20
85.99813309011318
 30
0.0
 11
138.4825403279738
 21
84.88047471277964
 31
0.0
  0
ENDBLK
  5
155C
330
1510
100
AcDbEntity
  8
0
100
AcDbBlockEnd
  0
BLOCK
  5
3493
330
3489
100
AcDbEntity
  8
0
100
AcDbBlockBegin
  2
*D2
 70
     1
 10
0.0
 20
0.0
 30
0.0
  3
*D2
  1

  0
LINE
  5
5534
330
3489
100
AcDbEntity
  8
寸法線
 62
     0
370
    -2
100
AcDbLine
 10
610.9990407119219
 20
-182.7849011309316
 30
0.0
 11
616.882091750088
 21
-182.7849011309316
 31
0.0
  0
LINE
  5
5535
330
3489
100
AcDbEntity
  8
寸法線
 62
     0
370
    -2
100
AcDbLine
 10
588.499040711922
 20
-42.78490113093164
 30
0.0
 11
616.882091750088
 21
-42.78490113093165
 31
0.0
  0
LINE
  5
5536
330
3489
100
AcDbEntity
  8
寸法線
 62
     0
370
    -2
100
AcDbLine
 10
613.882091750088
 20
-179.7849011309316
 30
0.0
 11
613.882091750088
 21
-45.78490113093165
 31
0.0
  0
INSERT
  5
5537
330
3489
100
AcDbEntity
  8
寸法線
 62
     0
370
    -2
100
AcDbBlockReference
  2
_Closed
 10
613.882091750088
 20
-182.7849011309316
 30
0.0
 41
3.0
 42
3.0
 43
3.0
 50
270.0
  0
INSERT
  5
5538
330
3489
100
AcDbEntity
  8
寸法線
 62
     0
370
    -2
100
AcDbBlockReference
  2
_Closed
 10
613.882091750088
 20
-42.78490113093165
 30
0.0
 41
3.0
 42
3.0
 43
3.0
 50
90.0
  0
MTEXT
  5
5539
330
3489
100
AcDbEntity
  8
寸法線
 62
     0
100
AcDbMText
 10
610.3820917500881
 20
-112.7849011309315
 30
0.0
 40
5.0
 41
0.0
 71
     5
 72
     1
  1
140
  7
OKANO
 11
0.0000000000000001
 21
1.0
 31
0.0
 73
     1
 44
1.0
  0
POINT
  5
553A
330
3489
100
AcDbEntity
  8
Defpoints
 62
     0
100
AcDbPoint
 10
608.999040711922
 20
-182.7849011309316
 30
0.0
  0
POINT
  5
553B
330
3489
100
AcDbEntity
  8
Defpoints
 62
     0
100
AcDbPoint
 10
586.499040711922
 20
-42.78490113093164
 30
0.0
  0
POINT
  5
553C
330
3489
100
AcDbEntity
  8
Defpoints
 62
     0
100
AcDbPoint
 10
613.882091750088
 20
-42.78490113093165
 30
0.0
  0
ENDBLK
  5
3494
330
3489
100
AcDbEntity
  8
0
100
AcDbBlockEnd
  0
BLOCK
  5
34A0
330
3496
100
AcDbEntity
  8
0
100
AcDbBlockBegin
  2
*D3
 70
     1
 10
0.0
 20
0.0
 30
0.0
  3
*D3
  1

  0
LINE
  5
553D
330
3496
100
AcDbEntity
  8
寸法線
 62
     0
370
    -2
100
AcDbLine
 10
773.9293181026775
 20
-182.2435412987926
 30
0.0
 11
776.6408324806493
 21
-182.2435412987926
 31
0.0
  0
LINE
  5
553E
330
3496
100
AcDbEntity
  8
寸法線
 62
     0
370
    -2
100
AcDbLine
 10
722.3250123388661
 20
-42.78490113093164
 30
0.0
 11
776.6408324806493
 21
-42.78490113093165
 31
0.0
  0
LINE
  5
553F
330
3496
100
AcDbEntity
  8
寸法線
 62
     0
370
    -2
100
AcDbLine
 10
773.6408324806493
 20
-179.2435412987926
 30
0.0
 11
773.6408324806493
 21
-45.78490113093165
 31
0.0
  0
INSERT
  5
5540
330
3496
100
AcDbEntity
  8
寸法線
 62
     0
370
    -2
100
AcDbBlockReference
  2
_Closed
 10
773.6408324806493
 20
-182.2435412987926
 30
0.0
 41
3.0
 42
3.0
 43
3.0
 50
270.0
  0
INSERT
  5
5541
330
3496
100
AcDbEntity
  8
寸法線
 62
     0
370
    -2
100
AcDbBlockReference
  2
_Closed
 10
773.6408324806493
 20
-42.78490113093165
 30
0.0
 41
3.0
 42
3.0
 43
3.0
 50
90.0
  0
MTEXT
  5
5542
330
3496
100
AcDbEntity
  8
寸法線
 62
     0
100
AcDbMText
 10
770.1408324806493
 20
-112.514221214862
 30
0.0
 40
5.0
 41
0.0
 71
     5
 72
     1
  1
140
  7
OKANO
 11
0.0000000000000001
 21
1.0
 31
0.0
 73
     1
 44
1.0
  0
POINT
  5
5543
330
3496
100
AcDbEntity
  8
Defpoints
 62
     0
100
AcDbPoint
 10
771.9293181026776
 20
-182.2435412987926
 30
0.0
  0
POINT
  5
5544
330
3496
100
AcDbEntity
  8
Defpoints
 62
     0
100
AcDbPoint
 10
720.3250123388661
 20
-42.78490113093164
 30
0.0
  0
POINT
  5
5545
330
3496
100
AcDbEntity
  8
Defpoints
 62
     0
100
AcDbPoint
 10
773.6408324806493
 20
-42.78490113093165
 30
0.0
  0
ENDBLK
  5
34A1
330
3496
100
AcDbEntity
  8
0
100
AcDbBlockEnd
  0
BLOCK
  5
3855
330
384B
100
AcDbEntity
  8
0
100
AcDbBlockBegin
  2
*D4
 70
     1
 10
0.0
 20
0.0
 30
0.0
  3
*D4
  1

  0
LINE
  5
5546
330
384B
100
AcDbEntity
  8
寸法線
 62
     0
370
    -2
100
AcDbLine
 10
478.8181953934226
 20
-182.7849011309316
 30
0.0
 11
493.8597855691773
 21
-182.7849011309316
 31
0.0
  0
LINE
  5
5547
330
384B
100
AcDbEntity
  8
寸法線
 62
     0
370
    -2
100
AcDbLine
 10
456.3181953934226
 20
-42.78490113093164
 30
0.0
 11
493.8597855691774
 21
-42.78490113093165
 31
0.0
  0
LINE
  5
5548
330
384B
100
AcDbEntity
  8
寸法線
 62
     0
370
    -2
100
AcDbLine
 10
490.8597855691772
 20
-179.7849011309316
 30
0.0
 11
490.8597855691773
 21
-45.78490113093165
 31
0.0
  0
INSERT
  5
5549
330
384B
100
AcDbEntity
  8
寸法線
 62
     0
370
    -2
100
AcDbBlockReference
  2
_Closed
 10
490.8597855691772
 20
-182.7849011309316
 30
0.0
 41
3.0
 42
3.0
 43
3.0
 50
270.0
  0
INSERT
  5
554A
330
384B
100
AcDbEntity
  8
寸法線
 62
     0
370
    -2
100
AcDbBlockReference
  2
_Closed
 10
490.8597855691773
 20
-42.78490113093165
 30
0.0
 41
3.0
 42
3.0
 43
3.0
 50
90.0
  0
MTEXT
  5
554B
330
384B
100
AcDbEntity
  8
寸法線
 62
     0
100
AcDbMText
 10
487.3597855691773
 20
-112.7849011309315
 30
0.0
 40
5.0
 41
0.0
 71
     5
 72
     1
  1
140
  7
OKANO
 11
0.0000000000000001
 21
1.0
 31
0.0
 73
     1
 44
1.0
  0
POINT
  5
554C
330
384B
100
AcDbEntity
  8
Defpoints
 62
     0
100
AcDbPoint
 10
476.8181953934226
 20
-182.7849011309316
 30
0.0
  0
POINT
  5
554D
330
384B
100
AcDbEntity
  8
Defpoints
 62
     0
100
AcDbPoint
 10
454.3181953934227
 20
-42.78490113093164
 30
0.0
  0
POINT
  5
554E
330
384B
100
AcDbEntity
  8
Defpoints
 62
     0
100
AcDbPoint
 10
490.8597855691773
 20
-42.78490113093165
 30
0.0
  0
ENDBLK
  5
3856
330
384B
100
AcDbEntity
  8
0
100
AcDbBlockEnd
  0
BLOCK
  5
38BE
330
38B4
100
AcDbEntity
  8
0
100
AcDbBlockBegin
  2
*D5
 70
     1
 10
0.0
 20
0.0
 30
0.0
  3
*D5
  1

  0
LINE
  5
4D11
330
38B4
100
AcDbEntity
  8
寸法線
 62
     0
370
    -2
100
AcDbLine
 10
511.4990407119228
 20
147.9595454100096
 30
0.0
 11
511.4990407119228
 21
112.3195548362912
 31
0.0
  0
LINE
  5
4D12
330
38B4
100
AcDbEntity
  8
寸法線
 62
     0
370
    -2
100
AcDbLine
 10
581.4990407119219
 20
147.9595454100089
 30
0.0
 11
581.4990407119219
 21
112.3195548362912
 31
0.0
  0
LINE
  5
4D13
330
38B4
100
AcDbEntity
  8
寸法線
 62
     0
370
    -2
100
AcDbLine
 10
513.9990407119228
 20
113.5695548362912
 30
0.0
 11
578.999040711922
 21
113.5695548362912
 31
0.0
  0
SOLID
  5
4D14
330
38B4
100
AcDbEntity
  8
寸法線
 62
     0
100
AcDbTrace
 10
513.9990407119228
 20
113.9862215029579
 30
0.0
 11
513.9990407119228
 21
113.1528881696246
 31
0.0
 12
511.4990407119228
 22
113.5695548362912
 32
0.0
 13
511.4990407119228
 23
113.5695548362912
 33
0.0
  0
SOLID
  5
4D15
330
38B4
100
AcDbEntity
  8
寸法線
 62
     0
100
AcDbTrace
 10
578.999040711922
 20
113.9862215029579
 30
0.0
 11
578.999040711922
 21
113.1528881696246
 31
0.0
 12
581.4990407119219
 22
113.5695548362912
 32
0.0
 13
581.4990407119219
 23
113.5695548362912
 33
0.0
  0
MTEXT
  5
4D16
330
38B4
100
AcDbEntity
  8
寸法線
 62
     0
370
    25
100
AcDbMText
 10
546.4990407119223
 20
115.4445548362912
 30
0.0
 40
2.5
 41
0.0
 71
     5
 72
     1
  1
70
 73
     1
 44
1.0
  0
POINT
  5
4D17
330
38B4
100
AcDbEntity
  8
Defpoints
 62
     0
100
AcDbPoint
 10
511.4990407119228
 20
148.5845454100096
 30
0.0
  0
POINT
  5
4D18
330
38B4
100
AcDbEntity
  8
Defpoints
 62
     0
100
AcDbPoint
 10
581.4990407119219
 20
148.5845454100089
 30
0.0
  0
POINT
  5
4D19
330
38B4
100
AcDbEntity
  8
Defpoints
 62
     0
100
AcDbPoint
 10
581.4990407119219
 20
113.5695548362912
 30
0.0
  0
ENDBLK
  5
38BF
330
38B4
100
AcDbEntity
  8
0
100
AcDbBlockEnd
  0
BLOCK
  5
38C9
330
38C0
100
AcDbEntity
  8
0
100
AcDbBlockBegin
  2
*D6
 70
     1
 10
0.0
 20
0.0
 30
0.0
  3
*D6
  1

  0
LINE
  5
554F
330
38C0
100
AcDbEntity
  8
寸法線
 62
     0
370
    -2
100
AcDbLine
 10
594.7292267266278
 20
164.0249671160623
 30
0.0
 11
586.8670260211678
 21
154.84930667599
 31
0.0
  0
LINE
  5
5550
330
38C0
100
AcDbEntity
  8
寸法線
 62
     0
370
    -2
100
AcDbLine
 10
576.1310554026774
 20
142.3197841440291
 30
0.0
 11
574.5043931877546
 21
140.4213716391866
 31
0.0
  0
MTEXT
  5
5551
330
38C0
100
AcDbEntity
  8
寸法線
 62
     0
370
    25
100
AcDbMText
 10
590.1876481027273
 20
161.6063398096395
 30
0.0
 40
2.5
 41
0.0
 71
     5
 72
     1
  1
\U+220511.5
 11
0.6506648859691066
 21
0.7593650019370195
 31
0.0
 73
     1
 44
1.0
  0
LINE
  5
5552
330
38C0
100
AcDbEntity
  8
寸法線
 62
     0
370
    -2
100
AcDbLine
 10
577.7577176176002
 20
144.2181966488717
 30
0.0
 11
585.2403638062451
 21
152.9508941711475
 31
0.0
  0
SOLID
  5
5553
330
38C0
100
AcDbEntity
  8
寸法線
 62
     0
100
AcDbTrace
 10
575.814653318537
 20
142.5908945131829
 30
0.0
 11
576.4474574868179
 21
142.0486737748753
 31
0.0
 12
577.7577176176002
 22
144.2181966488717
 32
0.0
 13
577.7577176176002
 23
144.2181966488717
 33
0.0
  0
SOLID
  5
5554
330
38C0
100
AcDbEntity
  8
寸法線
 62
     0
100
AcDbTrace
 10
586.5506239370273
 20
155.1204170451438
 30
0.0
 11
587.1834281053082
 21
154.5781963068362
 31
0.0
 12
585.2403638062451
 22
152.9508941711475
 32
0.0
 13
585.2403638062451
 23
152.9508941711475
 33
0.0
  0
POINT
  5
5555
330
38C0
100
AcDbEntity
  8
Defpoints
 62
     0
100
AcDbPoint
 10
585.2403638062451
 20
152.9508941711475
 30
0.0
  0
POINT
  5
5556
330
38C0
100
AcDbEntity
  8
Defpoints
 62
     0
100
AcDbPoint
 10
577.7577176176002
 20
144.2181966488717
 30
0.0
  0
ENDBLK
  5
38CA
330
38C0
100
AcDbEntity
  8
0
100
AcDbBlockEnd
  0
BLOCK
  5
38D4
330
38CB
100
AcDbEntity
  8
0
100
AcDbBlockBegin
  2
*D7
 70
     1
 10
0.0
 20
0.0
 30
0.0
  3
*D7
  1

  0
LINE
  5
5557
330
38CB
100
AcDbEntity
  8
寸法線
 62
     0
370
    -2
100
AcDbLine
 10
532.4292881008241
 20
157.8003017832164
 30
0.0
 11
518.8207293015036
 21
151.8083438213865
 31
0.0
  0
LINE
  5
5558
330
38CB
100
AcDbEntity
  8
寸法線
 62
     0
370
    -2
100
AcDbLine
 10
504.1773521223413
 20
145.3607469986325
 30
0.0
 11
501.8893244380972
 21
144.3533099950771
 31
0.0
  0
MTEXT
  5
5559
330
38CB
100
AcDbEntity
  8
寸法線
 62
     0
370
    25
100
AcDbMText
 10
528.8136757428524
 20
158.2570262919554
 30
0.0
 40
2.5
 41
0.0
 71
     5
 72
     1
  1
\U+220511
 11
0.9152110736976451
 21
0.4029748014221285
 31
0.0
 73
     1
 44
1.0
  0
LINE
  5
555A
330
38CB
100
AcDbEntity
  8
寸法線
 62
     0
370
    -2
100
AcDbLine
 10
506.4653798065855
 20
146.3681840021878
 30
0.0
 11
516.5327016172596
 21
150.8009068178312
 31
0.0
  0
SOLID
  5
555B
330
38CB
100
AcDbEntity
  8
寸法線
 62
     0
100
AcDbTrace
 10
504.0094459550822
 20
145.7420849460065
 30
0.0
 11
504.3452582896006
 21
144.9794090512584
 31
0.0
 12
506.4653798065855
 22
146.3681840021878
 32
0.0
 13
506.4653798065855
 23
146.3681840021878
 33
0.0
  0
SOLID
  5
555C
330
38CB
100
AcDbEntity
  8
寸法線
 62
     0
100
AcDbTrace
 10
518.6528231342444
 20
152.1896817687605
 30
0.0
 11
518.9886354687629
 21
151.4270058740125
 31
0.0
 12
516.5327016172596
 22
150.8009068178312
 32
0.0
 13
516.5327016172596
 23
150.8009068178312
 33
0.0
  0
POINT
  5
555D
330
38CB
100
AcDbEntity
  8
Defpoints
 62
     0
100
AcDbPoint
 10
516.5327016172596
 20
150.8009068178312
 30
0.0
  0
POINT
  5
555E
330
38CB
100
AcDbEntity
  8
Defpoints
 62
     0
100
AcDbPoint
 10
506.4653798065855
 20
146.3681840021878
 30
0.0
  0
ENDBLK
  5
38D5
330
38CB
100
AcDbEntity
  8
0
100
AcDbBlockEnd
  0
BLOCK
  5
38DD
330
38D6
100
AcDbEntity
  8
0
100
AcDbBlockBegin
  2
*D8
 70
     1
 10
0.0
 20
0.0
 30
0.0
  3
*D8
  1

  0
LINE
  5
555F
330
38D6
100
AcDbEntity
  8
寸法線
 62
     0
370
    -2
100
AcDbLine
 10
490.2521282476265
 20
157.8857805615184
 30
0.0
 11
499.4127971775417
 21
153.875525612455
 31
0.0
  0
MTEXT
  5
5560
330
38D6
100
AcDbEntity
  8
寸法線
 62
     0
370
    25
100
AcDbMText
 10
494.4393018992941
 20
158.0995603799787
 30
0.0
 40
2.5
 41
0.0
 71
     5
 72
     1
  1
10.5
 11
0.9160668929915143
 21
-0.4010254949063383
 31
0.0
 73
     1
 44
1.0
  0
LINE
  5
5561
330
38D6
100
AcDbEntity
  8
寸法線
 62
     0
370
    -2
100
AcDbLine
 10
511.4990407119226
 20
148.5845454100096
 30
0.0
 11
501.7029644100204
 21
152.8729618751891
 31
0.0
  0
SOLID
  5
5562
330
38D6
100
AcDbEntity
  8
寸法線
 62
     0
100
AcDbTrace
 10
499.5798911337526
 20
154.2572201512015
 30
0.0
 11
499.2457032213307
 21
153.4938310737085
 31
0.0
 12
501.7029644100204
 22
152.8729618751891
 32
0.0
 13
501.7029644100204
 23
152.8729618751891
 33
0.0
  0
POINT
  5
5563
330
38D6
100
AcDbEntity
  8
Defpoints
 62
     0
100
AcDbPoint
 10
501.7029644100204
 20
152.8729618751891
 30
0.0
  0
POINT
  5
5564
330
38D6
100
AcDbEntity
  8
Defpoints
 62
     0
100
AcDbPoint
 10
511.4990407119226
 20
148.5845454100096
 30
0.0
  0
ENDBLK
  5
38DE
330
38D6
100
AcDbEntity
  8
0
100
AcDbBlockEnd
  0
BLOCK
  5
3917
330
390E
100
AcDbEntity
  8
0
100
AcDbBlockBegin
  2
*D9
 70
     1
 10
0.0
 20
0.0
 30
0.0
  3
*D9
  1

  0
LINE
  5
5565
330
390E
100
AcDbEntity
  8
寸法線
 62
     0
370
    -2
100
AcDbLine
 10
552.9394046751041
 20
186.6574142436691
 30
0.0
 11
576.2484542560084
 21
155.5841055296863
 31
0.0
  0
LINE
  5
5566
330
390E
100
AcDbEntity
  8
寸法線
 62
     0
370
    -2
100
AcDbLine
 10
586.7496271678365
 20
141.5849852903322
 30
0.0
 11
588.5498282384356
 21
139.185136106443
 31
0.0
  0
MTEXT
  5
5567
330
390E
100
AcDbEntity
  8
寸法線
 62
     0
100
AcDbMText
 10
558.3323346785375
 20
185.3007776393486
 30
0.0
 40
5.0
 41
0.0
 71
     5
 72
     1
  1
30
  7
OKANO
 11
0.6000670235330255
 21
-0.7999497279630862
 31
0.0
 73
     1
 44
1.0
  0
LINE
  5
5568
330
390E
100
AcDbEntity
  8
寸法線
 62
     0
370
    -2
100
AcDbLine
 10
584.9494260972374
 20
143.9848344742215
 30
0.0
 11
578.0486553266075
 21
153.184256345797
 31
0.0
  0
INSERT
  5
5569
330
390E
100
AcDbEntity
  8
寸法線
 62
     0
370
    -2
100
AcDbBlockReference
  2
_Closed
 10
584.9494260972374
 20
143.9848344742215
 30
0.0
 41
3.0
 42
3.0
 43
3.0
 50
126.8746980036315
  0
INSERT
  5
556A
330
390E
100
AcDbEntity
  8
寸法線
 62
     0
370
    -2
100
AcDbBlockReference
  2
_Closed
 10
578.0486553266075
 20
153.184256345797
 30
0.0
 41
3.0
 42
3.0
 43
3.0
 50
306.8746980036316
  0
POINT
  5
556B
330
390E
100
AcDbEntity
  8
Defpoints
 62
     0
100
AcDbPoint
 10
578.0486553266075
 20
153.184256345797
 30
0.0
  0
POINT
  5
556C
330
390E
100
AcDbEntity
  8
Defpoints
 62
     0
100
AcDbPoint
 10
584.9494260972374
 20
143.9848344742215
 30
0.0
  0
ENDBLK
  5
3918
330
390E
100
AcDbEntity
  8
0
100
AcDbBlockEnd
  0
BLOCK
  5
3993
330
3988
100
AcDbEntity
  8
0
100
AcDbBlockBegin
  2
*D10
 70
     1
 10
0.0
 20
0.0
 30
0.0
  3
*D10
  1

  0
LINE
  5
556D
330
3988
100
AcDbEntity
  8
寸法線
 62
     0
370
    -2
100
AcDbLine
 10
516.3553551751537
 20
-177.1343924073237
 30
0.0
 11
516.3553551751537
 21
-165.7013154270896
 31
0.0
  0
LINE
  5
556E
330
3988
100
AcDbEntity
  8
寸法線
 62
     0
370
    -2
100
AcDbLine
 10
527.4896355588488
 20
-176.4388546475515
 30
0.0
 11
527.4896355588488
 21
-165.7013154270896
 31
0.0
  0
LINE
  5
556F
330
3988
100
AcDbEntity
  8
寸法線
 62
     0
370
    -2
100
AcDbLine
 10
519.3553551751537
 20
-168.7013154270896
 30
0.0
 11
524.4896355588488
 21
-168.7013154270896
 31
0.0
  0
INSERT
  5
5570
330
3988
100
AcDbEntity
  8
寸法線
 62
     0
370
    -2
100
AcDbBlockReference
  2
_Closed
 10
516.3553551751537
 20
-168.7013154270896
 30
0.0
 41
3.0
 42
3.0
 43
3.0
 50
180.0
  0
INSERT
  5
5571
330
3988
100
AcDbEntity
  8
寸法線
 62
     0
370
    -2
100
AcDbBlockReference
  2
_Closed
 10
527.4896355588488
 20
-168.7013154270896
 30
0.0
 41
3.0
 42
3.0
 43
3.0
  0
MTEXT
  5
5572
330
3988
100
AcDbEntity
  8
寸法線
 62
     0
100
AcDbMText
 10
521.9224953670012
 20
-165.2013154270896
 30
0.0
 40
5.0
 41
0.0
 71
     5
 72
     1
  1
11
  7
OKANO
 73
     1
 44
1.0
  0
POINT
  5
5573
330
3988
100
AcDbEntity
  8
Defpoints
 62
     0
100
AcDbPoint
 10
516.3553551751537
 20
-179.1343924073237
 30
0.0
  0
POINT
  5
5574
330
3988
100
AcDbEntity
  8
Defpoints
 62
     0
100
AcDbPoint
 10
527.4896355588488
 20
-178.4388546475515
 30
0.0
  0
POINT
  5
5575
330
3988
100
AcDbEntity
  8
Defpoints
 62
     0
100
AcDbPoint
 10
527.4896355588488
 20
-168.7013154270896
 30
0.0
  0
ENDBLK
  5
3994
330
3988
100
AcDbEntity
  8
0
100
AcDbBlockEnd
  0
BLOCK
  5
39EB
330
39E1
100
AcDbEntity
  8
0
100
AcDbBlockBegin
  2
*D11
 70
     1
 10
0.0
 20
0.0
 30
0.0
  3
*D11
  1

  0
LINE
  5
5576
330
39E1
100
AcDbEntity
  8
寸法線
 62
     0
370
    -2
100
AcDbLine
 10
419.8181953934226
 20
-182.7849011309316
 30
0.0
 11
412.9019591482951
 21
-182.7849011309316
 31
0.0
  0
LINE
  5
5577
330
39E1
100
AcDbEntity
  8
寸法線
 62
     0
370
    -2
100
AcDbLine
 10
438.3181953934227
 20
-168.7849011309316
 30
0.0
 11
412.9019591482951
 21
-168.7849011309316
 31
0.0
  0
LINE
  5
5578
330
39E1
100
AcDbEntity
  8
寸法線
 62
     0
370
    -2
100
AcDbLine
 10
415.9019591482952
 20
-179.7849011309316
 30
0.0
 11
415.9019591482952
 21
-171.7849011309316
 31
0.0
  0
INSERT
  5
5579
330
39E1
100
AcDbEntity
  8
寸法線
 62
     0
370
    -2
100
AcDbBlockReference
  2
_Closed
 10
415.9019591482952
 20
-182.7849011309316
 30
0.0
 41
3.0
 42
3.0
 43
3.0
 50
270.0
  0
INSERT
  5
557A
330
39E1
100
AcDbEntity
  8
寸法線
 62
     0
370
    -2
100
AcDbBlockReference
  2
_Closed
 10
415.9019591482952
 20
-168.7849011309316
 30
0.0
 41
3.0
 42
3.0
 43
3.0
 50
90.0
  0
MTEXT
  5
557B
330
39E1
100
AcDbEntity
  8
寸法線
 62
     0
100
AcDbMText
 10
412.4014670223109
 20
-175.7849011309315
 30
0.0
 40
5.0
 41
0.0
 71
     5
 72
     1
  1
20
  7
OKANO
 11
0.0000000000000001
 21
1.0
 31
0.0
 73
     1
 44
1.0
  0
POINT
  5
557C
330
39E1
100
AcDbEntity
  8
Defpoints
 62
     0
100
AcDbPoint
 10
421.8181953934227
 20
-182.7849011309316
 30
0.0
  0
POINT
  5
557D
330
39E1
100
AcDbEntity
  8
Defpoints
 62
     0
100
AcDbPoint
 10
440.3181953934226
 20
-168.7849011309316
 30
0.0
  0
POINT
  5
557E
330
39E1
100
AcDbEntity
  8
Defpoints
 62
     0
100
AcDbPoint
 10
415.9019591482952
 20
-168.7849011309316
 30
0.0
  0
ENDBLK
  5
39EC
330
39E1
100
AcDbEntity
  8
0
100
AcDbBlockEnd
  0
BLOCK
  5
39F8
330
39EE
100
AcDbEntity
  8
0
100
AcDbBlockBegin
  2
*D12
 70
     1
 10
0.0
 20
0.0
 30
0.0
  3
*D12
  1

  0
LINE
  5
557F
330
39EE
100
AcDbEntity
  8
寸法線
 62
     0
370
    -2
100
AcDbLine
 10
421.8181953934227
 20
-184.7849011309316
 30
0.0
 11
421.8181953934227
 21
-195.1700872932306
 31
0.0
  0
LINE
  5
5580
330
39EE
100
AcDbEntity
  8
寸法線
 62
     0
370
    -2
100
AcDbLine
 10
476.8181953934226
 20
-184.7849011309316
 30
0.0
 11
476.8181953934226
 21
-195.1700872932306
 31
0.0
  0
LINE
  5
5581
330
39EE
100
AcDbEntity
  8
寸法線
 62
     0
370
    -2
100
AcDbLine
 10
424.8181953934226
 20
-192.1700872932306
 30
0.0
 11
473.8181953934226
 21
-192.1700872932306
 31
0.0
  0
INSERT
  5
5582
330
39EE
100
AcDbEntity
  8
寸法線
 62
     0
370
    -2
100
AcDbBlockReference
  2
_Closed
 10
421.8181953934227
 20
-192.1700872932306
 30
0.0
 41
3.0
 42
3.0
 43
3.0
 50
180.0
  0
INSERT
  5
5583
330
39EE
100
AcDbEntity
  8
寸法線
 62
     0
370
    -2
100
AcDbBlockReference
  2
_Closed
 10
476.8181953934226
 20
-192.1700872932306
 30
0.0
 41
3.0
 42
3.0
 43
3.0
  0
MTEXT
  5
5584
330
39EE
100
AcDbEntity
  8
寸法線
 62
     0
100
AcDbMText
 10
449.3181953934226
 20
-188.6700872932306
 30
0.0
 40
5.0
 41
0.0
 71
     5
 72
     1
  1
60
  7
OKANO
 73
     1
 44
1.0
  0
POINT
  5
5585
330
39EE
100
AcDbEntity
  8
Defpoints
 62
     0
100
AcDbPoint
 10
421.8181953934227
 20
-182.7849011309316
 30
0.0
  0
POINT
  5
5586
330
39EE
100
AcDbEntity
  8
Defpoints
 62
     0
100
AcDbPoint
 10
476.8181953934226
 20
-182.7849011309316
 30
0.0
  0
POINT
  5
5587
330
39EE
100
AcDbEntity
  8
Defpoints
 62
     0
100
AcDbPoint
 10
476.8181953934226
 20
-192.1700872932306
 30
0.0
  0
ENDBLK
  5
39F9
330
39EE
100
AcDbEntity
  8
0
100
AcDbBlockEnd
  0
BLOCK
  5
3A05
330
39FB
100
AcDbEntity
  8
0
100
AcDbBlockBegin
  2
*D13
 70
     1
 10
0.0
 20
0.0
 30
0.0
  3
*D13
  1

  0
LINE
  5
5588
330
39FB
100
AcDbEntity
  8
寸法線
 62
     0
370
    -2
100
AcDbLine
 10
608.7472792856109
 20
-184.5789419182581
 30
0.0
 11
608.7472792856109
 21
-193.0146763075708
 31
0.0
  0
LINE
  5
5589
330
39FB
100
AcDbEntity
  8
寸法線
 62
     0
370
    -2
100
AcDbLine
 10
581.4990407119219
 20
-181.8640160714197
 30
0.0
 11
581.4990407119219
 21
-193.0146763075708
 31
0.0
  0
LINE
  5
558A
330
39FB
100
AcDbEntity
  8
寸法線
 62
     0
370
    -2
100
AcDbLine
 10
605.7472792856109
 20
-190.0146763075708
 30
0.0
 11
584.499040711922
 21
-190.0146763075708
 31
0.0
  0
INSERT
  5
558B
330
39FB
100
AcDbEntity
  8
寸法線
 62
     0
370
    -2
100
AcDbBlockReference
  2
_Closed
 10
608.7472792856109
 20
-190.0146763075708
 30
0.0
 41
3.0
 42
3.0
 43
3.0
  0
INSERT
  5
558C
330
39FB
100
AcDbEntity
  8
寸法線
 62
     0
370
    -2
100
AcDbBlockReference
  2
_Closed
 10
581.4990407119219
 20
-190.0146763075708
 30
0.0
 41
3.0
 42
3.0
 43
3.0
 50
180.0
  0
MTEXT
  5
558D
330
39FB
100
AcDbEntity
  8
寸法線
 62
     0
100
AcDbMText
 10
595.1231599987664
 20
-186.5146763075708
 30
0.0
 40
5.0
 41
0.0
 71
     5
 72
     1
  1
30
  7
OKANO
 73
     1
 44
1.0
  0
POINT
  5
558E
330
39FB
100
AcDbEntity
  8
Defpoints
 62
     0
100
AcDbPoint
 10
608.7472792856109
 20
-182.5789419182581
 30
0.0
  0
POINT
  5
558F
330
39FB
100
AcDbEntity
  8
Defpoints
 62
     0
100
AcDbPoint
 10
581.4990407119219
 20
-179.8640160714197
 30
0.0
  0
POINT
  5
5590
330
39FB
100
AcDbEntity
  8
Defpoints
 62
     0
100
AcDbPoint
 10
581.4990407119219
 20
-190.0146763075708
 30
0.0
  0
ENDBLK
  5
3A06
330
39FB
100
AcDbEntity
  8
0
100
AcDbBlockEnd
  0
BLOCK
  5
3A12
330
3A08
100
AcDbEntity
  8
0
100
AcDbBlockBegin
  2
*D14
 70
     1
 10
0.0
 20
0.0
 30
0.0
  3
*D14
  1

  0
LINE
  5
5591
330
3A08
100
AcDbEntity
  8
寸法線
 62
     0
370
    -2
100
AcDbLine
 10
581.4990407119219
 20
-181.8640160714197
 30
0.0
 11
581.4990407119219
 21
-193.0146763075708
 31
0.0
  0
LINE
  5
5592
330
3A08
100
AcDbEntity
  8
寸法線
 62
     0
370
    -2
100
AcDbLine
 10
521.4187785805791
 20
-189.5000310396055
 30
0.0
 11
521.4187785805791
 21
-193.0146763075708
 31
0.0
  0
LINE
  5
5593
330
3A08
100
AcDbEntity
  8
寸法線
 62
     0
370
    -2
100
AcDbLine
 10
578.499040711922
 20
-190.0146763075708
 30
0.0
 11
524.4187785805792
 21
-190.0146763075708
 31
0.0
  0
INSERT
  5
5594
330
3A08
100
AcDbEntity
  8
寸法線
 62
     0
370
    -2
100
AcDbBlockReference
  2
_Closed
 10
581.4990407119219
 20
-190.0146763075708
 30
0.0
 41
3.0
 42
3.0
 43
3.0
  0
INSERT
  5
5595
330
3A08
100
AcDbEntity
  8
寸法線
 62
     0
370
    -2
100
AcDbBlockReference
  2
_Closed
 10
521.4187785805791
 20
-190.0146763075708
 30
0.0
 41
3.0
 42
3.0
 43
3.0
 50
180.0
  0
MTEXT
  5
5596
330
3A08
100
AcDbEntity
  8
寸法線
 62
     0
100
AcDbMText
 10
551.4589096462506
 20
-186.5146763075708
 30
0.0
 40
5.0
 41
0.0
 71
     5
 72
     1
  1
70
  7
OKANO
 73
     1
 44
1.0
  0
POINT
  5
5597
330
3A08
100
AcDbEntity
  8
Defpoints
 62
     0
100
AcDbPoint
 10
581.4990407119219
 20
-179.8640160714197
 30
0.0
  0
POINT
  5
5598
330
3A08
100
AcDbEntity
  8
Defpoints
 62
     0
100
AcDbPoint
 10
521.4187785805791
 20
-187.5000310396055
 30
0.0
  0
POINT
  5
5599
330
3A08
100
AcDbEntity
  8
Defpoints
 62
     0
100
AcDbPoint
 10
521.4187785805791
 20
-190.0146763075708
 30
0.0
  0
ENDBLK
  5
3A13
330
3A08
100
AcDbEntity
  8
0
100
AcDbBlockEnd
  0
BLOCK
  5
3A21
330
3A15
100
AcDbEntity
  8
0
100
AcDbBlockBegin
  2
*D15
 70
     1
 10
0.0
 20
0.0
 30
0.0
  3
*D15
  1

  0
LINE
  5
559A
330
3A15
100
AcDbEntity
  8
寸法線
 62
     0
370
    -2
100
AcDbLine
 10
521.4187785805791
 20
-189.5000310396055
 30
0.0
 11
521.4187785805791
 21
-193.0146763075708
 31
0.0
  0
LINE
  5
559B
330
3A15
100
AcDbEntity
  8
寸法線
 62
     0
370
    -2
100
AcDbLine
 10
511.35217384048
 20
-189.1407954343435
 30
0.0
 11
511.35217384048
 21
-193.0146763075708
 31
0.0
  0
LINE
  5
559C
330
3A15
100
AcDbEntity
  8
寸法線
 62
     0
370
    -2
100
AcDbLine
 10
518.4187785805792
 20
-190.0146763075708
 30
0.0
 11
514.3521738404801
 21
-190.0146763075708
 31
0.0
  0
LINE
  5
559D
330
3A15
100
AcDbEntity
  8
寸法線
 62
     0
370
    -2
100
AcDbLine
 10
516.3854762105296
 20
-190.0146763075708
 30
0.0
 11
519.9854762105296
 21
-202.0146763075708
 31
0.0
  0
LINE
  5
559E
330
3A15
100
AcDbEntity
  8
寸法線
 62
     0
370
    -2
100
AcDbLine
 10
519.9854762105296
 20
-202.0146763075708
 30
0.0
 11
531.5034254029608
 21
-202.0146763075708
 31
0.0
  0
MTEXT
  5
559F
330
3A15
100
AcDbEntity
  8
寸法線
 62
     0
100
AcDbMText
 10
525.7444508067452
 20
-198.5146763075708
 30
0.0
 40
5.0
 41
0.0
 71
     5
 72
     1
  1
10.5
  7
OKANO
 73
     1
 44
1.0
  0
INSERT
  5
55A0
330
3A15
100
AcDbEntity
  8
寸法線
 62
     0
370
    -2
100
AcDbBlockReference
  2
_Closed
 10
521.4187785805791
 20
-190.0146763075708
 30
0.0
 41
3.0
 42
3.0
 43
3.0
  0
INSERT
  5
55A1
330
3A15
100
AcDbEntity
  8
寸法線
 62
     0
370
    -2
100
AcDbBlockReference
  2
_Closed
 10
511.35217384048
 20
-190.0146763075708
 30
0.0
 41
3.0
 42
3.0
 43
3.0
 50
180.0
  0
POINT
  5
55A2
330
3A15
100
AcDbEntity
  8
Defpoints
 62
     0
100
AcDbPoint
 10
521.4187785805791
 20
-187.5000310396055
 30
0.0
  0
POINT
  5
55A3
330
3A15
100
AcDbEntity
  8
Defpoints
 62
     0
100
AcDbPoint
 10
511.35217384048
 20
-187.1407954343435
 30
0.0
  0
POINT
  5
55A4
330
3A15
100
AcDbEntity
  8
Defpoints
 62
     0
100
AcDbPoint
 10
511.35217384048
 20
-190.0146763075708
 30
0.0
  0
ENDBLK
  5
3A22
330
3A15
100
AcDbEntity
  8
0
100
AcDbBlockEnd
  0
BLOCK
  5
3A76
330
3A6A
100
AcDbEntity
  8
0
100
AcDbBlockBegin
  2
*D16
 70
     1
 10
0.0
 20
0.0
 30
0.0
  3
*D16
  1

  0
LINE
  5
55A5
330
3A6A
100
AcDbEntity
  8
寸法線
 62
     0
370
    -2
100
AcDbLine
 10
508.8582722204431
 20
-182.5789419182581
 30
0.0
 11
499.9710174394166
 21
-182.5789419182581
 31
0.0
  0
LINE
  5
55A6
330
3A6A
100
AcDbEntity
  8
寸法線
 62
     0
370
    -2
100
AcDbLine
 10
509.2472792856109
 20
-180.5789419182577
 30
0.0
 11
499.9710174394166
 21
-180.5789419182577
 31
0.0
  0
LINE
  5
55A7
330
3A6A
100
AcDbEntity
  8
寸法線
 62
     0
370
    -2
100
AcDbLine
 10
502.9710174394166
 20
-185.5789419182581
 30
0.0
 11
502.9710174394166
 21
-188.5789419182581
 31
0.0
  0
LINE
  5
55A8
330
3A6A
100
AcDbEntity
  8
寸法線
 62
     0
370
    -2
100
AcDbLine
 10
502.9710174394166
 20
-177.5789419182577
 30
0.0
 11
502.9710174394166
 21
-169.4142467675567
 31
0.0
  0
LINE
  5
55A9
330
3A6A
100
AcDbEntity
  8
寸法線
 62
     0
370
    -2
100
AcDbLine
 10
502.9710174394166
 20
-182.5789419182581
 30
0.0
 11
502.9710174394166
 21
-180.5789419182577
 31
0.0
  0
INSERT
  5
55AA
330
3A6A
100
AcDbEntity
  8
寸法線
 62
     0
370
    -2
100
AcDbBlockReference
  2
_Closed
 10
502.9710174394166
 20
-182.5789419182581
 30
0.0
 41
3.0
 42
3.0
 43
3.0
 50
90.0
  0
INSERT
  5
55AB
330
3A6A
100
AcDbEntity
  8
寸法線
 62
     0
370
    -2
100
AcDbBlockReference
  2
_Closed
 10
502.9710174394166
 20
-180.5789419182577
 30
0.0
 41
3.0
 42
3.0
 43
3.0
 50
270.0
  0
MTEXT
  5
55AC
330
3A6A
100
AcDbEntity
  8
寸法線
 62
     0
100
AcDbMText
 10
499.4705253134324
 20
-171.9965943429071
 30
0.0
 40
5.0
 41
0.0
 71
     5
 72
     1
  1
2
  7
OKANO
 11
0.0000000000000001
 21
1.0
 31
0.0
 73
     1
 44
1.0
  0
POINT
  5
55AD
330
3A6A
100
AcDbEntity
  8
Defpoints
 62
     0
100
AcDbPoint
 10
510.8582722204431
 20
-182.5789419182581
 30
0.0
  0
POINT
  5
55AE
330
3A6A
100
AcDbEntity
  8
Defpoints
 62
     0
100
AcDbPoint
 10
511.2472792856109
 20
-180.5789419182577
 30
0.0
  0
POINT
  5
55AF
330
3A6A
100
AcDbEntity
  8
Defpoints
 62
     0
100
AcDbPoint
 10
502.9710174394166
 20
-180.5789419182577
 30
0.0
  0
ENDBLK
  5
3A77
330
3A6A
100
AcDbEntity
  8
0
100
AcDbBlockEnd
  0
BLOCK
  5
3AB7
330
3AAD
100
AcDbEntity
  8
0
100
AcDbBlockBegin
  2
*D17
 70
     1
 10
0.0
 20
0.0
 30
0.0
  3
*D17
  1

  0
LINE
  5
55B0
330
3AAD
100
AcDbEntity
  8
寸法線
 62
     0
370
    -2
100
AcDbLine
 10
651.9293181026776
 20
-184.2435412987926
 30
0.0
 11
651.9293181026776
 21
-197.1779397349335
 31
0.0
  0
LINE
  5
55B1
330
3AAD
100
AcDbEntity
  8
寸法線
 62
     0
370
    -2
100
AcDbLine
 10
771.9293181026776
 20
-184.2435412987926
 30
0.0
 11
771.9293181026776
 21
-197.1779397349335
 31
0.0
  0
LINE
  5
55B2
330
3AAD
100
AcDbEntity
  8
寸法線
 62
     0
370
    -2
100
AcDbLine
 10
654.9293181026776
 20
-194.1779397349334
 30
0.0
 11
768.9293181026775
 21
-194.1779397349334
 31
0.0
  0
INSERT
  5
55B3
330
3AAD
100
AcDbEntity
  8
寸法線
 62
     0
370
    -2
100
AcDbBlockReference
  2
_Closed
 10
651.9293181026776
 20
-194.1779397349334
 30
0.0
 41
3.0
 42
3.0
 43
3.0
 50
180.0
  0
INSERT
  5
55B4
330
3AAD
100
AcDbEntity
  8
寸法線
 62
     0
370
    -2
100
AcDbBlockReference
  2
_Closed
 10
771.9293181026776
 20
-194.1779397349334
 30
0.0
 41
3.0
 42
3.0
 43
3.0
  0
MTEXT
  5
55B5
330
3AAD
100
AcDbEntity
  8
寸法線
 62
     0
100
AcDbMText
 10
711.9293181026776
 20
-190.6779397349334
 30
0.0
 40
5.0
 41
0.0
 71
     5
 72
     1
  1
160
  7
OKANO
 73
     1
 44
1.0
  0
POINT
  5
55B6
330
3AAD
100
AcDbEntity
  8
Defpoints
 62
     0
100
AcDbPoint
 10
651.9293181026776
 20
-182.2435412987926
 30
0.0
  0
POINT
  5
55B7
330
3AAD
100
AcDbEntity
  8
Defpoints
 62
     0
100
AcDbPoint
 10
771.9293181026776
 20
-182.2435412987926
 30
0.0
  0
POINT
  5
55B8
330
3AAD
100
AcDbEntity
  8
Defpoints
 62
     0
100
AcDbPoint
 10
771.9293181026776
 20
-194.1779397349334
 30
0.0
  0
ENDBLK
  5
3AB8
330
3AAD
100
AcDbEntity
  8
0
100
AcDbBlockEnd
  0
BLOCK
  5
41A5
330
419B
100
AcDbEntity
  8
0
100
AcDbBlockBegin
  2
*D18
 70
     1
 10
0.0
 20
0.0
 30
0.0
  3
*D18
  1

  0
LINE
  5
55B9
330
419B
100
AcDbEntity
  8
寸法線
 62
     0
370
    -2
100
AcDbLine
 10
108.4115086924819
 20
117.8262471136209
 30
0.0
 11
108.4115086924819
 21
105.7788662661831
 31
0.0
  0
LINE
  5
55BA
330
419B
100
AcDbEntity
  8
寸法線
 62
     0
370
    -2
100
AcDbLine
 10
199.2449845006466
 20
117.8262471136209
 30
0.0
 11
199.2449845006466
 21
105.7788662661831
 31
0.0
  0
LINE
  5
55BB
330
419B
100
AcDbEntity
  8
寸法線
 62
     0
370
    -2
100
AcDbLine
 10
111.4115086924819
 20
108.7788662661831
 30
0.0
 11
196.2449845006466
 21
108.7788662661831
 31
0.0
  0
INSERT
  5
55BC
330
419B
100
AcDbEntity
  8
寸法線
 62
     0
370
    -2
100
AcDbBlockReference
  2
_Closed
 10
108.4115086924819
 20
108.7788662661831
 30
0.0
 41
3.0
 42
3.0
 43
3.0
 50
180.0
  0
INSERT
  5
55BD
330
419B
100
AcDbEntity
  8
寸法線
 62
     0
370
    -2
100
AcDbBlockReference
  2
_Closed
 10
199.2449845006466
 20
108.7788662661831
 30
0.0
 41
3.0
 42
3.0
 43
3.0
  0
MTEXT
  5
55BE
330
419B
100
AcDbEntity
  8
寸法線
 62
     0
100
AcDbMText
 10
153.8282465965643
 20
112.2788662661831
 30
0.0
 40
5.0
 41
0.0
 71
     5
 72
     1
  1
160
  7
OKANO
 73
     1
 44
1.0
  0
POINT
  5
55BF
330
419B
100
AcDbEntity
  8
Defpoints
 62
     0
100
AcDbPoint
 10
108.4115086924819
 20
119.8262471136209
 30
0.0
  0
POINT
  5
55C0
330
419B
100
AcDbEntity
  8
Defpoints
 62
     0
100
AcDbPoint
 10
199.2449845006466
 20
119.8262471136209
 30
0.0
  0
POINT
  5
55C1
330
419B
100
AcDbEntity
  8
Defpoints
 62
     0
100
AcDbPoint
 10
199.2449845006466
 20
108.7788662661831
 30
0.0
  0
ENDBLK
  5
41A6
330
419B
100
AcDbEntity
  8
0
100
AcDbBlockEnd
  0
BLOCK
  5
41AE
330
41A7
100
AcDbEntity
  8
0
100
AcDbBlockBegin
  2
*D19
 70
     1
 10
0.0
 20
0.0
 30
0.0
  3
*D19
  1

  0
LINE
  5
55C2
330
41A7
100
AcDbEntity
  8
寸法線
 62
     0
370
    -2
100
AcDbLine
 10
-16.35182361535029
 20
197.7525001036729
 30
0.0
 11
-4.895313364496459
 21
188.9367358908317
 31
0.0
  0
MTEXT
  5
55C3
330
41A7
100
AcDbEntity
  8
寸法線
 62
     0
100
AcDbMText
 10
-9.677897102170717
 20
197.0332092766415
 30
0.0
 40
5.0
 41
0.0
 71
     5
 72
     1
  1
R15
  7
OKANO
 11
0.7925215445678033
 21
-0.6098439156012491
 31
0.0
 73
     1
 44
1.0
  0
LINE
  5
55C4
330
41A7
100
AcDbEntity
  8
寸法線
 62
     0
370
    -2
100
AcDbLine
 10
9.370074437723815
 20
177.9595454100093
 30
0.0
 11
-2.517748730793044
 21
187.1072041440279
 31
0.0
  0
INSERT
  5
55C5
330
41A7
100
AcDbEntity
  8
寸法線
 62
     0
370
    -2
100
AcDbBlockReference
  2
_Closed
 10
-2.517748730793044
 20
187.1072041440279
 30
0.0
 41
3.0
 42
3.0
 43
3.0
 50
322.4217820975775
  0
POINT
  5
55C6
330
41A7
100
AcDbEntity
  8
Defpoints
 62
     0
100
AcDbPoint
 10
-2.517748730793044
 20
187.1072041440279
 30
0.0
  0
POINT
  5
55C7
330
41A7
100
AcDbEntity
  8
Defpoints
 62
     0
100
AcDbPoint
 10
9.370074437723815
 20
177.9595454100093
 30
0.0
  0
ENDBLK
  5
41AF
330
41A7
100
AcDbEntity
  8
0
100
AcDbBlockEnd
  0
BLOCK
  5
41BA
330
41B0
100
AcDbEntity
  8
0
100
AcDbBlockBegin
  2
*D20
 70
     1
 10
0.0
 20
0.0
 30
0.0
  3
*D20
  1

  0
LINE
  5
5818
330
41B0
100
AcDbEntity
  8
寸法線
 62
     0
370
    -2
100
AcDbLine
 10
7.425779185646377
 20
178.4497750565018
 30
0.0
 11
-25.93629269464575
 21
178.4497750565018
 31
0.0
  0
LINE
  5
5819
330
41B0
100
AcDbEntity
  8
寸法線
 62
     0
370
    -2
100
AcDbLine
 10
7.425779185646375
 20
116.7164370691597
 30
0.0
 11
-25.93629269464577
 21
116.7164370691597
 31
0.0
  0
LINE
  5
581A
330
41B0
100
AcDbEntity
  8
寸法線
 62
     0
370
    -2
100
AcDbLine
 10
-22.93629269464575
 20
175.4497750565018
 30
0.0
 11
-22.93629269464577
 21
119.7164370691597
 31
0.0
  0
INSERT
  5
581B
330
41B0
100
AcDbEntity
  8
寸法線
 62
     0
370
    -2
100
AcDbBlockReference
  2
_Closed
 10
-22.93629269464575
 20
178.4497750565018
 30
0.0
 41
3.0
 42
3.0
 43
3.0
 50
90.0
  0
INSERT
  5
581C
330
41B0
100
AcDbEntity
  8
寸法線
 62
     0
370
    -2
100
AcDbBlockReference
  2
_Closed
 10
-22.93629269464577
 20
116.7164370691597
 30
0.0
 41
3.0
 42
3.0
 43
3.0
 50
270.0
  0
MTEXT
  5
581D
330
41B0
100
AcDbEntity
  8
寸法線
 62
     0
100
AcDbMText
 10
-26.43678482063004
 20
147.5831060628308
 30
0.0
 40
5.0
 41
0.0
 71
     5
 72
     1
  1
120
  7
OKANO
 11
0.0000000000000001
 21
1.0
 31
0.0
 73
     1
 44
1.0
  0
POINT
  5
581E
330
41B0
100
AcDbEntity
  8
Defpoints
 62
     0
100
AcDbPoint
 10
9.425779185646376
 20
178.4497750565018
 30
0.0
  0
POINT
  5
581F
330
41B0
100
AcDbEntity
  8
Defpoints
 62
     0
100
AcDbPoint
 10
9.425779185646376
 20
116.7164370691597
 30
0.0
  0
POINT
  5
5820
330
41B0
100
AcDbEntity
  8
Defpoints
 62
     0
100
AcDbPoint
 10
-22.93629269464577
 20
116.7164370691597
 30
0.0
  0
ENDBLK
  5
41BB
330
41B0
100
AcDbEntity
  8
0
100
AcDbBlockEnd
  0
BLOCK
  5
41D4
330
41C8
100
AcDbEntity
  8
0
100
AcDbBlockBegin
  2
*D21
 70
     1
 10
0.0
 20
0.0
 30
0.0
  3
*D21
  1

  0
LINE
  5
55D1
330
41C8
100
AcDbEntity
  8
寸法線
 62
     0
370
    -2
100
AcDbLine
 10
68.83400659439239
 20
112.4786837247372
 30
0.0
 11
88.87265479567828
 21
92.42079659698712
 31
0.0
  0
LINE
  5
55D2
330
41C8
100
AcDbEntity
  8
寸法線
 62
     0
370
    -2
100
AcDbLine
 10
75.09986704615669
 20
118.7385341502361
 30
0.0
 11
95.13851524744259
 21
98.680647022486
 31
0.0
  0
LINE
  5
55D3
330
41C8
100
AcDbEntity
  8
寸法線
 62
     0
370
    -2
100
AcDbLine
 10
88.87469047886458
 20
96.66343679573058
 30
0.0
 11
90.89587504869912
 21
98.68268270567227
 31
0.0
  0
INSERT
  5
55D4
330
41C8
100
AcDbEntity
  8
寸法線
 62
     0
370
    -2
100
AcDbBlockReference
  2
_Closed
 10
86.75235253789969
 20
94.54313453795199
 30
0.0
 41
3.0
 42
3.0
 43
3.0
 50
224.972508617138
  0
INSERT
  5
55D5
330
41C8
100
AcDbEntity
  8
寸法線
 62
     0
370
    -2
100
AcDbBlockReference
  2
_Closed
 10
93.018212989664
 20
100.8029849634508
 30
0.0
 41
3.0
 42
3.0
 43
3.0
 50
44.972508617138
  0
MTEXT
  5
55D6
330
41C8
100
AcDbEntity
  8
寸法線
 62
     0
100
AcDbMText
 10
87.41124897776167
 20
100.1494688343764
 30
0.0
 40
5.0
 41
0.0
 71
     5
 72
     1
  1
12
  7
OKANO
 11
0.7074459803216251
 21
0.7067674192595291
 31
0.0
 73
     1
 44
1.0
  0
POINT
  5
55D7
330
41C8
100
AcDbEntity
  8
Defpoints
 62
     0
100
AcDbPoint
 10
67.42047175587334
 20
113.8935756853804
 30
0.0
  0
POINT
  5
55D8
330
41C8
100
AcDbEntity
  8
Defpoints
 62
     0
100
AcDbPoint
 10
73.68633220763763
 20
120.1534261108793
 30
0.0
  0
POINT
  5
55D9
330
41C8
100
AcDbEntity
  8
Defpoints
 62
     0
100
AcDbPoint
 10
93.018212989664
 20
100.8029849634508
 30
0.0
  0
ENDBLK
  5
41D5
330
41C8
100
AcDbEntity
  8
0
100
AcDbBlockEnd
  0
BLOCK
  5
41E0
330
41D6
100
AcDbEntity
  8
0
100
AcDbBlockBegin
  2
*D22
 70
     1
 10
0.0
 20
0.0
 30
0.0
  3
*D22
  1

  0
LINE
  5
55DA
330
41D6
100
AcDbEntity
  8
寸法線
 62
     0
370
    -2
100
AcDbLine
 10
66.59558447216432
 20
123.4358633605018
 30
0.0
 11
74.17092552433526
 21
131.3101167151178
 31
0.0
  0
LINE
  5
55DB
330
41D6
100
AcDbEntity
  8
寸法線
 62
     0
370
    -2
100
AcDbLine
 10
76.54724508379604
 20
113.8619749200983
 30
0.0
 11
84.12258613596698
 21
121.7362282747143
 31
0.0
  0
LINE
  5
55DC
330
41D6
100
AcDbEntity
  8
寸法線
 62
     0
370
    -2
100
AcDbLine
 10
74.25299500601167
 20
127.0682698767492
 30
0.0
 11
79.88073929759842
 21
121.6541587930378
 31
0.0
  0
INSERT
  5
55DD
330
41D6
100
AcDbEntity
  8
寸法線
 62
     0
370
    -2
100
AcDbBlockReference
  2
_Closed
 10
72.09103684598919
 20
129.1481585550953
 30
0.0
 41
3.0
 42
3.0
 43
3.0
 50
136.1083965334503
  0
INSERT
  5
55DE
330
41D6
100
AcDbEntity
  8
寸法線
 62
     0
370
    -2
100
AcDbBlockReference
  2
_Closed
 10
82.04269745762092
 20
119.5742701146918
 30
0.0
 41
3.0
 42
3.0
 43
3.0
 50
316.1083965334503
  0
MTEXT
  5
55DF
330
41D6
100
AcDbEntity
  8
寸法線
 62
     0
100
AcDbMText
 10
79.49374513229648
 20
126.8838535068489
 30
0.0
 40
5.0
 41
0.0
 71
     5
 72
     1
  1
20
  7
OKANO
 11
0.7206527200074976
 21
-0.6932962261153564
 31
0.0
 73
     1
 44
1.0
  0
POINT
  5
55E0
330
41D6
100
AcDbEntity
  8
Defpoints
 62
     0
100
AcDbPoint
 10
65.2089920199336
 20
121.9945579204868
 30
0.0
  0
POINT
  5
55E1
330
41D6
100
AcDbEntity
  8
Defpoints
 62
     0
100
AcDbPoint
 10
75.16065263156533
 20
112.4206694800833
 30
0.0
  0
POINT
  5
55E2
330
41D6
100
AcDbEntity
  8
Defpoints
 62
     0
100
AcDbPoint
 10
82.04269745762092
 20
119.5742701146918
 30
0.0
  0
ENDBLK
  5
41E1
330
41D6
100
AcDbEntity
  8
0
100
AcDbBlockEnd
  0
BLOCK
  5
41EC
330
41E2
100
AcDbEntity
  8
0
100
AcDbBlockBegin
  2
*D23
 70
     1
 10
0.0
 20
0.0
 30
0.0
  3
*D23
  1

  0
LINE
  5
55E3
330
41E2
100
AcDbEntity
  8
想像線
 62
     0
370
    -2
100
AcDbLine
 10
10.16127882493475
 20
181.1846959146311
 30
0.0
 11
10.16127882493475
 21
203.4162942642886
 31
0.0
  0
LINE
  5
55E4
330
41E2
100
AcDbEntity
  8
想像線
 62
     0
370
    -2
100
AcDbLine
 10
71.20791204900797
 20
181.1846959146311
 30
0.0
 11
71.20791204900797
 21
203.4162942642886
 31
0.0
  0
LINE
  5
55E5
330
41E2
100
AcDbEntity
  8
想像線
 62
     0
370
    -2
100
AcDbLine
 10
13.16127882493475
 20
200.4162942642885
 30
0.0
 11
68.20791204900797
 21
200.4162942642885
 31
0.0
  0
INSERT
  5
55E6
330
41E2
100
AcDbEntity
  8
想像線
 62
     0
370
    -2
100
AcDbBlockReference
  2
_Closed
 10
10.16127882493475
 20
200.4162942642885
 30
0.0
 41
3.0
 42
3.0
 43
3.0
 50
180.0
  0
INSERT
  5
55E7
330
41E2
100
AcDbEntity
  8
想像線
 62
     0
370
    -2
100
AcDbBlockReference
  2
_Closed
 10
71.20791204900797
 20
200.4162942642885
 30
0.0
 41
3.0
 42
3.0
 43
3.0
  0
MTEXT
  5
55E8
330
41E2
100
AcDbEntity
  8
想像線
 62
     0
100
AcDbMText
 10
40.68459543697136
 20
203.9167863902728
 30
0.0
 40
5.0
 41
0.0
 71
     5
 72
     1
  1
120
  7
OKANO
 73
     1
 44
1.0
  0
POINT
  5
55E9
330
41E2
100
AcDbEntity
  8
Defpoints
 62
     0
100
AcDbPoint
 10
10.16127882493475
 20
179.1846959146311
 30
0.0
  0
POINT
  5
55EA
330
41E2
100
AcDbEntity
  8
Defpoints
 62
     0
100
AcDbPoint
 10
71.20791204900797
 20
179.1846959146311
 30
0.0
  0
POINT
  5
55EB
330
41E2
100
AcDbEntity
  8
Defpoints
 62
     0
100
AcDbPoint
 10
71.20791204900797
 20
200.4162942642885
 30
0.0
  0
ENDBLK
  5
41ED
330
41E2
100
AcDbEntity
  8
0
100
AcDbBlockEnd
  0
BLOCK
  5
41FA
330
41EE
100
AcDbEntity
  8
0
100
AcDbBlockBegin
  2
*D24
 70
     1
 10
0.0
 20
0.0
 30
0.0
  3
*D24
  1

  0
LINE
  5
55EC
330
41EE
100
AcDbEntity
  8
寸法線
 62
     0
370
    -2
100
AcDbLine
 10
196.5518397752961
 20
120.1483569185866
 30
0.0
 11
225.5560874520369
 21
120.1483569185866
 31
0.0
  0
LINE
  5
55ED
330
41EE
100
AcDbEntity
  8
寸法線
 62
     0
370
    -2
100
AcDbLine
 10
196.107328507379
 20
123.701041543459
 30
0.0
 11
225.5560874520369
 21
123.701041543459
 31
0.0
  0
LINE
  5
55EE
330
41EE
100
AcDbEntity
  8
寸法線
 62
     0
370
    -2
100
AcDbLine
 10
222.5560874520369
 20
117.1483569185866
 30
0.0
 11
222.5560874520369
 21
114.1483569185867
 31
0.0
  0
LINE
  5
55EF
330
41EE
100
AcDbEntity
  8
寸法線
 62
     0
370
    -2
100
AcDbLine
 10
222.5560874520369
 20
126.701041543459
 30
0.0
 11
222.5560874520369
 21
139.6568129093991
 31
0.0
  0
LINE
  5
55F0
330
41EE
100
AcDbEntity
  8
寸法線
 62
     0
370
    -2
100
AcDbLine
 10
222.5560874520369
 20
120.1483569185866
 30
0.0
 11
222.5560874520369
 21
123.701041543459
 31
0.0
  0
INSERT
  5
55F1
330
41EE
100
AcDbEntity
  8
寸法線
 62
     0
370
    -2
100
AcDbBlockReference
  2
_Closed
 10
222.5560874520369
 20
120.1483569185866
 30
0.0
 41
3.0
 42
3.0
 43
3.0
 50
90.0
  0
INSERT
  5
55F2
330
41EE
100
AcDbEntity
  8
寸法線
 62
     0
370
    -2
100
AcDbBlockReference
  2
_Closed
 10
222.5560874520369
 20
123.701041543459
 30
0.0
 41
3.0
 42
3.0
 43
3.0
 50
270.0
  0
MTEXT
  5
55F3
330
41EE
100
AcDbEntity
  8
寸法線
 62
     0
100
AcDbMText
 10
219.0560874520369
 20
134.6789272264291
 30
0.0
 40
5.0
 41
0.0
 71
     5
 72
     1
  1
5.5
  7
OKANO
 11
0.0000000000000001
 21
1.0
 31
0.0
 73
     1
 44
1.0
  0
POINT
  5
55F4
330
41EE
100
AcDbEntity
  8
Defpoints
 62
     0
100
AcDbPoint
 10
194.5518397752961
 20
120.1483569185866
 30
0.0
  0
POINT
  5
55F5
330
41EE
100
AcDbEntity
  8
Defpoints
 62
     0
100
AcDbPoint
 10
194.107328507379
 20
123.701041543459
 30
0.0
  0
POINT
  5
55F6
330
41EE
100
AcDbEntity
  8
Defpoints
 62
     0
100
AcDbPoint
 10
222.5560874520369
 20
123.701041543459
 30
0.0
  0
ENDBLK
  5
41FB
330
41EE
100
AcDbEntity
  8
0
100
AcDbBlockEnd
  0
BLOCK
  5
4479
330
446F
100
AcDbEntity
  8
0
100
AcDbBlockBegin
  2
*D25
 70
     1
 10
0.0
 20
0.0
 30
0.0
  3
*D25
  1

  0
LINE
  5
55F7
330
446F
100
AcDbEntity
  8
寸法線
 62
     0
370
    -2
100
AcDbLine
 10
50.59122416675063
 20
-68.05005776508392
 30
0.0
 11
70.50766513628243
 21
-68.05005776508392
 31
0.0
  0
LINE
  5
55F8
330
446F
100
AcDbEntity
  8
寸法線
 62
     0
370
    -2
100
AcDbLine
 10
50.59122416675063
 20
-128.4663957210336
 30
0.0
 11
70.50766513628241
 21
-128.4663957210337
 31
0.0
  0
LINE
  5
55F9
330
446F
100
AcDbEntity
  8
寸法線
 62
     0
370
    -2
100
AcDbLine
 10
67.50766513628242
 20
-71.05005776508392
 30
0.0
 11
67.50766513628241
 21
-125.4663957210336
 31
0.0
  0
INSERT
  5
55FA
330
446F
100
AcDbEntity
  8
寸法線
 62
     0
370
    -2
100
AcDbBlockReference
  2
_Closed
 10
67.50766513628242
 20
-68.05005776508392
 30
0.0
 41
3.0
 42
3.0
 43
3.0
 50
90.0
  0
INSERT
  5
55FB
330
446F
100
AcDbEntity
  8
寸法線
 62
     0
370
    -2
100
AcDbBlockReference
  2
_Closed
 10
67.50766513628241
 20
-128.4663957210337
 30
0.0
 41
3.0
 42
3.0
 43
3.0
 50
270.0
  0
MTEXT
  5
55FC
330
446F
100
AcDbEntity
  8
寸法線
 62
     0
100
AcDbMText
 10
64.00766513628244
 20
-98.2582267430588
 30
0.0
 40
5.0
 41
0.0
 71
     5
 72
     1
  1
89
  7
OKANO
 11
0.0000000000000001
 21
1.0
 31
0.0
 73
     1
 44
1.0
  0
POINT
  5
55FD
330
446F
100
AcDbEntity
  8
Defpoints
 62
     0
100
AcDbPoint
 10
48.59122416675063
 20
-68.05005776508392
 30
0.0
  0
POINT
  5
55FE
330
446F
100
AcDbEntity
  8
Defpoints
 62
     0
100
AcDbPoint
 10
48.59122416675063
 20
-128.4663957210336
 30
0.0
  0
POINT
  5
55FF
330
446F
100
AcDbEntity
  8
Defpoints
 62
     0
100
AcDbPoint
 10
67.50766513628241
 20
-128.4663957210337
 30
0.0
  0
ENDBLK
  5
447A
330
446F
100
AcDbEntity
  8
0
100
AcDbBlockEnd
  0
BLOCK
  5
4485
330
447B
100
AcDbEntity
  8
0
100
AcDbBlockBegin
  2
*D26
 70
     1
 10
0.0
 20
0.0
 30
0.0
  3
*D26
  1

  0
LINE
  5
5600
330
447B
100
AcDbEntity
  8
寸法線
 62
     0
370
    -2
100
AcDbLine
 10
170.4262379598972
 20
-69.54912946077593
 30
0.0
 11
198.009772534697
 21
-69.54912946077593
 31
0.0
  0
LINE
  5
5601
330
447B
100
AcDbEntity
  8
寸法線
 62
     0
370
    -2
100
AcDbLine
 10
170.4262379598972
 20
-181.0068573804065
 30
0.0
 11
198.009772534697
 21
-181.0068573804066
 31
0.0
  0
LINE
  5
5602
330
447B
100
AcDbEntity
  8
寸法線
 62
     0
370
    -2
100
AcDbLine
 10
195.009772534697
 20
-72.54912946077593
 30
0.0
 11
195.009772534697
 21
-178.0068573804066
 31
0.0
  0
INSERT
  5
5603
330
447B
100
AcDbEntity
  8
寸法線
 62
     0
370
    -2
100
AcDbBlockReference
  2
_Closed
 10
195.009772534697
 20
-69.54912946077593
 30
0.0
 41
3.0
 42
3.0
 43
3.0
 50
90.0
  0
INSERT
  5
5604
330
447B
100
AcDbEntity
  8
寸法線
 62
     0
370
    -2
100
AcDbBlockReference
  2
_Closed
 10
195.009772534697
 20
-181.0068573804066
 30
0.0
 41
3.0
 42
3.0
 43
3.0
 50
270.0
  0
MTEXT
  5
5605
330
447B
100
AcDbEntity
  8
寸法線
 62
     0
100
AcDbMText
 10
191.5092804087128
 20
-125.2779934205912
 30
0.0
 40
5.0
 41
0.0
 71
     5
 72
     1
  1
126
  7
OKANO
 11
0.0000000000000001
 21
1.0
 31
0.0
 73
     1
 44
1.0
  0
POINT
  5
5606
330
447B
100
AcDbEntity
  8
Defpoints
 62
     0
100
AcDbPoint
 10
168.4262379598972
 20
-69.54912946077593
 30
0.0
  0
POINT
  5
5607
330
447B
100
AcDbEntity
  8
Defpoints
 62
     0
100
AcDbPoint
 10
168.4262379598972
 20
-181.0068573804065
 30
0.0
  0
POINT
  5
5608
330
447B
100
AcDbEntity
  8
Defpoints
 62
     0
100
AcDbPoint
 10
195.009772534697
 20
-181.0068573804066
 30
0.0
  0
ENDBLK
  5
4486
330
447B
100
AcDbEntity
  8
0
100
AcDbBlockEnd
  0
BLOCK
  5
47CC
330
47C6
100
AcDbEntity
  8
0
100
AcDbBlockBegin
  2
*D27
 70
     1
 10
0.0
 20
0.0
 30
0.0
  3
*D27
  1

  0
LINE
  5
5609
330
47C6
100
AcDbEntity
  8
寸法線
 62
     0
370
    -2
100
AcDbLine
 10
221.2597556864792
 20
-189.5144272781681
 30
0.0
 11
344.8934429183716
 21
-94.84153121677733
 31
0.0
  0
MTEXT
  5
560A
330
47C6
100
AcDbEntity
  8
寸法線
 62
     0
100
AcDbMText
 10
223.1829667149133
 20
-183.633419733442
 30
0.0
 40
5.0
 41
0.0
 71
     5
 72
     1
  1
150
  7
OKANO
 11
0.7939564080996854
 21
0.6079746886486689
 31
0.0
 73
     1
 44
1.0
  0
INSERT
  5
560B
330
47C6
100
AcDbEntity
  8
寸法線
 62
     0
370
    -2
100
AcDbBlockReference
  2
_Closed
 10
347.2753121426707
 20
-93.01760715083132
 30
0.0
 41
3.0
 42
3.0
 43
3.0
 50
37.44320339989341
  0
POINT
  5
560C
330
47C6
100
AcDbEntity
  8
Defpoints
 62
     0
100
AcDbPoint
 10
347.2753121426707
 20
-93.01760715083132
 30
0.0
  0
POINT
  5
560D
330
47C6
100
AcDbEntity
  8
Defpoints
 62
     0
100
AcDbPoint
 10
237.2329539800543
 20
-177.2828989975369
 30
0.0
  0
ENDBLK
  5
47CD
330
47C6
100
AcDbEntity
  8
0
100
AcDbBlockEnd
  0
BLOCK
  5
47D8
330
47CE
100
AcDbEntity
  8
0
100
AcDbBlockBegin
  2
*D28
 70
     1
 10
0.0
 20
0.0
 30
0.0
  3
*D28
  1

  0
LINE
  5
560E
330
47CE
100
AcDbEntity
  8
寸法線
 62
     0
370
    -2
100
AcDbLine
 10
390.598336054465
 20
-34.25440006226915
 30
0.0
 11
389.098336054465
 21
-34.25440006226915
 31
0.0
  0
LINE
  5
560F
330
47CE
100
AcDbEntity
  8
寸法線
 62
     0
370
    -2
100
AcDbLine
 10
394.2248121612581
 20
-203.0735136983083
 30
0.0
 11
389.098336054465
 21
-203.0735136983083
 31
0.0
  0
LINE
  5
5610
330
47CE
100
AcDbEntity
  8
寸法線
 62
     0
370
    -2
100
AcDbLine
 10
392.098336054465
 20
-37.25440006226915
 30
0.0
 11
392.098336054465
 21
-200.0735136983083
 31
0.0
  0
INSERT
  5
5611
330
47CE
100
AcDbEntity
  8
寸法線
 62
     0
370
    -2
100
AcDbBlockReference
  2
_Closed
 10
392.098336054465
 20
-34.25440006226915
 30
0.0
 41
3.0
 42
3.0
 43
3.0
 50
90.0
  0
INSERT
  5
5612
330
47CE
100
AcDbEntity
  8
寸法線
 62
     0
370
    -2
100
AcDbBlockReference
  2
_Closed
 10
392.098336054465
 20
-203.0735136983083
 30
0.0
 41
3.0
 42
3.0
 43
3.0
 50
270.0
  0
MTEXT
  5
5613
330
47CE
100
AcDbEntity
  8
寸法線
 62
     0
100
AcDbMText
 10
388.598336054465
 20
-118.6639568802887
 30
0.0
 40
5.0
 41
0.0
 71
     5
 72
     1
  1
196
  7
OKANO
 11
0.0000000000000001
 21
1.0
 31
0.0
 73
     1
 44
1.0
  0
POINT
  5
5614
330
47CE
100
AcDbEntity
  8
Defpoints
 62
     0
100
AcDbPoint
 10
392.598336054465
 20
-34.25440006226915
 30
0.0
  0
POINT
  5
5615
330
47CE
100
AcDbEntity
  8
Defpoints
 62
     0
100
AcDbPoint
 10
396.2248121612581
 20
-203.0735136983083
 30
0.0
  0
POINT
  5
5616
330
47CE
100
AcDbEntity
  8
Defpoints
 62
     0
100
AcDbPoint
 10
392.098336054465
 20
-203.0735136983083
 30
0.0
  0
ENDBLK
  5
47D9
330
47CE
100
AcDbEntity
  8
0
100
AcDbBlockEnd
  0
BLOCK
  5
492B
330
4925
100
AcDbEntity
  8
0
100
AcDbBlockBegin
  2
*D29
 70
     1
 10
0.0
 20
0.0
 30
0.0
  3
*D29
  1

  0
LINE
  5
5617
330
4925
100
AcDbEntity
  8
寸法線
 62
     0
370
    -2
100
AcDbLine
 10
32.08082808926012
 20
-144.4403677797911
 30
0.0
 11
3.443810624077681
 21
-83.89023720143221
 31
0.0
  0
MTEXT
  5
5618
330
4925
100
AcDbEntity
  8
寸法線
 62
     0
100
AcDbMText
 10
33.43721274814329
 20
-139.1219809937996
 30
0.0
 40
5.0
 41
0.0
 71
     5
 72
     1
  1
65
  7
OKANO
 11
0.4275421428701896
 21
-0.9039954181686798
 31
0.0
 73
     1
 44
1.0
  0
INSERT
  5
5619
330
4925
100
AcDbEntity
  8
寸法線
 62
     0
370
    -2
100
AcDbBlockReference
  2
_Closed
 10
2.161184195467107
 20
-81.17825094692618
 30
0.0
 41
3.0
 42
3.0
 43
3.0
 50
115.3116791828426
  0
POINT
  5
561A
330
4925
100
AcDbEntity
  8
Defpoints
 62
     0
100
AcDbPoint
 10
2.161184195467107
 20
-81.17825094692618
 30
0.0
  0
POINT
  5
561B
330
4925
100
AcDbEntity
  8
Defpoints
 62
     0
100
AcDbPoint
 10
23.53829133897658
 20
-126.3780218553602
 30
0.0
  0
ENDBLK
  5
492C
330
4925
100
AcDbEntity
  8
0
100
AcDbBlockEnd
  0
BLOCK
  5
4934
330
492E
100
AcDbEntity
  8
0
100
AcDbBlockBegin
  2
*D30
 70
     1
 10
0.0
 20
0.0
 30
0.0
  3
*D30
  1

  0
LINE
  5
561C
330
492E
100
AcDbEntity
  8
寸法線
 62
     0
370
    -2
100
AcDbLine
 10
81.7070701736543
 20
-179.9267926087734
 30
0.0
 11
165.8197088535368
 21
-110.4929179936309
 31
0.0
  0
MTEXT
  5
561D
330
492E
100
AcDbEntity
  8
寸法線
 62
     0
100
AcDbMText
 10
83.41390071365792
 20
-173.9793797335202
 30
0.0
 40
5.0
 41
0.0
 71
     5
 72
     1
  1
100
  7
OKANO
 11
0.7711889517559288
 21
0.6366063153076569
 31
0.0
 73
     1
 44
1.0
  0
INSERT
  5
561E
330
492E
100
AcDbEntity
  8
寸法線
 62
     0
370
    -2
100
AcDbBlockReference
  2
_Closed
 10
168.1332757088046
 20
-108.583099047708
 30
0.0
 41
3.0
 42
3.0
 43
3.0
 50
39.53922394317103
  0
POINT
  5
561F
330
492E
100
AcDbEntity
  8
Defpoints
 62
     0
100
AcDbPoint
 10
168.1332757088046
 20
-108.583099047708
 30
0.0
  0
POINT
  5
5620
330
492E
100
AcDbEntity
  8
Defpoints
 62
     0
100
AcDbPoint
 10
99.59697855735354
 20
-165.1589090292603
 30
0.0
  0
ENDBLK
  5
4935
330
492E
100
AcDbEntity
  8
0
100
AcDbBlockEnd
  0
BLOCK
  5
4B7C
330
4B70
100
AcDbEntity
  8
0
100
AcDbBlockBegin
  2
*D31
 70
     1
 10
0.0
 20
0.0
 30
0.0
  3
*D31
  1

  0
LINE
  5
4BA2
330
4B70
100
AcDbEntity
  8
寸法線
 62
     0
370
    -2
100
AcDbLine
 10
681.7643403857443
 20
-30.00499048221922
 30
0.0
 11
681.7643403857443
 21
-45.65746243937815
 31
0.0
  0
LINE
  5
4BA3
330
4B70
100
AcDbEntity
  8
寸法線
 62
     0
370
    -2
100
AcDbLine
 10
687.4083448042863
 20
-23.00499048221922
 30
0.0
 11
687.4083448042863
 21
-45.65746243937815
 31
0.0
  0
LINE
  5
4BA4
330
4B70
100
AcDbEntity
  8
寸法線
 62
     0
370
    -2
100
AcDbLine
 10
679.2643403857444
 20
-44.40746243937815
 30
0.0
 11
676.7643403857444
 21
-44.40746243937815
 31
0.0
  0
LINE
  5
4BA5
330
4B70
100
AcDbEntity
  8
寸法線
 62
     0
370
    -2
100
AcDbLine
 10
689.9083448042863
 20
-44.40746243937815
 30
0.0
 11
692.4083448042863
 21
-44.40746243937815
 31
0.0
  0
LINE
  5
4BA6
330
4B70
100
AcDbEntity
  8
寸法線
 62
     0
370
    -2
100
AcDbLine
 10
681.7643403857443
 20
-44.40746243937815
 30
0.0
 11
687.4083448042863
 21
-44.40746243937815
 31
0.0
  0
SOLID
  5
4BA7
330
4B70
100
AcDbEntity
  8
寸法線
 62
     0
100
AcDbTrace
 10
679.2643403857444
 20
-43.99079577271148
 30
0.0
 11
679.2643403857444
 21
-44.82412910604481
 31
0.0
 12
681.7643403857443
 22
-44.40746243937815
 32
0.0
 13
681.7643403857443
 23
-44.40746243937815
 33
0.0
  0
SOLID
  5
4BA8
330
4B70
100
AcDbEntity
  8
寸法線
 62
     0
100
AcDbTrace
 10
689.9083448042863
 20
-43.99079577271148
 30
0.0
 11
689.9083448042863
 21
-44.82412910604481
 31
0.0
 12
687.4083448042863
 22
-44.40746243937815
 32
0.0
 13
687.4083448042863
 23
-44.40746243937815
 33
0.0
  0
MTEXT
  5
4BA9
330
4B70
100
AcDbEntity
  8
寸法線
 62
     0
370
    25
100
AcDbMText
 10
684.5863425950153
 20
-42.53246243937815
 30
0.0
 40
2.5
 41
0.0
 71
     5
 72
     1
  1
5
 73
     1
 44
1.0
  0
POINT
  5
4BAA
330
4B70
100
AcDbEntity
  8
Defpoints
 62
     0
100
AcDbPoint
 10
681.7643403857443
 20
-29.37999048221922
 30
0.0
  0
POINT
  5
4BAB
330
4B70
100
AcDbEntity
  8
Defpoints
 62
     0
100
AcDbPoint
 10
687.4083448042863
 20
-22.37999048221922
 30
0.0
  0
POINT
  5
4BAC
330
4B70
100
AcDbEntity
  8
Defpoints
 62
     0
100
AcDbPoint
 10
687.4083448042863
 20
-44.40746243937815
 30
0.0
  0
ENDBLK
  5
4B7D
330
4B70
100
AcDbEntity
  8
0
100
AcDbBlockEnd
  0
BLOCK
  5
4B88
330
4B7E
100
AcDbEntity
  8
0
100
AcDbBlockBegin
  2
*D32
 70
     1
 10
0.0
 20
0.0
 30
0.0
  3
*D32
  1

  0
LINE
  5
4BAD
330
4B7E
100
AcDbEntity
  8
寸法線
 62
     0
370
    -2
100
AcDbLine
 10
684.1393403857444
 20
17.6200095177808
 30
0.0
 11
664.3772526316872
 21
17.6200095177808
 31
0.0
  0
LINE
  5
4BAE
330
4B7E
100
AcDbEntity
  8
寸法線
 62
     0
370
    -2
100
AcDbLine
 10
684.8855061582087
 20
5.722959512952002
 30
0.0
 11
664.3772526316872
 21
5.722959512952007
 31
0.0
  0
LINE
  5
4BAF
330
4B7E
100
AcDbEntity
  8
寸法線
 62
     0
370
    -2
100
AcDbLine
 10
665.6272526316873
 20
15.1200095177808
 30
0.0
 11
665.6272526316873
 21
8.222959512952007
 31
0.0
  0
SOLID
  5
4BB0
330
4B7E
100
AcDbEntity
  8
寸法線
 62
     0
100
AcDbTrace
 10
665.2105859650206
 20
15.1200095177808
 30
0.0
 11
666.0439192983538
 21
15.1200095177808
 31
0.0
 12
665.6272526316873
 22
17.6200095177808
 32
0.0
 13
665.6272526316873
 23
17.6200095177808
 33
0.0
  0
SOLID
  5
4BB1
330
4B7E
100
AcDbEntity
  8
寸法線
 62
     0
100
AcDbTrace
 10
665.2105859650206
 20
8.222959512952007
 30
0.0
 11
666.0439192983538
 21
8.222959512952007
 31
0.0
 12
665.6272526316873
 22
5.722959512952007
 32
0.0
 13
665.6272526316873
 23
5.722959512952007
 33
0.0
  0
MTEXT
  5
4BB2
330
4B7E
100
AcDbEntity
  8
寸法線
 62
     0
370
    25
100
AcDbMText
 10
663.7522526316872
 20
11.67148451536651
 30
0.0
 40
2.5
 41
0.0
 71
     5
 72
     1
  1
12
 11
0.0000000000000001
 21
1.0
 31
0.0
 73
     1
 44
1.0
  0
POINT
  5
4BB3
330
4B7E
100
AcDbEntity
  8
Defpoints
 62
     0
100
AcDbPoint
 10
684.7643403857444
 20
17.6200095177808
 30
0.0
  0
POINT
  5
4BB4
330
4B7E
100
AcDbEntity
  8
Defpoints
 62
     0
100
AcDbPoint
 10
685.5105061582086
 20
5.722959512952002
 30
0.0
  0
POINT
  5
4BB5
330
4B7E
100
AcDbEntity
  8
Defpoints
 62
     0
100
AcDbPoint
 10
665.6272526316873
 20
5.722959512952007
 30
0.0
  0
ENDBLK
  5
4B89
330
4B7E
100
AcDbEntity
  8
0
100
AcDbBlockEnd
  0
BLOCK
  5
4B94
330
4B8A
100
AcDbEntity
  8
0
100
AcDbBlockBegin
  2
*D33
 70
     1
 10
0.0
 20
0.0
 30
0.0
  3
*D33
  1

  0
LINE
  5
4BB6
330
4B8A
100
AcDbEntity
  8
寸法線
 62
     0
370
    -2
100
AcDbLine
 10
676.5156989326826
 20
9.65845954194674
 30
0.0
 11
676.5156989326826
 21
30.14645605612736
 31
0.0
  0
LINE
  5
4BB7
330
4B8A
100
AcDbEntity
  8
寸法線
 62
     0
370
    -2
100
AcDbLine
 10
686.9307390676519
 20
8.239673030994254
 30
0.0
 11
686.9307390676519
 21
30.14645605612736
 31
0.0
  0
LINE
  5
4BB8
330
4B8A
100
AcDbEntity
  8
寸法線
 62
     0
370
    -2
100
AcDbLine
 10
679.0156989326826
 20
28.89645605612736
 30
0.0
 11
684.430739067652
 21
28.89645605612736
 31
0.0
  0
SOLID
  5
4BB9
330
4B8A
100
AcDbEntity
  8
寸法線
 62
     0
100
AcDbTrace
 10
679.0156989326826
 20
29.31312272279403
 30
0.0
 11
679.0156989326826
 21
28.47978938946069
 31
0.0
 12
676.5156989326826
 22
28.89645605612736
 32
0.0
 13
676.5156989326826
 23
28.89645605612736
 33
0.0
  0
SOLID
  5
4BBA
330
4B8A
100
AcDbEntity
  8
寸法線
 62
     0
100
AcDbTrace
 10
684.430739067652
 20
29.31312272279403
 30
0.0
 11
684.430739067652
 21
28.47978938946069
 31
0.0
 12
686.9307390676519
 22
28.89645605612736
 32
0.0
 13
686.9307390676519
 23
28.89645605612736
 33
0.0
  0
MTEXT
  5
4BBB
330
4B8A
100
AcDbEntity
  8
寸法線
 62
     0
370
    25
100
AcDbMText
 10
681.7232190001673
 20
30.77145605612736
 30
0.0
 40
2.5
 41
0.0
 71
     5
 72
     1
  1
10
 73
     1
 44
1.0
  0
POINT
  5
4BBC
330
4B8A
100
AcDbEntity
  8
Defpoints
 62
     0
100
AcDbPoint
 10
676.5156989326826
 20
9.03345954194674
 30
0.0
  0
POINT
  5
4BBD
330
4B8A
100
AcDbEntity
  8
Defpoints
 62
     0
100
AcDbPoint
 10
686.9307390676519
 20
7.614673030994254
 30
0.0
  0
POINT
  5
4BBE
330
4B8A
100
AcDbEntity
  8
Defpoints
 62
     0
100
AcDbPoint
 10
686.9307390676519
 20
28.89645605612736
 30
0.0
  0
ENDBLK
  5
4B95
330
4B8A
100
AcDbEntity
  8
0
100
AcDbBlockEnd
  0
BLOCK
  5
4BA0
330
4B96
100
AcDbEntity
  8
0
100
AcDbBlockBegin
  2
*D34
 70
     1
 10
0.0
 20
0.0
 30
0.0
  3
*D34
  1

  0
LINE
  5
5621
330
4B96
100
AcDbEntity
  8
寸法線
 62
     0
370
    -2
100
AcDbLine
 10
737.0333448042863
 20
-22.37999048221922
 30
0.0
 11
757.2987202444508
 21
-22.37999048221923
 31
0.0
  0
LINE
  5
5622
330
4B96
100
AcDbEntity
  8
寸法線
 62
     0
370
    -2
100
AcDbLine
 10
737.3893403857444
 20
17.62000951778077
 30
0.0
 11
757.2987202444508
 21
17.62000951778077
 31
0.0
  0
LINE
  5
5623
330
4B96
100
AcDbEntity
  8
寸法線
 62
     0
370
    -2
100
AcDbLine
 10
756.0487202444508
 20
-19.87999048221923
 30
0.0
 11
756.0487202444508
 21
15.12000951778076
 31
0.0
  0
SOLID
  5
5624
330
4B96
100
AcDbEntity
  8
寸法線
 62
     0
100
AcDbTrace
 10
755.6320535777842
 20
-19.87999048221923
 30
0.0
 11
756.4653869111174
 21
-19.87999048221923
 31
0.0
 12
756.0487202444508
 22
-22.37999048221923
 32
0.0
 13
756.0487202444508
 23
-22.37999048221923
 33
0.0
  0
SOLID
  5
5625
330
4B96
100
AcDbEntity
  8
寸法線
 62
     0
100
AcDbTrace
 10
755.6320535777842
 20
15.12000951778077
 30
0.0
 11
756.4653869111174
 21
15.12000951778076
 31
0.0
 12
756.0487202444508
 22
17.62000951778077
 32
0.0
 13
756.0487202444508
 23
17.62000951778077
 33
0.0
  0
MTEXT
  5
5626
330
4B96
100
AcDbEntity
  8
寸法線
 62
     0
370
    25
100
AcDbMText
 10
752.9237202444508
 20
-2.37999048221911
 30
0.0
 40
5.0
 41
0.0
 71
     5
 72
     1
  1
40
 11
0.0000000000000001
 21
1.0
 31
0.0
 73
     1
 44
1.0
  0
POINT
  5
5627
330
4B96
100
AcDbEntity
  8
Defpoints
 62
     0
100
AcDbPoint
 10
736.4083448042863
 20
-22.37999048221922
 30
0.0
  0
POINT
  5
5628
330
4B96
100
AcDbEntity
  8
Defpoints
 62
     0
100
AcDbPoint
 10
736.7643403857443
 20
17.62000951778077
 30
0.0
  0
POINT
  5
5629
330
4B96
100
AcDbEntity
  8
Defpoints
 62
     0
100
AcDbPoint
 10
756.0487202444508
 20
17.62000951778077
 30
0.0
  0
ENDBLK
  5
4BA1
330
4B96
100
AcDbEntity
  8
0
100
AcDbBlockEnd
  0
BLOCK
  5
5142
330
5138
100
AcDbEntity
  8
0
100
AcDbBlockBegin
  2
*D35
 70
     1
 10
0.0
 20
0.0
 30
0.0
  3
*D35
  1

  0
LINE
  5
5827
330
5138
100
AcDbEntity
  8
寸法線
 62
     0
370
    -2
100
AcDbLine
 10
338.5448422860249
 20
172.425443902862
 30
0.0
 11
349.1951963026077
 21
172.3903573996701
 31
0.0
  0
LINE
  5
5828
330
5138
100
AcDbEntity
  8
寸法線
 62
     0
370
    -2
100
AcDbLine
 10
338.511898486466
 20
162.4254981677056
 30
0.0
 11
349.1622525030487
 21
162.3904116645138
 31
0.0
  0
LINE
  5
5829
330
5138
100
AcDbEntity
  8
寸法線
 62
     0
370
    -2
100
AcDbLine
 10
346.1853294421931
 20
169.400256818991
 30
0.0
 11
346.1721519223696
 21
165.4002785249284
 31
0.0
  0
INSERT
  5
582A
330
5138
100
AcDbEntity
  8
寸法線
 62
     0
370
    -2
100
AcDbBlockReference
  2
_Closed
 10
346.1952125820609
 20
172.4002405395378
 30
0.0
 41
3.0
 42
3.0
 43
3.0
 50
89.81124559098999
  0
INSERT
  5
582B
330
5138
100
AcDbEntity
  8
寸法線
 62
     0
370
    -2
100
AcDbBlockReference
  2
_Closed
 10
346.1622687825018
 20
162.4002948043815
 30
0.0
 41
3.0
 42
3.0
 43
3.0
 50
269.8112455909899
  0
MTEXT
  5
582C
330
5138
100
AcDbEntity
  8
寸法線
 62
     0
100
AcDbMText
 10
342.6787596749766
 20
167.4117980018053
 30
0.0
 40
5.0
 41
0.0
 71
     5
 72
     1
  1
13
  7
OKANO
 11
0.0032943799559009
 21
0.9999945735156297
 31
0.0
 73
     1
 44
1.0
  0
POINT
  5
582D
330
5138
100
AcDbEntity
  8
Defpoints
 62
     0
100
AcDbPoint
 10
336.5448531389937
 20
172.4320326627738
 30
0.0
  0
POINT
  5
582E
330
5138
100
AcDbEntity
  8
Defpoints
 62
     0
100
AcDbPoint
 10
336.5119093394347
 20
162.4320869276175
 30
0.0
  0
POINT
  5
582F
330
5138
100
AcDbEntity
  8
Defpoints
 62
     0
100
AcDbPoint
 10
346.1622687825018
 20
162.4002948043815
 30
0.0
  0
ENDBLK
  5
5143
330
5138
100
AcDbEntity
  8
0
100
AcDbBlockEnd
  0
BLOCK
  5
5159
330
514F
100
AcDbEntity
  8
0
100
AcDbBlockBegin
  2
*D36
 70
     1
 10
0.0
 20
0.0
 30
0.0
  3
*D36
  1

  0
LINE
  5
5633
330
514F
100
AcDbEntity
  8
寸法線
 62
     0
370
    -2
100
AcDbLine
 10
738.7643403857444
 20
-32.37999048221922
 30
0.0
 11
759.0487202444507
 21
-32.37999048221923
 31
0.0
  0
LINE
  5
5634
330
514F
100
AcDbEntity
  8
寸法線
 62
     0
370
    -2
100
AcDbLine
 10
743.7643403857443
 20
-22.37999048221922
 30
0.0
 11
759.0487202444507
 21
-22.37999048221923
 31
0.0
  0
LINE
  5
5635
330
514F
100
AcDbEntity
  8
寸法線
 62
     0
370
    -2
100
AcDbLine
 10
756.0487202444508
 20
-29.37999048221923
 30
0.0
 11
756.0487202444508
 21
-25.37999048221923
 31
0.0
  0
INSERT
  5
5636
330
514F
100
AcDbEntity
  8
寸法線
 62
     0
370
    -2
100
AcDbBlockReference
  2
_Closed
 10
756.0487202444508
 20
-32.37999048221923
 30
0.0
 41
3.0
 42
3.0
 43
3.0
 50
270.0
  0
INSERT
  5
5637
330
514F
100
AcDbEntity
  8
寸法線
 62
     0
370
    -2
100
AcDbBlockReference
  2
_Closed
 10
756.0487202444508
 20
-22.37999048221923
 30
0.0
 41
3.0
 42
3.0
 43
3.0
 50
90.0
  0
MTEXT
  5
5638
330
514F
100
AcDbEntity
  8
寸法線
 62
     0
100
AcDbMText
 10
752.5487202444508
 20
-27.37999048221911
 30
0.0
 40
5.0
 41
0.0
 71
     5
 72
     1
  1
10
  7
OKANO
 11
0.0000000000000001
 21
1.0
 31
0.0
 73
     1
 44
1.0
  0
POINT
  5
5639
330
514F
100
AcDbEntity
  8
Defpoints
 62
     0
100
AcDbPoint
 10
736.7643403857443
 20
-32.37999048221922
 30
0.0
  0
POINT
  5
563A
330
514F
100
AcDbEntity
  8
Defpoints
 62
     0
100
AcDbPoint
 10
741.7643403857444
 20
-22.37999048221922
 30
0.0
  0
POINT
  5
563B
330
514F
100
AcDbEntity
  8
Defpoints
 62
     0
100
AcDbPoint
 10
756.0487202444508
 20
-22.37999048221923
 30
0.0
  0
ENDBLK
  5
515A
330
514F
100
AcDbEntity
  8
0
100
AcDbBlockEnd
  0
BLOCK
  5
5173
330
5169
100
AcDbEntity
  8
0
100
AcDbBlockBegin
  2
*D37
 70
     1
 10
0.0
 20
0.0
 30
0.0
  3
*D37
  1

  0
LINE
  5
5839
330
5169
100
AcDbEntity
  8
寸法線
 62
     0
370
    -2
100
AcDbLine
 10
348.5645119939427
 20
30.80294005130598
 30
0.0
 11
398.9163778198013
 21
30.80294005130597
 31
0.0
  0
LINE
  5
583A
330
5169
100
AcDbEntity
  8
寸法線
 62
     0
370
    -2
100
AcDbLine
 10
348.5645119939427
 20
89.802940051306
 30
0.0
 11
398.9163778198013
 21
89.80294005130598
 31
0.0
  0
LINE
  5
583B
330
5169
100
AcDbEntity
  8
寸法線
 62
     0
370
    -2
100
AcDbLine
 10
395.9163778198013
 20
33.80294005130598
 30
0.0
 11
395.9163778198013
 21
86.80294005130598
 31
0.0
  0
INSERT
  5
583C
330
5169
100
AcDbEntity
  8
寸法線
 62
     0
370
    -2
100
AcDbBlockReference
  2
_Closed
 10
395.9163778198013
 20
30.80294005130597
 30
0.0
 41
3.0
 42
3.0
 43
3.0
 50
270.0
  0
INSERT
  5
583D
330
5169
100
AcDbEntity
  8
寸法線
 62
     0
370
    -2
100
AcDbBlockReference
  2
_Closed
 10
395.9163778198013
 20
89.80294005130598
 30
0.0
 41
3.0
 42
3.0
 43
3.0
 50
90.0
  0
MTEXT
  5
583E
330
5169
100
AcDbEntity
  8
寸法線
 62
     0
100
AcDbMText
 10
392.4163778198013
 20
60.30294005130604
 30
0.0
 40
5.0
 41
0.0
 71
     5
 72
     1
  1
60
  7
OKANO
 11
0.0000000000000001
 21
1.0
 31
0.0
 73
     1
 44
1.0
  0
POINT
  5
583F
330
5169
100
AcDbEntity
  8
Defpoints
 62
     0
100
AcDbPoint
 10
346.5645119939427
 20
30.80294005130598
 30
0.0
  0
POINT
  5
5840
330
5169
100
AcDbEntity
  8
Defpoints
 62
     0
100
AcDbPoint
 10
346.5645119939427
 20
89.802940051306
 30
0.0
  0
POINT
  5
5841
330
5169
100
AcDbEntity
  8
Defpoints
 62
     0
100
AcDbPoint
 10
395.9163778198013
 20
89.80294005130598
 30
0.0
  0
ENDBLK
  5
5174
330
5169
100
AcDbEntity
  8
0
100
AcDbBlockEnd
  0
BLOCK
  5
5180
330
5176
100
AcDbEntity
  8
0
100
AcDbBlockBegin
  2
*D38
 70
     1
 10
0.0
 20
0.0
 30
0.0
  3
*D38
  1

  0
LINE
  5
5830
330
5176
100
AcDbEntity
  8
寸法線
 62
     0
370
    -2
100
AcDbLine
 10
312.8544152206443
 20
62.30294005130599
 30
0.0
 11
312.8544152206443
 21
99.93016154099041
 31
0.0
  0
LINE
  5
5831
330
5176
100
AcDbEntity
  8
寸法線
 62
     0
370
    -2
100
AcDbLine
 10
376.0645119939427
 20
62.30294005130599
 30
0.0
 11
376.0645119939427
 21
99.93016154099041
 31
0.0
  0
LINE
  5
5832
330
5176
100
AcDbEntity
  8
寸法線
 62
     0
370
    -2
100
AcDbLine
 10
315.8544152206443
 20
96.93016154099041
 30
0.0
 11
373.0645119939426
 21
96.93016154099041
 31
0.0
  0
INSERT
  5
5833
330
5176
100
AcDbEntity
  8
寸法線
 62
     0
370
    -2
100
AcDbBlockReference
  2
_Closed
 10
312.8544152206443
 20
96.93016154099041
 30
0.0
 41
3.0
 42
3.0
 43
3.0
 50
180.0
  0
INSERT
  5
5834
330
5176
100
AcDbEntity
  8
寸法線
 62
     0
370
    -2
100
AcDbBlockReference
  2
_Closed
 10
376.0645119939427
 20
96.93016154099041
 30
0.0
 41
3.0
 42
3.0
 43
3.0
  0
MTEXT
  5
5835
330
5176
100
AcDbEntity
  8
寸法線
 62
     0
100
AcDbMText
 10
344.4594636072935
 20
100.4301615409904
 30
0.0
 40
5.0
 41
0.0
 71
     5
 72
     1
  1
65
  7
OKANO
 73
     1
 44
1.0
  0
POINT
  5
5836
330
5176
100
AcDbEntity
  8
Defpoints
 62
     0
100
AcDbPoint
 10
312.8544152206443
 20
60.30294005130599
 30
0.0
  0
POINT
  5
5837
330
5176
100
AcDbEntity
  8
Defpoints
 62
     0
100
AcDbPoint
 10
376.0645119939427
 20
60.30294005130599
 30
0.0
  0
POINT
  5
5838
330
5176
100
AcDbEntity
  8
Defpoints
 62
     0
100
AcDbPoint
 10
376.0645119939427
 20
96.93016154099041
 30
0.0
  0
ENDBLK
  5
5181
330
5176
100
AcDbEntity
  8
0
100
AcDbBlockEnd
  0
BLOCK
  5
51A8
330
519E
100
AcDbEntity
  8
0
100
AcDbBlockBegin
  2
*D39
 70
     1
 10
0.0
 20
0.0
 30
0.0
  3
*D39
  1

  0
LINE
  5
564E
330
519E
100
AcDbEntity
  8
寸法線
 62
     0
370
    -2
100
AcDbLine
 10
134.1006226240393
 20
149.9595454100089
 30
0.0
 11
134.1006226240393
 21
167.7917502221423
 31
0.0
  0
LINE
  5
564F
330
519E
100
AcDbEntity
  8
寸法線
 62
     0
370
    -2
100
AcDbLine
 10
173.0885236951263
 20
149.9595454100089
 30
0.0
 11
173.0885236951263
 21
167.7917502221423
 31
0.0
  0
LINE
  5
5650
330
519E
100
AcDbEntity
  8
寸法線
 62
     0
370
    -2
100
AcDbLine
 10
137.1006226240393
 20
164.7917502221423
 30
0.0
 11
170.0885236951263
 21
164.7917502221423
 31
0.0
  0
INSERT
  5
5651
330
519E
100
AcDbEntity
  8
寸法線
 62
     0
370
    -2
100
AcDbBlockReference
  2
_Closed
 10
134.1006226240393
 20
164.7917502221423
 30
0.0
 41
3.0
 42
3.0
 43
3.0
 50
180.0
  0
INSERT
  5
5652
330
519E
100
AcDbEntity
  8
寸法線
 62
     0
370
    -2
100
AcDbBlockReference
  2
_Closed
 10
173.0885236951263
 20
164.7917502221423
 30
0.0
 41
3.0
 42
3.0
 43
3.0
  0
MTEXT
  5
5653
330
519E
100
AcDbEntity
  8
寸法線
 62
     0
100
AcDbMText
 10
153.5945731595828
 20
168.2917502221423
 30
0.0
 40
5.0
 41
0.0
 71
     5
 72
     1
  1
60
  7
OKANO
 73
     1
 44
1.0
  0
POINT
  5
5654
330
519E
100
AcDbEntity
  8
Defpoints
 62
     0
100
AcDbPoint
 10
134.1006226240393
 20
147.9595454100089
 30
0.0
  0
POINT
  5
5655
330
519E
100
AcDbEntity
  8
Defpoints
 62
     0
100
AcDbPoint
 10
173.0885236951263
 20
147.9595454100089
 30
0.0
  0
POINT
  5
5656
330
519E
100
AcDbEntity
  8
Defpoints
 62
     0
100
AcDbPoint
 10
173.0885236951263
 20
164.7917502221423
 30
0.0
  0
ENDBLK
  5
51A9
330
519E
100
AcDbEntity
  8
0
100
AcDbBlockEnd
  0
BLOCK
  5
51B5
330
51AB
100
AcDbEntity
  8
0
100
AcDbBlockBegin
  2
*D40
 70
     1
 10
0.0
 20
0.0
 30
0.0
  3
*D40
  1

  0
LINE
  5
5657
330
51AB
100
AcDbEntity
  8
寸法線
 62
     0
370
    -2
100
AcDbLine
 10
173.2908421604761
 20
124.1923350179907
 30
0.0
 11
186.055606664361
 21
124.1923350179907
 31
0.0
  0
LINE
  5
5658
330
51AB
100
AcDbEntity
  8
寸法線
 62
     0
370
    -2
100
AcDbLine
 10
173.2908421604761
 20
154.1923350179907
 30
0.0
 11
186.055606664361
 21
154.1923350179907
 31
0.0
  0
LINE
  5
5659
330
51AB
100
AcDbEntity
  8
寸法線
 62
     0
370
    -2
100
AcDbLine
 10
183.055606664361
 20
127.1923350179907
 30
0.0
 11
183.055606664361
 21
151.1923350179907
 31
0.0
  0
INSERT
  5
565A
330
51AB
100
AcDbEntity
  8
寸法線
 62
     0
370
    -2
100
AcDbBlockReference
  2
_Closed
 10
183.055606664361
 20
124.1923350179907
 30
0.0
 41
3.0
 42
3.0
 43
3.0
 50
270.0
  0
INSERT
  5
565B
330
51AB
100
AcDbEntity
  8
寸法線
 62
     0
370
    -2
100
AcDbBlockReference
  2
_Closed
 10
183.055606664361
 20
154.1923350179907
 30
0.0
 41
3.0
 42
3.0
 43
3.0
 50
90.0
  0
MTEXT
  5
565C
330
51AB
100
AcDbEntity
  8
寸法線
 62
     0
100
AcDbMText
 10
179.555606664361
 20
139.1923350179907
 30
0.0
 40
5.0
 41
0.0
 71
     5
 72
     1
  1
50
  7
OKANO
 11
0.0000000000000001
 21
1.0
 31
0.0
 73
     1
 44
1.0
  0
POINT
  5
565D
330
51AB
100
AcDbEntity
  8
Defpoints
 62
     0
100
AcDbPoint
 10
171.2908421604761
 20
124.1923350179907
 30
0.0
  0
POINT
  5
565E
330
51AB
100
AcDbEntity
  8
Defpoints
 62
     0
100
AcDbPoint
 10
171.2908421604761
 20
154.1923350179907
 30
0.0
  0
POINT
  5
565F
330
51AB
100
AcDbEntity
  8
Defpoints
 62
     0
100
AcDbPoint
 10
183.055606664361
 20
154.1923350179907
 30
0.0
  0
ENDBLK
  5
51B6
330
51AB
100
AcDbEntity
  8
0
100
AcDbBlockEnd
  0
BLOCK
  5
51DF
330
51D3
100
AcDbEntity
  8
0
100
AcDbBlockBegin
  2
*D41
 70
     1
 10
0.0
 20
0.0
 30
0.0
  3
*D41
  1

  0
LINE
  5
5660
330
51D3
100
AcDbEntity
  8
寸法線
 62
     0
370
    -2
100
AcDbLine
 10
436.3181953934226
 20
-168.7849011309316
 30
0.0
 11
413.0527031614951
 21
-168.7849011309316
 31
0.0
  0
LINE
  5
5661
330
51D3
100
AcDbEntity
  8
寸法線
 62
     0
370
    -2
100
AcDbLine
 10
442.3181953934227
 20
-160.7849011309316
 30
0.0
 11
413.0527031614951
 21
-160.7849011309316
 31
0.0
  0
LINE
  5
5662
330
51D3
100
AcDbEntity
  8
寸法線
 62
     0
370
    -2
100
AcDbLine
 10
416.0527031614951
 20
-171.7849011309316
 30
0.0
 11
416.0527031614951
 21
-174.7849011309316
 31
0.0
  0
LINE
  5
5663
330
51D3
100
AcDbEntity
  8
寸法線
 62
     0
370
    -2
100
AcDbLine
 10
416.0527031614951
 20
-157.7849011309316
 30
0.0
 11
416.0527031614951
 21
-154.7849011309316
 31
0.0
  0
LINE
  5
5664
330
51D3
100
AcDbEntity
  8
寸法線
 62
     0
370
    -2
100
AcDbLine
 10
416.0527031614951
 20
-168.7849011309316
 30
0.0
 11
416.0527031614951
 21
-160.7849011309316
 31
0.0
  0
INSERT
  5
5665
330
51D3
100
AcDbEntity
  8
寸法線
 62
     0
370
    -2
100
AcDbBlockReference
  2
_Closed
 10
416.0527031614951
 20
-168.7849011309316
 30
0.0
 41
3.0
 42
3.0
 43
3.0
 50
90.0
  0
INSERT
  5
5666
330
51D3
100
AcDbEntity
  8
寸法線
 62
     0
370
    -2
100
AcDbBlockReference
  2
_Closed
 10
416.0527031614951
 20
-160.7849011309316
 30
0.0
 41
3.0
 42
3.0
 43
3.0
 50
270.0
  0
MTEXT
  5
5667
330
51D3
100
AcDbEntity
  8
寸法線
 62
     0
100
AcDbMText
 10
412.5527031614952
 20
-164.7849011309315
 30
0.0
 40
5.0
 41
0.0
 71
     5
 72
     1
  1
8
  7
OKANO
 11
0.0000000000000001
 21
1.0
 31
0.0
 73
     1
 44
1.0
  0
POINT
  5
5668
330
51D3
100
AcDbEntity
  8
Defpoints
 62
     0
100
AcDbPoint
 10
438.3181953934227
 20
-168.7849011309316
 30
0.0
  0
POINT
  5
5669
330
51D3
100
AcDbEntity
  8
Defpoints
 62
     0
100
AcDbPoint
 10
444.3181953934226
 20
-160.7849011309316
 30
0.0
  0
POINT
  5
566A
330
51D3
100
AcDbEntity
  8
Defpoints
 62
     0
100
AcDbPoint
 10
416.0527031614951
 20
-160.7849011309316
 30
0.0
  0
ENDBLK
  5
51E0
330
51D3
100
AcDbEntity
  8
0
100
AcDbBlockEnd
  0
BLOCK
  5
5203
330
51F9
100
AcDbEntity
  8
0
100
AcDbBlockBegin
  2
*D42
 70
     1
 10
0.0
 20
0.0
 30
0.0
  3
*D42
  1

  0
LINE
  5
566B
330
51F9
100
AcDbEntity
  8
寸法線
 62
     0
370
    -2
100
AcDbLine
 10
709.7643403857444
 20
-182.2435412987926
 30
0.0
 11
642.5011106308252
 21
-182.2435412987926
 31
0.0
  0
LINE
  5
566C
330
51F9
100
AcDbEntity
  8
寸法線
 62
     0
370
    -2
100
AcDbLine
 10
716.9293181026776
 20
-163.7537047429888
 30
0.0
 11
642.5011106308252
 21
-163.7537047429888
 31
0.0
  0
LINE
  5
566D
330
51F9
100
AcDbEntity
  8
寸法線
 62
     0
370
    -2
100
AcDbLine
 10
645.5011106308252
 20
-179.2435412987926
 30
0.0
 11
645.5011106308252
 21
-166.7537047429888
 31
0.0
  0
INSERT
  5
566E
330
51F9
100
AcDbEntity
  8
寸法線
 62
     0
370
    -2
100
AcDbBlockReference
  2
_Closed
 10
645.5011106308252
 20
-182.2435412987926
 30
0.0
 41
3.0
 42
3.0
 43
3.0
 50
270.0
  0
INSERT
  5
566F
330
51F9
100
AcDbEntity
  8
寸法線
 62
     0
370
    -2
100
AcDbBlockReference
  2
_Closed
 10
645.5011106308252
 20
-163.7537047429888
 30
0.0
 41
3.0
 42
3.0
 43
3.0
 50
90.0
  0
MTEXT
  5
5670
330
51F9
100
AcDbEntity
  8
寸法線
 62
     0
100
AcDbMText
 10
642.0011106308252
 20
-172.9986230208906
 30
0.0
 40
5.0
 41
0.0
 71
     5
 72
     1
  1
30
  7
OKANO
 11
0.0000000000000001
 21
1.0
 31
0.0
 73
     1
 44
1.0
  0
POINT
  5
5671
330
51F9
100
AcDbEntity
  8
Defpoints
 62
     0
100
AcDbPoint
 10
711.7643403857443
 20
-182.2435412987926
 30
0.0
  0
POINT
  5
5672
330
51F9
100
AcDbEntity
  8
Defpoints
 62
     0
100
AcDbPoint
 10
718.9293181026775
 20
-163.7537047429888
 30
0.0
  0
POINT
  5
5673
330
51F9
100
AcDbEntity
  8
Defpoints
 62
     0
100
AcDbPoint
 10
645.5011106308252
 20
-163.7537047429888
 30
0.0
  0
ENDBLK
  5
5204
330
51F9
100
AcDbEntity
  8
0
100
AcDbBlockEnd
  0
BLOCK
  5
5210
330
5206
100
AcDbEntity
  8
0
100
AcDbBlockBegin
  2
*D43
 70
     1
 10
0.0
 20
0.0
 30
0.0
  3
*D43
  1

  0
LINE
  5
5674
330
5206
100
AcDbEntity
  8
寸法線
 62
     0
370
    -2
100
AcDbLine
 10
685.2223612385305
 20
-163.7537047429888
 30
0.0
 11
642.5011106308252
 21
-163.7537047429888
 31
0.0
  0
LINE
  5
5675
330
5206
100
AcDbEntity
  8
寸法線
 62
     0
370
    -2
100
AcDbLine
 10
694.9293181026775
 20
-147.7537047429888
 30
0.0
 11
642.5011106308252
 21
-147.7537047429888
 31
0.0
  0
LINE
  5
5676
330
5206
100
AcDbEntity
  8
寸法線
 62
     0
370
    -2
100
AcDbLine
 10
645.5011106308252
 20
-160.7537047429888
 30
0.0
 11
645.5011106308252
 21
-150.7537047429888
 31
0.0
  0
INSERT
  5
5677
330
5206
100
AcDbEntity
  8
寸法線
 62
     0
370
    -2
100
AcDbBlockReference
  2
_Closed
 10
645.5011106308252
 20
-163.7537047429888
 30
0.0
 41
3.0
 42
3.0
 43
3.0
 50
270.0
  0
INSERT
  5
5678
330
5206
100
AcDbEntity
  8
寸法線
 62
     0
370
    -2
100
AcDbBlockReference
  2
_Closed
 10
645.5011106308252
 20
-147.7537047429888
 30
0.0
 41
3.0
 42
3.0
 43
3.0
 50
90.0
  0
MTEXT
  5
5679
330
5206
100
AcDbEntity
  8
寸法線
 62
     0
100
AcDbMText
 10
642.0011106308252
 20
-155.7537047429887
 30
0.0
 40
5.0
 41
0.0
 71
     5
 72
     1
  1
14
  7
OKANO
 11
0.0000000000000001
 21
1.0
 31
0.0
 73
     1
 44
1.0
  0
POINT
  5
567A
330
5206
100
AcDbEntity
  8
Defpoints
 62
     0
100
AcDbPoint
 10
687.2223612385305
 20
-163.7537047429888
 30
0.0
  0
POINT
  5
567B
330
5206
100
AcDbEntity
  8
Defpoints
 62
     0
100
AcDbPoint
 10
696.9293181026776
 20
-147.7537047429888
 30
0.0
  0
POINT
  5
567C
330
5206
100
AcDbEntity
  8
Defpoints
 62
     0
100
AcDbPoint
 10
645.5011106308252
 20
-147.7537047429888
 30
0.0
  0
ENDBLK
  5
5211
330
5206
100
AcDbEntity
  8
0
100
AcDbBlockEnd
  0
BLOCK
  5
521D
330
5213
100
AcDbEntity
  8
0
100
AcDbBlockBegin
  2
*D44
 70
     1
 10
0.0
 20
0.0
 30
0.0
  3
*D44
  1

  0
LINE
  5
567D
330
5213
100
AcDbEntity
  8
寸法線
 62
     0
370
    -2
100
AcDbLine
 10
694.9293181026775
 20
-140.2625195834211
 30
0.0
 11
642.5011106308252
 21
-140.2625195834211
 31
0.0
  0
LINE
  5
567E
330
5213
100
AcDbEntity
  8
寸法線
 62
     0
370
    -2
100
AcDbLine
 10
694.9293181026775
 20
-124.2625195834211
 30
0.0
 11
642.5011106308252
 21
-124.2625195834211
 31
0.0
  0
LINE
  5
567F
330
5213
100
AcDbEntity
  8
寸法線
 62
     0
370
    -2
100
AcDbLine
 10
645.5011106308252
 20
-137.2625195834211
 30
0.0
 11
645.5011106308252
 21
-127.2625195834211
 31
0.0
  0
INSERT
  5
5680
330
5213
100
AcDbEntity
  8
寸法線
 62
     0
370
    -2
100
AcDbBlockReference
  2
_Closed
 10
645.5011106308252
 20
-140.2625195834211
 30
0.0
 41
3.0
 42
3.0
 43
3.0
 50
270.0
  0
INSERT
  5
5681
330
5213
100
AcDbEntity
  8
寸法線
 62
     0
370
    -2
100
AcDbBlockReference
  2
_Closed
 10
645.5011106308252
 20
-124.2625195834211
 30
0.0
 41
3.0
 42
3.0
 43
3.0
 50
90.0
  0
MTEXT
  5
5682
330
5213
100
AcDbEntity
  8
寸法線
 62
     0
100
AcDbMText
 10
642.0011106308252
 20
-132.262519583421
 30
0.0
 40
5.0
 41
0.0
 71
     5
 72
     1
  1
17
  7
OKANO
 11
0.0000000000000001
 21
1.0
 31
0.0
 73
     1
 44
1.0
  0
POINT
  5
5683
330
5213
100
AcDbEntity
  8
Defpoints
 62
     0
100
AcDbPoint
 10
696.9293181026776
 20
-140.2625195834211
 30
0.0
  0
POINT
  5
5684
330
5213
100
AcDbEntity
  8
Defpoints
 62
     0
100
AcDbPoint
 10
696.9293181026776
 20
-124.2625195834211
 30
0.0
  0
POINT
  5
5685
330
5213
100
AcDbEntity
  8
Defpoints
 62
     0
100
AcDbPoint
 10
645.5011106308252
 20
-124.2625195834211
 30
0.0
  0
ENDBLK
  5
521E
330
5213
100
AcDbEntity
  8
0
100
AcDbBlockEnd
  0
BLOCK
  5
5247
330
523B
100
AcDbEntity
  8
0
100
AcDbBlockBegin
  2
*D45
 70
     1
 10
0.0
 20
0.0
 30
0.0
  3
*D45
  1

  0
LINE
  5
57EB
330
523B
100
AcDbEntity
  8
寸法線
 62
     0
370
    -2
100
AcDbLine
 10
793.7097904206186
 20
-182.2435412987926
 30
0.0
 11
806.8089421291023
 21
-182.2435412987926
 31
0.0
  0
LINE
  5
57EC
330
523B
100
AcDbEntity
  8
寸法線
 62
     0
370
    -2
100
AcDbLine
 10
788.7097904206187
 20
-177.2435412987926
 30
0.0
 11
806.8089421291023
 21
-177.2435412987926
 31
0.0
  0
LINE
  5
57ED
330
523B
100
AcDbEntity
  8
寸法線
 62
     0
370
    -2
100
AcDbLine
 10
803.8089421291024
 20
-185.2435412987927
 30
0.0
 11
803.8089421291024
 21
-188.2435412987927
 31
0.0
  0
LINE
  5
57EE
330
523B
100
AcDbEntity
  8
寸法線
 62
     0
370
    -2
100
AcDbLine
 10
803.8089421291024
 20
-174.2435412987926
 30
0.0
 11
803.8089421291024
 21
-171.2435412987926
 31
0.0
  0
LINE
  5
57EF
330
523B
100
AcDbEntity
  8
寸法線
 62
     0
370
    -2
100
AcDbLine
 10
803.8089421291024
 20
-182.2435412987926
 30
0.0
 11
803.8089421291024
 21
-177.2435412987926
 31
0.0
  0
INSERT
  5
57F0
330
523B
100
AcDbEntity
  8
寸法線
 62
     0
370
    -2
100
AcDbBlockReference
  2
_Closed
 10
803.8089421291024
 20
-182.2435412987926
 30
0.0
 41
3.0
 42
3.0
 43
3.0
 50
90.0
  0
INSERT
  5
57F1
330
523B
100
AcDbEntity
  8
寸法線
 62
     0
370
    -2
100
AcDbBlockReference
  2
_Closed
 10
803.8089421291024
 20
-177.2435412987926
 30
0.0
 41
3.0
 42
3.0
 43
3.0
 50
270.0
  0
MTEXT
  5
57F2
330
523B
100
AcDbEntity
  8
寸法線
 62
     0
100
AcDbMText
 10
800.3089421291024
 20
-179.7435412987925
 30
0.0
 40
5.0
 41
0.0
 71
     5
 72
     1
  1
5
  7
OKANO
 11
0.0000000000000001
 21
1.0
 31
0.0
 73
     1
 44
1.0
  0
POINT
  5
57F3
330
523B
100
AcDbEntity
  8
Defpoints
 62
     0
100
AcDbPoint
 10
791.7097904206187
 20
-182.2435412987926
 30
0.0
  0
POINT
  5
57F4
330
523B
100
AcDbEntity
  8
Defpoints
 62
     0
100
AcDbPoint
 10
786.7097904206186
 20
-177.2435412987926
 30
0.0
  0
POINT
  5
57F5
330
523B
100
AcDbEntity
  8
Defpoints
 62
     0
100
AcDbPoint
 10
803.8089421291024
 20
-177.2435412987926
 30
0.0
  0
ENDBLK
  5
5248
330
523B
100
AcDbEntity
  8
0
100
AcDbBlockEnd
  0
BLOCK
  5
526F
330
5265
100
AcDbEntity
  8
0
100
AcDbBlockBegin
  2
*D46
 70
     1
 10
0.0
 20
0.0
 30
0.0
  3
*D46
  1

  0
LINE
  5
5691
330
5265
100
AcDbEntity
  8
寸法線
 62
     0
370
    -2
100
AcDbLine
 10
556.4990407119219
 20
19.62000951778077
 30
0.0
 11
556.4990407119219
 21
30.97616469175636
 31
0.0
  0
LINE
  5
5692
330
5265
100
AcDbEntity
  8
寸法線
 62
     0
370
    -2
100
AcDbLine
 10
606.4990407119219
 20
19.62000951778077
 30
0.0
 11
606.4990407119219
 21
30.97616469175636
 31
0.0
  0
LINE
  5
5693
330
5265
100
AcDbEntity
  8
寸法線
 62
     0
370
    -2
100
AcDbLine
 10
559.499040711922
 20
27.97616469175636
 30
0.0
 11
603.499040711922
 21
27.97616469175636
 31
0.0
  0
INSERT
  5
5694
330
5265
100
AcDbEntity
  8
寸法線
 62
     0
370
    -2
100
AcDbBlockReference
  2
_Closed
 10
556.4990407119219
 20
27.97616469175636
 30
0.0
 41
3.0
 42
3.0
 43
3.0
 50
180.0
  0
INSERT
  5
5695
330
5265
100
AcDbEntity
  8
寸法線
 62
     0
370
    -2
100
AcDbBlockReference
  2
_Closed
 10
606.4990407119219
 20
27.97616469175636
 30
0.0
 41
3.0
 42
3.0
 43
3.0
  0
MTEXT
  5
5696
330
5265
100
AcDbEntity
  8
寸法線
 62
     0
100
AcDbMText
 10
581.4990407119219
 20
31.47616469175636
 30
0.0
 40
5.0
 41
0.0
 71
     5
 72
     1
  1
49～50
  7
OKANO
 73
     1
 44
1.0
  0
POINT
  5
5697
330
5265
100
AcDbEntity
  8
Defpoints
 62
     0
100
AcDbPoint
 10
556.4990407119219
 20
17.62000951778077
 30
0.0
  0
POINT
  5
5698
330
5265
100
AcDbEntity
  8
Defpoints
 62
     0
100
AcDbPoint
 10
606.4990407119219
 20
17.62000951778077
 30
0.0
  0
POINT
  5
5699
330
5265
100
AcDbEntity
  8
Defpoints
 62
     0
100
AcDbPoint
 10
606.4990407119219
 20
27.97616469175636
 30
0.0
  0
ENDBLK
  5
5270
330
5265
100
AcDbEntity
  8
0
100
AcDbBlockEnd
  0
BLOCK
  5
534A
330
533F
100
AcDbEntity
  8
0
100
AcDbBlockBegin
  2
*D47
 70
     1
 10
0.0
 20
0.0
 30
0.0
  3
*D47
  1

  0
LINE
  5
569A
330
533F
100
AcDbEntity
  8
寸法線
 62
     0
370
    -2
100
AcDbLine
 10
441.3181953934226
 20
-153.9711447459333
 30
0.0
 11
429.0873067252428
 21
-153.9711447459333
 31
0.0
  0
LINE
  5
569B
330
533F
100
AcDbEntity
  8
寸法線
 62
     0
370
    -2
100
AcDbLine
 10
441.3181953934226
 20
-144.3451030441349
 30
0.0
 11
429.0873067252428
 21
-144.3451030441349
 31
0.0
  0
LINE
  5
569C
330
533F
100
AcDbEntity
  8
寸法線
 62
     0
370
    -2
100
AcDbLine
 10
432.0873067252428
 20
-150.9711447459333
 30
0.0
 11
432.0873067252428
 21
-147.3451030441349
 31
0.0
  0
INSERT
  5
569D
330
533F
100
AcDbEntity
  8
寸法線
 62
     0
370
    -2
100
AcDbBlockReference
  2
_Closed
 10
432.0873067252428
 20
-153.9711447459333
 30
0.0
 41
3.0
 42
3.0
 43
3.0
 50
270.0
  0
INSERT
  5
569E
330
533F
100
AcDbEntity
  8
寸法線
 62
     0
370
    -2
100
AcDbBlockReference
  2
_Closed
 10
432.0873067252428
 20
-144.3451030441349
 30
0.0
 41
3.0
 42
3.0
 43
3.0
 50
90.0
  0
MTEXT
  5
569F
330
533F
100
AcDbEntity
  8
寸法線
 62
     0
100
AcDbMText
 10
428.5873067252429
 20
-149.158123895034
 30
0.0
 40
5.0
 41
0.0
 71
     5
 72
     1
  1
10
  7
OKANO
 11
0.0000000000000001
 21
1.0
 31
0.0
 73
     1
 44
1.0
  0
POINT
  5
56A0
330
533F
100
AcDbEntity
  8
Defpoints
 62
     0
100
AcDbPoint
 10
443.3181953934226
 20
-153.9711447459333
 30
0.0
  0
POINT
  5
56A1
330
533F
100
AcDbEntity
  8
Defpoints
 62
     0
100
AcDbPoint
 10
443.3181953934226
 20
-144.3451030441349
 30
0.0
  0
POINT
  5
56A2
330
533F
100
AcDbEntity
  8
Defpoints
 62
     0
100
AcDbPoint
 10
432.0873067252428
 20
-144.3451030441349
 30
0.0
  0
ENDBLK
  5
534B
330
533F
100
AcDbEntity
  8
0
100
AcDbBlockEnd
  0
BLOCK
  5
539E
330
5395
100
AcDbEntity
  8
0
100
AcDbBlockBegin
  2
*D48
 70
     1
 10
0.0
 20
0.0
 30
0.0
  3
*D48
  1

  0
LINE
  5
56A3
330
5395
100
AcDbEntity
  8
寸法線
 62
     0
370
    -2
100
AcDbLine
 10
137.3184340369223
 20
196.8682809809936
 30
0.0
 11
52.96494695105665
 21
154.7478982481435
 31
0.0
  0
LINE
  5
56A4
330
5395
100
AcDbEntity
  8
寸法線
 62
     0
370
    -2
100
AcDbLine
 10
25.77520192439098
 20
141.1711925718744
 30
0.0
 11
23.09120340912332
 21
139.8309866287294
 31
0.0
  0
MTEXT
  5
56A5
330
5395
100
AcDbEntity
  8
寸法線
 62
     0
100
AcDbMText
 10
115.2791910542517
 20
189.7754587161901
 30
0.0
 40
5.0
 41
0.0
 71
     5
 72
     1
  1
底　水抜きΦ45
  7
OKANO
 11
0.8946661717558884
 21
0.4467353143816407
 31
0.0
 73
     1
 44
1.0
  0
LINE
  5
56A6
330
5395
100
AcDbEntity
  8
寸法線
 62
     0
370
    -2
100
AcDbLine
 10
28.45920043965864
 20
142.5113985150193
 30
0.0
 11
50.28094843578898
 21
153.4076923049985
 31
0.0
  0
INSERT
  5
56A7
330
5395
100
AcDbEntity
  8
寸法線
 62
     0
370
    -2
100
AcDbBlockReference
  2
_Closed
 10
28.45920043965864
 20
142.5113985150193
 30
0.0
 41
3.0
 42
3.0
 43
3.0
 50
26.53441723765591
  0
INSERT
  5
56A8
330
5395
100
AcDbEntity
  8
寸法線
 62
     0
370
    -2
100
AcDbBlockReference
  2
_Closed
 10
50.28094843578898
 20
153.4076923049985
 30
0.0
 41
3.0
 42
3.0
 43
3.0
 50
206.5344172376558
  0
POINT
  5
56A9
330
5395
100
AcDbEntity
  8
Defpoints
 62
     0
100
AcDbPoint
 10
50.28094843578898
 20
153.4076923049985
 30
0.0
  0
POINT
  5
56AA
330
5395
100
AcDbEntity
  8
Defpoints
 62
     0
100
AcDbPoint
 10
28.45920043965864
 20
142.5113985150193
 30
0.0
  0
ENDBLK
  5
539F
330
5395
100
AcDbEntity
  8
0
100
AcDbBlockEnd
  0
BLOCK
  5
5784
330
577A
100
AcDbEntity
  8
0
100
AcDbBlockBegin
  2
*D64
 70
     1
 10
0.0
 20
0.0
 30
0.0
  3
*D64
  1

  0
LINE
  5
57B3
330
577A
100
AcDbEntity
  8
寸法線
 62
     0
370
    -2
100
AcDbLine
 10
649.1780113344567
 20
207.8788785053579
 30
0.0
 11
618.8367712477665
 21
207.8788785053579
 31
0.0
  0
LINE
  5
57B4
330
577A
100
AcDbEntity
  8
寸法線
 62
     0
370
    -2
100
AcDbLine
 10
647.061068739107
 20
85.28495125633924
 30
0.0
 11
618.8367712477665
 21
85.28495125633924
 31
0.0
  0
LINE
  5
57B5
330
577A
100
AcDbEntity
  8
寸法線
 62
     0
370
    -2
100
AcDbLine
 10
621.8367712477665
 20
204.8788785053579
 30
0.0
 11
621.8367712477665
 21
88.28495125633924
 31
0.0
  0
INSERT
  5
57B6
330
577A
100
AcDbEntity
  8
寸法線
 62
     0
370
    -2
100
AcDbBlockReference
  2
_Closed
 10
621.8367712477665
 20
207.8788785053579
 30
0.0
 41
3.0
 42
3.0
 43
3.0
 50
90.0
  0
INSERT
  5
57B7
330
577A
100
AcDbEntity
  8
寸法線
 62
     0
370
    -2
100
AcDbBlockReference
  2
_Closed
 10
621.8367712477665
 20
85.28495125633924
 30
0.0
 41
3.0
 42
3.0
 43
3.0
 50
270.0
  0
MTEXT
  5
57B8
330
577A
100
AcDbEntity
  8
寸法線
 62
     0
100
AcDbMText
 10
618.3362791217823
 20
146.5819148808487
 30
0.0
 40
5.0
 41
0.0
 71
     5
 72
     1
  1
120
  7
OKANO
 11
0.0000000000000001
 21
1.0
 31
0.0
 73
     1
 44
1.0
  0
POINT
  5
57B9
330
577A
100
AcDbEntity
  8
Defpoints
 62
     0
100
AcDbPoint
 10
651.1780113344567
 20
207.8788785053579
 30
0.0
  0
POINT
  5
57BA
330
577A
100
AcDbEntity
  8
Defpoints
 62
     0
100
AcDbPoint
 10
649.0610687391069
 20
85.28495125633924
 30
0.0
  0
POINT
  5
57BB
330
577A
100
AcDbEntity
  8
Defpoints
 62
     0
100
AcDbPoint
 10
621.8367712477665
 20
85.28495125633924
 30
0.0
  0
ENDBLK
  5
5785
330
577A
100
AcDbEntity
  8
0
100
AcDbBlockEnd
  0
BLOCK
  5
5790
330
5786
100
AcDbEntity
  8
0
100
AcDbBlockBegin
  2
*D65
 70
     1
 10
0.0
 20
0.0
 30
0.0
  3
*D65
  1

  0
LINE
  5
57BC
330
5786
100
AcDbEntity
  8
寸法線
 62
     0
370
    -2
100
AcDbLine
 10
770.5238550166703
 20
81.47298225228571
 30
0.0
 11
797.006463478632
 21
54.96494807539256
 31
0.0
  0
LINE
  5
57BD
330
5786
100
AcDbEntity
  8
寸法線
 62
     0
370
    -2
100
AcDbLine
 10
778.8783356190228
 20
89.81944948628422
 30
0.0
 11
805.3609440809843
 21
63.31141530939106
 31
0.0
  0
LINE
  5
57BE
330
5786
100
AcDbEntity
  8
寸法線
 62
     0
370
    -2
100
AcDbLine
 10
797.0084991618182
 20
59.20758827413601
 30
0.0
 11
801.1183038822409
 21
63.31345099257737
 31
0.0
  0
INSERT
  5
57BF
330
5786
100
AcDbEntity
  8
寸法線
 62
     0
370
    -2
100
AcDbBlockReference
  2
_Closed
 10
794.8861612208534
 20
57.08728601635744
 30
0.0
 41
3.0
 42
3.0
 43
3.0
 50
224.972508617138
  0
INSERT
  5
57C0
330
5786
100
AcDbEntity
  8
寸法線
 62
     0
370
    -2
100
AcDbBlockReference
  2
_Closed
 10
803.2406418232058
 20
65.43375325035595
 30
0.0
 41
3.0
 42
3.0
 43
3.0
 50
44.972508617138
  0
MTEXT
  5
57C1
330
5786
100
AcDbEntity
  8
寸法線
 62
     0
100
AcDbMText
 10
796.5893677360094
 20
63.73692871703173
 30
0.0
 40
5.0
 41
0.0
 71
     5
 72
     1
  1
12
  7
OKANO
 11
0.7074459803216251
 21
0.7067674192595291
 31
0.0
 73
     1
 44
1.0
  0
POINT
  5
57C2
330
5786
100
AcDbEntity
  8
Defpoints
 62
     0
100
AcDbPoint
 10
769.1103201781514
 20
82.88787421292898
 30
0.0
  0
POINT
  5
57C3
330
5786
100
AcDbEntity
  8
Defpoints
 62
     0
100
AcDbPoint
 10
777.4648007805037
 20
91.23434144692742
 30
0.0
  0
POINT
  5
57C4
330
5786
100
AcDbEntity
  8
Defpoints
 62
     0
100
AcDbPoint
 10
803.2406418232058
 20
65.43375325035595
 30
0.0
  0
ENDBLK
  5
5791
330
5786
100
AcDbEntity
  8
0
100
AcDbBlockEnd
  0
BLOCK
  5
579C
330
5792
100
AcDbEntity
  8
0
100
AcDbBlockBegin
  2
*D66
 70
     1
 10
0.0
 20
0.0
 30
0.0
  3
*D66
  1

  0
LINE
  5
57C5
330
5792
100
AcDbEntity
  8
寸法線
 62
     0
370
    -2
100
AcDbLine
 10
632.2308345011767
 20
83.28495125633924
 30
0.0
 11
632.2308345011767
 21
51.82047660764948
 31
0.0
  0
LINE
  5
57C6
330
5792
100
AcDbEntity
  8
寸法線
 62
     0
370
    -2
100
AcDbLine
 10
791.7097904206187
 20
86.30916717910015
 30
0.0
 11
791.7097904206187
 21
51.82047660764948
 31
0.0
  0
LINE
  5
57C7
330
5792
100
AcDbEntity
  8
寸法線
 62
     0
370
    -2
100
AcDbLine
 10
635.2308345011766
 20
54.82047660764948
 30
0.0
 11
788.7097904206187
 21
54.82047660764948
 31
0.0
  0
INSERT
  5
57C8
330
5792
100
AcDbEntity
  8
寸法線
 62
     0
370
    -2
100
AcDbBlockReference
  2
_Closed
 10
632.2308345011767
 20
54.82047660764948
 30
0.0
 41
3.0
 42
3.0
 43
3.0
 50
180.0
  0
INSERT
  5
57C9
330
5792
100
AcDbEntity
  8
寸法線
 62
     0
370
    -2
100
AcDbBlockReference
  2
_Closed
 10
791.7097904206187
 20
54.82047660764948
 30
0.0
 41
3.0
 42
3.0
 43
3.0
  0
MTEXT
  5
57CA
330
5792
100
AcDbEntity
  8
寸法線
 62
     0
100
AcDbMText
 10
711.9703124608977
 20
58.32047660764948
 30
0.0
 40
5.0
 41
0.0
 71
     5
 72
     1
  1
160
  7
OKANO
 73
     1
 44
1.0
  0
POINT
  5
57CB
330
5792
100
AcDbEntity
  8
Defpoints
 62
     0
100
AcDbPoint
 10
632.2308345011767
 20
85.28495125633924
 30
0.0
  0
POINT
  5
57CC
330
5792
100
AcDbEntity
  8
Defpoints
 62
     0
100
AcDbPoint
 10
791.7097904206187
 20
88.30916717910014
 30
0.0
  0
POINT
  5
57CD
330
5792
100
AcDbEntity
  8
Defpoints
 62
     0
100
AcDbPoint
 10
791.7097904206187
 20
54.82047660764948
 30
0.0
  0
ENDBLK
  5
579D
330
5792
100
AcDbEntity
  8
0
100
AcDbBlockEnd
  0
BLOCK
  5
57A8
330
579E
100
AcDbEntity
  8
0
100
AcDbBlockBegin
  2
*D67
 70
     1
 10
0.0
 20
0.0
 30
0.0
  3
*D67
  1

  0
LINE
  5
57CE
330
579E
100
AcDbEntity
  8
寸法線
 62
     0
370
    -2
100
AcDbLine
 10
767.5482729824624
 20
95.13048929975241
 30
0.0
 11
777.4176289766521
 21
105.3892761992381
 31
0.0
  0
LINE
  5
57CF
330
579E
100
AcDbEntity
  8
寸法線
 62
     0
370
    -2
100
AcDbLine
 10
780.8171537979713
 20
82.36530471254775
 30
0.0
 11
790.6865097921611
 21
92.62409161203351
 31
0.0
  0
LINE
  5
57D0
330
579E
100
AcDbEntity
  8
寸法線
 62
     0
370
    -2
100
AcDbLine
 10
777.4996984583285
 20
101.1474293608696
 30
0.0
 11
786.4446629537926
 21
92.54202213035711
 31
0.0
  0
INSERT
  5
57D1
330
579E
100
AcDbEntity
  8
寸法線
 62
     0
370
    -2
100
AcDbBlockReference
  2
_Closed
 10
775.3377402983061
 20
103.2273180392156
 30
0.0
 41
3.0
 42
3.0
 43
3.0
 50
136.1083965334503
  0
INSERT
  5
57D2
330
579E
100
AcDbEntity
  8
寸法線
 62
     0
370
    -2
100
AcDbBlockReference
  2
_Closed
 10
788.606621113815
 20
90.46213345201101
 30
0.0
 41
3.0
 42
3.0
 43
3.0
 50
316.1083965334503
  0
MTEXT
  5
57D3
330
579E
100
AcDbEntity
  8
寸法線
 62
     0
100
AcDbMText
 10
784.399058686552
 20
99.36736491756859
 30
0.0
 40
5.0
 41
0.0
 71
     5
 72
     1
  1
20
  7
OKANO
 11
0.7206527200074976
 21
-0.6932962261153564
 31
0.0
 73
     1
 44
1.0
  0
POINT
  5
57D4
330
579E
100
AcDbEntity
  8
Defpoints
 62
     0
100
AcDbPoint
 10
766.1616805302316
 20
93.6891838597374
 30
0.0
  0
POINT
  5
57D5
330
579E
100
AcDbEntity
  8
Defpoints
 62
     0
100
AcDbPoint
 10
779.4305613457407
 20
80.92399927253273
 30
0.0
  0
POINT
  5
57D6
330
579E
100
AcDbEntity
  8
Defpoints
 62
     0
100
AcDbPoint
 10
788.606621113815
 20
90.46213345201101
 30
0.0
  0
ENDBLK
  5
57A9
330
579E
100
AcDbEntity
  8
0
100
AcDbBlockEnd
  0
BLOCK
  5
57B1
330
57AA
100
AcDbEntity
  8
0
100
AcDbBlockBegin
  2
*D68
 70
     1
 10
0.0
 20
0.0
 30
0.0
  3
*D68
  1

  0
LINE
  5
57D7
330
57AA
100
AcDbEntity
  8
寸法線
 62
     0
370
    -2
100
AcDbLine
 10
615.5581714649484
 20
235.2882817802643
 30
0.0
 11
632.9500158093976
 21
221.9052885641866
 31
0.0
  0
MTEXT
  5
57D8
330
57AA
100
AcDbEntity
  8
寸法線
 62
     0
100
AcDbMText
 10
622.7027397068193
 20
234.2074539443652
 30
0.0
 40
5.0
 41
0.0
 71
     5
 72
     1
  1
R20
  7
OKANO
 11
0.7925215445678039
 21
-0.6098439156012484
 31
0.0
 73
     1
 44
1.0
  0
LINE
  5
57D9
330
57AA
100
AcDbEntity
  8
寸法線
 62
     0
370
    -2
100
AcDbLine
 10
651.1780113344563
 20
207.8788785053582
 30
0.0
 11
635.3275804431009
 21
220.0757568173829
 31
0.0
  0
INSERT
  5
57DA
330
57AA
100
AcDbEntity
  8
寸法線
 62
     0
370
    -2
100
AcDbBlockReference
  2
_Closed
 10
635.3275804431009
 20
220.0757568173829
 30
0.0
 41
3.0
 42
3.0
 43
3.0
 50
322.4217820975776
  0
POINT
  5
57DB
330
57AA
100
AcDbEntity
  8
Defpoints
 62
     0
100
AcDbPoint
 10
635.3275804431009
 20
220.0757568173829
 30
0.0
  0
POINT
  5
57DC
330
57AA
100
AcDbEntity
  8
Defpoints
 62
     0
100
AcDbPoint
 10
651.1780113344563
 20
207.8788785053582
 30
0.0
  0
ENDBLK
  5
57B2
330
57AA
100
AcDbEntity
  8
0
100
AcDbBlockEnd
  0
BLOCK
  5
584F
330
5845
100
AcDbEntity
  8
0
100
AcDbBlockBegin
  2
*D69
 70
     1
 10
0.0
 20
0.0
 30
0.0
  3
*D69
  1

  0
LINE
  5
5846
330
5845
100
AcDbEntity
  8
構築線
 62
     0
370
    -2
100
AcDbLine
 10
421.8181953934227
 20
58.302940051306
 30
0.0
 11
421.8181953934227
 21
41.86551413966981
 31
0.0
  0
LINE
  5
5847
330
5845
100
AcDbEntity
  8
構築線
 62
     0
370
    -2
100
AcDbLine
 10
476.8181953934226
 20
58.302940051306
 30
0.0
 11
476.8181953934226
 21
41.86551413966981
 31
0.0
  0
LINE
  5
5848
330
5845
100
AcDbEntity
  8
構築線
 62
     0
370
    -2
100
AcDbLine
 10
424.8181953934226
 20
44.86551413966981
 30
0.0
 11
473.8181953934226
 21
44.86551413966981
 31
0.0
  0
INSERT
  5
5849
330
5845
100
AcDbEntity
  8
構築線
 62
     0
370
    -2
100
AcDbBlockReference
  2
_Closed
 10
421.8181953934227
 20
44.86551413966981
 30
0.0
 41
3.0
 42
3.0
 43
3.0
 50
180.0
  0
INSERT
  5
584A
330
5845
100
AcDbEntity
  8
構築線
 62
     0
370
    -2
100
AcDbBlockReference
  2
_Closed
 10
476.8181953934226
 20
44.86551413966981
 30
0.0
 41
3.0
 42
3.0
 43
3.0
  0
MTEXT
  5
584B
330
5845
100
AcDbEntity
  8
構築線
 62
     0
100
AcDbMText
 10
449.3181953934226
 20
48.36551413966981
 30
0.0
 40
5.0
 41
0.0
 71
     5
 72
     1
  1
55
  7
OKANO
 73
     1
 44
1.0
  0
POINT
  5
584C
330
5845
100
AcDbEntity
  8
Defpoints
 62
     0
100
AcDbPoint
 10
421.8181953934227
 20
60.30294005130599
 30
0.0
  0
POINT
  5
584D
330
5845
100
AcDbEntity
  8
Defpoints
 62
     0
100
AcDbPoint
 10
476.8181953934226
 20
60.30294005130599
 30
0.0
  0
POINT
  5
584E
330
5845
100
AcDbEntity
  8
Defpoints
 62
     0
100
AcDbPoint
 10
476.8181953934226
 20
44.86551413966981
 30
0.0
  0
ENDBLK
  5
5850
330
5845
100
AcDbEntity
  8
0
100
AcDbBlockEnd
  0
BLOCK
  5
5861
330
5857
100
AcDbEntity
  8
0
100
AcDbBlockBegin
  2
*D70
 70
     1
 10
0.0
 20
0.0
 30
0.0
  3
*D70
  1

  0
LINE
  5
5863
330
5857
100
AcDbEntity
  8
寸法線
 62
     0
370
    -2
100
AcDbLine
 10
446.3945803774103
 20
177.9556813010926
 30
0.0
 11
403.4077641649865
 21
177.9556813010926
 31
0.0
  0
LINE
  5
5864
330
5857
100
AcDbEntity
  8
寸法線
 62
     0
370
    -2
100
AcDbLine
 10
446.3945803774103
 20
117.9634095189252
 30
0.0
 11
403.4077641649864
 21
117.9634095189252
 31
0.0
  0
LINE
  5
5865
330
5857
100
AcDbEntity
  8
寸法線
 62
     0
370
    -2
100
AcDbLine
 10
406.4077641649864
 20
174.9556813010926
 30
0.0
 11
406.4077641649864
 21
120.9634095189253
 31
0.0
  0
INSERT
  5
5866
330
5857
100
AcDbEntity
  8
寸法線
 62
     0
370
    -2
100
AcDbBlockReference
  2
_Closed
 10
406.4077641649864
 20
177.9556813010926
 30
0.0
 41
3.0
 42
3.0
 43
3.0
 50
90.0
  0
INSERT
  5
5867
330
5857
100
AcDbEntity
  8
寸法線
 62
     0
370
    -2
100
AcDbBlockReference
  2
_Closed
 10
406.4077641649864
 20
117.9634095189252
 30
0.0
 41
3.0
 42
3.0
 43
3.0
 50
270.0
  0
MTEXT
  5
5868
330
5857
100
AcDbEntity
  8
寸法線
 62
     0
100
AcDbMText
 10
402.9077641649864
 20
147.959545410009
 30
0.0
 40
5.0
 41
0.0
 71
     5
 72
     1
  1
60
  7
OKANO
 11
0.0000000000000001
 21
1.0
 31
0.0
 73
     1
 44
1.0
  0
POINT
  5
5869
330
5857
100
AcDbEntity
  8
Defpoints
 62
     0
100
AcDbPoint
 10
448.3945803774103
 20
177.9556813010926
 30
0.0
  0
POINT
  5
586A
330
5857
100
AcDbEntity
  8
Defpoints
 62
     0
100
AcDbPoint
 10
448.3945803774103
 20
117.9634095189252
 30
0.0
  0
POINT
  5
586B
330
5857
100
AcDbEntity
  8
Defpoints
 62
     0
100
AcDbPoint
 10
406.4077641649864
 20
117.9634095189252
 30
0.0
  0
ENDBLK
  5
5862
330
5857
100
AcDbEntity
  8
0
100
AcDbBlockEnd
  0
BLOCK
  5
5878
330
586F
100
AcDbEntity
  8
0
100
AcDbBlockBegin
  2
*D71
 70
     1
 10
0.0
 20
0.0
 30
0.0
  3
*D71
  1

  0
LINE
  5
587A
330
586F
100
AcDbEntity
  8
寸法線
 62
     0
370
    -2
100
AcDbLine
 10
430.1434924882784
 20
44.54746114627636
 30
0.0
 11
356.6573374710307
 21
58.40034088156397
 31
0.0
  0
LINE
  5
587B
330
586F
100
AcDbEntity
  8
寸法線
 62
     0
370
    -2
100
AcDbLine
 10
336.4716865168547
 20
62.20553922104797
 30
0.0
 11
333.5236107240443
 21
62.76128117541652
 31
0.0
  0
MTEXT
  5
587C
330
586F
100
AcDbEntity
  8
寸法線
 62
     0
100
AcDbMText
 10
414.4394270546055
 20
51.06998151040269
 30
0.0
 40
5.0
 41
0.0
 71
     5
 72
     1
  1
Ｍ12・Ｍ20
  7
OKANO
 11
0.9826919309367978
 21
-0.1852473181228483
 31
0.0
 73
     1
 44
1.0
  0
LINE
  5
587D
330
586F
100
AcDbEntity
  8
寸法線
 62
     0
370
    -2
100
AcDbLine
 10
339.419762309665
 20
61.64979726667943
 30
0.0
 11
353.7092616782203
 21
58.95608283593251
 31
0.0
  0
INSERT
  5
587E
330
586F
100
AcDbEntity
  8
寸法線
 62
     0
370
    -2
100
AcDbBlockReference
  2
_Closed
 10
339.419762309665
 20
61.64979726667943
 30
0.0
 41
3.0
 42
3.0
 43
3.0
 50
349.3244480795423
  0
INSERT
  5
587F
330
586F
100
AcDbEntity
  8
寸法線
 62
     0
370
    -2
100
AcDbBlockReference
  2
_Closed
 10
353.7092616782203
 20
58.95608283593251
 30
0.0
 41
3.0
 42
3.0
 43
3.0
 50
169.3244480795424
  0
POINT
  5
5880
330
586F
100
AcDbEntity
  8
Defpoints
 62
     0
100
AcDbPoint
 10
353.7092616782203
 20
58.95608283593251
 30
0.0
  0
POINT
  5
5881
330
586F
100
AcDbEntity
  8
Defpoints
 62
     0
100
AcDbPoint
 10
339.419762309665
 20
61.64979726667943
 30
0.0
  0
ENDBLK
  5
5879
330
586F
100
AcDbEntity
  8
0
100
AcDbBlockEnd
  0
ENDSEC
  0
SECTION
  2
ENTITIES
  0
TEXT
  5
30A9
330
1F
100
AcDbEntity
  8
文字
100
AcDbText
 10
-13.61061074479721
 20
-159.8728126441633
 30
0.0
 40
7.0
  1
Ｓ-14-1C65                                                                                                                                                                                
 51
15.0
  7
OKANO
100
AcDbText
  0
TEXT
  5
30AA
330
1F
100
AcDbEntity
  8
文字
100
AcDbText
 10
133.4990749708413
 20
-196.3718091684977
 30
0.0
 40
7.0
  1
Ｓ-14-1C100                                                                                                                  
 51
15.0
  7
OKANO
100
AcDbText
  0
TEXT
  5
321C
330
1F
100
AcDbEntity
  8
文字
100
AcDbText
 10
666.2174747300203
 20
-220.8406458490311
 30
0.0
 40
5.759999999999999
  1
水平調整70mm　２ｔ　タイプ                                                                                                                                      
 51
15.0
  7
OKANO
100
AcDbText
  0
TEXT
  5
321D
330
1F
100
AcDbEntity
  8
文字
100
AcDbText
 10
688.4822167407865
 20
-208.0513036185382
 30
0.0
 40
7.0
  1
Ｓ-15-1A2000B                                                                                                                                                                               
 51
15.0
  7
OKANO
100
AcDbText
  0
ARC
  5
3228
330
1F
100
AcDbEntity
  8
太線
100
AcDbCircle
 10
712.2624154233983
 20
-114.8063638162396
 30
0.0
 40
25.31465050611781
100
AcDbArc
 50
253.1602647809359
 51
285.0511046503695
  0
LINE
  5
3229
330
1F
100
AcDbEntity
  8
太線
100
AcDbLine
 10
726.9293181026776
 20
-140.2625195834211
 30
0.0
 11
701.9293181026776
 21
-140.2625195834211
 31
0.0
  0
LINE
  5
322A
330
1F
100
AcDbEntity
  8
太線
100
AcDbLine
 10
696.9293181026776
 20
-124.2625195834211
 30
0.0
 11
726.9293181026776
 21
-124.2625195834211
 31
0.0
  0
LINE
  5
322B
330
1F
100
AcDbEntity
  8
太線
100
AcDbLine
 10
696.9293181026776
 20
-147.7537047429888
 30
0.0
 11
726.9293181026776
 21
-147.7537047429888
 31
0.0
  0
LINE
  5
322C
330
1F
100
AcDbEntity
  8
太線
100
AcDbLine
 10
726.9293181026776
 20
-163.7537047429888
 30
0.0
 11
701.9293181026776
 21
-163.7537047429888
 31
0.0
  0
ARC
  5
322D
330
1F
100
AcDbEntity
  8
太線
100
AcDbCircle
 10
712.2624154233983
 20
-138.2975489758074
 30
0.0
 40
25.31465050611781
100
AcDbArc
 50
253.1602647809359
 51
285.0511046503695
  0
LINE
  5
322E
330
1F
100
AcDbEntity
  8
想像線
100
AcDbLine
 10
726.9293181026776
 20
-178.8337520564772
 30
0.0
 11
701.9293181026776
 21
-178.8337520564772
 31
0.0
  0
ARC
  5
322F
330
1F
100
AcDbEntity
  8
想像線
100
AcDbCircle
 10
712.2624154233983
 20
-153.3775962892958
 30
0.0
 40
25.31465050611781
100
AcDbArc
 50
253.1602647809359
 51
285.0511046503695
  0
LINE
  5
3230
330
1F
100
AcDbEntity
  8
想像線
100
AcDbLine
 10
696.9261531913873
 20
-168.5307934824983
 30
0.0
 11
726.9293181026776
 21
-168.5307934824983
 31
0.0
  0
LINE
  5
3231
330
1F
100
AcDbEntity
  8
太線
100
AcDbLine
 10
771.9293181026776
 20
-182.2435412987926
 30
0.0
 11
651.9293181026776
 21
-182.2435412987926
 31
0.0
  0
LINE
  5
3232
330
1F
100
AcDbEntity
  8
太線
100
AcDbLine
 10
651.9293181026776
 20
-182.2435412987926
 30
0.0
 11
771.9293181026776
 21
-182.2435412987926
 31
0.0
  0
ARC
  5
3233
330
1F
100
AcDbEntity
  8
太線
100
AcDbCircle
 10
711.9293181026776
 20
-197.7948329678694
 30
0.0
 40
33.69174736868501
100
AcDbArc
 50
40.72361606748761
 51
139.2763839325123
  0
LINE
  5
3234
330
1F
100
AcDbEntity
  8
太線
100
AcDbLine
 10
686.3955054370278
 20
-175.8139719403574
 30
0.0
 11
737.4631307683273
 21
-175.8139719403574
 31
0.0
  0
LINE
  5
3235
330
1F
100
AcDbEntity
  8
太線
100
AcDbLine
 10
678.5796769851493
 20
-177.2435412987927
 30
0.0
 11
745.0387540888016
 21
-177.3885762388449
 31
0.0
  0
LINE
  5
3236
330
1F
100
AcDbEntity
  8
想像線
100
AcDbLine
 10
696.9293181026776
 20
-178.8337520564772
 30
0.0
 11
696.9293181026776
 21
-168.5307934824983
 31
0.0
  0
LINE
  5
3237
330
1F
100
AcDbEntity
  8
想像線
100
AcDbLine
 10
704.9293181026776
 20
-168.5307934824983
 30
0.0
 11
704.9293181026776
 21
-178.8337520564772
 31
0.0
  0
TEXT
  5
3238
330
1F
100
AcDbEntity
  8
文字
100
AcDbText
 10
396.3045636120546
 20
-222.8335813549492
 30
0.0
 40
5.759999999999999
  1
水平調整85mm　500kタイプ                                                                                                                                      
 51
15.0
  7
OKANO
100
AcDbText
  0
TEXT
  5
3239
330
1F
100
AcDbEntity
  8
文字
100
AcDbText
 10
532.4495510173492
 20
-210.9714077782314
 30
0.0
 40
7.0
  1
Ｓ-15-1A500A(ｱﾝｶｰ）                                                                                                                                                                                 
 51
15.0
  7
OKANO
100
AcDbText
  0
LINE
  5
323A
330
1F
100
AcDbEntity
  8
太線
100
AcDbLine
 10
656.9293181026775
 20
-177.2435412987927
 30
0.0
 11
678.5796769851493
 21
-177.2435412987927
 31
0.0
  0
ARC
  5
323B
330
1F
100
AcDbEntity
  8
太線
100
AcDbCircle
 10
637.2308345011767
 20
-182.2435412987927
 30
0.0
 40
5.0
100
AcDbArc
 50
90.0
 51
180.0
  0
LINE
  5
323C
330
1F
100
AcDbEntity
  8
太線
100
AcDbLine
 10
632.2308345011767
 20
-182.2435412987927
 30
0.0
 11
632.2308345011767
 21
-182.2435412987927
 31
0.0
  0
LINE
  5
323D
330
1F
100
AcDbEntity
  8
想像線
100
AcDbLine
 10
643.4572453949987
 20
-177.2435412987927
 30
0.0
 11
643.4572453949987
 21
-182.2435412987927
 31
0.0
  0
LINE
  5
323F
330
1F
100
AcDbEntity
  8
太線
100
AcDbLine
 10
678.5796769851493
 20
-175.8139719403574
 30
0.0
 11
686.3955054370278
 21
-175.8139719403574
 31
0.0
  0
LINE
  5
3240
330
1F
100
AcDbEntity
  8
太線
100
AcDbLine
 10
678.5796769851493
 20
-175.8139719403574
 30
0.0
 11
678.5796769851493
 21
-177.2435412987927
 31
0.0
  0
LINE
  5
3241
330
1F
100
AcDbEntity
  8
想像線
100
AcDbLine
 10
701.9293181026776
 20
-178.8337520564772
 30
0.0
 11
696.9293181026776
 21
-178.8337520564772
 31
0.0
  0
ARC
  5
3242
330
1F
100
AcDbEntity
  8
想像線
100
AcDbCircle
 10
701.1286550582572
 20
-169.1328147317089
 30
0.0
 40
9.574652439182898
100
AcDbArc
 50
242.2559248299449
 51
294.8092894638859
  0
LINE
  5
3249
330
1F
100
AcDbEntity
  8
太線
100
AcDbLine
 10
575.499040711922
 20
-160.7849011309316
 30
0.0
 11
575.499040711922
 21
-45.48592818843315
 31
0.0
  0
LINE
  5
324A
330
1F
100
AcDbEntity
  8
細線
100
AcDbLine
 10
576.499040711922
 20
-42.78490113093164
 30
0.0
 11
576.499040711922
 21
-160.7849011309316
 31
0.0
  0
LINE
  5
324B
330
1F
100
AcDbEntity
  8
太線
100
AcDbLine
 10
587.499040711922
 20
-45.48592818843315
 30
0.0
 11
587.499040711922
 21
-160.7849011309316
 31
0.0
  0
LINE
  5
324C
330
1F
100
AcDbEntity
  8
細線
100
AcDbLine
 10
586.499040711922
 20
-42.78490113093164
 30
0.0
 11
586.499040711922
 21
-160.7849011309316
 31
0.0
  0
LINE
  5
324D
330
1F
100
AcDbEntity
  8
太線
100
AcDbLine
 10
576.4888182815159
 20
-144.3451030441349
 30
0.0
 11
573.4888182815159
 21
-144.3451030441349
 31
0.0
  0
LINE
  5
324E
330
1F
100
AcDbEntity
  8
太線
100
AcDbLine
 10
572.499040711922
 20
-144.9711447459333
 30
0.0
 11
590.499040711922
 21
-144.9711447459333
 31
0.0
  0
LINE
  5
324F
330
1F
100
AcDbEntity
  8
太線
100
AcDbLine
 10
576.499040711922
 20
-152.9711447459333
 30
0.0
 11
573.4990407119219
 21
-153.9711447459333
 31
0.0
  0
LINE
  5
3250
330
1F
100
AcDbEntity
  8
太線
100
AcDbLine
 10
574.22107080071
 20
-160.6264415824395
 30
0.0
 11
576.5308640528027
 21
-162.3186786976922
 31
0.0
  0
LINE
  5
3251
330
1F
100
AcDbEntity
  8
破線
100
AcDbLine
 10
587.499040711922
 20
-171.8640160714197
 30
0.0
 11
575.499040711922
 21
-171.8640160714197
 31
0.0
  0
LINE
  5
3252
330
1F
100
AcDbEntity
  8
太線
100
AcDbLine
 10
590.7122046959329
 20
-168.7849011309316
 30
0.0
 11
572.285876727911
 21
-168.7849011309316
 31
0.0
  0
LINE
  5
3253
330
1F
100
AcDbEntity
  8
太線
100
AcDbLine
 10
589.499040711922
 20
-160.7849011309316
 30
0.0
 11
573.4990407119219
 21
-160.7849011309316
 31
0.0
  0
LINE
  5
3254
330
1F
100
AcDbEntity
  8
太線
100
AcDbLine
 10
589.499040711922
 20
-153.9711447459333
 30
0.0
 11
573.4990407119219
 21
-153.9711447459333
 31
0.0
  0
LINE
  5
3255
330
1F
100
AcDbEntity
  8
破線
100
AcDbLine
 10
589.499040711922
 20
-179.8640160714197
 30
0.0
 11
573.4990407119219
 21
-179.8640160714197
 31
0.0
  0
LINE
  5
3256
330
1F
100
AcDbEntity
  8
破線
100
AcDbLine
 10
576.499040711922
 20
-178.8640160714197
 30
0.0
 11
573.4990407119219
 21
-179.8640160714197
 31
0.0
  0
LINE
  5
3258
330
1F
100
AcDbEntity
  8
太線
100
AcDbLine
 10
572.499040711922
 20
-152.9711447459333
 30
0.0
 11
572.499040711922
 21
-144.9711447459333
 31
0.0
  0
LINE
  5
3259
330
1F
100
AcDbEntity
  8
太線
100
AcDbLine
 10
572.499040711922
 20
-161.7849011309316
 30
0.0
 11
572.499040711922
 21
-168.7849011309316
 31
0.0
  0
LINE
  5
325E
330
1F
100
AcDbEntity
  8
破線
100
AcDbLine
 10
572.499040711922
 20
-178.8640160714197
 30
0.0
 11
572.499040711922
 21
-172.8640160714197
 31
0.0
  0
ARC
  5
3260
330
1F
100
AcDbEntity
  8
破線
100
AcDbCircle
 10
573.4990407119219
 20
-178.8640160714197
 30
0.0
 40
1.0
100
AcDbArc
 50
180.0
 51
270.0
  0
LINE
  5
3262
330
1F
100
AcDbEntity
  8
破線
100
AcDbLine
 10
573.4990407119219
 20
-171.8640160714197
 30
0.0
 11
575.499040711922
 21
-171.8640160714197
 31
0.0
  0
ARC
  5
3263
330
1F
100
AcDbEntity
  8
破線
100
AcDbCircle
 10
573.4990407119219
 20
-172.8640160714197
 30
0.0
 40
1.0
100
AcDbArc
 50
90.0
 51
180.0
  0
LINE
  5
3264
330
1F
100
AcDbEntity
  8
破線
100
AcDbLine
 10
575.499040711922
 20
-168.7849011309316
 30
0.0
 11
575.499040711922
 21
-171.8640160714197
 31
0.0
  0
ARC
  5
3265
330
1F
100
AcDbEntity
  8
太線
100
AcDbCircle
 10
573.4990407119219
 20
-161.7849011309316
 30
0.0
 40
1.0
100
AcDbArc
 50
90.0
 51
180.0
  0
ARC
  5
3266
330
1F
100
AcDbEntity
  8
太線
100
AcDbCircle
 10
573.4990407119219
 20
-152.9711447459333
 30
0.0
 40
1.0
100
AcDbArc
 50
180.0
 51
270.0
  0
ARC
  5
3267
330
1F
100
AcDbEntity
  8
太線
100
AcDbCircle
 10
573.4888182815159
 20
-145.3451030441349
 30
0.0
 40
1.0
100
AcDbArc
 50
90.0
 51
180.0
  0
LINE
  5
3268
330
1F
100
AcDbEntity
  8
太線
100
AcDbLine
 10
586.499040711922
 20
-144.9711447459332
 30
0.0
 11
586.499040711922
 21
-152.9711447459333
 31
0.0
  0
LINE
  5
3269
330
1F
100
AcDbEntity
  8
太線
100
AcDbLine
 10
576.499040711922
 20
-144.9711447459332
 30
0.0
 11
576.499040711922
 21
-152.9711447459333
 31
0.0
  0
LINE
  5
326A
330
1F
100
AcDbEntity
  8
太線
100
AcDbLine
 10
590.499040711922
 20
-144.9711447459333
 30
0.0
 11
590.499040711922
 21
-152.9711447459333
 31
0.0
  0
LINE
  5
326C
330
1F
100
AcDbEntity
  8
太線
100
AcDbLine
 10
590.499040711922
 20
-161.7849011309316
 30
0.0
 11
590.499040711922
 21
-168.7849011309316
 31
0.0
  0
LINE
  5
326D
330
1F
100
AcDbEntity
  8
太線
100
AcDbLine
 10
576.499040711922
 20
-162.2953637804282
 30
0.0
 11
576.499040711922
 21
-168.7849011309316
 31
0.0
  0
LINE
  5
326E
330
1F
100
AcDbEntity
  8
太線
100
AcDbLine
 10
586.499040711922
 20
-162.0983985070588
 30
0.0
 11
586.499040711922
 21
-168.7849011309316
 31
0.0
  0
LINE
  5
326F
330
1F
100
AcDbEntity
  8
破線
100
AcDbLine
 10
587.499040711922
 20
-171.8640160714197
 30
0.0
 11
589.499040711922
 21
-171.8640160714197
 31
0.0
  0
LINE
  5
3270
330
1F
100
AcDbEntity
  8
破線
100
AcDbLine
 10
586.499040711922
 20
-178.8640160714197
 30
0.0
 11
589.499040711922
 21
-179.8640160714197
 31
0.0
  0
LINE
  5
3271
330
1F
100
AcDbEntity
  8
破線
100
AcDbLine
 10
586.499040711922
 20
-171.8640160714197
 30
0.0
 11
586.499040711922
 21
-178.8640160714197
 31
0.0
  0
LINE
  5
3272
330
1F
100
AcDbEntity
  8
破線
100
AcDbLine
 10
576.499040711922
 20
-171.8640160714197
 30
0.0
 11
576.499040711922
 21
-178.8640160714197
 31
0.0
  0
ARC
  5
3273
330
1F
100
AcDbEntity
  8
破線
100
AcDbCircle
 10
581.4990407119219
 20
-166.8640160714197
 30
0.0
 40
13.00000000000004
100
AcDbArc
 50
247.3801350519612
 51
292.6198649480387
  0
LINE
  5
3274
330
1F
100
AcDbEntity
  8
破線
100
AcDbLine
 10
576.499040711922
 20
-168.7849011309316
 30
0.0
 11
576.499040711922
 21
-171.8640160714197
 31
0.0
  0
LINE
  5
3275
330
1F
100
AcDbEntity
  8
破線
100
AcDbLine
 10
586.499040711922
 20
-168.7849011309316
 30
0.0
 11
586.499040711922
 21
-171.8640160714197
 31
0.0
  0
LINE
  5
3276
330
1F
100
AcDbEntity
  8
破線
100
AcDbLine
 10
587.499040711922
 20
-168.7849011309316
 30
0.0
 11
587.499040711922
 21
-171.8640160714197
 31
0.0
  0
LINE
  5
3277
330
1F
100
AcDbEntity
  8
破線
100
AcDbLine
 10
590.499040711922
 20
-172.8640160714197
 30
0.0
 11
590.499040711922
 21
-178.8640160714197
 31
0.0
  0
ARC
  5
3279
330
1F
100
AcDbEntity
  8
破線
100
AcDbCircle
 10
589.499040711922
 20
-178.8640160714197
 30
0.0
 40
1.0
100
AcDbArc
 50
270.0
 51
0.0
  0
ARC
  5
327B
330
1F
100
AcDbEntity
  8
破線
100
AcDbCircle
 10
589.499040711922
 20
-172.8640160714197
 30
0.0
 40
1.0
100
AcDbArc
 50
0.0
 51
90.0
  0
LINE
  5
327C
330
1F
100
AcDbEntity
  8
太線
100
AcDbLine
 10
586.3859844056759
 20
-162.1648389599419
 30
0.0
 11
589.0037499008212
 21
-160.6264415824395
 31
0.0
  0
LINE
  5
327D
330
1F
100
AcDbEntity
  8
太線
100
AcDbLine
 10
586.499040711922
 20
-152.9711447459333
 30
0.0
 11
589.499040711922
 21
-153.9711447459333
 31
0.0
  0
LINE
  5
327E
330
1F
100
AcDbEntity
  8
太線
100
AcDbLine
 10
576.5308640528027
 20
-162.3186786976922
 30
0.0
 11
580.5345060708831
 21
-160.9341210579399
 31
0.0
  0
LINE
  5
327F
330
1F
100
AcDbEntity
  8
太線
100
AcDbLine
 10
583.9222036028585
 20
-160.7802813201895
 30
0.0
 11
586.3859844056759
 21
-162.1648389599419
 31
0.0
  0
ARC
  5
3280
330
1F
100
AcDbEntity
  8
太線
100
AcDbCircle
 10
581.4990407119219
 20
-140.9711447459333
 30
0.0
 40
13.0
100
AcDbArc
 50
247.3801350519612
 51
292.6198649480387
  0
ARC
  5
3281
330
1F
100
AcDbEntity
  8
太線
100
AcDbCircle
 10
589.499040711922
 20
-161.7849011309316
 30
0.0
 40
1.0
100
AcDbArc
 50
0.0
 51
90.0
  0
ARC
  5
3282
330
1F
100
AcDbEntity
  8
太線
100
AcDbCircle
 10
589.499040711922
 20
-152.9711447459333
 30
0.0
 40
1.0
100
AcDbArc
 50
270.0
 51
0.0
  0
LINE
  5
3286
330
1F
100
AcDbEntity
  8
太線
100
AcDbLine
 10
587.4888182815159
 20
-144.3451030441349
 30
0.0
 11
589.4888182815159
 21
-144.3451030441349
 31
0.0
  0
LINE
  5
3287
330
1F
100
AcDbEntity
  8
太線
100
AcDbLine
 10
576.4888182815159
 20
-144.3451030441349
 30
0.0
 11
587.4888182815159
 21
-144.3451030441349
 31
0.0
  0
ARC
  5
3288
330
1F
100
AcDbEntity
  8
太線
100
AcDbCircle
 10
589.4888182815159
 20
-145.3451030441349
 30
0.0
 40
1.0
100
AcDbArc
 50
0.0
 51
90.0
  0
LINE
  5
329A
330
1F
100
AcDbEntity
  8
太線
100
AcDbLine
 10
701.9293181026776
 20
-45.48592818843315
 30
0.0
 11
701.9293181026776
 21
-124.2625195834211
 31
0.0
  0
LINE
  5
329B
330
1F
100
AcDbEntity
  8
太線
100
AcDbLine
 10
702.9293181026777
 20
-42.78490113093164
 30
0.0
 11
702.9293181026774
 21
-124.2625195834211
 31
0.0
  0
LINE
  5
329C
330
1F
100
AcDbEntity
  8
太線
100
AcDbLine
 10
704.9293181026776
 20
-124.2625195834211
 30
0.0
 11
704.9293181026776
 21
-140.2625195834211
 31
0.0
  0
LINE
  5
329D
330
1F
100
AcDbEntity
  8
太線
100
AcDbLine
 10
696.9293181026776
 20
-140.2625195834211
 30
0.0
 11
696.9293181026776
 21
-124.2625195834211
 31
0.0
  0
LINE
  5
329E
330
1F
100
AcDbEntity
  8
太線
100
AcDbLine
 10
696.9293181026776
 20
-163.7537047429888
 30
0.0
 11
696.9293181026776
 21
-147.7537047429888
 31
0.0
  0
LINE
  5
329F
330
1F
100
AcDbEntity
  8
太線
100
AcDbLine
 10
704.9293181026776
 20
-147.7537047429888
 30
0.0
 11
704.9293181026776
 21
-163.7537047429888
 31
0.0
  0
LINE
  5
32A0
330
1F
100
AcDbEntity
  8
太線
100
AcDbLine
 10
701.9293181026776
 20
-163.7537047429888
 30
0.0
 11
696.9293181026776
 21
-163.7537047429888
 31
0.0
  0
ARC
  5
32A1
330
1F
100
AcDbEntity
  8
太線
100
AcDbCircle
 10
701.1286550582572
 20
-154.0527674182205
 30
0.0
 40
9.574652439182898
100
AcDbArc
 50
242.2559248299449
 51
294.8092894638859
  0
LINE
  5
32A2
330
1F
100
AcDbEntity
  8
太線
100
AcDbLine
 10
702.9293181026775
 20
-163.7537047429888
 30
0.0
 11
702.9293181026774
 21
-165.3274055866418
 31
0.0
  0
LINE
  5
32A3
330
1F
100
AcDbEntity
  8
太線
100
AcDbLine
 10
701.9293181026775
 20
-163.7537047429888
 30
0.0
 11
701.9293181026776
 21
-165.6213370316909
 31
0.0
  0
LINE
  5
32A4
330
1F
100
AcDbEntity
  8
太線
100
AcDbLine
 10
701.9293181026776
 20
-140.2625195834211
 30
0.0
 11
696.9293181026776
 21
-140.2625195834211
 31
0.0
  0
ARC
  5
32A5
330
1F
100
AcDbEntity
  8
太線
100
AcDbCircle
 10
701.1286550582572
 20
-130.5615822586527
 30
0.0
 40
9.574652439182898
100
AcDbArc
 50
242.2559248299449
 51
294.8092894638859
  0
LINE
  5
32A6
330
1F
100
AcDbEntity
  8
太線
100
AcDbLine
 10
701.9293181026776
 20
-140.2625195834211
 30
0.0
 11
701.9293181026775
 21
-147.7537047429888
 31
0.0
  0
LINE
  5
32A7
330
1F
100
AcDbEntity
  8
太線
100
AcDbLine
 10
702.9293181026775
 20
-140.2625195834211
 30
0.0
 11
702.9293181026775
 21
-147.7537047429888
 31
0.0
  0
LINE
  5
32AC
330
1F
100
AcDbEntity
  8
想像線
100
AcDbLine
 10
718.9293181026775
 20
-168.5307934824983
 30
0.0
 11
718.9293181026775
 21
-178.8337520564772
 31
0.0
  0
LINE
  5
32AD
330
1F
100
AcDbEntity
  8
想像線
100
AcDbLine
 10
726.9293181026776
 20
-168.5307934824983
 30
0.0
 11
726.9293181026776
 21
-178.8337520564772
 31
0.0
  0
LINE
  5
32AE
330
1F
100
AcDbEntity
  8
太線
100
AcDbLine
 10
766.9293181026776
 20
-177.2435412987926
 30
0.0
 11
745.0387540888016
 21
-177.2435412987926
 31
0.0
  0
LINE
  5
32AF
330
1F
100
AcDbEntity
  8
太線
100
AcDbLine
 10
745.0387540888016
 20
-175.8139719403574
 30
0.0
 11
737.4631307683273
 21
-175.8139719403574
 31
0.0
  0
ARC
  5
32B0
330
1F
100
AcDbEntity
  8
想像線
100
AcDbCircle
 10
722.6207599364957
 20
-172.675392600217
 30
0.0
 40
6.350862044312581
100
AcDbArc
 50
230.9396192866367
 51
312.0723616256726
  0
LINE
  5
32B2
330
1F
100
AcDbEntity
  8
太線
100
AcDbLine
 10
745.0387540888016
 20
-177.3885762388449
 30
0.0
 11
745.0387540888016
 21
-175.8139719403574
 31
0.0
  0
ARC
  5
32B4
330
1F
100
AcDbEntity
  8
太線
100
AcDbCircle
 10
786.7097904206186
 20
-182.2435412987926
 30
0.0
 40
5.0
100
AcDbArc
 50
0.0
 51
90.0
  0
LINE
  5
32B5
330
1F
100
AcDbEntity
  8
太線
100
AcDbLine
 10
791.7097904206187
 20
-182.2435412987926
 30
0.0
 11
791.7097904206187
 21
-182.2435412987926
 31
0.0
  0
LINE
  5
32B7
330
1F
100
AcDbEntity
  8
太線
100
AcDbLine
 10
721.9293181026776
 20
-124.2625195834211
 30
0.0
 11
721.9293181026776
 21
-45.48592818843315
 31
0.0
  0
LINE
  5
32B8
330
1F
100
AcDbEntity
  8
太線
100
AcDbLine
 10
720.3250123388661
 20
-42.78490113093164
 30
0.0
 11
720.3250123388658
 21
-124.2625195834211
 31
0.0
  0
LINE
  5
32B9
330
1F
100
AcDbEntity
  8
太線
100
AcDbLine
 10
726.9293181026776
 20
-124.2625195834211
 30
0.0
 11
726.9293181026776
 21
-140.2625195834211
 31
0.0
  0
LINE
  5
32BA
330
1F
100
AcDbEntity
  8
太線
100
AcDbLine
 10
718.9293181026775
 20
-124.2625195834211
 30
0.0
 11
718.9293181026775
 21
-140.2625195834211
 31
0.0
  0
LINE
  5
32BB
330
1F
100
AcDbEntity
  8
太線
100
AcDbLine
 10
726.9293181026776
 20
-147.7537047429888
 30
0.0
 11
726.9293181026776
 21
-163.7537047429888
 31
0.0
  0
LINE
  5
32BC
330
1F
100
AcDbEntity
  8
太線
100
AcDbLine
 10
718.9293181026775
 20
-147.7537047429888
 30
0.0
 11
718.9293181026775
 21
-163.7537047429888
 31
0.0
  0
ARC
  5
32BD
330
1F
100
AcDbEntity
  8
太線
100
AcDbCircle
 10
722.6207599364957
 20
-157.5953452867285
 30
0.0
 40
6.350862044312581
100
AcDbArc
 50
230.9396192866367
 51
312.0723616256726
  0
LINE
  5
32BE
330
1F
100
AcDbEntity
  8
太線
100
AcDbLine
 10
720.3250123388658
 20
-163.7537047429888
 30
0.0
 11
720.3250123388658
 21
-165.1659169722724
 31
0.0
  0
LINE
  5
32BF
330
1F
100
AcDbEntity
  8
太線
100
AcDbLine
 10
721.9293181026776
 20
-165.6213370316909
 30
0.0
 11
721.9293181026776
 21
-163.7537047429888
 31
0.0
  0
ARC
  5
32C0
330
1F
100
AcDbEntity
  8
太線
100
AcDbCircle
 10
722.6207599364957
 20
-134.1041601271608
 30
0.0
 40
6.350862044312581
100
AcDbArc
 50
230.9396192866367
 51
312.0723616256726
  0
LINE
  5
32C1
330
1F
100
AcDbEntity
  8
太線
100
AcDbLine
 10
721.9293181026776
 20
-147.7537047429888
 30
0.0
 11
721.9293181026776
 21
-140.2625195834211
 31
0.0
  0
LINE
  5
32C2
330
1F
100
AcDbEntity
  8
太線
100
AcDbLine
 10
720.325012338866
 20
-140.2625195834211
 30
0.0
 11
720.3250123388658
 21
-147.7537047429888
 31
0.0
  0
LINE
  5
3482
330
1F
100
AcDbEntity
  8
太線
100
AcDbLine
 10
575.499040711922
 20
-45.48592818843315
 30
0.0
 11
576.499040711922
 21
-42.78490113093164
 31
0.0
  0
LINE
  5
3483
330
1F
100
AcDbEntity
  8
太線
100
AcDbLine
 10
576.499040711922
 20
-42.78490113093164
 30
0.0
 11
586.499040711922
 21
-42.78490113093164
 31
0.0
  0
LINE
  5
3484
330
1F
100
AcDbEntity
  8
太線
100
AcDbLine
 10
586.499040711922
 20
-42.78490113093164
 30
0.0
 11
587.499040711922
 21
-45.48592818843315
 31
0.0
  0
LINE
  5
3485
330
1F
100
AcDbEntity
  8
太線
100
AcDbLine
 10
701.9293181026776
 20
-45.48592818843315
 30
0.0
 11
702.9293181026777
 21
-42.78490113093164
 31
0.0
  0
LINE
  5
3486
330
1F
100
AcDbEntity
  8
太線
100
AcDbLine
 10
702.9293181026777
 20
-42.78490113093164
 30
0.0
 11
720.3250123388661
 21
-42.78490113093164
 31
0.0
  0
LINE
  5
3487
330
1F
100
AcDbEntity
  8
太線
100
AcDbLine
 10
720.3250123388661
 20
-42.78490113093164
 30
0.0
 11
721.9293181026776
 21
-45.48592818843315
 31
0.0
  0
DIMENSION
  5
3488
330
1F
100
AcDbEntity
  8
寸法線
100
AcDbDimension
  2
*D2
 10
613.882091750088
 20
-42.78490113093165
 30
0.0
 11
610.3820917500881
 21
-112.7849011309315
 31
0.0
 70
    32
 71
     5
 42
140.0
  3
sunpo
100
AcDbAlignedDimension
 13
608.999040711922
 23
-182.7849011309316
 33
0.0
 14
586.499040711922
 24
-42.78490113093164
 34
0.0
 50
90.0
100
AcDbRotatedDimension
1001
ACAD
1000
DSTYLE
1002
{
1070
    40
1040
1.0
1002
}
  0
DIMENSION
  5
3495
330
1F
100
AcDbEntity
  8
寸法線
100
AcDbDimension
  2
*D3
 10
773.6408324806493
 20
-42.78490113093165
 30
0.0
 11
770.1408324806493
 21
-112.514221214862
 31
0.0
 70
    32
  1
140
 71
     5
 42
139.4586401678609
  3
sunpo
100
AcDbAlignedDimension
 13
771.9293181026776
 23
-182.2435412987926
 33
0.0
 14
720.3250123388661
 24
-42.78490113093164
 34
0.0
 50
90.0
100
AcDbRotatedDimension
1001
ACAD
1000
DSTYLE
1002
{
1070
    40
1040
1.0
1002
}
  0
TEXT
  5
3561
330
1F
100
AcDbEntity
  8
文字
100
AcDbText
 10
679.9718805425118
 20
-87.08827711594427
 30
0.0
 40
5.759999999999999
  1
M-20                             
 51
15.0
  7
OKANO
100
AcDbText
  0
TEXT
  5
3562
330
1F
100
AcDbEntity
  8
文字
100
AcDbText
 10
552.0786632424054
 20
-88.22218423860112
 30
0.0
 40
5.759999999999999
  1
M-12                          
 51
15.0
  7
OKANO
100
AcDbText
  0
TEXT
  5
3572
330
1F
100
AcDbEntity
  8
文字
100
AcDbText
 10
-26.40275744434666
 20
-176.2973604927324
 30
0.0
 40
5.759999999999999
  1
30Ｋストッパー付タイプ                                                                                                                                                                              
 51
15.0
  7
OKANO
100
AcDbText
  0
TEXT
  5
3573
330
1F
100
AcDbEntity
  8
文字
100
AcDbText
 10
129.84417553406
 20
-212.7963570170668
 30
0.0
 40
5.759999999999999
  1
50Ｋストッパー付タイプ                                                                                                                                                                              
 51
15.0
  7
OKANO
100
AcDbText
  0
LWPOLYLINE
  5
358D
330
1F
100
AcDbEntity
  8
太線
100
AcDbPolyline
 90
        4
 70
     1
 43
0.0
 10
-30.52769851828577
 20
-202.8117626337977
 10
120.6723014817142
 20
-202.8117626337977
 10
120.6723014817142
 20
-238.0917626337977
 10
-30.52769851828577
 20
-238.0917626337977
  0
LINE
  5
358E
330
1F
100
AcDbEntity
  8
太線
100
AcDbLine
 10
-30.52769851828577
 20
-214.5717626337977
 30
0.0
 11
120.6723014817142
 21
-214.5717626337977
 31
0.0
  0
TEXT
  5
358F
330
1F
100
AcDbEntity
  8
文字
100
AcDbText
 10
7.863420935973636
 20
-213.2826319231952
 30
0.0
 40
6.719999999999999
  1
F-999-20120914 Auto CAD
 51
15.0
  7
OKANO
100
AcDbText
  0
TEXT
  5
3590
330
1F
100
AcDbEntity
  8
文字
100
AcDbText
 10
18.34705915248923
 20
-233.9359520333981
 30
0.0
 40
6.719999999999999
  1
joint kogyo T.okano
 51
15.0
  7
OKANO
100
AcDbText
  0
TEXT
  5
3592
330
1F
100
AcDbEntity
  8
文字
100
AcDbText
 10
12.3953984460004
 20
-224.5665678188249
 30
0.0
 40
5.0
  1
シンプルタイプ　14・15
 51
15.0
  7
OKANO
100
AcDbText
  0
TEXT
  5
3593
330
1F
100
AcDbEntity
  8
文字
100
AcDbText
 10
-25.82459886990045
 20
-221.019687994726
 30
0.0
 40
3.359999999999999
  1
DRAWN
 51
15.0
  7
OKANO
100
AcDbText
  0
LINE
  5
3594
330
1F
100
AcDbEntity
  8
太線
100
AcDbLine
 10
3.072301481714248
 20
-202.8117626337977
 30
0.0
 11
3.072301481714248
 21
-238.0917626337977
 31
0.0
  0
TEXT
  5
3595
330
1F
100
AcDbEntity
  8
文字
100
AcDbText
 10
-24.74724131974426
 20
-231.0656711359154
 30
0.0
 40
3.359999999999999
  1
APPR
 51
15.0
  7
OKANO
100
AcDbText
  0
TEXT
  5
3596
330
1F
100
AcDbEntity
  8
文字
100
AcDbText
 10
-25.10636152580525
 20
-235.7298778008908
 30
0.0
 40
3.359999999999999
  1
ISSUED
 51
15.0
  7
OKANO
100
AcDbText
  0
TEXT
  5
3597
330
1F
100
AcDbEntity
  8
文字
100
AcDbText
 10
-25.10636152580525
 20
-226.0426791521887
 30
0.0
 40
3.359999999999999
  1
CHECK
 51
15.0
  7
OKANO
100
AcDbText
  0
TEXT
  5
3598
330
1F
100
AcDbEntity
  8
文字
100
AcDbText
 10
-27.6201952981653
 20
-212.0500599835265
 30
0.0
 40
3.359999999999999
  1
FILM NAME
 51
15.0
  7
OKANO
100
AcDbText
  0
DIMENSION
  5
37DE
330
1F
100
AcDbEntity
  8
寸法線
100
AcDbDimension
  2
*D4
 10
490.8597855691773
 20
-42.78490113093165
 30
0.0
 11
487.3597855691773
 21
-112.7849011309315
 31
0.0
 70
    32
 71
     5
 42
140.0
  3
sunpo
100
AcDbAlignedDimension
 13
476.8181953934226
 23
-182.7849011309316
 33
0.0
 14
454.3181953934227
 24
-42.78490113093164
 34
0.0
 50
90.0
100
AcDbRotatedDimension
1001
ACAD
1000
DSTYLE
1002
{
1070
    40
1040
1.0
1002
}
  0
LINE
  5
37DF
330
1F
100
AcDbEntity
  8
細線
100
AcDbLine
 10
454.3181953934227
 20
-42.78490113093164
 30
0.0
 11
454.3181953934227
 21
-160.7849011309316
 31
0.0
  0
LINE
  5
37E0
330
1F
100
AcDbEntity
  8
太線
100
AcDbLine
 10
455.3181953934227
 20
-45.48592818843315
 30
0.0
 11
455.3181953934227
 21
-160.7849011309316
 31
0.0
  0
LINE
  5
37E1
330
1F
100
AcDbEntity
  8
細線
100
AcDbLine
 10
444.3181953934226
 20
-42.78490113093164
 30
0.0
 11
444.3181953934226
 21
-160.7849011309316
 31
0.0
  0
LINE
  5
37E2
330
1F
100
AcDbEntity
  8
太線
100
AcDbLine
 10
443.3181953934226
 20
-160.7849011309316
 30
0.0
 11
443.3181953934226
 21
-45.48592818843315
 31
0.0
  0
LINE
  5
37E3
330
1F
100
AcDbEntity
  8
太線
100
AcDbLine
 10
430.0313593774336
 20
-180.7849011309316
 30
0.0
 11
422.8181953934226
 21
-180.7849011309316
 31
0.0
  0
LINE
  5
37E4
330
1F
100
AcDbEntity
  8
太線
100
AcDbLine
 10
421.8181953934227
 20
-182.7849011309316
 30
0.0
 11
476.8181953934226
 21
-182.7849011309316
 31
0.0
  0
LINE
  5
37E5
330
1F
100
AcDbEntity
  8
太線
100
AcDbLine
 10
421.8181953934227
 20
-181.7849011309316
 30
0.0
 11
421.8181953934227
 21
-182.7849011309316
 31
0.0
  0
ARC
  5
37E6
330
1F
100
AcDbEntity
  8
太線
100
AcDbCircle
 10
422.8181953934226
 20
-181.7849011309316
 30
0.0
 40
1.0
100
AcDbArc
 50
90.0
 51
180.0
  0
LINE
  5
37E7
330
1F
100
AcDbEntity
  8
太線
100
AcDbLine
 10
454.3181953934227
 20
-162.0983985070588
 30
0.0
 11
454.3181953934227
 21
-168.7849011309316
 31
0.0
  0
LINE
  5
37E8
330
1F
100
AcDbEntity
  8
太線
100
AcDbLine
 10
444.3181953934227
 20
-162.2953637804282
 30
0.0
 11
444.3181953934227
 21
-168.7849011309316
 31
0.0
  0
LINE
  5
37E9
330
1F
100
AcDbEntity
  8
太線
100
AcDbLine
 10
458.3181953934227
 20
-161.7849011309316
 30
0.0
 11
458.3181953934227
 21
-168.7849011309316
 31
0.0
  0
LINE
  5
37EA
330
1F
100
AcDbEntity
  8
太線
100
AcDbLine
 10
440.3181953934226
 20
-161.7849011309316
 30
0.0
 11
440.3181953934226
 21
-168.7849011309316
 31
0.0
  0
ARC
  5
37EB
330
1F
100
AcDbEntity
  8
破線
100
AcDbCircle
 10
449.3181953934226
 20
-166.8640160714197
 30
0.0
 40
13.00000000000004
100
AcDbArc
 50
247.3801350519612
 51
292.6198649480387
  0
LINE
  5
37EC
330
1F
100
AcDbEntity
  8
破線
100
AcDbLine
 10
457.3181953934226
 20
-179.8640160714197
 30
0.0
 11
441.3181953934226
 21
-179.8640160714197
 31
0.0
  0
LINE
  5
37ED
330
1F
100
AcDbEntity
  8
太線
100
AcDbLine
 10
458.5313593774336
 20
-168.7849011309316
 30
0.0
 11
440.1050314094117
 21
-168.7849011309316
 31
0.0
  0
LINE
  5
37EE
330
1F
100
AcDbEntity
  8
破線
100
AcDbLine
 10
455.3181953934227
 20
-171.8640160714197
 30
0.0
 11
443.3181953934226
 21
-171.8640160714197
 31
0.0
  0
TEXT
  5
37EF
330
1F
100
AcDbEntity
  8
文字
100
AcDbText
 10
413.665333942989
 20
-210.9714077782314
 30
0.0
 40
7.0
  1
Ｓ-15-1A500                                                                                                                                                                                 
 51
15.0
  7
OKANO
100
AcDbText
  0
ARC
  5
37F0
330
1F
100
AcDbEntity
  8
太線
100
AcDbCircle
 10
440.1050314094117
 20
-171.7849011309316
 30
0.0
 40
3.0
100
AcDbArc
 50
90.0
 51
151.5570713756351
  0
LINE
  5
37F1
330
1F
100
AcDbEntity
  8
太線
100
AcDbLine
 10
437.4671555098013
 20
-170.3560516853093
 30
0.0
 11
432.6692352770439
 21
-179.2137505765539
 31
0.0
  0
ARC
  5
37F2
330
1F
100
AcDbEntity
  8
太線
100
AcDbCircle
 10
430.0313593774336
 20
-177.7849011309316
 30
0.0
 40
3.0
100
AcDbArc
 50
270.0
 51
331.5570713756351
  0
LINE
  5
37F3
330
1F
100
AcDbEntity
  8
破線
100
AcDbLine
 10
444.3181953934226
 20
-171.8640160714197
 30
0.0
 11
444.3181953934226
 21
-178.8640160714197
 31
0.0
  0
LINE
  5
37F4
330
1F
100
AcDbEntity
  8
破線
100
AcDbLine
 10
440.3181953934226
 20
-178.8640160714197
 30
0.0
 11
440.3181953934226
 21
-172.8640160714197
 31
0.0
  0
ARC
  5
37F5
330
1F
100
AcDbEntity
  8
破線
100
AcDbCircle
 10
441.3181953934226
 20
-178.8640160714197
 30
0.0
 40
1.0
100
AcDbArc
 50
180.0
 51
270.0
  0
LINE
  5
37F6
330
1F
100
AcDbEntity
  8
破線
100
AcDbLine
 10
444.3181953934226
 20
-178.8640160714197
 30
0.0
 11
441.3181953934226
 21
-179.8640160714197
 31
0.0
  0
LINE
  5
37F7
330
1F
100
AcDbEntity
  8
破線
100
AcDbLine
 10
444.3181953934227
 20
-168.7849011309316
 30
0.0
 11
444.3181953934226
 21
-171.8640160714197
 31
0.0
  0
LINE
  5
37F8
330
1F
100
AcDbEntity
  8
破線
100
AcDbLine
 10
443.3181953934226
 20
-168.7849011309316
 30
0.0
 11
443.3181953934226
 21
-171.8640160714197
 31
0.0
  0
ARC
  5
37F9
330
1F
100
AcDbEntity
  8
破線
100
AcDbCircle
 10
441.3181953934226
 20
-172.8640160714197
 30
0.0
 40
1.0
100
AcDbArc
 50
90.0
 51
180.0
  0
LINE
  5
37FA
330
1F
100
AcDbEntity
  8
破線
100
AcDbLine
 10
441.3181953934226
 20
-171.8640160714197
 30
0.0
 11
443.3181953934226
 21
-171.8640160714197
 31
0.0
  0
LINE
  5
37FB
330
1F
100
AcDbEntity
  8
太線
100
AcDbLine
 10
465.9671555098014
 20
-179.2137505765539
 30
0.0
 11
461.169235277044
 21
-170.3560516853093
 31
0.0
  0
LINE
  5
37FC
330
1F
100
AcDbEntity
  8
破線
100
AcDbLine
 10
458.3181953934227
 20
-172.8640160714197
 30
0.0
 11
458.3181953934227
 21
-178.8640160714197
 31
0.0
  0
LINE
  5
37FD
330
1F
100
AcDbEntity
  8
破線
100
AcDbLine
 10
454.3181953934227
 20
-171.8640160714197
 30
0.0
 11
454.3181953934227
 21
-178.8640160714197
 31
0.0
  0
ARC
  5
37FE
330
1F
100
AcDbEntity
  8
破線
100
AcDbCircle
 10
457.3181953934226
 20
-178.8640160714197
 30
0.0
 40
1.0
100
AcDbArc
 50
270.0
 51
0.0
  0
LINE
  5
37FF
330
1F
100
AcDbEntity
  8
破線
100
AcDbLine
 10
454.3181953934227
 20
-178.8640160714197
 30
0.0
 11
457.3181953934226
 21
-179.8640160714197
 31
0.0
  0
ARC
  5
3800
330
1F
100
AcDbEntity
  8
破線
100
AcDbCircle
 10
457.3181953934226
 20
-172.8640160714197
 30
0.0
 40
1.0
100
AcDbArc
 50
0.0
 51
90.0
  0
LINE
  5
3801
330
1F
100
AcDbEntity
  8
破線
100
AcDbLine
 10
455.3181953934227
 20
-168.7849011309316
 30
0.0
 11
455.3181953934227
 21
-171.8640160714197
 31
0.0
  0
LINE
  5
3802
330
1F
100
AcDbEntity
  8
破線
100
AcDbLine
 10
454.3181953934227
 20
-168.7849011309316
 30
0.0
 11
454.3181953934227
 21
-171.8640160714197
 31
0.0
  0
LINE
  5
3803
330
1F
100
AcDbEntity
  8
破線
100
AcDbLine
 10
455.3181953934227
 20
-171.8640160714197
 30
0.0
 11
457.3181953934226
 21
-171.8640160714197
 31
0.0
  0
ARC
  5
3804
330
1F
100
AcDbEntity
  8
太線
100
AcDbCircle
 10
458.5313593774336
 20
-171.7849011309316
 30
0.0
 40
3.0
100
AcDbArc
 50
28.4429286243649
 51
90.0
  0
LINE
  5
3805
330
1F
100
AcDbEntity
  8
太線
100
AcDbLine
 10
475.8181953934227
 20
-180.7849011309316
 30
0.0
 11
468.6050314094116
 21
-180.7849011309316
 31
0.0
  0
ARC
  5
3806
330
1F
100
AcDbEntity
  8
太線
100
AcDbCircle
 10
468.6050314094116
 20
-177.7849011309316
 30
0.0
 40
3.0
100
AcDbArc
 50
208.4429286243649
 51
270.0
  0
ARC
  5
3807
330
1F
100
AcDbEntity
  8
太線
100
AcDbCircle
 10
475.8181953934227
 20
-181.7849011309316
 30
0.0
 40
1.0
100
AcDbArc
 50
0.0
 51
90.0
  0
LINE
  5
3808
330
1F
100
AcDbEntity
  8
太線
100
AcDbLine
 10
476.8181953934226
 20
-182.7849011309316
 30
0.0
 11
476.8181953934226
 21
-181.7849011309316
 31
0.0
  0
LINE
  5
3809
330
1F
100
AcDbEntity
  8
太線
100
AcDbLine
 10
444.3079729630166
 20
-144.3451030441349
 30
0.0
 11
455.3079729630166
 21
-144.3451030441349
 31
0.0
  0
ARC
  5
380A
330
1F
100
AcDbEntity
  8
太線
100
AcDbCircle
 10
449.3181953934226
 20
-140.9711447459333
 30
0.0
 40
13.0
100
AcDbArc
 50
247.3801350519612
 51
292.6198649480387
  0
LINE
  5
380B
330
1F
100
AcDbEntity
  8
太線
100
AcDbLine
 10
451.7413582843592
 20
-160.7802813201895
 30
0.0
 11
454.2051390871765
 21
-162.1648389599419
 31
0.0
  0
LINE
  5
380C
330
1F
100
AcDbEntity
  8
太線
100
AcDbLine
 10
457.3181953934226
 20
-153.9711447459333
 30
0.0
 11
441.3181953934226
 21
-153.9711447459333
 31
0.0
  0
LINE
  5
380D
330
1F
100
AcDbEntity
  8
太線
100
AcDbLine
 10
457.3181953934226
 20
-160.7849011309316
 30
0.0
 11
441.3181953934226
 21
-160.7849011309316
 31
0.0
  0
LINE
  5
380E
330
1F
100
AcDbEntity
  8
太線
100
AcDbLine
 10
440.3181953934226
 20
-144.9711447459333
 30
0.0
 11
458.3181953934227
 21
-144.9711447459333
 31
0.0
  0
LINE
  5
380F
330
1F
100
AcDbEntity
  8
太線
100
AcDbLine
 10
444.3181953934226
 20
-144.9711447459332
 30
0.0
 11
444.3181953934226
 21
-152.9711447459333
 31
0.0
  0
LINE
  5
3810
330
1F
100
AcDbEntity
  8
太線
100
AcDbLine
 10
440.3181953934226
 20
-152.9711447459333
 30
0.0
 11
440.3181953934226
 21
-144.9711447459333
 31
0.0
  0
LINE
  5
3811
330
1F
100
AcDbEntity
  8
太線
100
AcDbLine
 10
444.3500187343033
 20
-162.3186786976922
 30
0.0
 11
448.3536607523838
 21
-160.9341210579399
 31
0.0
  0
ARC
  5
3812
330
1F
100
AcDbEntity
  8
太線
100
AcDbCircle
 10
441.3181953934226
 20
-161.7849011309316
 30
0.0
 40
1.0
100
AcDbArc
 50
90.0
 51
180.0
  0
LINE
  5
3813
330
1F
100
AcDbEntity
  8
太線
100
AcDbLine
 10
442.0402254822106
 20
-160.6264415824395
 30
0.0
 11
444.3500187343033
 21
-162.3186786976922
 31
0.0
  0
ARC
  5
3814
330
1F
100
AcDbEntity
  8
太線
100
AcDbCircle
 10
441.3181953934226
 20
-152.9711447459333
 30
0.0
 40
1.0
100
AcDbArc
 50
180.0
 51
270.0
  0
LINE
  5
3815
330
1F
100
AcDbEntity
  8
太線
100
AcDbLine
 10
444.3181953934226
 20
-152.9711447459333
 30
0.0
 11
441.3181953934226
 21
-153.9711447459333
 31
0.0
  0
ARC
  5
3816
330
1F
100
AcDbEntity
  8
太線
100
AcDbCircle
 10
441.3079729630165
 20
-145.3451030441349
 30
0.0
 40
1.0
100
AcDbArc
 50
90.0
 51
180.0
  0
LINE
  5
3817
330
1F
100
AcDbEntity
  8
太線
100
AcDbLine
 10
444.3079729630166
 20
-144.3451030441349
 30
0.0
 11
441.3079729630165
 21
-144.3451030441349
 31
0.0
  0
LINE
  5
3818
330
1F
100
AcDbEntity
  8
太線
100
AcDbLine
 10
458.3181953934227
 20
-144.9711447459333
 30
0.0
 11
458.3181953934227
 21
-152.9711447459333
 31
0.0
  0
LINE
  5
3819
330
1F
100
AcDbEntity
  8
太線
100
AcDbLine
 10
454.3181953934227
 20
-144.9711447459332
 30
0.0
 11
454.3181953934227
 21
-152.9711447459333
 31
0.0
  0
ARC
  5
381A
330
1F
100
AcDbEntity
  8
太線
100
AcDbCircle
 10
457.3181953934226
 20
-161.7849011309316
 30
0.0
 40
1.0
100
AcDbArc
 50
0.0
 51
90.0
  0
LINE
  5
381B
330
1F
100
AcDbEntity
  8
太線
100
AcDbLine
 10
454.2051390871765
 20
-162.1648389599419
 30
0.0
 11
456.8229045823218
 21
-160.6264415824395
 31
0.0
  0
ARC
  5
381C
330
1F
100
AcDbEntity
  8
太線
100
AcDbCircle
 10
457.3181953934226
 20
-152.9711447459333
 30
0.0
 40
1.0
100
AcDbArc
 50
270.0
 51
0.0
  0
LINE
  5
381D
330
1F
100
AcDbEntity
  8
太線
100
AcDbLine
 10
454.3181953934227
 20
-152.9711447459333
 30
0.0
 11
457.3181953934226
 21
-153.9711447459333
 31
0.0
  0
ARC
  5
381E
330
1F
100
AcDbEntity
  8
太線
100
AcDbCircle
 10
457.3079729630165
 20
-145.3451030441349
 30
0.0
 40
1.0
100
AcDbArc
 50
0.0
 51
90.0
  0
LINE
  5
381F
330
1F
100
AcDbEntity
  8
太線
100
AcDbLine
 10
455.3079729630166
 20
-144.3451030441349
 30
0.0
 11
457.3079729630165
 21
-144.3451030441349
 31
0.0
  0
LINE
  5
3828
330
1F
100
AcDbEntity
  8
太線
100
AcDbLine
 10
454.3181953934227
 20
-42.78490113093164
 30
0.0
 11
455.3181953934227
 21
-45.48592818843315
 31
0.0
  0
LINE
  5
3829
330
1F
100
AcDbEntity
  8
太線
100
AcDbLine
 10
443.3181953934226
 20
-45.48592818843315
 30
0.0
 11
444.3181953934226
 21
-42.78490113093164
 31
0.0
  0
TEXT
  5
382A
330
1F
100
AcDbEntity
  8
文字
100
AcDbText
 10
510.654374959508
 20
-72.18553656126369
 30
0.0
 40
5.759999999999999
  1
M-12                          
 51
15.0
  7
OKANO
100
AcDbText
  0
LINE
  5
3834
330
1F
100
AcDbEntity
  8
太線
100
AcDbLine
 10
444.3181953934226
 20
-42.78490113093164
 30
0.0
 11
454.3181953934227
 21
-42.78490113093164
 31
0.0
  0
DIMENSION
  5
38A6
330
1F
100
AcDbEntity
  8
寸法線
370
    25
100
AcDbDimension
  2
*D5
 10
581.4990407119219
 20
113.5695548362912
 30
0.0
 11
546.4990407119223
 21
115.4445548362912
 31
0.0
 70
    32
 71
     5
 42
69.99999999999914
  3
ISO-25
100
AcDbAlignedDimension
 13
511.4990407119228
 23
148.5845454100096
 33
0.0
 14
581.4990407119219
 24
148.5845454100089
 34
0.0
100
AcDbRotatedDimension
  0
ARC
  5
38A7
330
1F
100
AcDbEntity
  8
太線
370
    25
100
AcDbCircle
 10
581.4990407119224
 20
148.5845454100095
 30
0.0
 40
29.92684640862699
100
AcDbArc
 50
246.469298145232
 51
109.6483671244479
  0
DIMENSION
  5
38A8
330
1F
100
AcDbEntity
  8
寸法線
370
    25
100
AcDbDimension
  2
*D6
 10
577.7577176176002
 20
144.2181966488717
 30
0.0
 11
590.1876481027273
 21
161.6063398096395
 31
0.0
 70
    35
 71
     5
 42
11.50000000000011
  3
ISO-25
100
AcDbDiametricDimension
 15
585.2403638062451
 25
152.9508941711475
 35
0.0
 40
0.0
1001
ACAD
1000
DSTYLE
1002
{
1070
   288
1070
     1
1002
}
  0
CIRCLE
  5
38A9
330
1F
100
AcDbEntity
  8
太線
370
    25
100
AcDbCircle
 10
581.4990407119224
 20
148.5845454100095
 30
0.0
 40
5.75
  0
CIRCLE
  5
38AA
330
1F
100
AcDbEntity
  8
太線
370
    25
100
AcDbCircle
 10
581.4990407119224
 20
148.5845454100095
 30
0.0
 40
22.5
  0
DIMENSION
  5
38AB
330
1F
100
AcDbEntity
  8
寸法線
370
    25
100
AcDbDimension
  2
*D7
 10
506.4653798065855
 20
146.3681840021878
 30
0.0
 11
529.569253495519
 21
156.5410055287723
 31
0.0
 70
   163
 71
     5
 42
11.0
  3
ISO-25
100
AcDbDiametricDimension
 15
516.5327016172596
 25
150.8009068178312
 35
0.0
 40
0.0
1001
ACAD
1000
DSTYLE
1002
{
1070
   288
1070
     1
1002
}
  0
DIMENSION
  5
38AC
330
1F
100
AcDbEntity
  8
寸法線
370
    25
100
AcDbDimension
  2
*D8
 10
511.4990407119226
 20
148.5845454100096
 30
0.0
 11
494.4393018992941
 21
158.0995603799787
 31
0.0
 70
    36
  1
10.5
 71
     5
 42
10.6936255167044
  3
ISO-25
100
AcDbRadialDimension
 15
501.7029644100204
 25
152.8729618751891
 35
0.0
 40
0.0
1001
ACAD
1000
DSTYLE
1002
{
1070
   288
1070
     1
1002
}
  0
ARC
  5
38AD
330
1F
100
AcDbEntity
  8
太線
370
    25
100
AcDbCircle
 10
511.4990407119225
 20
148.5845454100095
 30
0.0
 40
10.69362551670436
100
AcDbArc
 50
94.16865786076614
 51
258.8810334751942
  0
LINE
  5
38AE
330
1F
100
AcDbEntity
  8
太線
370
    25
100
AcDbLine
 10
507.7774987849561
 20
138.5593894323031
 30
0.0
 11
575.2410633459958
 21
119.5422820478539
 31
0.0
  0
CIRCLE
  5
38AF
330
1F
100
AcDbEntity
  8
太線
370
    25
100
AcDbCircle
 10
511.4990407119225
 20
148.5845454100095
 30
0.0
 40
5.5
  0
LINE
  5
38B0
330
1F
100
AcDbEntity
  8
太線
370
    25
100
AcDbLine
 10
508.2593804165417
 20
158.5393872886793
 30
0.0
 11
575.000122530203
 21
177.7972172911104
 31
0.0
  0
ARC
  5
38B1
330
1F
100
AcDbEntity
  8
太線
370
    25
100
AcDbCircle
 10
511.4990407119225
 20
148.5845454100095
 30
0.0
 40
10.46872846427808
100
AcDbArc
 50
104.1639218140664
 51
108.0267342608357
  0
ARC
  5
38B2
330
1F
100
AcDbEntity
  8
太線
370
    25
100
AcDbCircle
 10
581.4990407119224
 20
148.5845454100095
 30
0.0
 40
30.0
100
AcDbArc
 50
104.6493206882397
 51
107.4628139467074
  0
DIMENSION
  5
390D
330
1F
100
AcDbEntity
  8
寸法線
100
AcDbDimension
  2
*D9
 10
584.9494260972374
 20
143.9848344742215
 30
0.0
 11
555.5325106306668
 21
183.2005430569831
 31
0.0
 70
   163
  1
30
 71
     5
 42
11.50000000000002
  3
sunpo
100
AcDbDiametricDimension
 15
578.0486553266075
 25
153.184256345797
 35
0.0
 40
0.0
1001
ACAD
1000
DSTYLE
1002
{
1070
    40
1040
1.0
1070
   288
1070
     1
1002
}
  0
LINE
  5
394D
330
1F
100
AcDbEntity
  8
太線
370
    25
100
AcDbLine
 10
590.4604432696219
 20
-168.5789419182581
 30
0.0
 11
572.0341153016
 21
-168.5789419182581
 31
0.0
  0
LINE
  5
394E
330
1F
100
AcDbEntity
  8
太線
370
    25
100
AcDbLine
 10
511.2472792856109
 20
-182.5789419182581
 30
0.0
 11
608.7472792856109
 21
-182.5789419182581
 31
0.0
  0
LINE
  5
3952
330
1F
100
AcDbEntity
  8
太線
370
    25
100
AcDbLine
 10
561.9604432696218
 20
-180.5789419182581
 30
0.0
 11
511.2472792856109
 21
-180.5789419182577
 31
0.0
  0
ARC
  5
3953
330
1F
100
AcDbEntity
  8
太線
370
    25
100
AcDbCircle
 10
512.1413654898045
 20
-181.5789419182581
 30
0.0
 40
1.0
100
AcDbArc
 50
90.0
 51
180.0
  0
LINE
  5
3954
330
1F
100
AcDbEntity
  8
太線
370
    25
100
AcDbLine
 10
510.8582722204431
 20
-181.5789419182581
 30
0.0
 11
510.8582722204431
 21
-182.5789419182581
 31
0.0
  0
LINE
  5
3955
330
1F
100
AcDbEntity
  8
太線
370
    25
100
AcDbLine
 10
516.2472792856109
 20
-180.5789419182577
 30
0.0
 11
516.2472792856109
 21
-182.5789419182581
 31
0.0
  0
LINE
  5
3956
330
1F
100
AcDbEntity
  8
太線
370
    25
100
AcDbLine
 10
527.2472792856109
 20
-180.5789419182579
 30
0.0
 11
527.2472792856109
 21
-182.5789419182581
 31
0.0
  0
LINE
  5
3957
330
1F
100
AcDbEntity
  8
太線
370
    25
100
AcDbLine
 10
569.3962394019896
 20
-170.1500924726358
 30
0.0
 11
564.5983191692322
 21
-179.0077913638804
 31
0.0
  0
ARC
  5
3958
330
1F
100
AcDbEntity
  8
太線
370
    25
100
AcDbCircle
 10
561.9604432696218
 20
-177.5789419182581
 30
0.0
 40
3.0
100
AcDbArc
 50
270.0
 51
331.5570713756365
  0
ARC
  5
395D
330
1F
100
AcDbEntity
  8
太線
370
    25
100
AcDbCircle
 10
572.0341153016
 20
-171.5789419182581
 30
0.0
 40
3.0
100
AcDbArc
 50
90.0
 51
151.5570713756365
  0
LINE
  5
3966
330
1F
100
AcDbEntity
  8
太線
370
    25
100
AcDbLine
 10
607.7472792856109
 20
-180.5789419182581
 30
0.0
 11
600.5341153015999
 21
-180.5789419182581
 31
0.0
  0
LINE
  5
3967
330
1F
100
AcDbEntity
  8
太線
370
    25
100
AcDbLine
 10
597.8962394019896
 20
-179.0077913638804
 30
0.0
 11
593.0983191692322
 21
-170.1500924726358
 31
0.0
  0
ARC
  5
3969
330
1F
100
AcDbEntity
  8
太線
370
    25
100
AcDbCircle
 10
590.4604432696219
 20
-171.5789419182581
 30
0.0
 40
3.0
100
AcDbArc
 50
28.44292862436347
 51
90.0
  0
ARC
  5
396E
330
1F
100
AcDbEntity
  8
太線
370
    25
100
AcDbCircle
 10
600.5341153015999
 20
-177.5789419182581
 30
0.0
 40
3.0
100
AcDbArc
 50
208.4429286243634
 51
270.0
  0
ARC
  5
396F
330
1F
100
AcDbEntity
  8
太線
370
    25
100
AcDbCircle
 10
607.7472792856109
 20
-181.5789419182581
 30
0.0
 40
1.0
100
AcDbArc
 50
0.0
 51
90.0
  0
LINE
  5
3970
330
1F
100
AcDbEntity
  8
太線
370
    25
100
AcDbLine
 10
608.7472792856109
 20
-182.5789419182581
 30
0.0
 11
608.7472792856109
 21
-181.5789419182581
 31
0.0
  0
TEXT
  5
3986
330
1F
100
AcDbEntity
  8
文字
100
AcDbText
 10
517.5777959902359
 20
-222.6757388146083
 30
0.0
 40
5.759999999999999
  1
水平調整85mm　500kタイプ                                                                                                                                      
 51
15.0
  7
OKANO
100
AcDbText
  0
DIMENSION
  5
3987
330
1F
100
AcDbEntity
  8
寸法線
100
AcDbDimension
  2
*D10
 10
527.4896355588488
 20
-168.7013154270896
 30
0.0
 11
521.9224953670012
 21
-165.2013154270896
 31
0.0
 70
    32
  1
11
 71
     5
 42
11.13428038369511
  3
sunpo
100
AcDbAlignedDimension
 13
516.3553551751537
 23
-179.1343924073237
 33
0.0
 14
527.4896355588488
 24
-178.4388546475515
 34
0.0
100
AcDbRotatedDimension
1001
ACAD
1000
DSTYLE
1002
{
1070
    40
1040
1.0
1002
}
  0
DIMENSION
  5
39E0
330
1F
100
AcDbEntity
  8
寸法線
100
AcDbDimension
  2
*D11
 10
415.9019591482952
 20
-168.7849011309316
 30
0.0
 11
412.4014670223109
 21
-175.7849011309315
 31
0.0
 70
    32
  1
20
 71
     5
 42
14.0
  3
sunpo
100
AcDbAlignedDimension
 13
421.8181953934227
 23
-182.7849011309316
 33
0.0
 14
440.3181953934226
 24
-168.7849011309316
 34
0.0
 50
90.0
100
AcDbRotatedDimension
1001
ACAD
1000
DSTYLE
1002
{
1070
    40
1040
1.0
1002
}
  0
DIMENSION
  5
39ED
330
1F
100
AcDbEntity
  8
寸法線
100
AcDbDimension
  2
*D12
 10
476.8181953934226
 20
-192.1700872932306
 30
0.0
 11
449.3181953934226
 21
-188.6700872932306
 31
0.0
 70
    32
  1
60
 71
     5
 42
55.0
  3
sunpo
100
AcDbAlignedDimension
 13
421.8181953934227
 23
-182.7849011309316
 33
0.0
 14
476.8181953934226
 24
-182.7849011309316
 34
0.0
100
AcDbRotatedDimension
1001
ACAD
1000
DSTYLE
1002
{
1070
    40
1040
1.0
1002
}
  0
DIMENSION
  5
39FA
330
1F
100
AcDbEntity
  8
寸法線
100
AcDbDimension
  2
*D13
 10
581.4990407119219
 20
-190.0146763075708
 30
0.0
 11
595.1231599987664
 21
-186.5146763075708
 31
0.0
 70
    32
  1
30
 71
     5
 42
27.24823857368892
  3
sunpo
100
AcDbAlignedDimension
 13
608.7472792856109
 23
-182.5789419182581
 33
0.0
 14
581.4990407119219
 24
-179.8640160714197
 34
0.0
100
AcDbRotatedDimension
1001
ACAD
1000
DSTYLE
1002
{
1070
    40
1040
1.0
1002
}
  0
DIMENSION
  5
3A07
330
1F
100
AcDbEntity
  8
寸法線
100
AcDbDimension
  2
*D14
 10
521.4187785805791
 20
-190.0146763075708
 30
0.0
 11
551.4589096462506
 21
-186.5146763075708
 31
0.0
 70
    32
  1
70
 71
     5
 42
60.0802621313428
  3
sunpo
100
AcDbAlignedDimension
 13
581.4990407119219
 23
-179.8640160714197
 33
0.0
 14
521.4187785805791
 24
-187.5000310396055
 34
0.0
100
AcDbRotatedDimension
1001
ACAD
1000
DSTYLE
1002
{
1070
    40
1040
1.0
1070
   279
1070
     1
1002
}
  0
DIMENSION
  5
3A14
330
1F
100
AcDbEntity
  8
寸法線
100
AcDbDimension
  2
*D15
 10
511.35217384048
 20
-190.0146763075708
 30
0.0
 11
520.9854762105297
 21
-198.5146763075708
 31
0.0
 70
    32
  1
10.5
 71
     5
 42
10.06660474009913
  3
sunpo
100
AcDbAlignedDimension
 13
521.4187785805791
 23
-187.5000310396055
 33
0.0
 14
511.35217384048
 24
-187.1407954343435
 34
0.0
100
AcDbRotatedDimension
1001
ACAD
1000
DSTYLE
1002
{
1070
    40
1040
1.0
1070
   279
1070
     1
1002
}
  0
DIMENSION
  5
3A69
330
1F
100
AcDbEntity
  8
寸法線
100
AcDbDimension
  2
*D16
 10
502.9710174394166
 20
-180.5789419182577
 30
0.0
 11
499.4705253134324
 21
-171.9965943429071
 31
0.0
 70
    32
 71
     5
 42
2.000000000000341
  3
sunpo
100
AcDbAlignedDimension
 13
510.8582722204431
 23
-182.5789419182581
 33
0.0
 14
511.2472792856109
 24
-180.5789419182577
 34
0.0
 50
90.0
100
AcDbRotatedDimension
1001
ACAD
1000
DSTYLE
1002
{
1070
    40
1040
1.0
1002
}
  0
LINE
  5
40D5
330
1F
100
AcDbEntity
  8
太線
100
AcDbLine
 10
135.8413684916777
 20
120.4111517328137
 30
0.0
 11
173.2408787400547
 21
120.2058223818796
 31
0.0
  0
TEXT
  5
40D9
330
1F
100
AcDbEntity
  8
文字
100
AcDbText
 10
126.322959799598
 20
82.999638541954
 30
0.0
 40
7.0
  1
S-15-1Ｂ　重量用ベース
 51
15.0
  7
OKANO
100
AcDbText
  0
LINE
  5
40DB
330
1F
100
AcDbEntity
  8
太線
100
AcDbLine
 10
112.6153919706277
 20
124.1923350179907
 30
0.0
 11
195.1153919706277
 21
124.1923350179907
 31
0.0
  0
DIMENSION
  5
40DC
330
1F
100
AcDbEntity
  8
寸法線
100
AcDbDimension
  2
*D18
 10
199.2449845006466
 20
108.7788662661831
 30
0.0
 11
153.8282465965643
 21
112.2788662661831
 31
0.0
 70
    32
  1
160
 71
     5
 42
90.83347580816473
  3
sunpo
100
AcDbAlignedDimension
 13
108.4115086924819
 23
119.8262471136209
 33
0.0
 14
199.2449845006466
 24
119.8262471136209
 34
0.0
100
AcDbRotatedDimension
1001
ACAD
1000
DSTYLE
1002
{
1070
    40
1040
1.0
1002
}
  0
ARC
  5
40DE
330
1F
100
AcDbEntity
  8
太線
100
AcDbCircle
 10
10.27968533644272
 20
177.5201660889901
 30
0.0
 40
4.5
100
AcDbArc
 50
209.978726857023
 51
31.07421262057021
  0
ARC
  5
40DF
330
1F
100
AcDbEntity
  8
太線
100
AcDbCircle
 10
9.370074437723815
 20
177.9595454100088
 30
0.0
 40
14.99999999999991
100
AcDbArc
 50
90.0
 51
180.0
  0
ARC
  5
40E0
330
1F
100
AcDbEntity
  8
太線
100
AcDbCircle
 10
7.588009996171535
 20
180.4165757895765
 30
0.0
 40
4.5
100
AcDbArc
 50
58.83348738433902
 51
236.3518041728803
  0
DIMENSION
  5
40E1
330
1F
100
AcDbEntity
  8
寸法線
100
AcDbDimension
  2
*D19
 10
9.370074437723815
 20
177.9595454100093
 30
0.0
 11
-9.677897102170717
 21
197.0332092766415
 31
0.0
 70
    36
 71
     5
 42
14.99999999999976
  3
sunpo
100
AcDbRadialDimension
 15
-2.517748730793044
 25
187.1072041440279
 35
0.0
 40
0.0
1001
ACAD
1000
DSTYLE
1002
{
1070
    40
1040
1.0
1070
   288
1070
     1
1002
}
  0
LINE
  5
40E2
330
1F
100
AcDbEntity
  8
太線
100
AcDbLine
 10
7.679649102445353
 20
122.5330198610852
 30
0.0
 11
3.260489760826033
 21
118.264001900113
 31
0.0
  0
ARC
  5
40E3
330
1F
100
AcDbEntity
  8
太線
100
AcDbCircle
 10
10.0048210233125
 20
118.6719554631054
 30
0.0
 40
4.5
100
AcDbArc
 50
300.3622165943852
 51
121.4577023579305
  0
ARC
  5
40E4
330
1F
100
AcDbEntity
  8
太線
100
AcDbCircle
 10
7.126491875046781
 20
115.9609544292953
 30
0.0
 40
4.5
100
AcDbArc
 50
149.2169771217072
 51
326.735293910241
  0
ARC
  5
40E5
330
1F
100
AcDbEntity
  8
太線
100
AcDbCircle
 10
9.370074437723815
 20
117.9595454100088
 30
0.0
 40
15.0
100
AcDbArc
 50
180.0
 51
270.0
  0
DIMENSION
  5
40E6
330
1F
100
AcDbEntity
  8
寸法線
100
AcDbDimension
  2
*D20
 10
-22.93629269464577
 20
116.7164370691597
 30
0.0
 11
-26.43678482063004
 21
147.5831060628308
 31
0.0
 70
    32
  1
120
 71
     5
 42
61.73333798734211
  3
sunpo
100
AcDbAlignedDimension
 13
9.425779185646376
 23
178.4497750565018
 33
0.0
 14
9.425779185646376
 24
116.7164370691597
 34
0.0
 50
90.0
100
AcDbRotatedDimension
1001
ACAD
1000
DSTYLE
1002
{
1070
    40
1040
1.0
1002
}
  0
LINE
  5
40E7
330
1F
100
AcDbEntity
  8
太線
100
AcDbLine
 10
-5.629925562276184
 20
177.9595454100088
 30
0.0
 11
-5.629925562276184
 21
117.9595454100088
 31
0.0
  0
LINE
  5
40E8
330
1F
100
AcDbEntity
  8
太線
100
AcDbLine
 10
5.094596056355896
 20
176.6705262804625
 30
0.0
 11
6.38173589367625
 21
175.2716131895373
 31
0.0
  0
LINE
  5
40F0
330
1F
100
AcDbEntity
  8
太線
100
AcDbLine
 10
84.37007443772381
 20
117.9595454100088
 30
0.0
 11
84.37007443772381
 21
177.9595454100088
 31
0.0
  0
DIMENSION
  5
40F3
330
1F
100
AcDbEntity
  8
寸法線
100
AcDbDimension
  2
*D21
 10
93.018212989664
 20
100.8029849634508
 30
0.0
 11
87.41124897776167
 21
100.1494688343764
 31
0.0
 70
    33
  1
12
 71
     5
 42
8.8570161200374
  3
sunpo
100
AcDbAlignedDimension
 13
67.42047175587334
 23
113.8935756853804
 33
0.0
 14
73.68633220763763
 24
120.1534261108793
 34
0.0
1001
ACAD
1000
DSTYLE
1002
{
1070
    40
1040
1.0
1002
}
  0
DIMENSION
  5
40F4
330
1F
100
AcDbEntity
  8
寸法線
100
AcDbDimension
  2
*D22
 10
82.04269745762092
 20
119.5742701146918
 30
0.0
 11
79.49374513229648
 21
126.8838535068489
 31
0.0
 70
    33
  1
20
 71
     5
 42
13.80923201334505
  3
sunpo
100
AcDbAlignedDimension
 13
65.20899201993358
 23
121.9945579204868
 33
0.0
 14
75.16065263156531
 24
112.4206694800833
 34
0.0
1001
ACAD
1000
DSTYLE
1002
{
1070
    40
1040
1.0
1002
}
  0
ARC
  5
40F5
330
1F
100
AcDbEntity
  8
太線
100
AcDbCircle
 10
69.3700744377239
 20
117.9595454100088
 30
0.0
 40
15.0
100
AcDbArc
 50
270.0
 51
0.0
  0
LINE
  5
40FA
330
1F
100
AcDbEntity
  8
太線
100
AcDbLine
 10
9.370074437723815
 20
102.9595454100088
 30
0.0
 11
69.3700744377239
 21
102.9595454100088
 31
0.0
  0
LINE
  5
40FC
330
1F
100
AcDbEntity
  8
太線
100
AcDbLine
 10
10.88914616627642
 20
113.4926690558647
 30
0.0
 11
12.27941295610156
 21
114.7891431396353
 31
0.0
  0
ARC
  5
4116
330
1F
100
AcDbEntity
  8
太線
100
AcDbCircle
 10
68.62342506124594
 20
118.5601829970615
 30
0.0
 40
4.5
100
AcDbArc
 50
58.32379763122568
 51
239.419283394774
  0
LINE
  5
4117
330
1F
100
AcDbEntity
  8
太線
100
AcDbLine
 10
70.96330438011761
 20
122.4123521937678
 30
0.0
 11
75.36615153663598
 21
118.1265126547671
 31
0.0
  0
ARC
  5
4118
330
1F
100
AcDbEntity
  8
太線
100
AcDbCircle
 10
71.49139478128347
 20
115.8382250664492
 30
0.0
 40
4.5
100
AcDbArc
 50
213.0462060789199
 51
30.56452286745749
  0
LINE
  5
4119
330
1F
100
AcDbEntity
  8
太線
100
AcDbLine
 10
67.71935495683846
 20
113.384306656477
 30
0.0
 11
66.33404242617456
 21
114.6860731444329
 31
0.0
  0
LINE
  5
412D
330
1F
100
AcDbEntity
  8
太線
100
AcDbLine
 10
135.8400116191413
 20
120.4423350179906
 30
0.0
 11
108.8653919706277
 21
120.4423350179907
 31
0.0
  0
LINE
  5
412E
330
1F
100
AcDbEntity
  8
太線
100
AcDbLine
 10
108.8653919706277
 20
120.4423350179907
 30
0.0
 11
135.8400116191413
 21
120.4423350179906
 31
0.0
  0
LINE
  5
412F
330
1F
100
AcDbEntity
  8
想像線
100
AcDbLine
 10
117.2852001409942
 20
124.1923350179907
 30
0.0
 11
117.2852001409942
 21
120.4423350179907
 31
0.0
  0
ARC
  5
4130
330
1F
100
AcDbEntity
  8
太線
100
AcDbCircle
 10
112.6153919706277
 20
120.4423350179907
 30
0.0
 40
3.75
100
AcDbArc
 50
90.0
 51
180.0
  0
LINE
  5
4131
330
1F
100
AcDbEntity
  8
太線
100
AcDbLine
 10
108.8653919706277
 20
120.4423350179907
 30
0.0
 11
108.8653919706277
 21
120.4423350179907
 31
0.0
  0
LINE
  5
4133
330
1F
100
AcDbEntity
  8
想像線
100
AcDbLine
 10
128.8531611324814
 20
124.1923350179907
 30
0.0
 11
128.8531611324814
 21
120.4423350179907
 31
0.0
  0
ARC
  5
4136
330
1F
100
AcDbEntity
  8
太線
100
AcDbCircle
 10
69.37007443772381
 20
177.9595454100088
 30
0.0
 40
14.99999999999995
100
AcDbArc
 50
0.0
 51
90.0
  0
LINE
  5
413A
330
1F
100
AcDbEntity
  8
太線
100
AcDbLine
 10
69.37007443772381
 20
192.9595454100088
 30
0.0
 11
9.370074437723815
 21
192.9595454100088
 31
0.0
  0
LINE
  5
4154
330
1F
100
AcDbEntity
  8
太線
100
AcDbLine
 10
14.15622587820559
 20
179.8194434048015
 30
0.0
 11
9.916881452756967
 21
184.2670767620088
 31
0.0
  0
ARC
  5
4155
330
1F
100
AcDbEntity
  8
太線
100
AcDbCircle
 10
68.55688435433581
 20
177.4249685341064
 30
0.0
 40
4.5
100
AcDbArc
 50
148.7385987926348
 51
329.8340845561817
  0
ARC
  5
4156
330
1F
100
AcDbEntity
  8
太線
100
AcDbCircle
 10
71.25800804882462
 20
180.3125689355032
 30
0.0
 40
4.5
100
AcDbArc
 50
303.4610072403257
 51
120.9793240288629
  0
LINE
  5
4159
330
1F
100
AcDbEntity
  8
太線
100
AcDbLine
 10
73.73917014561752
 20
176.5583933070278
 30
0.0
 11
72.44746685663705
 21
175.1636928338019
 31
0.0
  0
LINE
  5
415A
330
1F
100
AcDbEntity
  8
太線
100
AcDbLine
 10
64.68787635805549
 20
179.7368984360834
 30
0.0
 11
68.94172880542146
 21
184.1706579011156
 31
0.0
  0
TEXT
  5
4175
330
1F
100
AcDbEntity
  8
文字
100
AcDbText
 10
193.3549106678527
 20
133.8863604665358
 30
0.0
 40
4.32
  1
溶接
 51
15.0
  7
OKANO
100
AcDbText
  0
DIMENSION
  5
4176
330
1F
100
AcDbEntity
  8
寸法線
100
AcDbDimension
  2
*D24
 10
222.5560874520369
 20
123.701041543459
 30
0.0
 11
219.0560874520369
 21
134.6789272264291
 31
0.0
 70
    32
  1
5.5
 71
     5
 42
3.55268462487237
  3
sunpo
100
AcDbAlignedDimension
 13
194.5518397752961
 23
120.1483569185866
 33
0.0
 14
194.107328507379
 24
123.701041543459
 34
0.0
 50
90.0
100
AcDbRotatedDimension
1001
ACAD
1000
DSTYLE
1002
{
1070
    40
1040
1.0
1002
}
  0
LINE
  5
4177
330
1F
100
AcDbEntity
  8
想像線
100
AcDbLine
 10
190.1950501408928
 20
120.4423350179907
 30
0.0
 11
190.1950501408928
 21
124.1923350179907
 31
0.0
  0
LINE
  5
4178
330
1F
100
AcDbEntity
  8
想像線
100
AcDbLine
 10
178.6974689602207
 20
124.1923350179907
 30
0.0
 11
178.6974689602207
 21
120.4423350179907
 31
0.0
  0
ARC
  5
4179
330
1F
100
AcDbEntity
  8
太線
100
AcDbCircle
 10
195.1153919706277
 20
120.4423350179907
 30
0.0
 40
3.75
100
AcDbArc
 50
0.0
 51
90.0
  0
LINE
  5
417B
330
1F
100
AcDbEntity
  8
太線
100
AcDbLine
 10
173.2317748696523
 20
120.4423350179907
 30
0.0
 11
198.8653919706277
 21
120.4423350179907
 31
0.0
  0
LINE
  5
417C
330
1F
100
AcDbEntity
  8
太線
100
AcDbLine
 10
198.8653919706277
 20
120.4423350179907
 30
0.0
 11
173.2317748696523
 21
120.4423350179907
 31
0.0
  0
LINE
  5
417D
330
1F
100
AcDbEntity
  8
太線
100
AcDbLine
 10
198.8653919706277
 20
120.4423350179907
 30
0.0
 11
198.8653919706277
 21
120.4423350179907
 31
0.0
  0
LWPOLYLINE
  5
4312
330
1F
100
AcDbEntity
  8
太線
100
AcDbPolyline
 90
        4
 70
     1
 43
0.0
 10
-33.27421480457559
 20
225.3679287220315
 10
235.7610216770193
 20
225.3679287220315
 10
235.7610216770193
 20
57.94281933071122
 10
-33.27421480457559
 20
57.94281933071122
  0
LINE
  5
43D3
330
1F
100
AcDbEntity
  8
太線
100
AcDbLine
 10
96.10800117519971
 20
-95.61822710130838
 30
0.0
 11
93.52929225341714
 21
-98.7519964041437
 31
0.0
  0
LINE
  5
43D4
330
1F
100
AcDbEntity
  8
太線
100
AcDbLine
 10
93.52929225341714
 20
-98.7519964041437
 30
0.0
 11
124.7339533298978
 21
-119.4233726125033
 31
0.0
  0
ARC
  5
43D5
330
1F
100
AcDbEntity
  8
太線
100
AcDbCircle
 10
133.8651271330791
 20
-136.8710040384842
 30
0.0
 40
31.50138819427047
100
AcDbArc
 50
150.341227962281
 51
325.6270000397202
  0
ARC
  5
43D6
330
1F
100
AcDbEntity
  8
太線
100
AcDbCircle
 10
111.8860256193817
 20
-102.2458820500774
 30
0.0
 40
18.68627562613751
100
AcDbArc
 50
169.2236388496547
 51
251.8562829536764
  0
ARC
  5
43D7
330
1F
100
AcDbEntity
  8
太線
100
AcDbCircle
 10
133.8651271330791
 20
-136.8710040384842
 30
0.0
 40
44.43547654268127
100
AcDbArc
 50
147.2559511148459
 51
328.6131677763239
  0
ARC
  5
43DA
330
1F
100
AcDbEntity
  8
太線
100
AcDbCircle
 10
5.869762180314182
 20
-88.21396109600403
 30
0.0
 40
13.45021882309577
100
AcDbArc
 50
165.6038297236797
 51
257.5871520373356
  0
LINE
  5
43DB
330
1F
100
AcDbEntity
  8
太線
100
AcDbLine
 10
-5.878995346805623
 20
-83.31544942833769
 30
0.0
 11
9.212785426227981
 21
-93.08506971532096
 31
0.0
  0
LINE
  5
43DC
330
1F
100
AcDbEntity
  8
太線
100
AcDbLine
 10
-7.158116835785051
 20
-84.86989848728375
 30
0.0
 11
8.320385682310501
 21
-95.12355732079546
 31
0.0
  0
ARC
  5
43DD
330
1F
100
AcDbEntity
  8
太線
100
AcDbCircle
 10
12.84973776722185
 20
-103.7781364011431
 30
0.0
 40
18.08191140861927
100
AcDbArc
 50
159.0470096184021
 51
318.2895364935154
  0
ARC
  5
43DE
330
1F
100
AcDbEntity
  8
太線
100
AcDbCircle
 10
12.84973776722185
 20
-103.7781364011431
 30
0.0
 40
25.0
100
AcDbArc
 50
144.6298252566875
 51
333.203115383164
  0
LINE
  5
43DF
330
1F
100
AcDbEntity
  8
太線
100
AcDbLine
 10
-5.878995346805623
 20
-83.31544942833769
 30
0.0
 11
-7.158116835785051
 21
-84.86989848728375
 31
0.0
  0
LINE
  5
43E0
330
1F
100
AcDbEntity
  8
想像線
100
AcDbLine
 10
43.84973776722185
 20
-34.77813640114317
 30
0.0
 11
43.84973776722185
 21
-68.77813640114317
 31
0.0
  0
LINE
  5
43E1
330
1F
100
AcDbEntity
  8
想像線
100
AcDbLine
 10
33.84973776722185
 20
-34.77813640114317
 30
0.0
 11
33.84973776722185
 21
-68.77813640114317
 31
0.0
  0
LINE
  5
43E2
330
1F
100
AcDbEntity
  8
太線
100
AcDbLine
 10
32.84973776722185
 20
-36.07884877794868
 30
0.0
 11
32.84973776722185
 21
-68.77813640114317
 31
0.0
  0
LINE
  5
43E3
330
1F
100
AcDbEntity
  8
太線
100
AcDbLine
 10
44.84973776722185
 20
-68.77813640114317
 30
0.0
 11
44.84973776722185
 21
-36.07884877794868
 31
0.0
  0
LINE
  5
43E4
330
1F
100
AcDbEntity
  8
太線
100
AcDbLine
 10
43.84973776722185
 20
-68.77813640114317
 30
0.0
 11
46.84973776722185
 21
-68.77813640114317
 31
0.0
  0
ARC
  5
43E5
330
1F
100
AcDbEntity
  8
細線
100
AcDbCircle
 10
45.01079649192578
 20
-73.67281837691229
 30
0.0
 40
1.040603392511691
100
AcDbArc
 50
207.0324924700558
 51
343.3477876073678
  0
LINE
  5
43E6
330
1F
100
AcDbEntity
  8
太線
100
AcDbLine
 10
56.84973776722185
 20
-82.77813640114317
 30
0.0
 11
44.84973776722185
 21
-82.77813640114317
 31
0.0
  0
LINE
  5
43E7
330
1F
100
AcDbEntity
  8
太線
100
AcDbLine
 10
47.84973776722185
 20
-71.77813640114317
 30
0.0
 11
29.84973776722185
 21
-71.77813640114317
 31
0.0
  0
LINE
  5
43E8
330
1F
100
AcDbEntity
  8
太線
100
AcDbLine
 10
57.84973776722186
 20
-78.77813640114317
 30
0.0
 11
23.84973776722182
 21
-78.77813640114317
 31
0.0
  0
LINE
  5
43E9
330
1F
100
AcDbEntity
  8
太線
100
AcDbLine
 10
54.84973776722185
 20
-74.77813640114317
 30
0.0
 11
22.84973776722185
 21
-74.77813640114317
 31
0.0
  0
LINE
  5
43EA
330
1F
100
AcDbEntity
  8
細線
100
AcDbLine
 10
54.84973776722185
 20
-73.77813640114317
 30
0.0
 11
22.84973776722185
 21
-73.77813640114317
 31
0.0
  0
LINE
  5
43EB
330
1F
100
AcDbEntity
  8
太線
100
AcDbLine
 10
22.84973776722182
 20
-79.77813640114317
 30
0.0
 11
22.84973776722185
 21
-98.43118359900854
 31
0.0
  0
ARC
  5
43EC
330
1F
100
AcDbEntity
  8
太線
100
AcDbCircle
 10
12.61165828250202
 20
-104.4809051904563
 30
0.0
 40
10.29441497526703
100
AcDbArc
 50
0.8334727907712851
 51
113.3327606800254
  0
LINE
  5
43ED
330
1F
100
AcDbEntity
  8
太線
100
AcDbLine
 10
12.84973776722185
 20
-76.77813640114317
 30
0.0
 11
8.790445184010735
 21
-93.21965600018492
 31
0.0
  0
ARC
  5
43EE
330
1F
100
AcDbEntity
  8
太線
100
AcDbCircle
 10
12.61165828250202
 20
-104.4809051904563
 30
0.0
 40
11.89190493022338
100
AcDbArc
 50
11.14775259192503
 51
108.7433120461442
  0
ARC
  5
43EF
330
1F
100
AcDbEntity
  8
太線
100
AcDbCircle
 10
12.84973776722185
 20
-103.7781364011431
 30
0.0
 40
25.0
100
AcDbArc
 50
343.3433214437102
 51
27.82709275197218
  0
LINE
  5
43F0
330
1F
100
AcDbEntity
  8
太線
100
AcDbLine
 10
44.84973776722185
 20
-82.77813640114317
 30
0.0
 11
24.27918517717705
 21
-102.1817272870512
 31
0.0
  0
ARC
  5
43F1
330
1F
100
AcDbEntity
  8
太線
100
AcDbCircle
 10
29.31239100969435
 20
-98.68308447645162
 30
0.0
 40
17.38078381997681
100
AcDbArc
 50
232.8302235075271
 51
298.845878638814
  0
ARC
  5
43F2
330
1F
100
AcDbEntity
  8
太線
100
AcDbCircle
 10
12.61165828250202
 20
-104.4809051904563
 30
0.0
 40
10.29441497526703
100
AcDbArc
 50
162.0781020914777
 51
307.7977419633979
  0
CIRCLE
  5
43F3
330
1F
100
AcDbEntity
  8
太線
100
AcDbCircle
 10
12.84973776722185
 20
-103.7781364011431
 30
0.0
 40
2.198751160989681
  0
LINE
  5
43F4
330
1F
100
AcDbEntity
  8
太線
100
AcDbLine
 10
36.12932794837138
 20
-112.8918996742222
 30
0.0
 11
37.6978406745211
 21
-113.9072718148754
 31
0.0
  0
LINE
  5
43F5
330
1F
100
AcDbEntity
  8
太線
100
AcDbLine
 10
38.94809316559434
 20
-112.3341344942953
 30
0.0
 11
37.6978406745211
 21
-113.9072718148754
 31
0.0
  0
LINE
  5
43F6
330
1F
100
AcDbEntity
  8
太線
100
AcDbLine
 10
37.6978406745211
 20
-113.9072718148754
 30
0.0
 11
22.90498407288564
 21
-104.3311592188055
 31
0.0
  0
LINE
  5
43F7
330
1F
100
AcDbEntity
  8
太線
100
AcDbLine
 10
23.86643199123682
 20
-102.5710651000138
 30
0.0
 11
38.94809316559434
 21
-112.3341344942953
 31
0.0
  0
ARC
  5
43F8
330
1F
100
AcDbEntity
  8
太線
100
AcDbCircle
 10
12.84973776722185
 20
-103.7781364011431
 30
0.0
 40
18.08191140861927
100
AcDbArc
 50
349.858980730919
 51
21.64302890254962
  0
LINE
  5
43F9
330
1F
100
AcDbEntity
  8
太線
100
AcDbLine
 10
24.33404927867741
 20
-102.0998174737387
 30
0.0
 11
24.33404927867741
 21
-102.8896013878049
 31
0.0
  0
LINE
  5
43FA
330
1F
100
AcDbEntity
  8
太線
100
AcDbLine
 10
22.84973776722185
 20
-74.77813640114317
 30
0.0
 11
19.84973776722185
 21
-74.77813640114317
 31
0.0
  0
TEXT
  5
43FB
330
1F
100
AcDbEntity
  8
文字
100
AcDbText
 10
6.221223602370628
 20
-59.66396102287695
 30
0.0
 40
5.759999999999999
  1
M-12                          
 51
15.0
  7
OKANO
100
AcDbText
  0
ARC
  5
43FC
330
1F
100
AcDbEntity
  8
太線
100
AcDbCircle
 10
12.84973776722185
 20
-103.7781364011431
 30
0.0
 40
18.08191140861927
100
AcDbArc
 50
97.10360178722602
 51
124.3072527398773
  0
ARC
  5
43FD
330
1F
100
AcDbEntity
  8
太線
100
AcDbCircle
 10
12.84973776722185
 20
-103.7781364011431
 30
0.0
 40
25.0
100
AcDbArc
 50
91.13452041214289
 51
130.8229120270861
  0
LINE
  5
43FE
330
1F
100
AcDbEntity
  8
太線
100
AcDbLine
 10
19.84973776722185
 20
-74.77813640114317
 30
0.0
 11
12.84973776722185
 21
-76.77813640114317
 31
0.0
  0
LINE
  5
43FF
330
1F
100
AcDbEntity
  8
想像線
100
AcDbLine
 10
44.84973776722185
 20
-68.77813640114317
 30
0.0
 11
44.84973776722185
 21
-71.77813640114317
 31
0.0
  0
LINE
  5
4400
330
1F
100
AcDbEntity
  8
太線
100
AcDbLine
 10
29.84973776722185
 20
-69.77813640114317
 30
0.0
 11
29.84973776722185
 21
-71.77813640114317
 31
0.0
  0
LINE
  5
4401
330
1F
100
AcDbEntity
  8
想像線
100
AcDbLine
 10
32.84973776722185
 20
-68.77813640114317
 30
0.0
 11
32.84973776722185
 21
-71.77813640114317
 31
0.0
  0
LINE
  5
4402
330
1F
100
AcDbEntity
  8
太線
100
AcDbLine
 10
33.81062744086671
 20
-69.17089195634509
 30
0.0
 11
33.81062744086671
 21
-71.8389002022846
 31
0.0
  0
ARC
  5
4403
330
1F
100
AcDbEntity
  8
太線
100
AcDbCircle
 10
23.84973776722185
 20
-72.77813640114317
 30
0.0
 40
1.0
100
AcDbArc
 50
90.0
 51
180.0
  0
TEXT
  5
4404
330
1F
100
AcDbEntity
  8
文字
100
AcDbText
 10
25.90845984699081
 20
-87.72597976138149
 30
0.0
 40
5.759999999999999
  1
65                                                                                                                 
 51
15.0
  7
OKANO
100
AcDbText
  0
ARC
  5
4405
330
1F
100
AcDbEntity
  8
細線
100
AcDbCircle
 10
26.55739702521063
 20
-73.67281837691229
 30
0.0
 40
1.040603392511691
100
AcDbArc
 50
207.0324924700558
 51
343.3477876073678
  0
LINE
  5
4406
330
1F
100
AcDbEntity
  8
太線
100
AcDbLine
 10
29.84973776722185
 20
-71.77813640114317
 30
0.0
 11
23.84973776722185
 21
-71.77813640114317
 31
0.0
  0
LINE
  5
4407
330
1F
100
AcDbEntity
  8
太線
100
AcDbLine
 10
22.84973776722185
 20
-72.77813640114317
 30
0.0
 11
22.84973776722185
 21
-74.77813640114317
 31
0.0
  0
ARC
  5
4408
330
1F
100
AcDbEntity
  8
太線
100
AcDbCircle
 10
23.84973776722182
 20
-79.77813640114317
 30
0.0
 40
1.0
100
AcDbArc
 50
90.0
 51
180.0
  0
ARC
  5
4409
330
1F
100
AcDbEntity
  8
細線
100
AcDbCircle
 10
24.10300383709304
 20
-73.67281837691229
 30
0.0
 40
1.040603392511691
100
AcDbArc
 50
207.0324924700558
 51
343.3477876073678
  0
ARC
  5
440A
330
1F
100
AcDbEntity
  8
細線
100
AcDbCircle
 10
29.46630740881468
 20
-73.67281837691229
 30
0.0
 40
1.040603392511691
100
AcDbArc
 50
207.0324924700558
 51
343.3477876073678
  0
ARC
  5
440B
330
1F
100
AcDbEntity
  8
細線
100
AcDbCircle
 10
31.92070059693227
 20
-73.67281837691229
 30
0.0
 40
1.040603392511691
100
AcDbArc
 50
207.0324924700558
 51
343.3477876073678
  0
ARC
  5
440C
330
1F
100
AcDbEntity
  8
細線
100
AcDbCircle
 10
40.01110734157336
 20
-73.67281837691229
 30
0.0
 40
1.040603392511691
100
AcDbArc
 50
207.0324924700558
 51
343.3477876073678
  0
ARC
  5
440D
330
1F
100
AcDbEntity
  8
細線
100
AcDbCircle
 10
37.10219695796931
 20
-73.67281837691229
 30
0.0
 40
1.040603392511691
100
AcDbArc
 50
207.0324924700558
 51
343.3477876073678
  0
ARC
  5
440E
330
1F
100
AcDbEntity
  8
細線
100
AcDbCircle
 10
34.64780376985172
 20
-73.67281837691229
 30
0.0
 40
1.040603392511691
100
AcDbArc
 50
207.0324924700558
 51
343.3477876073678
  0
ARC
  5
440F
330
1F
100
AcDbEntity
  8
細線
100
AcDbCircle
 10
42.46550052969095
 20
-73.67281837691229
 30
0.0
 40
1.040603392511691
100
AcDbArc
 50
207.0324924700558
 51
343.3477876073678
  0
LINE
  5
4410
330
1F
100
AcDbEntity
  8
太線
100
AcDbLine
 10
43.84973776722185
 20
-68.77813640114317
 30
0.0
 11
32.84973776722185
 21
-68.77813640114317
 31
0.0
  0
ARC
  5
4411
330
1F
100
AcDbEntity
  8
太線
100
AcDbCircle
 10
30.84973776722185
 20
-69.77813640114317
 30
0.0
 40
1.0
100
AcDbArc
 50
90.0
 51
180.0
  0
LINE
  5
4412
330
1F
100
AcDbEntity
  8
太線
100
AcDbLine
 10
32.84973776722185
 20
-68.77813640114317
 30
0.0
 11
30.84973776722185
 21
-68.77813640114317
 31
0.0
  0
LINE
  5
4413
330
1F
100
AcDbEntity
  8
想像線
100
AcDbLine
 10
28.84973776722185
 20
-58.77813640114317
 30
0.0
 11
28.84973776722185
 21
-58.27813640114317
 31
0.0
  0
LINE
  5
4414
330
1F
100
AcDbEntity
  8
太線
100
AcDbLine
 10
43.72968248148959
 20
-69.17089195634509
 30
0.0
 11
43.72968248148959
 21
-71.45775536165825
 31
0.0
  0
DIMENSION
  5
4415
330
1F
100
AcDbEntity
  8
寸法線
100
AcDbDimension
  2
*D25
 10
67.50766513628241
 20
-128.4663957210337
 30
0.0
 11
64.00766513628244
 21
-98.2582267430588
 31
0.0
 70
    32
  1
89
 71
     5
 42
60.41633795594977
  3
sunpo
100
AcDbAlignedDimension
 13
48.59122416675063
 23
-68.05005776508392
 33
0.0
 14
48.59122416675063
 24
-128.4663957210336
 34
0.0
 50
90.0
100
AcDbRotatedDimension
1001
ACAD
1000
DSTYLE
1002
{
1070
    40
1040
1.0
1002
}
  0
ARC
  5
4416
330
1F
100
AcDbEntity
  8
太線
100
AcDbCircle
 10
53.84973776722185
 20
-72.77813640114317
 30
0.0
 40
1.0
100
AcDbArc
 50
0.0
 51
90.0
  0
LINE
  5
4417
330
1F
100
AcDbEntity
  8
太線
100
AcDbLine
 10
47.84973776722185
 20
-69.77813640114317
 30
0.0
 11
47.84973776722185
 21
-71.77813640114317
 31
0.0
  0
ARC
  5
4418
330
1F
100
AcDbEntity
  8
太線
100
AcDbCircle
 10
56.84973776722185
 20
-81.77813640114317
 30
0.0
 40
1.0
100
AcDbArc
 50
270.0
 51
0.0
  0
ARC
  5
4419
330
1F
100
AcDbEntity
  8
細線
100
AcDbCircle
 10
52.82849325176503
 20
-73.67281837691229
 30
0.0
 40
1.040603392511691
100
AcDbArc
 50
207.0324924700558
 51
343.3477876073678
  0
LINE
  5
441A
330
1F
100
AcDbEntity
  8
太線
100
AcDbLine
 10
47.84973776722185
 20
-71.77813640114317
 30
0.0
 11
53.84973776722185
 21
-71.77813640114317
 31
0.0
  0
ARC
  5
441B
330
1F
100
AcDbEntity
  8
細線
100
AcDbCircle
 10
50.37410006364743
 20
-73.67281837691229
 30
0.0
 40
1.040603392511691
100
AcDbArc
 50
207.0324924700558
 51
343.3477876073678
  0
ARC
  5
441C
330
1F
100
AcDbEntity
  8
細線
100
AcDbCircle
 10
47.46518968004338
 20
-73.67281837691229
 30
0.0
 40
1.040603392511691
100
AcDbArc
 50
207.0324924700558
 51
343.3477876073678
  0
LINE
  5
441D
330
1F
100
AcDbEntity
  8
太線
100
AcDbLine
 10
57.84973776722186
 20
-75.77813640114317
 30
0.0
 11
57.84973776722186
 21
-81.77813640114317
 31
0.0
  0
ARC
  5
441E
330
1F
100
AcDbEntity
  8
太線
100
AcDbCircle
 10
56.84973776722185
 20
-75.77813640114317
 30
0.0
 40
1.0
100
AcDbArc
 50
0.0
 51
90.0
  0
LINE
  5
441F
330
1F
100
AcDbEntity
  8
太線
100
AcDbLine
 10
54.84973776722185
 20
-72.77813640114317
 30
0.0
 11
54.84973776722185
 21
-74.77813640114317
 31
0.0
  0
LINE
  5
4420
330
1F
100
AcDbEntity
  8
太線
100
AcDbLine
 10
54.84973776722185
 20
-74.77813640114317
 30
0.0
 11
56.84973776722185
 21
-74.77813640114317
 31
0.0
  0
ARC
  5
4421
330
1F
100
AcDbEntity
  8
太線
100
AcDbCircle
 10
46.84973776722185
 20
-69.77813640114317
 30
0.0
 40
1.0
100
AcDbArc
 50
0.0
 51
90.0
  0
LINE
  5
4422
330
1F
100
AcDbEntity
  8
太線
100
AcDbLine
 10
33.84973776722185
 20
-34.77813640114317
 30
0.0
 11
32.84973776722185
 21
-36.07884877794868
 31
0.0
  0
LINE
  5
4423
330
1F
100
AcDbEntity
  8
太線
100
AcDbLine
 10
43.84973776722185
 20
-34.77813640114317
 30
0.0
 11
33.84973776722185
 21
-34.77813640114317
 31
0.0
  0
LINE
  5
4424
330
1F
100
AcDbEntity
  8
太線
100
AcDbLine
 10
44.84973776722185
 20
-36.07884877794868
 30
0.0
 11
43.84973776722185
 21
-34.77813640114317
 31
0.0
  0
ARC
  5
4425
330
1F
100
AcDbEntity
  8
太線
100
AcDbCircle
 10
133.8651271330791
 20
-136.8710040384842
 30
0.0
 40
31.50138819427047
100
AcDbArc
 50
353.6972897739832
 51
47.82454902256632
  0
ARC
  5
4426
330
1F
100
AcDbEntity
  8
太線
100
AcDbCircle
 10
133.8651271330791
 20
-136.8710040384842
 30
0.0
 40
44.43547654268127
100
AcDbArc
 50
345.5999998566
 51
51.29053993725986
  0
ARC
  5
4427
330
1F
100
AcDbEntity
  8
太線
100
AcDbCircle
 10
133.4055545849762
 20
-136.4134169919809
 30
0.0
 40
16.79907253088356
100
AcDbArc
 50
171.1353013454614
 51
303.4277270929857
  0
CIRCLE
  5
4428
330
1F
100
AcDbEntity
  8
太線
100
AcDbCircle
 10
133.8651271330791
 20
-136.8710040384842
 30
0.0
 40
4.432682340555196
  0
ARC
  5
4429
330
1F
100
AcDbEntity
  8
太線
100
AcDbCircle
 10
133.3851588918839
 20
-138.2877859177396
 30
0.0
 40
20.75354059013834
100
AcDbArc
 50
0.8334727907712851
 51
113.3327606800254
  0
LINE
  5
442A
330
1F
100
AcDbEntity
  8
太線
100
AcDbLine
 10
156.0747826886932
 20
-134.4375482954074
 30
0.0
 11
186.479411616198
 21
-154.119896194279
 31
0.0
  0
ARC
  5
442B
330
1F
100
AcDbEntity
  8
太線
100
AcDbCircle
 10
133.8651271330791
 20
-136.8710040384842
 30
0.0
 40
12.76811044127669
100
AcDbArc
 50
175.5347774827814
 51
298.4483388205473
  0
ARC
  5
442C
330
1F
100
AcDbEntity
  8
太線
100
AcDbCircle
 10
129.324622419922
 20
-113.014392125027
 30
0.0
 40
24.28485361371379
100
AcDbArc
 50
196.7249933994305
 51
250.2936280925077
  0
DIMENSION
  5
442D
330
1F
100
AcDbEntity
  8
寸法線
100
AcDbDimension
  2
*D26
 10
195.009772534697
 20
-181.0068573804066
 30
0.0
 11
191.5092804087128
 21
-125.2779934205912
 31
0.0
 70
    32
  1
126
 71
     5
 42
111.4577279196306
  3
sunpo
100
AcDbAlignedDimension
 13
168.4262379598972
 23
-69.54912946077593
 33
0.0
 14
168.4262379598972
 24
-181.0068573804065
 34
0.0
 50
90.0
100
AcDbRotatedDimension
1001
ACAD
1000
DSTYLE
1002
{
1070
    40
1040
1.0
1002
}
  0
CIRCLE
  5
442E
330
1F
100
AcDbEntity
  8
太線
100
AcDbCircle
 10
134.1032066177989
 20
-136.168235249171
 30
0.0
 40
2.198751160989681
  0
ARC
  5
4430
330
1F
100
AcDbEntity
  8
太線
100
AcDbCircle
 10
156.1021530481214
 20
-132.084053623126
 30
0.0
 40
22.74643303521155
100
AcDbArc
 50
224.7480467826315
 51
279.2031384191439
  0
ARC
  5
4431
330
1F
100
AcDbEntity
  8
太線
100
AcDbCircle
 10
173.6738353390151
 20
-139.869289515873
 30
0.0
 40
20.23142326911166
100
AcDbArc
 50
226.4713641225226
 51
300.5553783261789
  0
LINE
  5
4432
330
1F
100
AcDbEntity
  8
太線
100
AcDbLine
 10
183.9589025941944
 20
-157.2913410325685
 30
0.0
 11
154.1365036852972
 21
-137.9858980388915
 31
0.0
  0
LINE
  5
4433
330
1F
100
AcDbEntity
  8
太線
100
AcDbLine
 10
186.479411616198
 20
-154.119896194279
 30
0.0
 11
183.9589025941944
 21
-157.2913410325685
 31
0.0
  0
LINE
  5
4434
330
1F
100
AcDbEntity
  8
太線
100
AcDbLine
 10
180.7967809382765
 20
-155.2443507970116
 30
0.0
 11
183.9589025941944
 21
-157.2913410325685
 31
0.0
  0
LINE
  5
4435
330
1F
100
AcDbEntity
  8
太線
100
AcDbLine
 10
165.4565017491307
 20
-70.27720809683518
 30
0.0
 11
165.4565017491307
 21
-37.57792047364068
 31
0.0
  0
LINE
  5
4436
330
1F
100
AcDbEntity
  8
太線
100
AcDbLine
 10
153.4565017491307
 20
-37.57792047364068
 30
0.0
 11
153.4565017491307
 21
-70.27720809683518
 31
0.0
  0
LINE
  5
4437
330
1F
100
AcDbEntity
  8
想像線
100
AcDbLine
 10
154.4565017491307
 20
-36.27720809683518
 30
0.0
 11
154.4565017491307
 21
-70.27720809683518
 31
0.0
  0
LINE
  5
4438
330
1F
100
AcDbEntity
  8
想像線
100
AcDbLine
 10
164.4565017491307
 20
-36.27720809683518
 30
0.0
 11
164.4565017491307
 21
-70.27720809683518
 31
0.0
  0
TEXT
  5
4439
330
1F
100
AcDbEntity
  8
文字
100
AcDbText
 10
120.4648170563095
 20
-54.68498095352197
 30
0.0
 40
5.759999999999999
  1
M-12                          
 51
15.0
  7
OKANO
100
AcDbText
  0
LINE
  5
443A
330
1F
100
AcDbEntity
  8
太線
100
AcDbLine
 10
150.4565017491307
 20
-73.80068105872755
 30
0.0
 11
144.4565017491307
 21
-73.80068105872755
 31
0.0
  0
LINE
  5
443B
330
1F
100
AcDbEntity
  8
細線
100
AcDbLine
 10
175.4565017491307
 20
-75.80068105872754
 30
0.0
 11
143.4565017491307
 21
-75.80068105872754
 31
0.0
  0
LINE
  5
443C
330
1F
100
AcDbEntity
  8
太線
100
AcDbLine
 10
175.4565017491307
 20
-76.80068105872755
 30
0.0
 11
143.4565017491307
 21
-76.80068105872755
 31
0.0
  0
TEXT
  5
443D
330
1F
100
AcDbEntity
  8
文字
100
AcDbText
 10
135.6589116589216
 20
-93.6419057552273
 30
0.0
 40
5.759999999999999
  1
100                       
 51
15.0
  7
OKANO
100
AcDbText
  0
ARC
  5
443E
330
1F
100
AcDbEntity
  8
太線
100
AcDbCircle
 10
133.3851588918839
 20
-138.2877859177396
 30
0.0
 40
23.97408033933034
100
AcDbArc
 50
11.14775259192503
 51
108.7433120461442
  0
LINE
  5
443F
330
1F
100
AcDbEntity
  8
太線
100
AcDbLine
 10
134.0522576486534
 20
-79.55501765668259
 30
0.0
 11
130.2300485608315
 21
-114.522226658266
 31
0.0
  0
ARC
  5
4440
330
1F
100
AcDbEntity
  8
太線
100
AcDbCircle
 10
133.8651271330791
 20
-136.8710040384842
 30
0.0
 40
44.43547654268127
100
AcDbArc
 50
91.57671050712009
 51
128.5662336141976
  0
ARC
  5
4441
330
1F
100
AcDbEntity
  8
太線
100
AcDbCircle
 10
133.8651271330791
 20
-136.8710040384842
 30
0.0
 40
31.50138819427047
100
AcDbArc
 50
94.81976617208088
 51
120.4689436968136
  0
LINE
  5
4442
330
1F
100
AcDbEntity
  8
太線
100
AcDbLine
 10
96.10800117519971
 20
-95.61822710130838
 30
0.0
 11
126.5330312136354
 21
-115.3137815998666
 31
0.0
  0
LINE
  5
4443
330
1F
100
AcDbEntity
  8
太線
100
AcDbLine
 10
145.6929380647186
 20
-129.9522352493333
 30
0.0
 11
145.8088317472532
 21
-129.2364511650269
 31
0.0
  0
LINE
  5
4444
330
1F
100
AcDbEntity
  8
太線
100
AcDbLine
 10
140.4565017491307
 20
-76.80068105872755
 30
0.0
 11
133.4565017491307
 21
-78.80068105872755
 31
0.0
  0
ARC
  5
4445
330
1F
100
AcDbEntity
  8
太線
100
AcDbCircle
 10
144.4565017491307
 20
-74.80068105872755
 30
0.0
 40
1.0
100
AcDbArc
 50
90.0
 51
180.0
  0
LINE
  5
4446
330
1F
100
AcDbEntity
  8
太線
100
AcDbLine
 10
143.4565017491307
 20
-74.80068105872755
 30
0.0
 11
143.4565017491307
 21
-76.80068105872755
 31
0.0
  0
ARC
  5
4447
330
1F
100
AcDbEntity
  8
細線
100
AcDbCircle
 10
144.7097678190019
 20
-75.69536303449666
 30
0.0
 40
1.040603392511691
100
AcDbArc
 50
207.0324924700558
 51
343.3477876073678
  0
LINE
  5
4448
330
1F
100
AcDbEntity
  8
太線
100
AcDbLine
 10
143.4565017491307
 20
-76.80068105872755
 30
0.0
 11
140.4565017491307
 21
-76.80068105872755
 31
0.0
  0
LINE
  5
4449
330
1F
100
AcDbEntity
  8
太線
100
AcDbLine
 10
169.6210037655173
 20
-88.60067209638907
 30
0.0
 11
150.4011693821197
 21
-121.3995676839279
 31
0.0
  0
LINE
  5
444A
330
1F
100
AcDbEntity
  8
太線
100
AcDbLine
 10
147.482935630989
 20
-118.8968287693415
 30
0.0
 11
152.8066880100877
 21
-86.01619939933005
 31
0.0
  0
LINE
  5
444B
330
1F
100
AcDbEntity
  8
太線
100
AcDbLine
 10
157.0174991401735
 20
-133.4875130808369
 30
0.0
 11
157.0174991401735
 21
-135.0797174515944
 31
0.0
  0
ARC
  5
444C
330
1F
100
AcDbEntity
  8
細線
100
AcDbCircle
 10
170.9808640455563
 20
-75.69536303449666
 30
0.0
 40
1.040603392511691
100
AcDbArc
 50
207.0324924700558
 51
343.3477876073678
  0
LINE
  5
444D
330
1F
100
AcDbEntity
  8
太線
100
AcDbLine
 10
168.4565017491307
 20
-73.80068105872755
 30
0.0
 11
174.4565017491307
 21
-73.80068105872755
 31
0.0
  0
LINE
  5
444E
330
1F
100
AcDbEntity
  8
太線
100
AcDbLine
 10
169.6210037655173
 20
-88.60067209638907
 30
0.0
 11
178.4565017491307
 21
-83.80068105872755
 31
0.0
  0
LINE
  5
444F
330
1F
100
AcDbEntity
  8
太線
100
AcDbLine
 10
152.8066880100877
 20
-86.01619939933005
 30
0.0
 11
178.0281616432318
 21
-84.07784487653589
 31
0.0
  0
LINE
  5
4450
330
1F
100
AcDbEntity
  8
太線
100
AcDbLine
 10
168.4565017491307
 20
-71.27720809683518
 30
0.0
 11
168.4565017491307
 21
-73.27720809683518
 31
0.0
  0
LINE
  5
4451
330
1F
100
AcDbEntity
  8
想像線
100
AcDbLine
 10
165.4565017491307
 20
-70.27720809683518
 30
0.0
 11
165.4565017491307
 21
-73.27720809683518
 31
0.0
  0
LINE
  5
4452
330
1F
100
AcDbEntity
  8
太線
100
AcDbLine
 10
154.4173914227756
 20
-70.6699636520371
 30
0.0
 11
154.4173914227756
 21
-73.33797189797661
 31
0.0
  0
LINE
  5
4453
330
1F
100
AcDbEntity
  8
想像線
100
AcDbLine
 10
153.4565017491307
 20
-70.27720809683518
 30
0.0
 11
153.4565017491307
 21
-73.27720809683518
 31
0.0
  0
LINE
  5
4454
330
1F
100
AcDbEntity
  8
太線
100
AcDbLine
 10
150.4565017491307
 20
-71.27720809683518
 30
0.0
 11
150.4565017491307
 21
-73.27720809683518
 31
0.0
  0
ARC
  5
4455
330
1F
100
AcDbEntity
  8
細線
100
AcDbCircle
 10
157.7089609398782
 20
-75.69536303449666
 30
0.0
 40
1.040603392511691
100
AcDbArc
 50
207.0324924700558
 51
343.3477876073678
  0
LINE
  5
4456
330
1F
100
AcDbEntity
  8
太線
100
AcDbLine
 10
168.4565017491307
 20
-73.80068105872755
 30
0.0
 11
150.4565017491307
 21
-73.80068105872755
 31
0.0
  0
ARC
  5
4457
330
1F
100
AcDbEntity
  8
細線
100
AcDbCircle
 10
152.5274645788412
 20
-75.69536303449666
 30
0.0
 40
1.040603392511691
100
AcDbArc
 50
207.0324924700558
 51
343.3477876073678
  0
ARC
  5
4458
330
1F
100
AcDbEntity
  8
細線
100
AcDbCircle
 10
150.0730713907236
 20
-75.69536303449666
 30
0.0
 40
1.040603392511691
100
AcDbArc
 50
207.0324924700558
 51
343.3477876073678
  0
ARC
  5
4459
330
1F
100
AcDbEntity
  8
細線
100
AcDbCircle
 10
147.1641610071195
 20
-75.69536303449666
 30
0.0
 40
1.040603392511691
100
AcDbArc
 50
207.0324924700558
 51
343.3477876073678
  0
ARC
  5
445A
330
1F
100
AcDbEntity
  8
細線
100
AcDbCircle
 10
155.2545677517606
 20
-75.69536303449666
 30
0.0
 40
1.040603392511691
100
AcDbArc
 50
207.0324924700558
 51
343.3477876073678
  0
ARC
  5
445B
330
1F
100
AcDbEntity
  8
細線
100
AcDbCircle
 10
165.6175604738347
 20
-75.69536303449666
 30
0.0
 40
1.040603392511691
100
AcDbArc
 50
207.0324924700558
 51
343.3477876073678
  0
ARC
  5
445C
330
1F
100
AcDbEntity
  8
細線
100
AcDbCircle
 10
163.0722645115998
 20
-75.69536303449666
 30
0.0
 40
1.040603392511691
100
AcDbArc
 50
207.0324924700558
 51
343.3477876073678
  0
ARC
  5
445D
330
1F
100
AcDbEntity
  8
細線
100
AcDbCircle
 10
160.6178713234822
 20
-75.69536303449666
 30
0.0
 40
1.040603392511691
100
AcDbArc
 50
207.0324924700558
 51
343.3477876073678
  0
ARC
  5
445E
330
1F
100
AcDbEntity
  8
細線
100
AcDbCircle
 10
168.0719536619522
 20
-75.69536303449666
 30
0.0
 40
1.040603392511691
100
AcDbArc
 50
207.0324924700558
 51
343.3477876073678
  0
LINE
  5
445F
330
1F
100
AcDbEntity
  8
太線
100
AcDbLine
 10
164.4565017491307
 20
-70.27720809683518
 30
0.0
 11
153.4565017491307
 21
-70.27720809683518
 31
0.0
  0
LINE
  5
4460
330
1F
100
AcDbEntity
  8
太線
100
AcDbLine
 10
153.4565017491307
 20
-70.27720809683518
 30
0.0
 11
151.4565017491307
 21
-70.27720809683518
 31
0.0
  0
ARC
  5
4461
330
1F
100
AcDbEntity
  8
太線
100
AcDbCircle
 10
151.4565017491307
 20
-71.27720809683518
 30
0.0
 40
1.0
100
AcDbArc
 50
90.0
 51
180.0
  0
LINE
  5
4462
330
1F
100
AcDbEntity
  8
想像線
100
AcDbLine
 10
149.4565017491307
 20
-60.27720809683518
 30
0.0
 11
149.4565017491307
 21
-59.77720809683518
 31
0.0
  0
LINE
  5
4463
330
1F
100
AcDbEntity
  8
太線
100
AcDbLine
 10
164.4565017491307
 20
-70.27720809683518
 30
0.0
 11
167.4565017491307
 21
-70.27720809683518
 31
0.0
  0
LINE
  5
4464
330
1F
100
AcDbEntity
  8
太線
100
AcDbLine
 10
164.3364464633984
 20
-70.6699636520371
 30
0.0
 11
164.3364464633984
 21
-72.95682705735027
 31
0.0
  0
ARC
  5
4465
330
1F
100
AcDbEntity
  8
太線
100
AcDbCircle
 10
167.4565017491307
 20
-71.27720809683518
 30
0.0
 40
1.0
100
AcDbArc
 50
0.0
 51
90.0
  0
LINE
  5
4466
330
1F
100
AcDbEntity
  8
太線
100
AcDbLine
 10
178.4565017491307
 20
-77.80068105872754
 30
0.0
 11
178.4565017491307
 21
-83.80068105872755
 31
0.0
  0
LINE
  5
4467
330
1F
100
AcDbEntity
  8
太線
100
AcDbLine
 10
175.4565017491307
 20
-76.80068105872755
 30
0.0
 11
177.4565017491307
 21
-76.80068105872755
 31
0.0
  0
LINE
  5
4468
330
1F
100
AcDbEntity
  8
太線
100
AcDbLine
 10
175.4565017491307
 20
-74.80068105872755
 30
0.0
 11
175.4565017491307
 21
-76.80068105872755
 31
0.0
  0
ARC
  5
4469
330
1F
100
AcDbEntity
  8
太線
100
AcDbCircle
 10
174.4565017491307
 20
-74.80068105872755
 30
0.0
 40
1.0
100
AcDbArc
 50
0.0
 51
90.0
  0
ARC
  5
446A
330
1F
100
AcDbEntity
  8
細線
100
AcDbCircle
 10
173.4352572336739
 20
-75.69536303449666
 30
0.0
 40
1.040603392511691
100
AcDbArc
 50
207.0324924700558
 51
343.3477876073678
  0
ARC
  5
446B
330
1F
100
AcDbEntity
  8
太線
100
AcDbCircle
 10
177.4565017491307
 20
-77.80068105872754
 30
0.0
 40
1.0
100
AcDbArc
 50
0.0
 51
90.0
  0
LINE
  5
446C
330
1F
100
AcDbEntity
  8
太線
100
AcDbLine
 10
164.4565017491307
 20
-36.27720809683518
 30
0.0
 11
154.4565017491307
 21
-36.27720809683518
 31
0.0
  0
LINE
  5
446D
330
1F
100
AcDbEntity
  8
太線
100
AcDbLine
 10
154.4565017491307
 20
-36.27720809683518
 30
0.0
 11
153.4565017491307
 21
-37.57792047364068
 31
0.0
  0
LINE
  5
446E
330
1F
100
AcDbEntity
  8
太線
100
AcDbLine
 10
165.4565017491307
 20
-37.57792047364068
 30
0.0
 11
164.4565017491307
 21
-36.27720809683518
 31
0.0
  0
TEXT
  5
4723
330
1F
100
AcDbEntity
  8
文字
100
AcDbText
 10
264.7281998381445
 20
-231.0458552792339
 30
0.0
 40
5.759999999999999
  1
160Ｋストッパー付タイプ                                                                                                                                                                              
 51
15.0
  7
OKANO
100
AcDbText
  0
LINE
  5
4724
330
1F
100
AcDbEntity
  8
太線
100
AcDbLine
 10
322.087195097871
 20
-32.83562178391645
 30
0.0
 11
373.2526418532481
 21
-32.95744259152729
 31
0.0
  0
LINE
  5
4725
330
1F
100
AcDbEntity
  8
太線
370
    25
100
AcDbLine
 10
365.7541330613625
 20
-40.80317533859437
 30
0.0
 11
378.3541330613625
 21
-40.80317533859437
 31
0.0
  0
LINE
  5
4726
330
1F
100
AcDbEntity
  8
太線
370
    25
100
AcDbLine
 10
384.6541330613624
 20
-64.33500561139362
 30
0.0
 11
359.4541330613624
 21
-64.33500561139362
 31
0.0
  0
LINE
  5
4727
330
1F
100
AcDbEntity
  8
太線
370
    25
100
AcDbLine
 10
380.4541330613624
 20
-47.10317533859444
 30
0.0
 11
313.2541330613625
 21
-47.10317533859444
 31
0.0
  0
LINE
  5
4728
330
1F
100
AcDbEntity
  8
太線
370
    25
100
AcDbLine
 10
380.4541330613624
 20
-45.00317533859436
 30
0.0
 11
313.2541330613625
 21
-45.00317533859436
 31
0.0
  0
DIMENSION
  5
4733
330
1F
100
AcDbEntity
  8
寸法線
100
AcDbDimension
  2
*D27
 10
237.2329539800543
 20
-177.2828989975369
 30
0.0
 11
225.3108781251837
 21
-186.4122671617908
 31
0.0
 70
   163
  1
150
 71
     5
 42
138.6
  3
sunpo
100
AcDbDiametricDimension
 15
347.2753121426707
 25
-93.01760715083132
 35
0.0
 40
0.0
1001
ACAD
1000
DSTYLE
1002
{
1070
    40
1040
1.0
1070
   279
1070
     1
1070
   288
1070
     1
1002
}
  0
LINE
  5
4734
330
1F
100
AcDbEntity
  8
太線
370
    25
100
AcDbLine
 10
297.1340996850429
 20
-167.8399076888092
 30
0.0
 11
296.6739526292558
 21
-160.943162522475
 31
0.0
  0
ARC
  5
4735
330
1F
100
AcDbEntity
  8
太線
370
    25
100
AcDbCircle
 10
292.2541330613625
 20
-135.0972429732522
 30
0.0
 40
33.06860997012282
100
AcDbArc
 50
278.4820078298617
 51
301.9591848450609
  0
LINE
  5
4736
330
1F
100
AcDbEntity
  8
太線
370
    25
100
AcDbLine
 10
279.4794838391619
 20
-158.7351068738512
 30
0.0
 11
277.8297679675152
 21
-167.661316098855
 31
0.0
  0
ARC
  5
4737
330
1F
100
AcDbEntity
  8
太線
370
    25
100
AcDbCircle
 10
322.3394366515597
 20
-148.0279394803137
 30
0.0
 40
19.67431709545192
100
AcDbArc
 50
214.0210774011547
 51
293.3348659098706
  0
ARC
  5
4738
330
1F
100
AcDbEntity
  8
太線
370
    25
100
AcDbCircle
 10
356.9387575034118
 20
-147.9101117147841
 30
0.0
 40
32.39123453658873
100
AcDbArc
 50
214.1493703220094
 51
283.7179952661997
  0
LINE
  5
4739
330
1F
100
AcDbEntity
  8
太線
370
    25
100
AcDbLine
 10
320.1584713306947
 20
-136.7587969974551
 30
0.0
 11
366.6976868925021
 21
-176.0562835753358
 31
0.0
  0
LINE
  5
473A
330
1F
100
AcDbEntity
  8
太線
370
    25
100
AcDbLine
 10
316.8195805430318
 20
-138.5043618274154
 30
0.0
 11
364.6201209513703
 21
-179.3773761396538
 31
0.0
  0
ARC
  5
473B
330
1F
100
AcDbEntity
  8
太線
370
    25
100
AcDbCircle
 10
292.2541330613625
 20
-135.0972429732522
 30
0.0
 40
33.06860997012282
100
AcDbArc
 50
145.6693984280073
 51
245.0534990903209
  0
ARC
  5
473C
330
1F
100
AcDbEntity
  8
太線
370
    25
100
AcDbCircle
 10
292.2541330613625
 20
-135.1502530741841
 30
0.0
 40
56.79399025411245
100
AcDbArc
 50
137.404645618927
 51
319.4218394604528
  0
ARC
  5
473D
330
1F
100
AcDbEntity
  8
太線
370
    25
100
AcDbCircle
 10
292.2541330613625
 20
-135.1502530741841
 30
0.0
 40
69.29999999999999
100
AcDbArc
 50
139.7285373065004
 51
321.2685101183032
  0
CIRCLE
  5
473E
330
1F
100
AcDbEntity
  8
太線
370
    25
100
AcDbCircle
 10
264.107599704435
 20
-172.8535510903815
 30
0.0
 40
5.943292661901378
  0
LINE
  5
473F
330
1F
100
AcDbEntity
  8
太線
370
    25
100
AcDbLine
 10
277.8297679675152
 20
-167.661316098855
 30
0.0
 11
297.9954738750238
 21
-170.7317367644064
 31
0.0
  0
CIRCLE
  5
4740
330
1F
100
AcDbEntity
  8
太線
370
    25
100
AcDbCircle
 10
287.5990489509176
 20
-180.7524582036511
 30
0.0
 40
2.984652880286199
  0
LINE
  5
4741
330
1F
100
AcDbEntity
  8
太線
370
    25
100
AcDbLine
 10
297.9954738750238
 20
-170.7317367644064
 30
0.0
 11
297.1340996850429
 21
-167.8399076888092
 31
0.0
  0
TEXT
  5
4742
330
1F
100
AcDbEntity
  8
文字
100
AcDbText
 10
278.4340707322976
 20
-217.3587312889178
 30
0.0
 40
7.0
  1
Ｓ-14-1C150                                                                                                                 
 51
15.0
  7
OKANO
100
AcDbText
  0
CIRCLE
  5
4743
330
1F
100
AcDbEntity
  8
太線
370
    25
100
AcDbCircle
 10
308.8674868947908
 20
-179.2397685698921
 30
0.0
 40
5.943292661901378
  0
LINE
  5
4744
330
1F
100
AcDbEntity
  8
太線
370
    25
100
AcDbLine
 10
363.7341581840116
 20
-179.4400584566839
 30
0.0
 11
367.1931196246371
 21
-176.4779252438602
 31
0.0
  0
ARC
  5
4745
330
1F
100
AcDbEntity
  8
太線
370
    25
100
AcDbCircle
 10
254.0798858645448
 20
-77.5734887830223
 30
0.0
 40
19.4797786585114
100
AcDbArc
 50
156.4209316711224
 51
279.866102722987
  0
LINE
  5
4746
330
1F
100
AcDbEntity
  8
太線
370
    25
100
AcDbLine
 10
292.6256957627519
 20
-51.25090851290247
 30
0.0
 11
284.7488251628071
 21
-106.3390401966858
 31
0.0
  0
LINE
  5
4747
330
1F
100
AcDbEntity
  8
太線
370
    25
100
AcDbLine
 10
318.4708040290897
 20
-114.8662299262047
 30
0.0
 11
318.4708040290898
 21
-52.41740870136244
 31
0.0
  0
LINE
  5
4748
330
1F
100
AcDbEntity
  8
太線
370
    25
100
AcDbLine
 10
283.8489852504635
 20
-106.8193313380625
 30
0.0
 11
281.3766221186033
 21
-71.24569407858285
 31
0.0
  0
LINE
  5
4749
330
1F
100
AcDbEntity
  8
太線
370
    25
100
AcDbLine
 10
359.4541330613624
 20
-64.33500561139362
 30
0.0
 11
322.1776716174848
 21
-121.0219168442999
 31
0.0
  0
ARC
  5
474A
330
1F
100
AcDbEntity
  8
太線
370
    25
100
AcDbCircle
 10
292.2541330613625
 20
-135.1502530741841
 30
0.0
 40
69.29999999999999
100
AcDbArc
 50
105.6228397290842
 51
125.8151413634129
  0
LINE
  5
474B
330
1F
100
AcDbEntity
  8
太線
370
    25
100
AcDbLine
 10
237.8885513639573
 20
-67.2904779330193
 30
0.0
 11
285.99322720587
 21
-107.9098315342909
 31
0.0
  0
LINE
  5
474C
330
1F
100
AcDbEntity
  8
太線
370
    25
100
AcDbLine
 10
236.3072250341003
 20
-69.6603146489341
 30
0.0
 11
285.1257045468043
 21
-111.4037425428242
 31
0.0
  0
LINE
  5
474D
330
1F
100
AcDbEntity
  8
太線
370
    25
100
AcDbLine
 10
298.9576020828032
 20
-90.42986279553042
 30
0.0
 11
305.5676748163682
 21
-91.63073610597455
 31
0.0
  0
LINE
  5
474E
330
1F
100
AcDbEntity
  8
太線
370
    25
100
AcDbLine
 10
296.5933729228352
 20
-97.20036128253628
 30
0.0
 11
306.477326033739
 21
-98.61122754030692
 31
0.0
  0
ARC
  5
474F
330
1F
100
AcDbEntity
  8
太線
370
    25
100
AcDbCircle
 10
300.2537788556654
 20
-103.0665159501732
 30
0.0
 40
2.730325925043368
100
AcDbArc
 50
185.2031850492678
 51
334.2032358544493
  0
ARC
  5
4750
330
1F
100
AcDbEntity
  8
太線
370
    25
100
AcDbCircle
 10
294.5635445335118
 20
-132.1056205237425
 30
0.0
 40
25.66878540014194
100
AcDbArc
 50
349.1585098697644
 51
109.5045007899931
  0
ARC
  5
4751
330
1F
100
AcDbEntity
  8
太線
370
    25
100
AcDbCircle
 10
292.2541330613625
 20
-135.1502530741841
 30
0.0
 40
24.79337120085022
100
AcDbArc
 50
352.2250453276566
 51
106.7091503020734
  0
ARC
  5
4752
330
1F
100
AcDbEntity
  8
太線
370
    25
100
AcDbCircle
 10
292.2541330613625
 20
-135.1502530741841
 30
0.0
 40
27.95066202798101
100
AcDbArc
 50
279.3459000063309
 51
300.0409203135231
  0
ARC
  5
4753
330
1F
100
AcDbEntity
  8
太線
370
    25
100
AcDbCircle
 10
292.2541330613625
 20
-135.1502530741841
 30
0.0
 40
27.95066202798101
100
AcDbArc
 50
146.1672774633285
 51
242.3066409760163
  0
ARC
  5
4754
330
1F
100
AcDbEntity
  8
太線
370
    25
100
AcDbCircle
 10
292.2541330613625
 20
-135.1502530741841
 30
0.0
 40
27.95066202798101
100
AcDbArc
 50
146.1672774633285
 51
242.3066409760163
  0
CIRCLE
  5
4755
330
1F
100
AcDbEntity
  8
太線
370
    25
100
AcDbCircle
 10
250.4339228954326
 20
-154.2715396707214
 30
0.0
 40
2.984652880286199
  0
CIRCLE
  5
4756
330
1F
100
AcDbEntity
  8
太線
370
    25
100
AcDbCircle
 10
247.2582826806056
 20
-130.8972429732522
 30
0.0
 40
5.943292661901378
  0
LINE
  5
4757
330
1F
100
AcDbEntity
  8
太線
370
    25
100
AcDbLine
 10
294.2132589013058
 20
-158.8846062910183
 30
0.0
 11
282.163194408654
 21
-156.7345254590168
 31
0.0
  0
LINE
  5
4758
330
1F
100
AcDbEntity
  8
太線
370
    25
100
AcDbLine
 10
279.9163219450492
 20
-157.8621267880935
 30
0.0
 11
279.4794838391619
 21
-158.7351068738512
 31
0.0
  0
ARC
  5
4759
330
1F
100
AcDbEntity
  8
太線
370
    25
100
AcDbCircle
 10
281.7943194425582
 20
-158.8018743070316
 30
0.0
 40
2.099999999999999
100
AcDbArc
 50
79.88323749281818
 51
153.4166763687799
  0
LINE
  5
475A
330
1F
100
AcDbEntity
  8
太線
370
    25
100
AcDbLine
 10
294.9474861076266
 20
-159.015613709577
 30
0.0
 11
294.2132589013058
 21
-158.8846062910183
 31
0.0
  0
ARC
  5
475B
330
1F
100
AcDbEntity
  8
太線
370
    25
100
AcDbCircle
 10
294.5786111415309
 20
-161.0829625575918
 30
0.0
 40
2.099999999999999
100
AcDbArc
 50
3.81708579938185
 51
79.88323749281818
  0
CIRCLE
  5
475C
330
1F
100
AcDbEntity
  8
太線
370
    25
100
AcDbCircle
 10
292.2541330613625
 20
-135.1502530741841
 30
0.0
 40
4.61737743807833
  0
CIRCLE
  5
475D
330
1F
100
AcDbEntity
  8
太線
370
    25
100
AcDbCircle
 10
292.2541330613625
 20
-135.1502530741841
 30
0.0
 40
6.926066157117495
  0
ARC
  5
475E
330
1F
100
AcDbEntity
  8
太線
370
    25
100
AcDbCircle
 10
292.2541330613625
 20
-135.1502530741841
 30
0.0
 40
56.79399025411245
100
AcDbArc
 50
100.46692655233
 51
122.6442916331788
  0
ARC
  5
475F
330
1F
100
AcDbEntity
  8
太線
370
    25
100
AcDbCircle
 10
281.8116728584858
 20
-98.71557104930047
 30
0.0
 40
24.47184618185459
100
AcDbArc
 50
175.4287099076609
 51
238.5737859093245
  0
CIRCLE
  5
4760
330
1F
100
AcDbEntity
  8
太線
370
    25
100
AcDbCircle
 10
255.0890070058775
 20
-108.3177294130522
 30
0.0
 40
2.984652880286199
  0
LINE
  5
4761
330
1F
100
AcDbEntity
  8
太線
370
    25
100
AcDbLine
 10
294.2851965722551
 20
-96.24825011752932
 30
0.0
 11
293.6740554603659
 21
-102.3547935380926
 31
0.0
  0
ARC
  5
4762
330
1F
100
AcDbEntity
  8
太線
370
    25
100
AcDbCircle
 10
275.1688528471319
 20
-95.32715233563374
 30
0.0
 40
5.943292661901378
100
AcDbArc
 50
293.5542985664574
 51
166.0905329754343
  0
ARC
  5
4763
330
1F
100
AcDbEntity
  8
太線
370
    25
100
AcDbCircle
 10
283.670657681981
 20
-108.3203412659319
 30
0.0
 40
6.84587681269993
100
AcDbArc
 50
80.07126681834659
 51
121.1492590945551
  0
ARC
  5
4764
330
1F
100
AcDbEntity
  8
太線
370
    25
100
AcDbCircle
 10
292.2541330613625
 20
-135.1502530741841
 30
0.0
 40
37.23616978930423
100
AcDbArc
 50
109.3258038895588
 51
113.0486645173282
  0
LINE
  5
4765
330
1F
100
AcDbEntity
  8
太線
370
    25
100
AcDbLine
 10
295.181383288167
 20
-102.3735436467497
 30
0.0
 11
297.0640382734097
 21
-102.8438336164842
 31
0.0
  0
LINE
  5
4766
330
1F
100
AcDbEntity
  8
太線
370
    25
100
AcDbLine
 10
293.6740554603659
 20
-102.3547935380926
 30
0.0
 11
295.2019114486181
 21
-102.660119065976
 31
0.0
  0
LINE
  5
4767
330
1F
100
AcDbEntity
  8
太線
370
    25
100
AcDbLine
 10
295.3198505111192
 20
-103.0586109078581
 30
0.0
 11
295.0020650900859
 21
-106.5514841188953
 31
0.0
  0
LINE
  5
4768
330
1F
100
AcDbEntity
  8
太線
370
    25
100
AcDbLine
 10
296.0653300383561
 20
-96.84115567260125
 30
0.0
 11
296.4914152358914
 21
-92.2998717138047
 31
0.0
  0
ARC
  5
4769
330
1F
100
AcDbEntity
  8
太線
370
    25
100
AcDbCircle
 10
298.5822325648286
 20
-92.49604229522919
 30
0.0
 40
2.099999999999999
100
AcDbArc
 50
79.70319271025559
 51
174.6399248713189
  0
LINE
  5
476A
330
1F
100
AcDbEntity
  8
太線
370
    25
100
AcDbLine
 10
296.1186199079254
 20
-96.85890482472878
 30
0.0
 11
294.2851965722551
 21
-96.24825011752932
 31
0.0
  0
ARC
  5
476B
330
1F
100
AcDbEntity
  8
太線
370
    25
100
AcDbCircle
 10
292.2541330613625
 20
-135.0972429732522
 30
0.0
 40
33.06860997012282
100
AcDbArc
 50
350.2211881971295
 51
25.19118575788173
  0
ARC
  5
476C
330
1F
100
AcDbEntity
  8
太線
370
    25
100
AcDbCircle
 10
292.2541330613625
 20
-135.1502530741841
 30
0.0
 40
69.29999999999999
100
AcDbArc
 50
333.8296901784771
 51
42.26709966043594
  0
ARC
  5
476D
330
1F
100
AcDbEntity
  8
太線
370
    25
100
AcDbCircle
 10
292.2541330613625
 20
-135.1502530741841
 30
0.0
 40
56.79399025411245
100
AcDbArc
 50
337.0005399087132
 51
39.00098492561705
  0
CIRCLE
  5
476E
330
1F
100
AcDbEntity
  8
太線
370
    25
100
AcDbCircle
 10
336.7780570613172
 20
-143.6696779322736
 30
0.0
 40
5.943292661901378
  0
CIRCLE
  5
476F
330
1F
100
AcDbEntity
  8
太線
370
    25
100
AcDbCircle
 10
334.0743432272925
 20
-116.3805716058492
 30
0.0
 40
2.984652880286199
  0
LINE
  5
4770
330
1F
100
AcDbEntity
  8
太線
370
    25
100
AcDbLine
 10
306.477326033739
 20
-98.61122754030692
 30
0.0
 11
308.3414421457271
 21
-98.99619447421105
 31
0.0
  0
LINE
  5
4771
330
1F
100
AcDbEntity
  8
太線
370
    25
100
AcDbLine
 10
305.6752933411951
 20
-104.2007401166771
 30
0.0
 11
305.1112889332977
 21
-107.8074894500343
 31
0.0
  0
LINE
  5
4772
330
1F
100
AcDbEntity
  8
太線
370
    25
100
AcDbLine
 10
305.0653299820142
 20
-103.7844099045199
 30
0.0
 11
303.6533403473459
 21
-103.7844099045199
 31
0.0
  0
LINE
  5
4773
330
1F
100
AcDbEntity
  8
太線
370
    25
100
AcDbLine
 10
308.3414421457271
 20
-98.99619447421105
 30
0.0
 11
307.4247336864197
 21
-104.4920831875749
 31
0.0
  0
LINE
  5
4774
330
1F
100
AcDbEntity
  8
太線
370
    25
100
AcDbLine
 10
307.4247336864197
 20
-104.4920831875749
 30
0.0
 11
305.5913103507494
 21
-104.1867540082589
 31
0.0
  0
ARC
  5
4775
330
1F
100
AcDbEntity
  8
太線
370
    25
100
AcDbCircle
 10
305.1923052983936
 20
-93.69691560567344
 30
0.0
 40
2.099999999999999
100
AcDbArc
 50
351.1123654988787
 51
79.70319271025559
  0
LINE
  5
4776
330
1F
100
AcDbEntity
  8
太線
370
    25
100
AcDbLine
 10
307.3957606809678
 20
-94.16765992028183
 30
0.0
 11
306.7601834218445
 21
-98.61313358835344
 31
0.0
  0
LINE
  5
4777
330
1F
100
AcDbEntity
  8
太線
370
    25
100
AcDbLine
 10
306.9541330613625
 20
-47.10317533859444
 30
0.0
 11
292.2541330613625
 21
-51.30317533859437
 31
0.0
  0
LINE
  5
4778
330
1F
100
AcDbEntity
  8
太線
370
    25
100
AcDbLine
 10
317.4775045031058
 20
-51.41743114979044
 30
0.0
 11
292.6256957627519
 21
-51.25090851290247
 31
0.0
  0
LINE
  5
4779
330
1F
100
AcDbEntity
  8
太線
370
    25
100
AcDbLine
 10
236.2264948367816
 20
-69.78130004080203
 30
0.0
 11
237.8885513639573
 21
-67.2904779330193
 31
0.0
  0
LINE
  5
477A
330
1F
100
AcDbEntity
  8
太線
370
    25
100
AcDbLine
 10
273.5871667981052
 20
-62.30377146468777
 30
0.0
 11
292.2550134817338
 21
-58.39966053155126
 31
0.0
  0
ARC
  5
477B
330
1F
100
AcDbEntity
  8
太線
370
    25
100
AcDbCircle
 10
274.0170510496566
 20
-64.35930047938649
 30
0.0
 40
2.099999999999999
100
AcDbArc
 50
101.8123351493617
 51
205.034372630024
  0
LINE
  5
477C
330
1F
100
AcDbEntity
  8
太線
370
    25
100
AcDbLine
 10
274.4540117664487
 20
-70.25753961804468
 30
0.0
 11
272.1143374634108
 21
-65.24794045638282
 31
0.0
  0
ARC
  5
477D
330
1F
100
AcDbEntity
  8
太線
370
    25
100
AcDbCircle
 10
277.1736080029675
 20
-74.299338897582
 30
0.0
 40
5.500149674402688
100
AcDbArc
 50
40.16736151127506
 51
113.8633644315971
  0
TEXT
  5
4780
330
1F
100
AcDbEntity
  8
文字
100
AcDbText
 10
328.3423746906535
 20
-67.90809111479882
 30
0.0
 40
5.759999999999999
  1
150                       
 51
15.0
  7
OKANO
100
AcDbText
  0
ARC
  5
4781
330
1F
100
AcDbEntity
  8
太線
370
    25
100
AcDbCircle
 10
332.3031550037544
 20
-44.78200748770951
 30
0.0
 40
2.185267124274552
100
AcDbArc
 50
207.0324924700536
 51
343.3477876073709
  0
LINE
  5
4782
330
1F
100
AcDbEntity
  8
太線
370
    25
100
AcDbLine
 10
361.5541330613625
 20
-40.80317533859437
 30
0.0
 11
327.9541330613624
 21
-40.80317533859437
 31
0.0
  0
LINE
  5
4784
330
1F
100
AcDbEntity
  8
太線
370
    25
100
AcDbLine
 10
327.9541330613624
 20
-40.80317533859437
 30
0.0
 11
315.3541330613625
 21
-40.80317533859437
 31
0.0
  0
ARC
  5
4785
330
1F
100
AcDbEntity
  8
太線
370
    25
100
AcDbCircle
 10
315.885991808092
 20
-44.78200748770951
 30
0.0
 40
2.185267124274552
100
AcDbArc
 50
207.0324924700536
 51
343.3477876073709
  0
ARC
  5
4786
330
1F
100
AcDbEntity
  8
太線
370
    25
100
AcDbCircle
 10
315.3541330613625
 20
-42.90317533859445
 30
0.0
 40
2.099999999999999
100
AcDbArc
 50
90.0
 51
180.0
  0
LINE
  5
4787
330
1F
100
AcDbEntity
  8
太線
370
    25
100
AcDbLine
 10
313.2541330613625
 20
-47.10317533859444
 30
0.0
 11
306.9541330613625
 21
-47.10317533859444
 31
0.0
  0
LINE
  5
4788
330
1F
100
AcDbEntity
  8
太線
370
    25
100
AcDbLine
 10
313.2541330613625
 20
-42.90317533859445
 30
0.0
 11
313.2541330613625
 21
-47.10317533859444
 31
0.0
  0
ARC
  5
4789
330
1F
100
AcDbEntity
  8
太線
370
    25
100
AcDbCircle
 10
327.1489293087074
 20
-44.78200748770951
 30
0.0
 40
2.185267124274552
100
AcDbArc
 50
207.0324924700536
 51
343.3477876073709
  0
ARC
  5
478A
330
1F
100
AcDbEntity
  8
太線
370
    25
100
AcDbCircle
 10
317.4708040290898
 20
-52.41740870136244
 30
0.0
 40
1.0
100
AcDbArc
 50
0.0
 51
89.61608824540091
  0
ARC
  5
478B
330
1F
100
AcDbEntity
  8
太線
370
    25
100
AcDbCircle
 10
321.040217503139
 20
-44.78200748770951
 30
0.0
 40
2.185267124274552
100
AcDbArc
 50
207.0324924700536
 51
343.3477876073709
  0
LINE
  5
478D
330
1F
100
AcDbEntity
  8
太線
370
    25
100
AcDbLine
 10
322.087195097871
 20
-40.29305806703326
 30
0.0
 11
322.087195097871
 21
-32.83562178391645
 31
0.0
  0
ARC
  5
4790
330
1F
100
AcDbEntity
  8
太線
370
    25
100
AcDbCircle
 10
349.2930091675006
 20
-44.78200748770951
 30
0.0
 40
2.185267124274552
100
AcDbArc
 50
207.0324924700536
 51
343.3477876073709
  0
ARC
  5
4791
330
1F
100
AcDbEntity
  8
太線
370
    25
100
AcDbCircle
 10
343.1842973619321
 20
-44.78200748770951
 30
0.0
 40
2.185267124274552
100
AcDbArc
 50
207.0324924700536
 51
343.3477876073709
  0
ARC
  5
4792
330
1F
100
AcDbEntity
  8
太線
370
    25
100
AcDbCircle
 10
338.0300716668851
 20
-44.78200748770951
 30
0.0
 40
2.185267124274552
100
AcDbArc
 50
207.0324924700536
 51
343.3477876073709
  0
LINE
  5
4793
330
1F
100
AcDbEntity
  8
太線
100
AcDbLine
 10
334.2361169662638
 20
-32.98144932217098
 30
0.0
 11
334.2361169662638
 21
-40.68078608113057
 31
0.0
  0
ARC
  5
4795
330
1F
100
AcDbEntity
  8
太線
370
    25
100
AcDbCircle
 10
359.7923563832408
 20
-44.78200748770951
 30
0.0
 40
2.185267124274552
100
AcDbArc
 50
207.0324924700536
 51
343.3477876073709
  0
ARC
  5
4796
330
1F
100
AcDbEntity
  8
太線
370
    25
100
AcDbCircle
 10
354.4472348625475
 20
-44.78200748770951
 30
0.0
 40
2.185267124274552
100
AcDbArc
 50
207.0324924700536
 51
343.3477876073709
  0
ARC
  5
4797
330
1F
100
AcDbEntity
  8
太線
370
    25
100
AcDbCircle
 10
364.9465820782876
 20
-44.78200748770951
 30
0.0
 40
2.185267124274552
100
AcDbArc
 50
207.0324924700536
 51
343.3477876073709
  0
LINE
  5
479B
330
1F
100
AcDbEntity
  8
太線
100
AcDbLine
 10
359.8042883579903
 20
-33.15643339633686
 30
0.0
 11
359.8042883579903
 21
-40.85577132703599
 31
0.0
  0
LINE
  5
479C
330
1F
100
AcDbEntity
  8
太線
370
    25
100
AcDbLine
 10
365.7541330613625
 20
-40.80317533859437
 30
0.0
 11
361.5541330613625
 21
-40.80317533859437
 31
0.0
  0
DIMENSION
  5
47AF
330
1F
100
AcDbEntity
  8
寸法線
100
AcDbDimension
  2
*D28
 10
392.098336054465
 20
-203.0735136983083
 30
0.0
 11
388.598336054465
 21
-118.6639568802887
 31
0.0
 70
    32
  1
196
 71
     5
 42
168.8191136360392
  3
sunpo
100
AcDbAlignedDimension
 13
392.598336054465
 23
-34.25440006226915
 33
0.0
 14
396.2248121612581
 24
-203.0735136983083
 34
0.0
 50
90.0
100
AcDbRotatedDimension
1001
ACAD
1000
DSTYLE
1002
{
1070
    40
1040
1.0
1002
}
  0
LINE
  5
47B0
330
1F
100
AcDbEntity
  8
太線
370
    25
100
AcDbLine
 10
386.7541330613625
 20
-49.63500561139364
 30
0.0
 11
386.7541330613625
 21
-62.23500561139371
 31
0.0
  0
ARC
  5
47B1
330
1F
100
AcDbEntity
  8
太線
370
    25
100
AcDbCircle
 10
384.6541330613624
 20
-62.23500561139371
 30
0.0
 40
2.099999999999999
100
AcDbArc
 50
270.0
 51
0.0
  0
LINE
  5
47B2
330
1F
100
AcDbEntity
  8
太線
370
    25
100
AcDbLine
 10
380.4541330613624
 20
-47.10317533859444
 30
0.0
 11
384.6541330613624
 21
-47.10317533859444
 31
0.0
  0
ARC
  5
47B3
330
1F
100
AcDbEntity
  8
太線
370
    25
100
AcDbCircle
 10
378.3541330613625
 20
-42.90317533859445
 30
0.0
 40
2.099999999999999
100
AcDbArc
 50
0.0
 51
90.0
  0
ARC
  5
47B4
330
1F
100
AcDbEntity
  8
太線
370
    25
100
AcDbCircle
 10
376.2095195789032
 20
-44.78200748770951
 30
0.0
 40
2.185267124274552
100
AcDbArc
 50
207.0324924700536
 51
343.3477876073709
  0
ARC
  5
47B5
330
1F
100
AcDbEntity
  8
太線
370
    25
100
AcDbCircle
 10
371.0552938838562
 20
-44.78200748770951
 30
0.0
 40
2.185267124274552
100
AcDbArc
 50
207.0324924700536
 51
343.3477876073709
  0
LINE
  5
47B6
330
1F
100
AcDbEntity
  8
太線
370
    25
100
AcDbLine
 10
380.4541330613624
 20
-42.90317533859445
 30
0.0
 11
380.4541330613624
 21
-47.10317533859444
 31
0.0
  0
LINE
  5
47B7
330
1F
100
AcDbEntity
  8
太線
370
    25
100
AcDbLine
 10
373.2526418532481
 20
-32.95744259152729
 30
0.0
 11
373.2526418532481
 21
-40.22442077825758
 31
0.0
  0
ARC
  5
47B8
330
1F
100
AcDbEntity
  8
太線
370
    25
100
AcDbCircle
 10
384.6541330613624
 20
-49.2031753385944
 30
0.0
 40
2.099999999999999
100
AcDbArc
 50
0.0
 51
90.0
  0
LINE
  5
47F8
330
1F
100
AcDbEntity
  8
太線
370
    25
100
AcDbLine
 10
372.4253233362391
 20
-32.6521385909009
 30
0.0
 11
321.425323336239
 21
-32.6521385909009
 31
0.0
  0
LINE
  5
4803
330
1F
100
AcDbEntity
  8
太線
370
    25
100
AcDbLine
 10
341.9253233362391
 20
-32.6521385909009
 30
0.0
 11
352.925323336239
 21
-32.6521385909009
 31
0.0
  0
LINE
  5
4807
330
1F
100
AcDbEntity
  8
太線
370
    25
100
AcDbLine
 10
341.9253233362391
 20
-32.6521385909009
 30
0.0
 11
338.9253233362391
 21
-32.6521385909009
 31
0.0
  0
LINE
  5
4808
330
1F
100
AcDbEntity
  8
太線
370
    25
100
AcDbLine
 10
352.925323336239
 20
-32.6521385909009
 30
0.0
 11
354.925323336239
 21
-32.6521385909009
 31
0.0
  0
DIMENSION
  5
4924
330
1F
100
AcDbEntity
  8
寸法線
100
AcDbDimension
  2
*D29
 10
23.53829133897658
 20
-126.3780218553602
 30
0.0
 11
30.27322878455291
 21
-140.6183784938453
 31
0.0
 70
   163
  1
65
 71
     5
 42
50.00000000000003
  3
sunpo
100
AcDbDiametricDimension
 15
2.161184195467107
 25
-81.17825094692618
 35
0.0
 40
0.0
1001
ACAD
1000
DSTYLE
1002
{
1070
    40
1040
1.0
1070
   279
1070
     1
1070
   288
1070
     1
1002
}
  0
DIMENSION
  5
492D
330
1F
100
AcDbEntity
  8
寸法線
100
AcDbDimension
  2
*D30
 10
99.59697855735354
 20
-165.1589090292603
 30
0.0
 11
85.64202281723471
 21
-176.678541064666
 31
0.0
 70
   163
  1
100
 71
     5
 42
88.87095308536258
  3
sunpo
100
AcDbDiametricDimension
 15
168.1332757088046
 25
-108.583099047708
 35
0.0
 40
0.0
1001
ACAD
1000
DSTYLE
1002
{
1070
    40
1040
1.0
1070
   279
1070
     1
1070
   288
1070
     1
1002
}
  0
MTEXT
  5
4A25
330
1F
100
AcDbEntity
  8
太線
370
    25
100
AcDbMText
 10
1048.578093516282
 20
161.6585032721168
 30
0.0
 40
2.5
 41
0.1
 71
     1
 72
     1
  1

 73
     1
 44
1.0
  0
XLINE
  5
4B37
330
1F
100
AcDbEntity
  8
構築線
100
AcDbXline
 10
711.7643403857443
 20
147.9595454100089
 30
0.0
 11
0.0
 21
-1.0
 31
0.0
  0
XLINE
  5
4B38
330
1F
100
AcDbEntity
  8
構築線
100
AcDbXline
 10
711.7643403857443
 20
147.9595454100089
 30
0.0
 11
1.0
 21
0.0
 31
0.0
  0
XLINE
  5
4B39
330
1F
100
AcDbEntity
  8
構築線
100
AcDbXline
 10
581.4990407119219
 20
143.7094004934361
 30
0.0
 11
0.0
 21
1.0
 31
0.0
  0
XLINE
  5
4B3E
330
1F
100
AcDbEntity
  8
構築線
100
AcDbXline
 10
711.7643403857443
 20
-32.37999048221922
 30
0.0
 11
1.0
 21
0.0
 31
0.0
  0
XLINE
  5
4B3F
330
1F
100
AcDbEntity
  8
構築線
100
AcDbXline
 10
1150.608939579629
 20
44.64986527165774
 30
0.0
 11
0.0
 21
-1.0
 31
0.0
  0
LINE
  5
4B40
330
1F
100
AcDbEntity
  8
想像線
370
    25
100
AcDbLine
 10
701.9083448042863
 20
-22.37999048221922
 30
0.0
 11
687.4083448042863
 21
-22.37999048221922
 31
0.0
  0
LINE
  5
4B41
330
1F
100
AcDbEntity
  8
太線
370
    25
100
AcDbLine
 10
686.4083448042863
 20
17.62000951778077
 30
0.0
 11
737.4083448042863
 21
17.6200095177808
 31
0.0
  0
LINE
  5
4B42
330
1F
100
AcDbEntity
  8
太線
370
    25
100
AcDbLine
 10
737.4083448042863
 20
-32.37999048221922
 30
0.0
 11
686.4083448042863
 21
-32.37999048221922
 31
0.0
  0
LINE
  5
4B43
330
1F
100
AcDbEntity
  8
想像線
370
    25
100
AcDbLine
 10
686.7643403857443
 20
-22.37999048221922
 30
0.0
 11
686.7643403857443
 21
17.62000951778077
 31
0.0
  0
LINE
  5
4B44
330
1F
100
AcDbEntity
  8
太線
370
    25
100
AcDbLine
 10
681.7643403857443
 20
-29.37999048221922
 30
0.0
 11
681.7643403857443
 21
14.62000951778077
 31
0.0
  0
ARC
  5
4B45
330
1F
100
AcDbEntity
  8
太線
370
    25
100
AcDbCircle
 10
684.7643403857444
 20
-29.37999048221922
 30
0.0
 40
3.0
100
AcDbArc
 50
180.0
 51
270.0
  0
DIMENSION
  5
4B46
330
1F
100
AcDbEntity
  8
寸法線
370
    25
100
AcDbDimension
  2
*D31
 10
687.4083448042863
 20
-44.40746243937815
 30
0.0
 11
684.5863425950153
 21
-42.53246243937815
 31
0.0
 70
    32
  1
5
 71
     5
 42
5.644004418541953
  3
ISO-25
100
AcDbAlignedDimension
 13
681.7643403857443
 23
-29.37999048221922
 33
0.0
 14
687.4083448042863
 24
-22.37999048221922
 34
0.0
100
AcDbRotatedDimension
  0
LINE
  5
4B47
330
1F
100
AcDbEntity
  8
太線
370
    25
100
AcDbLine
 10
684.7643403857444
 20
-32.37999048221922
 30
0.0
 11
686.7643403857443
 21
-32.37999048221922
 31
0.0
  0
DIMENSION
  5
4B4A
330
1F
100
AcDbEntity
  8
寸法線
370
    25
100
AcDbDimension
  2
*D33
 10
686.9307390676519
 20
28.89645605612736
 30
0.0
 11
681.7232190001673
 21
30.77145605612736
 31
0.0
 70
    32
  1
10
 71
     5
 42
10.41504013496933
  3
ISO-25
100
AcDbAlignedDimension
 13
676.5156989326826
 23
9.03345954194674
 33
0.0
 14
686.9307390676519
 24
7.614673030994254
 34
0.0
100
AcDbRotatedDimension
  0
DIMENSION
  5
4B4B
330
1F
100
AcDbEntity
  8
寸法線
370
    25
100
AcDbDimension
  2
*D32
 10
665.6272526316873
 20
5.722959512952007
 30
0.0
 11
663.7522526316872
 21
11.67148451536651
 31
0.0
 70
    32
  1
12
 71
     5
 42
11.89705000482879
  3
ISO-25
100
AcDbAlignedDimension
 13
684.7643403857444
 23
17.6200095177808
 33
0.0
 14
685.5105061582086
 24
5.722959512952002
 34
0.0
 50
90.0
100
AcDbRotatedDimension
  0
LINE
  5
4B4C
330
1F
100
AcDbEntity
  8
太線
370
    25
100
AcDbLine
 10
681.7682044946607
 20
-4.106354209889104
 30
0.0
 11
681.7682044946607
 21
14.42537181410841
 31
0.0
  0
ARC
  5
4B4D
330
1F
100
AcDbEntity
  8
太線
370
    25
100
AcDbCircle
 10
711.4182044946605
 20
6.30374556413605
 30
0.0
 40
34.65
100
AcDbArc
 50
167.4993777707554
 51
192.5006222292446
  0
LINE
  5
4B4E
330
1F
100
AcDbEntity
  8
想像線
370
    25
100
AcDbLine
 10
677.9987374959635
 20
0.0814024424994386
 30
0.0
 11
686.5217950436474
 21
0.0814024424994386
 31
0.0
  0
LINE
  5
4B4F
330
1F
100
AcDbEntity
  8
想像線
370
    25
100
AcDbLine
 10
677.4772749807323
 20
1.391817111308
 30
0.0
 11
686.8396643250323
 21
1.391817111308
 31
0.0
  0
LINE
  5
4B50
330
1F
100
AcDbEntity
  8
太線
370
    25
100
AcDbLine
 10
681.7682044946607
 20
-2.962105473924623
 30
0.0
 11
677.5896292955779
 21
-1.196254435863977
 31
0.0
  0
LINE
  5
4B51
330
1F
100
AcDbEntity
  8
細線
100
AcDbLine
 10
686.7643403857443
 20
1.303745564136193
 30
0.0
 11
686.9089100072008
 21
1.303745564136193
 31
0.0
  0
LINE
  5
4B52
330
1F
100
AcDbEntity
  8
細線
100
AcDbLine
 10
686.7643403857443
 20
2.303745564136193
 30
0.0
 11
686.9089100072008
 21
2.303745564136193
 31
0.0
  0
ARC
  5
4B53
330
1F
100
AcDbEntity
  8
太線
370
    25
100
AcDbCircle
 10
684.7643403857444
 20
14.62000951778077
 30
0.0
 40
3.0
100
AcDbArc
 50
90.0
 51
180.0
  0
LINE
  5
4B54
330
1F
100
AcDbEntity
  8
想像線
370
    25
100
AcDbLine
 10
677.3168939549348
 20
9.61612781992494
 30
0.0
 11
686.5217950436474
 21
9.61612781992494
 31
0.0
  0
LINE
  5
4B55
330
1F
100
AcDbEntity
  8
想像線
370
    25
100
AcDbLine
 10
677.2242356356403
 20
11.24880685222956
 30
0.0
 11
686.5866249799398
 21
11.24880685222956
 31
0.0
  0
ARC
  5
4B56
330
1F
100
AcDbEntity
  8
太線
370
    25
100
AcDbCircle
 10
684.7643403857444
 20
14.6200095177808
 30
0.0
 40
3.0
100
AcDbArc
 50
90.0
 51
180.0
  0
LINE
  5
4B57
330
1F
100
AcDbEntity
  8
破線
100
AcDbLine
 10
681.7682044946607
 20
14.42537181410841
 30
0.0
 11
681.7682044946607
 21
14.42537181410841
 31
0.0
  0
LINE
  5
4B58
330
1F
100
AcDbEntity
  8
太線
370
    25
100
AcDbLine
 10
681.9445540327219
 20
15.6441212906397
 30
0.0
 11
677.5896292955779
 21
13.80374556413613
 31
0.0
  0
LINE
  5
4B59
330
1F
100
AcDbEntity
  8
太線
370
    25
100
AcDbLine
 10
686.7643403857443
 20
17.62000951778077
 30
0.0
 11
684.7643403857444
 21
17.62000951778077
 31
0.0
  0
LINE
  5
4B5A
330
1F
100
AcDbEntity
  8
太線
370
    25
100
AcDbLine
 10
686.7643403857443
 20
17.62000951778077
 30
0.0
 11
684.7643403857444
 21
17.6200095177808
 31
0.0
  0
LINE
  5
4B5B
330
1F
100
AcDbEntity
  8
細線
100
AcDbLine
 10
686.7643403857443
 20
11.30374556413619
 30
0.0
 11
686.9089100072008
 21
11.30374556413619
 31
0.0
  0
LINE
  5
4B5C
330
1F
100
AcDbEntity
  8
細線
100
AcDbLine
 10
686.7643403857443
 20
10.30374556413619
 30
0.0
 11
686.9089100072008
 21
10.30374556413619
 31
0.0
  0
LINE
  5
4B5D
330
1F
100
AcDbEntity
  8
想像線
370
    25
100
AcDbLine
 10
736.7643403857443
 20
17.62000951778077
 30
0.0
 11
736.7643403857443
 21
-22.37999048221922
 31
0.0
  0
DIMENSION
  5
4B5E
330
1F
100
AcDbEntity
  8
寸法線
370
    25
100
AcDbDimension
  2
*D34
 10
756.0487202444508
 20
17.62000951778077
 30
0.0
 11
752.9237202444508
 21
-2.37999048221911
 31
0.0
 70
    32
 71
     5
 42
40.0
  3
ISO-25
100
AcDbAlignedDimension
 13
736.4083448042863
 23
-22.37999048221922
 33
0.0
 14
736.7643403857443
 24
17.62000951778077
 34
0.0
 50
90.0
100
AcDbRotatedDimension
1001
ACAD
1000
DSTYLE
1002
{
1070
   140
1040
5.0
1002
}
  0
LINE
  5
4B5F
330
1F
100
AcDbEntity
  8
太線
370
    25
100
AcDbLine
 10
741.7643403857444
 20
14.6200095177808
 30
0.0
 11
741.7643403857444
 21
-29.37999048221922
 31
0.0
  0
LINE
  5
4B60
330
1F
100
AcDbEntity
  8
想像線
370
    25
100
AcDbLine
 10
736.4083448042863
 20
-22.37999048221922
 30
0.0
 11
721.9083448042863
 21
-22.37999048221922
 31
0.0
  0
LINE
  5
4B62
330
1F
100
AcDbEntity
  8
想像線
370
    25
100
AcDbLine
 10
701.9083448042863
 20
-22.37999048221922
 30
0.0
 11
701.7643403857444
 21
-32.37999048221922
 31
0.0
  0
LINE
  5
4B65
330
1F
100
AcDbEntity
  8
想像線
370
    25
100
AcDbLine
 10
721.9083448042863
 20
-22.37999048221922
 30
0.0
 11
721.7643403857444
 21
-32.37999048221922
 31
0.0
  0
ARC
  5
4B66
330
1F
100
AcDbEntity
  8
太線
370
    25
100
AcDbCircle
 10
738.7643403857444
 20
-29.37999048221922
 30
0.0
 40
3.0
100
AcDbArc
 50
270.0
 51
0.0
  0
LINE
  5
4B67
330
1F
100
AcDbEntity
  8
太線
370
    25
100
AcDbLine
 10
736.7643403857443
 20
-32.37999048221922
 30
0.0
 11
738.7643403857444
 21
-32.37999048221922
 31
0.0
  0
LINE
  5
4B68
330
1F
100
AcDbEntity
  8
太線
370
    25
100
AcDbLine
 10
741.760476276828
 20
-4.106354209889104
 30
0.0
 11
741.760476276828
 21
14.42537181410841
 31
0.0
  0
LINE
  5
4B69
330
1F
100
AcDbEntity
  8
細線
100
AcDbLine
 10
736.7643403857443
 20
1.303745564136193
 30
0.0
 11
736.6197707642879
 21
1.303745564136193
 31
0.0
  0
LINE
  5
4B6A
330
1F
100
AcDbEntity
  8
細線
100
AcDbLine
 10
736.7643403857443
 20
2.303745564136193
 30
0.0
 11
736.6197707642879
 21
2.303745564136193
 31
0.0
  0
LINE
  5
4B6B
330
1F
100
AcDbEntity
  8
太線
370
    25
100
AcDbLine
 10
736.7643403857443
 20
17.62000951778077
 30
0.0
 11
738.7643403857444
 21
17.6200095177808
 31
0.0
  0
LINE
  5
4B6C
330
1F
100
AcDbEntity
  8
細線
100
AcDbLine
 10
736.7643403857443
 20
10.30374556413619
 30
0.0
 11
736.6197707642879
 21
10.30374556413619
 31
0.0
  0
LINE
  5
4B6D
330
1F
100
AcDbEntity
  8
細線
100
AcDbLine
 10
736.7643403857443
 20
11.30374556413619
 30
0.0
 11
736.6197707642879
 21
11.30374556413619
 31
0.0
  0
LINE
  5
4B6E
330
1F
100
AcDbEntity
  8
破線
100
AcDbLine
 10
741.760476276828
 20
14.42537181410841
 30
0.0
 11
741.760476276828
 21
14.42537181410841
 31
0.0
  0
ARC
  5
4B6F
330
1F
100
AcDbEntity
  8
太線
370
    25
100
AcDbCircle
 10
738.7643403857444
 20
14.6200095177808
 30
0.0
 40
3.0
100
AcDbArc
 50
0.0
 51
90.0
  0
XLINE
  5
4D64
330
1F
100
AcDbEntity
  8
構築線
100
AcDbXline
 10
448.3945803774103
 20
60.30294005130599
 30
0.0
 11
0.0
 21
-1.0
 31
0.0
  0
LINE
  5
4D81
330
1F
100
AcDbEntity
  8
細線
370
    25
100
AcDbLine
 10
571.6430451304639
 20
-22.37999048221922
 30
0.0
 11
591.6430451304639
 21
-22.37999048221922
 31
0.0
  0
LINE
  5
4D82
330
1F
100
AcDbEntity
  8
太線
370
    25
100
AcDbLine
 10
556.1430451304639
 20
17.62000951778077
 30
0.0
 11
607.143045130464
 21
17.6200095177808
 31
0.0
  0
LINE
  5
4D83
330
1F
100
AcDbEntity
  8
太線
370
    25
100
AcDbLine
 10
607.143045130464
 20
-32.37999048221922
 30
0.0
 11
556.1430451304639
 21
-32.37999048221922
 31
0.0
  0
LINE
  5
4D84
330
1F
100
AcDbEntity
  8
想像線
370
    25
100
AcDbLine
 10
556.4990407119219
 20
-22.37999048221922
 30
0.0
 11
556.4990407119219
 21
17.62000951778077
 31
0.0
  0
LINE
  5
4D85
330
1F
100
AcDbEntity
  8
太線
370
    25
100
AcDbLine
 10
551.499040711922
 20
-29.37999048221922
 30
0.0
 11
551.499040711922
 21
14.62000951778077
 31
0.0
  0
ARC
  5
4D86
330
1F
100
AcDbEntity
  8
太線
370
    25
100
AcDbCircle
 10
554.499040711922
 20
-29.37999048221922
 30
0.0
 40
3.0
100
AcDbArc
 50
180.0
 51
270.0
  0
LINE
  5
4D88
330
1F
100
AcDbEntity
  8
想像線
370
    25
100
AcDbLine
 10
571.6430451304639
 20
-22.37999048221922
 30
0.0
 11
557.143045130464
 21
-22.37999048221922
 31
0.0
  0
LINE
  5
4D8B
330
1F
100
AcDbEntity
  8
太線
370
    25
100
AcDbLine
 10
554.499040711922
 20
-32.37999048221922
 30
0.0
 11
556.4990407119219
 21
-32.37999048221922
 31
0.0
  0
LINE
  5
4D8D
330
1F
100
AcDbEntity
  8
想像線
370
    25
100
AcDbLine
 10
575.499040711922
 20
-22.37999048221922
 30
0.0
 11
575.499040711922
 21
-32.37999048221922
 31
0.0
  0
ARC
  5
4D8E
330
1F
100
AcDbEntity
  8
太線
370
    25
100
AcDbCircle
 10
554.499040711922
 20
14.62000951778077
 30
0.0
 40
3.0
100
AcDbArc
 50
90.0
 51
180.0
  0
ARC
  5
4D8F
330
1F
100
AcDbEntity
  8
太線
370
    25
100
AcDbCircle
 10
554.499040711922
 20
14.6200095177808
 30
0.0
 40
3.0
100
AcDbArc
 50
90.0
 51
180.0
  0
LINE
  5
4D90
330
1F
100
AcDbEntity
  8
想像線
370
    25
100
AcDbLine
 10
547.0515942811124
 20
9.61612781992494
 30
0.0
 11
556.2564953698251
 21
9.61612781992494
 31
0.0
  0
LINE
  5
4D91
330
1F
100
AcDbEntity
  8
想像線
370
    25
100
AcDbLine
 10
546.9589359618179
 20
11.24880685222956
 30
0.0
 11
556.3213253061174
 21
11.24880685222956
 31
0.0
  0
LINE
  5
4D92
330
1F
100
AcDbEntity
  8
想像線
370
    25
100
AcDbLine
 10
547.7334378221411
 20
0.0814024424994386
 30
0.0
 11
556.2564953698251
 21
0.0814024424994386
 31
0.0
  0
LINE
  5
4D93
330
1F
100
AcDbEntity
  8
想像線
370
    25
100
AcDbLine
 10
547.2119753069099
 20
1.391817111308
 30
0.0
 11
556.57436465121
 21
1.391817111308
 31
0.0
  0
LINE
  5
4D95
330
1F
100
AcDbEntity
  8
太線
370
    25
100
AcDbLine
 10
551.5029048208383
 20
-4.106354209889104
 30
0.0
 11
551.5029048208383
 21
14.42537181410841
 31
0.0
  0
ARC
  5
4D96
330
1F
100
AcDbEntity
  8
太線
370
    25
100
AcDbCircle
 10
581.1529048208382
 20
6.30374556413605
 30
0.0
 40
34.65
100
AcDbArc
 50
167.4993777707554
 51
192.5006222292446
  0
LINE
  5
4D97
330
1F
100
AcDbEntity
  8
太線
370
    25
100
AcDbLine
 10
551.5029048208383
 20
-2.962105473924623
 30
0.0
 11
547.3243296217555
 21
-1.196254435863977
 31
0.0
  0
LINE
  5
4D98
330
1F
100
AcDbEntity
  8
破線
100
AcDbLine
 10
551.5029048208383
 20
14.42537181410841
 30
0.0
 11
551.5029048208383
 21
14.42537181410841
 31
0.0
  0
LINE
  5
4D99
330
1F
100
AcDbEntity
  8
太線
370
    25
100
AcDbLine
 10
551.6792543588995
 20
15.6441212906397
 30
0.0
 11
547.3243296217555
 21
13.80374556413613
 31
0.0
  0
LINE
  5
4D9A
330
1F
100
AcDbEntity
  8
細線
100
AcDbLine
 10
556.4990407119219
 20
1.303745564136193
 30
0.0
 11
556.6436103333784
 21
1.303745564136193
 31
0.0
  0
LINE
  5
4D9B
330
1F
100
AcDbEntity
  8
細線
100
AcDbLine
 10
556.4990407119219
 20
2.303745564136193
 30
0.0
 11
556.6436103333784
 21
2.303745564136193
 31
0.0
  0
LINE
  5
4D9C
330
1F
100
AcDbEntity
  8
細線
100
AcDbLine
 10
556.4990407119219
 20
11.30374556413619
 30
0.0
 11
556.6436103333784
 21
11.30374556413619
 31
0.0
  0
LINE
  5
4D9D
330
1F
100
AcDbEntity
  8
細線
100
AcDbLine
 10
556.4990407119219
 20
10.30374556413619
 30
0.0
 11
556.6436103333784
 21
10.30374556413619
 31
0.0
  0
LINE
  5
4D9E
330
1F
100
AcDbEntity
  8
太線
370
    25
100
AcDbLine
 10
556.4990407119219
 20
17.62000951778077
 30
0.0
 11
554.499040711922
 21
17.62000951778077
 31
0.0
  0
LINE
  5
4D9F
330
1F
100
AcDbEntity
  8
太線
370
    25
100
AcDbLine
 10
556.4990407119219
 20
17.62000951778077
 30
0.0
 11
554.499040711922
 21
17.6200095177808
 31
0.0
  0
LINE
  5
4DA0
330
1F
100
AcDbEntity
  8
想像線
370
    25
100
AcDbLine
 10
606.4990407119219
 20
17.62000951778077
 30
0.0
 11
606.4990407119219
 21
-22.37999048221922
 31
0.0
  0
LINE
  5
4DA1
330
1F
100
AcDbEntity
  8
太線
370
    25
100
AcDbLine
 10
611.499040711922
 20
14.6200095177808
 30
0.0
 11
611.499040711922
 21
-29.37999048221922
 31
0.0
  0
LINE
  5
4DA3
330
1F
100
AcDbEntity
  8
想像線
370
    25
100
AcDbLine
 10
606.1430451304639
 20
-22.37999048221922
 30
0.0
 11
591.6430451304639
 21
-22.37999048221922
 31
0.0
  0
LINE
  5
4DA4
330
1F
100
AcDbEntity
  8
想像線
370
    25
100
AcDbLine
 10
587.499040711922
 20
-22.37999048221922
 30
0.0
 11
587.499040711922
 21
-32.37999048221922
 31
0.0
  0
LINE
  5
4DA6
330
1F
100
AcDbEntity
  8
太線
370
    25
100
AcDbLine
 10
606.4990407119219
 20
-32.37999048221922
 30
0.0
 11
608.499040711922
 21
-32.37999048221922
 31
0.0
  0
ARC
  5
4DA7
330
1F
100
AcDbEntity
  8
太線
370
    25
100
AcDbCircle
 10
608.499040711922
 20
-29.37999048221922
 30
0.0
 40
3.0
100
AcDbArc
 50
270.0
 51
0.0
  0
LINE
  5
4DA8
330
1F
100
AcDbEntity
  8
太線
370
    25
100
AcDbLine
 10
611.4951766030056
 20
-4.106354209889104
 30
0.0
 11
611.4951766030056
 21
14.42537181410841
 31
0.0
  0
LINE
  5
4DA9
330
1F
100
AcDbEntity
  8
細線
100
AcDbLine
 10
606.4990407119219
 20
1.303745564136193
 30
0.0
 11
606.3544710904656
 21
1.303745564136193
 31
0.0
  0
LINE
  5
4DAA
330
1F
100
AcDbEntity
  8
細線
100
AcDbLine
 10
606.4990407119219
 20
2.303745564136193
 30
0.0
 11
606.3544710904656
 21
2.303745564136193
 31
0.0
  0
LINE
  5
4DAB
330
1F
100
AcDbEntity
  8
太線
370
    25
100
AcDbLine
 10
606.4990407119219
 20
17.62000951778077
 30
0.0
 11
608.499040711922
 21
17.6200095177808
 31
0.0
  0
LINE
  5
4DAC
330
1F
100
AcDbEntity
  8
細線
100
AcDbLine
 10
606.4990407119219
 20
10.30374556413619
 30
0.0
 11
606.3544710904656
 21
10.30374556413619
 31
0.0
  0
LINE
  5
4DAD
330
1F
100
AcDbEntity
  8
細線
100
AcDbLine
 10
606.4990407119219
 20
11.30374556413619
 30
0.0
 11
606.3544710904656
 21
11.30374556413619
 31
0.0
  0
LINE
  5
4DAE
330
1F
100
AcDbEntity
  8
破線
100
AcDbLine
 10
611.4951766030056
 20
14.42537181410841
 30
0.0
 11
611.4951766030056
 21
14.42537181410841
 31
0.0
  0
ARC
  5
4DAF
330
1F
100
AcDbEntity
  8
太線
370
    25
100
AcDbCircle
 10
608.499040711922
 20
14.6200095177808
 30
0.0
 40
3.0
100
AcDbArc
 50
0.0
 51
90.0
  0
LINE
  5
4E09
330
1F
100
AcDbEntity
  8
細線
370
    25
100
AcDbLine
 10
438.5385847959522
 20
-22.37999048221922
 30
0.0
 11
458.5385847959522
 21
-22.37999048221922
 31
0.0
  0
LINE
  5
4E0A
330
1F
100
AcDbEntity
  8
太線
370
    25
100
AcDbLine
 10
423.0385847959523
 20
17.62000951778077
 30
0.0
 11
474.0385847959522
 21
17.6200095177808
 31
0.0
  0
LINE
  5
4E0B
330
1F
100
AcDbEntity
  8
太線
370
    25
100
AcDbLine
 10
474.0385847959522
 20
-32.37999048221922
 30
0.0
 11
423.0385847959523
 21
-32.37999048221922
 31
0.0
  0
LINE
  5
4E0C
330
1F
100
AcDbEntity
  8
想像線
370
    25
100
AcDbLine
 10
423.3945803774103
 20
-22.37999048221922
 30
0.0
 11
423.3945803774103
 21
17.62000951778077
 31
0.0
  0
LINE
  5
4E0D
330
1F
100
AcDbEntity
  8
太線
370
    25
100
AcDbLine
 10
418.3945803774102
 20
-29.37999048221922
 30
0.0
 11
418.3945803774102
 21
14.62000951778077
 31
0.0
  0
ARC
  5
4E0E
330
1F
100
AcDbEntity
  8
太線
370
    25
100
AcDbCircle
 10
421.3945803774103
 20
-29.37999048221922
 30
0.0
 40
3.0
100
AcDbArc
 50
180.0
 51
270.0
  0
LINE
  5
4E10
330
1F
100
AcDbEntity
  8
想像線
370
    25
100
AcDbLine
 10
438.5385847959522
 20
-22.37999048221922
 30
0.0
 11
424.0385847959522
 21
-22.37999048221922
 31
0.0
  0
LINE
  5
4E13
330
1F
100
AcDbEntity
  8
太線
370
    25
100
AcDbLine
 10
421.3945803774103
 20
-32.37999048221922
 30
0.0
 11
423.3945803774103
 21
-32.37999048221922
 31
0.0
  0
LINE
  5
4E15
330
1F
100
AcDbEntity
  8
想像線
370
    25
100
AcDbLine
 10
442.3945803774103
 20
-22.37999048221922
 30
0.0
 11
442.3945803774103
 21
-32.37999048221922
 31
0.0
  0
ARC
  5
4E16
330
1F
100
AcDbEntity
  8
太線
370
    25
100
AcDbCircle
 10
421.3945803774103
 20
14.62000951778077
 30
0.0
 40
3.0
100
AcDbArc
 50
90.0
 51
180.0
  0
ARC
  5
4E17
330
1F
100
AcDbEntity
  8
太線
370
    25
100
AcDbCircle
 10
421.3945803774103
 20
14.6200095177808
 30
0.0
 40
3.0
100
AcDbArc
 50
90.0
 51
180.0
  0
LINE
  5
4E18
330
1F
100
AcDbEntity
  8
想像線
370
    25
100
AcDbLine
 10
413.9471339466007
 20
9.61612781992494
 30
0.0
 11
423.1520350353133
 21
9.61612781992494
 31
0.0
  0
LINE
  5
4E19
330
1F
100
AcDbEntity
  8
想像線
370
    25
100
AcDbLine
 10
413.8544756273062
 20
11.24880685222956
 30
0.0
 11
423.2168649716057
 21
11.24880685222956
 31
0.0
  0
LINE
  5
4E1A
330
1F
100
AcDbEntity
  8
想像線
370
    25
100
AcDbLine
 10
414.6289774876294
 20
0.0814024424994386
 30
0.0
 11
423.1520350353133
 21
0.0814024424994386
 31
0.0
  0
LINE
  5
4E1B
330
1F
100
AcDbEntity
  8
想像線
370
    25
100
AcDbLine
 10
414.1075149723982
 20
1.391817111308
 30
0.0
 11
423.4699043166982
 21
1.391817111308
 31
0.0
  0
LINE
  5
4E1D
330
1F
100
AcDbEntity
  8
太線
370
    25
100
AcDbLine
 10
418.3984444863266
 20
-4.106354209889104
 30
0.0
 11
418.3984444863266
 21
14.42537181410841
 31
0.0
  0
ARC
  5
4E1E
330
1F
100
AcDbEntity
  8
太線
370
    25
100
AcDbCircle
 10
448.0484444863265
 20
6.30374556413605
 30
0.0
 40
34.65
100
AcDbArc
 50
167.4993777707554
 51
192.5006222292446
  0
LINE
  5
4E1F
330
1F
100
AcDbEntity
  8
太線
370
    25
100
AcDbLine
 10
418.3984444863266
 20
-2.962105473924623
 30
0.0
 11
414.2198692872438
 21
-1.196254435863977
 31
0.0
  0
LINE
  5
4E20
330
1F
100
AcDbEntity
  8
破線
100
AcDbLine
 10
418.3984444863266
 20
14.42537181410841
 30
0.0
 11
418.3984444863266
 21
14.42537181410841
 31
0.0
  0
LINE
  5
4E21
330
1F
100
AcDbEntity
  8
太線
370
    25
100
AcDbLine
 10
418.5747940243878
 20
15.6441212906397
 30
0.0
 11
414.2198692872438
 21
13.80374556413613
 31
0.0
  0
LINE
  5
4E22
330
1F
100
AcDbEntity
  8
細線
100
AcDbLine
 10
423.3945803774103
 20
1.303745564136193
 30
0.0
 11
423.5391499988667
 21
1.303745564136193
 31
0.0
  0
LINE
  5
4E23
330
1F
100
AcDbEntity
  8
細線
100
AcDbLine
 10
423.3945803774103
 20
2.303745564136193
 30
0.0
 11
423.5391499988667
 21
2.303745564136193
 31
0.0
  0
LINE
  5
4E24
330
1F
100
AcDbEntity
  8
細線
100
AcDbLine
 10
423.3945803774103
 20
11.30374556413619
 30
0.0
 11
423.5391499988667
 21
11.30374556413619
 31
0.0
  0
LINE
  5
4E25
330
1F
100
AcDbEntity
  8
細線
100
AcDbLine
 10
423.3945803774103
 20
10.30374556413619
 30
0.0
 11
423.5391499988667
 21
10.30374556413619
 31
0.0
  0
LINE
  5
4E26
330
1F
100
AcDbEntity
  8
太線
370
    25
100
AcDbLine
 10
423.3945803774103
 20
17.62000951778077
 30
0.0
 11
421.3945803774103
 21
17.62000951778077
 31
0.0
  0
LINE
  5
4E27
330
1F
100
AcDbEntity
  8
太線
370
    25
100
AcDbLine
 10
423.3945803774103
 20
17.62000951778077
 30
0.0
 11
421.3945803774103
 21
17.6200095177808
 31
0.0
  0
LINE
  5
4E28
330
1F
100
AcDbEntity
  8
想像線
370
    25
100
AcDbLine
 10
473.3945803774103
 20
17.62000951778077
 30
0.0
 11
473.3945803774103
 21
-22.37999048221922
 31
0.0
  0
LINE
  5
4E29
330
1F
100
AcDbEntity
  8
太線
370
    25
100
AcDbLine
 10
478.3945803774103
 20
14.6200095177808
 30
0.0
 11
478.3945803774103
 21
-29.37999048221922
 31
0.0
  0
LINE
  5
4E2B
330
1F
100
AcDbEntity
  8
想像線
370
    25
100
AcDbLine
 10
473.0385847959523
 20
-22.37999048221922
 30
0.0
 11
458.5385847959522
 21
-22.37999048221922
 31
0.0
  0
LINE
  5
4E2C
330
1F
100
AcDbEntity
  8
想像線
370
    25
100
AcDbLine
 10
454.3945803774103
 20
-22.37999048221922
 30
0.0
 11
454.3945803774103
 21
-32.37999048221922
 31
0.0
  0
LINE
  5
4E2E
330
1F
100
AcDbEntity
  8
太線
370
    25
100
AcDbLine
 10
473.3945803774103
 20
-32.37999048221922
 30
0.0
 11
475.3945803774103
 21
-32.37999048221922
 31
0.0
  0
ARC
  5
4E2F
330
1F
100
AcDbEntity
  8
太線
370
    25
100
AcDbCircle
 10
475.3945803774103
 20
-29.37999048221922
 30
0.0
 40
3.0
100
AcDbArc
 50
270.0
 51
0.0
  0
LINE
  5
4E30
330
1F
100
AcDbEntity
  8
太線
370
    25
100
AcDbLine
 10
478.3907162684939
 20
-4.106354209889104
 30
0.0
 11
478.3907162684939
 21
14.42537181410841
 31
0.0
  0
LINE
  5
4E31
330
1F
100
AcDbEntity
  8
細線
100
AcDbLine
 10
473.3945803774103
 20
1.303745564136193
 30
0.0
 11
473.2500107559538
 21
1.303745564136193
 31
0.0
  0
LINE
  5
4E32
330
1F
100
AcDbEntity
  8
細線
100
AcDbLine
 10
473.3945803774103
 20
2.303745564136193
 30
0.0
 11
473.2500107559538
 21
2.303745564136193
 31
0.0
  0
LINE
  5
4E33
330
1F
100
AcDbEntity
  8
太線
370
    25
100
AcDbLine
 10
473.3945803774103
 20
17.62000951778077
 30
0.0
 11
475.3945803774103
 21
17.6200095177808
 31
0.0
  0
LINE
  5
4E34
330
1F
100
AcDbEntity
  8
細線
100
AcDbLine
 10
473.3945803774103
 20
10.30374556413619
 30
0.0
 11
473.2500107559538
 21
10.30374556413619
 31
0.0
  0
LINE
  5
4E35
330
1F
100
AcDbEntity
  8
細線
100
AcDbLine
 10
473.3945803774103
 20
11.30374556413619
 30
0.0
 11
473.2500107559538
 21
11.30374556413619
 31
0.0
  0
LINE
  5
4E36
330
1F
100
AcDbEntity
  8
破線
100
AcDbLine
 10
478.3907162684939
 20
14.42537181410841
 30
0.0
 11
478.3907162684939
 21
14.42537181410841
 31
0.0
  0
ARC
  5
4E37
330
1F
100
AcDbEntity
  8
太線
370
    25
100
AcDbCircle
 10
475.3945803774103
 20
14.6200095177808
 30
0.0
 40
3.0
100
AcDbArc
 50
0.0
 51
90.0
  0
XLINE
  5
4E90
330
1F
100
AcDbEntity
  8
構築線
100
AcDbXline
 10
346.5645119939427
 20
-33.23449367147623
 30
0.0
 11
0.0
 21
1.0
 31
0.0
  0
XLINE
  5
4E92
330
1F
100
AcDbEntity
  8
構築線
100
AcDbXline
 10
39.37007443772381
 20
-71.62889202473457
 30
0.0
 11
0.0
 21
1.0
 31
0.0
  0
LINE
  5
4E94
330
1F
100
AcDbEntity
  8
細線
370
    25
100
AcDbLine
 10
149.5828175973483
 20
-22.37999048221922
 30
0.0
 11
169.5828175973483
 21
-22.37999048221922
 31
0.0
  0
LINE
  5
4E95
330
1F
100
AcDbEntity
  8
太線
370
    25
100
AcDbLine
 10
134.0828175973483
 20
17.62000951778077
 30
0.0
 11
185.0828175973483
 21
17.6200095177808
 31
0.0
  0
LINE
  5
4E96
330
1F
100
AcDbEntity
  8
太線
370
    25
100
AcDbLine
 10
185.0828175973483
 20
-32.37999048221922
 30
0.0
 11
134.0828175973483
 21
-32.37999048221922
 31
0.0
  0
LINE
  5
4E97
330
1F
100
AcDbEntity
  8
想像線
370
    25
100
AcDbLine
 10
134.4388131788064
 20
-22.37999048221922
 30
0.0
 11
134.4388131788064
 21
17.62000951778077
 31
0.0
  0
LINE
  5
4E98
330
1F
100
AcDbEntity
  8
太線
370
    25
100
AcDbLine
 10
129.4388131788064
 20
-29.37999048221922
 30
0.0
 11
129.4388131788064
 21
14.62000951778077
 31
0.0
  0
ARC
  5
4E99
330
1F
100
AcDbEntity
  8
太線
370
    25
100
AcDbCircle
 10
132.4388131788064
 20
-29.37999048221922
 30
0.0
 40
3.0
100
AcDbArc
 50
180.0
 51
270.0
  0
LINE
  5
4E9B
330
1F
100
AcDbEntity
  8
想像線
370
    25
100
AcDbLine
 10
149.5828175973483
 20
-22.37999048221922
 30
0.0
 11
135.0828175973483
 21
-22.37999048221922
 31
0.0
  0
LINE
  5
4E9E
330
1F
100
AcDbEntity
  8
太線
370
    25
100
AcDbLine
 10
132.4388131788064
 20
-32.37999048221922
 30
0.0
 11
134.4388131788064
 21
-32.37999048221922
 31
0.0
  0
LINE
  5
4EA0
330
1F
100
AcDbEntity
  8
想像線
370
    25
100
AcDbLine
 10
153.4388131788064
 20
-22.37999048221922
 30
0.0
 11
153.4388131788064
 21
-32.37999048221922
 31
0.0
  0
ARC
  5
4EA1
330
1F
100
AcDbEntity
  8
太線
370
    25
100
AcDbCircle
 10
132.4388131788064
 20
14.62000951778077
 30
0.0
 40
3.0
100
AcDbArc
 50
90.0
 51
180.0
  0
ARC
  5
4EA2
330
1F
100
AcDbEntity
  8
太線
370
    25
100
AcDbCircle
 10
132.4388131788064
 20
14.6200095177808
 30
0.0
 40
3.0
100
AcDbArc
 50
90.0
 51
180.0
  0
LINE
  5
4EA3
330
1F
100
AcDbEntity
  8
想像線
370
    25
100
AcDbLine
 10
124.9913667479968
 20
9.61612781992494
 30
0.0
 11
134.1962678367094
 21
9.61612781992494
 31
0.0
  0
LINE
  5
4EA4
330
1F
100
AcDbEntity
  8
想像線
370
    25
100
AcDbLine
 10
124.8987084287023
 20
11.24880685222956
 30
0.0
 11
134.2610977730019
 21
11.24880685222956
 31
0.0
  0
LINE
  5
4EA5
330
1F
100
AcDbEntity
  8
想像線
370
    25
100
AcDbLine
 10
125.6732102890255
 20
0.0814024424994386
 30
0.0
 11
134.1962678367094
 21
0.0814024424994386
 31
0.0
  0
LINE
  5
4EA6
330
1F
100
AcDbEntity
  8
想像線
370
    25
100
AcDbLine
 10
125.1517477737943
 20
1.391817111308
 30
0.0
 11
134.5141371180943
 21
1.391817111308
 31
0.0
  0
LINE
  5
4EA8
330
1F
100
AcDbEntity
  8
太線
370
    25
100
AcDbLine
 10
129.4426772877227
 20
-4.106354209889104
 30
0.0
 11
129.4426772877227
 21
14.42537181410841
 31
0.0
  0
ARC
  5
4EA9
330
1F
100
AcDbEntity
  8
太線
370
    25
100
AcDbCircle
 10
159.0926772877226
 20
6.30374556413605
 30
0.0
 40
34.65
100
AcDbArc
 50
167.4993777707554
 51
192.5006222292446
  0
LINE
  5
4EAA
330
1F
100
AcDbEntity
  8
太線
370
    25
100
AcDbLine
 10
129.4426772877227
 20
-2.962105473924623
 30
0.0
 11
125.2641020886398
 21
-1.196254435863977
 31
0.0
  0
LINE
  5
4EAB
330
1F
100
AcDbEntity
  8
破線
100
AcDbLine
 10
129.4426772877227
 20
14.42537181410841
 30
0.0
 11
129.4426772877227
 21
14.42537181410841
 31
0.0
  0
LINE
  5
4EAC
330
1F
100
AcDbEntity
  8
太線
370
    25
100
AcDbLine
 10
129.6190268257839
 20
15.6441212906397
 30
0.0
 11
125.2641020886398
 21
13.80374556413613
 31
0.0
  0
LINE
  5
4EAD
330
1F
100
AcDbEntity
  8
細線
100
AcDbLine
 10
134.4388131788064
 20
1.303745564136193
 30
0.0
 11
134.5833828002628
 21
1.303745564136193
 31
0.0
  0
LINE
  5
4EAE
330
1F
100
AcDbEntity
  8
細線
100
AcDbLine
 10
134.4388131788064
 20
2.303745564136193
 30
0.0
 11
134.5833828002628
 21
2.303745564136193
 31
0.0
  0
LINE
  5
4EAF
330
1F
100
AcDbEntity
  8
細線
100
AcDbLine
 10
134.4388131788064
 20
11.30374556413619
 30
0.0
 11
134.5833828002628
 21
11.30374556413619
 31
0.0
  0
LINE
  5
4EB0
330
1F
100
AcDbEntity
  8
細線
100
AcDbLine
 10
134.4388131788064
 20
10.30374556413619
 30
0.0
 11
134.5833828002628
 21
10.30374556413619
 31
0.0
  0
LINE
  5
4EB1
330
1F
100
AcDbEntity
  8
太線
370
    25
100
AcDbLine
 10
134.4388131788064
 20
17.62000951778077
 30
0.0
 11
132.4388131788064
 21
17.62000951778077
 31
0.0
  0
LINE
  5
4EB2
330
1F
100
AcDbEntity
  8
太線
370
    25
100
AcDbLine
 10
134.4388131788064
 20
17.62000951778077
 30
0.0
 11
132.4388131788064
 21
17.6200095177808
 31
0.0
  0
LINE
  5
4EB3
330
1F
100
AcDbEntity
  8
想像線
370
    25
100
AcDbLine
 10
184.4388131788064
 20
17.62000951778077
 30
0.0
 11
184.4388131788064
 21
-22.37999048221922
 31
0.0
  0
LINE
  5
4EB4
330
1F
100
AcDbEntity
  8
太線
370
    25
100
AcDbLine
 10
189.4388131788064
 20
14.6200095177808
 30
0.0
 11
189.4388131788064
 21
-29.37999048221922
 31
0.0
  0
LINE
  5
4EB6
330
1F
100
AcDbEntity
  8
想像線
370
    25
100
AcDbLine
 10
184.0828175973483
 20
-22.37999048221922
 30
0.0
 11
169.5828175973483
 21
-22.37999048221922
 31
0.0
  0
LINE
  5
4EB7
330
1F
100
AcDbEntity
  8
想像線
370
    25
100
AcDbLine
 10
165.4388131788064
 20
-22.37999048221922
 30
0.0
 11
165.4388131788064
 21
-32.37999048221922
 31
0.0
  0
LINE
  5
4EB9
330
1F
100
AcDbEntity
  8
太線
370
    25
100
AcDbLine
 10
184.4388131788064
 20
-32.37999048221922
 30
0.0
 11
186.4388131788064
 21
-32.37999048221922
 31
0.0
  0
ARC
  5
4EBA
330
1F
100
AcDbEntity
  8
太線
370
    25
100
AcDbCircle
 10
186.4388131788064
 20
-29.37999048221922
 30
0.0
 40
3.0
100
AcDbArc
 50
270.0
 51
0.0
  0
LINE
  5
4EBB
330
1F
100
AcDbEntity
  8
太線
370
    25
100
AcDbLine
 10
189.43494906989
 20
-4.106354209889104
 30
0.0
 11
189.43494906989
 21
14.42537181410841
 31
0.0
  0
LINE
  5
4EBC
330
1F
100
AcDbEntity
  8
細線
100
AcDbLine
 10
184.4388131788064
 20
1.303745564136193
 30
0.0
 11
184.2942435573499
 21
1.303745564136193
 31
0.0
  0
LINE
  5
4EBD
330
1F
100
AcDbEntity
  8
細線
100
AcDbLine
 10
184.4388131788064
 20
2.303745564136193
 30
0.0
 11
184.2942435573499
 21
2.303745564136193
 31
0.0
  0
LINE
  5
4EBE
330
1F
100
AcDbEntity
  8
太線
370
    25
100
AcDbLine
 10
184.4388131788064
 20
17.62000951778077
 30
0.0
 11
186.4388131788064
 21
17.6200095177808
 31
0.0
  0
LINE
  5
4EBF
330
1F
100
AcDbEntity
  8
細線
100
AcDbLine
 10
184.4388131788064
 20
10.30374556413619
 30
0.0
 11
184.2942435573499
 21
10.30374556413619
 31
0.0
  0
LINE
  5
4EC0
330
1F
100
AcDbEntity
  8
細線
100
AcDbLine
 10
184.4388131788064
 20
11.30374556413619
 30
0.0
 11
184.2942435573499
 21
11.30374556413619
 31
0.0
  0
LINE
  5
4EC1
330
1F
100
AcDbEntity
  8
破線
100
AcDbLine
 10
189.43494906989
 20
14.42537181410841
 30
0.0
 11
189.43494906989
 21
14.42537181410841
 31
0.0
  0
ARC
  5
4EC2
330
1F
100
AcDbEntity
  8
太線
370
    25
100
AcDbCircle
 10
186.4388131788064
 20
14.6200095177808
 30
0.0
 40
3.0
100
AcDbArc
 50
0.0
 51
90.0
  0
LINE
  5
4F1C
330
1F
100
AcDbEntity
  8
細線
370
    25
100
AcDbLine
 10
29.51407885626577
 20
-22.37999048221922
 30
0.0
 11
49.51407885626577
 21
-22.37999048221922
 31
0.0
  0
LINE
  5
4F1D
330
1F
100
AcDbEntity
  8
太線
370
    25
100
AcDbLine
 10
14.01407885626577
 20
17.62000951778077
 30
0.0
 11
65.01407885626576
 21
17.6200095177808
 31
0.0
  0
LINE
  5
4F1E
330
1F
100
AcDbEntity
  8
太線
370
    25
100
AcDbLine
 10
65.01407885626576
 20
-32.37999048221922
 30
0.0
 11
14.01407885626577
 21
-32.37999048221922
 31
0.0
  0
LINE
  5
4F1F
330
1F
100
AcDbEntity
  8
想像線
370
    25
100
AcDbLine
 10
14.37007443772381
 20
-22.37999048221922
 30
0.0
 11
14.37007443772381
 21
17.62000951778077
 31
0.0
  0
LINE
  5
4F20
330
1F
100
AcDbEntity
  8
太線
370
    25
100
AcDbLine
 10
9.370074437723815
 20
-29.37999048221922
 30
0.0
 11
9.370074437723815
 21
14.62000951778077
 31
0.0
  0
ARC
  5
4F21
330
1F
100
AcDbEntity
  8
太線
370
    25
100
AcDbCircle
 10
12.37007443772381
 20
-29.37999048221922
 30
0.0
 40
3.0
100
AcDbArc
 50
180.0
 51
270.0
  0
LINE
  5
4F23
330
1F
100
AcDbEntity
  8
想像線
370
    25
100
AcDbLine
 10
29.51407885626577
 20
-22.37999048221922
 30
0.0
 11
15.01407885626576
 21
-22.37999048221922
 31
0.0
  0
LINE
  5
4F26
330
1F
100
AcDbEntity
  8
太線
370
    25
100
AcDbLine
 10
12.37007443772381
 20
-32.37999048221922
 30
0.0
 11
14.37007443772381
 21
-32.37999048221922
 31
0.0
  0
LINE
  5
4F28
330
1F
100
AcDbEntity
  8
想像線
370
    25
100
AcDbLine
 10
33.37007443772381
 20
-22.37999048221922
 30
0.0
 11
33.37007443772381
 21
-32.37999048221922
 31
0.0
  0
ARC
  5
4F29
330
1F
100
AcDbEntity
  8
太線
370
    25
100
AcDbCircle
 10
12.37007443772381
 20
14.62000951778077
 30
0.0
 40
3.0
100
AcDbArc
 50
90.0
 51
180.0
  0
ARC
  5
4F2A
330
1F
100
AcDbEntity
  8
太線
370
    25
100
AcDbCircle
 10
12.37007443772381
 20
14.6200095177808
 30
0.0
 40
3.0
100
AcDbArc
 50
90.0
 51
180.0
  0
LINE
  5
4F2B
330
1F
100
AcDbEntity
  8
想像線
370
    25
100
AcDbLine
 10
4.922628006914237
 20
9.61612781992494
 30
0.0
 11
14.12752909562686
 21
9.61612781992494
 31
0.0
  0
LINE
  5
4F2C
330
1F
100
AcDbEntity
  8
想像線
370
    25
100
AcDbLine
 10
4.829969687619723
 20
11.24880685222956
 30
0.0
 11
14.19235903191929
 21
11.24880685222956
 31
0.0
  0
LINE
  5
4F2D
330
1F
100
AcDbEntity
  8
想像線
370
    25
100
AcDbLine
 10
5.604471547942921
 20
0.0814024424994386
 30
0.0
 11
14.12752909562686
 21
0.0814024424994386
 31
0.0
  0
LINE
  5
4F2E
330
1F
100
AcDbEntity
  8
想像線
370
    25
100
AcDbLine
 10
5.083009032711743
 20
1.391817111308
 30
0.0
 11
14.44539837701177
 21
1.391817111308
 31
0.0
  0
LINE
  5
4F30
330
1F
100
AcDbEntity
  8
太線
370
    25
100
AcDbLine
 10
9.373938546640147
 20
-4.106354209889104
 30
0.0
 11
9.373938546640147
 21
14.42537181410841
 31
0.0
  0
ARC
  5
4F31
330
1F
100
AcDbEntity
  8
太線
370
    25
100
AcDbCircle
 10
39.02393854664001
 20
6.30374556413605
 30
0.0
 40
34.65
100
AcDbArc
 50
167.4993777707554
 51
192.5006222292446
  0
LINE
  5
4F32
330
1F
100
AcDbEntity
  8
太線
370
    25
100
AcDbLine
 10
9.373938546640147
 20
-2.962105473924623
 30
0.0
 11
5.195363347557304
 21
-1.196254435863977
 31
0.0
  0
LINE
  5
4F33
330
1F
100
AcDbEntity
  8
破線
100
AcDbLine
 10
9.373938546640147
 20
14.42537181410841
 30
0.0
 11
9.373938546640147
 21
14.42537181410841
 31
0.0
  0
LINE
  5
4F34
330
1F
100
AcDbEntity
  8
太線
370
    25
100
AcDbLine
 10
9.550288084701378
 20
15.6441212906397
 30
0.0
 11
5.195363347557304
 21
13.80374556413613
 31
0.0
  0
LINE
  5
4F35
330
1F
100
AcDbEntity
  8
細線
100
AcDbLine
 10
14.37007443772381
 20
1.303745564136193
 30
0.0
 11
14.51464405918022
 21
1.303745564136193
 31
0.0
  0
LINE
  5
4F36
330
1F
100
AcDbEntity
  8
細線
100
AcDbLine
 10
14.37007443772381
 20
2.303745564136193
 30
0.0
 11
14.51464405918022
 21
2.303745564136193
 31
0.0
  0
LINE
  5
4F37
330
1F
100
AcDbEntity
  8
細線
100
AcDbLine
 10
14.37007443772381
 20
11.30374556413619
 30
0.0
 11
14.51464405918022
 21
11.30374556413619
 31
0.0
  0
LINE
  5
4F38
330
1F
100
AcDbEntity
  8
細線
100
AcDbLine
 10
14.37007443772381
 20
10.30374556413619
 30
0.0
 11
14.51464405918022
 21
10.30374556413619
 31
0.0
  0
LINE
  5
4F39
330
1F
100
AcDbEntity
  8
太線
370
    25
100
AcDbLine
 10
14.37007443772381
 20
17.62000951778077
 30
0.0
 11
12.37007443772381
 21
17.62000951778077
 31
0.0
  0
LINE
  5
4F3A
330
1F
100
AcDbEntity
  8
太線
370
    25
100
AcDbLine
 10
14.37007443772381
 20
17.62000951778077
 30
0.0
 11
12.37007443772381
 21
17.6200095177808
 31
0.0
  0
LINE
  5
4F3B
330
1F
100
AcDbEntity
  8
想像線
370
    25
100
AcDbLine
 10
64.37007443772381
 20
17.62000951778077
 30
0.0
 11
64.37007443772381
 21
-22.37999048221922
 31
0.0
  0
LINE
  5
4F3C
330
1F
100
AcDbEntity
  8
太線
370
    25
100
AcDbLine
 10
69.37007443772381
 20
14.6200095177808
 30
0.0
 11
69.37007443772381
 21
-29.37999048221922
 31
0.0
  0
LINE
  5
4F3E
330
1F
100
AcDbEntity
  8
想像線
370
    25
100
AcDbLine
 10
64.01407885626577
 20
-22.37999048221922
 30
0.0
 11
49.51407885626577
 21
-22.37999048221922
 31
0.0
  0
LINE
  5
4F3F
330
1F
100
AcDbEntity
  8
想像線
370
    25
100
AcDbLine
 10
45.37007443772381
 20
-22.37999048221922
 30
0.0
 11
45.37007443772381
 21
-32.37999048221922
 31
0.0
  0
LINE
  5
4F41
330
1F
100
AcDbEntity
  8
太線
370
    25
100
AcDbLine
 10
64.37007443772381
 20
-32.37999048221922
 30
0.0
 11
66.37007443772382
 21
-32.37999048221922
 31
0.0
  0
ARC
  5
4F42
330
1F
100
AcDbEntity
  8
太線
370
    25
100
AcDbCircle
 10
66.37007443772382
 20
-29.37999048221922
 30
0.0
 40
3.0
100
AcDbArc
 50
270.0
 51
0.0
  0
LINE
  5
4F43
330
1F
100
AcDbEntity
  8
太線
370
    25
100
AcDbLine
 10
69.36621032880748
 20
-4.106354209889104
 30
0.0
 11
69.36621032880748
 21
14.42537181410841
 31
0.0
  0
LINE
  5
4F44
330
1F
100
AcDbEntity
  8
細線
100
AcDbLine
 10
64.37007443772381
 20
1.303745564136193
 30
0.0
 11
64.2255048162674
 21
1.303745564136193
 31
0.0
  0
LINE
  5
4F45
330
1F
100
AcDbEntity
  8
細線
100
AcDbLine
 10
64.37007443772381
 20
2.303745564136193
 30
0.0
 11
64.2255048162674
 21
2.303745564136193
 31
0.0
  0
LINE
  5
4F46
330
1F
100
AcDbEntity
  8
太線
370
    25
100
AcDbLine
 10
64.37007443772381
 20
17.62000951778077
 30
0.0
 11
66.37007443772382
 21
17.6200095177808
 31
0.0
  0
LINE
  5
4F47
330
1F
100
AcDbEntity
  8
細線
100
AcDbLine
 10
64.37007443772381
 20
10.30374556413619
 30
0.0
 11
64.2255048162674
 21
10.30374556413619
 31
0.0
  0
LINE
  5
4F48
330
1F
100
AcDbEntity
  8
細線
100
AcDbLine
 10
64.37007443772381
 20
11.30374556413619
 30
0.0
 11
64.2255048162674
 21
11.30374556413619
 31
0.0
  0
LINE
  5
4F49
330
1F
100
AcDbEntity
  8
破線
100
AcDbLine
 10
69.36621032880748
 20
14.42537181410841
 30
0.0
 11
69.36621032880748
 21
14.42537181410841
 31
0.0
  0
ARC
  5
4F4A
330
1F
100
AcDbEntity
  8
太線
370
    25
100
AcDbCircle
 10
66.37007443772382
 20
14.6200095177808
 30
0.0
 40
3.0
100
AcDbArc
 50
0.0
 51
90.0
  0
LINE
  5
4FA3
330
1F
100
AcDbEntity
  8
想像線
100
AcDbLine
 10
701.9083448042863
 20
-22.37999048221922
 30
0.0
 11
721.9083448042863
 21
-22.37999048221922
 31
0.0
  0
LINE
  5
4FA5
330
1F
100
AcDbEntity
  8
太線
100
AcDbLine
 10
336.5315314298734
 20
-3.606185817212917
 30
0.0
 11
356.9114238369647
 21
-3.606185817212917
 31
0.0
  0
LINE
  5
4FA6
330
1F
100
AcDbEntity
  8
細線
370
    25
100
AcDbLine
 10
336.7085164124846
 20
-22.37999048221922
 30
0.0
 11
356.7085164124846
 21
-22.37999048221922
 31
0.0
  0
LINE
  5
4FA7
330
1F
100
AcDbEntity
  8
太線
370
    25
100
AcDbLine
 10
336.9253233362391
 20
-22.37999048221922
 30
0.0
 11
356.925323336239
 21
-22.37999048221922
 31
0.0
  0
LINE
  5
4FA8
330
1F
100
AcDbEntity
  8
細線
370
    25
100
AcDbLine
 10
336.7085164124846
 20
-22.37999048221922
 30
0.0
 11
356.7085164124846
 21
-22.37999048221922
 31
0.0
  0
LINE
  5
4FA9
330
1F
100
AcDbEntity
  8
太線
370
    25
100
AcDbLine
 10
321.2085164124846
 20
17.62000951778077
 30
0.0
 11
372.2085164124846
 21
17.6200095177808
 31
0.0
  0
LINE
  5
4FAA
330
1F
100
AcDbEntity
  8
太線
370
    25
100
AcDbLine
 10
372.2085164124846
 20
-32.37999048221922
 30
0.0
 11
321.2085164124846
 21
-32.37999048221922
 31
0.0
  0
LINE
  5
4FAB
330
1F
100
AcDbEntity
  8
太線
100
AcDbLine
 10
335.5315314298734
 20
-4.606185817212917
 30
0.0
 11
335.5315314298734
 21
-22.37999048221922
 31
0.0
  0
LINE
  5
4FAC
330
1F
100
AcDbEntity
  8
想像線
370
    25
100
AcDbLine
 10
321.5645119939427
 20
-22.37999048221922
 30
0.0
 11
321.5645119939427
 21
17.62000951778077
 31
0.0
  0
LINE
  5
4FAD
330
1F
100
AcDbEntity
  8
太線
370
    25
100
AcDbLine
 10
316.5645119939426
 20
-29.37999048221922
 30
0.0
 11
316.5645119939426
 21
14.62000951778077
 31
0.0
  0
ARC
  5
4FAE
330
1F
100
AcDbEntity
  8
太線
370
    25
100
AcDbCircle
 10
319.5645119939427
 20
-29.37999048221922
 30
0.0
 40
3.0
100
AcDbArc
 50
180.0
 51
270.0
  0
LINE
  5
4FB0
330
1F
100
AcDbEntity
  8
想像線
370
    25
100
AcDbLine
 10
336.7085164124846
 20
-22.37999048221922
 30
0.0
 11
322.2085164124846
 21
-22.37999048221922
 31
0.0
  0
LINE
  5
4FB3
330
1F
100
AcDbEntity
  8
太線
370
    25
100
AcDbLine
 10
319.5645119939427
 20
-32.37999048221922
 30
0.0
 11
321.5645119939427
 21
-32.37999048221922
 31
0.0
  0
LINE
  5
4FB4
330
1F
100
AcDbEntity
  8
想像線
370
    25
100
AcDbLine
 10
336.7085164124846
 20
-22.37999048221922
 30
0.0
 11
336.5645119939427
 21
-32.37999048221922
 31
0.0
  0
ARC
  5
4FB6
330
1F
100
AcDbEntity
  8
太線
370
    25
100
AcDbCircle
 10
319.5645119939427
 20
14.62000951778077
 30
0.0
 40
3.0
100
AcDbArc
 50
90.0
 51
180.0
  0
ARC
  5
4FB7
330
1F
100
AcDbEntity
  8
太線
370
    25
100
AcDbCircle
 10
319.5645119939427
 20
14.6200095177808
 30
0.0
 40
3.0
100
AcDbArc
 50
90.0
 51
180.0
  0
LINE
  5
4FB8
330
1F
100
AcDbEntity
  8
想像線
370
    25
100
AcDbLine
 10
312.1170655631331
 20
9.61612781992494
 30
0.0
 11
321.3219666518457
 21
9.61612781992494
 31
0.0
  0
LINE
  5
4FB9
330
1F
100
AcDbEntity
  8
想像線
370
    25
100
AcDbLine
 10
312.0244072438385
 20
11.24880685222956
 30
0.0
 11
321.3867965881381
 21
11.24880685222956
 31
0.0
  0
LINE
  5
4FBA
330
1F
100
AcDbEntity
  8
想像線
370
    25
100
AcDbLine
 10
312.7989091041618
 20
0.0814024424994386
 30
0.0
 11
321.3219666518457
 21
0.0814024424994386
 31
0.0
  0
LINE
  5
4FBB
330
1F
100
AcDbEntity
  8
想像線
370
    25
100
AcDbLine
 10
312.2774465889306
 20
1.391817111308
 30
0.0
 11
321.6398359332306
 21
1.391817111308
 31
0.0
  0
LINE
  5
4FBD
330
1F
100
AcDbEntity
  8
太線
370
    25
100
AcDbLine
 10
316.568376102859
 20
-4.106354209889104
 30
0.0
 11
316.568376102859
 21
14.42537181410841
 31
0.0
  0
ARC
  5
4FBE
330
1F
100
AcDbEntity
  8
太線
370
    25
100
AcDbCircle
 10
346.2183761028589
 20
6.30374556413605
 30
0.0
 40
34.65
100
AcDbArc
 50
167.4993777707554
 51
192.5006222292446
  0
LINE
  5
4FBF
330
1F
100
AcDbEntity
  8
太線
370
    25
100
AcDbLine
 10
316.568376102859
 20
-2.962105473924623
 30
0.0
 11
312.3898009037761
 21
-1.196254435863977
 31
0.0
  0
LINE
  5
4FC0
330
1F
100
AcDbEntity
  8
破線
100
AcDbLine
 10
316.568376102859
 20
14.42537181410841
 30
0.0
 11
316.568376102859
 21
14.42537181410841
 31
0.0
  0
LINE
  5
4FC1
330
1F
100
AcDbEntity
  8
太線
370
    25
100
AcDbLine
 10
316.7447256409202
 20
15.6441212906397
 30
0.0
 11
312.3898009037761
 21
13.80374556413613
 31
0.0
  0
LINE
  5
4FC2
330
1F
100
AcDbEntity
  8
細線
100
AcDbLine
 10
321.5645119939427
 20
1.303745564136193
 30
0.0
 11
321.7090816153991
 21
1.303745564136193
 31
0.0
  0
LINE
  5
4FC3
330
1F
100
AcDbEntity
  8
細線
100
AcDbLine
 10
321.5645119939427
 20
2.303745564136193
 30
0.0
 11
321.7090816153991
 21
2.303745564136193
 31
0.0
  0
ARC
  5
4FC4
330
1F
100
AcDbEntity
  8
太線
100
AcDbCircle
 10
336.5315314298734
 20
-4.606185817212917
 30
0.0
 40
1.0
100
AcDbArc
 50
90.0
 51
180.0
  0
LINE
  5
4FC5
330
1F
100
AcDbEntity
  8
細線
100
AcDbLine
 10
321.5645119939427
 20
11.30374556413619
 30
0.0
 11
321.7090816153991
 21
11.30374556413619
 31
0.0
  0
LINE
  5
4FC6
330
1F
100
AcDbEntity
  8
細線
100
AcDbLine
 10
321.5645119939427
 20
10.30374556413619
 30
0.0
 11
321.7090816153991
 21
10.30374556413619
 31
0.0
  0
LINE
  5
4FC7
330
1F
100
AcDbEntity
  8
太線
370
    25
100
AcDbLine
 10
321.5645119939427
 20
17.62000951778077
 30
0.0
 11
319.5645119939427
 21
17.62000951778077
 31
0.0
  0
LINE
  5
4FC8
330
1F
100
AcDbEntity
  8
太線
370
    25
100
AcDbLine
 10
321.5645119939427
 20
17.62000951778077
 30
0.0
 11
319.5645119939427
 21
17.6200095177808
 31
0.0
  0
LINE
  5
4FC9
330
1F
100
AcDbEntity
  8
太線
100
AcDbLine
 10
357.9114238369648
 20
-4.606185817212917
 30
0.0
 11
357.9114238369648
 21
-22.37999048221922
 31
0.0
  0
LINE
  5
4FCA
330
1F
100
AcDbEntity
  8
想像線
370
    25
100
AcDbLine
 10
371.5645119939427
 20
17.62000951778077
 30
0.0
 11
371.5645119939427
 21
-22.37999048221922
 31
0.0
  0
LINE
  5
4FCB
330
1F
100
AcDbEntity
  8
太線
370
    25
100
AcDbLine
 10
376.5645119939426
 20
14.6200095177808
 30
0.0
 11
376.5645119939426
 21
-29.37999048221922
 31
0.0
  0
LINE
  5
4FCD
330
1F
100
AcDbEntity
  8
想像線
370
    25
100
AcDbLine
 10
371.2085164124846
 20
-22.37999048221922
 30
0.0
 11
356.7085164124846
 21
-22.37999048221922
 31
0.0
  0
LINE
  5
4FCF
330
1F
100
AcDbEntity
  8
想像線
370
    25
100
AcDbLine
 10
356.7085164124846
 20
-22.37999048221922
 30
0.0
 11
356.5645119939426
 21
-32.37999048221922
 31
0.0
  0
LINE
  5
4FD0
330
1F
100
AcDbEntity
  8
太線
370
    25
100
AcDbLine
 10
371.5645119939427
 20
-32.37999048221922
 30
0.0
 11
373.5645119939427
 21
-32.37999048221922
 31
0.0
  0
ARC
  5
4FD1
330
1F
100
AcDbEntity
  8
太線
370
    25
100
AcDbCircle
 10
373.5645119939427
 20
-29.37999048221922
 30
0.0
 40
3.0
100
AcDbArc
 50
270.0
 51
0.0
  0
LINE
  5
4FD2
330
1F
100
AcDbEntity
  8
太線
370
    25
100
AcDbLine
 10
376.5606478850263
 20
-4.106354209889104
 30
0.0
 11
376.5606478850263
 21
14.42537181410841
 31
0.0
  0
ARC
  5
4FD3
330
1F
100
AcDbEntity
  8
太線
100
AcDbCircle
 10
356.9114238369647
 20
-4.606185817212917
 30
0.0
 40
1.0
100
AcDbArc
 50
0.0000000000001018
 51
90.0
  0
LINE
  5
4FD4
330
1F
100
AcDbEntity
  8
細線
100
AcDbLine
 10
371.5645119939427
 20
1.303745564136193
 30
0.0
 11
371.4199423724863
 21
1.303745564136193
 31
0.0
  0
LINE
  5
4FD5
330
1F
100
AcDbEntity
  8
細線
100
AcDbLine
 10
371.5645119939427
 20
2.303745564136193
 30
0.0
 11
371.4199423724863
 21
2.303745564136193
 31
0.0
  0
LINE
  5
4FD6
330
1F
100
AcDbEntity
  8
太線
370
    25
100
AcDbLine
 10
371.5645119939427
 20
17.62000951778077
 30
0.0
 11
373.5645119939427
 21
17.6200095177808
 31
0.0
  0
LINE
  5
4FD7
330
1F
100
AcDbEntity
  8
細線
100
AcDbLine
 10
371.5645119939427
 20
10.30374556413619
 30
0.0
 11
371.4199423724863
 21
10.30374556413619
 31
0.0
  0
LINE
  5
4FD8
330
1F
100
AcDbEntity
  8
細線
100
AcDbLine
 10
371.5645119939427
 20
11.30374556413619
 30
0.0
 11
371.4199423724863
 21
11.30374556413619
 31
0.0
  0
LINE
  5
4FD9
330
1F
100
AcDbEntity
  8
破線
100
AcDbLine
 10
376.5606478850263
 20
14.42537181410841
 30
0.0
 11
376.5606478850263
 21
14.42537181410841
 31
0.0
  0
ARC
  5
4FDA
330
1F
100
AcDbEntity
  8
太線
370
    25
100
AcDbCircle
 10
373.5645119939427
 20
14.6200095177808
 30
0.0
 40
3.0
100
AcDbArc
 50
0.0
 51
90.0
  0
XLINE
  5
5033
330
1F
100
AcDbEntity
  8
構築線
100
AcDbXline
 10
448.3945803774103
 20
60.30294005130599
 30
0.0
 11
1.0
 21
0.0
 31
0.0
  0
CIRCLE
  5
503D
330
1F
100
AcDbEntity
  8
太線
100
AcDbCircle
 10
346.5645119939427
 20
60.30294005130599
 30
0.0
 40
5.076384983987622
  0
CIRCLE
  5
503E
330
1F
100
AcDbEntity
  8
太線
100
AcDbCircle
 10
346.5645119939427
 20
60.30294005130599
 30
0.0
 40
29.5
  0
CIRCLE
  5
503F
330
1F
100
AcDbEntity
  8
太線
100
AcDbCircle
 10
346.5645119939427
 20
60.30294005130599
 30
0.0
 40
24.5
  0
ARC
  5
5040
330
1F
100
AcDbEntity
  8
太線
370
    25
100
AcDbCircle
 10
347.5029754273173
 20
60.61881281771625
 30
0.0
 40
34.65
100
AcDbArc
 50
167.4993777707554
 51
192.5006222292446
  0
LINE
  5
5041
330
1F
100
AcDbEntity
  8
太線
370
    25
100
AcDbLine
 10
317.8529754273174
 20
51.35296177965557
 30
0.0
 11
313.6744002282346
 21
53.11881281771622
 31
0.0
  0
CIRCLE
  5
5042
330
1F
100
AcDbEntity
  8
太線
100
AcDbCircle
 10
328.3899177389346
 20
60.30294005130617
 30
0.0
 40
4.0
  0
LINE
  5
5043
330
1F
100
AcDbEntity
  8
太線
370
    25
100
AcDbLine
 10
318.0293249653786
 20
69.9591885442199
 30
0.0
 11
313.6744002282346
 21
68.11881281771633
 31
0.0
  0
CIRCLE
  5
5044
330
1F
100
AcDbEntity
  8
太線
100
AcDbCircle
 10
355.6518091214468
 20
44.56327972299419
 30
0.0
 40
4.0
  0
CIRCLE
  5
5045
330
1F
100
AcDbEntity
  8
太線
100
AcDbCircle
 10
355.6518091214466
 20
76.04260037961774
 30
0.0
 40
4.0
  0
CIRCLE
  5
5062
330
1F
100
AcDbEntity
  8
太線
100
AcDbCircle
 10
39.37007443772381
 20
147.9595454100089
 30
0.0
 40
14.69999999999999
  0
CIRCLE
  5
5063
330
1F
100
AcDbEntity
  8
太線
100
AcDbCircle
 10
39.37007443772381
 20
147.9595454100089
 30
0.0
 40
17.7
  0
ARC
  5
5064
330
1F
100
AcDbEntity
  8
太線
370
    25
100
AcDbCircle
 10
39.93315249774861
 20
148.149069069855
 30
0.0
 40
20.79
100
AcDbArc
 50
167.4993777707554
 51
192.5006222292446
  0
LINE
  5
5065
330
1F
100
AcDbEntity
  8
太線
370
    25
100
AcDbLine
 10
22.1431524977487
 20
142.5895584470187
 30
0.0
 11
19.63600737829898
 21
143.6490690698551
 31
0.0
  0
LINE
  5
5066
330
1F
100
AcDbEntity
  8
太線
370
    25
100
AcDbLine
 10
22.24896222058544
 20
153.7532945057573
 30
0.0
 11
19.63600737829898
 21
152.6490690698551
 31
0.0
  0
CIRCLE
  5
5068
330
1F
100
AcDbEntity
  8
太線
100
AcDbCircle
 10
39.37007443772381
 20
147.9595454100089
 30
0.0
 40
12.19546948629039
  0
LINE
  5
5092
330
1F
100
AcDbEntity
  8
太線
370
    25
100
AcDbLine
 10
170.4772448116013
 20
124.1923350179907
 30
0.0
 11
139.8772448116013
 21
124.1923350179907
 31
0.0
  0
LINE
  5
5093
330
1F
100
AcDbEntity
  8
太線
370
    25
100
AcDbLine
 10
139.8772448116013
 20
154.1923350179907
 30
0.0
 11
170.4772448116013
 21
154.1923350179907
 31
0.0
  0
ARC
  5
5098
330
1F
100
AcDbEntity
  8
太線
370
    25
100
AcDbCircle
 10
154.8831606258258
 20
147.4025766458039
 30
0.0
 40
20.79
100
AcDbArc
 50
167.4993777707554
 51
192.5006222292446
  0
LINE
  5
5099
330
1F
100
AcDbEntity
  8
太線
370
    25
100
AcDbLine
 10
137.0931606258259
 20
141.1565167813888
 30
0.0
 11
137.0931606258259
 21
152.2755523957873
 31
0.0
  0
LINE
  5
509A
330
1F
100
AcDbEntity
  8
太線
370
    25
100
AcDbLine
 10
137.0908421604761
 20
124.1923350179907
 30
0.0
 11
137.0908421604761
 21
152.3923350179907
 31
0.0
  0
LINE
  5
509B
330
1F
100
AcDbEntity
  8
想像線
370
    25
100
AcDbLine
 10
140.0908421604761
 20
124.1923350179907
 30
0.0
 11
140.0908421604761
 21
154.1923350179907
 31
0.0
  0
LINE
  5
509E
330
1F
100
AcDbEntity
  8
太線
370
    25
100
AcDbLine
 10
138.890842160476
 20
124.1923350179907
 30
0.0
 11
140.0908421604761
 21
124.1923350179907
 31
0.0
  0
LINE
  5
50A1
330
1F
100
AcDbEntity
  8
太線
370
    25
100
AcDbLine
 10
137.0931606258259
 20
141.8430660229675
 30
0.0
 11
134.5860155063762
 21
142.9025766458039
 31
0.0
  0
LINE
  5
50A2
330
1F
100
AcDbEntity
  8
想像線
370
    25
100
AcDbLine
 10
134.8314804266075
 20
143.6691707728219
 30
0.0
 11
139.9453149552179
 21
143.6691707728219
 31
0.0
  0
LINE
  5
50AA
330
1F
100
AcDbEntity
  8
太線
370
    25
100
AcDbLine
 10
140.0908421604761
 20
154.1923350179907
 30
0.0
 11
138.890842160476
 21
154.1923350179907
 31
0.0
  0
LINE
  5
50AB
330
1F
100
AcDbEntity
  8
太線
370
    25
100
AcDbLine
 10
140.0908421604761
 20
154.1923350179907
 30
0.0
 11
138.890842160476
 21
154.1923350179907
 31
0.0
  0
LINE
  5
50AC
330
1F
100
AcDbEntity
  8
細線
100
AcDbLine
 10
140.0908421604761
 20
149.802576645804
 30
0.0
 11
140.17758393335
 21
149.802576645804
 31
0.0
  0
LINE
  5
50AD
330
1F
100
AcDbEntity
  8
細線
100
AcDbLine
 10
140.0908421604761
 20
150.402576645804
 30
0.0
 11
140.17758393335
 21
150.402576645804
 31
0.0
  0
LINE
  5
50AE
330
1F
100
AcDbEntity
  8
細線
100
AcDbLine
 10
140.0908421604761
 20
145.002576645804
 30
0.0
 11
140.17758393335
 21
145.002576645804
 31
0.0
  0
LINE
  5
50AF
330
1F
100
AcDbEntity
  8
細線
100
AcDbLine
 10
140.0908421604761
 20
144.402576645804
 30
0.0
 11
140.17758393335
 21
144.402576645804
 31
0.0
  0
LINE
  5
50B0
330
1F
100
AcDbEntity
  8
太線
370
    25
100
AcDbLine
 10
137.1989703486627
 20
153.0068020817061
 30
0.0
 11
134.5860155063762
 21
151.9025766458039
 31
0.0
  0
LINE
  5
50B1
330
1F
100
AcDbEntity
  8
破線
100
AcDbLine
 10
137.0931606258259
 20
152.2755523957873
 30
0.0
 11
137.0931606258259
 21
152.2755523957873
 31
0.0
  0
LINE
  5
50B2
330
1F
100
AcDbEntity
  8
想像線
370
    25
100
AcDbLine
 10
134.5186029174688
 20
144.455419574107
 30
0.0
 11
140.1360365240489
 21
144.455419574107
 31
0.0
  0
LINE
  5
50B3
330
1F
100
AcDbEntity
  8
想像線
370
    25
100
AcDbLine
 10
134.3667793104137
 20
150.36961341866
 30
0.0
 11
139.9842129169933
 21
150.36961341866
 31
0.0
  0
LINE
  5
50B4
330
1F
100
AcDbEntity
  8
想像線
370
    25
100
AcDbLine
 10
134.4223743019903
 20
149.3900059992772
 30
0.0
 11
139.9453149552179
 21
149.3900059992772
 31
0.0
  0
ARC
  5
50B5
330
1F
100
AcDbEntity
  8
太線
370
    25
100
AcDbCircle
 10
138.890842160476
 20
152.3923350179907
 30
0.0
 40
1.799999999999999
100
AcDbArc
 50
90.0
 51
180.0
  0
ARC
  5
50B6
330
1F
100
AcDbEntity
  8
太線
370
    25
100
AcDbCircle
 10
138.890842160476
 20
152.3923350179907
 30
0.0
 40
1.799999999999999
100
AcDbArc
 50
90.0
 51
180.0
  0
LINE
  5
50B7
330
1F
100
AcDbEntity
  8
太線
370
    25
100
AcDbLine
 10
173.0885236951263
 20
141.1565167813888
 30
0.0
 11
173.0885236951263
 21
152.2755523957873
 31
0.0
  0
LINE
  5
50B9
330
1F
100
AcDbEntity
  8
太線
370
    25
100
AcDbLine
 10
173.0908421604761
 20
152.3923350179907
 30
0.0
 11
173.0908421604761
 21
124.1923350179907
 31
0.0
  0
LINE
  5
50BA
330
1F
100
AcDbEntity
  8
想像線
370
    25
100
AcDbLine
 10
170.0908421604761
 20
154.1923350179907
 30
0.0
 11
170.0908421604761
 21
124.1923350179907
 31
0.0
  0
LINE
  5
50C0
330
1F
100
AcDbEntity
  8
太線
370
    25
100
AcDbLine
 10
170.0908421604761
 20
124.1923350179907
 30
0.0
 11
171.2908421604761
 21
124.1923350179907
 31
0.0
  0
ARC
  5
50C2
330
1F
100
AcDbEntity
  8
太線
370
    25
100
AcDbCircle
 10
171.2908421604761
 20
152.3923350179907
 30
0.0
 40
1.799999999999999
100
AcDbArc
 50
0.0
 51
90.0
  0
LINE
  5
50C3
330
1F
100
AcDbEntity
  8
破線
100
AcDbLine
 10
173.0885236951263
 20
152.2755523957873
 30
0.0
 11
173.0885236951263
 21
152.2755523957873
 31
0.0
  0
LINE
  5
50C4
330
1F
100
AcDbEntity
  8
細線
100
AcDbLine
 10
170.0908421604761
 20
150.402576645804
 30
0.0
 11
170.0041003876022
 21
150.402576645804
 31
0.0
  0
LINE
  5
50C5
330
1F
100
AcDbEntity
  8
細線
100
AcDbLine
 10
170.0908421604761
 20
149.802576645804
 30
0.0
 11
170.0041003876022
 21
149.802576645804
 31
0.0
  0
LINE
  5
50C6
330
1F
100
AcDbEntity
  8
太線
370
    25
100
AcDbLine
 10
170.0908421604761
 20
154.1923350179907
 30
0.0
 11
171.2908421604761
 21
154.1923350179907
 31
0.0
  0
LINE
  5
50C7
330
1F
100
AcDbEntity
  8
細線
100
AcDbLine
 10
170.0908421604761
 20
145.002576645804
 30
0.0
 11
170.0041003876022
 21
145.002576645804
 31
0.0
  0
LINE
  5
50C8
330
1F
100
AcDbEntity
  8
細線
100
AcDbLine
 10
170.0908421604761
 20
144.402576645804
 30
0.0
 11
170.0041003876022
 21
144.402576645804
 31
0.0
  0
LINE
  5
5125
330
1F
100
AcDbEntity
  8
太線
370
    25
100
AcDbLine
 10
336.5448531389937
 20
172.4320326627738
 30
0.0
 11
336.5152037193906
 21
163.4320815011331
 31
0.0
  0
LINE
  5
5126
330
1F
100
AcDbEntity
  8
太線
370
    25
100
AcDbLine
 10
335.515209145875
 20
163.435375881089
 30
0.0
 11
335.5448585654781
 21
172.4353270427297
 31
0.0
  0
LINE
  5
5127
330
1F
100
AcDbEntity
  8
太線
370
    25
100
AcDbLine
 10
337.5151982929063
 20
163.4287871211772
 30
0.0
 11
337.5448477125094
 21
172.428738282818
 31
0.0
  0
LINE
  5
5128
330
1F
100
AcDbEntity
  8
太線
370
    25
100
AcDbLine
 10
328.5448965508686
 20
172.4583877024209
 30
0.0
 11
328.5152471312656
 21
163.4584365407803
 31
0.0
  0
LINE
  5
5129
330
1F
100
AcDbEntity
  8
太線
370
    25
100
AcDbLine
 10
329.5152417047813
 20
163.4551421608244
 30
0.0
 11
329.5448911243843
 21
172.455093322465
 31
0.0
  0
LINE
  5
512A
330
1F
100
AcDbEntity
  8
太線
370
    25
100
AcDbLine
 10
327.5449019773531
 20
172.4616820823768
 30
0.0
 11
327.51525255775
 21
163.4617309207362
 31
0.0
  0
DIMENSION
  5
512B
330
1F
100
AcDbEntity
  8
寸法線
100
AcDbDimension
  2
*D35
 10
346.1622687825018
 20
162.4002948043815
 30
0.0
 11
342.6787596749766
 21
167.4117980018053
 31
0.0
 70
    33
  1
13
 71
     5
 42
10.00000000000005
  3
sunpo
100
AcDbAlignedDimension
 13
336.5448531389937
 23
172.4320326627738
 33
0.0
 14
336.5119093394347
 24
162.4320869276175
 34
0.0
1001
ACAD
1000
DSTYLE
1002
{
1070
    40
1040
1.0
1002
}
  0
LINE
  5
512C
330
1F
100
AcDbEntity
  8
太線
370
    25
100
AcDbLine
 10
327.51525255775
 20
163.4617309207362
 30
0.0
 11
337.5151982929063
 21
163.4287871211772
 31
0.0
  0
LINE
  5
512D
330
1F
100
AcDbEntity
  8
太線
370
    25
100
AcDbLine
 10
328.5119527513098
 20
162.4584419672647
 30
0.0
 11
336.5119093394347
 21
162.4320869276175
 31
0.0
  0
LINE
  5
512E
330
1F
100
AcDbEntity
  8
太線
370
    25
100
AcDbLine
 10
327.51525255775
 20
163.4617309207362
 30
0.0
 11
328.5119527513098
 21
162.4584419672647
 31
0.0
  0
LINE
  5
512F
330
1F
100
AcDbEntity
  8
太線
370
    25
100
AcDbLine
 10
328.5119527513098
 20
162.4584419672647
 30
0.0
 11
329.5152417047813
 21
163.4551421608244
 31
0.0
  0
LINE
  5
5130
330
1F
100
AcDbEntity
  8
太線
370
    25
100
AcDbLine
 10
336.5119093394347
 20
162.4320869276175
 30
0.0
 11
335.515209145875
 21
163.435375881089
 31
0.0
  0
LINE
  5
5131
330
1F
100
AcDbEntity
  8
太線
370
    25
100
AcDbLine
 10
336.5119093394347
 20
162.4320869276175
 30
0.0
 11
337.5151982929063
 21
163.4287871211772
 31
0.0
  0
LWPOLYLINE
  5
5132
330
1F
100
AcDbEntity
  8
太線
370
    25
100
AcDbPolyline
 90
        6
 70
     1
 43
0.0
 10
335.5778023650369
 20
182.4352727778859
 10
334.0863695549582
 20
185.0382764607532
 10
331.0863858344113
 20
185.0481596006209
 10
329.5778349239432
 20
182.4550390576214
 10
331.0692677340221
 20
179.8520353747541
 10
334.0692514545689
 20
179.8421522348865
  0
LINE
  5
5133
330
1F
100
AcDbEntity
  8
太線
370
    25
100
AcDbLine
 10
337.5448477125094
 20
172.428738282818
 30
0.0
 11
327.5449019773531
 21
172.4616820823768
 31
0.0
  0
CIRCLE
  5
5134
330
1F
100
AcDbEntity
  8
太線
370
    25
100
AcDbCircle
 10
332.57781864449
 20
182.4451559177537
 30
0.0
 40
3.999999999999994
  0
CIRCLE
  5
5135
330
1F
100
AcDbEntity
  8
太線
370
    25
100
AcDbCircle
 10
332.57781864449
 20
182.4451559177537
 30
0.0
 40
4.999999999999998
  0
TEXT
  5
5136
330
1F
100
AcDbEntity
  8
文字
100
AcDbText
 10
307.222434841016
 20
196.0201998576235
 30
0.0
 40
4.799999999999999
  1
8mm六角レンチ仕様
 51
15.0
  7
OKANO
100
AcDbText
  0
LEADER
  5
5137
330
1F
100
AcDbEntity
  8
寸法線
100
AcDbLeader
  3
sunpo
 76
     2
 10
332.939961747366
 20
184.3759901407822
 30
0.0
 10
341.1327508961445
 20
194.7429499459942
 30
0.0
1001
ACAD
1000
DSTYLE
1002
{
1070
   147
1040
1.0
1070
    77
1070
     0
1002
}
  0
TEXT
  5
514D
330
1F
100
AcDbEntity
  8
太線
100
AcDbText
 10
244.8737761785241
 20
234.8322612949614
 30
0.0
 40
7.0
  1
PF3/8 inch19yama クボミ先ホーローセット使用
 51
15.0
  7
OKANO
100
AcDbText
  0
DIMENSION
  5
514E
330
1F
100
AcDbEntity
  8
寸法線
100
AcDbDimension
  2
*D36
 10
756.0487202444508
 20
-22.37999048221923
 30
0.0
 11
752.5487202444508
 21
-27.37999048221911
 31
0.0
 70
    32
 71
     5
 42
10.0
  3
sunpo
100
AcDbAlignedDimension
 13
736.7643403857443
 23
-32.37999048221922
 33
0.0
 14
741.7643403857444
 24
-22.37999048221922
 34
0.0
 50
90.0
100
AcDbRotatedDimension
1001
ACAD
1000
DSTYLE
1002
{
1070
    40
1040
1.0
1002
}
  0
DIMENSION
  5
5168
330
1F
100
AcDbEntity
  8
寸法線
100
AcDbDimension
  2
*D37
 10
395.9163778198013
 20
89.80294005130598
 30
0.0
 11
392.4163778198013
 21
60.30294005130604
 31
0.0
 70
    32
  1
60
 71
     5
 42
59.0
  3
sunpo
100
AcDbAlignedDimension
 13
346.5645119939427
 23
30.80294005130598
 33
0.0
 14
346.5645119939427
 24
89.802940051306
 34
0.0
 50
90.0
100
AcDbRotatedDimension
1001
ACAD
1000
DSTYLE
1002
{
1070
    40
1040
1.0
1002
}
  0
DIMENSION
  5
5175
330
1F
100
AcDbEntity
  8
寸法線
100
AcDbDimension
  2
*D38
 10
376.0645119939427
 20
96.93016154099041
 30
0.0
 11
344.4594636072935
 21
100.4301615409904
 31
0.0
 70
    32
  1
65
 71
     5
 42
63.21009677329834
  3
sunpo
100
AcDbAlignedDimension
 13
312.8544152206443
 23
60.30294005130599
 33
0.0
 14
376.0645119939427
 24
60.30294005130599
 34
0.0
100
AcDbRotatedDimension
1001
ACAD
1000
DSTYLE
1002
{
1070
    40
1040
1.0
1002
}
  0
DIMENSION
  5
519D
330
1F
100
AcDbEntity
  8
寸法線
100
AcDbDimension
  2
*D39
 10
173.0885236951263
 20
164.7917502221423
 30
0.0
 11
153.5945731595828
 21
168.2917502221423
 31
0.0
 70
    32
  1
60
 71
     5
 42
38.98790107108695
  3
sunpo
100
AcDbAlignedDimension
 13
134.1006226240393
 23
147.9595454100089
 33
0.0
 14
173.0885236951263
 24
147.9595454100089
 34
0.0
100
AcDbRotatedDimension
1001
ACAD
1000
DSTYLE
1002
{
1070
    40
1040
1.0
1002
}
  0
DIMENSION
  5
51AA
330
1F
100
AcDbEntity
  8
寸法線
100
AcDbDimension
  2
*D40
 10
183.055606664361
 20
154.1923350179907
 30
0.0
 11
179.555606664361
 21
139.1923350179907
 31
0.0
 70
    32
  1
50
 71
     5
 42
29.99999999999998
  3
sunpo
100
AcDbAlignedDimension
 13
171.2908421604761
 23
124.1923350179907
 33
0.0
 14
171.2908421604761
 24
154.1923350179907
 34
0.0
 50
90.0
100
AcDbRotatedDimension
1001
ACAD
1000
DSTYLE
1002
{
1070
    40
1040
1.0
1002
}
  0
DIMENSION
  5
51D2
330
1F
100
AcDbEntity
  8
寸法線
100
AcDbDimension
  2
*D41
 10
416.0527031614951
 20
-160.7849011309316
 30
0.0
 11
412.5527031614952
 21
-164.7849011309315
 31
0.0
 70
    32
 71
     5
 42
8.0
  3
sunpo
100
AcDbAlignedDimension
 13
438.3181953934227
 23
-168.7849011309316
 33
0.0
 14
444.3181953934226
 24
-160.7849011309316
 34
0.0
 50
90.0
100
AcDbRotatedDimension
1001
ACAD
1000
DSTYLE
1002
{
1070
    40
1040
1.0
1002
}
  0
DIMENSION
  5
51F8
330
1F
100
AcDbEntity
  8
寸法線
100
AcDbDimension
  2
*D42
 10
645.5011106308252
 20
-163.7537047429888
 30
0.0
 11
642.0011106308252
 21
-172.9986230208906
 31
0.0
 70
    32
  1
30
 71
     5
 42
18.48983655580383
  3
sunpo
100
AcDbAlignedDimension
 13
711.7643403857443
 23
-182.2435412987926
 33
0.0
 14
718.9293181026775
 24
-163.7537047429888
 34
0.0
 50
90.0
100
AcDbRotatedDimension
1001
ACAD
1000
DSTYLE
1002
{
1070
    40
1040
1.0
1002
}
  0
DIMENSION
  5
5205
330
1F
100
AcDbEntity
  8
寸法線
100
AcDbDimension
  2
*D43
 10
645.5011106308252
 20
-147.7537047429888
 30
0.0
 11
642.0011106308252
 21
-155.7537047429887
 31
0.0
 70
    32
  1
14
 71
     5
 42
15.99999999999997
  3
sunpo
100
AcDbAlignedDimension
 13
687.2223612385305
 23
-163.7537047429888
 33
0.0
 14
696.9293181026776
 24
-147.7537047429888
 34
0.0
 50
90.0
100
AcDbRotatedDimension
1001
ACAD
1000
DSTYLE
1002
{
1070
    40
1040
1.0
1002
}
  0
DIMENSION
  5
5212
330
1F
100
AcDbEntity
  8
寸法線
100
AcDbDimension
  2
*D44
 10
645.5011106308252
 20
-124.2625195834211
 30
0.0
 11
642.0011106308252
 21
-132.262519583421
 31
0.0
 70
    32
  1
17
 71
     5
 42
16.00000000000001
  3
sunpo
100
AcDbAlignedDimension
 13
696.9293181026776
 23
-140.2625195834211
 33
0.0
 14
696.9293181026776
 24
-124.2625195834211
 34
0.0
 50
90.0
100
AcDbRotatedDimension
1001
ACAD
1000
DSTYLE
1002
{
1070
    40
1040
1.0
1002
}
  0
DIMENSION
  5
523A
330
1F
100
AcDbEntity
  8
寸法線
100
AcDbDimension
  2
*D45
 10
803.8089421291024
 20
-177.2435412987926
 30
0.0
 11
800.3089421291024
 21
-179.7435412987925
 31
0.0
 70
    32
 71
     5
 42
5.000000000000028
  3
sunpo
100
AcDbAlignedDimension
 13
791.7097904206187
 23
-182.2435412987926
 33
0.0
 14
786.7097904206186
 24
-177.2435412987926
 34
0.0
 50
90.0
100
AcDbRotatedDimension
1001
ACAD
1000
DSTYLE
1002
{
1070
    40
1040
1.0
1002
}
  0
DIMENSION
  5
5264
330
1F
100
AcDbEntity
  8
寸法線
100
AcDbDimension
  2
*D46
 10
606.4990407119219
 20
27.97616469175636
 30
0.0
 11
581.4990407119219
 21
31.47616469175636
 31
0.0
 70
    32
  1
49～50
 71
     5
 42
50.0
  3
sunpo
100
AcDbAlignedDimension
 13
556.4990407119219
 23
17.62000951778077
 33
0.0
 14
606.4990407119219
 24
17.62000951778077
 34
0.0
100
AcDbRotatedDimension
1001
ACAD
1000
DSTYLE
1002
{
1070
    40
1040
1.0
1002
}
  0
TEXT
  5
531C
330
1F
100
AcDbEntity
  8
文字
100
AcDbText
 10
525.3328596119685
 20
95.63273051271949
 30
0.0
 40
7.0
  1
Ｓ-15-1A500A(ｱﾝｶｰ）                                                                                                                                                                                 
 51
15.0
  7
OKANO
100
AcDbText
  0
LEADER
  5
531D
330
1F
100
AcDbEntity
  8
寸法線
100
AcDbLeader
  3
sunpo
 76
     2
 10
326.628728659146
 20
57.86496805925366
 30
0.0
 10
270.1027134848205
 20
49.3121362973186
 30
0.0
1001
ACAD
1000
DSTYLE
1002
{
1070
   147
1040
1.0
1070
    77
1070
     0
1002
}
  0
TEXT
  5
531E
330
1F
100
AcDbEntity
  8
文字
100
AcDbText
 10
246.6348876855969
 20
39.8201293916461
 30
0.0
 40
4.799999999999999
  1
水抜き穴８mm３個
 51
15.0
  7
OKANO
100
AcDbText
  0
TEXT
  5
531F
330
1F
100
AcDbEntity
  8
太線
100
AcDbText
 10
265.8073633685162
 20
107.5402484372877
 30
0.0
 40
7.0
  1
本体形状共通通（FCD450)                                                                                          
 51
15.0
  7
OKANO
100
AcDbText
  0
DIMENSION
  5
533E
330
1F
100
AcDbEntity
  8
寸法線
100
AcDbDimension
  2
*D47
 10
432.0873067252428
 20
-144.3451030441349
 30
0.0
 11
428.5873067252429
 21
-149.158123895034
 31
0.0
 70
    32
  1
10
 71
     5
 42
9.626041701798385
  3
sunpo
100
AcDbAlignedDimension
 13
443.3181953934226
 23
-153.9711447459333
 33
0.0
 14
443.3181953934226
 24
-144.3451030441349
 34
0.0
 50
90.0
100
AcDbRotatedDimension
1001
ACAD
1000
DSTYLE
1002
{
1070
    40
1040
1.0
1002
}
  0
LINE
  5
5355
330
1F
100
AcDbEntity
  8
破線
370
    25
100
AcDbLine
 10
474.9621998119646
 20
-144.3451030441349
 30
0.0
 11
423.9621998119646
 21
-144.3451030441349
 31
0.0
  0
LINE
  5
5356
330
1F
100
AcDbEntity
  8
破線
370
    25
100
AcDbLine
 10
423.9621998119646
 20
-94.34510304413493
 30
0.0
 11
474.9621998119646
 21
-94.34510304413491
 31
0.0
  0
LINE
  5
5357
330
1F
100
AcDbEntity
  8
破線
370
    25
100
AcDbLine
 10
439.4621998119646
 20
-134.3451030441349
 30
0.0
 11
459.4621998119646
 21
-134.3451030441349
 31
0.0
  0
LINE
  5
5358
330
1F
100
AcDbEntity
  8
破線
370
    25
100
AcDbLine
 10
419.3181953934226
 20
-141.3451030441349
 30
0.0
 11
419.3181953934226
 21
-97.34510304413493
 31
0.0
  0
LINE
  5
5359
330
1F
100
AcDbEntity
  8
破線
370
    25
100
AcDbLine
 10
424.3181953934226
 20
-134.3451030441349
 30
0.0
 11
424.3181953934226
 21
-94.34510304413493
 31
0.0
  0
LINE
  5
535A
330
1F
100
AcDbEntity
  8
破線
370
    25
100
AcDbLine
 10
439.4621998119646
 20
-134.3451030441349
 30
0.0
 11
424.9621998119646
 21
-134.3451030441349
 31
0.0
  0
LINE
  5
535B
330
1F
100
AcDbEntity
  8
破線
370
    25
100
AcDbLine
 10
422.3181953934227
 20
-144.3451030441349
 30
0.0
 11
424.3181953934226
 21
-144.3451030441349
 31
0.0
  0
ARC
  5
535C
330
1F
100
AcDbEntity
  8
破線
370
    25
100
AcDbCircle
 10
422.3181953934227
 20
-141.3451030441349
 30
0.0
 40
3.0
100
AcDbArc
 50
180.0
 51
270.0
  0
LINE
  5
535D
330
1F
100
AcDbEntity
  8
破線
370
    25
100
AcDbLine
 10
439.4621998119646
 20
-134.3451030441349
 30
0.0
 11
439.3181953934226
 21
-144.3451030441349
 31
0.0
  0
LINE
  5
535E
330
1F
100
AcDbEntity
  8
破線
370
    25
100
AcDbLine
 10
427.8181953934226
 20
-134.3451030441349
 30
0.0
 11
427.8181953934226
 21
-144.3451030441349
 31
0.0
  0
LINE
  5
535F
330
1F
100
AcDbEntity
  8
破線
370
    25
100
AcDbLine
 10
435.8181953934226
 20
-134.3451030441349
 30
0.0
 11
435.8181953934226
 21
-144.3451030441349
 31
0.0
  0
ARC
  5
5360
330
1F
100
AcDbEntity
  8
破線
370
    25
100
AcDbCircle
 10
448.9720595023388
 20
-105.6613669977796
 30
0.0
 40
34.65
100
AcDbArc
 50
167.4993777707554
 51
192.5006222292446
  0
LINE
  5
5361
330
1F
100
AcDbEntity
  8
破線
370
    25
100
AcDbLine
 10
419.3220595023389
 20
-116.0714667718048
 30
0.0
 11
419.3220595023389
 21
-97.53974074780728
 31
0.0
  0
LINE
  5
5362
330
1F
100
AcDbEntity
  8
破線
370
    25
100
AcDbLine
 10
419.3220595023389
 20
-114.9272180358403
 30
0.0
 11
415.1434843032562
 21
-113.1613669977796
 31
0.0
  0
LINE
  5
5363
330
1F
100
AcDbEntity
  8
破線
370
    25
100
AcDbLine
 10
415.0311299884106
 20
-110.5732954506077
 30
0.0
 11
424.3935193327106
 21
-110.5732954506077
 31
0.0
  0
LINE
  5
5364
330
1F
100
AcDbEntity
  8
破線
370
    25
100
AcDbLine
 10
415.5525925036418
 20
-111.8837101194162
 30
0.0
 11
424.0756500513257
 21
-111.8837101194162
 31
0.0
  0
LINE
  5
5365
330
1F
100
AcDbEntity
  8
破線
100
AcDbLine
 10
424.3181953934226
 20
-109.6613669977795
 30
0.0
 11
424.4627650148791
 21
-109.6613669977795
 31
0.0
  0
LINE
  5
5366
330
1F
100
AcDbEntity
  8
破線
100
AcDbLine
 10
424.3181953934226
 20
-110.6613669977795
 30
0.0
 11
424.4627650148791
 21
-110.6613669977795
 31
0.0
  0
LINE
  5
5367
330
1F
100
AcDbEntity
  8
破線
370
    25
100
AcDbLine
 10
419.4984090404002
 20
-96.32099127127601
 30
0.0
 11
415.1434843032562
 21
-98.16136699777956
 31
0.0
  0
LINE
  5
5368
330
1F
100
AcDbEntity
  8
破線
370
    25
100
AcDbLine
 10
414.7780906433186
 20
-100.7163057096861
 30
0.0
 11
424.1404799876181
 21
-100.7163057096861
 31
0.0
  0
LINE
  5
5369
330
1F
100
AcDbEntity
  8
破線
370
    25
100
AcDbLine
 10
414.8707489626131
 20
-102.3489847419907
 30
0.0
 11
424.0756500513257
 21
-102.3489847419907
 31
0.0
  0
LINE
  5
536A
330
1F
100
AcDbEntity
  8
破線
370
    25
100
AcDbLine
 10
424.3181953934226
 20
-94.34510304413493
 30
0.0
 11
422.3181953934227
 21
-94.34510304413491
 31
0.0
  0
LINE
  5
536B
330
1F
100
AcDbEntity
  8
破線
370
    25
100
AcDbLine
 10
424.3181953934226
 20
-94.34510304413493
 30
0.0
 11
422.3181953934227
 21
-94.34510304413493
 31
0.0
  0
LINE
  5
536C
330
1F
100
AcDbEntity
  8
破線
100
AcDbLine
 10
424.3181953934226
 20
-101.6613669977795
 30
0.0
 11
424.4627650148791
 21
-101.6613669977795
 31
0.0
  0
LINE
  5
536D
330
1F
100
AcDbEntity
  8
破線
100
AcDbLine
 10
424.3181953934226
 20
-100.6613669977795
 30
0.0
 11
424.4627650148791
 21
-100.6613669977795
 31
0.0
  0
LINE
  5
536E
330
1F
100
AcDbEntity
  8
破線
100
AcDbLine
 10
419.3220595023389
 20
-97.53974074780728
 30
0.0
 11
419.3220595023389
 21
-97.53974074780728
 31
0.0
  0
ARC
  5
536F
330
1F
100
AcDbEntity
  8
破線
370
    25
100
AcDbCircle
 10
422.3181953934227
 20
-97.3451030441349
 30
0.0
 40
3.0
100
AcDbArc
 50
90.0
 51
180.0
  0
ARC
  5
5370
330
1F
100
AcDbEntity
  8
破線
370
    25
100
AcDbCircle
 10
422.3181953934227
 20
-97.34510304413493
 30
0.0
 40
3.0
100
AcDbArc
 50
90.0
 51
180.0
  0
LINE
  5
5372
330
1F
100
AcDbEntity
  8
破線
370
    25
100
AcDbLine
 10
474.3181953934226
 20
-94.34510304413493
 30
0.0
 11
474.3181953934226
 21
-134.3451030441349
 31
0.0
  0
LINE
  5
5373
330
1F
100
AcDbEntity
  8
破線
370
    25
100
AcDbLine
 10
473.9621998119646
 20
-134.3451030441349
 30
0.0
 11
459.4621998119646
 21
-134.3451030441349
 31
0.0
  0
LINE
  5
5374
330
1F
100
AcDbEntity
  8
破線
370
    25
100
AcDbLine
 10
455.3181953934227
 20
-134.3451030441349
 30
0.0
 11
455.3181953934227
 21
-144.3451030441349
 31
0.0
  0
LINE
  5
5375
330
1F
100
AcDbEntity
  8
破線
370
    25
100
AcDbLine
 10
443.3181953934226
 20
-134.3451030441349
 30
0.0
 11
443.3181953934226
 21
-144.3451030441349
 31
0.0
  0
LINE
  5
5376
330
1F
100
AcDbEntity
  8
破線
370
    25
100
AcDbLine
 10
459.4621998119646
 20
-134.3451030441349
 30
0.0
 11
459.3181953934227
 21
-144.3451030441349
 31
0.0
  0
ARC
  5
5377
330
1F
100
AcDbEntity
  8
破線
370
    25
100
AcDbCircle
 10
476.3181953934227
 20
-141.3451030441349
 30
0.0
 40
3.0
100
AcDbArc
 50
270.0
 51
0.0
  0
LINE
  5
5378
330
1F
100
AcDbEntity
  8
破線
370
    25
100
AcDbLine
 10
474.3181953934226
 20
-144.3451030441349
 30
0.0
 11
476.3181953934227
 21
-144.3451030441349
 31
0.0
  0
LINE
  5
5379
330
1F
100
AcDbEntity
  8
破線
370
    25
100
AcDbLine
 10
479.3143312845063
 20
-116.0714667718048
 30
0.0
 11
479.3143312845063
 21
-97.53974074780728
 31
0.0
  0
LINE
  5
537A
330
1F
100
AcDbEntity
  8
破線
100
AcDbLine
 10
474.3181953934226
 20
-109.6613669977795
 30
0.0
 11
474.1736257719662
 21
-109.6613669977795
 31
0.0
  0
LINE
  5
537B
330
1F
100
AcDbEntity
  8
破線
100
AcDbLine
 10
474.3181953934226
 20
-110.6613669977795
 30
0.0
 11
474.1736257719662
 21
-110.6613669977795
 31
0.0
  0
ARC
  5
537C
330
1F
100
AcDbEntity
  8
破線
370
    25
100
AcDbCircle
 10
476.3181953934227
 20
-97.3451030441349
 30
0.0
 40
3.0
100
AcDbArc
 50
0.0
 51
90.0
  0
LINE
  5
537D
330
1F
100
AcDbEntity
  8
破線
100
AcDbLine
 10
479.3143312845063
 20
-97.53974074780728
 30
0.0
 11
479.3143312845063
 21
-97.53974074780728
 31
0.0
  0
LINE
  5
537E
330
1F
100
AcDbEntity
  8
破線
100
AcDbLine
 10
474.3181953934226
 20
-100.6613669977795
 30
0.0
 11
474.1736257719662
 21
-100.6613669977795
 31
0.0
  0
LINE
  5
537F
330
1F
100
AcDbEntity
  8
破線
100
AcDbLine
 10
474.3181953934226
 20
-101.6613669977795
 30
0.0
 11
474.1736257719662
 21
-101.6613669977795
 31
0.0
  0
LINE
  5
5380
330
1F
100
AcDbEntity
  8
破線
370
    25
100
AcDbLine
 10
474.3181953934226
 20
-94.34510304413493
 30
0.0
 11
476.3181953934227
 21
-94.34510304413491
 31
0.0
  0
LINE
  5
5381
330
1F
100
AcDbEntity
  8
破線
100
AcDbLine
 10
479.3143312845063
 20
-116.0714667718048
 30
0.0
 11
479.3181953934227
 21
-141.3451030441349
 31
0.0
  0
DIMENSION
  5
5394
330
1F
100
AcDbEntity
  8
寸法線
100
AcDbDimension
  2
*D48
 10
28.45920043965864
 20
142.5113985150193
 30
0.0
 11
116.8427646545874
 21
186.6441271150445
 31
0.0
 70
   163
  1
底　水抜きΦ45
 71
     5
 42
24.39093897258075
  3
sunpo
100
AcDbDiametricDimension
 15
50.28094843578898
 25
153.4076923049985
 35
0.0
 40
0.0
1001
ACAD
1000
DSTYLE
1002
{
1070
    40
1040
1.0
1070
   288
1070
     1
1002
}
  0
LINE
  5
53AC
330
1F
100
AcDbEntity
  8
破線
100
AcDbLine
 10
142.0908421604761
 20
124.1923350179907
 30
0.0
 11
142.0908421604761
 21
120.3768411131405
 31
0.0
  0
LINE
  5
53AD
330
1F
100
AcDbEntity
  8
破線
100
AcDbLine
 10
168.0908421604761
 20
124.1923350179907
 30
0.0
 11
168.0908421604761
 21
120.2340969143842
 31
0.0
  0
DIMENSION
  5
570E
330
1F
100
AcDbEntity
  8
寸法線
100
AcDbDimension
  2
*D64
 10
621.8367712477665
 20
85.28495125633924
 30
0.0
 11
618.3362791217823
 21
146.5819148808487
 31
0.0
 70
    32
  1
120
 71
     5
 42
122.5939272490186
  3
sunpo
100
AcDbAlignedDimension
 13
651.1780113344567
 23
207.8788785053579
 33
0.0
 14
649.0610687391069
 24
85.28495125633924
 34
0.0
 50
90.0
100
AcDbRotatedDimension
1001
ACAD
1000
DSTYLE
1002
{
1070
    40
1040
1.0
1002
}
  0
LINE
  5
570F
330
1F
100
AcDbEntity
  8
太線
100
AcDbLine
 10
631.1780113344569
 20
207.8788785053579
 30
0.0
 11
632.0525121560097
 21
87.949739230624
 31
0.0
  0
LINE
  5
5710
330
1F
100
AcDbEntity
  8
太線
100
AcDbLine
 10
791.0725126812344
 20
208.365780705698
 30
0.0
 11
791.7097904206187
 21
88.30916717910014
 31
0.0
  0
LINE
  5
5711
330
1F
100
AcDbEntity
  8
太線
100
AcDbLine
 10
651.4262925345956
 20
67.95954541000895
 30
0.0
 11
771.7097904206187
 21
68.30916717910014
 31
0.0
  0
ARC
  5
5712
330
1F
100
AcDbEntity
  8
太線
100
AcDbCircle
 10
774.5382175453649
 20
85.48074005435394
 30
0.0
 40
6.0
100
AcDbArc
 50
213.0462060789236
 51
30.56452286745413
  0
ARC
  5
5713
330
1F
100
AcDbEntity
  8
太線
100
AcDbCircle
 10
770.7142579186482
 20
89.11001729517039
 30
0.0
 40
6.0
100
AcDbArc
 50
58.32379763122499
 51
239.4192833947736
  0
DIMENSION
  5
5714
330
1F
100
AcDbEntity
  8
寸法線
100
AcDbDimension
  2
*D67
 10
788.606621113815
 20
90.46213345201101
 30
0.0
 11
784.399058686552
 21
99.36736491756859
 31
0.0
 70
    33
  1
20
 71
     5
 42
18.41230935112673
  3
sunpo
100
AcDbAlignedDimension
 13
766.1616805302316
 23
93.68918385973746
 33
0.0
 14
779.4305613457407
 24
80.9239992725328
 34
0.0
1001
ACAD
1000
DSTYLE
1002
{
1070
    40
1040
1.0
1002
}
  0
DIMENSION
  5
5715
330
1F
100
AcDbEntity
  8
寸法線
100
AcDbDimension
  2
*D66
 10
791.7097904206187
 20
54.82047660764948
 30
0.0
 11
711.9703124608977
 21
58.32047660764948
 31
0.0
 70
    32
  1
160
 71
     5
 42
159.478955919442
  3
sunpo
100
AcDbAlignedDimension
 13
632.2308345011767
 23
85.28495125633924
 33
0.0
 14
791.7097904206187
 24
88.30916717910014
 34
0.0
100
AcDbRotatedDimension
1001
ACAD
1000
DSTYLE
1002
{
1070
    40
1040
1.0
1002
}
  0
DIMENSION
  5
5716
330
1F
100
AcDbEntity
  8
寸法線
100
AcDbDimension
  2
*D65
 10
803.2406418232058
 20
65.43375325035595
 30
0.0
 11
796.5893677360094
 21
63.73692871703173
 31
0.0
 70
    33
  1
12
 71
     5
 42
11.80935482671657
  3
sunpo
100
AcDbAlignedDimension
 13
769.1103201781514
 23
82.88787421292898
 33
0.0
 14
777.4648007805037
 24
91.23434144692749
 34
0.0
1001
ACAD
1000
DSTYLE
1002
{
1070
    40
1040
1.0
1002
}
  0
ARC
  5
5717
330
1F
100
AcDbEntity
  8
太線
100
AcDbCircle
 10
652.0525121560097
 20
87.949739230624
 30
0.0
 40
20.0
100
AcDbArc
 50
180.0
 51
270.0
  0
LINE
  5
5718
330
1F
100
AcDbEntity
  8
太線
100
AcDbLine
 10
649.7986117089717
 20
94.04770516539242
 30
0.0
 11
643.9063992534793
 21
88.3556812174296
 31
0.0
  0
ARC
  5
5719
330
1F
100
AcDbEntity
  8
太線
100
AcDbCircle
 10
652.8988409367946
 20
88.89961930141936
 30
0.0
 40
6.0
100
AcDbArc
 50
300.3622165943844
 51
121.4577023579295
  0
ARC
  5
571A
330
1F
100
AcDbEntity
  8
太線
100
AcDbCircle
 10
649.0610687391069
 20
85.28495125633924
 30
0.0
 40
6.0
100
AcDbArc
 50
149.2169771217107
 51
326.73529391024
  0
LINE
  5
571B
330
1F
100
AcDbEntity
  8
太線
100
AcDbLine
 10
654.0779411274131
 20
81.99390409176515
 30
0.0
 11
655.9316301805133
 21
83.72253620345924
 31
0.0
  0
LINE
  5
571C
330
1F
100
AcDbEntity
  8
太線
100
AcDbLine
 10
769.5088311127715
 20
82.20884884105771
 30
0.0
 11
767.661747738553
 21
83.94453749166563
 31
0.0
  0
ARC
  5
576C
330
1F
100
AcDbEntity
  8
太線
100
AcDbCircle
 10
771.7097904206187
 20
88.30916717910014
 30
0.0
 40
20.0
100
AcDbArc
 50
270.0
 51
0.0
  0
LINE
  5
576D
330
1F
100
AcDbEntity
  8
太線
100
AcDbLine
 10
773.834097010477
 20
94.24624289077883
 30
0.0
 11
779.7045598858349
 21
88.53179017211123
 31
0.0
  0
LINE
  5
576E
330
1F
100
AcDbEntity
  8
太線
100
AcDbLine
 10
764.8295819083434
 20
210.7355847404641
 30
0.0
 11
770.5013851714982
 21
216.6472640271737
 31
0.0
  0
ARC
  5
576F
330
1F
100
AcDbEntity
  8
太線
100
AcDbCircle
 10
769.9882592367173
 20
207.6530115378281
 30
0.0
 40
6.0
100
AcDbArc
 50
148.7385987926385
 51
329.8340845561824
  0
LINE
  5
5770
330
1F
100
AcDbEntity
  8
太線
100
AcDbLine
 10
651.1780113344567
 20
227.8788785053578
 30
0.0
 11
771.0725126812347
 21
228.365780705698
 31
0.0
  0
DIMENSION
  5
5771
330
1F
100
AcDbEntity
  8
寸法線
100
AcDbDimension
  2
*D68
 10
651.1780113344563
 20
207.8788785053582
 30
0.0
 11
620.5679858821777
 21
231.4332385179327
 31
0.0
 70
   164
 71
     5
 42
19.99999999999931
  3
sunpo
100
AcDbRadialDimension
 15
635.3275804431009
 25
220.0757568173829
 35
0.0
 40
0.0
1001
ACAD
1000
DSTYLE
1002
{
1070
    40
1040
1.0
1070
   288
1070
     1
1002
}
  0
ARC
  5
5772
330
1F
100
AcDbEntity
  8
太線
100
AcDbCircle
 10
651.1780113344567
 20
207.8788785053579
 30
0.0
 40
19.99999999999988
100
AcDbArc
 50
90.0
 51
180.0
  0
LINE
  5
5773
330
1F
100
AcDbEntity
  8
太線
100
AcDbLine
 10
657.5595465884324
 20
210.3587424984147
 30
0.0
 11
651.9070873545009
 21
216.2889203080244
 31
0.0
  0
ARC
  5
5774
330
1F
100
AcDbEntity
  8
太線
100
AcDbCircle
 10
648.801925412387
 20
211.1549190114481
 30
0.0
 40
6.0
100
AcDbArc
 50
58.83348738433832
 51
236.3518041728814
  0
ARC
  5
5775
330
1F
100
AcDbEntity
  8
太線
100
AcDbCircle
 10
652.3908258660819
 20
207.2930394106661
 30
0.0
 40
6.0
100
AcDbArc
 50
209.978726857023
 51
31.07421262057165
  0
LINE
  5
5776
330
1F
100
AcDbEntity
  8
太線
100
AcDbLine
 10
645.4773734926328
 20
206.1601863326294
 30
0.0
 11
647.1935599423933
 21
204.2949688780625
 31
0.0
  0
ARC
  5
5777
330
1F
100
AcDbEntity
  8
太線
100
AcDbCircle
 10
773.5897574960356
 20
211.5031454063571
 30
0.0
 40
6.0
100
AcDbArc
 50
303.4610072403251
 51
120.9793240288619
  0
ARC
  5
5778
330
1F
100
AcDbEntity
  8
太線
100
AcDbCircle
 10
771.0725126812347
 20
208.365780705698
 30
0.0
 40
19.99999999999994
100
AcDbArc
 50
0.0
 51
90.0
  0
LINE
  5
5779
330
1F
100
AcDbEntity
  8
太線
100
AcDbLine
 10
776.8979736250928
 20
206.4975779017233
 30
0.0
 11
775.1757025731188
 21
204.6379772707555
 31
0.0
  0
XLINE
  5
57DF
330
1F
100
AcDbEntity
  8
構築線
100
AcDbXline
 10
745.0387540888016
 20
-182.2435412987926
 30
0.0
 11
1.0
 21
0.0
 31
0.0
  0
LINE
  5
57F6
330
1F
100
AcDbEntity
  8
太線
100
AcDbLine
 10
766.9293181026776
 20
-177.2435412987926
 30
0.0
 11
786.7097904206186
 21
-177.2435412987926
 31
0.0
  0
LINE
  5
57F7
330
1F
100
AcDbEntity
  8
太線
100
AcDbLine
 10
656.9293181026775
 20
-177.2435412987927
 30
0.0
 11
637.2308345011767
 21
-177.2435412987927
 31
0.0
  0
LINE
  5
57F8
330
1F
100
AcDbEntity
  8
太線
100
AcDbLine
 10
776.6408324806493
 20
-182.2435412987926
 30
0.0
 11
791.7097904206187
 21
-182.2435412987926
 31
0.0
  0
LINE
  5
57F9
330
1F
100
AcDbEntity
  8
太線
100
AcDbLine
 10
643.4572453949987
 20
-182.2435412987927
 30
0.0
 11
632.2308345011767
 21
-182.2435412987927
 31
0.0
  0
LINE
  5
5800
330
1F
100
AcDbEntity
  8
細線
100
AcDbLine
 10
658.827690179185
 20
-177.2435412987927
 30
0.0
 11
658.827690179185
 21
-182.2435412987926
 31
0.0
  0
LINE
  5
5801
330
1F
100
AcDbEntity
  8
細線
100
AcDbLine
 10
689.2643403857444
 20
-177.2668586481048
 30
0.0
 11
689.2643403857444
 21
-182.2435412987926
 31
0.0
  0
LINE
  5
5802
330
1F
100
AcDbEntity
  8
細線
100
AcDbLine
 10
734.2643403857444
 20
-177.3650630256975
 30
0.0
 11
734.2643403857444
 21
-182.2435412987926
 31
0.0
  0
LINE
  5
5803
330
1F
100
AcDbEntity
  8
細線
100
AcDbLine
 10
764.882662290749
 20
-177.2435412987927
 30
0.0
 11
764.882662290749
 21
-182.2435412987926
 31
0.0
  0
LINE
  5
5804
330
1F
100
AcDbEntity
  8
細線
100
AcDbLine
 10
780.1580727416872
 20
-177.2435412987927
 30
0.0
 11
780.1580727416872
 21
-182.2435412987925
 31
0.0
  0
CIRCLE
  5
5825
330
1F
100
AcDbEntity
  8
太線
100
AcDbCircle
 10
711.7643403857443
 20
147.9595454100089
 30
0.0
 40
22.5
  0
CIRCLE
  5
5826
330
1F
100
AcDbEntity
  8
太線
100
AcDbCircle
 10
711.7643403857443
 20
147.9595454100089
 30
0.0
 40
33.27441370305723
  0
CIRCLE
  5
5852
330
1F
100
AcDbEntity
  8
太線
100
AcDbCircle
 10
448.3945803774103
 20
147.9595454100089
 30
0.0
 40
29.99613589108367
  0
CIRCLE
  5
5853
330
1F
100
AcDbEntity
  8
太線
100
AcDbCircle
 10
448.3945803774103
 20
147.9595454100089
 30
0.0
 40
22.01865467438222
  0
CIRCLE
  5
5855
330
1F
100
AcDbEntity
  8
太線
100
AcDbCircle
 10
448.3945803774103
 20
147.9595454100089
 30
0.0
 40
6.0
  0
DIMENSION
  5
5856
330
1F
100
AcDbEntity
  8
寸法線
100
AcDbDimension
  2
*D70
 10
406.4077641649864
 20
117.9634095189252
 30
0.0
 11
402.9077641649864
 21
147.959545410009
 31
0.0
 70
    32
  1
60
 71
     5
 42
59.99227178216735
  3
sunpo
100
AcDbAlignedDimension
 13
448.3945803774103
 23
177.9556813010926
 33
0.0
 14
448.3945803774103
 24
117.9634095189252
 34
0.0
 50
90.0
100
AcDbRotatedDimension
1001
ACAD
1000
DSTYLE
1002
{
1070
    40
1040
1.0
1002
}
  0
CIRCLE
  5
586C
330
1F
100
AcDbEntity
  8
寸法線
100
AcDbCircle
 10
346.5645119939427
 20
60.30294005130599
 30
0.0
 40
7.270589550345224
  0
DIMENSION
  5
586E
330
1F
100
AcDbEntity
  8
寸法線
100
AcDbDimension
  2
*D71
 10
339.419762309665
 20
61.64979726667943
 30
0.0
 11
413.7909702761566
 21
47.63007614389016
 31
0.0
 70
   163
  1
Ｍ12・Ｍ20
 71
     5
 42
14.54117910069038
  3
sunpo
100
AcDbDiametricDimension
 15
353.7092616782203
 25
58.95608283593251
 35
0.0
 40
0.0
1001
ACAD
1000
DSTYLE
1002
{
1070
    40
1040
1.0
1070
   288
1070
     1
1002
}
  0
LINE
  5
5887
330
1F
100
AcDbEntity
  8
太線
100
AcDbLine
 10
483.3346377485136
 20
43.8942420084511
 30
0.0
 11
346.5645119939427
 21
147.9595454100089
 31
0.0
  0
LINE
  5
5888
330
1F
100
AcDbEntity
  8
太線
100
AcDbLine
 10
346.5645119939427
 20
147.9595454100089
 30
0.0
 11
483.3346377485136
 21
253.9260629425571
 31
0.0
  0
LINE
  5
5889
330
1F
100
AcDbEntity
  8
太線
100
AcDbLine
 10
483.3346377485136
 20
253.9260629425571
 30
0.0
 11
807.350160970409
 21
253.9260629425571
 31
0.0
  0
LINE
  5
588A
330
1F
100
AcDbEntity
  8
太線
100
AcDbLine
 10
807.350160970409
 20
253.9260629425571
 30
0.0
 11
807.350160970409
 21
43.8942420084511
 31
0.0
  0
LINE
  5
588B
330
1F
100
AcDbEntity
  8
太線
100
AcDbLine
 10
807.350160970409
 20
43.8942420084511
 30
0.0
 11
483.3346377485136
 21
43.8942420084511
 31
0.0
  0
TEXT
  5
588C
330
1F
100
AcDbEntity
  8
太線
100
AcDbText
 10
532.1253111271312
 20
221.6372654603981
 30
0.0
 40
7.0
  1
ベース部
 51
15.0
  7
OKANO
100
AcDbText
  0
VIEWPORT
  5
2E
330
1B
100
AcDbEntity
 67
     1
  8
0
100
AcDbViewport
 10
272.5674490638299
 20
119.1163614130853
 30
0.0
 40
1021.496541585076
 41
518.8212150094909
 68
     2
 69
     1
 12
272.5674490638299
 22
119.1163614130853
 13
0.0
 23
0.0
 14
10.0
 24
10.0
 15
10.0
 25
10.0
 16
0.0
 26
0.0
 36
1.0
 17
0.0
 27
0.0
 37
0.0
 42
50.0
 43
0.0
 44
0.0
 45
518.8212150094909
 50
0.0
 51
0.0
 72
   100
 90
    32800
  1

281
     0
 71
     1
 74
     0
110
0.0
120
0.0
130
0.0
111
1.0
121
0.0
131
0.0
112
0.0
122
1.0
132
0.0
 79
     0
146
0.0
  0
VIEWPORT
  5
30
330
1B
100
AcDbEntity
 67
     1
  8
70-0-CON
100
AcDbViewport
 10
141.8594093064315
 20
100.3480256368386
 30
0.0
 40
261.6199023344245
 41
192.6196987113174
 68
     1
 69
     2
 12
392.4467621752518
 22
28.89239772560272
 13
0.0
 23
0.0
 14
5.0
 24
5.0
 15
10.0
 25
10.0
 16
0.0
 26
0.0
 36
1.0
 17
0.0
 27
0.0
 37
0.0
 42
50.0
 43
0.0
 44
0.0
 45
668.8318373579172
 50
0.0
 51
0.0
 72
   100
 90
    32864
  1

281
     0
 71
     1
 74
     0
110
0.0
120
0.0
130
0.0
111
1.0
121
0.0
131
0.0
112
0.0
122
1.0
132
0.0
 79
     0
146
0.0
  0
LWPOLYLINE
  5
45
330
1B
100
AcDbEntity
 67
     1
  8
50-0-CON
100
AcDbPolyline
 90
        4
 70
     1
 43
0.0
 10
11.04945813921926
 20
4.038176281179858
 10
272.2125713060605
 20
4.033520706629644
 10
273.4987754093466
 20
195.9297862125246
 10
11.04945813921926
 20
196.6578749924973
  0
LINE
  5
4A
330
1B
100
AcDbEntity
 67
     1
  8
50-0-CON
100
AcDbLine
 10
10.38768783662635
 20
100.3480256368386
 30
0.0
 11
-4.391850629656119
 21
100.3480256368386
 31
0.0
  0
LINE
  5
4B
330
1B
100
AcDbEntity
 67
     1
  8
50-0-CON
100
AcDbLine
 10
141.8594093064315
 20
197.098652626247
 30
0.0
 11
141.8594093064315
 21
202.387980773708
 31
0.0
  0
LINE
  5
4C
330
1B
100
AcDbEntity
 67
     1
  8
50-0-CON
100
AcDbLine
 10
272.4487699456857
 20
100.7888032705883
 30
0.0
 11
278.8458837249377
 21
100.7888032705883
 31
0.0
  0
LINE
  5
4D
330
1B
100
AcDbEntity
 67
     1
  8
50-0-CON
100
AcDbLine
 10
140.9770484758805
 20
4.038176281179858
 30
0.0
 11
140.9770484758805
 21
-3.455038652015446
 31
0.0
  0
ENDSEC
  0
SECTION
  2
OBJECTS
  0
DICTIONARY
  5
C
330
0
100
AcDbDictionary
281
     1
  3
ACAD_GROUP
350
D
  3
ACAD_LAYOUT
350
1A
  3
ACAD_MLINESTYLE
350
17
  3
ACAD_PLOTSETTINGS
350
19
  3
ACAD_PLOTSTYLENAME
350
E
  3
AcadDim
350
586D
  3
AcDbVariableDictionary
350
6AD
  3
DWGPROPS
350
30F
  0
DICTIONARY
  5
D
102
{ACAD_REACTORS
330
C
102
}
330
C
100
AcDbDictionary
281
     1
  0
DICTIONARY
  5
1A
102
{ACAD_REACTORS
330
C
102
}
330
C
100
AcDbDictionary
281
     1
  3
A4
350
1E
  3
Model
350
22
  0
DICTIONARY
  5
17
102
{ACAD_REACTORS
330
C
102
}
330
C
100
AcDbDictionary
281
     1
  3
Standard
350
18
  0
DICTIONARY
  5
19
102
{ACAD_REACTORS
330
C
102
}
330
C
100
AcDbDictionary
281
     1
  0
ACDBDICTIONARYWDFLT
  5
E
102
{ACAD_REACTORS
330
C
102
}
330
C
100
AcDbDictionary
281
     1
  3
Normal
350
F
100
AcDbDictionaryWithDefault
340
F
  0
XRECORD
  5
586D
102
{ACAD_REACTORS
330
C
102
}
330
C
100
AcDbXrecord
280
     1
 90
   990106
  3

 60
     0
 61
     0
 62
     1
 63
     3
 64
     0
 65
     0
 66
     0
 67
     3
 68
     1
 69
     0
 70
     0
 71
     0
 72
     0
 40
0.0
170
     0
  0
DICTIONARY
  5
6AD
102
{ACAD_REACTORS
330
C
102
}
330
C
100
AcDbDictionary
281
     1
  3
SORTENTS
350
6AE
  0
XRECORD
  5
30F
102
{ACAD_REACTORS
330
C
102
}
330
C
100
AcDbXrecord
280
     1
  1
DWGPROPS COOKIE
  2

  3

  4

  6

  7

  8

  9

300
=
301
=
302
=
303
=
304
=
305
=
306
=
307
=
308
=
309
=
 40
0.3303803125
 41
2452362.482225463
 42
2452370.969861285
  1

 90
        0
  0
LAYOUT
  5
1E
102
{ACAD_REACTORS
330
1A
102
}
330
1A
100
AcDbPlotSettings
  1

  2
EPSON PM-920C
  4
A4
  6

 40
3.757083177566528
 41
14.7637300491333
 42
3.757080078125
 43
3.757080078125
 44
209.9733276367187
 45
296.9683227539062
 46
0.0
 47
0.0
 48
0.0
 49
0.0
140
0.0
141
0.0
142
1.0
143
1.0
 70
   688
 72
     1
 73
     1
 74
     5
  7
joint.ctb
 75
    16
147
1.0
148
0.0
149
0.0
100
AcDbLayout
  1
A4
 70
     1
 71
     1
 10
-3.757080078125
 20
-3.757083177566528
 11
293.2112426757812
 21
206.2162444591522
 12
0.0
 22
0.0
 32
0.0
 14
-4.391850629656119
 24
-3.455038652015446
 34
0.0
 15
278.8458837249377
 25
202.387980773708
 35
0.0
146
0.0
 13
0.0
 23
0.0
 33
0.0
 16
1.0
 26
0.0
 36
0.0
 17
0.0
 27
1.0
 37
0.0
 76
     0
330
1B
331
30
  0
LAYOUT
  5
22
102
{ACAD_REACTORS
330
1A
102
}
330
1A
100
AcDbPlotSettings
  1

  2
EPSON PM-920C
  4
A4
  6

 40
3.757083177566528
 41
14.7637300491333
 42
3.757080078125
 43
3.757080078125
 44
209.9733276367187
 45
296.9683227539062
 46
0.0
 47
0.0
 48
0.0
 49
0.0
140
0.0
141
0.0
142
1.0
143
1.0
 70
 11952
 72
     1
 73
     1
 74
     0
  7

 75
     0
147
1.0
148
-45.64199848979289
149
-84.48806419330498
100
AcDbLayout
  1
Model
 70
     1
 71
     0
 10
0.0
 20
0.0
 11
12.0
 21
9.0
 12
0.0
 22
0.0
 32
0.0
 14
0.0
 24
0.0
 34
0.0
 15
0.0
 25
0.0
 35
0.0
146
0.0
 13
0.0
 23
0.0
 33
0.0
 16
1.0
 26
0.0
 36
0.0
 17
0.0
 27
1.0
 37
0.0
 76
     0
330
1F
  0
MLINESTYLE
  5
18
102
{ACAD_REACTORS
330
17
102
}
330
17
100
AcDbMlineStyle
  2
STANDARD
 70
     0
  3

 62
   256
 51
90.0
 52
90.0
 71
     2
 49
0.5
 62
   256
  6
BYLAYER
 49
-0.5
 62
   256
  6
BYLAYER
  0
ACDBPLACEHOLDER
  5
F
102
{ACAD_REACTORS
330
E
102
}
330
E
  0
DICTIONARYVAR
  5
6AE
102
{ACAD_REACTORS
330
6AD
102
}
330
6AD
100
DictionaryVariables
280
     0
  1
96
  0
ENDSEC
  0
EOF
