  0
SECTION
  2
HEADER
  9
$ACADVER
  1
AC1015
  9
$ACADMAINTVER
 70
     6
  9
$DWGCODEPAGE
  3
ANSI_932
  9
$INSBASE
 10
0.0
 20
0.0
 30
0.0
  9
$EXTMIN
 10
-21.09769317341794
 20
-270.3939852018735
 30
0.0
  9
$EXTMAX
 10
1342.387912392919
 20
309.8812859439239
 30
0.0
  9
$LIMMIN
 10
0.0
 20
0.0
  9
$LIMMAX
 10
420.0
 20
297.0
  9
$ORTHOMODE
 70
     1
  9
$REGENMODE
 70
     1
  9
$FILLMODE
 70
     1
  9
$QTEXTMODE
 70
     0
  9
$MIRRTEXT
 70
     1
  9
$LTSCALE
 40
1.0
  9
$ATTMODE
 70
     1
  9
$TEXTSIZE
 40
5.0
  9
$TRACEWID
 40
1.0
  9
$TEXTSTYLE
  7
OKANO
  9
$CLAYER
  8
太線
  9
$CELTYPE
  6
ByLayer
  9
$CECOLOR
 62
   256
  9
$CELTSCALE
 40
1.0
  9
$DISPSILH
 70
     0
  9
$DIMSCALE
 40
0.0
  9
$DIMASZ
 40
3.0
  9
$DIMEXO
 40
2.0
  9
$DIMDLI
 40
8.0
  9
$DIMRND
 40
0.0
  9
$DIMDLE
 40
0.0
  9
$DIMEXE
 40
3.0
  9
$DIMTP
 40
0.0
  9
$DIMTM
 40
0.0
  9
$DIMTXT
 40
5.0
  9
$DIMCEN
 40
2.5
  9
$DIMTSZ
 40
0.0
  9
$DIMTOL
 70
     0
  9
$DIMLIM
 70
     0
  9
$DIMTIH
 70
     0
  9
$DIMTOH
 70
     0
  9
$DIMSE1
 70
     0
  9
$DIMSE2
 70
     0
  9
$DIMTAD
 70
     1
  9
$DIMZIN
 70
     8
  9
$DIMBLK
  1
Closed
  9
$DIMASO
 70
     1
  9
$DIMSHO
 70
     1
  9
$DIMPOST
  1

  9
$DIMAPOST
  1

  9
$DIMALT
 70
     0
  9
$DIMALTD
 70
     3
  9
$DIMALTF
 40
0.03937007874016
  9
$DIMLFAC
 40
1.0
  9
$DIMTOFL
 70
     1
  9
$DIMTVP
 40
0.0
  9
$DIMTIX
 70
     0
  9
$DIMSOXD
 70
     0
  9
$DIMSAH
 70
     0
  9
$DIMBLK1
  1

  9
$DIMBLK2
  1

  9
$DIMSTYLE
  2
sunpo
  9
$DIMCLRD
 70
     0
  9
$DIMCLRE
 70
     0
  9
$DIMCLRT
 70
     0
  9
$DIMTFAC
 40
1.0
  9
$DIMGAP
 40
1.0
  9
$DIMJUST
 70
     0
  9
$DIMSD1
 70
     0
  9
$DIMSD2
 70
     0
  9
$DIMTOLJ
 70
     0
  9
$DIMTZIN
 70
     8
  9
$DIMALTZ
 70
     0
  9
$DIMALTTZ
 70
     0
  9
$DIMUPT
 70
     0
  9
$DIMDEC
 70
     2
  9
$DIMTDEC
 70
     2
  9
$DIMALTU
 70
     2
  9
$DIMALTTD
 70
     3
  9
$DIMTXSTY
  7
OKANO
  9
$DIMAUNIT
 70
     0
  9
$DIMADEC
 70
     0
  9
$DIMALTRND
 40
0.0
  9
$DIMAZIN
 70
     0
  9
$DIMDSEP
 70
    46
  9
$DIMATFIT
 70
     3
  9
$DIMFRAC
 70
     0
  9
$DIMLDRBLK
  1
Closed
  9
$DIMLUNIT
 70
     2
  9
$DIMLWD
 70
    -2
  9
$DIMLWE
 70
    -2
  9
$DIMTMOVE
 70
     0
  9
$LUNITS
 70
     2
  9
$LUPREC
 70
     2
  9
$SKETCHINC
 40
1.0
  9
$FILLETRAD
 40
1.0
  9
$AUNITS
 70
     0
  9
$AUPREC
 70
     0
  9
$MENU
  1
.
  9
$ELEVATION
 40
0.0
  9
$PELEVATION
 40
0.0
  9
$THICKNESS
 40
0.0
  9
$LIMCHECK
 70
     0
  9
$CHAMFERA
 40
10.0
  9
$CHAMFERB
 40
10.0
  9
$CHAMFERC
 40
20.0
  9
$CHAMFERD
 40
0.0
  9
$SKPOLY
 70
     0
  9
$TDCREATE
 40
2452362.482225463
  9
$TDUCREATE
 40
2452362.107225463
  9
$TDUPDATE
 40
2456258.493404525
  9
$TDUUPDATE
 40
2456258.118404525
  9
$TDINDWG
 40
2.2988491204
  9
$TDUSRTIMER
 40
2.2988491204
  9
$USRTIMER
 70
     1
  9
$ANGBASE
 50
0.0
  9
$ANGDIR
 70
     0
  9
$PDMODE
 70
     0
  9
$PDSIZE
 40
0.0
  9
$PLINEWID
 40
0.0
  9
$SPLFRAME
 70
     0
  9
$SPLINETYPE
 70
     6
  9
$SPLINESEGS
 70
     8
  9
$HANDSEED
  5
4835
  9
$SURFTAB1
 70
     6
  9
$SURFTAB2
 70
     6
  9
$SURFTYPE
 70
     6
  9
$SURFU
 70
     6
  9
$SURFV
 70
     6
  9
$UCSBASE
  2

  9
$UCSNAME
  2

  9
$UCSORG
 10
0.0
 20
0.0
 30
0.0
  9
$UCSXDIR
 10
1.0
 20
0.0
 30
0.0
  9
$UCSYDIR
 10
0.0
 20
1.0
 30
0.0
  9
$UCSORTHOREF
  2

  9
$UCSORTHOVIEW
 70
     0
  9
$UCSORGTOP
 10
0.0
 20
0.0
 30
0.0
  9
$UCSORGBOTTOM
 10
0.0
 20
0.0
 30
0.0
  9
$UCSORGLEFT
 10
0.0
 20
0.0
 30
0.0
  9
$UCSORGRIGHT
 10
0.0
 20
0.0
 30
0.0
  9
$UCSORGFRONT
 10
0.0
 20
0.0
 30
0.0
  9
$UCSORGBACK
 10
0.0
 20
0.0
 30
0.0
  9
$PUCSBASE
  2

  9
$PUCSNAME
  2

  9
$PUCSORG
 10
0.0
 20
0.0
 30
0.0
  9
$PUCSXDIR
 10
1.0
 20
0.0
 30
0.0
  9
$PUCSYDIR
 10
0.0
 20
1.0
 30
0.0
  9
$PUCSORTHOREF
  2

  9
$PUCSORTHOVIEW
 70
     0
  9
$PUCSORGTOP
 10
0.0
 20
0.0
 30
0.0
  9
$PUCSORGBOTTOM
 10
0.0
 20
0.0
 30
0.0
  9
$PUCSORGLEFT
 10
0.0
 20
0.0
 30
0.0
  9
$PUCSORGRIGHT
 10
0.0
 20
0.0
 30
0.0
  9
$PUCSORGFRONT
 10
0.0
 20
0.0
 30
0.0
  9
$PUCSORGBACK
 10
0.0
 20
0.0
 30
0.0
  9
$USERI1
 70
     0
  9
$USERI2
 70
     0
  9
$USERI3
 70
     0
  9
$USERI4
 70
     0
  9
$USERI5
 70
     0
  9
$USERR1
 40
0.0
  9
$USERR2
 40
0.0
  9
$USERR3
 40
0.0
  9
$USERR4
 40
0.0
  9
$USERR5
 40
0.0
  9
$WORLDVIEW
 70
     1
  9
$SHADEDGE
 70
     3
  9
$SHADEDIF
 70
    70
  9
$TILEMODE
 70
     0
  9
$MAXACTVP
 70
    64
  9
$PINSBASE
 10
0.0
 20
0.0
 30
0.0
  9
$PLIMCHECK
 70
     0
  9
$PEXTMIN
 10
-4.391850629656119
 20
-3.455038652015446
 30
0.0
  9
$PEXTMAX
 10
278.8458837249377
 20
202.387980773708
 30
0.0
  9
$PLIMMIN
 10
-3.757080078125
 20
-3.757083177566528
  9
$PLIMMAX
 10
293.2112426757812
 20
206.2162444591522
  9
$UNITMODE
 70
     0
  9
$VISRETAIN
 70
     1
  9
$PLINEGEN
 70
     0
  9
$PSLTSCALE
 70
     1
  9
$TREEDEPTH
 70
  3020
  9
$CMLSTYLE
  2
Standard
  9
$CMLJUST
 70
     0
  9
$CMLSCALE
 40
20.0
  9
$PROXYGRAPHICS
 70
     1
  9
$MEASUREMENT
 70
     1
  9
$CELWEIGHT
370
    -1
  9
$ENDCAPS
280
     0
  9
$JOINSTYLE
280
     0
  9
$LWDISPLAY
290
     0
  9
$INSUNITS
 70
     4
  9
$HYPERLINKBASE
  1

  9
$STYLESHEET
  1

  9
$XEDIT
290
     1
  9
$CEPSNTYPE
380
     0
  9
$PSTYLEMODE
290
     1
  9
$FINGERPRINTGUID
  2
{FF7F33C3-4233-11D6-AEE0-0000F45FD7F4}
  9
$VERSIONGUID
  2
{E8199AEB-D4CC-4072-AD10-239B03A0025F}
  9
$EXTNAMES
290
     1
  9
$PSVPSCALE
 40
0.0
  9
$OLESTARTUP
290
     0
  0
ENDSEC
  0
SECTION
  2
CLASSES
  0
CLASS
  1
ACDBDICTIONARYWDFLT
  2
AcDbDictionaryWithDefault
  3
AutoCAD 2000
 90
        0
280
     0
281
     0
  0
CLASS
  1
ACDBPLACEHOLDER
  2
AcDbPlaceHolder
  3
AutoCAD 2000
 90
        0
280
     0
281
     0
  0
CLASS
  1
LAYOUT
  2
AcDbLayout
  3
AutoCAD 2000
 90
        0
280
     0
281
     0
  0
CLASS
  1
DICTIONARYVAR
  2
AcDbDictionaryVar
  3
AutoCAD 2000
 90
        0
280
     0
281
     0
  0
ENDSEC
  0
SECTION
  2
TABLES
  0
TABLE
  2
VPORT
  5
8
330
0
100
AcDbSymbolTable
 70
     1
  0
VPORT
  5
482E
330
8
100
AcDbSymbolTableRecord
100
AcDbViewportTableRecord
  2
*Active
 70
     0
 10
0.0
 20
0.0
 11
1.0
 21
1.0
 12
350.4583588816011
 22
34.4954590004545
 13
0.0
 23
0.0
 14
5.0
 24
5.0
 15
10.0
 25
10.0
 16
0.0
 26
0.0
 36
1.0
 17
0.0
 27
0.0
 37
0.0
 40
780.4405770599442
 41
1.968879668049792
 42
50.0
 43
0.0
 44
0.0
 50
0.0
 51
0.0
 71
     0
 72
   100
 73
     1
 74
     3
 75
     0
 76
     0
 77
     0
 78
     0
281
     0
 65
     1
110
0.0
120
0.0
130
0.0
111
1.0
121
0.0
131
0.0
112
0.0
122
1.0
132
0.0
 79
     0
146
0.0
  0
ENDTAB
  0
TABLE
  2
LTYPE
  5
5
330
0
100
AcDbSymbolTable
 70
     5
  0
LTYPE
  5
14
330
5
100
AcDbSymbolTableRecord
100
AcDbLinetypeTableRecord
  2
ByBlock
 70
     0
  3

 72
    65
 73
     0
 40
0.0
  0
LTYPE
  5
15
330
5
100
AcDbSymbolTableRecord
100
AcDbLinetypeTableRecord
  2
ByLayer
 70
     0
  3

 72
    65
 73
     0
 40
0.0
  0
LTYPE
  5
16
330
5
100
AcDbSymbolTableRecord
100
AcDbLinetypeTableRecord
  2
Continuous
 70
     0
  3
Solid line
 72
    65
 73
     0
 40
0.0
  0
LTYPE
  5
33
330
5
100
AcDbSymbolTableRecord
100
AcDbLinetypeTableRecord
  2
DASHED2
 70
     0
  3
Dashed (.5x) _ _ _ _ _ _ _ _ _ _ _ _ _ _ _ _ _
 72
    65
 73
     2
 40
9.524999999999998
 49
6.349999999999999
 74
     0
 49
-3.174999999999999
 74
     0
  0
LTYPE
  5
34
330
5
100
AcDbSymbolTableRecord
100
AcDbLinetypeTableRecord
  2
CENTER2
 70
     0
  3
Center (.5x) ___ _ ___ _ ___ _ ___ _ ___ _ ___
 72
    65
 73
     4
 40
28.57499999999999
 49
19.05
 74
     0
 49
-3.174999999999999
 74
     0
 49
3.174999999999999
 74
     0
 49
-3.174999999999999
 74
     0
  0
LTYPE
  5
35
330
5
100
AcDbSymbolTableRecord
100
AcDbLinetypeTableRecord
  2
PHANTOM2
 70
     0
  3
Phantom (.5x) ___ _ _ ___ _ _ ___ _ _ ___ _ _
 72
    65
 73
     6
 40
31.75
 49
15.875
 74
     0
 49
-3.174999999999999
 74
     0
 49
3.174999999999999
 74
     0
 49
-3.174999999999999
 74
     0
 49
3.174999999999999
 74
     0
 49
-3.174999999999999
 74
     0
  0
LTYPE
  5
36
330
5
100
AcDbSymbolTableRecord
100
AcDbLinetypeTableRecord
  2
HIDDEN2
 70
     0
  3
Hidden (.5x) _ _ _ _ _ _ _ _ _ _ _ _ _ _ _ _ _
 72
    65
 73
     2
 40
4.762499999999999
 49
3.174999999999999
 74
     0
 49
-1.587499999999999
 74
     0
  0
ENDTAB
  0
TABLE
  2
LAYER
  5
2
330
0
100
AcDbSymbolTable
 70
    13
  0
LAYER
  5
10
330
2
100
AcDbSymbolTableRecord
100
AcDbLayerTableRecord
  2
0
 70
     0
 62
     7
  6
Continuous
370
    -3
390
F
  0
LAYER
  5
40
330
2
100
AcDbSymbolTableRecord
100
AcDbLayerTableRecord
  2
50-0-CON
 70
     0
 62
     4
  6
Continuous
370
    50
390
F
  0
LAYER
  5
41
330
2
100
AcDbSymbolTableRecord
100
AcDbLayerTableRecord
  2
70-0-CON
 70
     0
 62
   202
  6
Continuous
370
    70
390
F
  0
LAYER
  5
4E
330
2
100
AcDbSymbolTableRecord
100
AcDbLayerTableRecord
  2
極太線
 70
     0
 62
     7
  6
Continuous
370
    70
390
F
  0
LAYER
  5
4F
330
2
100
AcDbSymbolTableRecord
100
AcDbLayerTableRecord
  2
細線
 70
     0
 62
     8
  6
Continuous
370
    18
390
F
  0
LAYER
  5
AB
330
2
100
AcDbSymbolTableRecord
100
AcDbLayerTableRecord
  2
構築線
 70
     0
 62
    -2
  6
Continuous
290
     0
370
    18
390
F
  0
LAYER
  5
B8
330
2
100
AcDbSymbolTableRecord
100
AcDbLayerTableRecord
  2
太線
 70
     0
 62
     7
  6
Continuous
370
    35
390
F
  0
LAYER
  5
B9
330
2
100
AcDbSymbolTableRecord
100
AcDbLayerTableRecord
  2
寸法線
 70
     0
 62
     5
  6
Continuous
370
    18
390
F
  0
LAYER
  5
BA
330
2
100
AcDbSymbolTableRecord
100
AcDbLayerTableRecord
  2
破線
 70
     0
 62
     8
  6
HIDDEN2
370
    18
390
F
  0
LAYER
  5
BB
330
2
100
AcDbSymbolTableRecord
100
AcDbLayerTableRecord
  2
中心線
 70
     0
 62
     1
  6
CENTER2
370
    18
390
F
  0
LAYER
  5
BC
330
2
100
AcDbSymbolTableRecord
100
AcDbLayerTableRecord
  2
想像線
 70
     0
 62
     8
  6
PHANTOM2
370
    18
390
F
  0
LAYER
  5
BD
330
2
100
AcDbSymbolTableRecord
100
AcDbLayerTableRecord
  2
文字
 70
     0
 62
     7
  6
Continuous
370
    18
390
F
  0
LAYER
  5
180
330
2
100
AcDbSymbolTableRecord
100
AcDbLayerTableRecord
  2
Defpoints
 70
     0
 62
     7
  6
Continuous
290
     0
370
    -3
390
F
  0
ENDTAB
  0
TABLE
  2
STYLE
  5
3
330
0
100
AcDbSymbolTable
 70
     3
  0
STYLE
  5
11
330
3
100
AcDbSymbolTableRecord
100
AcDbTextStyleTableRecord
  2
Standard
 70
     0
 40
0.0
 41
1.0
 50
0.0
 71
     0
 42
3.0
  3
txt
  4

  0
STYLE
  5
32
330
3
100
AcDbSymbolTableRecord
100
AcDbTextStyleTableRecord
  2

 70
     1
 40
0.0
 41
1.0
 50
0.0
 71
     0
 42
2.5
  3
ltypeshp.shx
  4

  0
STYLE
  5
50
330
3
100
AcDbSymbolTableRecord
100
AcDbTextStyleTableRecord
  2
OKANO
 70
     0
 40
0.0
 41
1.0
 50
15.0
 71
     0
 42
5.0
  3
isocp.shx
  4
bigfont.shx
  0
ENDTAB
  0
TABLE
  2
VIEW
  5
6
330
0
100
AcDbSymbolTable
 70
     0
  0
ENDTAB
  0
TABLE
  2
UCS
  5
7
330
0
100
AcDbSymbolTable
 70
     0
  0
ENDTAB
  0
TABLE
  2
APPID
  5
9
330
0
100
AcDbSymbolTable
 70
     1
  0
APPID
  5
12
330
9
100
AcDbSymbolTableRecord
100
AcDbRegAppTableRecord
  2
ACAD
 70
     0
  0
ENDTAB
  0
TABLE
  2
DIMSTYLE
  5
A
330
0
100
AcDbSymbolTable
 70
     2
100
AcDbDimStyleTable
 71
     2
340
A2
340
27
  0
DIMSTYLE
105
27
102
{ACAD_REACTORS
330
38A6
330
38A8
330
38AB
330
38AC
330
4327
330
4328
330
432B
102
}
330
A
100
AcDbSymbolTableRecord
100
AcDbDimStyleTableRecord
  2
ISO-25
 70
     0
 41
2.5
 42
0.625
 43
3.75
 44
1.25
 73
     0
 74
     0
 77
     1
 78
     8
140
2.5
141
2.5
143
0.03937007874016
147
0.625
171
     3
172
     1
271
     2
272
     2
274
     3
283
     0
284
     8
340
11
  0
DIMSTYLE
105
A2
102
{ACAD_REACTORS
330
3495
330
37DE
330
390D
330
3488
330
3987
330
39ED
330
39FA
330
3A07
330
3A14
330
3A69
330
3A91
330
3B90
330
3BEA
330
41C7
330
41D4
330
41E6
330
41F8
330
42A5
330
42C9
330
445F
330
457D
330
4589
330
4595
330
459D
330
45A2
330
45A9
330
45AE
330
45B4
330
45B9
330
45C5
330
45C8
330
45CC
330
4719
330
4738
330
4745
330
475B
330
478C
330
47B6
102
}
330
A
100
AcDbSymbolTableRecord
100
AcDbDimStyleTableRecord
  2
sunpo
 70
     0
 40
0.0
 41
3.0
 42
2.0
 43
8.0
 44
3.0
 73
     0
 74
     0
 77
     1
 78
     8
140
5.0
141
2.5
143
0.03937007874016
147
1.0
171
     3
172
     1
271
     2
272
     2
274
     3
283
     0
284
     8
340
50
341
9B
342
9B
  0
ENDTAB
  0
TABLE
  2
BLOCK_RECORD
  5
1
330
0
100
AcDbSymbolTable
 70
    49
  0
BLOCK_RECORD
  5
1F
330
1
100
AcDbSymbolTableRecord
100
AcDbBlockTableRecord
  2
*Model_Space
340
22
  0
BLOCK_RECORD
  5
1B
330
1
100
AcDbSymbolTableRecord
100
AcDbBlockTableRecord
  2
*Paper_Space
340
1E
  0
BLOCK_RECORD
  5
9B
330
1
100
AcDbSymbolTableRecord
100
AcDbBlockTableRecord
  2
_Closed
340
0
102
{BLKREFS
331
410A
331
410B
331
4113
331
4114
331
411C
331
411D
331
4128
331
4129
331
4130
331
4131
331
4139
331
413A
331
4144
331
4145
331
414D
331
414E
331
4156
331
4157
331
416A
331
416B
331
41BB
331
41BC
331
424F
331
4254
331
4259
331
42B5
331
42B6
331
42D9
331
42DA
331
43FE
331
43FF
331
4407
331
4408
331
4410
331
4411
331
4480
331
4481
331
468F
331
4690
331
4698
331
4699
331
46A1
331
46A2
331
46AC
331
46AD
331
46B5
331
46B6
331
46D0
331
46D1
331
46DA
331
46DB
331
46F4
331
46F5
331
46FD
331
4703
331
4704
331
4712
331
4713
331
4732
331
4733
331
474A
331
474B
331
4755
331
4756
331
4786
331
4787
331
479C
331
479D
331
47AE
331
47AF
331
47C6
331
47C7
331
47E2
331
47E3
331
4821
331
4822
102
}
  0
BLOCK_RECORD
  5
1510
330
1
100
AcDbSymbolTableRecord
100
AcDbBlockTableRecord
  2
A$C10A573AC
340
0
  0
BLOCK_RECORD
  5
3489
330
1
100
AcDbSymbolTableRecord
100
AcDbBlockTableRecord
  2
*D3
340
0
  0
BLOCK_RECORD
  5
3496
330
1
100
AcDbSymbolTableRecord
100
AcDbBlockTableRecord
  2
*D4
340
0
  0
BLOCK_RECORD
  5
384B
330
1
100
AcDbSymbolTableRecord
100
AcDbBlockTableRecord
  2
*D5
340
0
  0
BLOCK_RECORD
  5
38B4
330
1
100
AcDbSymbolTableRecord
100
AcDbBlockTableRecord
  2
*D6
340
0
  0
BLOCK_RECORD
  5
38C0
330
1
100
AcDbSymbolTableRecord
100
AcDbBlockTableRecord
  2
*D7
340
0
  0
BLOCK_RECORD
  5
38CB
330
1
100
AcDbSymbolTableRecord
100
AcDbBlockTableRecord
  2
*D8
340
0
  0
BLOCK_RECORD
  5
38D6
330
1
100
AcDbSymbolTableRecord
100
AcDbBlockTableRecord
  2
*D9
340
0
  0
BLOCK_RECORD
  5
390E
330
1
100
AcDbSymbolTableRecord
100
AcDbBlockTableRecord
  2
*D10
340
0
  0
BLOCK_RECORD
  5
3988
330
1
100
AcDbSymbolTableRecord
100
AcDbBlockTableRecord
  2
*D11
340
0
  0
BLOCK_RECORD
  5
39EE
330
1
100
AcDbSymbolTableRecord
100
AcDbBlockTableRecord
  2
*D12
340
0
  0
BLOCK_RECORD
  5
39FB
330
1
100
AcDbSymbolTableRecord
100
AcDbBlockTableRecord
  2
*D13
340
0
  0
BLOCK_RECORD
  5
3A08
330
1
100
AcDbSymbolTableRecord
100
AcDbBlockTableRecord
  2
*D14
340
0
  0
BLOCK_RECORD
  5
3A15
330
1
100
AcDbSymbolTableRecord
100
AcDbBlockTableRecord
  2
*D15
340
0
  0
BLOCK_RECORD
  5
3A6A
330
1
100
AcDbSymbolTableRecord
100
AcDbBlockTableRecord
  2
*D16
340
0
  0
BLOCK_RECORD
  5
3A92
330
1
100
AcDbSymbolTableRecord
100
AcDbBlockTableRecord
  2
*D17
340
0
  0
BLOCK_RECORD
  5
3BC1
330
1
100
AcDbSymbolTableRecord
100
AcDbBlockTableRecord
  2
*D18
340
0
  0
BLOCK_RECORD
  5
3C25
330
1
100
AcDbSymbolTableRecord
100
AcDbBlockTableRecord
  2
*D19
340
0
  0
BLOCK_RECORD
  5
41C8
330
1
100
AcDbSymbolTableRecord
100
AcDbBlockTableRecord
  2
*D20
340
0
  0
BLOCK_RECORD
  5
41D5
330
1
100
AcDbSymbolTableRecord
100
AcDbBlockTableRecord
  2
*D21
340
0
  0
BLOCK_RECORD
  5
41E7
330
1
100
AcDbSymbolTableRecord
100
AcDbBlockTableRecord
  2
*D22
340
0
  0
BLOCK_RECORD
  5
41F9
330
1
100
AcDbSymbolTableRecord
100
AcDbBlockTableRecord
  2
*D23
340
0
  0
BLOCK_RECORD
  5
42A6
330
1
100
AcDbSymbolTableRecord
100
AcDbBlockTableRecord
  2
*D24
340
0
  0
BLOCK_RECORD
  5
42CA
330
1
100
AcDbSymbolTableRecord
100
AcDbBlockTableRecord
  2
*D25
340
0
  0
BLOCK_RECORD
  5
432D
330
1
100
AcDbSymbolTableRecord
100
AcDbBlockTableRecord
  2
*D26
340
0
  0
BLOCK_RECORD
  5
4338
330
1
100
AcDbSymbolTableRecord
100
AcDbBlockTableRecord
  2
*D27
340
0
  0
BLOCK_RECORD
  5
4343
330
1
100
AcDbSymbolTableRecord
100
AcDbBlockTableRecord
  2
*D28
340
0
  0
BLOCK_RECORD
  5
4468
330
1
100
AcDbSymbolTableRecord
100
AcDbBlockTableRecord
  2
*D29
340
0
  0
BLOCK_RECORD
  5
45DE
330
1
100
AcDbSymbolTableRecord
100
AcDbBlockTableRecord
  2
*D30
340
0
  0
BLOCK_RECORD
  5
45E9
330
1
100
AcDbSymbolTableRecord
100
AcDbBlockTableRecord
  2
*D31
340
0
  0
BLOCK_RECORD
  5
45F5
330
1
100
AcDbSymbolTableRecord
100
AcDbBlockTableRecord
  2
*D32
340
0
  0
BLOCK_RECORD
  5
4601
330
1
100
AcDbSymbolTableRecord
100
AcDbBlockTableRecord
  2
*D33
340
0
  0
BLOCK_RECORD
  5
460A
330
1
100
AcDbSymbolTableRecord
100
AcDbBlockTableRecord
  2
*D34
340
0
  0
BLOCK_RECORD
  5
4616
330
1
100
AcDbSymbolTableRecord
100
AcDbBlockTableRecord
  2
*D35
340
0
  0
BLOCK_RECORD
  5
4622
330
1
100
AcDbSymbolTableRecord
100
AcDbBlockTableRecord
  2
*D36
340
0
  0
BLOCK_RECORD
  5
462E
330
1
100
AcDbSymbolTableRecord
100
AcDbBlockTableRecord
  2
*D37
340
0
  0
BLOCK_RECORD
  5
463C
330
1
100
AcDbSymbolTableRecord
100
AcDbBlockTableRecord
  2
*D38
340
0
  0
BLOCK_RECORD
  5
4648
330
1
100
AcDbSymbolTableRecord
100
AcDbBlockTableRecord
  2
*D39
340
0
  0
BLOCK_RECORD
  5
4654
330
1
100
AcDbSymbolTableRecord
100
AcDbBlockTableRecord
  2
*D40
340
0
  0
BLOCK_RECORD
  5
4660
330
1
100
AcDbSymbolTableRecord
100
AcDbBlockTableRecord
  2
*D41
340
0
  0
BLOCK_RECORD
  5
471A
330
1
100
AcDbSymbolTableRecord
100
AcDbBlockTableRecord
  2
*D42
340
0
  0
BLOCK_RECORD
  5
4739
330
1
100
AcDbSymbolTableRecord
100
AcDbBlockTableRecord
  2
*D43
340
0
  0
BLOCK_RECORD
  5
4746
330
1
100
AcDbSymbolTableRecord
100
AcDbBlockTableRecord
  2
*D44
340
0
  0
BLOCK_RECORD
  5
475C
330
1
100
AcDbSymbolTableRecord
100
AcDbBlockTableRecord
  2
*D45
340
0
  0
BLOCK_RECORD
  5
478D
330
1
100
AcDbSymbolTableRecord
100
AcDbBlockTableRecord
  2
*D46
340
0
  0
BLOCK_RECORD
  5
47B7
330
1
100
AcDbSymbolTableRecord
100
AcDbBlockTableRecord
  2
*D48
340
0
  0
ENDTAB
  0
ENDSEC
  0
SECTION
  2
BLOCKS
  0
BLOCK
  5
20
330
1F
100
AcDbEntity
  8
0
100
AcDbBlockBegin
  2
*Model_Space
 70
     0
 10
0.0
 20
0.0
 30
0.0
  3
*Model_Space
  1

  0
ENDBLK
  5
21
330
1F
100
AcDbEntity
  8
0
100
AcDbBlockEnd
  0
BLOCK
  5
1C
330
1B
100
AcDbEntity
 67
     1
  8
0
100
AcDbBlockBegin
  2
*Paper_Space
 70
     0
 10
0.0
 20
0.0
 30
0.0
  3
*Paper_Space
  1

  0
ENDBLK
  5
1D
330
1B
100
AcDbEntity
 67
     1
  8
0
100
AcDbBlockEnd
  0
BLOCK
  5
A0
330
9B
100
AcDbEntity
  8
0
100
AcDbBlockBegin
  2
_Closed
 70
     0
 10
0.0
 20
0.0
 30
0.0
  3
_Closed
  1

  0
LINE
  5
9C
330
9B
100
AcDbEntity
  8
0
 62
     0
370
    -2
100
AcDbLine
 10
-1.0
 20
0.1666666666666666
 30
0.0
 11
0.0
 21
0.0
 31
0.0
  0
LINE
  5
9D
330
9B
100
AcDbEntity
  8
0
 62
     0
370
    -2
100
AcDbLine
 10
0.0
 20
0.0
 30
0.0
 11
-1.0
 21
-0.1666666666666666
 31
0.0
  0
LINE
  5
9E
330
9B
100
AcDbEntity
  8
0
 62
     0
370
    -2
100
AcDbLine
 10
-1.0
 20
0.1666666666666666
 30
0.0
 11
-1.0
 21
-0.1666666666666666
 31
0.0
  0
LINE
  5
9F
330
9B
100
AcDbEntity
  8
0
 62
     0
370
    -2
100
AcDbLine
 10
0.0
 20
0.0
 30
0.0
 11
-1.0
 21
0.0
 31
0.0
  0
ENDBLK
  5
A1
330
9B
100
AcDbEntity
  8
0
100
AcDbBlockEnd
  0
BLOCK
  5
155B
330
1510
100
AcDbEntity
  8
0
100
AcDbBlockBegin
  2
A$C10A573AC
 70
     0
 10
0.0
 20
0.0
 30
0.0
  3
A$C10A573AC
  1

  0
TEXT
  5
1511
330
1510
100
AcDbEntity
  8
文字
100
AcDbText
 10
0.9844302777919438
 20
5.224957122252135
 30
0.0
 40
3.0
  1
Materal : Steel.
 51
15.0
  7
OKANO
100
AcDbText
  0
TEXT
  5
1512
330
1510
100
AcDbEntity
  8
文字
100
AcDbText
 10
-0.1141909619694843
 20
0.7500001922403499
 30
0.0
 40
3.0
  1
Surface treatment : Electro galvanized.
 51
15.0
  7
OKANO
100
AcDbText
  0
TEXT
  5
1513
330
1510
100
AcDbEntity
  8
文字
100
AcDbText
 10
-0.4901926332574931
 20
9.159967445193728
 30
0.0
 40
3.0
  1
5 TORGUE SCREW  M5-6
 51
15.0
  7
OKANO
100
AcDbText
  0
TEXT
  5
1514
330
1510
100
AcDbEntity
  8
文字
100
AcDbText
 10
1.364713526390005
 20
78.88822913323082
 30
0.0
 40
3.0
  1
Special standard,
 51
15.0
  7
OKANO
100
AcDbText
  0
TEXT
  5
1515
330
1510
100
AcDbEntity
  8
文字
100
AcDbText
 10
92.88160823408942
 20
89.92753849837379
 30
0.0
 40
3.0
  1
Screw Type
 51
15.0
  7
OKANO
100
AcDbText
  0
LINE
  5
1516
330
1510
100
AcDbEntity
  8
太線
100
AcDbLine
 10
113.9464587597784
 20
81.93930390144641
 30
0.0
 11
112.4464587597784
 21
81.93930390144641
 31
0.0
  0
LINE
  5
1517
330
1510
100
AcDbEntity
  8
太線
100
AcDbLine
 10
112.4464587597784
 20
76.9393039014464
 30
0.0
 11
121.4644995438761
 21
76.9393039014464
 31
0.0
  0
TEXT
  5
1518
330
1510
100
AcDbEntity
  8
文字
100
AcDbText
 10
93.46068240437217
 20
77.96976862235396
 30
0.0
 40
2.0
  1
17-30
 51
15.0
  7
OKANO
100
AcDbText
  0
LINE
  5
1519
330
1510
100
AcDbEntity
  8
太線
100
AcDbLine
 10
111.9464587597784
 20
81.43930390144641
 30
0.0
 11
111.9464587597784
 21
77.4393039014464
 31
0.0
  0
LINE
  5
151A
330
1510
100
AcDbEntity
  8
太線
100
AcDbLine
 10
91.94645875977846
 20
81.43930390144641
 30
0.0
 11
91.94645875977846
 21
77.43930390144639
 31
0.0
  0
LINE
  5
151B
330
1510
100
AcDbEntity
  8
太線
100
AcDbLine
 10
101.9644995438761
 20
77.4393039014464
 30
0.0
 11
101.9644995438761
 21
81.43930390144641
 31
0.0
  0
LINE
  5
151C
330
1510
100
AcDbEntity
  8
太線
100
AcDbLine
 10
92.44645875977846
 20
76.9393039014464
 30
0.0
 11
101.4644995438761
 21
76.9393039014464
 31
0.0
  0
ARC
  5
151D
330
1510
100
AcDbEntity
  8
太線
100
AcDbCircle
 10
92.44645875977846
 20
77.43930390144639
 30
0.0
 40
0.5
100
AcDbArc
 50
180.0
 51
270.0
  0
ARC
  5
151E
330
1510
100
AcDbEntity
  8
太線
100
AcDbCircle
 10
101.4644995438761
 20
77.4393039014464
 30
0.0
 40
0.5
100
AcDbArc
 50
270.0
 51
0.0
  0
ARC
  5
151F
330
1510
100
AcDbEntity
  8
太線
100
AcDbCircle
 10
112.4464587597784
 20
77.4393039014464
 30
0.0
 40
0.5
100
AcDbArc
 50
180.0
 51
270.0
  0
LINE
  5
1520
330
1510
100
AcDbEntity
  8
想像線
100
AcDbLine
 10
93.94645875977847
 20
81.93930390144641
 30
0.0
 11
99.96449954387617
 21
81.93930390144641
 31
0.0
  0
LINE
  5
1521
330
1510
100
AcDbEntity
  8
極太線
100
AcDbLine
 10
96.38762957111168
 20
85.43930390144641
 30
0.0
 11
97.50528794844525
 21
85.43930390144641
 31
0.0
  0
CIRCLE
  5
1522
330
1510
100
AcDbEntity
  8
太線
100
AcDbCircle
 10
96.94645875977847
 20
85.43930390144641
 30
0.0
 40
0.5588291886667776
  0
LINE
  5
1523
330
1510
100
AcDbEntity
  8
太線
100
AcDbLine
 10
99.46449954387617
 20
86.93930390144641
 30
0.0
 11
94.44645875977846
 21
86.93930390144641
 31
0.0
  0
LINE
  5
1524
330
1510
100
AcDbEntity
  8
太線
100
AcDbLine
 10
93.94645875977847
 20
86.43930390144641
 30
0.0
 11
93.94645875977847
 21
81.93930390144641
 31
0.0
  0
ARC
  5
1525
330
1510
100
AcDbEntity
  8
太線
100
AcDbCircle
 10
92.44645875977846
 20
81.43930390144641
 30
0.0
 40
0.5
100
AcDbArc
 50
90.0
 51
180.0
  0
LINE
  5
1526
330
1510
100
AcDbEntity
  8
太線
100
AcDbLine
 10
93.94645875977847
 20
81.93930390144641
 30
0.0
 11
92.44645875977846
 21
81.93930390144641
 31
0.0
  0
ARC
  5
1527
330
1510
100
AcDbEntity
  8
太線
100
AcDbCircle
 10
94.44645875977846
 20
86.43930390144641
 30
0.0
 40
0.5
100
AcDbArc
 50
90.0
 51
180.0
  0
LINE
  5
1528
330
1510
100
AcDbEntity
  8
太線
100
AcDbLine
 10
99.96449954387617
 20
81.93930390144641
 30
0.0
 11
99.96449954387617
 21
86.43930390144641
 31
0.0
  0
LINE
  5
1529
330
1510
100
AcDbEntity
  8
太線
100
AcDbLine
 10
101.4644995438761
 20
81.93930390144641
 30
0.0
 11
99.96449954387617
 21
81.93930390144641
 31
0.0
  0
ARC
  5
152A
330
1510
100
AcDbEntity
  8
太線
100
AcDbCircle
 10
101.4644995438761
 20
81.43930390144641
 30
0.0
 40
0.5
100
AcDbArc
 50
0.0
 51
90.0
  0
ARC
  5
152B
330
1510
100
AcDbEntity
  8
太線
100
AcDbCircle
 10
99.46449954387617
 20
86.43930390144641
 30
0.0
 40
0.5
100
AcDbArc
 50
0.0
 51
90.0
  0
LINE
  5
152C
330
1510
100
AcDbEntity
  8
極太線
100
AcDbLine
 10
96.94645875977847
 20
85.99813309011318
 30
0.0
 11
96.94645875977847
 21
84.88047471277964
 31
0.0
  0
ARC
  5
152D
330
1510
100
AcDbEntity
  8
太線
100
AcDbCircle
 10
112.4464587597784
 20
81.43930390144641
 30
0.0
 40
0.5
100
AcDbArc
 50
90.0
 51
180.0
  0
TEXT
  5
152E
330
1510
100
AcDbEntity
  8
文字
100
AcDbText
 10
134.3819212586066
 20
78.16263579228063
 30
0.0
 40
2.0
  1
101
 51
15.0
  7
OKANO
100
AcDbText
  0
TEXT
  5
152F
330
1510
100
AcDbEntity
  8
文字
100
AcDbText
 10
113.3422276612066
 20
77.96976862235396
 30
0.0
 40
2.0
  1
38-83
 51
15.0
  7
OKANO
100
AcDbText
  0
LINE
  5
1530
330
1510
100
AcDbEntity
  8
太線
100
AcDbLine
 10
141.9825403279738
 20
77.4393039014464
 30
0.0
 11
141.9825403279738
 21
81.43930390144641
 31
0.0
  0
LINE
  5
1531
330
1510
100
AcDbEntity
  8
太線
100
AcDbLine
 10
131.9644995438761
 20
81.43930390144641
 30
0.0
 11
131.9644995438761
 21
77.4393039014464
 31
0.0
  0
LINE
  5
1532
330
1510
100
AcDbEntity
  8
太線
100
AcDbLine
 10
121.9644995438761
 20
77.4393039014464
 30
0.0
 11
121.9644995438761
 21
81.43930390144641
 31
0.0
  0
ARC
  5
1533
330
1510
100
AcDbEntity
  8
太線
100
AcDbCircle
 10
121.4644995438761
 20
77.4393039014464
 30
0.0
 40
0.5
100
AcDbArc
 50
270.0
 51
0.0
  0
LINE
  5
1534
330
1510
100
AcDbEntity
  8
太線
100
AcDbLine
 10
132.4644995438761
 20
76.9393039014464
 30
0.0
 11
141.4825403279738
 21
76.9393039014464
 31
0.0
  0
ARC
  5
1535
330
1510
100
AcDbEntity
  8
太線
100
AcDbCircle
 10
132.4644995438761
 20
77.4393039014464
 30
0.0
 40
0.5
100
AcDbArc
 50
180.0
 51
270.0
  0
ARC
  5
1536
330
1510
100
AcDbEntity
  8
太線
100
AcDbCircle
 10
141.4825403279738
 20
77.4393039014464
 30
0.0
 40
0.5
100
AcDbArc
 50
270.0
 51
0.0
  0
ARC
  5
1537
330
1510
100
AcDbEntity
  8
太線
100
AcDbCircle
 10
121.4644995438761
 20
81.43930390144641
 30
0.0
 40
0.5
100
AcDbArc
 50
0.0
 51
90.0
  0
LINE
  5
1538
330
1510
100
AcDbEntity
  8
太線
100
AcDbLine
 10
119.9644995438761
 20
81.93930390144641
 30
0.0
 11
119.9644995438761
 21
86.43930390144641
 31
0.0
  0
LINE
  5
1539
330
1510
100
AcDbEntity
  8
太線
100
AcDbLine
 10
113.9464587597784
 20
86.43930390144641
 30
0.0
 11
113.9464587597784
 21
81.93930390144641
 31
0.0
  0
LINE
  5
153A
330
1510
100
AcDbEntity
  8
想像線
100
AcDbLine
 10
113.9464587597784
 20
81.93930390144641
 30
0.0
 11
119.9644995438761
 21
81.93930390144641
 31
0.0
  0
LINE
  5
153B
330
1510
100
AcDbEntity
  8
太線
100
AcDbLine
 10
121.4644995438761
 20
81.93930390144641
 30
0.0
 11
119.9644995438761
 21
81.93930390144641
 31
0.0
  0
LINE
  5
153C
330
1510
100
AcDbEntity
  8
太線
100
AcDbLine
 10
119.4644995438761
 20
86.93930390144641
 30
0.0
 11
114.4464587597784
 21
86.93930390144641
 31
0.0
  0
ARC
  5
153D
330
1510
100
AcDbEntity
  8
太線
100
AcDbCircle
 10
114.4464587597784
 20
86.43930390144641
 30
0.0
 40
0.5
100
AcDbArc
 50
90.0
 51
180.0
  0
CIRCLE
  5
153E
330
1510
100
AcDbEntity
  8
太線
100
AcDbCircle
 10
115.4464587597784
 20
85.43930390144641
 30
0.0
 40
0.5588291886667776
  0
LINE
  5
153F
330
1510
100
AcDbEntity
  8
極太線
100
AcDbLine
 10
115.4464587597784
 20
85.99813309011318
 30
0.0
 11
115.4464587597784
 21
84.88047471277964
 31
0.0
  0
LINE
  5
1540
330
1510
100
AcDbEntity
  8
極太線
100
AcDbLine
 10
114.8876295711116
 20
85.43930390144641
 30
0.0
 11
116.0052879484452
 21
85.43930390144641
 31
0.0
  0
ARC
  5
1541
330
1510
100
AcDbEntity
  8
太線
100
AcDbCircle
 10
119.4644995438761
 20
86.43930390144641
 30
0.0
 40
0.5
100
AcDbArc
 50
0.0
 51
90.0
  0
LINE
  5
1542
330
1510
100
AcDbEntity
  8
極太線
100
AcDbLine
 10
117.9056703552094
 20
85.43930390144641
 30
0.0
 11
119.0233287325429
 21
85.43930390144641
 31
0.0
  0
LINE
  5
1543
330
1510
100
AcDbEntity
  8
極太線
100
AcDbLine
 10
118.4644995438761
 20
85.99813309011318
 30
0.0
 11
118.4644995438761
 21
84.88047471277964
 31
0.0
  0
CIRCLE
  5
1544
330
1510
100
AcDbEntity
  8
太線
100
AcDbCircle
 10
118.4644995438761
 20
85.43930390144641
 30
0.0
 40
0.5588291886667776
  0
LINE
  5
1545
330
1510
100
AcDbEntity
  8
想像線
100
AcDbLine
 10
133.9644995438761
 20
81.93930390144641
 30
0.0
 11
139.9825403279738
 21
81.93930390144641
 31
0.0
  0
LINE
  5
1546
330
1510
100
AcDbEntity
  8
極太線
100
AcDbLine
 10
137.9237111393071
 20
85.43930390144641
 30
0.0
 11
139.0413695166406
 21
85.43930390144641
 31
0.0
  0
CIRCLE
  5
1547
330
1510
100
AcDbEntity
  8
太線
100
AcDbCircle
 10
138.4825403279738
 20
85.43930390144641
 30
0.0
 40
0.5588291886667776
  0
CIRCLE
  5
1548
330
1510
100
AcDbEntity
  8
太線
100
AcDbCircle
 10
138.4825403279738
 20
83.26342923362075
 30
0.0
 40
0.5588291886667776
  0
LINE
  5
1549
330
1510
100
AcDbEntity
  8
極太線
100
AcDbLine
 10
137.9237111393071
 20
83.26342923362075
 30
0.0
 11
139.0413695166406
 21
83.26342923362075
 31
0.0
  0
LINE
  5
154A
330
1510
100
AcDbEntity
  8
太線
100
AcDbLine
 10
139.4825403279738
 20
86.93930390144641
 30
0.0
 11
134.4644995438761
 21
86.93930390144641
 31
0.0
  0
LINE
  5
154B
330
1510
100
AcDbEntity
  8
太線
100
AcDbLine
 10
133.9644995438761
 20
86.43930390144641
 30
0.0
 11
133.9644995438761
 21
81.93930390144641
 31
0.0
  0
ARC
  5
154C
330
1510
100
AcDbEntity
  8
太線
100
AcDbCircle
 10
132.4644995438761
 20
81.43930390144641
 30
0.0
 40
0.5
100
AcDbArc
 50
90.0
 51
180.0
  0
LINE
  5
154D
330
1510
100
AcDbEntity
  8
太線
100
AcDbLine
 10
133.9644995438761
 20
81.93930390144641
 30
0.0
 11
132.4644995438761
 21
81.93930390144641
 31
0.0
  0
LINE
  5
154E
330
1510
100
AcDbEntity
  8
極太線
100
AcDbLine
 10
134.9056703552093
 20
83.26342923362075
 30
0.0
 11
136.0233287325429
 21
83.26342923362075
 31
0.0
  0
LINE
  5
154F
330
1510
100
AcDbEntity
  8
極太線
100
AcDbLine
 10
135.4644995438761
 20
83.82225842228752
 30
0.0
 11
135.4644995438761
 21
82.70460004495395
 31
0.0
  0
CIRCLE
  5
1550
330
1510
100
AcDbEntity
  8
太線
100
AcDbCircle
 10
135.4644995438761
 20
83.26342923362075
 30
0.0
 40
0.5588291886667776
  0
ARC
  5
1551
330
1510
100
AcDbEntity
  8
太線
100
AcDbCircle
 10
134.4644995438761
 20
86.43930390144641
 30
0.0
 40
0.5
100
AcDbArc
 50
90.0
 51
180.0
  0
CIRCLE
  5
1552
330
1510
100
AcDbEntity
  8
太線
100
AcDbCircle
 10
135.4644995438761
 20
85.43930390144641
 30
0.0
 40
0.5588291886667776
  0
LINE
  5
1553
330
1510
100
AcDbEntity
  8
極太線
100
AcDbLine
 10
135.4644995438761
 20
85.99813309011318
 30
0.0
 11
135.4644995438761
 21
84.88047471277964
 31
0.0
  0
LINE
  5
1554
330
1510
100
AcDbEntity
  8
極太線
100
AcDbLine
 10
134.9056703552093
 20
85.43930390144641
 30
0.0
 11
136.0233287325429
 21
85.43930390144641
 31
0.0
  0
LINE
  5
1555
330
1510
100
AcDbEntity
  8
太線
100
AcDbLine
 10
139.9825403279738
 20
81.93930390144641
 30
0.0
 11
139.9825403279738
 21
86.43930390144641
 31
0.0
  0
ARC
  5
1556
330
1510
100
AcDbEntity
  8
太線
100
AcDbCircle
 10
141.4825403279738
 20
81.43930390144641
 30
0.0
 40
0.5
100
AcDbArc
 50
0.0
 51
90.0
  0
LINE
  5
1557
330
1510
100
AcDbEntity
  8
極太線
100
AcDbLine
 10
138.4825403279738
 20
83.82225842228752
 30
0.0
 11
138.4825403279738
 21
82.70460004495395
 31
0.0
  0
LINE
  5
1558
330
1510
100
AcDbEntity
  8
太線
100
AcDbLine
 10
141.4825403279738
 20
81.93930390144641
 30
0.0
 11
139.9825403279738
 21
81.93930390144641
 31
0.0
  0
ARC
  5
1559
330
1510
100
AcDbEntity
  8
太線
100
AcDbCircle
 10
139.4825403279738
 20
86.43930390144641
 30
0.0
 40
0.5
100
AcDbArc
 50
0.0
 51
90.0
  0
LINE
  5
155A
330
1510
100
AcDbEntity
  8
極太線
100
AcDbLine
 10
138.4825403279738
 20
85.99813309011318
 30
0.0
 11
138.4825403279738
 21
84.88047471277964
 31
0.0
  0
ENDBLK
  5
155C
330
1510
100
AcDbEntity
  8
0
100
AcDbBlockEnd
  0
BLOCK
  5
3493
330
3489
100
AcDbEntity
  8
0
100
AcDbBlockBegin
  2
*D3
 70
     1
 10
0.0
 20
0.0
 30
0.0
  3
*D3
  1

  0
LINE
  5
4107
330
3489
100
AcDbEntity
  8
寸法線
 62
     0
370
    -2
100
AcDbLine
 10
625.2952221565829
 20
-183.4603679898747
 30
0.0
 11
631.1782731947489
 21
-183.4603679898747
 31
0.0
  0
LINE
  5
4108
330
3489
100
AcDbEntity
  8
寸法線
 62
     0
370
    -2
100
AcDbLine
 10
602.7952221565828
 20
-43.46036798987472
 30
0.0
 11
631.1782731947489
 21
-43.46036798987473
 31
0.0
  0
LINE
  5
4109
330
3489
100
AcDbEntity
  8
寸法線
 62
     0
370
    -2
100
AcDbLine
 10
628.1782731947489
 20
-180.4603679898747
 30
0.0
 11
628.1782731947489
 21
-46.46036798987473
 31
0.0
  0
INSERT
  5
410A
330
3489
100
AcDbEntity
  8
寸法線
 62
     0
370
    -2
100
AcDbBlockReference
  2
_Closed
 10
628.1782731947489
 20
-183.4603679898747
 30
0.0
 41
3.0
 42
3.0
 43
3.0
 50
270.0
  0
INSERT
  5
410B
330
3489
100
AcDbEntity
  8
寸法線
 62
     0
370
    -2
100
AcDbBlockReference
  2
_Closed
 10
628.1782731947489
 20
-43.46036798987473
 30
0.0
 41
3.0
 42
3.0
 43
3.0
 50
90.0
  0
MTEXT
  5
410C
330
3489
100
AcDbEntity
  8
寸法線
 62
     0
100
AcDbMText
 10
624.6782731947489
 20
-113.4603679898746
 30
0.0
 40
5.0
 41
0.0
 71
     5
 72
     1
  1
140
  7
OKANO
 11
0.0000000000000001
 21
1.0
 31
0.0
 73
     1
 44
1.0
  0
POINT
  5
410D
330
3489
100
AcDbEntity
  8
Defpoints
 62
     0
100
AcDbPoint
 10
623.2952221565828
 20
-183.4603679898747
 30
0.0
  0
POINT
  5
410E
330
3489
100
AcDbEntity
  8
Defpoints
 62
     0
100
AcDbPoint
 10
600.7952221565829
 20
-43.46036798987472
 30
0.0
  0
POINT
  5
410F
330
3489
100
AcDbEntity
  8
Defpoints
 62
     0
100
AcDbPoint
 10
628.1782731947489
 20
-43.46036798987473
 30
0.0
  0
ENDBLK
  5
3494
330
3489
100
AcDbEntity
  8
0
100
AcDbBlockEnd
  0
BLOCK
  5
34A0
330
3496
100
AcDbEntity
  8
0
100
AcDbBlockBegin
  2
*D4
 70
     1
 10
0.0
 20
0.0
 30
0.0
  3
*D4
  1

  0
LINE
  5
4153
330
3496
100
AcDbEntity
  8
寸法線
 62
     0
370
    -2
100
AcDbLine
 10
796.5246368337054
 20
-182.9190081577356
 30
0.0
 11
799.2361512116772
 21
-182.9190081577356
 31
0.0
  0
LINE
  5
4154
330
3496
100
AcDbEntity
  8
寸法線
 62
     0
370
    -2
100
AcDbLine
 10
744.920331069894
 20
-43.46036798987472
 30
0.0
 11
799.2361512116772
 21
-43.46036798987474
 31
0.0
  0
LINE
  5
4155
330
3496
100
AcDbEntity
  8
寸法線
 62
     0
370
    -2
100
AcDbLine
 10
796.2361512116772
 20
-179.9190081577357
 30
0.0
 11
796.2361512116772
 21
-46.46036798987474
 31
0.0
  0
INSERT
  5
4156
330
3496
100
AcDbEntity
  8
寸法線
 62
     0
370
    -2
100
AcDbBlockReference
  2
_Closed
 10
796.2361512116772
 20
-182.9190081577356
 30
0.0
 41
3.0
 42
3.0
 43
3.0
 50
270.0
  0
INSERT
  5
4157
330
3496
100
AcDbEntity
  8
寸法線
 62
     0
370
    -2
100
AcDbBlockReference
  2
_Closed
 10
796.2361512116772
 20
-43.46036798987474
 30
0.0
 41
3.0
 42
3.0
 43
3.0
 50
90.0
  0
MTEXT
  5
4158
330
3496
100
AcDbEntity
  8
寸法線
 62
     0
100
AcDbMText
 10
792.7361512116772
 20
-113.189688073805
 30
0.0
 40
5.0
 41
0.0
 71
     5
 72
     1
  1
140
  7
OKANO
 11
0.0000000000000001
 21
1.0
 31
0.0
 73
     1
 44
1.0
  0
POINT
  5
4159
330
3496
100
AcDbEntity
  8
Defpoints
 62
     0
100
AcDbPoint
 10
794.5246368337055
 20
-182.9190081577356
 30
0.0
  0
POINT
  5
415A
330
3496
100
AcDbEntity
  8
Defpoints
 62
     0
100
AcDbPoint
 10
742.920331069894
 20
-43.46036798987472
 30
0.0
  0
POINT
  5
415B
330
3496
100
AcDbEntity
  8
Defpoints
 62
     0
100
AcDbPoint
 10
796.2361512116772
 20
-43.46036798987474
 30
0.0
  0
ENDBLK
  5
34A1
330
3496
100
AcDbEntity
  8
0
100
AcDbBlockEnd
  0
BLOCK
  5
3855
330
384B
100
AcDbEntity
  8
0
100
AcDbBlockBegin
  2
*D5
 70
     1
 10
0.0
 20
0.0
 30
0.0
  3
*D5
  1

  0
LINE
  5
4110
330
384B
100
AcDbEntity
  8
寸法線
 62
     0
370
    -2
100
AcDbLine
 10
498.3659410809912
 20
-183.4603679898747
 30
0.0
 11
504.2489921191572
 21
-183.4603679898747
 31
0.0
  0
LINE
  5
4111
330
384B
100
AcDbEntity
  8
寸法線
 62
     0
370
    -2
100
AcDbLine
 10
475.8659410809912
 20
-43.46036798987472
 30
0.0
 11
504.2489921191572
 21
-43.46036798987473
 31
0.0
  0
LINE
  5
4112
330
384B
100
AcDbEntity
  8
寸法線
 62
     0
370
    -2
100
AcDbLine
 10
501.2489921191572
 20
-180.4603679898747
 30
0.0
 11
501.2489921191572
 21
-46.46036798987473
 31
0.0
  0
INSERT
  5
4113
330
384B
100
AcDbEntity
  8
寸法線
 62
     0
370
    -2
100
AcDbBlockReference
  2
_Closed
 10
501.2489921191572
 20
-183.4603679898747
 30
0.0
 41
3.0
 42
3.0
 43
3.0
 50
270.0
  0
INSERT
  5
4114
330
384B
100
AcDbEntity
  8
寸法線
 62
     0
370
    -2
100
AcDbBlockReference
  2
_Closed
 10
501.2489921191572
 20
-43.46036798987473
 30
0.0
 41
3.0
 42
3.0
 43
3.0
 50
90.0
  0
MTEXT
  5
4115
330
384B
100
AcDbEntity
  8
寸法線
 62
     0
100
AcDbMText
 10
497.7489921191573
 20
-113.4603679898746
 30
0.0
 40
5.0
 41
0.0
 71
     5
 72
     1
  1
140
  7
OKANO
 11
0.0000000000000001
 21
1.0
 31
0.0
 73
     1
 44
1.0
  0
POINT
  5
4116
330
384B
100
AcDbEntity
  8
Defpoints
 62
     0
100
AcDbPoint
 10
496.3659410809912
 20
-183.4603679898747
 30
0.0
  0
POINT
  5
4117
330
384B
100
AcDbEntity
  8
Defpoints
 62
     0
100
AcDbPoint
 10
473.8659410809912
 20
-43.46036798987472
 30
0.0
  0
POINT
  5
4118
330
384B
100
AcDbEntity
  8
Defpoints
 62
     0
100
AcDbPoint
 10
501.2489921191572
 20
-43.46036798987473
 30
0.0
  0
ENDBLK
  5
3856
330
384B
100
AcDbEntity
  8
0
100
AcDbBlockEnd
  0
BLOCK
  5
38BE
330
38B4
100
AcDbEntity
  8
0
100
AcDbBlockBegin
  2
*D6
 70
     1
 10
0.0
 20
0.0
 30
0.0
  3
*D6
  1

  0
LINE
  5
4806
330
38B4
100
AcDbEntity
  8
寸法線
 62
     0
370
    -2
100
AcDbLine
 10
522.1463528069858
 20
116.220616022212
 30
0.0
 11
522.1463528069858
 21
80.5806254484937
 31
0.0
  0
LINE
  5
4807
330
38B4
100
AcDbEntity
  8
寸法線
 62
     0
370
    -2
100
AcDbLine
 10
592.1463528069851
 20
116.2206160222113
 30
0.0
 11
592.1463528069851
 21
80.5806254484937
 31
0.0
  0
LINE
  5
4808
330
38B4
100
AcDbEntity
  8
寸法線
 62
     0
370
    -2
100
AcDbLine
 10
524.6463528069859
 20
81.8306254484937
 30
0.0
 11
589.646352806985
 21
81.8306254484937
 31
0.0
  0
SOLID
  5
4809
330
38B4
100
AcDbEntity
  8
寸法線
 62
     0
100
AcDbTrace
 10
524.6463528069859
 20
82.24729211516038
 30
0.0
 11
524.6463528069859
 21
81.41395878182704
 31
0.0
 12
522.1463528069858
 22
81.8306254484937
 32
0.0
 13
522.1463528069858
 23
81.8306254484937
 33
0.0
  0
SOLID
  5
480A
330
38B4
100
AcDbEntity
  8
寸法線
 62
     0
100
AcDbTrace
 10
589.646352806985
 20
82.24729211516038
 30
0.0
 11
589.646352806985
 21
81.41395878182704
 31
0.0
 12
592.1463528069851
 22
81.8306254484937
 32
0.0
 13
592.1463528069851
 23
81.8306254484937
 33
0.0
  0
MTEXT
  5
480B
330
38B4
100
AcDbEntity
  8
寸法線
 62
     0
370
    25
100
AcDbMText
 10
557.1463528069855
 20
83.7056254484937
 30
0.0
 40
2.5
 41
0.0
 71
     5
 72
     1
  1
70
 73
     1
 44
1.0
  0
POINT
  5
480C
330
38B4
100
AcDbEntity
  8
Defpoints
 62
     0
100
AcDbPoint
 10
522.1463528069858
 20
116.8456160222121
 30
0.0
  0
POINT
  5
480D
330
38B4
100
AcDbEntity
  8
Defpoints
 62
     0
100
AcDbPoint
 10
592.1463528069851
 20
116.8456160222113
 30
0.0
  0
POINT
  5
480E
330
38B4
100
AcDbEntity
  8
Defpoints
 62
     0
100
AcDbPoint
 10
592.1463528069851
 20
81.8306254484937
 30
0.0
  0
ENDBLK
  5
38BF
330
38B4
100
AcDbEntity
  8
0
100
AcDbBlockEnd
  0
BLOCK
  5
38C9
330
38C0
100
AcDbEntity
  8
0
100
AcDbBlockBegin
  2
*D7
 70
     1
 10
0.0
 20
0.0
 30
0.0
  3
*D7
  1

  0
LINE
  5
4825
330
38C0
100
AcDbEntity
  8
寸法線
 62
     0
370
    -2
100
AcDbLine
 10
605.3765388216906
 20
132.2860377282647
 30
0.0
 11
597.5143381162306
 21
123.1103772881923
 31
0.0
  0
LINE
  5
4826
330
38C0
100
AcDbEntity
  8
寸法線
 62
     0
370
    -2
100
AcDbLine
 10
586.7783674977406
 20
110.5808547562315
 30
0.0
 11
585.1517052828179
 21
108.682442251389
 31
0.0
  0
MTEXT
  5
4827
330
38C0
100
AcDbEntity
  8
寸法線
 62
     0
370
    25
100
AcDbMText
 10
600.8349601977901
 20
129.8674104218418
 30
0.0
 40
2.5
 41
0.0
 71
     5
 72
     1
  1
\U+220511.5
 11
0.6506648859690991
 21
0.7593650019370259
 31
0.0
 73
     1
 44
1.0
  0
LINE
  5
4828
330
38C0
100
AcDbEntity
  8
寸法線
 62
     0
370
    -2
100
AcDbLine
 10
588.4050297126634
 20
112.4792672610741
 30
0.0
 11
595.8876759013079
 21
121.2119647833498
 31
0.0
  0
SOLID
  5
4829
330
38C0
100
AcDbEntity
  8
寸法線
 62
     0
100
AcDbTrace
 10
586.4619654136003
 20
110.8519651253853
 30
0.0
 11
587.0947695818811
 21
110.3097443870777
 31
0.0
 12
588.4050297126634
 22
112.4792672610741
 32
0.0
 13
588.4050297126634
 23
112.4792672610741
 33
0.0
  0
SOLID
  5
482A
330
38C0
100
AcDbEntity
  8
寸法線
 62
     0
100
AcDbTrace
 10
597.1979360320902
 20
123.3814876573461
 30
0.0
 11
597.8307402003711
 21
122.8392669190385
 31
0.0
 12
595.8876759013079
 22
121.2119647833498
 32
0.0
 13
595.8876759013079
 23
121.2119647833498
 33
0.0
  0
POINT
  5
482B
330
38C0
100
AcDbEntity
  8
Defpoints
 62
     0
100
AcDbPoint
 10
595.8876759013079
 20
121.2119647833498
 30
0.0
  0
POINT
  5
482C
330
38C0
100
AcDbEntity
  8
Defpoints
 62
     0
100
AcDbPoint
 10
588.4050297126634
 20
112.4792672610741
 30
0.0
  0
ENDBLK
  5
38CA
330
38C0
100
AcDbEntity
  8
0
100
AcDbBlockEnd
  0
BLOCK
  5
38D4
330
38CB
100
AcDbEntity
  8
0
100
AcDbBlockBegin
  2
*D8
 70
     1
 10
0.0
 20
0.0
 30
0.0
  3
*D8
  1

  0
LINE
  5
480F
330
38CB
100
AcDbEntity
  8
寸法線
 62
     0
370
    -2
100
AcDbLine
 10
543.0766001958875
 20
126.0613723954188
 30
0.0
 11
529.4680413965667
 21
120.0694144335889
 31
0.0
  0
LINE
  5
4810
330
38CB
100
AcDbEntity
  8
寸法線
 62
     0
370
    -2
100
AcDbLine
 10
514.8246642174044
 20
113.6218176108349
 30
0.0
 11
512.5366365331602
 21
112.6143806072795
 31
0.0
  0
MTEXT
  5
4811
330
38CB
100
AcDbEntity
  8
寸法線
 62
     0
370
    25
100
AcDbMText
 10
539.4609878379157
 20
126.5180969041578
 30
0.0
 40
2.5
 41
0.0
 71
     5
 72
     1
  1
\U+220511
 11
0.9152110736976471
 21
0.4029748014221235
 31
0.0
 73
     1
 44
1.0
  0
LINE
  5
4812
330
38CB
100
AcDbEntity
  8
寸法線
 62
     0
370
    -2
100
AcDbLine
 10
517.1126919016485
 20
114.6292546143902
 30
0.0
 11
527.1800137123226
 21
119.0619774300335
 31
0.0
  0
SOLID
  5
4813
330
38CB
100
AcDbEntity
  8
寸法線
 62
     0
100
AcDbTrace
 10
514.6567580501452
 20
114.0031555582089
 30
0.0
 11
514.9925703846636
 21
113.2404796634608
 31
0.0
 12
517.1126919016485
 22
114.6292546143902
 32
0.0
 13
517.1126919016485
 23
114.6292546143902
 33
0.0
  0
SOLID
  5
4814
330
38CB
100
AcDbEntity
  8
寸法線
 62
     0
100
AcDbTrace
 10
529.3001352293075
 20
120.4507523809629
 30
0.0
 11
529.635947563826
 21
119.6880764862148
 31
0.0
 12
527.1800137123226
 22
119.0619774300335
 32
0.0
 13
527.1800137123226
 23
119.0619774300335
 33
0.0
  0
POINT
  5
4815
330
38CB
100
AcDbEntity
  8
Defpoints
 62
     0
100
AcDbPoint
 10
527.1800137123226
 20
119.0619774300335
 30
0.0
  0
POINT
  5
4816
330
38CB
100
AcDbEntity
  8
Defpoints
 62
     0
100
AcDbPoint
 10
517.1126919016485
 20
114.6292546143902
 30
0.0
  0
ENDBLK
  5
38D5
330
38CB
100
AcDbEntity
  8
0
100
AcDbBlockEnd
  0
BLOCK
  5
38DD
330
38D6
100
AcDbEntity
  8
0
100
AcDbBlockBegin
  2
*D9
 70
     1
 10
0.0
 20
0.0
 30
0.0
  3
*D9
  1

  0
LINE
  5
4817
330
38D6
100
AcDbEntity
  8
寸法線
 62
     0
370
    -2
100
AcDbLine
 10
500.8994403426895
 20
126.146851173721
 30
0.0
 11
510.0601092726046
 21
122.1365962246576
 31
0.0
  0
MTEXT
  5
4818
330
38D6
100
AcDbEntity
  8
寸法線
 62
     0
370
    25
100
AcDbMText
 10
505.0866139943571
 20
126.3606309921813
 30
0.0
 40
2.5
 41
0.0
 71
     5
 72
     1
  1
10.5
 11
0.9160668929915102
 21
-0.401025494906348
 31
0.0
 73
     1
 44
1.0
  0
LINE
  5
4819
330
38D6
100
AcDbEntity
  8
寸法線
 62
     0
370
    -2
100
AcDbLine
 10
522.1463528069851
 20
116.8456160222123
 30
0.0
 11
512.3502765050834
 21
121.1340324873917
 31
0.0
  0
SOLID
  5
481A
330
38D6
100
AcDbEntity
  8
寸法線
 62
     0
100
AcDbTrace
 10
510.2272032288156
 20
122.518290763404
 30
0.0
 11
509.8930153163936
 21
121.7549016859111
 31
0.0
 12
512.3502765050834
 22
121.1340324873917
 32
0.0
 13
512.3502765050834
 23
121.1340324873917
 33
0.0
  0
POINT
  5
481B
330
38D6
100
AcDbEntity
  8
Defpoints
 62
     0
100
AcDbPoint
 10
512.3502765050834
 20
121.1340324873917
 30
0.0
  0
POINT
  5
481C
330
38D6
100
AcDbEntity
  8
Defpoints
 62
     0
100
AcDbPoint
 10
522.1463528069851
 20
116.8456160222123
 30
0.0
  0
ENDBLK
  5
38DE
330
38D6
100
AcDbEntity
  8
0
100
AcDbBlockEnd
  0
BLOCK
  5
3917
330
390E
100
AcDbEntity
  8
0
100
AcDbBlockBegin
  2
*D10
 70
     1
 10
0.0
 20
0.0
 30
0.0
  3
*D10
  1

  0
LINE
  5
481D
330
390E
100
AcDbEntity
  8
寸法線
 62
     0
370
    -2
100
AcDbLine
 10
563.5867167701672
 20
154.9184848558716
 30
0.0
 11
586.8957663510713
 21
123.8451761418889
 31
0.0
  0
LINE
  5
481E
330
390E
100
AcDbEntity
  8
寸法線
 62
     0
370
    -2
100
AcDbLine
 10
597.3969392628993
 20
109.8460559025348
 30
0.0
 11
599.1971403334984
 21
107.4462067186455
 31
0.0
  0
MTEXT
  5
481F
330
390E
100
AcDbEntity
  8
寸法線
 62
     0
100
AcDbMText
 10
568.9796467736004
 20
153.5618482515511
 30
0.0
 40
5.0
 41
0.0
 71
     5
 72
     1
  1
30
  7
OKANO
 11
0.6000670235330248
 21
-0.7999497279630866
 31
0.0
 73
     1
 44
1.0
  0
LINE
  5
4820
330
390E
100
AcDbEntity
  8
寸法線
 62
     0
370
    -2
100
AcDbLine
 10
595.5967381923001
 20
112.2459050864241
 30
0.0
 11
588.6959674216703
 21
121.4453269579996
 31
0.0
  0
INSERT
  5
4821
330
390E
100
AcDbEntity
  8
寸法線
 62
     0
370
    -2
100
AcDbBlockReference
  2
_Closed
 10
595.5967381923001
 20
112.2459050864241
 30
0.0
 41
3.0
 42
3.0
 43
3.0
 50
126.8746980036315
  0
INSERT
  5
4822
330
390E
100
AcDbEntity
  8
寸法線
 62
     0
370
    -2
100
AcDbBlockReference
  2
_Closed
 10
588.6959674216703
 20
121.4453269579996
 30
0.0
 41
3.0
 42
3.0
 43
3.0
 50
306.8746980036315
  0
POINT
  5
4823
330
390E
100
AcDbEntity
  8
Defpoints
 62
     0
100
AcDbPoint
 10
588.6959674216703
 20
121.4453269579996
 30
0.0
  0
POINT
  5
4824
330
390E
100
AcDbEntity
  8
Defpoints
 62
     0
100
AcDbPoint
 10
595.5967381923001
 20
112.2459050864241
 30
0.0
  0
ENDBLK
  5
3918
330
390E
100
AcDbEntity
  8
0
100
AcDbBlockEnd
  0
BLOCK
  5
3993
330
3988
100
AcDbEntity
  8
0
100
AcDbBlockBegin
  2
*D11
 70
     1
 10
0.0
 20
0.0
 30
0.0
  3
*D11
  1

  0
LINE
  5
4119
330
3988
100
AcDbEntity
  8
寸法線
 62
     0
370
    -2
100
AcDbLine
 10
530.6515366198145
 20
-177.8098592662668
 30
0.0
 11
530.6515366198145
 21
-166.3767822860327
 31
0.0
  0
LINE
  5
411A
330
3988
100
AcDbEntity
  8
寸法線
 62
     0
370
    -2
100
AcDbLine
 10
541.7858170035096
 20
-177.1143215064946
 30
0.0
 11
541.7858170035096
 21
-166.3767822860327
 31
0.0
  0
LINE
  5
411B
330
3988
100
AcDbEntity
  8
寸法線
 62
     0
370
    -2
100
AcDbLine
 10
533.6515366198145
 20
-169.3767822860327
 30
0.0
 11
538.7858170035096
 21
-169.3767822860327
 31
0.0
  0
INSERT
  5
411C
330
3988
100
AcDbEntity
  8
寸法線
 62
     0
370
    -2
100
AcDbBlockReference
  2
_Closed
 10
530.6515366198145
 20
-169.3767822860327
 30
0.0
 41
3.0
 42
3.0
 43
3.0
 50
180.0
  0
INSERT
  5
411D
330
3988
100
AcDbEntity
  8
寸法線
 62
     0
370
    -2
100
AcDbBlockReference
  2
_Closed
 10
541.7858170035096
 20
-169.3767822860327
 30
0.0
 41
3.0
 42
3.0
 43
3.0
  0
MTEXT
  5
411E
330
3988
100
AcDbEntity
  8
寸法線
 62
     0
100
AcDbMText
 10
536.2186768116621
 20
-165.8767822860327
 30
0.0
 40
5.0
 41
0.0
 71
     5
 72
     1
  1
11
  7
OKANO
 73
     1
 44
1.0
  0
POINT
  5
411F
330
3988
100
AcDbEntity
  8
Defpoints
 62
     0
100
AcDbPoint
 10
530.6515366198145
 20
-179.8098592662668
 30
0.0
  0
POINT
  5
4120
330
3988
100
AcDbEntity
  8
Defpoints
 62
     0
100
AcDbPoint
 10
541.7858170035096
 20
-179.1143215064946
 30
0.0
  0
POINT
  5
4121
330
3988
100
AcDbEntity
  8
Defpoints
 62
     0
100
AcDbPoint
 10
541.7858170035096
 20
-169.3767822860327
 30
0.0
  0
ENDBLK
  5
3994
330
3988
100
AcDbEntity
  8
0
100
AcDbBlockEnd
  0
BLOCK
  5
39F8
330
39EE
100
AcDbEntity
  8
0
100
AcDbBlockBegin
  2
*D12
 70
     1
 10
0.0
 20
0.0
 30
0.0
  3
*D12
  1

  0
LINE
  5
4136
330
39EE
100
AcDbEntity
  8
寸法線
 62
     0
370
    -2
100
AcDbLine
 10
441.3659410809912
 20
-185.4603679898747
 30
0.0
 11
441.3659410809912
 21
-195.8455541521736
 31
0.0
  0
LINE
  5
4137
330
39EE
100
AcDbEntity
  8
寸法線
 62
     0
370
    -2
100
AcDbLine
 10
496.3659410809912
 20
-185.4603679898747
 30
0.0
 11
496.3659410809912
 21
-195.8455541521736
 31
0.0
  0
LINE
  5
4138
330
39EE
100
AcDbEntity
  8
寸法線
 62
     0
370
    -2
100
AcDbLine
 10
444.3659410809912
 20
-192.8455541521737
 30
0.0
 11
493.3659410809911
 21
-192.8455541521737
 31
0.0
  0
INSERT
  5
4139
330
39EE
100
AcDbEntity
  8
寸法線
 62
     0
370
    -2
100
AcDbBlockReference
  2
_Closed
 10
441.3659410809912
 20
-192.8455541521737
 30
0.0
 41
3.0
 42
3.0
 43
3.0
 50
180.0
  0
INSERT
  5
413A
330
39EE
100
AcDbEntity
  8
寸法線
 62
     0
370
    -2
100
AcDbBlockReference
  2
_Closed
 10
496.3659410809912
 20
-192.8455541521737
 30
0.0
 41
3.0
 42
3.0
 43
3.0
  0
MTEXT
  5
413B
330
39EE
100
AcDbEntity
  8
寸法線
 62
     0
100
AcDbMText
 10
468.8659410809911
 20
-189.3455541521736
 30
0.0
 40
5.0
 41
0.0
 71
     5
 72
     1
  1
60
  7
OKANO
 73
     1
 44
1.0
  0
POINT
  5
413C
330
39EE
100
AcDbEntity
  8
Defpoints
 62
     0
100
AcDbPoint
 10
441.3659410809912
 20
-183.4603679898747
 30
0.0
  0
POINT
  5
413D
330
39EE
100
AcDbEntity
  8
Defpoints
 62
     0
100
AcDbPoint
 10
496.3659410809912
 20
-183.4603679898747
 30
0.0
  0
POINT
  5
413E
330
39EE
100
AcDbEntity
  8
Defpoints
 62
     0
100
AcDbPoint
 10
496.3659410809912
 20
-192.8455541521737
 30
0.0
  0
ENDBLK
  5
39F9
330
39EE
100
AcDbEntity
  8
0
100
AcDbBlockEnd
  0
BLOCK
  5
3A05
330
39FB
100
AcDbEntity
  8
0
100
AcDbBlockBegin
  2
*D13
 70
     1
 10
0.0
 20
0.0
 30
0.0
  3
*D13
  1

  0
LINE
  5
414A
330
39FB
100
AcDbEntity
  8
寸法線
 62
     0
370
    -2
100
AcDbLine
 10
623.0434607302718
 20
-185.2544087772012
 30
0.0
 11
623.0434607302718
 21
-193.6901431665139
 31
0.0
  0
LINE
  5
414B
330
39FB
100
AcDbEntity
  8
寸法線
 62
     0
370
    -2
100
AcDbLine
 10
595.7952221565829
 20
-182.5394829303628
 30
0.0
 11
595.7952221565829
 21
-193.6901431665139
 31
0.0
  0
LINE
  5
414C
330
39FB
100
AcDbEntity
  8
寸法線
 62
     0
370
    -2
100
AcDbLine
 10
620.0434607302717
 20
-190.6901431665139
 30
0.0
 11
598.7952221565828
 21
-190.6901431665139
 31
0.0
  0
INSERT
  5
414D
330
39FB
100
AcDbEntity
  8
寸法線
 62
     0
370
    -2
100
AcDbBlockReference
  2
_Closed
 10
623.0434607302718
 20
-190.6901431665139
 30
0.0
 41
3.0
 42
3.0
 43
3.0
  0
INSERT
  5
414E
330
39FB
100
AcDbEntity
  8
寸法線
 62
     0
370
    -2
100
AcDbBlockReference
  2
_Closed
 10
595.7952221565829
 20
-190.6901431665139
 30
0.0
 41
3.0
 42
3.0
 43
3.0
 50
180.0
  0
MTEXT
  5
414F
330
39FB
100
AcDbEntity
  8
寸法線
 62
     0
100
AcDbMText
 10
609.4193414434273
 20
-187.1901431665139
 30
0.0
 40
5.0
 41
0.0
 71
     5
 72
     1
  1
30
  7
OKANO
 73
     1
 44
1.0
  0
POINT
  5
4150
330
39FB
100
AcDbEntity
  8
Defpoints
 62
     0
100
AcDbPoint
 10
623.0434607302718
 20
-183.2544087772012
 30
0.0
  0
POINT
  5
4151
330
39FB
100
AcDbEntity
  8
Defpoints
 62
     0
100
AcDbPoint
 10
595.7952221565829
 20
-180.5394829303628
 30
0.0
  0
POINT
  5
4152
330
39FB
100
AcDbEntity
  8
Defpoints
 62
     0
100
AcDbPoint
 10
595.7952221565829
 20
-190.6901431665139
 30
0.0
  0
ENDBLK
  5
3A06
330
39FB
100
AcDbEntity
  8
0
100
AcDbBlockEnd
  0
BLOCK
  5
3A12
330
3A08
100
AcDbEntity
  8
0
100
AcDbBlockBegin
  2
*D14
 70
     1
 10
0.0
 20
0.0
 30
0.0
  3
*D14
  1

  0
LINE
  5
412D
330
3A08
100
AcDbEntity
  8
寸法線
 62
     0
370
    -2
100
AcDbLine
 10
595.7952221565829
 20
-182.5394829303628
 30
0.0
 11
595.7952221565829
 21
-193.6901431665139
 31
0.0
  0
LINE
  5
412E
330
3A08
100
AcDbEntity
  8
寸法線
 62
     0
370
    -2
100
AcDbLine
 10
535.7149600252401
 20
-190.1754978985486
 30
0.0
 11
535.7149600252401
 21
-193.6901431665139
 31
0.0
  0
LINE
  5
412F
330
3A08
100
AcDbEntity
  8
寸法線
 62
     0
370
    -2
100
AcDbLine
 10
592.7952221565829
 20
-190.6901431665139
 30
0.0
 11
538.71496002524
 21
-190.6901431665139
 31
0.0
  0
INSERT
  5
4130
330
3A08
100
AcDbEntity
  8
寸法線
 62
     0
370
    -2
100
AcDbBlockReference
  2
_Closed
 10
595.7952221565829
 20
-190.6901431665139
 30
0.0
 41
3.0
 42
3.0
 43
3.0
  0
INSERT
  5
4131
330
3A08
100
AcDbEntity
  8
寸法線
 62
     0
370
    -2
100
AcDbBlockReference
  2
_Closed
 10
535.7149600252401
 20
-190.6901431665139
 30
0.0
 41
3.0
 42
3.0
 43
3.0
 50
180.0
  0
MTEXT
  5
4132
330
3A08
100
AcDbEntity
  8
寸法線
 62
     0
100
AcDbMText
 10
565.7550910909114
 20
-187.1901431665139
 30
0.0
 40
5.0
 41
0.0
 71
     5
 72
     1
  1
70
  7
OKANO
 73
     1
 44
1.0
  0
POINT
  5
4133
330
3A08
100
AcDbEntity
  8
Defpoints
 62
     0
100
AcDbPoint
 10
595.7952221565829
 20
-180.5394829303628
 30
0.0
  0
POINT
  5
4134
330
3A08
100
AcDbEntity
  8
Defpoints
 62
     0
100
AcDbPoint
 10
535.7149600252401
 20
-188.1754978985486
 30
0.0
  0
POINT
  5
4135
330
3A08
100
AcDbEntity
  8
Defpoints
 62
     0
100
AcDbPoint
 10
535.7149600252401
 20
-190.6901431665139
 30
0.0
  0
ENDBLK
  5
3A13
330
3A08
100
AcDbEntity
  8
0
100
AcDbBlockEnd
  0
BLOCK
  5
3A21
330
3A15
100
AcDbEntity
  8
0
100
AcDbBlockBegin
  2
*D15
 70
     1
 10
0.0
 20
0.0
 30
0.0
  3
*D15
  1

  0
LINE
  5
4122
330
3A15
100
AcDbEntity
  8
寸法線
 62
     0
370
    -2
100
AcDbLine
 10
535.7149600252401
 20
-190.1754978985486
 30
0.0
 11
535.7149600252401
 21
-193.6901431665139
 31
0.0
  0
LINE
  5
4123
330
3A15
100
AcDbEntity
  8
寸法線
 62
     0
370
    -2
100
AcDbLine
 10
525.6483552851409
 20
-189.8162622932866
 30
0.0
 11
525.6483552851409
 21
-193.6901431665139
 31
0.0
  0
LINE
  5
4124
330
3A15
100
AcDbEntity
  8
寸法線
 62
     0
370
    -2
100
AcDbLine
 10
532.7149600252401
 20
-190.6901431665139
 30
0.0
 11
528.6483552851409
 21
-190.6901431665139
 31
0.0
  0
LINE
  5
4125
330
3A15
100
AcDbEntity
  8
寸法線
 62
     0
370
    -2
100
AcDbLine
 10
530.6816576551905
 20
-190.6901431665139
 30
0.0
 11
534.2816576551905
 21
-202.6901431665139
 31
0.0
  0
LINE
  5
4126
330
3A15
100
AcDbEntity
  8
寸法線
 62
     0
370
    -2
100
AcDbLine
 10
534.2816576551905
 20
-202.6901431665139
 30
0.0
 11
545.7996068476217
 21
-202.6901431665139
 31
0.0
  0
MTEXT
  5
4127
330
3A15
100
AcDbEntity
  8
寸法線
 62
     0
100
AcDbMText
 10
540.0406322514061
 20
-199.1901431665139
 30
0.0
 40
5.0
 41
0.0
 71
     5
 72
     1
  1
10.5
  7
OKANO
 73
     1
 44
1.0
  0
INSERT
  5
4128
330
3A15
100
AcDbEntity
  8
寸法線
 62
     0
370
    -2
100
AcDbBlockReference
  2
_Closed
 10
535.7149600252401
 20
-190.6901431665139
 30
0.0
 41
3.0
 42
3.0
 43
3.0
  0
INSERT
  5
4129
330
3A15
100
AcDbEntity
  8
寸法線
 62
     0
370
    -2
100
AcDbBlockReference
  2
_Closed
 10
525.6483552851409
 20
-190.6901431665139
 30
0.0
 41
3.0
 42
3.0
 43
3.0
 50
180.0
  0
POINT
  5
412A
330
3A15
100
AcDbEntity
  8
Defpoints
 62
     0
100
AcDbPoint
 10
535.7149600252401
 20
-188.1754978985486
 30
0.0
  0
POINT
  5
412B
330
3A15
100
AcDbEntity
  8
Defpoints
 62
     0
100
AcDbPoint
 10
525.6483552851409
 20
-187.8162622932866
 30
0.0
  0
POINT
  5
412C
330
3A15
100
AcDbEntity
  8
Defpoints
 62
     0
100
AcDbPoint
 10
525.6483552851409
 20
-190.6901431665139
 30
0.0
  0
ENDBLK
  5
3A22
330
3A15
100
AcDbEntity
  8
0
100
AcDbBlockEnd
  0
BLOCK
  5
3A76
330
3A6A
100
AcDbEntity
  8
0
100
AcDbBlockBegin
  2
*D16
 70
     1
 10
0.0
 20
0.0
 30
0.0
  3
*D16
  1

  0
LINE
  5
413F
330
3A6A
100
AcDbEntity
  8
寸法線
 62
     0
370
    -2
100
AcDbLine
 10
523.154453665104
 20
-183.2544087772012
 30
0.0
 11
514.2671988840775
 21
-183.2544087772012
 31
0.0
  0
LINE
  5
4140
330
3A6A
100
AcDbEntity
  8
寸法線
 62
     0
370
    -2
100
AcDbLine
 10
523.5434607302718
 20
-181.2544087772008
 30
0.0
 11
514.2671988840775
 21
-181.2544087772008
 31
0.0
  0
LINE
  5
4141
330
3A6A
100
AcDbEntity
  8
寸法線
 62
     0
370
    -2
100
AcDbLine
 10
517.2671988840774
 20
-186.2544087772011
 30
0.0
 11
517.2671988840774
 21
-189.2544087772012
 31
0.0
  0
LINE
  5
4142
330
3A6A
100
AcDbEntity
  8
寸法線
 62
     0
370
    -2
100
AcDbLine
 10
517.2671988840774
 20
-178.2544087772008
 30
0.0
 11
517.2671988840774
 21
-170.0897136264998
 31
0.0
  0
LINE
  5
4143
330
3A6A
100
AcDbEntity
  8
寸法線
 62
     0
370
    -2
100
AcDbLine
 10
517.2671988840774
 20
-183.2544087772012
 30
0.0
 11
517.2671988840774
 21
-181.2544087772008
 31
0.0
  0
INSERT
  5
4144
330
3A6A
100
AcDbEntity
  8
寸法線
 62
     0
370
    -2
100
AcDbBlockReference
  2
_Closed
 10
517.2671988840774
 20
-183.2544087772012
 30
0.0
 41
3.0
 42
3.0
 43
3.0
 50
90.0
  0
INSERT
  5
4145
330
3A6A
100
AcDbEntity
  8
寸法線
 62
     0
370
    -2
100
AcDbBlockReference
  2
_Closed
 10
517.2671988840774
 20
-181.2544087772008
 30
0.0
 41
3.0
 42
3.0
 43
3.0
 50
270.0
  0
MTEXT
  5
4146
330
3A6A
100
AcDbEntity
  8
寸法線
 62
     0
100
AcDbMText
 10
513.7667067580933
 20
-172.6720612018502
 30
0.0
 40
5.0
 41
0.0
 71
     5
 72
     1
  1
2
  7
OKANO
 11
0.0000000000000001
 21
1.0
 31
0.0
 73
     1
 44
1.0
  0
POINT
  5
4147
330
3A6A
100
AcDbEntity
  8
Defpoints
 62
     0
100
AcDbPoint
 10
525.154453665104
 20
-183.2544087772012
 30
0.0
  0
POINT
  5
4148
330
3A6A
100
AcDbEntity
  8
Defpoints
 62
     0
100
AcDbPoint
 10
525.5434607302718
 20
-181.2544087772008
 30
0.0
  0
POINT
  5
4149
330
3A6A
100
AcDbEntity
  8
Defpoints
 62
     0
100
AcDbPoint
 10
517.2671988840774
 20
-181.2544087772008
 30
0.0
  0
ENDBLK
  5
3A77
330
3A6A
100
AcDbEntity
  8
0
100
AcDbBlockEnd
  0
BLOCK
  5
3A9E
330
3A92
100
AcDbEntity
  8
0
100
AcDbBlockBegin
  2
*D17
 70
     1
 10
0.0
 20
0.0
 30
0.0
  3
*D17
  1

  0
LINE
  5
4165
330
3A92
100
AcDbEntity
  8
寸法線
 62
     0
370
    -2
100
AcDbLine
 10
672.5246368337054
 20
-182.9190081577357
 30
0.0
 11
662.8766280711634
 21
-182.9190081577357
 31
0.0
  0
LINE
  5
4166
330
3A92
100
AcDbEntity
  8
寸法線
 62
     0
370
    -2
100
AcDbLine
 10
677.5246368337055
 20
-177.9190081577358
 30
0.0
 11
662.8766280711634
 21
-177.9190081577358
 31
0.0
  0
LINE
  5
4167
330
3A92
100
AcDbEntity
  8
寸法線
 62
     0
370
    -2
100
AcDbLine
 10
665.8766280711634
 20
-185.9190081577357
 30
0.0
 11
665.8766280711634
 21
-188.9190081577357
 31
0.0
  0
LINE
  5
4168
330
3A92
100
AcDbEntity
  8
寸法線
 62
     0
370
    -2
100
AcDbLine
 10
665.8766280711634
 20
-174.9190081577357
 30
0.0
 11
665.8766280711634
 21
-161.9632367917957
 31
0.0
  0
LINE
  5
4169
330
3A92
100
AcDbEntity
  8
寸法線
 62
     0
370
    -2
100
AcDbLine
 10
665.8766280711634
 20
-182.9190081577357
 30
0.0
 11
665.8766280711634
 21
-177.9190081577358
 31
0.0
  0
INSERT
  5
416A
330
3A92
100
AcDbEntity
  8
寸法線
 62
     0
370
    -2
100
AcDbBlockReference
  2
_Closed
 10
665.8766280711634
 20
-182.9190081577357
 30
0.0
 41
3.0
 42
3.0
 43
3.0
 50
90.0
  0
INSERT
  5
416B
330
3A92
100
AcDbEntity
  8
寸法線
 62
     0
370
    -2
100
AcDbBlockReference
  2
_Closed
 10
665.8766280711634
 20
-177.9190081577358
 30
0.0
 41
3.0
 42
3.0
 43
3.0
 50
270.0
  0
MTEXT
  5
416C
330
3A92
100
AcDbEntity
  8
寸法線
 62
     0
100
AcDbMText
 10
662.3766280711634
 20
-166.9411224747656
 30
0.0
 40
5.0
 41
0.0
 71
     5
 72
     1
  1
5.5
  7
OKANO
 11
0.0000000000000001
 21
1.0
 31
0.0
 73
     1
 44
1.0
  0
POINT
  5
416D
330
3A92
100
AcDbEntity
  8
Defpoints
 62
     0
100
AcDbPoint
 10
674.5246368337054
 20
-182.9190081577357
 30
0.0
  0
POINT
  5
416E
330
3A92
100
AcDbEntity
  8
Defpoints
 62
     0
100
AcDbPoint
 10
679.5246368337054
 20
-177.9190081577358
 30
0.0
  0
POINT
  5
416F
330
3A92
100
AcDbEntity
  8
Defpoints
 62
     0
100
AcDbPoint
 10
665.8766280711634
 20
-177.9190081577358
 30
0.0
  0
ENDBLK
  5
3A9F
330
3A92
100
AcDbEntity
  8
0
100
AcDbBlockEnd
  0
BLOCK
  5
3BCB
330
3BC1
100
AcDbEntity
  8
0
100
AcDbBlockBegin
  2
*D18
 70
     1
 10
0.0
 20
0.0
 30
0.0
  3
*D18
  1

  0
LINE
  5
43FB
330
3BC1
100
AcDbEntity
  8
寸法線
 62
     0
370
    -2
100
AcDbLine
 10
51.75721205461013
 20
-71.4158363683307
 30
0.0
 11
71.67365302414193
 21
-71.4158363683307
 31
0.0
  0
LINE
  5
43FC
330
3BC1
100
AcDbEntity
  8
寸法線
 62
     0
370
    -2
100
AcDbLine
 10
51.75721205461013
 20
-131.8321743242804
 30
0.0
 11
71.67365302414191
 21
-131.8321743242804
 31
0.0
  0
LINE
  5
43FD
330
3BC1
100
AcDbEntity
  8
寸法線
 62
     0
370
    -2
100
AcDbLine
 10
68.67365302414192
 20
-74.4158363683307
 30
0.0
 11
68.67365302414191
 21
-128.8321743242804
 31
0.0
  0
INSERT
  5
43FE
330
3BC1
100
AcDbEntity
  8
寸法線
 62
     0
370
    -2
100
AcDbBlockReference
  2
_Closed
 10
68.67365302414192
 20
-71.4158363683307
 30
0.0
 41
3.0
 42
3.0
 43
3.0
 50
90.0
  0
INSERT
  5
43FF
330
3BC1
100
AcDbEntity
  8
寸法線
 62
     0
370
    -2
100
AcDbBlockReference
  2
_Closed
 10
68.67365302414191
 20
-131.8321743242804
 30
0.0
 41
3.0
 42
3.0
 43
3.0
 50
270.0
  0
MTEXT
  5
4400
330
3BC1
100
AcDbEntity
  8
寸法線
 62
     0
100
AcDbMText
 10
65.17365302414194
 20
-101.6240053463055
 30
0.0
 40
5.0
 41
0.0
 71
     5
 72
     1
  1
89
  7
OKANO
 11
0.0000000000000001
 21
1.0
 31
0.0
 73
     1
 44
1.0
  0
POINT
  5
4401
330
3BC1
100
AcDbEntity
  8
Defpoints
 62
     0
100
AcDbPoint
 10
49.75721205461013
 20
-71.4158363683307
 30
0.0
  0
POINT
  5
4402
330
3BC1
100
AcDbEntity
  8
Defpoints
 62
     0
100
AcDbPoint
 10
49.75721205461013
 20
-131.8321743242804
 30
0.0
  0
POINT
  5
4403
330
3BC1
100
AcDbEntity
  8
Defpoints
 62
     0
100
AcDbPoint
 10
68.67365302414191
 20
-131.8321743242804
 30
0.0
  0
ENDBLK
  5
3BCC
330
3BC1
100
AcDbEntity
  8
0
100
AcDbBlockEnd
  0
BLOCK
  5
3C2F
330
3C25
100
AcDbEntity
  8
0
100
AcDbBlockBegin
  2
*D19
 70
     1
 10
0.0
 20
0.0
 30
0.0
  3
*D19
  1

  0
LINE
  5
4404
330
3C25
100
AcDbEntity
  8
寸法線
 62
     0
370
    -2
100
AcDbLine
 10
171.5922258477567
 20
-71.4158363683307
 30
0.0
 11
199.1757604225565
 21
-71.4158363683307
 31
0.0
  0
LINE
  5
4405
330
3C25
100
AcDbEntity
  8
寸法線
 62
     0
370
    -2
100
AcDbLine
 10
171.5922258477567
 20
-182.8735642879613
 30
0.0
 11
199.1757604225565
 21
-182.8735642879614
 31
0.0
  0
LINE
  5
4406
330
3C25
100
AcDbEntity
  8
寸法線
 62
     0
370
    -2
100
AcDbLine
 10
196.1757604225565
 20
-74.4158363683307
 30
0.0
 11
196.1757604225565
 21
-179.8735642879614
 31
0.0
  0
INSERT
  5
4407
330
3C25
100
AcDbEntity
  8
寸法線
 62
     0
370
    -2
100
AcDbBlockReference
  2
_Closed
 10
196.1757604225565
 20
-71.4158363683307
 30
0.0
 41
3.0
 42
3.0
 43
3.0
 50
90.0
  0
INSERT
  5
4408
330
3C25
100
AcDbEntity
  8
寸法線
 62
     0
370
    -2
100
AcDbBlockReference
  2
_Closed
 10
196.1757604225565
 20
-182.8735642879614
 30
0.0
 41
3.0
 42
3.0
 43
3.0
 50
270.0
  0
MTEXT
  5
4409
330
3C25
100
AcDbEntity
  8
寸法線
 62
     0
100
AcDbMText
 10
192.6752682965723
 20
-127.144700328146
 30
0.0
 40
5.0
 41
0.0
 71
     5
 72
     1
  1
126
  7
OKANO
 11
0.0000000000000001
 21
1.0
 31
0.0
 73
     1
 44
1.0
  0
POINT
  5
440A
330
3C25
100
AcDbEntity
  8
Defpoints
 62
     0
100
AcDbPoint
 10
169.5922258477567
 20
-71.4158363683307
 30
0.0
  0
POINT
  5
440B
330
3C25
100
AcDbEntity
  8
Defpoints
 62
     0
100
AcDbPoint
 10
169.5922258477567
 20
-182.8735642879613
 30
0.0
  0
POINT
  5
440C
330
3C25
100
AcDbEntity
  8
Defpoints
 62
     0
100
AcDbPoint
 10
196.1757604225565
 20
-182.8735642879614
 30
0.0
  0
ENDBLK
  5
3C30
330
3C25
100
AcDbEntity
  8
0
100
AcDbBlockEnd
  0
BLOCK
  5
41D2
330
41C8
100
AcDbEntity
  8
0
100
AcDbBlockBegin
  2
*D20
 70
     1
 10
0.0
 20
0.0
 30
0.0
  3
*D20
  1

  0
LINE
  5
440D
330
41C8
100
AcDbEntity
  8
寸法線
 62
     0
370
    -2
100
AcDbLine
 10
403.9746009175724
 20
-27.83016101258908
 30
0.0
 11
399.8481248107792
 21
-27.83016101258908
 31
0.0
  0
LINE
  5
440E
330
41C8
100
AcDbEntity
  8
寸法線
 62
     0
370
    -2
100
AcDbLine
 10
403.9746009175724
 20
-199.6492746486283
 30
0.0
 11
399.8481248107791
 21
-199.6492746486283
 31
0.0
  0
LINE
  5
440F
330
41C8
100
AcDbEntity
  8
寸法線
 62
     0
370
    -2
100
AcDbLine
 10
402.8481248107792
 20
-30.83016101258909
 30
0.0
 11
402.8481248107791
 21
-196.6492746486283
 31
0.0
  0
INSERT
  5
4410
330
41C8
100
AcDbEntity
  8
寸法線
 62
     0
370
    -2
100
AcDbBlockReference
  2
_Closed
 10
402.8481248107792
 20
-27.83016101258908
 30
0.0
 41
3.0
 42
3.0
 43
3.0
 50
90.0
  0
INSERT
  5
4411
330
41C8
100
AcDbEntity
  8
寸法線
 62
     0
370
    -2
100
AcDbBlockReference
  2
_Closed
 10
402.8481248107791
 20
-199.6492746486283
 30
0.0
 41
3.0
 42
3.0
 43
3.0
 50
270.0
  0
MTEXT
  5
4412
330
41C8
100
AcDbEntity
  8
寸法線
 62
     0
100
AcDbMText
 10
399.3481248107792
 20
-113.7397178306086
 30
0.0
 40
5.0
 41
0.0
 71
     5
 72
     1
  1
196
  7
OKANO
 11
0.0000000000000001
 21
1.0
 31
0.0
 73
     1
 44
1.0
  0
POINT
  5
4413
330
41C8
100
AcDbEntity
  8
Defpoints
 62
     0
100
AcDbPoint
 10
405.9746009175723
 20
-27.83016101258908
 30
0.0
  0
POINT
  5
4414
330
41C8
100
AcDbEntity
  8
Defpoints
 62
     0
100
AcDbPoint
 10
405.9746009175723
 20
-199.6492746486283
 30
0.0
  0
POINT
  5
4415
330
41C8
100
AcDbEntity
  8
Defpoints
 62
     0
100
AcDbPoint
 10
402.8481248107791
 20
-199.6492746486283
 30
0.0
  0
ENDBLK
  5
41D3
330
41C8
100
AcDbEntity
  8
0
100
AcDbBlockEnd
  0
BLOCK
  5
41DB
330
41D5
100
AcDbEntity
  8
0
100
AcDbBlockBegin
  2
*D21
 70
     1
 10
0.0
 20
0.0
 30
0.0
  3
*D21
  1

  0
LINE
  5
424D
330
41D5
100
AcDbEntity
  8
寸法線
 62
     0
370
    -2
100
AcDbLine
 10
231.0095444427935
 20
-186.0901882284882
 30
0.0
 11
354.6432316746858
 21
-91.41729216709725
 31
0.0
  0
MTEXT
  5
424E
330
41D5
100
AcDbEntity
  8
寸法線
 62
     0
100
AcDbMText
 10
232.9327554712277
 20
-180.209180683762
 30
0.0
 40
5.0
 41
0.0
 71
     5
 72
     1
  1
150
  7
OKANO
 11
0.7939564080996849
 21
0.6079746886486697
 31
0.0
 73
     1
 44
1.0
  0
INSERT
  5
424F
330
41D5
100
AcDbEntity
  8
寸法線
 62
     0
370
    -2
100
AcDbBlockReference
  2
_Closed
 10
357.0251008989848
 20
-89.59336810115123
 30
0.0
 41
3.0
 42
3.0
 43
3.0
 50
37.44320339989346
  0
POINT
  5
4250
330
41D5
100
AcDbEntity
  8
Defpoints
 62
     0
100
AcDbPoint
 10
357.0251008989848
 20
-89.59336810115123
 30
0.0
  0
POINT
  5
4251
330
41D5
100
AcDbEntity
  8
Defpoints
 62
     0
100
AcDbPoint
 10
246.9827427363685
 20
-173.8586599478568
 30
0.0
  0
ENDBLK
  5
41DC
330
41D5
100
AcDbEntity
  8
0
100
AcDbBlockEnd
  0
BLOCK
  5
41ED
330
41E7
100
AcDbEntity
  8
0
100
AcDbBlockBegin
  2
*D22
 70
     1
 10
0.0
 20
0.0
 30
0.0
  3
*D22
  1

  0
LINE
  5
4252
330
41E7
100
AcDbEntity
  8
寸法線
 62
     0
370
    -2
100
AcDbLine
 10
80.92637845698657
 20
-179.8259757483426
 30
0.0
 11
168.0296794572638
 21
-113.677913232155
 31
0.0
  0
MTEXT
  5
4253
330
41E7
100
AcDbEntity
  8
寸法線
 62
     0
100
AcDbMText
 10
82.87312124184362
 20
-173.9527157565984
 30
0.0
 40
5.0
 41
0.0
 71
     5
 72
     1
  1
100
  7
OKANO
 11
0.7963843351079735
 21
0.6047908653366311
 31
0.0
 73
     1
 44
1.0
  0
INSERT
  5
4254
330
41E7
100
AcDbEntity
  8
寸法線
 62
     0
370
    -2
100
AcDbBlockReference
  2
_Closed
 10
170.4188324625877
 20
-111.8635406361451
 30
0.0
 41
3.0
 42
3.0
 43
3.0
 50
37.21379420495465
  0
POINT
  5
4255
330
41E7
100
AcDbEntity
  8
Defpoints
 62
     0
100
AcDbPoint
 10
170.4188324625877
 20
-111.8635406361451
 30
0.0
  0
POINT
  5
4256
330
41E7
100
AcDbEntity
  8
Defpoints
 62
     0
100
AcDbPoint
 10
99.64339757928946
 20
-165.6118812559327
 30
0.0
  0
ENDBLK
  5
41EE
330
41E7
100
AcDbEntity
  8
0
100
AcDbBlockEnd
  0
BLOCK
  5
41FF
330
41F9
100
AcDbEntity
  8
0
100
AcDbBlockBegin
  2
*D23
 70
     1
 10
0.0
 20
0.0
 30
0.0
  3
*D23
  1

  0
LINE
  5
4257
330
41F9
100
AcDbEntity
  8
寸法線
 62
     0
370
    -2
100
AcDbLine
 10
-20.62474790053303
 20
-124.2097409489132
 30
0.0
 11
33.75075840321091
 21
-97.4213390890137
 31
0.0
  0
MTEXT
  5
4258
330
41F9
100
AcDbEntity
  8
寸法線
 62
     0
100
AcDbMText
 10
-18.37890941394464
 20
-119.201624851974
 30
0.0
 40
5.0
 41
0.0
 71
     5
 72
     1
  1
65
  7
OKANO
 11
0.8970469430967973
 21
0.4419352688807394
 31
0.0
 73
     1
 44
1.0
  0
INSERT
  5
4259
330
41F9
100
AcDbEntity
  8
寸法線
 62
     0
370
    -2
100
AcDbBlockReference
  2
_Closed
 10
36.4418992325013
 20
-96.09553328237147
 30
0.0
 41
3.0
 42
3.0
 43
3.0
 50
26.22742423924126
  0
POINT
  5
425A
330
41F9
100
AcDbEntity
  8
Defpoints
 62
     0
100
AcDbPoint
 10
36.4418992325013
 20
-96.09553328237147
 30
0.0
  0
POINT
  5
425B
330
41F9
100
AcDbEntity
  8
Defpoints
 62
     0
100
AcDbPoint
 10
-8.410447922338583
 20
-118.1922967264084
 30
0.0
  0
ENDBLK
  5
4200
330
41F9
100
AcDbEntity
  8
0
100
AcDbBlockEnd
  0
BLOCK
  5
42B0
330
42A6
100
AcDbEntity
  8
0
100
AcDbBlockBegin
  2
*D24
 70
     1
 10
0.0
 20
0.0
 30
0.0
  3
*D24
  1

  0
LINE
  5
42B2
330
42A6
100
AcDbEntity
  8
寸法線
 62
     0
370
    -2
100
AcDbLine
 10
439.3659410809911
 20
-183.4603679898747
 30
0.0
 11
434.1755019775441
 21
-183.4603679898747
 31
0.0
  0
LINE
  5
42B3
330
42A6
100
AcDbEntity
  8
寸法線
 62
     0
370
    -2
100
AcDbLine
 10
458.8557186505851
 20
-151.3667175018963
 30
0.0
 11
434.1755019775441
 21
-151.3667175018963
 31
0.0
  0
LINE
  5
42B4
330
42A6
100
AcDbEntity
  8
寸法線
 62
     0
370
    -2
100
AcDbLine
 10
437.1755019775442
 20
-180.4603679898747
 30
0.0
 11
437.1755019775442
 21
-154.3667175018963
 31
0.0
  0
INSERT
  5
42B5
330
42A6
100
AcDbEntity
  8
寸法線
 62
     0
370
    -2
100
AcDbBlockReference
  2
_Closed
 10
437.1755019775442
 20
-183.4603679898747
 30
0.0
 41
3.0
 42
3.0
 43
3.0
 50
270.0
  0
INSERT
  5
42B6
330
42A6
100
AcDbEntity
  8
寸法線
 62
     0
370
    -2
100
AcDbBlockReference
  2
_Closed
 10
437.1755019775442
 20
-151.3667175018963
 30
0.0
 41
3.0
 42
3.0
 43
3.0
 50
90.0
  0
MTEXT
  5
42B7
330
42A6
100
AcDbEntity
  8
寸法線
 62
     0
100
AcDbMText
 10
433.6755019775442
 20
-167.4135427458854
 30
0.0
 40
5.0
 41
0.0
 71
     5
 72
     1
  1
40
  7
OKANO
 11
0.0000000000000001
 21
1.0
 31
0.0
 73
     1
 44
1.0
  0
POINT
  5
42B8
330
42A6
100
AcDbEntity
  8
Defpoints
 62
     0
100
AcDbPoint
 10
441.3659410809912
 20
-183.4603679898747
 30
0.0
  0
POINT
  5
42B9
330
42A6
100
AcDbEntity
  8
Defpoints
 62
     0
100
AcDbPoint
 10
460.855718650585
 20
-151.3667175018963
 30
0.0
  0
POINT
  5
42BA
330
42A6
100
AcDbEntity
  8
Defpoints
 62
     0
100
AcDbPoint
 10
437.1755019775442
 20
-151.3667175018963
 30
0.0
  0
ENDBLK
  5
42B1
330
42A6
100
AcDbEntity
  8
0
100
AcDbBlockEnd
  0
BLOCK
  5
42D4
330
42CA
100
AcDbEntity
  8
0
100
AcDbBlockBegin
  2
*D25
 70
     1
 10
0.0
 20
0.0
 30
0.0
  3
*D25
  1

  0
LINE
  5
42D6
330
42CA
100
AcDbEntity
  8
寸法線
 62
     0
370
    -2
100
AcDbLine
 10
699.1749957161771
 20
-182.9190081577357
 30
0.0
 11
693.857053323984
 21
-182.9190081577357
 31
0.0
  0
LINE
  5
42D7
330
42CA
100
AcDbEntity
  8
寸法線
 62
     0
370
    -2
100
AcDbLine
 10
717.5246368337054
 20
-132.4291716019319
 30
0.0
 11
693.857053323984
 21
-132.4291716019319
 31
0.0
  0
LINE
  5
42D8
330
42CA
100
AcDbEntity
  8
寸法線
 62
     0
370
    -2
100
AcDbLine
 10
696.857053323984
 20
-179.9190081577357
 30
0.0
 11
696.857053323984
 21
-135.4291716019319
 31
0.0
  0
INSERT
  5
42D9
330
42CA
100
AcDbEntity
  8
寸法線
 62
     0
370
    -2
100
AcDbBlockReference
  2
_Closed
 10
696.857053323984
 20
-182.9190081577357
 30
0.0
 41
3.0
 42
3.0
 43
3.0
 50
270.0
  0
INSERT
  5
42DA
330
42CA
100
AcDbEntity
  8
寸法線
 62
     0
370
    -2
100
AcDbBlockReference
  2
_Closed
 10
696.857053323984
 20
-132.4291716019319
 30
0.0
 41
3.0
 42
3.0
 43
3.0
 50
90.0
  0
MTEXT
  5
42DB
330
42CA
100
AcDbEntity
  8
寸法線
 62
     0
100
AcDbMText
 10
693.357053323984
 20
-157.6740898798337
 30
0.0
 40
5.0
 41
0.0
 71
     5
 72
     1
  1
60
  7
OKANO
 11
0.0000000000000001
 21
1.0
 31
0.0
 73
     1
 44
1.0
  0
POINT
  5
42DC
330
42CA
100
AcDbEntity
  8
Defpoints
 62
     0
100
AcDbPoint
 10
701.1749957161771
 20
-182.9190081577357
 30
0.0
  0
POINT
  5
42DD
330
42CA
100
AcDbEntity
  8
Defpoints
 62
     0
100
AcDbPoint
 10
719.5246368337055
 20
-132.4291716019319
 30
0.0
  0
POINT
  5
42DE
330
42CA
100
AcDbEntity
  8
Defpoints
 62
     0
100
AcDbPoint
 10
696.857053323984
 20
-132.4291716019319
 30
0.0
  0
ENDBLK
  5
42D5
330
42CA
100
AcDbEntity
  8
0
100
AcDbBlockEnd
  0
BLOCK
  5
4336
330
432D
100
AcDbEntity
  8
0
100
AcDbBlockBegin
  2
*D26
 70
     1
 10
0.0
 20
0.0
 30
0.0
  3
*D26
  1

  0
LINE
  5
47FE
330
432D
100
AcDbEntity
  8
寸法線
 62
     0
370
    -2
100
AcDbLine
 10
513.4951890979287
 20
179.0886643232993
 30
0.0
 11
497.77987110818
 21
182.9915140214565
 31
0.0
  0
LINE
  5
47FF
330
432D
100
AcDbEntity
  8
寸法線
 62
     0
370
    -2
100
AcDbLine
 10
434.6961468818635
 20
198.658158133648
 30
0.0
 11
432.269849796236
 21
199.2607213687323
 31
0.0
  0
MTEXT
  5
4800
330
432D
100
AcDbEntity
  8
寸法線
 62
     0
370
    25
100
AcDbMText
 10
510.3076658958006
 20
181.8122319901464
 30
0.0
 40
2.5
 41
0.0
 71
     5
 72
     1
  1
\U+220560
 11
0.9705188342510213
 21
-0.2410252940337152
 31
0.0
 73
     1
 44
1.0
  0
LINE
  5
4801
330
432D
100
AcDbEntity
  8
寸法線
 62
     0
370
    -2
100
AcDbLine
 10
437.1224439674911
 20
198.0555948985637
 30
0.0
 11
495.3535740225524
 21
183.5940772565408
 31
0.0
  0
SOLID
  5
4802
330
432D
100
AcDbEntity
  8
寸法線
 62
     0
100
AcDbTrace
 10
434.7965740877109
 20
199.0625409812526
 30
0.0
 11
434.5957196760162
 21
198.2537752860434
 31
0.0
 12
437.1224439674911
 22
198.0555948985637
 32
0.0
 13
437.1224439674911
 23
198.0555948985637
 33
0.0
  0
SOLID
  5
4803
330
432D
100
AcDbEntity
  8
寸法線
 62
     0
100
AcDbTrace
 10
497.8802983140274
 20
183.3958968690611
 30
0.0
 11
497.6794439023326
 21
182.5871311738519
 31
0.0
 12
495.3535740225524
 22
183.5940772565408
 32
0.0
 13
495.3535740225524
 23
183.5940772565408
 33
0.0
  0
POINT
  5
4804
330
432D
100
AcDbEntity
  8
Defpoints
 62
     0
100
AcDbPoint
 10
495.3535740225524
 20
183.5940772565408
 30
0.0
  0
POINT
  5
4805
330
432D
100
AcDbEntity
  8
Defpoints
 62
     0
100
AcDbPoint
 10
437.1224439674911
 20
198.0555948985637
 30
0.0
  0
ENDBLK
  5
4337
330
432D
100
AcDbEntity
  8
0
100
AcDbBlockEnd
  0
BLOCK
  5
4341
330
4338
100
AcDbEntity
  8
0
100
AcDbBlockBegin
  2
*D27
 70
     1
 10
0.0
 20
0.0
 30
0.0
  3
*D27
  1

  0
LINE
  5
47F6
330
4338
100
AcDbEntity
  8
寸法線
 62
     0
370
    -2
100
AcDbLine
 10
510.7547076205427
 20
206.0544343493467
 30
0.0
 11
489.8920758485468
 21
198.9171238436274
 31
0.0
  0
LINE
  5
47F7
330
4338
100
AcDbEntity
  8
寸法線
 62
     0
370
    -2
100
AcDbLine
 10
442.5839421414967
 20
182.7325483114771
 30
0.0
 11
440.2185354561442
 21
181.9233195348696
 31
0.0
  0
MTEXT
  5
47F8
330
4338
100
AcDbEntity
  8
寸法線
 62
     0
370
    25
100
AcDbMText
 10
506.4025587862789
 20
206.5472104670659
 30
0.0
 40
2.5
 41
0.0
 71
     5
 72
     1
  1
\U+220545
 11
0.9461626741410007
 21
0.3236915106430043
 31
0.0
 73
     1
 44
1.0
  0
LINE
  5
47F9
330
4338
100
AcDbEntity
  8
寸法線
 62
     0
370
    -2
100
AcDbLine
 10
444.9493488268492
 20
183.5417770880846
 30
0.0
 11
487.5266691631943
 21
198.1078950670198
 31
0.0
  0
SOLID
  5
47FA
330
4338
100
AcDbEntity
  8
寸法線
 62
     0
100
AcDbTrace
 10
442.4490706787288
 20
183.1267827590359
 30
0.0
 11
442.7188136042647
 21
182.3383138639183
 31
0.0
 12
444.9493488268492
 22
183.5417770880846
 32
0.0
 13
444.9493488268492
 23
183.5417770880846
 33
0.0
  0
SOLID
  5
47FB
330
4338
100
AcDbEntity
  8
寸法線
 62
     0
100
AcDbTrace
 10
489.7572043857789
 20
199.3113582911861
 30
0.0
 11
490.0269473113148
 21
198.5228893960686
 31
0.0
 12
487.5266691631943
 22
198.1078950670198
 32
0.0
 13
487.5266691631943
 23
198.1078950670198
 33
0.0
  0
POINT
  5
47FC
330
4338
100
AcDbEntity
  8
Defpoints
 62
     0
100
AcDbPoint
 10
487.5266691631943
 20
198.1078950670198
 30
0.0
  0
POINT
  5
47FD
330
4338
100
AcDbEntity
  8
Defpoints
 62
     0
100
AcDbPoint
 10
444.9493488268492
 20
183.5417770880846
 30
0.0
  0
ENDBLK
  5
4342
330
4338
100
AcDbEntity
  8
0
100
AcDbBlockEnd
  0
BLOCK
  5
434C
330
4343
100
AcDbEntity
  8
0
100
AcDbBlockBegin
  2
*D28
 70
     1
 10
0.0
 20
0.0
 30
0.0
  3
*D28
  1

  0
LINE
  5
47EE
330
4343
100
AcDbEntity
  8
寸法線
 62
     0
370
    -2
100
AcDbLine
 10
479.4681950097269
 20
206.2652577836051
 30
0.0
 11
471.605994304267
 21
197.0895973435327
 31
0.0
  0
LINE
  5
47EF
330
4343
100
AcDbEntity
  8
寸法線
 62
     0
370
    -2
100
AcDbLine
 10
460.8700236857768
 20
184.5600748115719
 30
0.0
 11
459.2433614708541
 21
182.6616623067293
 31
0.0
  0
MTEXT
  5
47F0
330
4343
100
AcDbEntity
  8
寸法線
 62
     0
370
    25
100
AcDbMText
 10
474.9266163858264
 20
203.8466304771823
 30
0.0
 40
2.5
 41
0.0
 71
     5
 72
     1
  1
\U+220511.5
 11
0.6506648859691003
 21
0.7593650019370252
 31
0.0
 73
     1
 44
1.0
  0
LINE
  5
47F1
330
4343
100
AcDbEntity
  8
寸法線
 62
     0
370
    -2
100
AcDbLine
 10
462.4966859006995
 20
186.4584873164145
 30
0.0
 11
469.9793320893443
 21
195.1911848386902
 31
0.0
  0
SOLID
  5
47F2
330
4343
100
AcDbEntity
  8
寸法線
 62
     0
100
AcDbTrace
 10
460.5536216016364
 20
184.8311851807256
 30
0.0
 11
461.1864257699172
 21
184.2889644424181
 31
0.0
 12
462.4966859006995
 22
186.4584873164145
 32
0.0
 13
462.4966859006995
 23
186.4584873164145
 33
0.0
  0
SOLID
  5
47F3
330
4343
100
AcDbEntity
  8
寸法線
 62
     0
100
AcDbTrace
 10
471.2895922201266
 20
197.3607077126865
 30
0.0
 11
471.9223963884074
 21
196.8184869743789
 31
0.0
 12
469.9793320893443
 22
195.1911848386902
 32
0.0
 13
469.9793320893443
 23
195.1911848386902
 33
0.0
  0
POINT
  5
47F4
330
4343
100
AcDbEntity
  8
Defpoints
 62
     0
100
AcDbPoint
 10
469.9793320893443
 20
195.1911848386902
 30
0.0
  0
POINT
  5
47F5
330
4343
100
AcDbEntity
  8
Defpoints
 62
     0
100
AcDbPoint
 10
462.4966859006995
 20
186.4584873164145
 30
0.0
  0
ENDBLK
  5
434D
330
4343
100
AcDbEntity
  8
0
100
AcDbBlockEnd
  0
BLOCK
  5
4472
330
4468
100
AcDbEntity
  8
0
100
AcDbBlockBegin
  2
*D29
 70
     1
 10
0.0
 20
0.0
 30
0.0
  3
*D29
  1

  0
LINE
  5
447D
330
4468
100
AcDbEntity
  8
寸法線
 62
     0
370
    -2
100
AcDbLine
 10
15.61634590173673
 20
175.6553268218409
 30
0.0
 11
15.61634590173673
 21
189.3534107408733
 31
0.0
  0
LINE
  5
447E
330
4468
100
AcDbEntity
  8
寸法線
 62
     0
370
    -2
100
AcDbLine
 10
64.91634590173669
 20
175.6553268218409
 30
0.0
 11
64.91634590173669
 21
189.3534107408733
 31
0.0
  0
LINE
  5
447F
330
4468
100
AcDbEntity
  8
寸法線
 62
     0
370
    -2
100
AcDbLine
 10
18.61634590173673
 20
186.3534107408733
 30
0.0
 11
61.91634590173669
 21
186.3534107408733
 31
0.0
  0
INSERT
  5
4480
330
4468
100
AcDbEntity
  8
寸法線
 62
     0
370
    -2
100
AcDbBlockReference
  2
_Closed
 10
15.61634590173673
 20
186.3534107408733
 30
0.0
 41
3.0
 42
3.0
 43
3.0
 50
180.0
  0
INSERT
  5
4481
330
4468
100
AcDbEntity
  8
寸法線
 62
     0
370
    -2
100
AcDbBlockReference
  2
_Closed
 10
64.91634590173669
 20
186.3534107408733
 30
0.0
 41
3.0
 42
3.0
 43
3.0
  0
MTEXT
  5
4482
330
4468
100
AcDbEntity
  8
寸法線
 62
     0
100
AcDbMText
 10
40.26634590173671
 20
189.8534107408733
 30
0.0
 40
5.0
 41
0.0
 71
     5
 72
     1
  1
49.3
  7
OKANO
 73
     1
 44
1.0
  0
POINT
  5
4483
330
4468
100
AcDbEntity
  8
Defpoints
 62
     0
100
AcDbPoint
 10
15.61634590173673
 20
173.6553268218409
 30
0.0
  0
POINT
  5
4484
330
4468
100
AcDbEntity
  8
Defpoints
 62
     0
100
AcDbPoint
 10
64.91634590173669
 20
173.6553268218409
 30
0.0
  0
POINT
  5
4485
330
4468
100
AcDbEntity
  8
Defpoints
 62
     0
100
AcDbPoint
 10
64.91634590173669
 20
186.3534107408733
 30
0.0
  0
ENDBLK
  5
4473
330
4468
100
AcDbEntity
  8
0
100
AcDbBlockEnd
  0
BLOCK
  5
45E7
330
45DE
100
AcDbEntity
  8
0
100
AcDbBlockBegin
  2
*D30
 70
     1
 10
0.0
 20
0.0
 30
0.0
  3
*D30
  1

  0
LINE
  5
47DE
330
45DE
100
AcDbEntity
  8
寸法線
 62
     0
370
    -2
100
AcDbLine
 10
801.2226428468476
 20
210.190949142613
 30
0.0
 11
752.812778253291
 21
197.1061220473287
 31
0.0
  0
LINE
  5
47DF
330
45DE
100
AcDbEntity
  8
寸法線
 62
     0
370
    -2
100
AcDbLine
 10
711.7680876058996
 20
186.0120468044075
 30
0.0
 11
708.8720136994952
 21
185.2292595225462
 31
0.0
  0
MTEXT
  5
47E0
330
45DE
100
AcDbEntity
  8
寸法線
 62
     0
100
AcDbMText
 10
781.683138970557
 20
208.5351643514734
 30
0.0
 40
5.0
 41
0.0
 71
     5
 72
     1
  1
Φ45　水抜き
  7
OKANO
 11
0.9653579688014499
 21
0.2609290939537765
 31
0.0
 73
     1
 44
1.0
  0
LINE
  5
47E1
330
45DE
100
AcDbEntity
  8
寸法線
 62
     0
370
    -2
100
AcDbLine
 10
714.6641615123039
 20
186.7948340862689
 30
0.0
 11
749.9167043468865
 21
196.3233347654674
 31
0.0
  0
INSERT
  5
47E2
330
45DE
100
AcDbEntity
  8
寸法線
 62
     0
370
    -2
100
AcDbBlockReference
  2
_Closed
 10
714.6641615123039
 20
186.7948340862689
 30
0.0
 41
3.0
 42
3.0
 43
3.0
 50
15.125198425986
  0
INSERT
  5
47E3
330
45DE
100
AcDbEntity
  8
寸法線
 62
     0
370
    -2
100
AcDbBlockReference
  2
_Closed
 10
749.9167043468865
 20
196.3233347654674
 30
0.0
 41
3.0
 42
3.0
 43
3.0
 50
195.125198425986
  0
POINT
  5
47E4
330
45DE
100
AcDbEntity
  8
Defpoints
 62
     0
100
AcDbPoint
 10
749.9167043468865
 20
196.3233347654674
 30
0.0
  0
POINT
  5
47E5
330
45DE
100
AcDbEntity
  8
Defpoints
 62
     0
100
AcDbPoint
 10
714.6641615123039
 20
186.7948340862689
 30
0.0
  0
ENDBLK
  5
45E8
330
45DE
100
AcDbEntity
  8
0
100
AcDbBlockEnd
  0
BLOCK
  5
45F3
330
45E9
100
AcDbEntity
  8
0
100
AcDbBlockBegin
  2
*D31
 70
     1
 10
0.0
 20
0.0
 30
0.0
  3
*D31
  1

  0
LINE
  5
470F
330
45E9
100
AcDbEntity
  8
寸法線
 62
     0
370
    -2
100
AcDbLine
 10
147.1065456462446
 20
217.6125490856501
 30
0.0
 11
157.7568996628272
 21
217.5774625824582
 31
0.0
  0
LINE
  5
4710
330
45E9
100
AcDbEntity
  8
寸法線
 62
     0
370
    -2
100
AcDbLine
 10
147.0736018466856
 20
207.6126033504938
 30
0.0
 11
157.7239558632682
 21
207.5775168473019
 31
0.0
  0
LINE
  5
4711
330
45E9
100
AcDbEntity
  8
寸法線
 62
     0
370
    -2
100
AcDbLine
 10
154.7470328024126
 20
214.587362001779
 30
0.0
 11
154.733855282589
 21
210.5873837077165
 31
0.0
  0
INSERT
  5
4712
330
45E9
100
AcDbEntity
  8
寸法線
 62
     0
370
    -2
100
AcDbBlockReference
  2
_Closed
 10
154.7569159422803
 20
217.5873457223259
 30
0.0
 41
3.0
 42
3.0
 43
3.0
 50
89.81124559098999
  0
INSERT
  5
4713
330
45E9
100
AcDbEntity
  8
寸法線
 62
     0
370
    -2
100
AcDbBlockReference
  2
_Closed
 10
154.7239721427213
 20
207.5873999871696
 30
0.0
 41
3.0
 42
3.0
 43
3.0
 50
269.8112455909899
  0
MTEXT
  5
4714
330
45E9
100
AcDbEntity
  8
寸法線
 62
     0
100
AcDbMText
 10
151.2404630351961
 20
212.5989031845934
 30
0.0
 40
5.0
 41
0.0
 71
     5
 72
     1
  1
13
  7
OKANO
 11
0.0032943799559009
 21
0.9999945735156297
 31
0.0
 73
     1
 44
1.0
  0
POINT
  5
4715
330
45E9
100
AcDbEntity
  8
Defpoints
 62
     0
100
AcDbPoint
 10
145.1065564992134
 20
217.6191378455619
 30
0.0
  0
POINT
  5
4716
330
45E9
100
AcDbEntity
  8
Defpoints
 62
     0
100
AcDbPoint
 10
145.0736126996544
 20
207.6191921104056
 30
0.0
  0
POINT
  5
4717
330
45E9
100
AcDbEntity
  8
Defpoints
 62
     0
100
AcDbPoint
 10
154.7239721427213
 20
207.5873999871696
 30
0.0
  0
ENDBLK
  5
45F4
330
45E9
100
AcDbEntity
  8
0
100
AcDbBlockEnd
  0
BLOCK
  5
45FF
330
45F5
100
AcDbEntity
  8
0
100
AcDbBlockBegin
  2
*D32
 70
     1
 10
0.0
 20
0.0
 30
0.0
  3
*D32
  1

  0
LINE
  5
4700
330
45F5
100
AcDbEntity
  8
寸法線
 62
     0
370
    -2
100
AcDbLine
 10
671.7733300654847
 20
251.478417521217
 30
0.0
 11
639.9167258587417
 21
251.478417521217
 31
0.0
  0
LINE
  5
4701
330
45F5
100
AcDbEntity
  8
寸法線
 62
     0
370
    -2
100
AcDbLine
 10
669.6563874701348
 20
128.8844902721983
 30
0.0
 11
639.9167258587417
 21
128.8844902721983
 31
0.0
  0
LINE
  5
4702
330
45F5
100
AcDbEntity
  8
寸法線
 62
     0
370
    -2
100
AcDbLine
 10
642.9167258587417
 20
248.4784175212169
 30
0.0
 11
642.9167258587417
 21
131.8844902721983
 31
0.0
  0
INSERT
  5
4703
330
45F5
100
AcDbEntity
  8
寸法線
 62
     0
370
    -2
100
AcDbBlockReference
  2
_Closed
 10
642.9167258587417
 20
251.478417521217
 30
0.0
 41
3.0
 42
3.0
 43
3.0
 50
90.0
  0
INSERT
  5
4704
330
45F5
100
AcDbEntity
  8
寸法線
 62
     0
370
    -2
100
AcDbBlockReference
  2
_Closed
 10
642.9167258587417
 20
128.8844902721983
 30
0.0
 41
3.0
 42
3.0
 43
3.0
 50
270.0
  0
MTEXT
  5
4705
330
45F5
100
AcDbEntity
  8
寸法線
 62
     0
100
AcDbMText
 10
639.4162337327575
 20
190.1814538967077
 30
0.0
 40
5.0
 41
0.0
 71
     5
 72
     1
  1
120
  7
OKANO
 11
0.0000000000000001
 21
1.0
 31
0.0
 73
     1
 44
1.0
  0
POINT
  5
4706
330
45F5
100
AcDbEntity
  8
Defpoints
 62
     0
100
AcDbPoint
 10
673.7733300654847
 20
251.478417521217
 30
0.0
  0
POINT
  5
4707
330
45F5
100
AcDbEntity
  8
Defpoints
 62
     0
100
AcDbPoint
 10
671.6563874701348
 20
128.8844902721983
 30
0.0
  0
POINT
  5
4708
330
45F5
100
AcDbEntity
  8
Defpoints
 62
     0
100
AcDbPoint
 10
642.9167258587417
 20
128.8844902721983
 30
0.0
  0
ENDBLK
  5
4600
330
45F5
100
AcDbEntity
  8
0
100
AcDbBlockEnd
  0
BLOCK
  5
4608
330
4601
100
AcDbEntity
  8
0
100
AcDbBlockBegin
  2
*D33
 70
     1
 10
0.0
 20
0.0
 30
0.0
  3
*D33
  1

  0
LINE
  5
46FA
330
4601
100
AcDbEntity
  8
寸法線
 62
     0
370
    -2
100
AcDbLine
 10
638.1534901959762
 20
278.8878207961232
 30
0.0
 11
655.5453345404255
 21
265.5048275800457
 31
0.0
  0
MTEXT
  5
46FB
330
4601
100
AcDbEntity
  8
寸法線
 62
     0
100
AcDbMText
 10
645.298058437847
 20
277.8069929602242
 30
0.0
 40
5.0
 41
0.0
 71
     5
 72
     1
  1
R20
  7
OKANO
 11
0.7925215445678098
 21
-0.6098439156012407
 31
0.0
 73
     1
 44
1.0
  0
LINE
  5
46FC
330
4601
100
AcDbEntity
  8
寸法線
 62
     0
370
    -2
100
AcDbLine
 10
673.7733300654847
 20
251.4784175212175
 30
0.0
 11
657.9228991741289
 21
263.675295833242
 31
0.0
  0
INSERT
  5
46FD
330
4601
100
AcDbEntity
  8
寸法線
 62
     0
370
    -2
100
AcDbBlockReference
  2
_Closed
 10
657.9228991741289
 20
263.675295833242
 30
0.0
 41
3.0
 42
3.0
 43
3.0
 50
322.4217820975781
  0
POINT
  5
46FE
330
4601
100
AcDbEntity
  8
Defpoints
 62
     0
100
AcDbPoint
 10
657.9228991741289
 20
263.675295833242
 30
0.0
  0
POINT
  5
46FF
330
4601
100
AcDbEntity
  8
Defpoints
 62
     0
100
AcDbPoint
 10
673.7733300654847
 20
251.4784175212175
 30
0.0
  0
ENDBLK
  5
4609
330
4601
100
AcDbEntity
  8
0
100
AcDbBlockEnd
  0
BLOCK
  5
4614
330
460A
100
AcDbEntity
  8
0
100
AcDbBlockBegin
  2
*D34
 70
     1
 10
0.0
 20
0.0
 30
0.0
  3
*D34
  1

  0
LINE
  5
468C
330
460A
100
AcDbEntity
  8
寸法線
 62
     0
370
    -2
100
AcDbLine
 10
1215.134022147194
 20
102.5260674435364
 30
0.0
 11
1194.958363253997
 21
102.5260674435364
 31
0.0
  0
LINE
  5
468D
330
460A
100
AcDbEntity
  8
寸法線
 62
     0
370
    -2
100
AcDbLine
 10
1215.752592251126
 20
42.8829234984239
 30
0.0
 11
1194.958363253997
 21
42.88292349842391
 31
0.0
  0
LINE
  5
468E
330
460A
100
AcDbEntity
  8
寸法線
 62
     0
370
    -2
100
AcDbLine
 10
1197.958363253997
 20
99.52606744353648
 30
0.0
 11
1197.958363253997
 21
45.88292349842391
 31
0.0
  0
INSERT
  5
468F
330
460A
100
AcDbEntity
  8
寸法線
 62
     0
370
    -2
100
AcDbBlockReference
  2
_Closed
 10
1197.958363253997
 20
102.5260674435364
 30
0.0
 41
3.0
 42
3.0
 43
3.0
 50
90.0
  0
INSERT
  5
4690
330
460A
100
AcDbEntity
  8
寸法線
 62
     0
370
    -2
100
AcDbBlockReference
  2
_Closed
 10
1197.958363253997
 20
42.88292349842391
 30
0.0
 41
3.0
 42
3.0
 43
3.0
 50
270.0
  0
MTEXT
  5
4691
330
460A
100
AcDbEntity
  8
寸法線
 62
     0
100
AcDbMText
 10
1194.458363253997
 20
72.70449547098039
 30
0.0
 40
5.0
 41
0.0
 71
     5
 72
     1
  1
60
  7
OKANO
 11
0.0000000000000001
 21
1.0
 31
0.0
 73
     1
 44
1.0
  0
POINT
  5
4692
330
460A
100
AcDbEntity
  8
Defpoints
 62
     0
100
AcDbPoint
 10
1217.134022147194
 20
102.5260674435364
 30
0.0
  0
POINT
  5
4693
330
460A
100
AcDbEntity
  8
Defpoints
 62
     0
100
AcDbPoint
 10
1217.752592251126
 20
42.8829234984239
 30
0.0
  0
POINT
  5
4694
330
460A
100
AcDbEntity
  8
Defpoints
 62
     0
100
AcDbPoint
 10
1197.958363253997
 20
42.88292349842391
 30
0.0
  0
ENDBLK
  5
4615
330
460A
100
AcDbEntity
  8
0
100
AcDbBlockEnd
  0
BLOCK
  5
4620
330
4616
100
AcDbEntity
  8
0
100
AcDbBlockBegin
  2
*D35
 70
     1
 10
0.0
 20
0.0
 30
0.0
  3
*D35
  1

  0
LINE
  5
4695
330
4616
100
AcDbEntity
  8
寸法線
 62
     0
370
    -2
100
AcDbLine
 10
1171.773232179068
 20
36.03266267508735
 30
0.0
 11
1171.773232179068
 21
19.48137100601059
 31
0.0
  0
LINE
  5
4696
330
4616
100
AcDbEntity
  8
寸法線
 62
     0
370
    -2
100
AcDbLine
 10
1328.300318417707
 20
35.64069187588197
 30
0.0
 11
1328.300318417707
 21
19.48137100601059
 31
0.0
  0
LINE
  5
4697
330
4616
100
AcDbEntity
  8
寸法線
 62
     0
370
    -2
100
AcDbLine
 10
1174.773232179068
 20
22.48137100601059
 30
0.0
 11
1325.300318417707
 21
22.48137100601059
 31
0.0
  0
INSERT
  5
4698
330
4616
100
AcDbEntity
  8
寸法線
 62
     0
370
    -2
100
AcDbBlockReference
  2
_Closed
 10
1171.773232179068
 20
22.48137100601059
 30
0.0
 41
3.0
 42
3.0
 43
3.0
 50
180.0
  0
INSERT
  5
4699
330
4616
100
AcDbEntity
  8
寸法線
 62
     0
370
    -2
100
AcDbBlockReference
  2
_Closed
 10
1328.300318417707
 20
22.48137100601059
 30
0.0
 41
3.0
 42
3.0
 43
3.0
  0
MTEXT
  5
469A
330
4616
100
AcDbEntity
  8
寸法線
 62
     0
100
AcDbMText
 10
1250.036775298388
 20
25.98137100601059
 30
0.0
 40
5.0
 41
0.0
 71
     5
 72
     1
  1
160
  7
OKANO
 73
     1
 44
1.0
  0
POINT
  5
469B
330
4616
100
AcDbEntity
  8
Defpoints
 62
     0
100
AcDbPoint
 10
1171.773232179068
 20
38.03266267508735
 30
0.0
  0
POINT
  5
469C
330
4616
100
AcDbEntity
  8
Defpoints
 62
     0
100
AcDbPoint
 10
1328.300318417707
 20
37.64069187588197
 30
0.0
  0
POINT
  5
469D
330
4616
100
AcDbEntity
  8
Defpoints
 62
     0
100
AcDbPoint
 10
1328.300318417707
 20
22.48137100601059
 30
0.0
  0
ENDBLK
  5
4621
330
4616
100
AcDbEntity
  8
0
100
AcDbBlockEnd
  0
BLOCK
  5
462C
330
4622
100
AcDbEntity
  8
0
100
AcDbBlockBegin
  2
*D36
 70
     1
 10
0.0
 20
0.0
 30
0.0
  3
*D36
  1

  0
LINE
  5
469E
330
4622
100
AcDbEntity
  8
寸法線
 62
     0
370
    -2
100
AcDbLine
 10
1222.593384502669
 20
57.91969907100963
 30
0.0
 11
1222.593384502669
 21
52.78075684418865
 31
0.0
  0
LINE
  5
469F
330
4622
100
AcDbEntity
  8
寸法線
 62
     0
370
    -2
100
AcDbLine
 10
1271.390247480547
 20
59.70858497533106
 30
0.0
 11
1271.390247480547
 21
52.78075684418865
 31
0.0
  0
LINE
  5
46A0
330
4622
100
AcDbEntity
  8
寸法線
 62
     0
370
    -2
100
AcDbLine
 10
1225.593384502669
 20
55.78075684418866
 30
0.0
 11
1268.390247480547
 21
55.78075684418866
 31
0.0
  0
INSERT
  5
46A1
330
4622
100
AcDbEntity
  8
寸法線
 62
     0
370
    -2
100
AcDbBlockReference
  2
_Closed
 10
1222.593384502669
 20
55.78075684418866
 30
0.0
 41
3.0
 42
3.0
 43
3.0
 50
180.0
  0
INSERT
  5
46A2
330
4622
100
AcDbEntity
  8
寸法線
 62
     0
370
    -2
100
AcDbBlockReference
  2
_Closed
 10
1271.390247480547
 20
55.78075684418866
 30
0.0
 41
3.0
 42
3.0
 43
3.0
  0
MTEXT
  5
46A3
330
4622
100
AcDbEntity
  8
寸法線
 62
     0
100
AcDbMText
 10
1246.991815991608
 20
59.28075684418866
 30
0.0
 40
5.0
 41
0.0
 71
     5
 72
     1
  1
49***50
  7
OKANO
 73
     1
 44
1.0
  0
POINT
  5
46A4
330
4622
100
AcDbEntity
  8
Defpoints
 62
     0
100
AcDbPoint
 10
1222.593384502669
 20
59.91969907100963
 30
0.0
  0
POINT
  5
46A5
330
4622
100
AcDbEntity
  8
Defpoints
 62
     0
100
AcDbPoint
 10
1271.390247480547
 20
61.70858497533107
 30
0.0
  0
POINT
  5
46A6
330
4622
100
AcDbEntity
  8
Defpoints
 62
     0
100
AcDbPoint
 10
1271.390247480547
 20
55.78075684418866
 30
0.0
  0
ENDBLK
  5
462D
330
4622
100
AcDbEntity
  8
0
100
AcDbBlockEnd
  0
BLOCK
  5
463A
330
462E
100
AcDbEntity
  8
0
100
AcDbBlockBegin
  2
*D37
 70
     1
 10
0.0
 20
0.0
 30
0.0
  3
*D37
  1

  0
LINE
  5
46A7
330
462E
100
AcDbEntity
  8
寸法線
 62
     0
370
    -2
100
AcDbLine
 10
1326.005071268586
 20
37.75712383668519
 30
0.0
 11
1342.387912392919
 21
37.75712383668519
 31
0.0
  0
LINE
  5
46A8
330
462E
100
AcDbEntity
  8
寸法線
 62
     0
370
    -2
100
AcDbLine
 10
1324.270427643538
 20
42.7982199731997
 30
0.0
 11
1342.387912392919
 21
42.79821997319969
 31
0.0
  0
LINE
  5
46A9
330
462E
100
AcDbEntity
  8
寸法線
 62
     0
370
    -2
100
AcDbLine
 10
1339.387912392919
 20
34.75712383668518
 30
0.0
 11
1339.387912392919
 21
31.75712383668519
 31
0.0
  0
LINE
  5
46AA
330
462E
100
AcDbEntity
  8
寸法線
 62
     0
370
    -2
100
AcDbLine
 10
1339.387912392919
 20
45.7982199731997
 30
0.0
 11
1339.387912392919
 21
58.75399133913975
 31
0.0
  0
LINE
  5
46AB
330
462E
100
AcDbEntity
  8
寸法線
 62
     0
370
    -2
100
AcDbLine
 10
1339.387912392919
 20
37.75712383668519
 30
0.0
 11
1339.387912392919
 21
42.79821997319969
 31
0.0
  0
INSERT
  5
46AC
330
462E
100
AcDbEntity
  8
寸法線
 62
     0
370
    -2
100
AcDbBlockReference
  2
_Closed
 10
1339.387912392919
 20
37.75712383668519
 30
0.0
 41
3.0
 42
3.0
 43
3.0
 50
90.0
  0
INSERT
  5
46AD
330
462E
100
AcDbEntity
  8
寸法線
 62
     0
370
    -2
100
AcDbBlockReference
  2
_Closed
 10
1339.387912392919
 20
42.79821997319969
 30
0.0
 41
3.0
 42
3.0
 43
3.0
 50
270.0
  0
MTEXT
  5
46AE
330
462E
100
AcDbEntity
  8
寸法線
 62
     0
100
AcDbMText
 10
1335.887912392919
 20
53.77610565616993
 30
0.0
 40
5.0
 41
0.0
 71
     5
 72
     1
  1
5.5
  7
OKANO
 11
0.0000000000000001
 21
1.0
 31
0.0
 73
     1
 44
1.0
  0
POINT
  5
46AF
330
462E
100
AcDbEntity
  8
Defpoints
 62
     0
100
AcDbPoint
 10
1324.005071268586
 20
37.75712383668519
 30
0.0
  0
POINT
  5
46B0
330
462E
100
AcDbEntity
  8
Defpoints
 62
     0
100
AcDbPoint
 10
1322.270427643538
 20
42.7982199731997
 30
0.0
  0
POINT
  5
46B1
330
462E
100
AcDbEntity
  8
Defpoints
 62
     0
100
AcDbPoint
 10
1339.387912392919
 20
42.79821997319969
 30
0.0
  0
ENDBLK
  5
463B
330
462E
100
AcDbEntity
  8
0
100
AcDbBlockEnd
  0
BLOCK
  5
4646
330
463C
100
AcDbEntity
  8
0
100
AcDbBlockBegin
  2
*D38
 70
     1
 10
0.0
 20
0.0
 30
0.0
  3
*D38
  1

  0
LINE
  5
46B2
330
463C
100
AcDbEntity
  8
寸法線
 62
     0
370
    -2
100
AcDbLine
 10
1274.300318417707
 20
102.4784795017718
 30
0.0
 11
1308.170185884656
 21
102.4784795017718
 31
0.0
  0
LINE
  5
46B3
330
463C
100
AcDbEntity
  8
寸法線
 62
     0
370
    -2
100
AcDbLine
 10
1284.658845978495
 20
87.47847950177186
 30
0.0
 11
1308.170185884656
 21
87.47847950177186
 31
0.0
  0
LINE
  5
46B4
330
463C
100
AcDbEntity
  8
寸法線
 62
     0
370
    -2
100
AcDbLine
 10
1305.170185884656
 20
99.47847950177186
 30
0.0
 11
1305.170185884656
 21
90.47847950177185
 31
0.0
  0
INSERT
  5
46B5
330
463C
100
AcDbEntity
  8
寸法線
 62
     0
370
    -2
100
AcDbBlockReference
  2
_Closed
 10
1305.170185884656
 20
102.4784795017718
 30
0.0
 41
3.0
 42
3.0
 43
3.0
 50
90.0
  0
INSERT
  5
46B6
330
463C
100
AcDbEntity
  8
寸法線
 62
     0
370
    -2
100
AcDbBlockReference
  2
_Closed
 10
1305.170185884656
 20
87.47847950177186
 30
0.0
 41
3.0
 42
3.0
 43
3.0
 50
270.0
  0
MTEXT
  5
46B7
330
463C
100
AcDbEntity
  8
寸法線
 62
     0
100
AcDbMText
 10
1301.670185884656
 20
94.97847950177206
 30
0.0
 40
5.0
 41
0.0
 71
     5
 72
     1
  1
15
  7
OKANO
 11
0.0000000000000001
 21
1.0
 31
0.0
 73
     1
 44
1.0
  0
POINT
  5
46B8
330
463C
100
AcDbEntity
  8
Defpoints
 62
     0
100
AcDbPoint
 10
1272.300318417707
 20
102.4784795017718
 30
0.0
  0
POINT
  5
46B9
330
463C
100
AcDbEntity
  8
Defpoints
 62
     0
100
AcDbPoint
 10
1282.658845978495
 20
87.47847950177186
 30
0.0
  0
POINT
  5
46BA
330
463C
100
AcDbEntity
  8
Defpoints
 62
     0
100
AcDbPoint
 10
1305.170185884656
 20
87.47847950177186
 30
0.0
  0
ENDBLK
  5
4647
330
463C
100
AcDbEntity
  8
0
100
AcDbBlockEnd
  0
BLOCK
  5
4652
330
4648
100
AcDbEntity
  8
0
100
AcDbBlockBegin
  2
*D39
 70
     1
 10
0.0
 20
0.0
 30
0.0
  3
*D39
  1

  0
LINE
  5
46D7
330
4648
100
AcDbEntity
  8
寸法線
 62
     0
370
    -2
100
AcDbLine
 10
793.1191737476982
 20
125.0725212681447
 30
0.0
 11
819.6017822096596
 21
98.56448709125187
 31
0.0
  0
LINE
  5
46D8
330
4648
100
AcDbEntity
  8
寸法線
 62
     0
370
    -2
100
AcDbLine
 10
801.4736543500507
 20
133.4189885021433
 30
0.0
 11
827.9562628120121
 21
106.9109543252504
 31
0.0
  0
LINE
  5
46D9
330
4648
100
AcDbEntity
  8
寸法線
 62
     0
370
    -2
100
AcDbLine
 10
819.6038178928459
 20
102.8071272899953
 30
0.0
 11
823.7136226132687
 21
106.9129900084367
 31
0.0
  0
INSERT
  5
46DA
330
4648
100
AcDbEntity
  8
寸法線
 62
     0
370
    -2
100
AcDbBlockReference
  2
_Closed
 10
817.4814799518809
 20
100.6868250322167
 30
0.0
 41
3.0
 42
3.0
 43
3.0
 50
224.972508617138
  0
INSERT
  5
46DB
330
4648
100
AcDbEntity
  8
寸法線
 62
     0
370
    -2
100
AcDbBlockReference
  2
_Closed
 10
825.8359605542334
 20
109.0332922662153
 30
0.0
 41
3.0
 42
3.0
 43
3.0
 50
44.972508617138
  0
MTEXT
  5
46DC
330
4648
100
AcDbEntity
  8
寸法線
 62
     0
100
AcDbMText
 10
819.1846864670372
 20
107.336467732891
 30
0.0
 40
5.0
 41
0.0
 71
     5
 72
     1
  1
12
  7
OKANO
 11
0.7074459803216251
 21
0.7067674192595291
 31
0.0
 73
     1
 44
1.0
  0
POINT
  5
46DD
330
4648
100
AcDbEntity
  8
Defpoints
 62
     0
100
AcDbPoint
 10
791.7056389091792
 20
126.487413228788
 30
0.0
  0
POINT
  5
46DE
330
4648
100
AcDbEntity
  8
Defpoints
 62
     0
100
AcDbPoint
 10
800.0601195115317
 20
134.8338804627866
 30
0.0
  0
POINT
  5
46DF
330
4648
100
AcDbEntity
  8
Defpoints
 62
     0
100
AcDbPoint
 10
825.8359605542334
 20
109.0332922662153
 30
0.0
  0
ENDBLK
  5
4653
330
4648
100
AcDbEntity
  8
0
100
AcDbBlockEnd
  0
BLOCK
  5
465E
330
4654
100
AcDbEntity
  8
0
100
AcDbBlockBegin
  2
*D40
 70
     1
 10
0.0
 20
0.0
 30
0.0
  3
*D40
  1

  0
LINE
  5
46F1
330
4654
100
AcDbEntity
  8
寸法線
 62
     0
370
    -2
100
AcDbLine
 10
790.1435917134903
 20
138.7300283156116
 30
0.0
 11
800.0129477076798
 21
148.988815215097
 31
0.0
  0
LINE
  5
46F2
330
4654
100
AcDbEntity
  8
寸法線
 62
     0
370
    -2
100
AcDbLine
 10
803.4124725289993
 20
125.9648437284069
 30
0.0
 11
813.2818285231888
 21
136.2236306278923
 31
0.0
  0
LINE
  5
46F3
330
4654
100
AcDbEntity
  8
寸法線
 62
     0
370
    -2
100
AcDbLine
 10
800.0950171893562
 20
144.7469683767284
 30
0.0
 11
809.0399816848201
 21
136.1415611462159
 31
0.0
  0
INSERT
  5
46F4
330
4654
100
AcDbEntity
  8
寸法線
 62
     0
370
    -2
100
AcDbBlockReference
  2
_Closed
 10
797.9330590293336
 20
146.8268570550745
 30
0.0
 41
3.0
 42
3.0
 43
3.0
 50
136.1083965334503
  0
INSERT
  5
46F5
330
4654
100
AcDbEntity
  8
寸法線
 62
     0
370
    -2
100
AcDbBlockReference
  2
_Closed
 10
811.2019398448426
 20
134.0616724678698
 30
0.0
 41
3.0
 42
3.0
 43
3.0
 50
316.1083965334503
  0
MTEXT
  5
46F6
330
4654
100
AcDbEntity
  8
寸法線
 62
     0
100
AcDbMText
 10
806.9943774175795
 20
142.9669039334274
 30
0.0
 40
5.0
 41
0.0
 71
     5
 72
     1
  1
20
  7
OKANO
 11
0.7206527200074976
 21
-0.6932962261153564
 31
0.0
 73
     1
 44
1.0
  0
POINT
  5
46F7
330
4654
100
AcDbEntity
  8
Defpoints
 62
     0
100
AcDbPoint
 10
788.7569992612595
 20
137.2887228755965
 30
0.0
  0
POINT
  5
46F8
330
4654
100
AcDbEntity
  8
Defpoints
 62
     0
100
AcDbPoint
 10
802.0258800767685
 20
124.5235382883919
 30
0.0
  0
POINT
  5
46F9
330
4654
100
AcDbEntity
  8
Defpoints
 62
     0
100
AcDbPoint
 10
811.2019398448426
 20
134.0616724678698
 30
0.0
  0
ENDBLK
  5
465F
330
4654
100
AcDbEntity
  8
0
100
AcDbBlockEnd
  0
BLOCK
  5
466A
330
4660
100
AcDbEntity
  8
0
100
AcDbBlockBegin
  2
*D41
 70
     1
 10
0.0
 20
0.0
 30
0.0
  3
*D41
  1

  0
LINE
  5
46CD
330
4660
100
AcDbEntity
  8
寸法線
 62
     0
370
    -2
100
AcDbLine
 10
1218.300318417707
 20
104.4784795017718
 30
0.0
 11
1218.300318417707
 21
111.8697015505332
 31
0.0
  0
LINE
  5
46CE
330
4660
100
AcDbEntity
  8
寸法線
 62
     0
370
    -2
100
AcDbLine
 10
1277.300318417707
 20
104.4784795017718
 30
0.0
 11
1277.300318417707
 21
111.8697015505332
 31
0.0
  0
LINE
  5
46CF
330
4660
100
AcDbEntity
  8
寸法線
 62
     0
370
    -2
100
AcDbLine
 10
1221.300318417707
 20
108.8697015505332
 30
0.0
 11
1274.300318417707
 21
108.8697015505332
 31
0.0
  0
INSERT
  5
46D0
330
4660
100
AcDbEntity
  8
寸法線
 62
     0
370
    -2
100
AcDbBlockReference
  2
_Closed
 10
1218.300318417707
 20
108.8697015505332
 30
0.0
 41
3.0
 42
3.0
 43
3.0
 50
180.0
  0
INSERT
  5
46D1
330
4660
100
AcDbEntity
  8
寸法線
 62
     0
370
    -2
100
AcDbBlockReference
  2
_Closed
 10
1277.300318417707
 20
108.8697015505332
 30
0.0
 41
3.0
 42
3.0
 43
3.0
  0
MTEXT
  5
46D2
330
4660
100
AcDbEntity
  8
寸法線
 62
     0
100
AcDbMText
 10
1247.800318417707
 20
112.3697015505332
 30
0.0
 40
5.0
 41
0.0
 71
     5
 72
     1
  1
60
  7
OKANO
 73
     1
 44
1.0
  0
POINT
  5
46D3
330
4660
100
AcDbEntity
  8
Defpoints
 62
     0
100
AcDbPoint
 10
1218.300318417707
 20
102.4784795017718
 30
0.0
  0
POINT
  5
46D4
330
4660
100
AcDbEntity
  8
Defpoints
 62
     0
100
AcDbPoint
 10
1277.300318417707
 20
102.4784795017718
 30
0.0
  0
POINT
  5
46D5
330
4660
100
AcDbEntity
  8
Defpoints
 62
     0
100
AcDbPoint
 10
1277.300318417707
 20
108.8697015505332
 30
0.0
  0
ENDBLK
  5
466B
330
4660
100
AcDbEntity
  8
0
100
AcDbBlockEnd
  0
BLOCK
  5
4724
330
471A
100
AcDbEntity
  8
0
100
AcDbBlockBegin
  2
*D42
 70
     1
 10
0.0
 20
0.0
 30
0.0
  3
*D42
  1

  0
LINE
  5
472F
330
471A
100
AcDbEntity
  8
寸法線
 62
     0
370
    -2
100
AcDbLine
 10
655.5559804168506
 20
-184.9190081577357
 30
0.0
 11
655.5559804168506
 21
-198.7645312213971
 31
0.0
  0
LINE
  5
4730
330
471A
100
AcDbEntity
  8
寸法線
 62
     0
370
    -2
100
AcDbLine
 10
813.6531374689125
 20
-184.9190081577357
 30
0.0
 11
813.6531374689125
 21
-198.7645312213971
 31
0.0
  0
LINE
  5
4731
330
471A
100
AcDbEntity
  8
寸法線
 62
     0
370
    -2
100
AcDbLine
 10
658.5559804168505
 20
-195.7645312213971
 30
0.0
 11
810.6531374689124
 21
-195.7645312213971
 31
0.0
  0
INSERT
  5
4732
330
471A
100
AcDbEntity
  8
寸法線
 62
     0
370
    -2
100
AcDbBlockReference
  2
_Closed
 10
655.5559804168506
 20
-195.7645312213971
 30
0.0
 41
3.0
 42
3.0
 43
3.0
 50
180.0
  0
INSERT
  5
4733
330
471A
100
AcDbEntity
  8
寸法線
 62
     0
370
    -2
100
AcDbBlockReference
  2
_Closed
 10
813.6531374689125
 20
-195.7645312213971
 30
0.0
 41
3.0
 42
3.0
 43
3.0
  0
MTEXT
  5
4734
330
471A
100
AcDbEntity
  8
寸法線
 62
     0
100
AcDbMText
 10
734.6045589428816
 20
-192.2645312213971
 30
0.0
 40
5.0
 41
0.0
 71
     5
 72
     1
  1
160
  7
OKANO
 73
     1
 44
1.0
  0
POINT
  5
4735
330
471A
100
AcDbEntity
  8
Defpoints
 62
     0
100
AcDbPoint
 10
655.5559804168506
 20
-182.9190081577357
 30
0.0
  0
POINT
  5
4736
330
471A
100
AcDbEntity
  8
Defpoints
 62
     0
100
AcDbPoint
 10
813.6531374689125
 20
-182.9190081577357
 30
0.0
  0
POINT
  5
4737
330
471A
100
AcDbEntity
  8
Defpoints
 62
     0
100
AcDbPoint
 10
813.6531374689125
 20
-195.7645312213971
 30
0.0
  0
ENDBLK
  5
4725
330
471A
100
AcDbEntity
  8
0
100
AcDbBlockEnd
  0
BLOCK
  5
4743
330
4739
100
AcDbEntity
  8
0
100
AcDbBlockBegin
  2
*D43
 70
     1
 10
0.0
 20
0.0
 30
0.0
  3
*D43
  1

  0
LINE
  5
4752
330
4739
100
AcDbEntity
  8
寸法線
 62
     0
370
    -2
100
AcDbLine
 10
10.61634590173673
 20
213.6553268218409
 30
0.0
 11
10.61634590173673
 21
244.9578292342676
 31
0.0
  0
LINE
  5
4753
330
4739
100
AcDbEntity
  8
寸法線
 62
     0
370
    -2
100
AcDbLine
 10
69.91634590173669
 20
213.6553268218409
 30
0.0
 11
69.91634590173669
 21
244.9578292342676
 31
0.0
  0
LINE
  5
4754
330
4739
100
AcDbEntity
  8
寸法線
 62
     0
370
    -2
100
AcDbLine
 10
13.61634590173673
 20
241.9578292342675
 30
0.0
 11
66.91634590173669
 21
241.9578292342675
 31
0.0
  0
INSERT
  5
4755
330
4739
100
AcDbEntity
  8
寸法線
 62
     0
370
    -2
100
AcDbBlockReference
  2
_Closed
 10
10.61634590173673
 20
241.9578292342675
 30
0.0
 41
3.0
 42
3.0
 43
3.0
 50
180.0
  0
INSERT
  5
4756
330
4739
100
AcDbEntity
  8
寸法線
 62
     0
370
    -2
100
AcDbBlockReference
  2
_Closed
 10
69.91634590173669
 20
241.9578292342675
 30
0.0
 41
3.0
 42
3.0
 43
3.0
  0
MTEXT
  5
4757
330
4739
100
AcDbEntity
  8
寸法線
 62
     0
100
AcDbMText
 10
40.26634590173671
 20
245.4578292342675
 30
0.0
 40
5.0
 41
0.0
 71
     5
 72
     1
  1
60
  7
OKANO
 73
     1
 44
1.0
  0
POINT
  5
4758
330
4739
100
AcDbEntity
  8
Defpoints
 62
     0
100
AcDbPoint
 10
10.61634590173673
 20
211.6553268218409
 30
0.0
  0
POINT
  5
4759
330
4739
100
AcDbEntity
  8
Defpoints
 62
     0
100
AcDbPoint
 10
69.91634590173669
 20
211.6553268218409
 30
0.0
  0
POINT
  5
475A
330
4739
100
AcDbEntity
  8
Defpoints
 62
     0
100
AcDbPoint
 10
69.91634590173669
 20
241.9578292342675
 30
0.0
  0
ENDBLK
  5
4744
330
4739
100
AcDbEntity
  8
0
100
AcDbBlockEnd
  0
BLOCK
  5
4750
330
4746
100
AcDbEntity
  8
0
100
AcDbBlockBegin
  2
*D44
 70
     1
 10
0.0
 20
0.0
 30
0.0
  3
*D44
  1

  0
LINE
  5
4747
330
4746
100
AcDbEntity
  8
寸法線
 62
     0
370
    -2
100
AcDbLine
 10
69.91634590173669
 20
243.9578292342675
 30
0.0
 11
69.91634590173669
 21
244.9578292342676
 31
0.0
  0
LINE
  5
4748
330
4746
100
AcDbEntity
  8
寸法線
 62
     0
370
    -2
100
AcDbLine
 10
104.9163459017366
 20
178.6553268218409
 30
0.0
 11
104.9163459017366
 21
244.9578292342676
 31
0.0
  0
LINE
  5
4749
330
4746
100
AcDbEntity
  8
寸法線
 62
     0
370
    -2
100
AcDbLine
 10
72.91634590173669
 20
241.9578292342675
 30
0.0
 11
101.9163459017366
 21
241.9578292342675
 31
0.0
  0
INSERT
  5
474A
330
4746
100
AcDbEntity
  8
寸法線
 62
     0
370
    -2
100
AcDbBlockReference
  2
_Closed
 10
69.91634590173669
 20
241.9578292342675
 30
0.0
 41
3.0
 42
3.0
 43
3.0
 50
180.0
  0
INSERT
  5
474B
330
4746
100
AcDbEntity
  8
寸法線
 62
     0
370
    -2
100
AcDbBlockReference
  2
_Closed
 10
104.9163459017366
 20
241.9578292342675
 30
0.0
 41
3.0
 42
3.0
 43
3.0
  0
MTEXT
  5
474C
330
4746
100
AcDbEntity
  8
寸法線
 62
     0
100
AcDbMText
 10
87.41634590173669
 20
245.4578292342675
 30
0.0
 40
5.0
 41
0.0
 71
     5
 72
     1
  1
35
  7
OKANO
 73
     1
 44
1.0
  0
POINT
  5
474D
330
4746
100
AcDbEntity
  8
Defpoints
 62
     0
100
AcDbPoint
 10
69.91634590173669
 20
241.9578292342675
 30
0.0
  0
POINT
  5
474E
330
4746
100
AcDbEntity
  8
Defpoints
 62
     0
100
AcDbPoint
 10
104.9163459017366
 20
176.655326821841
 30
0.0
  0
POINT
  5
474F
330
4746
100
AcDbEntity
  8
Defpoints
 62
     0
100
AcDbPoint
 10
104.9163459017366
 20
241.9578292342675
 30
0.0
  0
ENDBLK
  5
4751
330
4746
100
AcDbEntity
  8
0
100
AcDbBlockEnd
  0
BLOCK
  5
4766
330
475C
100
AcDbEntity
  8
0
100
AcDbBlockBegin
  2
*D45
 70
     1
 10
0.0
 20
0.0
 30
0.0
  3
*D45
  1

  0
LINE
  5
4783
330
475C
100
AcDbEntity
  8
寸法線
 62
     0
370
    -2
100
AcDbLine
 10
134.7859270222745
 20
68.53560202454525
 30
0.0
 11
134.7859270222745
 21
91.82839651771246
 31
0.0
  0
LINE
  5
4784
330
475C
100
AcDbEntity
  8
寸法線
 62
     0
370
    -2
100
AcDbLine
 10
184.7859270222745
 20
68.53560202454525
 30
0.0
 11
184.7859270222745
 21
91.82839651771246
 31
0.0
  0
LINE
  5
4785
330
475C
100
AcDbEntity
  8
寸法線
 62
     0
370
    -2
100
AcDbLine
 10
137.7859270222745
 20
88.82839651771247
 30
0.0
 11
181.7859270222745
 21
88.82839651771247
 31
0.0
  0
INSERT
  5
4786
330
475C
100
AcDbEntity
  8
寸法線
 62
     0
370
    -2
100
AcDbBlockReference
  2
_Closed
 10
134.7859270222745
 20
88.82839651771247
 30
0.0
 41
3.0
 42
3.0
 43
3.0
 50
180.0
  0
INSERT
  5
4787
330
475C
100
AcDbEntity
  8
寸法線
 62
     0
370
    -2
100
AcDbBlockReference
  2
_Closed
 10
184.7859270222745
 20
88.82839651771247
 30
0.0
 41
3.0
 42
3.0
 43
3.0
  0
MTEXT
  5
4788
330
475C
100
AcDbEntity
  8
寸法線
 62
     0
100
AcDbMText
 10
159.7859270222745
 20
92.32839651771246
 30
0.0
 40
5.0
 41
0.0
 71
     5
 72
     1
  1
49.5
  7
OKANO
 73
     1
 44
1.0
  0
POINT
  5
4789
330
475C
100
AcDbEntity
  8
Defpoints
 62
     0
100
AcDbPoint
 10
134.7859270222745
 20
66.53560202454525
 30
0.0
  0
POINT
  5
478A
330
475C
100
AcDbEntity
  8
Defpoints
 62
     0
100
AcDbPoint
 10
184.7859270222745
 20
66.53560202454525
 30
0.0
  0
POINT
  5
478B
330
475C
100
AcDbEntity
  8
Defpoints
 62
     0
100
AcDbPoint
 10
184.7859270222745
 20
88.82839651771247
 30
0.0
  0
ENDBLK
  5
4767
330
475C
100
AcDbEntity
  8
0
100
AcDbBlockEnd
  0
BLOCK
  5
4796
330
478D
100
AcDbEntity
  8
0
100
AcDbBlockBegin
  2
*D46
 70
     1
 10
0.0
 20
0.0
 30
0.0
  3
*D46
  1

  0
LINE
  5
4798
330
478D
100
AcDbEntity
  8
寸法線
 62
     0
370
    -2
100
AcDbLine
 10
144.5636290035121
 20
159.7372080169233
 30
0.0
 11
53.19806692016298
 21
150.335962572748
 31
0.0
  0
LINE
  5
4799
330
478D
100
AcDbEntity
  8
寸法線
 62
     0
370
    -2
100
AcDbLine
 10
27.33462488331043
 20
147.6746910709338
 30
0.0
 11
24.3503815713659
 21
147.3676212822629
 31
0.0
  0
MTEXT
  5
479A
330
478D
100
AcDbEntity
  8
寸法線
 62
     0
100
AcDbMText
 10
127.6521926759666
 20
161.516045947961
 30
0.0
 40
5.0
 41
0.0
 71
     5
 72
     1
  1
Ｍ12・Ｍ20
  7
OKANO
 11
0.994747770648175
 21
0.1023565962236223
 31
0.0
 73
     1
 44
1.0
  0
LINE
  5
479B
330
478D
100
AcDbEntity
  8
寸法線
 62
     0
370
    -2
100
AcDbLine
 10
30.31886819525495
 20
147.9817608596047
 30
0.0
 11
50.21382360821846
 21
150.0288927840771
 31
0.0
  0
INSERT
  5
479C
330
478D
100
AcDbEntity
  8
寸法線
 62
     0
370
    -2
100
AcDbBlockReference
  2
_Closed
 10
30.31886819525495
 20
147.9817608596047
 30
0.0
 41
3.0
 42
3.0
 43
3.0
 50
5.874889998104926
  0
INSERT
  5
479D
330
478D
100
AcDbEntity
  8
寸法線
 62
     0
370
    -2
100
AcDbBlockReference
  2
_Closed
 10
50.21382360821846
 20
150.0288927840771
 30
0.0
 41
3.0
 42
3.0
 43
3.0
 50
185.8748899981049
  0
POINT
  5
479E
330
478D
100
AcDbEntity
  8
Defpoints
 62
     0
100
AcDbPoint
 10
50.21382360821846
 20
150.0288927840771
 30
0.0
  0
POINT
  5
479F
330
478D
100
AcDbEntity
  8
Defpoints
 62
     0
100
AcDbPoint
 10
30.31886819525495
 20
147.9817608596047
 30
0.0
  0
ENDBLK
  5
4797
330
478D
100
AcDbEntity
  8
0
100
AcDbBlockEnd
  0
BLOCK
  5
47C1
330
47B7
100
AcDbEntity
  8
0
100
AcDbBlockBegin
  2
*D48
 70
     1
 10
0.0
 20
0.0
 30
0.0
  3
*D48
  1

  0
LINE
  5
47C3
330
47B7
100
AcDbEntity
  8
寸法線
 62
     0
370
    -2
100
AcDbLine
 10
653.7733300654847
 20
253.478417521217
 30
0.0
 11
653.7733300654847
 21
293.5417231343048
 31
0.0
  0
LINE
  5
47C4
330
47B7
100
AcDbEntity
  8
寸法線
 62
     0
370
    -2
100
AcDbLine
 10
813.6678314122622
 20
253.9653197215571
 30
0.0
 11
813.6678314122622
 21
293.5417231343048
 31
0.0
  0
LINE
  5
47C5
330
47B7
100
AcDbEntity
  8
寸法線
 62
     0
370
    -2
100
AcDbLine
 10
656.7733300654847
 20
290.5417231343049
 30
0.0
 11
810.6678314122623
 21
290.5417231343049
 31
0.0
  0
INSERT
  5
47C6
330
47B7
100
AcDbEntity
  8
寸法線
 62
     0
370
    -2
100
AcDbBlockReference
  2
_Closed
 10
653.7733300654847
 20
290.5417231343049
 30
0.0
 41
3.0
 42
3.0
 43
3.0
 50
180.0
  0
INSERT
  5
47C7
330
47B7
100
AcDbEntity
  8
寸法線
 62
     0
370
    -2
100
AcDbBlockReference
  2
_Closed
 10
813.6678314122622
 20
290.5417231343049
 30
0.0
 41
3.0
 42
3.0
 43
3.0
  0
MTEXT
  5
47C8
330
47B7
100
AcDbEntity
  8
寸法線
 62
     0
100
AcDbMText
 10
733.7205807388735
 20
294.0417231343049
 30
0.0
 40
5.0
 41
0.0
 71
     5
 72
     1
  1
160
  7
OKANO
 73
     1
 44
1.0
  0
POINT
  5
47C9
330
47B7
100
AcDbEntity
  8
Defpoints
 62
     0
100
AcDbPoint
 10
653.7733300654847
 20
251.478417521217
 30
0.0
  0
POINT
  5
47CA
330
47B7
100
AcDbEntity
  8
Defpoints
 62
     0
100
AcDbPoint
 10
813.6678314122622
 20
251.9653197215571
 30
0.0
  0
POINT
  5
47CB
330
47B7
100
AcDbEntity
  8
Defpoints
 62
     0
100
AcDbPoint
 10
813.6678314122622
 20
290.5417231343049
 30
0.0
  0
ENDBLK
  5
47C2
330
47B7
100
AcDbEntity
  8
0
100
AcDbBlockEnd
  0
ENDSEC
  0
SECTION
  2
ENTITIES
  0
LINE
  5
290E
330
1F
100
AcDbEntity
  8
太線
100
AcDbLine
 10
105.2663459017367
 20
-28.46439797545474
 30
0.0
 11
40.26634590173671
 21
-28.46439797545474
 31
0.0
  0
LINE
  5
2912
330
1F
100
AcDbEntity
  8
想像線
100
AcDbLine
 10
105.2663459017367
 20
26.53560202454525
 30
0.0
 11
70.85612264573706
 21
26.53560202454525
 31
0.0
  0
LINE
  5
2913
330
1F
100
AcDbEntity
  8
想像線
100
AcDbLine
 10
70.85612264573706
 20
26.53560202454525
 30
0.0
 11
70.26634590173671
 21
-23.46439797545474
 31
0.0
  0
LINE
  5
2914
330
1F
100
AcDbEntity
  8
想像線
100
AcDbLine
 10
70.26634590173671
 20
-23.46439797545474
 30
0.0
 11
105.2663459017367
 21
-23.46439797545474
 31
0.0
  0
CIRCLE
  5
29D7
330
1F
100
AcDbEntity
  8
太線
100
AcDbCircle
 10
40.26634590173671
 20
1.535602024545255
 30
0.0
 40
30.0
  0
CIRCLE
  5
29D8
330
1F
100
AcDbEntity
  8
太線
100
AcDbCircle
 10
40.26634590173671
 20
1.535602024545255
 30
0.0
 40
25.0
  0
LINE
  5
29E6
330
1F
100
AcDbEntity
  8
太線
100
AcDbLine
 10
10.35026611863708
 20
66.53560202454525
 30
0.0
 11
10.68594698623863
 21
6.535602024545255
 31
0.0
  0
LINE
  5
29E7
330
1F
100
AcDbEntity
  8
想像線
100
AcDbLine
 10
15.26634590173671
 20
66.53560202454525
 30
0.0
 11
15.26634590173671
 21
31.53560202454525
 31
0.0
  0
LINE
  5
29E8
330
1F
100
AcDbEntity
  8
想像線
100
AcDbLine
 10
15.26634590173671
 20
31.53560202454525
 30
0.0
 11
65.26634590173671
 21
31.53560202454525
 31
0.0
  0
LINE
  5
29E9
330
1F
100
AcDbEntity
  8
想像線
100
AcDbLine
 10
65.26634590173671
 20
31.53560202454525
 30
0.0
 11
65.26634590173671
 21
66.53560202454525
 31
0.0
  0
LINE
  5
29EC
330
1F
100
AcDbEntity
  8
太線
100
AcDbLine
 10
70.26634590173671
 20
31.53560202454525
 30
0.0
 11
105.2663459017367
 21
31.53560202454525
 31
0.0
  0
CIRCLE
  5
2AC8
330
1F
100
AcDbEntity
  8
細線
100
AcDbCircle
 10
40.26634590173671
 20
1.535602024545255
 30
0.0
 40
24.03857690457265
  0
LINE
  5
2AD2
330
1F
100
AcDbEntity
  8
太線
100
AcDbLine
 10
10.35026611863708
 20
66.53560202454525
 30
0.0
 11
70.26634590173671
 21
66.53560202454525
 31
0.0
  0
LINE
  5
2AD3
330
1F
100
AcDbEntity
  8
太線
100
AcDbLine
 10
105.2663459017367
 20
31.53560202454525
 30
0.0
 11
105.2663459017367
 21
-28.46439797545474
 31
0.0
  0
LINE
  5
2AD6
330
1F
100
AcDbEntity
  8
太線
100
AcDbLine
 10
70.26634590173671
 20
66.53560202454525
 30
0.0
 11
70.26634590173671
 21
31.53560202454525
 31
0.0
  0
LINE
  5
2C20
330
1F
100
AcDbEntity
  8
想像線
100
AcDbLine
 10
40.26634590173671
 20
-22.50297488002741
 30
0.0
 11
70.26634590173671
 21
-22.50297488002741
 31
0.0
  0
LINE
  5
2C21
330
1F
100
AcDbEntity
  8
想像線
100
AcDbLine
 10
40.26634590173671
 20
25.57417892911792
 30
0.0
 11
70.84478214608049
 21
25.57417892911792
 31
0.0
  0
LINE
  5
2C22
330
1F
100
AcDbEntity
  8
想像線
100
AcDbLine
 10
64.30492280630938
 20
31.53560202454525
 30
0.0
 11
64.30492280630938
 21
1.535602024545255
 31
0.0
  0
LINE
  5
2C23
330
1F
100
AcDbEntity
  8
想像線
100
AcDbLine
 10
16.22776899716404
 20
31.53560202454525
 30
0.0
 11
16.22776899716404
 21
1.535602024545255
 31
0.0
  0
LINE
  5
2E5A
330
1F
100
AcDbEntity
  8
太線
100
AcDbLine
 10
20.26634590173671
 20
-20.82507775045266
 30
0.0
 11
20.26634590173671
 21
-27.46439797545477
 31
0.0
  0
LINE
  5
2E5B
330
1F
100
AcDbEntity
  8
太線
100
AcDbLine
 10
21.26634590173671
 20
-28.46439797545477
 30
0.0
 11
59.26634590173671
 21
-28.46439797545477
 31
0.0
  0
LINE
  5
2E5C
330
1F
100
AcDbEntity
  8
太線
100
AcDbLine
 10
60.26634590173671
 20
-27.46439797545477
 30
0.0
 11
60.26634590173671
 21
-20.82507775045266
 31
0.0
  0
LINE
  5
2E5D
330
1F
100
AcDbEntity
  8
太線
100
AcDbLine
 10
60.26634590173671
 20
-20.82507775045266
 30
0.0
 11
60.26634590173671
 21
-22.50297488002741
 31
0.0
  0
LINE
  5
2E5E
330
1F
100
AcDbEntity
  8
太線
100
AcDbLine
 10
26.9301852999348
 20
-18.46439797545477
 30
0.0
 11
53.60250650353862
 21
-18.46439797545477
 31
0.0
  0
LINE
  5
2E5F
330
1F
100
AcDbEntity
  8
想像線
100
AcDbLine
 10
30.26634590173671
 20
-18.46439797545477
 30
0.0
 11
30.26634590173671
 21
-28.46439797545477
 31
0.0
  0
LINE
  5
2E60
330
1F
100
AcDbEntity
  8
想像線
100
AcDbLine
 10
34.26634590173671
 20
-18.46439797545477
 30
0.0
 11
34.26634590173671
 21
-27.85827488885288
 31
0.0
  0
LINE
  5
2E61
330
1F
100
AcDbEntity
  8
想像線
100
AcDbLine
 10
40.26634590173671
 20
-18.46439797545477
 30
0.0
 11
40.26634590173671
 21
-28.46439797545474
 31
0.0
  0
LINE
  5
2E62
330
1F
100
AcDbEntity
  8
想像線
100
AcDbLine
 10
46.26634590173671
 20
-18.46439797545477
 30
0.0
 11
46.26634590173671
 21
-27.85827488885288
 31
0.0
  0
LINE
  5
2E63
330
1F
100
AcDbEntity
  8
想像線
100
AcDbLine
 10
50.26634590173671
 20
-18.46439797545477
 30
0.0
 11
50.26634590173671
 21
-28.46439797545477
 31
0.0
  0
ARC
  5
2E89
330
1F
100
AcDbEntity
  8
太線
100
AcDbCircle
 10
20.76634590173671
 20
-27.96439797545477
 30
0.0
 40
0.5
100
AcDbArc
 50
180.0
 51
278.8957952865034
  0
ARC
  5
2E8A
330
1F
100
AcDbEntity
  8
太線
100
AcDbCircle
 10
21.26634590173671
 20
-27.46439797545477
 30
0.0
 40
1.0
100
AcDbArc
 50
262.2979531506369
 51
270.0
  0
ARC
  5
2E8B
330
1F
100
AcDbEntity
  8
太線
100
AcDbCircle
 10
59.26634590173671
 20
-27.46439797545477
 30
0.0
 40
1.0
100
AcDbArc
 50
270.0
 51
0.0
  0
ARC
  5
2E8C
330
1F
100
AcDbEntity
  8
太線
100
AcDbCircle
 10
20.99830272678681
 20
-29.4463548005049
 30
0.0
 40
1.0
100
AcDbArc
 50
82.29795315063654
 51
98.89579528650337
  0
TEXT
  5
30AA
330
1F
100
AcDbEntity
  8
文字
100
AcDbText
 10
165.752357413869
 20
-196.3963965987631
 30
0.0
 40
5.759999999999999
  1
S-14-3Y100                                                                                                                  
 51
15.0
  7
OKANO
100
AcDbText
  0
LINE
  5
311A
330
1F
100
AcDbEntity
  8
想像線
100
AcDbLine
 10
184.7859270222745
 20
31.53560202454525
 30
0.0
 11
184.7859270222745
 21
66.53560202454525
 31
0.0
  0
LINE
  5
311C
330
1F
100
AcDbEntity
  8
太線
100
AcDbLine
 10
189.7859270222745
 20
66.53560202454525
 30
0.0
 11
189.7859270222745
 21
31.53560202454525
 31
0.0
  0
LINE
  5
311D
330
1F
100
AcDbEntity
  8
太線
100
AcDbLine
 10
129.8698472391749
 20
66.53560202454525
 30
0.0
 11
130.2055281067764
 21
6.535602024545255
 31
0.0
  0
LINE
  5
311E
330
1F
100
AcDbEntity
  8
想像線
100
AcDbLine
 10
134.7859270222745
 20
66.53560202454525
 30
0.0
 11
134.7859270222745
 21
31.53560202454525
 31
0.0
  0
LINE
  5
3121
330
1F
100
AcDbEntity
  8
太線
100
AcDbLine
 10
224.7859270222745
 20
-28.46439797545474
 30
0.0
 11
159.7859270222745
 21
-28.46439797545474
 31
0.0
  0
CIRCLE
  5
3122
330
1F
100
AcDbEntity
  8
太線
100
AcDbCircle
 10
159.7859270222745
 20
1.535602024545255
 30
0.0
 40
30.0
  0
CIRCLE
  5
3123
330
1F
100
AcDbEntity
  8
太線
100
AcDbCircle
 10
159.7859270222745
 20
1.535602024545255
 30
0.0
 40
25.0
  0
LINE
  5
3124
330
1F
100
AcDbEntity
  8
想像線
100
AcDbLine
 10
134.7859270222745
 20
31.53560202454525
 30
0.0
 11
184.7859270222745
 21
31.53560202454525
 31
0.0
  0
CIRCLE
  5
3125
330
1F
100
AcDbEntity
  8
細線
100
AcDbCircle
 10
159.7859270222745
 20
1.535602024545255
 30
0.0
 40
24.03857690457265
  0
LINE
  5
3126
330
1F
100
AcDbEntity
  8
想像線
100
AcDbLine
 10
159.7859270222745
 20
-22.50297488002741
 30
0.0
 11
189.7859270222745
 21
-22.50297488002741
 31
0.0
  0
LINE
  5
3127
330
1F
100
AcDbEntity
  8
想像線
100
AcDbLine
 10
159.7859270222745
 20
25.57417892911792
 30
0.0
 11
190.3643632666183
 21
25.57417892911792
 31
0.0
  0
LINE
  5
3128
330
1F
100
AcDbEntity
  8
太線
100
AcDbLine
 10
140.7859270222745
 20
-28.46439797545477
 30
0.0
 11
178.7859270222745
 21
-28.46439797545477
 31
0.0
  0
LINE
  5
3129
330
1F
100
AcDbEntity
  8
太線
100
AcDbLine
 10
146.4497664204726
 20
-18.46439797545477
 30
0.0
 11
173.1220876240764
 21
-18.46439797545477
 31
0.0
  0
LINE
  5
312A
330
1F
100
AcDbEntity
  8
想像線
100
AcDbLine
 10
149.7859270222745
 20
-18.46439797545477
 30
0.0
 11
149.7859270222745
 21
-28.46439797545477
 31
0.0
  0
LINE
  5
312B
330
1F
100
AcDbEntity
  8
想像線
100
AcDbLine
 10
153.7859270222745
 20
-18.46439797545477
 30
0.0
 11
153.7859270222745
 21
-27.85827488885288
 31
0.0
  0
LINE
  5
312C
330
1F
100
AcDbEntity
  8
想像線
100
AcDbLine
 10
159.7859270222745
 20
-18.46439797545477
 30
0.0
 11
159.7859270222745
 21
-28.46439797545474
 31
0.0
  0
LINE
  5
312D
330
1F
100
AcDbEntity
  8
太線
100
AcDbLine
 10
139.7859270222745
 20
-20.82507775045266
 30
0.0
 11
139.7859270222745
 21
-27.46439797545477
 31
0.0
  0
ARC
  5
312E
330
1F
100
AcDbEntity
  8
太線
100
AcDbCircle
 10
140.2859270222745
 20
-27.96439797545477
 30
0.0
 40
0.5
100
AcDbArc
 50
180.0
 51
278.8957952865034
  0
ARC
  5
312F
330
1F
100
AcDbEntity
  8
太線
100
AcDbCircle
 10
140.7859270222745
 20
-27.46439797545477
 30
0.0
 40
1.0
100
AcDbArc
 50
262.2979531506369
 51
270.0
  0
ARC
  5
3130
330
1F
100
AcDbEntity
  8
太線
100
AcDbCircle
 10
140.5178838473246
 20
-29.4463548005049
 30
0.0
 40
1.0
100
AcDbArc
 50
82.29795315063654
 51
98.89579528650337
  0
LINE
  5
3131
330
1F
100
AcDbEntity
  8
想像線
100
AcDbLine
 10
135.7473501177018
 20
31.53560202454525
 30
0.0
 11
135.7473501177018
 21
1.535602024545255
 31
0.0
  0
LINE
  5
3132
330
1F
100
AcDbEntity
  8
想像線
100
AcDbLine
 10
190.3757037662749
 20
26.53560202454525
 30
0.0
 11
189.7859270222745
 21
-23.46439797545474
 31
0.0
  0
LINE
  5
3133
330
1F
100
AcDbEntity
  8
太線
100
AcDbLine
 10
224.7859270222745
 20
31.53560202454525
 30
0.0
 11
224.7859270222745
 21
-28.46439797545474
 31
0.0
  0
LINE
  5
3134
330
1F
100
AcDbEntity
  8
想像線
100
AcDbLine
 10
169.7859270222745
 20
-18.46439797545477
 30
0.0
 11
169.7859270222745
 21
-28.46439797545477
 31
0.0
  0
LINE
  5
3135
330
1F
100
AcDbEntity
  8
想像線
100
AcDbLine
 10
165.7859270222745
 20
-18.46439797545477
 30
0.0
 11
165.7859270222745
 21
-27.85827488885288
 31
0.0
  0
LINE
  5
3136
330
1F
100
AcDbEntity
  8
想像線
100
AcDbLine
 10
189.7859270222745
 20
-23.46439797545474
 30
0.0
 11
224.7859270222745
 21
-23.46439797545474
 31
0.0
  0
LINE
  5
3137
330
1F
100
AcDbEntity
  8
太線
100
AcDbLine
 10
179.7859270222745
 20
-27.46439797545477
 30
0.0
 11
179.7859270222745
 21
-20.82507775045266
 31
0.0
  0
ARC
  5
3138
330
1F
100
AcDbEntity
  8
太線
100
AcDbCircle
 10
178.7859270222745
 20
-27.46439797545477
 30
0.0
 40
1.0
100
AcDbArc
 50
270.0
 51
0.0
  0
LINE
  5
3139
330
1F
100
AcDbEntity
  8
太線
100
AcDbLine
 10
179.7859270222745
 20
-20.82507775045266
 30
0.0
 11
179.7859270222745
 21
-22.50297488002741
 31
0.0
  0
LINE
  5
313A
330
1F
100
AcDbEntity
  8
想像線
100
AcDbLine
 10
224.7859270222745
 20
26.53560202454525
 30
0.0
 11
190.3757037662749
 21
26.53560202454525
 31
0.0
  0
LINE
  5
313B
330
1F
100
AcDbEntity
  8
太線
100
AcDbLine
 10
189.7859270222745
 20
31.53560202454525
 30
0.0
 11
224.7859270222745
 21
31.53560202454525
 31
0.0
  0
LINE
  5
313E
330
1F
100
AcDbEntity
  8
想像線
100
AcDbLine
 10
183.8245039268472
 20
31.53560202454525
 30
0.0
 11
183.8245039268472
 21
1.535602024545255
 31
0.0
  0
LINE
  5
3145
330
1F
100
AcDbEntity
  8
太線
100
AcDbLine
 10
129.8698472391749
 20
66.53560202454525
 30
0.0
 11
189.7859270222745
 21
66.53560202454525
 31
0.0
  0
TEXT
  5
321C
330
1F
100
AcDbEntity
  8
文字
100
AcDbText
 10
703.8801223092861
 20
-221.5161127079742
 30
0.0
 40
5.759999999999999
  1
水平調整70mm　２ｔ　タイプ                                                                                                                                      
 51
15.0
  7
OKANO
100
AcDbText
  0
TEXT
  5
321D
330
1F
100
AcDbEntity
  8
文字
100
AcDbText
 10
719.7358750367081
 20
-207.2422319816206
 30
0.0
 40
5.759999999999999
  1
S-15-3Y2000Ｂ                                                                                                                                                                               
 51
15.0
  7
OKANO
100
AcDbText
  0
ARC
  5
3228
330
1F
100
AcDbEntity
  8
破線
100
AcDbCircle
 10
734.8577341544262
 20
-122.9730158347505
 30
0.0
 40
25.31465050611781
100
AcDbArc
 50
253.1602647809359
 51
285.0511046503695
  0
LINE
  5
3229
330
1F
100
AcDbEntity
  8
破線
100
AcDbLine
 10
749.5246368337054
 20
-148.4291716019319
 30
0.0
 11
724.5246368337054
 21
-148.4291716019319
 31
0.0
  0
LINE
  5
322A
330
1F
100
AcDbEntity
  8
破線
100
AcDbLine
 10
719.5246368337055
 20
-132.4291716019319
 30
0.0
 11
749.5246368337054
 21
-132.4291716019319
 31
0.0
  0
LINE
  5
322B
330
1F
100
AcDbEntity
  8
太線
100
AcDbLine
 10
719.5246368337055
 20
-148.4291716019319
 30
0.0
 11
749.5246368337054
 21
-148.4291716019319
 31
0.0
  0
LINE
  5
322C
330
1F
100
AcDbEntity
  8
太線
100
AcDbLine
 10
749.5246368337054
 20
-164.4291716019319
 30
0.0
 11
724.5246368337054
 21
-164.4291716019319
 31
0.0
  0
ARC
  5
322D
330
1F
100
AcDbEntity
  8
太線
100
AcDbCircle
 10
734.8577341544262
 20
-138.9730158347505
 30
0.0
 40
25.31465050611781
100
AcDbArc
 50
253.1602647809359
 51
285.0511046503695
  0
LINE
  5
322E
330
1F
100
AcDbEntity
  8
想像線
100
AcDbLine
 10
749.5246368337054
 20
-179.5092189154203
 30
0.0
 11
724.5246368337054
 21
-179.5092189154203
 31
0.0
  0
ARC
  5
322F
330
1F
100
AcDbEntity
  8
想像線
100
AcDbCircle
 10
734.8577341544262
 20
-154.0530631482389
 30
0.0
 40
25.31465050611781
100
AcDbArc
 50
253.1602647809359
 51
285.0511046503695
  0
LINE
  5
3230
330
1F
100
AcDbEntity
  8
想像線
100
AcDbLine
 10
719.5214719224152
 20
-169.2062603414414
 30
0.0
 11
749.5246368337054
 21
-169.2062603414414
 31
0.0
  0
LINE
  5
3231
330
1F
100
AcDbEntity
  8
太線
100
AcDbLine
 10
794.5246368337055
 20
-182.9190081577357
 30
0.0
 11
674.5246368337054
 21
-182.9190081577357
 31
0.0
  0
LINE
  5
3232
330
1F
100
AcDbEntity
  8
太線
100
AcDbLine
 10
674.5246368337054
 20
-182.9190081577357
 30
0.0
 11
794.5246368337055
 21
-182.9190081577357
 31
0.0
  0
ARC
  5
3233
330
1F
100
AcDbEntity
  8
太線
100
AcDbCircle
 10
734.5246368337054
 20
-198.4702998268125
 30
0.0
 40
33.69174736868501
100
AcDbArc
 50
40.72361606748761
 51
139.2763839325123
  0
LINE
  5
3234
330
1F
100
AcDbEntity
  8
太線
100
AcDbLine
 10
708.9908241680557
 20
-176.4894387993005
 30
0.0
 11
760.0584494993552
 21
-176.4894387993005
 31
0.0
  0
LINE
  5
3235
330
1F
100
AcDbEntity
  8
太線
100
AcDbLine
 10
701.1749957161771
 20
-177.9190081577358
 30
0.0
 11
767.6340728198295
 21
-178.064043097788
 31
0.0
  0
LINE
  5
3236
330
1F
100
AcDbEntity
  8
想像線
100
AcDbLine
 10
719.5246368337055
 20
-179.5092189154203
 30
0.0
 11
719.5246368337055
 21
-169.2062603414414
 31
0.0
  0
LINE
  5
3237
330
1F
100
AcDbEntity
  8
想像線
100
AcDbLine
 10
727.5246368337055
 20
-169.2062603414414
 30
0.0
 11
727.5246368337055
 21
-179.5092189154203
 31
0.0
  0
TEXT
  5
3238
330
1F
100
AcDbEntity
  8
文字
100
AcDbText
 10
429.5679987387257
 20
-216.8047975844162
 30
0.0
 40
5.759999999999999
  1
水平調整85mm　500kタイプ                                                                                                                                      
 51
15.0
  7
OKANO
100
AcDbText
  0
TEXT
  5
3239
330
1F
100
AcDbEntity
  8
文字
100
AcDbText
 10
573.6622584635874
 20
-203.7119827291023
 30
0.0
 40
5.759999999999999
  1
S-15-3Y500(ｱﾝｶｰ）                                                                                                                                                                                 
 51
15.0
  7
OKANO
100
AcDbText
  0
LINE
  5
323A
330
1F
100
AcDbEntity
  8
太線
100
AcDbLine
 10
660.5559804168506
 20
-177.9190081577358
 30
0.0
 11
682.2063392993222
 21
-177.9190081577358
 31
0.0
  0
ARC
  5
323B
330
1F
100
AcDbEntity
  8
太線
100
AcDbCircle
 10
660.5559804168506
 20
-182.9190081577357
 30
0.0
 40
5.0
100
AcDbArc
 50
90.0
 51
180.0
  0
LINE
  5
323C
330
1F
100
AcDbEntity
  8
太線
100
AcDbLine
 10
655.5559804168506
 20
-182.9190081577357
 30
0.0
 11
655.5559804168506
 21
-182.9190081577357
 31
0.0
  0
LINE
  5
323D
330
1F
100
AcDbEntity
  8
想像線
100
AcDbLine
 10
666.7823913106726
 20
-177.9190081577358
 30
0.0
 11
666.7823913106726
 21
-182.9190081577357
 31
0.0
  0
LINE
  5
323F
330
1F
100
AcDbEntity
  8
太線
100
AcDbLine
 10
701.1749957161771
 20
-176.4894387993005
 30
0.0
 11
708.9908241680557
 21
-176.4894387993005
 31
0.0
  0
LINE
  5
3241
330
1F
100
AcDbEntity
  8
想像線
100
AcDbLine
 10
724.5246368337054
 20
-179.5092189154203
 30
0.0
 11
719.5246368337055
 21
-179.5092189154203
 31
0.0
  0
ARC
  5
3242
330
1F
100
AcDbEntity
  8
想像線
100
AcDbCircle
 10
723.723973789285
 20
-169.808281590652
 30
0.0
 40
9.574652439182898
100
AcDbArc
 50
242.2559248299449
 51
294.8092894638859
  0
LINE
  5
3249
330
1F
100
AcDbEntity
  8
太線
100
AcDbLine
 10
589.7952221565828
 20
-161.4603679898747
 30
0.0
 11
589.7952221565828
 21
-154.6466116048764
 31
0.0
  0
LINE
  5
324A
330
1F
100
AcDbEntity
  8
細線
100
AcDbLine
 10
590.7952221565828
 20
-43.46036798987472
 30
0.0
 11
590.795222156583
 21
-145.020569903078
 31
0.0
  0
LINE
  5
324B
330
1F
100
AcDbEntity
  8
太線
100
AcDbLine
 10
601.7952221565828
 20
-46.16139504737623
 30
0.0
 11
601.7952221565828
 21
-145.020569903078
 31
0.0
  0
LINE
  5
324C
330
1F
100
AcDbEntity
  8
細線
100
AcDbLine
 10
600.7952221565829
 20
-43.46036798987472
 30
0.0
 11
600.795222156583
 21
-145.020569903078
 31
0.0
  0
LINE
  5
324D
330
1F
100
AcDbEntity
  8
太線
100
AcDbLine
 10
590.7849997261767
 20
-145.020569903078
 30
0.0
 11
587.7849997261768
 21
-145.020569903078
 31
0.0
  0
LINE
  5
324E
330
1F
100
AcDbEntity
  8
太線
100
AcDbLine
 10
586.7952221565828
 20
-145.6466116048764
 30
0.0
 11
604.7952221565829
 21
-145.6466116048764
 31
0.0
  0
LINE
  5
324F
330
1F
100
AcDbEntity
  8
太線
100
AcDbLine
 10
590.7952221565828
 20
-153.6466116048764
 30
0.0
 11
587.7952221565829
 21
-154.6466116048764
 31
0.0
  0
LINE
  5
3250
330
1F
100
AcDbEntity
  8
太線
100
AcDbLine
 10
588.5172522453708
 20
-161.3019084413825
 30
0.0
 11
590.8270454974635
 21
-162.9941455566353
 31
0.0
  0
LINE
  5
3251
330
1F
100
AcDbEntity
  8
破線
100
AcDbLine
 10
601.7952221565828
 20
-172.5394829303628
 30
0.0
 11
589.7952221565828
 21
-172.5394829303628
 31
0.0
  0
LINE
  5
3252
330
1F
100
AcDbEntity
  8
太線
100
AcDbLine
 10
605.0083861405938
 20
-169.4603679898746
 30
0.0
 11
586.5820581725719
 21
-169.4603679898747
 31
0.0
  0
LINE
  5
3253
330
1F
100
AcDbEntity
  8
太線
100
AcDbLine
 10
603.7952221565829
 20
-161.4603679898747
 30
0.0
 11
587.7952221565829
 21
-161.4603679898747
 31
0.0
  0
LINE
  5
3254
330
1F
100
AcDbEntity
  8
太線
100
AcDbLine
 10
603.7952221565829
 20
-154.6466116048764
 30
0.0
 11
587.7952221565829
 21
-154.6466116048764
 31
0.0
  0
LINE
  5
3255
330
1F
100
AcDbEntity
  8
破線
100
AcDbLine
 10
603.7952221565829
 20
-180.5394829303628
 30
0.0
 11
587.7952221565829
 21
-180.5394829303628
 31
0.0
  0
LINE
  5
3256
330
1F
100
AcDbEntity
  8
破線
100
AcDbLine
 10
590.7952221565828
 20
-179.5394829303628
 30
0.0
 11
587.7952221565829
 21
-180.5394829303628
 31
0.0
  0
LINE
  5
3258
330
1F
100
AcDbEntity
  8
太線
100
AcDbLine
 10
586.7952221565828
 20
-153.6466116048764
 30
0.0
 11
586.7952221565828
 21
-145.6466116048764
 31
0.0
  0
LINE
  5
3259
330
1F
100
AcDbEntity
  8
太線
100
AcDbLine
 10
586.7952221565828
 20
-162.4603679898747
 30
0.0
 11
586.7952221565828
 21
-169.4603679898747
 31
0.0
  0
LINE
  5
325E
330
1F
100
AcDbEntity
  8
破線
100
AcDbLine
 10
586.7952221565828
 20
-179.5394829303628
 30
0.0
 11
586.7952221565828
 21
-173.5394829303628
 31
0.0
  0
ARC
  5
3260
330
1F
100
AcDbEntity
  8
破線
100
AcDbCircle
 10
587.7952221565829
 20
-179.5394829303628
 30
0.0
 40
1.0
100
AcDbArc
 50
180.0
 51
270.0
  0
LINE
  5
3262
330
1F
100
AcDbEntity
  8
破線
100
AcDbLine
 10
587.7952221565829
 20
-172.5394829303628
 30
0.0
 11
589.7952221565828
 21
-172.5394829303628
 31
0.0
  0
ARC
  5
3263
330
1F
100
AcDbEntity
  8
破線
100
AcDbCircle
 10
587.7952221565829
 20
-173.5394829303628
 30
0.0
 40
1.0
100
AcDbArc
 50
90.0
 51
180.0
  0
LINE
  5
3264
330
1F
100
AcDbEntity
  8
破線
100
AcDbLine
 10
589.7952221565828
 20
-169.4603679898746
 30
0.0
 11
589.7952221565828
 21
-172.5394829303628
 31
0.0
  0
ARC
  5
3265
330
1F
100
AcDbEntity
  8
太線
100
AcDbCircle
 10
587.7952221565829
 20
-162.4603679898747
 30
0.0
 40
1.0
100
AcDbArc
 50
90.0
 51
180.0
  0
ARC
  5
3266
330
1F
100
AcDbEntity
  8
太線
100
AcDbCircle
 10
587.7952221565829
 20
-153.6466116048764
 30
0.0
 40
1.0
100
AcDbArc
 50
180.0
 51
270.0
  0
ARC
  5
3267
330
1F
100
AcDbEntity
  8
太線
100
AcDbCircle
 10
587.7849997261768
 20
-146.020569903078
 30
0.0
 40
1.0
100
AcDbArc
 50
90.0
 51
180.0
  0
LINE
  5
3268
330
1F
100
AcDbEntity
  8
太線
100
AcDbLine
 10
600.7952221565829
 20
-145.6466116048763
 30
0.0
 11
600.7952221565829
 21
-153.6466116048764
 31
0.0
  0
LINE
  5
3269
330
1F
100
AcDbEntity
  8
太線
100
AcDbLine
 10
590.7952221565828
 20
-145.6466116048763
 30
0.0
 11
590.7952221565828
 21
-153.6466116048764
 31
0.0
  0
LINE
  5
326A
330
1F
100
AcDbEntity
  8
太線
100
AcDbLine
 10
604.7952221565829
 20
-145.6466116048764
 30
0.0
 11
604.7952221565829
 21
-153.6466116048764
 31
0.0
  0
LINE
  5
326C
330
1F
100
AcDbEntity
  8
太線
100
AcDbLine
 10
604.7952221565829
 20
-162.4603679898747
 30
0.0
 11
604.7952221565829
 21
-169.4603679898747
 31
0.0
  0
LINE
  5
326D
330
1F
100
AcDbEntity
  8
太線
100
AcDbLine
 10
590.7952221565828
 20
-162.9708306393713
 30
0.0
 11
590.7952221565828
 21
-169.4603679898747
 31
0.0
  0
LINE
  5
326E
330
1F
100
AcDbEntity
  8
太線
100
AcDbLine
 10
600.7952221565829
 20
-162.7738653660019
 30
0.0
 11
600.7952221565829
 21
-169.4603679898747
 31
0.0
  0
LINE
  5
326F
330
1F
100
AcDbEntity
  8
破線
100
AcDbLine
 10
601.7952221565828
 20
-172.5394829303628
 30
0.0
 11
603.7952221565829
 21
-172.5394829303628
 31
0.0
  0
LINE
  5
3270
330
1F
100
AcDbEntity
  8
破線
100
AcDbLine
 10
600.7952221565829
 20
-179.5394829303628
 30
0.0
 11
603.7952221565829
 21
-180.5394829303628
 31
0.0
  0
LINE
  5
3271
330
1F
100
AcDbEntity
  8
破線
100
AcDbLine
 10
600.7952221565829
 20
-172.5394829303628
 30
0.0
 11
600.7952221565829
 21
-179.5394829303628
 31
0.0
  0
LINE
  5
3272
330
1F
100
AcDbEntity
  8
破線
100
AcDbLine
 10
590.7952221565828
 20
-172.5394829303628
 30
0.0
 11
590.7952221565828
 21
-179.5394829303628
 31
0.0
  0
ARC
  5
3273
330
1F
100
AcDbEntity
  8
破線
100
AcDbCircle
 10
595.7952221565829
 20
-167.5394829303628
 30
0.0
 40
13.00000000000004
100
AcDbArc
 50
247.3801350519612
 51
292.6198649480387
  0
LINE
  5
3274
330
1F
100
AcDbEntity
  8
破線
100
AcDbLine
 10
590.7952221565828
 20
-169.4603679898747
 30
0.0
 11
590.7952221565828
 21
-172.5394829303628
 31
0.0
  0
LINE
  5
3275
330
1F
100
AcDbEntity
  8
破線
100
AcDbLine
 10
600.7952221565829
 20
-169.4603679898747
 30
0.0
 11
600.7952221565829
 21
-172.5394829303628
 31
0.0
  0
LINE
  5
3276
330
1F
100
AcDbEntity
  8
破線
100
AcDbLine
 10
601.7952221565828
 20
-169.4603679898746
 30
0.0
 11
601.7952221565828
 21
-172.5394829303628
 31
0.0
  0
LINE
  5
3277
330
1F
100
AcDbEntity
  8
破線
100
AcDbLine
 10
604.7952221565829
 20
-173.5394829303628
 30
0.0
 11
604.7952221565829
 21
-179.5394829303628
 31
0.0
  0
ARC
  5
3279
330
1F
100
AcDbEntity
  8
破線
100
AcDbCircle
 10
603.7952221565829
 20
-179.5394829303628
 30
0.0
 40
1.0
100
AcDbArc
 50
270.0
 51
0.0
  0
ARC
  5
327B
330
1F
100
AcDbEntity
  8
破線
100
AcDbCircle
 10
603.7952221565829
 20
-173.5394829303628
 30
0.0
 40
1.0
100
AcDbArc
 50
0.0
 51
90.0
  0
LINE
  5
327C
330
1F
100
AcDbEntity
  8
太線
100
AcDbLine
 10
600.6821658503367
 20
-162.8403058188849
 30
0.0
 11
603.299931345482
 21
-161.3019084413825
 31
0.0
  0
LINE
  5
327D
330
1F
100
AcDbEntity
  8
太線
100
AcDbLine
 10
600.7952221565829
 20
-153.6466116048764
 30
0.0
 11
603.7952221565829
 21
-154.6466116048764
 31
0.0
  0
LINE
  5
327E
330
1F
100
AcDbEntity
  8
太線
100
AcDbLine
 10
590.8270454974635
 20
-162.9941455566353
 30
0.0
 11
594.830687515544
 21
-161.609587916883
 31
0.0
  0
LINE
  5
327F
330
1F
100
AcDbEntity
  8
太線
100
AcDbLine
 10
598.2183850475194
 20
-161.4557481791326
 30
0.0
 11
600.6821658503367
 21
-162.8403058188849
 31
0.0
  0
ARC
  5
3280
330
1F
100
AcDbEntity
  8
太線
100
AcDbCircle
 10
595.7952221565829
 20
-141.6466116048763
 30
0.0
 40
13.0
100
AcDbArc
 50
247.3801350519612
 51
292.6198649480387
  0
ARC
  5
3281
330
1F
100
AcDbEntity
  8
太線
100
AcDbCircle
 10
603.7952221565829
 20
-162.4603679898747
 30
0.0
 40
1.0
100
AcDbArc
 50
0.0
 51
90.0
  0
ARC
  5
3282
330
1F
100
AcDbEntity
  8
太線
100
AcDbCircle
 10
603.7952221565829
 20
-153.6466116048764
 30
0.0
 40
1.0
100
AcDbArc
 50
270.0
 51
0.0
  0
LINE
  5
3286
330
1F
100
AcDbEntity
  8
太線
100
AcDbLine
 10
601.7849997261768
 20
-145.020569903078
 30
0.0
 11
603.7849997261767
 21
-145.020569903078
 31
0.0
  0
LINE
  5
3287
330
1F
100
AcDbEntity
  8
太線
100
AcDbLine
 10
590.7849997261767
 20
-145.020569903078
 30
0.0
 11
601.7849997261768
 21
-145.020569903078
 31
0.0
  0
ARC
  5
3288
330
1F
100
AcDbEntity
  8
太線
100
AcDbCircle
 10
603.7849997261767
 20
-146.020569903078
 30
0.0
 40
1.0
100
AcDbArc
 50
0.0
 51
90.0
  0
LINE
  5
329A
330
1F
100
AcDbEntity
  8
太線
100
AcDbLine
 10
724.5246368337054
 20
-46.16139504737623
 30
0.0
 11
724.5246368337054
 21
-96.26625302936464
 31
0.0
  0
LINE
  5
329B
330
1F
100
AcDbEntity
  8
太線
100
AcDbLine
 10
725.5246368337055
 20
-43.46036798987472
 30
0.0
 11
725.5246368337053
 21
-96.26625302936464
 31
0.0
  0
LINE
  5
329C
330
1F
100
AcDbEntity
  8
破線
100
AcDbLine
 10
727.5246368337055
 20
-132.4291716019319
 30
0.0
 11
727.5246368337055
 21
-148.4291716019319
 31
0.0
  0
LINE
  5
329D
330
1F
100
AcDbEntity
  8
破線
100
AcDbLine
 10
719.5246368337055
 20
-148.4291716019319
 30
0.0
 11
719.5246368337055
 21
-132.4291716019319
 31
0.0
  0
LINE
  5
329E
330
1F
100
AcDbEntity
  8
太線
100
AcDbLine
 10
719.5246368337055
 20
-164.4291716019319
 30
0.0
 11
719.5246368337055
 21
-148.4291716019319
 31
0.0
  0
LINE
  5
329F
330
1F
100
AcDbEntity
  8
太線
100
AcDbLine
 10
727.5246368337055
 20
-148.4291716019319
 30
0.0
 11
727.5246368337055
 21
-164.4291716019319
 31
0.0
  0
LINE
  5
32A0
330
1F
100
AcDbEntity
  8
太線
100
AcDbLine
 10
724.5246368337054
 20
-164.4291716019319
 30
0.0
 11
719.5246368337055
 21
-164.4291716019319
 31
0.0
  0
ARC
  5
32A1
330
1F
100
AcDbEntity
  8
太線
100
AcDbCircle
 10
723.723973789285
 20
-154.7282342771636
 30
0.0
 40
9.574652439182898
100
AcDbArc
 50
242.2559248299449
 51
294.8092894638859
  0
LINE
  5
32A2
330
1F
100
AcDbEntity
  8
太線
100
AcDbLine
 10
725.5246368337054
 20
-164.4291716019319
 30
0.0
 11
725.5246368337053
 21
-166.0028724455848
 31
0.0
  0
LINE
  5
32A3
330
1F
100
AcDbEntity
  8
太線
100
AcDbLine
 10
724.5246368337054
 20
-164.4291716019319
 30
0.0
 11
724.5246368337054
 21
-166.296803890634
 31
0.0
  0
LINE
  5
32A4
330
1F
100
AcDbEntity
  8
破線
100
AcDbLine
 10
724.5246368337054
 20
-148.4291716019319
 30
0.0
 11
719.5246368337055
 21
-148.4291716019319
 31
0.0
  0
ARC
  5
32A5
330
1F
100
AcDbEntity
  8
破線
100
AcDbCircle
 10
723.723973789285
 20
-138.7282342771636
 30
0.0
 40
9.574652439182898
100
AcDbArc
 50
242.2559248299449
 51
294.8092894638859
  0
LINE
  5
32AC
330
1F
100
AcDbEntity
  8
想像線
100
AcDbLine
 10
741.5246368337054
 20
-169.2062603414414
 30
0.0
 11
741.5246368337054
 21
-179.5092189154203
 31
0.0
  0
LINE
  5
32AD
330
1F
100
AcDbEntity
  8
想像線
100
AcDbLine
 10
749.5246368337054
 20
-169.2062603414414
 30
0.0
 11
749.5246368337054
 21
-179.5092189154203
 31
0.0
  0
LINE
  5
32AE
330
1F
100
AcDbEntity
  8
太線
100
AcDbLine
 10
808.6531374689124
 20
-177.9190081577357
 30
0.0
 11
786.7625734550365
 21
-177.9190081577357
 31
0.0
  0
LINE
  5
32AF
330
1F
100
AcDbEntity
  8
太線
100
AcDbLine
 10
767.6340728198295
 20
-176.4894387993005
 30
0.0
 11
760.0584494993552
 21
-176.4894387993005
 31
0.0
  0
ARC
  5
32B0
330
1F
100
AcDbEntity
  8
想像線
100
AcDbCircle
 10
745.2160786675236
 20
-173.35085945916
 30
0.0
 40
6.350862044312581
100
AcDbArc
 50
230.9396192866367
 51
312.0723616256726
  0
LINE
  5
32B3
330
1F
100
AcDbEntity
  8
想像線
100
AcDbLine
 10
802.0926816959327
 20
-182.9190081577357
 30
0.0
 11
802.0926816959327
 21
-177.9190081577358
 31
0.0
  0
ARC
  5
32B4
330
1F
100
AcDbEntity
  8
太線
100
AcDbCircle
 10
808.6531374689124
 20
-182.9190081577357
 30
0.0
 40
5.0
100
AcDbArc
 50
0.0
 51
90.0
  0
LINE
  5
32B5
330
1F
100
AcDbEntity
  8
太線
100
AcDbLine
 10
813.6531374689125
 20
-182.9190081577356
 30
0.0
 11
813.6531374689125
 21
-182.9190081577357
 31
0.0
  0
LINE
  5
32B7
330
1F
100
AcDbEntity
  8
太線
100
AcDbLine
 10
744.5246368337055
 20
-132.4291716019319
 30
0.0
 11
744.5246368337053
 21
-112.2662530293646
 31
0.0
  0
LINE
  5
32B8
330
1F
100
AcDbEntity
  8
太線
100
AcDbLine
 10
742.920331069894
 20
-43.46036798987472
 30
0.0
 11
742.9203310698938
 21
-96.26625302936464
 31
0.0
  0
LINE
  5
32B9
330
1F
100
AcDbEntity
  8
破線
100
AcDbLine
 10
749.5246368337054
 20
-132.4291716019319
 30
0.0
 11
749.5246368337054
 21
-148.4291716019319
 31
0.0
  0
LINE
  5
32BA
330
1F
100
AcDbEntity
  8
破線
100
AcDbLine
 10
741.5246368337054
 20
-132.4291716019319
 30
0.0
 11
741.5246368337054
 21
-148.4291716019319
 31
0.0
  0
LINE
  5
32BB
330
1F
100
AcDbEntity
  8
太線
100
AcDbLine
 10
749.5246368337054
 20
-148.4291716019319
 30
0.0
 11
749.5246368337054
 21
-164.4291716019319
 31
0.0
  0
LINE
  5
32BC
330
1F
100
AcDbEntity
  8
太線
100
AcDbLine
 10
741.5246368337054
 20
-148.4291716019319
 30
0.0
 11
741.5246368337054
 21
-164.4291716019319
 31
0.0
  0
ARC
  5
32BD
330
1F
100
AcDbEntity
  8
太線
100
AcDbCircle
 10
745.2160786675236
 20
-158.2708121456716
 30
0.0
 40
6.350862044312581
100
AcDbArc
 50
230.9396192866367
 51
312.0723616256726
  0
LINE
  5
32BE
330
1F
100
AcDbEntity
  8
太線
100
AcDbLine
 10
742.9203310698937
 20
-164.4291716019319
 30
0.0
 11
742.9203310698937
 21
-165.8413838312155
 31
0.0
  0
LINE
  5
32BF
330
1F
100
AcDbEntity
  8
太線
100
AcDbLine
 10
744.5246368337055
 20
-166.296803890634
 30
0.0
 11
744.5246368337055
 21
-164.4291716019319
 31
0.0
  0
ARC
  5
32C0
330
1F
100
AcDbEntity
  8
破線
100
AcDbCircle
 10
745.2160786675236
 20
-142.2708121456716
 30
0.0
 40
6.350862044312581
100
AcDbArc
 50
230.9396192866367
 51
312.0723616256726
  0
LINE
  5
3482
330
1F
100
AcDbEntity
  8
太線
100
AcDbLine
 10
589.7952221565828
 20
-46.16139504737623
 30
0.0
 11
590.7952221565828
 21
-43.46036798987472
 31
0.0
  0
LINE
  5
3483
330
1F
100
AcDbEntity
  8
太線
100
AcDbLine
 10
590.7952221565828
 20
-43.46036798987472
 30
0.0
 11
600.7952221565829
 21
-43.46036798987472
 31
0.0
  0
LINE
  5
3484
330
1F
100
AcDbEntity
  8
太線
100
AcDbLine
 10
600.7952221565829
 20
-43.46036798987472
 30
0.0
 11
601.7952221565828
 21
-46.16139504737623
 31
0.0
  0
LINE
  5
3485
330
1F
100
AcDbEntity
  8
太線
100
AcDbLine
 10
724.5246368337054
 20
-46.16139504737623
 30
0.0
 11
725.5246368337055
 21
-43.46036798987472
 31
0.0
  0
LINE
  5
3486
330
1F
100
AcDbEntity
  8
太線
100
AcDbLine
 10
725.5246368337055
 20
-43.46036798987472
 30
0.0
 11
742.920331069894
 21
-43.46036798987472
 31
0.0
  0
LINE
  5
3487
330
1F
100
AcDbEntity
  8
太線
100
AcDbLine
 10
742.920331069894
 20
-43.46036798987472
 30
0.0
 11
744.5246368337055
 21
-46.16139504737623
 31
0.0
  0
DIMENSION
  5
3488
330
1F
100
AcDbEntity
  8
寸法線
100
AcDbDimension
  2
*D3
 10
628.1782731947489
 20
-43.46036798987473
 30
0.0
 11
624.6782731947489
 21
-113.4603679898746
 31
0.0
 70
    32
 71
     5
 42
140.0
  3
sunpo
100
AcDbAlignedDimension
 13
623.2952221565828
 23
-183.4603679898747
 33
0.0
 14
600.7952221565829
 24
-43.46036798987472
 34
0.0
 50
90.0
100
AcDbRotatedDimension
1001
ACAD
1000
DSTYLE
1002
{
1070
    40
1040
1.0
1002
}
  0
DIMENSION
  5
3495
330
1F
100
AcDbEntity
  8
寸法線
100
AcDbDimension
  2
*D4
 10
796.2361512116772
 20
-43.46036798987474
 30
0.0
 11
792.7361512116772
 21
-113.189688073805
 31
0.0
 70
    32
  1
140
 71
     5
 42
139.4586401678609
  3
sunpo
100
AcDbAlignedDimension
 13
794.5246368337055
 23
-182.9190081577356
 33
0.0
 14
742.920331069894
 24
-43.46036798987472
 34
0.0
 50
90.0
100
AcDbRotatedDimension
1001
ACAD
1000
DSTYLE
1002
{
1070
    40
1040
1.0
1002
}
  0
LINE
  5
34CE
330
1F
100
AcDbEntity
  8
想像線
100
AcDbLine
 10
568.5127476447844
 20
65.86013516560218
 30
0.0
 11
568.5127476447844
 21
30.86013516560217
 31
0.0
  0
LINE
  5
34CF
330
1F
100
AcDbEntity
  8
太線
100
AcDbLine
 10
563.5966678616848
 20
65.86013516560218
 30
0.0
 11
563.9323487292863
 21
5.860135165602173
 31
0.0
  0
LINE
  5
34D0
330
1F
100
AcDbEntity
  8
太線
100
AcDbLine
 10
623.5127476447844
 20
65.86013516560218
 30
0.0
 11
623.5127476447844
 21
30.86013516560217
 31
0.0
  0
LINE
  5
34D2
330
1F
100
AcDbEntity
  8
想像線
100
AcDbLine
 10
618.5127476447844
 20
30.86013516560217
 30
0.0
 11
618.5127476447844
 21
65.86013516560218
 31
0.0
  0
LINE
  5
34D3
330
1F
100
AcDbEntity
  8
太線
100
AcDbLine
 10
580.1765870429825
 20
-19.13986483439785
 30
0.0
 11
606.8489082465863
 21
-19.13986483439785
 31
0.0
  0
LINE
  5
34D4
330
1F
100
AcDbEntity
  8
太線
100
AcDbLine
 10
574.5127476447844
 20
-29.13986483439785
 30
0.0
 11
612.5127476447844
 21
-29.13986483439785
 31
0.0
  0
LINE
  5
34D5
330
1F
100
AcDbEntity
  8
想像線
100
AcDbLine
 10
593.5127476447844
 20
24.89871207017483
 30
0.0
 11
624.0911838891281
 21
24.89871207017483
 31
0.0
  0
LINE
  5
34D6
330
1F
100
AcDbEntity
  8
想像線
100
AcDbLine
 10
593.5127476447844
 20
-23.17844173897049
 30
0.0
 11
623.5127476447844
 21
-23.17844173897049
 31
0.0
  0
CIRCLE
  5
34D7
330
1F
100
AcDbEntity
  8
細線
100
AcDbCircle
 10
593.5127476447844
 20
0.8601351656021734
 30
0.0
 40
24.03857690457265
  0
LINE
  5
34D8
330
1F
100
AcDbEntity
  8
想像線
100
AcDbLine
 10
568.5127476447844
 20
30.86013516560217
 30
0.0
 11
618.5127476447844
 21
30.86013516560217
 31
0.0
  0
CIRCLE
  5
34D9
330
1F
100
AcDbEntity
  8
太線
100
AcDbCircle
 10
593.5127476447844
 20
0.8601351656021734
 30
0.0
 40
25.0
  0
CIRCLE
  5
34DA
330
1F
100
AcDbEntity
  8
太線
100
AcDbCircle
 10
593.5127476447844
 20
0.8601351656021734
 30
0.0
 40
30.0
  0
LINE
  5
34DB
330
1F
100
AcDbEntity
  8
太線
100
AcDbLine
 10
658.5127476447844
 20
-29.13986483439782
 30
0.0
 11
593.5127476447844
 21
-29.13986483439782
 31
0.0
  0
LINE
  5
34DC
330
1F
100
AcDbEntity
  8
想像線
100
AcDbLine
 10
599.5127476447844
 20
-19.13986483439785
 30
0.0
 11
599.5127476447844
 21
-28.53374174779597
 31
0.0
  0
LINE
  5
34DD
330
1F
100
AcDbEntity
  8
想像線
100
AcDbLine
 10
603.5127476447844
 20
-19.13986483439785
 30
0.0
 11
603.5127476447844
 21
-29.13986483439785
 31
0.0
  0
LINE
  5
34DE
330
1F
100
AcDbEntity
  8
想像線
100
AcDbLine
 10
593.5127476447844
 20
-19.13986483439785
 30
0.0
 11
593.5127476447844
 21
-29.13986483439782
 31
0.0
  0
LINE
  5
34DF
330
1F
100
AcDbEntity
  8
想像線
100
AcDbLine
 10
587.5127476447844
 20
-19.13986483439785
 30
0.0
 11
587.5127476447844
 21
-28.53374174779597
 31
0.0
  0
LINE
  5
34E0
330
1F
100
AcDbEntity
  8
想像線
100
AcDbLine
 10
583.5127476447844
 20
-19.13986483439785
 30
0.0
 11
583.5127476447844
 21
-29.13986483439785
 31
0.0
  0
LINE
  5
34E1
330
1F
100
AcDbEntity
  8
太線
100
AcDbLine
 10
573.5127476447844
 20
-21.50054460939574
 30
0.0
 11
573.5127476447844
 21
-28.13986483439785
 31
0.0
  0
ARC
  5
34E2
330
1F
100
AcDbEntity
  8
太線
100
AcDbCircle
 10
574.2447044698345
 20
-30.12182165944798
 30
0.0
 40
1.0
100
AcDbArc
 50
82.29795315063654
 51
98.89579528650337
  0
ARC
  5
34E3
330
1F
100
AcDbEntity
  8
太線
100
AcDbCircle
 10
574.5127476447844
 20
-28.13986483439785
 30
0.0
 40
1.0
100
AcDbArc
 50
262.2979531506369
 51
270.0
  0
ARC
  5
34E4
330
1F
100
AcDbEntity
  8
太線
100
AcDbCircle
 10
574.0127476447844
 20
-28.63986483439785
 30
0.0
 40
0.5
100
AcDbArc
 50
180.0
 51
278.8957952865034
  0
LINE
  5
34E5
330
1F
100
AcDbEntity
  8
想像線
100
AcDbLine
 10
569.4741707402117
 20
30.86013516560217
 30
0.0
 11
569.4741707402117
 21
0.8601351656021734
 31
0.0
  0
LINE
  5
34E6
330
1F
100
AcDbEntity
  8
太線
100
AcDbLine
 10
658.5127476447844
 20
30.86013516560217
 30
0.0
 11
658.5127476447844
 21
-29.13986483439782
 31
0.0
  0
LINE
  5
34E7
330
1F
100
AcDbEntity
  8
想像線
100
AcDbLine
 10
624.1025243887848
 20
25.86013516560217
 30
0.0
 11
623.5127476447844
 21
-24.13986483439782
 31
0.0
  0
LINE
  5
34E8
330
1F
100
AcDbEntity
  8
想像線
100
AcDbLine
 10
623.5127476447844
 20
-24.13986483439782
 30
0.0
 11
658.5127476447844
 21
-24.13986483439782
 31
0.0
  0
LINE
  5
34E9
330
1F
100
AcDbEntity
  8
太線
100
AcDbLine
 10
613.5127476447844
 20
-28.13986483439785
 30
0.0
 11
613.5127476447844
 21
-21.50054460939574
 31
0.0
  0
ARC
  5
34EA
330
1F
100
AcDbEntity
  8
太線
100
AcDbCircle
 10
612.5127476447844
 20
-28.13986483439785
 30
0.0
 40
1.0
100
AcDbArc
 50
270.0
 51
0.0
  0
LINE
  5
34EB
330
1F
100
AcDbEntity
  8
太線
100
AcDbLine
 10
613.5127476447844
 20
-21.50054460939574
 30
0.0
 11
613.5127476447844
 21
-23.17844173897049
 31
0.0
  0
LINE
  5
34EE
330
1F
100
AcDbEntity
  8
太線
100
AcDbLine
 10
623.5127476447844
 20
30.86013516560217
 30
0.0
 11
658.5127476447844
 21
30.86013516560217
 31
0.0
  0
LINE
  5
34EF
330
1F
100
AcDbEntity
  8
想像線
100
AcDbLine
 10
658.5127476447844
 20
25.86013516560217
 30
0.0
 11
624.1025243887848
 21
25.86013516560217
 31
0.0
  0
LINE
  5
34F0
330
1F
100
AcDbEntity
  8
想像線
100
AcDbLine
 10
617.551324549357
 20
30.86013516560217
 30
0.0
 11
617.551324549357
 21
0.8601351656021734
 31
0.0
  0
LINE
  5
34F4
330
1F
100
AcDbEntity
  8
太線
100
AcDbLine
 10
563.5966678616848
 20
65.86013516560218
 30
0.0
 11
623.5127476447844
 21
65.86013516560218
 31
0.0
  0
LINE
  5
34F9
330
1F
100
AcDbEntity
  8
想像線
100
AcDbLine
 10
759.3596591167722
 20
30.86013516560217
 30
0.0
 11
759.3596591167722
 21
65.86013516560218
 31
0.0
  0
LINE
  5
34FB
330
1F
100
AcDbEntity
  8
太線
100
AcDbLine
 10
764.3596591167722
 20
65.86013516560218
 30
0.0
 11
764.3596591167722
 21
30.86013516560217
 31
0.0
  0
LINE
  5
34FC
330
1F
100
AcDbEntity
  8
太線
100
AcDbLine
 10
704.4435793336726
 20
65.86013516560218
 30
0.0
 11
704.7792602012741
 21
5.860135165602173
 31
0.0
  0
LINE
  5
34FD
330
1F
100
AcDbEntity
  8
想像線
100
AcDbLine
 10
709.3596591167722
 20
65.86013516560218
 30
0.0
 11
709.3596591167722
 21
30.86013516560217
 31
0.0
  0
LINE
  5
3500
330
1F
100
AcDbEntity
  8
太線
100
AcDbLine
 10
799.3596591167722
 20
-29.13986483439782
 30
0.0
 11
734.3596591167722
 21
-29.13986483439782
 31
0.0
  0
CIRCLE
  5
3501
330
1F
100
AcDbEntity
  8
太線
100
AcDbCircle
 10
734.3596591167722
 20
0.8601351656021734
 30
0.0
 40
30.0
  0
CIRCLE
  5
3502
330
1F
100
AcDbEntity
  8
太線
100
AcDbCircle
 10
734.3596591167722
 20
0.8601351656021734
 30
0.0
 40
25.0
  0
LINE
  5
3503
330
1F
100
AcDbEntity
  8
想像線
100
AcDbLine
 10
709.3596591167722
 20
30.86013516560217
 30
0.0
 11
759.3596591167722
 21
30.86013516560217
 31
0.0
  0
CIRCLE
  5
3504
330
1F
100
AcDbEntity
  8
細線
100
AcDbCircle
 10
734.3596591167722
 20
0.8601351656021734
 30
0.0
 40
24.03857690457265
  0
LINE
  5
3505
330
1F
100
AcDbEntity
  8
想像線
100
AcDbLine
 10
734.3596591167722
 20
-23.17844173897049
 30
0.0
 11
764.3596591167722
 21
-23.17844173897049
 31
0.0
  0
LINE
  5
3506
330
1F
100
AcDbEntity
  8
想像線
100
AcDbLine
 10
734.3596591167722
 20
24.89871207017483
 30
0.0
 11
764.9380953611159
 21
24.89871207017483
 31
0.0
  0
LINE
  5
3507
330
1F
100
AcDbEntity
  8
太線
100
AcDbLine
 10
715.3596591167723
 20
-29.13986483439785
 30
0.0
 11
753.3596591167722
 21
-29.13986483439785
 31
0.0
  0
LINE
  5
3508
330
1F
100
AcDbEntity
  8
太線
100
AcDbLine
 10
721.0234985149703
 20
-19.13986483439785
 30
0.0
 11
747.6958197185742
 21
-19.13986483439785
 31
0.0
  0
LINE
  5
3509
330
1F
100
AcDbEntity
  8
想像線
100
AcDbLine
 10
724.3596591167722
 20
-19.13986483439785
 30
0.0
 11
724.3596591167722
 21
-29.13986483439785
 31
0.0
  0
LINE
  5
350A
330
1F
100
AcDbEntity
  8
想像線
100
AcDbLine
 10
728.3596591167722
 20
-19.13986483439785
 30
0.0
 11
728.3596591167722
 21
-28.53374174779597
 31
0.0
  0
LINE
  5
350B
330
1F
100
AcDbEntity
  8
想像線
100
AcDbLine
 10
734.3596591167722
 20
-19.13986483439785
 30
0.0
 11
734.3596591167722
 21
-29.13986483439782
 31
0.0
  0
LINE
  5
350C
330
1F
100
AcDbEntity
  8
太線
100
AcDbLine
 10
714.3596591167722
 20
-21.50054460939574
 30
0.0
 11
714.3596591167722
 21
-28.13986483439785
 31
0.0
  0
ARC
  5
350D
330
1F
100
AcDbEntity
  8
太線
100
AcDbCircle
 10
714.8596591167723
 20
-28.63986483439785
 30
0.0
 40
0.5
100
AcDbArc
 50
180.0
 51
278.8957952865034
  0
ARC
  5
350E
330
1F
100
AcDbEntity
  8
太線
100
AcDbCircle
 10
715.3596591167723
 20
-28.13986483439785
 30
0.0
 40
1.0
100
AcDbArc
 50
262.2979531506369
 51
270.0
  0
ARC
  5
350F
330
1F
100
AcDbEntity
  8
太線
100
AcDbCircle
 10
715.0916159418224
 20
-30.12182165944798
 30
0.0
 40
1.0
100
AcDbArc
 50
82.29795315063654
 51
98.89579528650337
  0
LINE
  5
3510
330
1F
100
AcDbEntity
  8
想像線
100
AcDbLine
 10
710.3210822121996
 20
30.86013516560217
 30
0.0
 11
710.3210822121996
 21
0.8601351656021734
 31
0.0
  0
LINE
  5
3511
330
1F
100
AcDbEntity
  8
想像線
100
AcDbLine
 10
764.9494358607726
 20
25.86013516560217
 30
0.0
 11
764.3596591167722
 21
-24.13986483439782
 31
0.0
  0
LINE
  5
3512
330
1F
100
AcDbEntity
  8
太線
100
AcDbLine
 10
799.3596591167722
 20
30.86013516560217
 30
0.0
 11
799.3596591167722
 21
-29.13986483439782
 31
0.0
  0
LINE
  5
3513
330
1F
100
AcDbEntity
  8
想像線
100
AcDbLine
 10
744.3596591167723
 20
-19.13986483439785
 30
0.0
 11
744.3596591167723
 21
-29.13986483439785
 31
0.0
  0
LINE
  5
3514
330
1F
100
AcDbEntity
  8
想像線
100
AcDbLine
 10
740.3596591167723
 20
-19.13986483439785
 30
0.0
 11
740.3596591167723
 21
-28.53374174779597
 31
0.0
  0
LINE
  5
3515
330
1F
100
AcDbEntity
  8
想像線
100
AcDbLine
 10
764.3596591167722
 20
-24.13986483439782
 30
0.0
 11
799.3596591167722
 21
-24.13986483439782
 31
0.0
  0
ARC
  5
3516
330
1F
100
AcDbEntity
  8
太線
100
AcDbCircle
 10
753.3596591167722
 20
-28.13986483439785
 30
0.0
 40
1.0
100
AcDbArc
 50
270.0
 51
0.0
  0
LINE
  5
3517
330
1F
100
AcDbEntity
  8
太線
100
AcDbLine
 10
754.3596591167722
 20
-28.13986483439785
 30
0.0
 11
754.3596591167722
 21
-21.50054460939574
 31
0.0
  0
LINE
  5
3518
330
1F
100
AcDbEntity
  8
太線
100
AcDbLine
 10
754.3596591167722
 20
-21.50054460939574
 30
0.0
 11
754.3596591167722
 21
-23.17844173897049
 31
0.0
  0
LINE
  5
3519
330
1F
100
AcDbEntity
  8
想像線
100
AcDbLine
 10
799.3596591167722
 20
25.86013516560217
 30
0.0
 11
764.9494358607726
 21
25.86013516560217
 31
0.0
  0
LINE
  5
351A
330
1F
100
AcDbEntity
  8
太線
100
AcDbLine
 10
764.3596591167722
 20
30.86013516560217
 30
0.0
 11
799.3596591167722
 21
30.86013516560217
 31
0.0
  0
LINE
  5
351D
330
1F
100
AcDbEntity
  8
想像線
100
AcDbLine
 10
758.3982360213449
 20
30.86013516560217
 30
0.0
 11
758.3982360213449
 21
0.8601351656021734
 31
0.0
  0
LINE
  5
3521
330
1F
100
AcDbEntity
  8
太線
100
AcDbLine
 10
704.4435793336726
 20
65.86013516560218
 30
0.0
 11
764.3596591167722
 21
65.86013516560218
 31
0.0
  0
TEXT
  5
3561
330
1F
100
AcDbEntity
  8
文字
100
AcDbText
 10
346.4634927825927
 20
8.559856816244064
 30
0.0
 40
5.759999999999999
  1
M-20                             
 51
15.0
  7
OKANO
100
AcDbText
  0
TEXT
  5
3562
330
1F
100
AcDbEntity
  8
文字
100
AcDbText
 10
566.3748446870663
 20
-88.89765109754421
 30
0.0
 40
5.759999999999999
  1
M-12                          
 51
15.0
  7
OKANO
100
AcDbText
  0
TEXT
  5
3563
330
1F
100
AcDbEntity
  8
文字
100
AcDbText
 10
121.630804944169
 20
-56.55168786107674
 30
0.0
 40
5.759999999999999
  1
M-12                          
 51
15.0
  7
OKANO
100
AcDbText
  0
TEXT
  5
3564
330
1F
100
AcDbEntity
  8
文字
100
AcDbText
 10
7.387211490230129
 20
-63.02973962612373
 30
0.0
 40
5.759999999999999
  1
M-12                          
 51
15.0
  7
OKANO
100
AcDbText
  0
TEXT
  5
3573
330
1F
100
AcDbEntity
  8
文字
100
AcDbText
 10
148.4644374114509
 20
-209.5175906634121
 30
0.0
 40
5.759999999999999
  1
50Ｋストッパー付タイプ                                                                                                                                                                              
 51
15.0
  7
OKANO
100
AcDbText
  0
LWPOLYLINE
  5
358D
330
1F
100
AcDbEntity
  8
太線
100
AcDbPolyline
 90
        4
 70
     1
 43
0.0
 10
12.62841229882387
 20
-224.5299852018734
 10
209.1884122988239
 20
-224.5299852018734
 10
209.1884122988239
 20
-270.3939852018735
 10
12.62841229882387
 20
-270.3939852018735
  0
LINE
  5
358E
330
1F
100
AcDbEntity
  8
太線
100
AcDbLine
 10
12.62841229882389
 20
-239.8179852018734
 30
0.0
 11
209.1884122988239
 21
-239.8179852018734
 31
0.0
  0
TEXT
  5
358F
330
1F
100
AcDbEntity
  8
文字
100
AcDbText
 10
62.53686758936112
 20
-238.1421152780902
 30
0.0
 40
8.736
  1
F-999-20121121　Auto CAD
 51
15.0
  7
OKANO
100
AcDbText
  0
TEXT
  5
3590
330
1F
100
AcDbEntity
  8
文字
100
AcDbText
 10
76.16559727083139
 20
-264.9914314213539
 30
0.0
 40
8.736
  1
joint kogyo T.okano
 51
15.0
  7
OKANO
100
AcDbText
  0
TEXT
  5
3592
330
1F
100
AcDbEntity
  8
文字
100
AcDbText
 10
71.82191897427492
 20
-251.3709429691184
 30
0.0
 40
5.0
  1
シンプルタイプ　キャスター・水平調整
 51
15.0
  7
OKANO
100
AcDbText
  0
TEXT
  5
3593
330
1F
100
AcDbEntity
  8
文字
100
AcDbText
 10
18.74244184172479
 20
-248.2002881710802
 30
0.0
 40
4.368
  1
DRAWN
 51
15.0
  7
OKANO
100
AcDbText
  0
LINE
  5
3594
330
1F
100
AcDbEntity
  8
太線
100
AcDbLine
 10
56.30841229882392
 20
-224.5299852018734
 30
0.0
 11
56.30841229882392
 21
-270.3939852018734
 31
0.0
  0
TEXT
  5
3595
330
1F
100
AcDbEntity
  8
文字
100
AcDbText
 10
20.14300665692783
 20
-261.2600662546264
 30
0.0
 40
4.368
  1
APPR
 51
15.0
  7
OKANO
100
AcDbText
  0
TEXT
  5
3596
330
1F
100
AcDbEntity
  8
文字
100
AcDbText
 10
19.67615038904855
 20
-267.3235349190944
 30
0.0
 40
4.368
  1
ISSUED
 51
15.0
  7
OKANO
100
AcDbText
  0
TEXT
  5
3597
330
1F
100
AcDbEntity
  8
文字
100
AcDbText
 10
19.67615038904855
 20
-254.7301766757817
 30
0.0
 40
4.368
  1
CHECK
 51
15.0
  7
OKANO
100
AcDbText
  0
TEXT
  5
3598
330
1F
100
AcDbEntity
  8
文字
100
AcDbText
 10
16.40816648498051
 20
-236.5397717565208
 30
0.0
 40
4.368
  1
FILM NAME
 51
15.0
  7
OKANO
100
AcDbText
  0
TEXT
  5
35B1
330
1F
100
AcDbEntity
  8
文字
100
AcDbText
 10
46.03551274128403
 20
299.3812859439235
 30
0.0
 40
10.0
  1
S-14-3Ｙ65・S-S-14-3Ｙ100・S-14-3Y150/S-15-3Ｙ500・S-15-3Y500A(ｱﾝｶｰ）・S-15-3Ｙ2000Ｂ
 51
15.0
  7
OKANO
100
AcDbText
  0
LINE
  5
37D7
330
1F
100
AcDbEntity
  8
想像線
100
AcDbLine
 10
491.5834665691927
 20
30.86013516560217
 30
0.0
 11
491.5834665691927
 21
65.86013516560218
 31
0.0
  0
LINE
  5
37D9
330
1F
100
AcDbEntity
  8
太線
100
AcDbLine
 10
496.5834665691927
 20
65.86013516560218
 30
0.0
 11
496.5834665691927
 21
30.86013516560217
 31
0.0
  0
LINE
  5
37DA
330
1F
100
AcDbEntity
  8
太線
100
AcDbLine
 10
436.6673867860931
 20
65.86013516560218
 30
0.0
 11
437.0030676536946
 21
5.860135165602173
 31
0.0
  0
LINE
  5
37DB
330
1F
100
AcDbEntity
  8
想像線
100
AcDbLine
 10
441.5834665691927
 20
65.86013516560218
 30
0.0
 11
441.5834665691927
 21
30.86013516560217
 31
0.0
  0
DIMENSION
  5
37DE
330
1F
100
AcDbEntity
  8
寸法線
100
AcDbDimension
  2
*D5
 10
501.2489921191572
 20
-43.46036798987473
 30
0.0
 11
497.7489921191573
 21
-113.4603679898746
 31
0.0
 70
    32
 71
     5
 42
140.0
  3
sunpo
100
AcDbAlignedDimension
 13
496.3659410809912
 23
-183.4603679898747
 33
0.0
 14
473.8659410809912
 24
-43.46036798987472
 34
0.0
 50
90.0
100
AcDbRotatedDimension
1001
ACAD
1000
DSTYLE
1002
{
1070
    40
1040
1.0
1002
}
  0
LINE
  5
37DF
330
1F
100
AcDbEntity
  8
細線
100
AcDbLine
 10
473.8659410809912
 20
-43.46036798987472
 30
0.0
 11
473.8659410809912
 21
-132.3219769622039
 31
0.0
  0
LINE
  5
37E0
330
1F
100
AcDbEntity
  8
太線
100
AcDbLine
 10
474.8659410809912
 20
-46.16139504737623
 30
0.0
 11
474.8659410809912
 21
-132.3219769622039
 31
0.0
  0
LINE
  5
37E1
330
1F
100
AcDbEntity
  8
細線
100
AcDbLine
 10
463.8659410809911
 20
-43.46036798987472
 30
0.0
 11
463.8659410809911
 21
-132.3219769622039
 31
0.0
  0
LINE
  5
37E2
330
1F
100
AcDbEntity
  8
太線
100
AcDbLine
 10
462.8659410809912
 20
-161.4603679898747
 30
0.0
 11
462.8659410809912
 21
-141.9480186640023
 31
0.0
  0
LINE
  5
37E3
330
1F
100
AcDbEntity
  8
太線
100
AcDbLine
 10
449.5791050650021
 20
-181.4603679898747
 30
0.0
 11
442.3659410809912
 21
-181.4603679898747
 31
0.0
  0
LINE
  5
37E4
330
1F
100
AcDbEntity
  8
太線
100
AcDbLine
 10
441.3659410809912
 20
-183.4603679898747
 30
0.0
 11
496.3659410809912
 21
-183.4603679898747
 31
0.0
  0
LINE
  5
37E5
330
1F
100
AcDbEntity
  8
太線
100
AcDbLine
 10
441.3659410809912
 20
-182.4603679898747
 30
0.0
 11
441.3659410809912
 21
-183.4603679898747
 31
0.0
  0
ARC
  5
37E6
330
1F
100
AcDbEntity
  8
太線
100
AcDbCircle
 10
442.3659410809912
 20
-182.4603679898747
 30
0.0
 40
1.0
100
AcDbArc
 50
90.0
 51
180.0
  0
LINE
  5
37E7
330
1F
100
AcDbEntity
  8
太線
100
AcDbLine
 10
473.8659410809912
 20
-162.7738653660019
 30
0.0
 11
473.8659410809912
 21
-169.4603679898747
 31
0.0
  0
LINE
  5
37E8
330
1F
100
AcDbEntity
  8
太線
100
AcDbLine
 10
463.8659410809911
 20
-162.9708306393713
 30
0.0
 11
463.8659410809911
 21
-169.4603679898747
 31
0.0
  0
LINE
  5
37E9
330
1F
100
AcDbEntity
  8
太線
100
AcDbLine
 10
477.8659410809912
 20
-162.4603679898747
 30
0.0
 11
477.8659410809912
 21
-169.4603679898747
 31
0.0
  0
LINE
  5
37EA
330
1F
100
AcDbEntity
  8
太線
100
AcDbLine
 10
459.8659410809911
 20
-162.4603679898747
 30
0.0
 11
459.8659410809911
 21
-169.4603679898747
 31
0.0
  0
ARC
  5
37EB
330
1F
100
AcDbEntity
  8
破線
100
AcDbCircle
 10
468.8659410809911
 20
-167.5394829303628
 30
0.0
 40
13.00000000000004
100
AcDbArc
 50
247.3801350519612
 51
292.6198649480387
  0
LINE
  5
37EC
330
1F
100
AcDbEntity
  8
破線
100
AcDbLine
 10
476.8659410809911
 20
-180.5394829303628
 30
0.0
 11
460.8659410809912
 21
-180.5394829303628
 31
0.0
  0
LINE
  5
37ED
330
1F
100
AcDbEntity
  8
太線
100
AcDbLine
 10
478.0791050650021
 20
-169.4603679898746
 30
0.0
 11
459.6527770969802
 21
-169.4603679898747
 31
0.0
  0
LINE
  5
37EE
330
1F
100
AcDbEntity
  8
破線
100
AcDbLine
 10
474.8659410809912
 20
-172.5394829303628
 30
0.0
 11
462.8659410809912
 21
-172.5394829303628
 31
0.0
  0
TEXT
  5
37EF
330
1F
100
AcDbEntity
  8
文字
100
AcDbText
 10
455.1520904959629
 20
-205.0595488556073
 30
0.0
 40
5.759999999999999
  1
S-15-3Y500                                                                                                                                                                                 
 51
15.0
  7
OKANO
100
AcDbText
  0
ARC
  5
37F0
330
1F
100
AcDbEntity
  8
太線
100
AcDbCircle
 10
459.6527770969802
 20
-172.4603679898747
 30
0.0
 40
3.0
100
AcDbArc
 50
90.0
 51
151.5570713756351
  0
LINE
  5
37F1
330
1F
100
AcDbEntity
  8
太線
100
AcDbLine
 10
457.0149011973699
 20
-171.0315185442524
 30
0.0
 11
452.2169809646124
 21
-179.889217435497
 31
0.0
  0
ARC
  5
37F2
330
1F
100
AcDbEntity
  8
太線
100
AcDbCircle
 10
449.5791050650021
 20
-178.4603679898747
 30
0.0
 40
3.0
100
AcDbArc
 50
270.0
 51
331.5570713756351
  0
LINE
  5
37F3
330
1F
100
AcDbEntity
  8
破線
100
AcDbLine
 10
463.8659410809911
 20
-172.5394829303628
 30
0.0
 11
463.8659410809911
 21
-179.5394829303628
 31
0.0
  0
LINE
  5
37F4
330
1F
100
AcDbEntity
  8
破線
100
AcDbLine
 10
459.8659410809911
 20
-179.5394829303628
 30
0.0
 11
459.8659410809911
 21
-173.5394829303628
 31
0.0
  0
ARC
  5
37F5
330
1F
100
AcDbEntity
  8
破線
100
AcDbCircle
 10
460.8659410809912
 20
-179.5394829303628
 30
0.0
 40
1.0
100
AcDbArc
 50
180.0
 51
270.0
  0
LINE
  5
37F6
330
1F
100
AcDbEntity
  8
破線
100
AcDbLine
 10
463.8659410809911
 20
-179.5394829303628
 30
0.0
 11
460.8659410809912
 21
-180.5394829303628
 31
0.0
  0
LINE
  5
37F7
330
1F
100
AcDbEntity
  8
破線
100
AcDbLine
 10
463.8659410809911
 20
-169.4603679898747
 30
0.0
 11
463.8659410809911
 21
-172.5394829303628
 31
0.0
  0
LINE
  5
37F8
330
1F
100
AcDbEntity
  8
破線
100
AcDbLine
 10
462.8659410809912
 20
-169.4603679898746
 30
0.0
 11
462.8659410809912
 21
-172.5394829303628
 31
0.0
  0
ARC
  5
37F9
330
1F
100
AcDbEntity
  8
破線
100
AcDbCircle
 10
460.8659410809912
 20
-173.5394829303628
 30
0.0
 40
1.0
100
AcDbArc
 50
90.0
 51
180.0
  0
LINE
  5
37FA
330
1F
100
AcDbEntity
  8
破線
100
AcDbLine
 10
460.8659410809912
 20
-172.5394829303628
 30
0.0
 11
462.8659410809912
 21
-172.5394829303628
 31
0.0
  0
LINE
  5
37FB
330
1F
100
AcDbEntity
  8
太線
100
AcDbLine
 10
485.5149011973699
 20
-179.8892174354969
 30
0.0
 11
480.7169809646125
 21
-171.0315185442524
 31
0.0
  0
LINE
  5
37FC
330
1F
100
AcDbEntity
  8
破線
100
AcDbLine
 10
477.8659410809912
 20
-173.5394829303628
 30
0.0
 11
477.8659410809912
 21
-179.5394829303628
 31
0.0
  0
LINE
  5
37FD
330
1F
100
AcDbEntity
  8
破線
100
AcDbLine
 10
473.8659410809912
 20
-172.5394829303628
 30
0.0
 11
473.8659410809912
 21
-179.5394829303628
 31
0.0
  0
ARC
  5
37FE
330
1F
100
AcDbEntity
  8
破線
100
AcDbCircle
 10
476.8659410809911
 20
-179.5394829303628
 30
0.0
 40
1.0
100
AcDbArc
 50
270.0
 51
0.0
  0
LINE
  5
37FF
330
1F
100
AcDbEntity
  8
破線
100
AcDbLine
 10
473.8659410809912
 20
-179.5394829303628
 30
0.0
 11
476.8659410809911
 21
-180.5394829303628
 31
0.0
  0
ARC
  5
3800
330
1F
100
AcDbEntity
  8
破線
100
AcDbCircle
 10
476.8659410809911
 20
-173.5394829303628
 30
0.0
 40
1.0
100
AcDbArc
 50
0.0
 51
90.0
  0
LINE
  5
3801
330
1F
100
AcDbEntity
  8
破線
100
AcDbLine
 10
474.8659410809912
 20
-169.4603679898746
 30
0.0
 11
474.8659410809912
 21
-172.5394829303628
 31
0.0
  0
LINE
  5
3802
330
1F
100
AcDbEntity
  8
破線
100
AcDbLine
 10
473.8659410809912
 20
-169.4603679898747
 30
0.0
 11
473.8659410809912
 21
-172.5394829303628
 31
0.0
  0
LINE
  5
3803
330
1F
100
AcDbEntity
  8
破線
100
AcDbLine
 10
474.8659410809912
 20
-172.5394829303628
 30
0.0
 11
476.8659410809911
 21
-172.5394829303628
 31
0.0
  0
ARC
  5
3804
330
1F
100
AcDbEntity
  8
太線
100
AcDbCircle
 10
478.0791050650021
 20
-172.4603679898747
 30
0.0
 40
3.0
100
AcDbArc
 50
28.4429286243649
 51
90.0
  0
LINE
  5
3805
330
1F
100
AcDbEntity
  8
太線
100
AcDbLine
 10
495.3659410809912
 20
-181.4603679898747
 30
0.0
 11
488.1527770969802
 21
-181.4603679898747
 31
0.0
  0
ARC
  5
3806
330
1F
100
AcDbEntity
  8
太線
100
AcDbCircle
 10
488.1527770969802
 20
-178.4603679898747
 30
0.0
 40
3.0
100
AcDbArc
 50
208.4429286243649
 51
270.0
  0
ARC
  5
3807
330
1F
100
AcDbEntity
  8
太線
100
AcDbCircle
 10
495.3659410809912
 20
-182.4603679898747
 30
0.0
 40
1.0
100
AcDbArc
 50
0.0
 51
90.0
  0
LINE
  5
3808
330
1F
100
AcDbEntity
  8
太線
100
AcDbLine
 10
496.3659410809912
 20
-183.4603679898747
 30
0.0
 11
496.3659410809912
 21
-182.4603679898747
 31
0.0
  0
LINE
  5
3809
330
1F
100
AcDbEntity
  8
破線
100
AcDbLine
 10
463.8557186505851
 20
-151.3667175018963
 30
0.0
 11
474.8557186505851
 21
-151.3667175018963
 31
0.0
  0
ARC
  5
380A
330
1F
100
AcDbEntity
  8
破線
100
AcDbCircle
 10
468.8659410809911
 20
-147.9927592036947
 30
0.0
 40
13.0
100
AcDbArc
 50
247.3801350519612
 51
292.6198649480387
  0
LINE
  5
380B
330
1F
100
AcDbEntity
  8
太線
100
AcDbLine
 10
471.2891039719277
 20
-161.4557481791326
 30
0.0
 11
473.7528847747451
 21
-162.8403058188849
 31
0.0
  0
LINE
  5
380C
330
1F
100
AcDbEntity
  8
破線
100
AcDbLine
 10
476.8659410809911
 20
-160.9927592036947
 30
0.0
 11
460.8659410809912
 21
-160.9927592036947
 31
0.0
  0
LINE
  5
380D
330
1F
100
AcDbEntity
  8
太線
100
AcDbLine
 10
476.8659410809911
 20
-161.4603679898747
 30
0.0
 11
460.8659410809912
 21
-161.4603679898747
 31
0.0
  0
LINE
  5
380E
330
1F
100
AcDbEntity
  8
破線
100
AcDbLine
 10
459.8659410809911
 20
-151.9927592036947
 30
0.0
 11
477.8659410809912
 21
-151.9927592036947
 31
0.0
  0
LINE
  5
380F
330
1F
100
AcDbEntity
  8
破線
100
AcDbLine
 10
463.8659410809911
 20
-151.9927592036947
 30
0.0
 11
463.8659410809911
 21
-159.9927592036947
 31
0.0
  0
LINE
  5
3810
330
1F
100
AcDbEntity
  8
破線
100
AcDbLine
 10
459.8659410809911
 20
-159.9927592036947
 30
0.0
 11
459.8659410809911
 21
-151.9927592036947
 31
0.0
  0
LINE
  5
3811
330
1F
100
AcDbEntity
  8
太線
100
AcDbLine
 10
463.8977644218718
 20
-162.9941455566353
 30
0.0
 11
467.9014064399523
 21
-161.609587916883
 31
0.0
  0
ARC
  5
3812
330
1F
100
AcDbEntity
  8
太線
100
AcDbCircle
 10
460.8659410809912
 20
-162.4603679898747
 30
0.0
 40
1.0
100
AcDbArc
 50
90.0
 51
180.0
  0
LINE
  5
3813
330
1F
100
AcDbEntity
  8
太線
100
AcDbLine
 10
461.5879711697791
 20
-161.3019084413825
 30
0.0
 11
463.8977644218718
 21
-162.9941455566353
 31
0.0
  0
ARC
  5
3814
330
1F
100
AcDbEntity
  8
破線
100
AcDbCircle
 10
460.8659410809912
 20
-159.9927592036947
 30
0.0
 40
1.0
100
AcDbArc
 50
180.0
 51
270.0
  0
LINE
  5
3815
330
1F
100
AcDbEntity
  8
破線
100
AcDbLine
 10
463.8659410809911
 20
-159.9927592036947
 30
0.0
 11
460.8659410809912
 21
-160.9927592036947
 31
0.0
  0
ARC
  5
3816
330
1F
100
AcDbEntity
  8
破線
100
AcDbCircle
 10
460.855718650585
 20
-152.3667175018963
 30
0.0
 40
1.0
100
AcDbArc
 50
90.0
 51
180.0
  0
LINE
  5
3817
330
1F
100
AcDbEntity
  8
破線
100
AcDbLine
 10
463.8557186505851
 20
-151.3667175018963
 30
0.0
 11
460.855718650585
 21
-151.3667175018963
 31
0.0
  0
LINE
  5
3818
330
1F
100
AcDbEntity
  8
破線
100
AcDbLine
 10
477.8659410809912
 20
-151.9927592036947
 30
0.0
 11
477.8659410809912
 21
-159.9927592036947
 31
0.0
  0
LINE
  5
3819
330
1F
100
AcDbEntity
  8
破線
100
AcDbLine
 10
473.8659410809912
 20
-151.9927592036947
 30
0.0
 11
473.8659410809912
 21
-159.9927592036947
 31
0.0
  0
ARC
  5
381A
330
1F
100
AcDbEntity
  8
太線
100
AcDbCircle
 10
476.8659410809911
 20
-162.4603679898747
 30
0.0
 40
1.0
100
AcDbArc
 50
0.0
 51
90.0
  0
LINE
  5
381B
330
1F
100
AcDbEntity
  8
太線
100
AcDbLine
 10
473.7528847747451
 20
-162.8403058188849
 30
0.0
 11
476.3706502698903
 21
-161.3019084413825
 31
0.0
  0
ARC
  5
381C
330
1F
100
AcDbEntity
  8
破線
100
AcDbCircle
 10
476.8659410809911
 20
-159.9927592036947
 30
0.0
 40
1.0
100
AcDbArc
 50
270.0
 51
0.0
  0
LINE
  5
381D
330
1F
100
AcDbEntity
  8
破線
100
AcDbLine
 10
473.8659410809912
 20
-159.9927592036947
 30
0.0
 11
476.8659410809911
 21
-160.9927592036947
 31
0.0
  0
ARC
  5
381E
330
1F
100
AcDbEntity
  8
破線
100
AcDbCircle
 10
476.8557186505851
 20
-152.3667175018963
 30
0.0
 40
1.0
100
AcDbArc
 50
0.0
 51
90.0
  0
LINE
  5
381F
330
1F
100
AcDbEntity
  8
破線
100
AcDbLine
 10
474.8557186505851
 20
-151.3667175018963
 30
0.0
 11
476.8557186505851
 21
-151.3667175018963
 31
0.0
  0
LINE
  5
3822
330
1F
100
AcDbEntity
  8
想像線
100
AcDbLine
 10
531.5834665691927
 20
25.86013516560217
 30
0.0
 11
497.1732433131931
 21
25.86013516560217
 31
0.0
  0
LINE
  5
3823
330
1F
100
AcDbEntity
  8
太線
100
AcDbLine
 10
496.5834665691927
 20
30.86013516560217
 30
0.0
 11
531.5834665691927
 21
30.86013516560217
 31
0.0
  0
LINE
  5
3826
330
1F
100
AcDbEntity
  8
想像線
100
AcDbLine
 10
496.5834665691927
 20
-24.13986483439782
 30
0.0
 11
531.5834665691927
 21
-24.13986483439782
 31
0.0
  0
LINE
  5
3827
330
1F
100
AcDbEntity
  8
太線
100
AcDbLine
 10
531.5834665691927
 20
-29.13986483439782
 30
0.0
 11
466.5834665691927
 21
-29.13986483439782
 31
0.0
  0
LINE
  5
3828
330
1F
100
AcDbEntity
  8
太線
100
AcDbLine
 10
473.8659410809912
 20
-43.46036798987472
 30
0.0
 11
474.8659410809912
 21
-46.16139504737623
 31
0.0
  0
LINE
  5
3829
330
1F
100
AcDbEntity
  8
太線
100
AcDbLine
 10
462.8659410809912
 20
-46.16139504737623
 30
0.0
 11
463.8659410809911
 21
-43.46036798987472
 31
0.0
  0
TEXT
  5
382A
330
1F
100
AcDbEntity
  8
文字
100
AcDbText
 10
439.4455636114746
 20
-88.89765109754421
 30
0.0
 40
5.759999999999999
  1
M-12                          
 51
15.0
  7
OKANO
100
AcDbText
  0
CIRCLE
  5
382B
330
1F
100
AcDbEntity
  8
太線
100
AcDbCircle
 10
466.5834665691927
 20
0.8601351656021734
 30
0.0
 40
30.0
  0
CIRCLE
  5
382C
330
1F
100
AcDbEntity
  8
太線
100
AcDbCircle
 10
466.5834665691927
 20
0.8601351656021734
 30
0.0
 40
25.0
  0
LINE
  5
382D
330
1F
100
AcDbEntity
  8
想像線
100
AcDbLine
 10
441.5834665691927
 20
30.86013516560217
 30
0.0
 11
491.5834665691927
 21
30.86013516560217
 31
0.0
  0
CIRCLE
  5
382E
330
1F
100
AcDbEntity
  8
細線
100
AcDbCircle
 10
466.5834665691927
 20
0.8601351656021734
 30
0.0
 40
24.03857690457265
  0
LINE
  5
382F
330
1F
100
AcDbEntity
  8
想像線
100
AcDbLine
 10
442.5448896646201
 20
30.86013516560217
 30
0.0
 11
442.5448896646201
 21
0.8601351656021734
 31
0.0
  0
LINE
  5
3830
330
1F
100
AcDbEntity
  8
想像線
100
AcDbLine
 10
497.1732433131931
 20
25.86013516560217
 30
0.0
 11
496.5834665691927
 21
-24.13986483439782
 31
0.0
  0
LINE
  5
3831
330
1F
100
AcDbEntity
  8
想像線
100
AcDbLine
 10
466.5834665691927
 20
-23.17844173897049
 30
0.0
 11
496.5834665691927
 21
-23.17844173897049
 31
0.0
  0
LINE
  5
3832
330
1F
100
AcDbEntity
  8
太線
100
AcDbLine
 10
447.5834665691927
 20
-29.13986483439785
 30
0.0
 11
485.5834665691928
 21
-29.13986483439785
 31
0.0
  0
LINE
  5
3833
330
1F
100
AcDbEntity
  8
太線
100
AcDbLine
 10
453.2473059673908
 20
-19.13986483439785
 30
0.0
 11
479.9196271709946
 21
-19.13986483439785
 31
0.0
  0
LINE
  5
3834
330
1F
100
AcDbEntity
  8
太線
100
AcDbLine
 10
463.8659410809911
 20
-43.46036798987472
 30
0.0
 11
473.8659410809912
 21
-43.46036798987472
 31
0.0
  0
LINE
  5
3835
330
1F
100
AcDbEntity
  8
太線
100
AcDbLine
 10
446.5834665691927
 20
-21.50054460939574
 30
0.0
 11
446.5834665691927
 21
-28.13986483439785
 31
0.0
  0
LINE
  5
3836
330
1F
100
AcDbEntity
  8
想像線
100
AcDbLine
 10
456.5834665691927
 20
-19.13986483439785
 30
0.0
 11
456.5834665691927
 21
-29.13986483439785
 31
0.0
  0
LINE
  5
3837
330
1F
100
AcDbEntity
  8
想像線
100
AcDbLine
 10
460.5834665691928
 20
-19.13986483439785
 30
0.0
 11
460.5834665691928
 21
-28.53374174779597
 31
0.0
  0
LINE
  5
3838
330
1F
100
AcDbEntity
  8
想像線
100
AcDbLine
 10
466.5834665691927
 20
-19.13986483439785
 30
0.0
 11
466.5834665691927
 21
-29.13986483439782
 31
0.0
  0
ARC
  5
3839
330
1F
100
AcDbEntity
  8
太線
100
AcDbCircle
 10
447.0834665691927
 20
-28.63986483439785
 30
0.0
 40
0.5
100
AcDbArc
 50
180.0
 51
278.8957952865034
  0
ARC
  5
383A
330
1F
100
AcDbEntity
  8
太線
100
AcDbCircle
 10
447.5834665691927
 20
-28.13986483439785
 30
0.0
 40
1.0
100
AcDbArc
 50
262.2979531506369
 51
270.0
  0
ARC
  5
383B
330
1F
100
AcDbEntity
  8
太線
100
AcDbCircle
 10
447.3154233942429
 20
-30.12182165944798
 30
0.0
 40
1.0
100
AcDbArc
 50
82.29795315063654
 51
98.89579528650337
  0
LINE
  5
383C
330
1F
100
AcDbEntity
  8
太線
100
AcDbLine
 10
486.5834665691927
 20
-28.13986483439785
 30
0.0
 11
486.5834665691927
 21
-21.50054460939574
 31
0.0
  0
LINE
  5
383D
330
1F
100
AcDbEntity
  8
想像線
100
AcDbLine
 10
476.5834665691927
 20
-19.13986483439785
 30
0.0
 11
476.5834665691927
 21
-29.13986483439785
 31
0.0
  0
LINE
  5
383E
330
1F
100
AcDbEntity
  8
想像線
100
AcDbLine
 10
472.5834665691927
 20
-19.13986483439785
 30
0.0
 11
472.5834665691927
 21
-28.53374174779597
 31
0.0
  0
ARC
  5
383F
330
1F
100
AcDbEntity
  8
太線
100
AcDbCircle
 10
485.5834665691928
 20
-28.13986483439785
 30
0.0
 40
1.0
100
AcDbArc
 50
270.0
 51
0.0
  0
LINE
  5
3840
330
1F
100
AcDbEntity
  8
太線
100
AcDbLine
 10
486.5834665691927
 20
-21.50054460939574
 30
0.0
 11
486.5834665691927
 21
-23.17844173897049
 31
0.0
  0
LINE
  5
3841
330
1F
100
AcDbEntity
  8
想像線
100
AcDbLine
 10
466.5834665691927
 20
24.89871207017483
 30
0.0
 11
497.1619028135364
 21
24.89871207017483
 31
0.0
  0
LINE
  5
3843
330
1F
100
AcDbEntity
  8
想像線
100
AcDbLine
 10
490.6220434737654
 20
30.86013516560217
 30
0.0
 11
490.6220434737654
 21
0.8601351656021734
 31
0.0
  0
LINE
  5
3844
330
1F
100
AcDbEntity
  8
太線
100
AcDbLine
 10
531.5834665691927
 20
30.86013516560217
 30
0.0
 11
531.5834665691927
 21
-29.13986483439782
 31
0.0
  0
LINE
  5
3848
330
1F
100
AcDbEntity
  8
太線
100
AcDbLine
 10
436.6673867860931
 20
65.86013516560218
 30
0.0
 11
496.5834665691927
 21
65.86013516560218
 31
0.0
  0
DIMENSION
  5
38A6
330
1F
100
AcDbEntity
  8
寸法線
370
    25
100
AcDbDimension
  2
*D6
 10
592.1463528069851
 20
81.8306254484937
 30
0.0
 11
557.1463528069855
 21
83.7056254484937
 31
0.0
 70
    32
 71
     5
 42
69.9999999999992
  3
ISO-25
100
AcDbAlignedDimension
 13
522.1463528069858
 23
116.8456160222121
 33
0.0
 14
592.1463528069851
 24
116.8456160222113
 34
0.0
100
AcDbRotatedDimension
  0
ARC
  5
38A7
330
1F
100
AcDbEntity
  8
太線
370
    25
100
AcDbCircle
 10
592.1463528069855
 20
116.8456160222119
 30
0.0
 40
29.92684640862699
100
AcDbArc
 50
246.469298145232
 51
109.6483671244479
  0
DIMENSION
  5
38A8
330
1F
100
AcDbEntity
  8
寸法線
370
    25
100
AcDbDimension
  2
*D7
 10
588.4050297126634
 20
112.4792672610741
 30
0.0
 11
600.8349601977901
 21
129.8674104218418
 31
0.0
 70
    35
 71
     5
 42
11.49999999999977
  3
ISO-25
100
AcDbDiametricDimension
 15
595.8876759013079
 25
121.2119647833498
 35
0.0
 40
0.0
1001
ACAD
1000
DSTYLE
1002
{
1070
   288
1070
     1
1002
}
  0
CIRCLE
  5
38A9
330
1F
100
AcDbEntity
  8
太線
370
    25
100
AcDbCircle
 10
592.1463528069855
 20
116.8456160222119
 30
0.0
 40
5.75
  0
CIRCLE
  5
38AA
330
1F
100
AcDbEntity
  8
太線
370
    25
100
AcDbCircle
 10
592.1463528069855
 20
116.8456160222119
 30
0.0
 40
22.5
  0
DIMENSION
  5
38AB
330
1F
100
AcDbEntity
  8
寸法線
370
    25
100
AcDbDimension
  2
*D8
 10
517.1126919016485
 20
114.6292546143902
 30
0.0
 11
540.2165655905823
 21
124.8020761409747
 31
0.0
 70
   163
 71
     5
 42
11.0
  3
ISO-25
100
AcDbDiametricDimension
 15
527.1800137123226
 25
119.0619774300335
 35
0.0
 40
0.0
1001
ACAD
1000
DSTYLE
1002
{
1070
   288
1070
     1
1002
}
  0
DIMENSION
  5
38AC
330
1F
100
AcDbEntity
  8
寸法線
370
    25
100
AcDbDimension
  2
*D9
 10
522.1463528069851
 20
116.8456160222123
 30
0.0
 11
505.0866139943571
 21
126.3606309921813
 31
0.0
 70
    36
  1
10.5
 71
     5
 42
10.69362551670405
  3
ISO-25
100
AcDbRadialDimension
 15
512.3502765050834
 25
121.1340324873917
 35
0.0
 40
0.0
1001
ACAD
1000
DSTYLE
1002
{
1070
   288
1070
     1
1002
}
  0
ARC
  5
38AD
330
1F
100
AcDbEntity
  8
太線
370
    25
100
AcDbCircle
 10
522.1463528069855
 20
116.8456160222119
 30
0.0
 40
10.69362551670436
100
AcDbArc
 50
94.16865786076614
 51
258.8810334751942
  0
LINE
  5
38AE
330
1F
100
AcDbEntity
  8
太線
370
    25
100
AcDbLine
 10
518.4248108800192
 20
106.8204600445055
 30
0.0
 11
585.8883754410588
 21
87.80335266005634
 31
0.0
  0
CIRCLE
  5
38AF
330
1F
100
AcDbEntity
  8
太線
370
    25
100
AcDbCircle
 10
522.1463528069855
 20
116.8456160222119
 30
0.0
 40
5.5
  0
LINE
  5
38B0
330
1F
100
AcDbEntity
  8
太線
370
    25
100
AcDbLine
 10
518.9066925116048
 20
126.8004579008818
 30
0.0
 11
585.647434625266
 21
146.0582879033129
 31
0.0
  0
ARC
  5
38B1
330
1F
100
AcDbEntity
  8
太線
370
    25
100
AcDbCircle
 10
522.1463528069855
 20
116.8456160222119
 30
0.0
 40
10.46872846427808
100
AcDbArc
 50
104.1639218140664
 51
108.0267342608357
  0
ARC
  5
38B2
330
1F
100
AcDbEntity
  8
太線
370
    25
100
AcDbCircle
 10
592.1463528069855
 20
116.8456160222119
 30
0.0
 40
30.0
100
AcDbArc
 50
104.6493206882397
 51
107.4628139467074
  0
DIMENSION
  5
390D
330
1F
100
AcDbEntity
  8
寸法線
100
AcDbDimension
  2
*D10
 10
595.5967381923001
 20
112.2459050864241
 30
0.0
 11
566.1798227257297
 21
151.4616136691856
 31
0.0
 70
   163
  1
30
 71
     5
 42
11.50000000000011
  3
sunpo
100
AcDbDiametricDimension
 15
588.6959674216703
 25
121.4453269579996
 35
0.0
 40
0.0
1001
ACAD
1000
DSTYLE
1002
{
1070
    40
1040
1.0
1070
   288
1070
     1
1002
}
  0
LINE
  5
394D
330
1F
100
AcDbEntity
  8
太線
370
    25
100
AcDbLine
 10
604.7566247142827
 20
-169.2544087772012
 30
0.0
 11
586.3302967462608
 21
-169.2544087772012
 31
0.0
  0
LINE
  5
394E
330
1F
100
AcDbEntity
  8
太線
370
    25
100
AcDbLine
 10
525.5434607302718
 20
-183.2544087772012
 30
0.0
 11
623.0434607302718
 21
-183.2544087772012
 31
0.0
  0
LINE
  5
3952
330
1F
100
AcDbEntity
  8
太線
370
    25
100
AcDbLine
 10
576.2566247142826
 20
-181.2544087772011
 30
0.0
 11
525.5434607302718
 21
-181.2544087772008
 31
0.0
  0
ARC
  5
3953
330
1F
100
AcDbEntity
  8
太線
370
    25
100
AcDbCircle
 10
526.4375469344654
 20
-182.2544087772012
 30
0.0
 40
1.0
100
AcDbArc
 50
90.0
 51
180.0
  0
LINE
  5
3954
330
1F
100
AcDbEntity
  8
太線
370
    25
100
AcDbLine
 10
525.154453665104
 20
-182.2544087772012
 30
0.0
 11
525.154453665104
 21
-183.2544087772012
 31
0.0
  0
LINE
  5
3955
330
1F
100
AcDbEntity
  8
太線
370
    25
100
AcDbLine
 10
530.5434607302718
 20
-181.2544087772008
 30
0.0
 11
530.5434607302718
 21
-183.2544087772012
 31
0.0
  0
LINE
  5
3956
330
1F
100
AcDbEntity
  8
太線
370
    25
100
AcDbLine
 10
541.5434607302718
 20
-181.2544087772009
 30
0.0
 11
541.5434607302718
 21
-183.2544087772012
 31
0.0
  0
LINE
  5
3957
330
1F
100
AcDbEntity
  8
太線
370
    25
100
AcDbLine
 10
583.6924208466505
 20
-170.8255593315789
 30
0.0
 11
578.8945006138931
 21
-179.6832582228234
 31
0.0
  0
ARC
  5
3958
330
1F
100
AcDbEntity
  8
太線
370
    25
100
AcDbCircle
 10
576.2566247142826
 20
-178.2544087772012
 30
0.0
 40
3.0
100
AcDbArc
 50
270.0
 51
331.5570713756365
  0
ARC
  5
395D
330
1F
100
AcDbEntity
  8
太線
370
    25
100
AcDbCircle
 10
586.3302967462608
 20
-172.2544087772012
 30
0.0
 40
3.0
100
AcDbArc
 50
90.0
 51
151.5570713756365
  0
LINE
  5
3966
330
1F
100
AcDbEntity
  8
太線
370
    25
100
AcDbLine
 10
622.0434607302718
 20
-181.2544087772011
 30
0.0
 11
614.8302967462608
 21
-181.2544087772011
 31
0.0
  0
LINE
  5
3967
330
1F
100
AcDbEntity
  8
太線
370
    25
100
AcDbLine
 10
612.1924208466505
 20
-179.6832582228234
 30
0.0
 11
607.3945006138931
 21
-170.8255593315789
 31
0.0
  0
ARC
  5
3969
330
1F
100
AcDbEntity
  8
太線
370
    25
100
AcDbCircle
 10
604.7566247142827
 20
-172.2544087772012
 30
0.0
 40
3.0
100
AcDbArc
 50
28.44292862436347
 51
90.0
  0
ARC
  5
396E
330
1F
100
AcDbEntity
  8
太線
370
    25
100
AcDbCircle
 10
614.8302967462608
 20
-178.2544087772012
 30
0.0
 40
3.0
100
AcDbArc
 50
208.4429286243634
 51
270.0
  0
ARC
  5
396F
330
1F
100
AcDbEntity
  8
太線
370
    25
100
AcDbCircle
 10
622.0434607302718
 20
-182.2544087772012
 30
0.0
 40
1.0
100
AcDbArc
 50
0.0
 51
90.0
  0
LINE
  5
3970
330
1F
100
AcDbEntity
  8
太線
370
    25
100
AcDbLine
 10
623.0434607302718
 20
-183.2544087772012
 30
0.0
 11
623.0434607302718
 21
-182.2544087772012
 31
0.0
  0
TEXT
  5
3986
330
1F
100
AcDbEntity
  8
文字
100
AcDbText
 10
550.2703310726819
 20
-223.3512056735514
 30
0.0
 40
5.759999999999999
  1
水平調整85mm　500kタイプ                                                                                                                                      
 51
15.0
  7
OKANO
100
AcDbText
  0
DIMENSION
  5
3987
330
1F
100
AcDbEntity
  8
寸法線
100
AcDbDimension
  2
*D11
 10
541.7858170035096
 20
-169.3767822860327
 30
0.0
 11
536.2186768116621
 21
-165.8767822860327
 31
0.0
 70
    32
  1
11
 71
     5
 42
11.13428038369511
  3
sunpo
100
AcDbAlignedDimension
 13
530.6515366198145
 23
-179.8098592662668
 33
0.0
 14
541.7858170035096
 24
-179.1143215064946
 34
0.0
100
AcDbRotatedDimension
1001
ACAD
1000
DSTYLE
1002
{
1070
    40
1040
1.0
1002
}
  0
DIMENSION
  5
39ED
330
1F
100
AcDbEntity
  8
寸法線
100
AcDbDimension
  2
*D12
 10
496.3659410809912
 20
-192.8455541521737
 30
0.0
 11
468.8659410809911
 21
-189.3455541521736
 31
0.0
 70
    32
  1
60
 71
     5
 42
55.0
  3
sunpo
100
AcDbAlignedDimension
 13
441.3659410809912
 23
-183.4603679898747
 33
0.0
 14
496.3659410809912
 24
-183.4603679898747
 34
0.0
100
AcDbRotatedDimension
1001
ACAD
1000
DSTYLE
1002
{
1070
    40
1040
1.0
1002
}
  0
DIMENSION
  5
39FA
330
1F
100
AcDbEntity
  8
寸法線
100
AcDbDimension
  2
*D13
 10
595.7952221565829
 20
-190.6901431665139
 30
0.0
 11
609.4193414434273
 21
-187.1901431665139
 31
0.0
 70
    32
  1
30
 71
     5
 42
27.24823857368892
  3
sunpo
100
AcDbAlignedDimension
 13
623.0434607302718
 23
-183.2544087772012
 33
0.0
 14
595.7952221565829
 24
-180.5394829303628
 34
0.0
100
AcDbRotatedDimension
1001
ACAD
1000
DSTYLE
1002
{
1070
    40
1040
1.0
1002
}
  0
DIMENSION
  5
3A07
330
1F
100
AcDbEntity
  8
寸法線
100
AcDbDimension
  2
*D14
 10
535.7149600252401
 20
-190.6901431665139
 30
0.0
 11
565.7550910909114
 21
-187.1901431665139
 31
0.0
 70
    32
  1
70
 71
     5
 42
60.0802621313428
  3
sunpo
100
AcDbAlignedDimension
 13
595.7952221565829
 23
-180.5394829303628
 33
0.0
 14
535.7149600252401
 24
-188.1754978985486
 34
0.0
100
AcDbRotatedDimension
1001
ACAD
1000
DSTYLE
1002
{
1070
    40
1040
1.0
1070
   279
1070
     1
1002
}
  0
DIMENSION
  5
3A14
330
1F
100
AcDbEntity
  8
寸法線
100
AcDbDimension
  2
*D15
 10
525.6483552851409
 20
-190.6901431665139
 30
0.0
 11
535.2816576551905
 21
-199.1901431665139
 31
0.0
 70
    32
  1
10.5
 71
     5
 42
10.06660474009913
  3
sunpo
100
AcDbAlignedDimension
 13
535.7149600252401
 23
-188.1754978985486
 33
0.0
 14
525.6483552851409
 24
-187.8162622932866
 34
0.0
100
AcDbRotatedDimension
1001
ACAD
1000
DSTYLE
1002
{
1070
    40
1040
1.0
1070
   279
1070
     1
1002
}
  0
DIMENSION
  5
3A69
330
1F
100
AcDbEntity
  8
寸法線
100
AcDbDimension
  2
*D16
 10
517.2671988840774
 20
-181.2544087772008
 30
0.0
 11
513.7667067580933
 21
-172.6720612018502
 31
0.0
 70
    32
 71
     5
 42
2.000000000000341
  3
sunpo
100
AcDbAlignedDimension
 13
525.154453665104
 23
-183.2544087772012
 33
0.0
 14
525.5434607302718
 24
-181.2544087772008
 34
0.0
 50
90.0
100
AcDbRotatedDimension
1001
ACAD
1000
DSTYLE
1002
{
1070
    40
1040
1.0
1002
}
  0
DIMENSION
  5
3A91
330
1F
100
AcDbEntity
  8
寸法線
100
AcDbDimension
  2
*D17
 10
665.8766280711634
 20
-177.9190081577358
 30
0.0
 11
662.3766280711634
 21
-166.9411224747656
 31
0.0
 70
    32
  1
5.5
 71
     5
 42
5.0
  3
sunpo
100
AcDbAlignedDimension
 13
674.5246368337054
 23
-182.9190081577357
 33
0.0
 14
679.5246368337054
 24
-177.9190081577358
 34
0.0
 50
90.0
100
AcDbRotatedDimension
1001
ACAD
1000
DSTYLE
1002
{
1070
    40
1040
1.0
1002
}
  0
LINE
  5
3B84
330
1F
100
AcDbEntity
  8
想像線
100
AcDbLine
 10
45.01572565508135
 20
-38.14391500438995
 30
0.0
 11
45.01572565508135
 21
-72.14391500438996
 31
0.0
  0
LINE
  5
3B85
330
1F
100
AcDbEntity
  8
想像線
100
AcDbLine
 10
35.01572565508135
 20
-38.14391500438995
 30
0.0
 11
35.01572565508135
 21
-72.14391500438996
 31
0.0
  0
LINE
  5
3B86
330
1F
100
AcDbEntity
  8
太線
100
AcDbLine
 10
34.01572565508135
 20
-39.44462738119545
 30
0.0
 11
34.01572565508135
 21
-72.14391500438996
 31
0.0
  0
LINE
  5
3B87
330
1F
100
AcDbEntity
  8
太線
100
AcDbLine
 10
46.01572565508135
 20
-72.14391500438996
 30
0.0
 11
46.01572565508135
 21
-39.44462738119545
 31
0.0
  0
LINE
  5
3B88
330
1F
100
AcDbEntity
  8
太線
100
AcDbLine
 10
45.01572565508135
 20
-72.14391500438996
 30
0.0
 11
34.01572565508135
 21
-72.14391500438996
 31
0.0
  0
ARC
  5
3B89
330
1F
100
AcDbEntity
  8
細線
100
AcDbCircle
 10
38.26818484582881
 20
-77.03859698015907
 30
0.0
 40
1.040603392511691
100
AcDbArc
 50
207.0324924700558
 51
343.3477876073676
  0
LINE
  5
3B8A
330
1F
100
AcDbEntity
  8
太線
100
AcDbLine
 10
46.01572565508135
 20
-86.14391500438996
 30
0.0
 11
25.44517306503654
 21
-105.547505890298
 31
0.0
  0
LINE
  5
3B8B
330
1F
100
AcDbEntity
  8
太線
100
AcDbLine
 10
59.01572565508136
 20
-82.14391500438996
 30
0.0
 11
25.01572565508132
 21
-82.14391500438996
 31
0.0
  0
LINE
  5
3B8C
330
1F
100
AcDbEntity
  8
太線
100
AcDbLine
 10
56.01572565508135
 20
-78.14391500438995
 30
0.0
 11
24.01572565508135
 21
-78.14391500438995
 31
0.0
  0
LINE
  5
3B8D
330
1F
100
AcDbEntity
  8
細線
100
AcDbLine
 10
56.01572565508135
 20
-77.14391500438996
 30
0.0
 11
24.01572565508135
 21
-77.14391500438996
 31
0.0
  0
LINE
  5
3B8E
330
1F
100
AcDbEntity
  8
太線
100
AcDbLine
 10
49.01572565508136
 20
-75.14391500438995
 30
0.0
 11
31.01572565508135
 21
-75.14391500438995
 31
0.0
  0
ARC
  5
3B8F
330
1F
100
AcDbEntity
  8
太線
100
AcDbCircle
 10
14.01572565508135
 20
-107.1439150043899
 30
0.0
 40
25.0
100
AcDbArc
 50
91.13452041214289
 51
130.8229120270868
  0
DIMENSION
  5
3B90
330
1F
100
AcDbEntity
  8
寸法線
100
AcDbDimension
  2
*D18
 10
68.67365302414191
 20
-131.8321743242804
 30
0.0
 11
65.17365302414194
 21
-101.6240053463055
 31
0.0
 70
    32
  1
89
 71
     5
 42
60.41633795594977
  3
sunpo
100
AcDbAlignedDimension
 13
49.75721205461013
 23
-71.4158363683307
 33
0.0
 14
49.75721205461013
 24
-131.8321743242804
 34
0.0
 50
90.0
100
AcDbRotatedDimension
1001
ACAD
1000
DSTYLE
1002
{
1070
    40
1040
1.0
1002
}
  0
LINE
  5
3B91
330
1F
100
AcDbEntity
  8
太線
100
AcDbLine
 10
49.01572565508136
 20
-73.14391500438995
 30
0.0
 11
49.01572565508136
 21
-75.14391500438995
 31
0.0
  0
ARC
  5
3B92
330
1F
100
AcDbEntity
  8
太線
100
AcDbCircle
 10
55.01572565508135
 20
-76.14391500438995
 30
0.0
 40
1.0
100
AcDbArc
 50
0.000000000000007
 51
90.0
  0
LINE
  5
3B93
330
1F
100
AcDbEntity
  8
想像線
100
AcDbLine
 10
46.01572565508135
 20
-72.14391500438996
 30
0.0
 11
46.01572565508135
 21
-75.14391500438995
 31
0.0
  0
ARC
  5
3B94
330
1F
100
AcDbEntity
  8
細線
100
AcDbCircle
 10
51.54008795150693
 20
-77.03859698015907
 30
0.0
 40
1.040603392511691
100
AcDbArc
 50
207.0324924700558
 51
343.3477876073676
  0
LINE
  5
3B95
330
1F
100
AcDbEntity
  8
太線
100
AcDbLine
 10
49.01572565508136
 20
-75.14391500438995
 30
0.0
 11
55.01572565508135
 21
-75.14391500438995
 31
0.0
  0
LINE
  5
3B96
330
1F
100
AcDbEntity
  8
太線
100
AcDbLine
 10
58.01572565508135
 20
-86.14391500438996
 30
0.0
 11
46.01572565508135
 21
-86.14391500438996
 31
0.0
  0
ARC
  5
3B97
330
1F
100
AcDbEntity
  8
太線
100
AcDbCircle
 10
58.01572565508135
 20
-85.14391500438994
 30
0.0
 40
1.0
100
AcDbArc
 50
270.0
 51
0.000000000000007
  0
LINE
  5
3B98
330
1F
100
AcDbEntity
  8
太線
100
AcDbLine
 10
56.01572565508135
 20
-78.14391500438995
 30
0.0
 11
58.01572565508135
 21
-78.14391500438995
 31
0.0
  0
ARC
  5
3B99
330
1F
100
AcDbEntity
  8
太線
100
AcDbCircle
 10
58.01572565508135
 20
-79.14391500438995
 30
0.0
 40
1.0
100
AcDbArc
 50
0.000000000000007
 51
90.0
  0
LINE
  5
3B9A
330
1F
100
AcDbEntity
  8
太線
100
AcDbLine
 10
59.01572565508136
 20
-79.14391500438995
 30
0.0
 11
59.01572565508136
 21
-85.14391500438994
 31
0.0
  0
LINE
  5
3B9B
330
1F
100
AcDbEntity
  8
太線
100
AcDbLine
 10
56.01572565508135
 20
-76.14391500438995
 30
0.0
 11
56.01572565508135
 21
-78.14391500438995
 31
0.0
  0
ARC
  5
3B9C
330
1F
100
AcDbEntity
  8
細線
100
AcDbCircle
 10
53.99448113962453
 20
-77.03859698015907
 30
0.0
 40
1.040603392511691
100
AcDbArc
 50
207.0324924700558
 51
343.3477876073676
  0
ARC
  5
3B9D
330
1F
100
AcDbEntity
  8
細線
100
AcDbCircle
 10
48.63117756790288
 20
-77.03859698015907
 30
0.0
 40
1.040603392511691
100
AcDbArc
 50
207.0324924700558
 51
343.3477876073676
  0
ARC
  5
3B9E
330
1F
100
AcDbEntity
  8
細線
100
AcDbCircle
 10
46.17678437978528
 20
-77.03859698015907
 30
0.0
 40
1.040603392511691
100
AcDbArc
 50
207.0324924700558
 51
343.3477876073676
  0
ARC
  5
3B9F
330
1F
100
AcDbEntity
  8
細線
100
AcDbCircle
 10
43.63148841755045
 20
-77.03859698015907
 30
0.0
 40
1.040603392511691
100
AcDbArc
 50
207.0324924700558
 51
343.3477876073676
  0
ARC
  5
3BA0
330
1F
100
AcDbEntity
  8
細線
100
AcDbCircle
 10
41.17709522943286
 20
-77.03859698015907
 30
0.0
 40
1.040603392511691
100
AcDbArc
 50
207.0324924700558
 51
343.3477876073676
  0
LINE
  5
3BA2
330
1F
100
AcDbEntity
  8
太線
100
AcDbLine
 10
45.01572565508135
 20
-72.14391500438996
 30
0.0
 11
48.01572565508135
 21
-72.14391500438996
 31
0.0
  0
ARC
  5
3BA3
330
1F
100
AcDbEntity
  8
太線
100
AcDbCircle
 10
48.01572565508135
 20
-73.14391500438995
 30
0.0
 40
1.0
100
AcDbArc
 50
0.000000000000007
 51
90.0
  0
LINE
  5
3BA4
330
1F
100
AcDbEntity
  8
太線
100
AcDbLine
 10
44.89567036934909
 20
-72.53667055959187
 30
0.0
 11
44.89567036934909
 21
-74.82353396490504
 31
0.0
  0
LINE
  5
3BA5
330
1F
100
AcDbEntity
  8
太線
100
AcDbLine
 10
24.01572565508132
 20
-83.14391500438995
 30
0.0
 11
24.01572565508134
 21
-101.7969622022553
 31
0.0
  0
LINE
  5
3BA6
330
1F
100
AcDbEntity
  8
太線
100
AcDbLine
 10
14.01572565508135
 20
-80.14391500438994
 30
0.0
 11
9.956433071870231
 21
-96.58543460343169
 31
0.0
  0
ARC
  5
3BA7
330
1F
100
AcDbEntity
  8
太線
100
AcDbCircle
 10
14.01572565508135
 20
-107.1439150043899
 30
0.0
 40
18.08191140861927
100
AcDbArc
 50
97.10360178722766
 51
124.3072527398775
  0
CIRCLE
  5
3BA9
330
1F
100
AcDbEntity
  8
太線
100
AcDbCircle
 10
14.01572565508135
 20
-107.1439150043899
 30
0.0
 40
2.198751160989681
  0
ARC
  5
3BAC
330
1F
100
AcDbEntity
  8
太線
100
AcDbCircle
 10
25.01572565508135
 20
-76.14391500438995
 30
0.0
 40
1.0
100
AcDbArc
 50
90.0
 51
180.0
  0
LINE
  5
3BAD
330
1F
100
AcDbEntity
  8
太線
100
AcDbLine
 10
31.01572565508135
 20
-73.14391500438995
 30
0.0
 11
31.01572565508135
 21
-75.14391500438995
 31
0.0
  0
LINE
  5
3BAE
330
1F
100
AcDbEntity
  8
想像線
100
AcDbLine
 10
34.01572565508135
 20
-72.14391500438996
 30
0.0
 11
34.01572565508135
 21
-75.14391500438995
 31
0.0
  0
LINE
  5
3BAF
330
1F
100
AcDbEntity
  8
太線
100
AcDbLine
 10
34.97661532872621
 20
-72.53667055959187
 30
0.0
 11
34.97661532872621
 21
-75.20467880553138
 31
0.0
  0
ARC
  5
3BB0
330
1F
100
AcDbEntity
  8
細線
100
AcDbCircle
 10
25.26899172495254
 20
-77.03859698015907
 30
0.0
 40
1.040603392511691
100
AcDbArc
 50
207.0324924700558
 51
343.3477876073676
  0
LINE
  5
3BB1
330
1F
100
AcDbEntity
  8
太線
100
AcDbLine
 10
31.01572565508135
 20
-75.14391500438995
 30
0.0
 11
25.01572565508135
 21
-75.14391500438995
 31
0.0
  0
ARC
  5
3BB2
330
1F
100
AcDbEntity
  8
細線
100
AcDbCircle
 10
33.08668848479177
 20
-77.03859698015907
 30
0.0
 40
1.040603392511691
100
AcDbArc
 50
207.0324924700558
 51
343.3477876073676
  0
ARC
  5
3BB3
330
1F
100
AcDbEntity
  8
細線
100
AcDbCircle
 10
35.81379165771122
 20
-77.03859698015907
 30
0.0
 40
1.040603392511691
100
AcDbArc
 50
207.0324924700558
 51
343.3477876073676
  0
ARC
  5
3BB4
330
1F
100
AcDbEntity
  8
細線
100
AcDbCircle
 10
30.63229529667419
 20
-77.03859698015907
 30
0.0
 40
1.040603392511691
100
AcDbArc
 50
207.0324924700558
 51
343.3477876073676
  0
ARC
  5
3BB5
330
1F
100
AcDbEntity
  8
細線
100
AcDbCircle
 10
27.72338491307013
 20
-77.03859698015907
 30
0.0
 40
1.040603392511691
100
AcDbArc
 50
207.0324924700558
 51
343.3477876073676
  0
LINE
  5
3BB6
330
1F
100
AcDbEntity
  8
太線
100
AcDbLine
 10
21.01572565508135
 20
-78.14391500438995
 30
0.0
 11
14.01572565508135
 21
-80.14391500438994
 31
0.0
  0
LINE
  5
3BB7
330
1F
100
AcDbEntity
  8
太線
100
AcDbLine
 10
24.01572565508135
 20
-76.14391500438995
 30
0.0
 11
24.01572565508135
 21
-78.14391500438995
 31
0.0
  0
LINE
  5
3BB8
330
1F
100
AcDbEntity
  8
太線
100
AcDbLine
 10
24.01572565508135
 20
-78.14391500438995
 30
0.0
 11
21.01572565508135
 21
-78.14391500438995
 31
0.0
  0
ARC
  5
3BB9
330
1F
100
AcDbEntity
  8
太線
100
AcDbCircle
 10
25.01572565508132
 20
-83.14391500438995
 30
0.0
 40
1.0
100
AcDbArc
 50
90.0
 51
180.0
  0
LINE
  5
3BBB
330
1F
100
AcDbEntity
  8
太線
100
AcDbLine
 10
34.01572565508135
 20
-72.14391500438996
 30
0.0
 11
32.01572565508135
 21
-72.14391500438996
 31
0.0
  0
ARC
  5
3BBC
330
1F
100
AcDbEntity
  8
太線
100
AcDbCircle
 10
32.01572565508135
 20
-73.14391500438995
 30
0.0
 40
1.0
100
AcDbArc
 50
90.0
 51
180.0
  0
LINE
  5
3BBD
330
1F
100
AcDbEntity
  8
想像線
100
AcDbLine
 10
30.01572565508135
 20
-62.14391500438996
 30
0.0
 11
30.01572565508135
 21
-61.64391500438995
 31
0.0
  0
LINE
  5
3BBE
330
1F
100
AcDbEntity
  8
太線
100
AcDbLine
 10
45.01572565508135
 20
-38.14391500438995
 30
0.0
 11
35.01572565508135
 21
-38.14391500438995
 31
0.0
  0
LINE
  5
3BBF
330
1F
100
AcDbEntity
  8
太線
100
AcDbLine
 10
46.01572565508135
 20
-39.44462738119545
 30
0.0
 11
45.01572565508135
 21
-38.14391500438995
 31
0.0
  0
LINE
  5
3BC0
330
1F
100
AcDbEntity
  8
太線
100
AcDbLine
 10
35.01572565508135
 20
-38.14391500438995
 30
0.0
 11
34.01572565508135
 21
-39.44462738119545
 31
0.0
  0
DIMENSION
  5
3BEA
330
1F
100
AcDbEntity
  8
寸法線
100
AcDbDimension
  2
*D19
 10
196.1757604225565
 20
-182.8735642879614
 30
0.0
 11
192.6752682965723
 21
-127.144700328146
 31
0.0
 70
    32
  1
126
 71
     5
 42
111.4577279196306
  3
sunpo
100
AcDbAlignedDimension
 13
169.5922258477567
 23
-71.4158363683307
 33
0.0
 14
169.5922258477567
 24
-182.8735642879613
 34
0.0
 50
90.0
100
AcDbRotatedDimension
1001
ACAD
1000
DSTYLE
1002
{
1070
    40
1040
1.0
1002
}
  0
CIRCLE
  5
3BEB
330
1F
100
AcDbEntity
  8
太線
100
AcDbCircle
 10
135.2691945056584
 20
-138.0349421567257
 30
0.0
 40
2.198751160989681
  0
ARC
  5
3BED
330
1F
100
AcDbEntity
  8
太線
100
AcDbCircle
 10
134.5715424728357
 20
-138.2801238995357
 30
0.0
 40
16.79907253088356
100
AcDbArc
 50
171.1353013454613
 51
303.4277270929855
  0
ARC
  5
3BEE
330
1F
100
AcDbEntity
  8
太線
100
AcDbCircle
 10
135.0311150209386
 20
-138.7377109460389
 30
0.0
 40
31.50138819427047
100
AcDbArc
 50
94.81976617207925
 51
120.468943696815
  0
LINE
  5
3BEF
330
1F
100
AcDbEntity
  8
太線
100
AcDbLine
 10
170.7869916533768
 20
-90.46737900394385
 30
0.0
 11
151.5671572699792
 21
-123.2662745914826
 31
0.0
  0
ARC
  5
3BF0
330
1F
100
AcDbEntity
  8
太線
100
AcDbCircle
 10
135.0311150209386
 20
-138.7377109460389
 30
0.0
 40
44.43547654268127
100
AcDbArc
 50
91.57671050712171
 51
128.5662336141981
  0
LINE
  5
3BF2
330
1F
100
AcDbEntity
  8
太線
100
AcDbLine
 10
166.6224896369902
 20
-72.14391500438996
 30
0.0
 11
166.6224896369902
 21
-39.44462738119545
 31
0.0
  0
LINE
  5
3BF3
330
1F
100
AcDbEntity
  8
太線
100
AcDbLine
 10
154.6224896369902
 20
-39.44462738119545
 30
0.0
 11
154.6224896369902
 21
-72.14391500438996
 31
0.0
  0
LINE
  5
3BF4
330
1F
100
AcDbEntity
  8
想像線
100
AcDbLine
 10
155.6224896369902
 20
-38.14391500438995
 30
0.0
 11
155.6224896369902
 21
-72.14391500438996
 31
0.0
  0
LINE
  5
3BF5
330
1F
100
AcDbEntity
  8
想像線
100
AcDbLine
 10
165.6224896369902
 20
-38.14391500438995
 30
0.0
 11
165.6224896369902
 21
-72.14391500438996
 31
0.0
  0
LINE
  5
3BF6
330
1F
100
AcDbEntity
  8
太線
100
AcDbLine
 10
176.6224896369902
 20
-78.66738796628232
 30
0.0
 11
178.6224896369902
 21
-78.66738796628232
 31
0.0
  0
LINE
  5
3BF7
330
1F
100
AcDbEntity
  8
太線
100
AcDbLine
 10
170.7869916533768
 20
-90.46737900394385
 30
0.0
 11
179.6224896369902
 21
-85.66738796628232
 31
0.0
  0
LINE
  5
3BF8
330
1F
100
AcDbEntity
  8
太線
100
AcDbLine
 10
153.9726758979472
 20
-87.88290630688482
 30
0.0
 11
179.1941495310914
 21
-85.94455178409067
 31
0.0
  0
LINE
  5
3BF9
330
1F
100
AcDbEntity
  8
太線
100
AcDbLine
 10
179.6224896369902
 20
-79.66738796628232
 30
0.0
 11
179.6224896369902
 21
-85.66738796628232
 31
0.0
  0
ARC
  5
3BFA
330
1F
100
AcDbEntity
  8
太線
100
AcDbCircle
 10
178.6224896369902
 20
-79.66738796628232
 30
0.0
 40
1.0
100
AcDbArc
 50
0.000000000000007
 51
90.0
  0
LINE
  5
3BFB
330
1F
100
AcDbEntity
  8
太線
100
AcDbLine
 10
135.218245536513
 20
-81.42172456423736
 30
0.0
 11
131.396036448691
 21
-116.3889335658208
 31
0.0
  0
LINE
  5
3BFC
330
1F
100
AcDbEntity
  8
太線
100
AcDbLine
 10
146.8589259525781
 20
-131.8189421568881
 30
0.0
 11
146.9748196351128
 21
-131.1031580725817
 31
0.0
  0
LINE
  5
3BFD
330
1F
100
AcDbEntity
  8
太線
100
AcDbLine
 10
154.6224896369902
 20
-72.14391500438996
 30
0.0
 11
152.6224896369902
 21
-72.14391500438996
 31
0.0
  0
ARC
  5
3BFE
330
1F
100
AcDbEntity
  8
細線
100
AcDbCircle
 10
153.6934524667007
 20
-77.56206994205143
 30
0.0
 40
1.040603392511691
100
AcDbArc
 50
207.0324924700558
 51
343.3477876073676
  0
LINE
  5
3BFF
330
1F
100
AcDbEntity
  8
太線
100
AcDbLine
 10
169.6224896369902
 20
-75.66738796628232
 30
0.0
 11
151.6224896369902
 21
-75.66738796628232
 31
0.0
  0
LINE
  5
3C00
330
1F
100
AcDbEntity
  8
細線
100
AcDbLine
 10
176.6224896369902
 20
-77.66738796628231
 30
0.0
 11
144.6224896369902
 21
-77.66738796628231
 31
0.0
  0
LINE
  5
3C01
330
1F
100
AcDbEntity
  8
太線
100
AcDbLine
 10
176.6224896369902
 20
-78.66738796628232
 30
0.0
 11
144.6224896369902
 21
-78.66738796628232
 31
0.0
  0
LINE
  5
3C02
330
1F
100
AcDbEntity
  8
太線
100
AcDbLine
 10
155.5833793106351
 20
-72.53667055959187
 30
0.0
 11
155.5833793106351
 21
-75.20467880553138
 31
0.0
  0
LINE
  5
3C03
330
1F
100
AcDbEntity
  8
想像線
100
AcDbLine
 10
154.6224896369902
 20
-72.14391500438996
 30
0.0
 11
154.6224896369902
 21
-75.14391500438995
 31
0.0
  0
LINE
  5
3C04
330
1F
100
AcDbEntity
  8
太線
100
AcDbLine
 10
169.6224896369902
 20
-73.14391500438995
 30
0.0
 11
169.6224896369902
 21
-75.14391500438995
 31
0.0
  0
LINE
  5
3C05
330
1F
100
AcDbEntity
  8
想像線
100
AcDbLine
 10
166.6224896369902
 20
-72.14391500438996
 30
0.0
 11
166.6224896369902
 21
-75.14391500438995
 31
0.0
  0
ARC
  5
3C06
330
1F
100
AcDbEntity
  8
細線
100
AcDbCircle
 10
172.1468519334158
 20
-77.56206994205143
 30
0.0
 40
1.040603392511691
100
AcDbArc
 50
207.0324924700558
 51
343.3477876073676
  0
LINE
  5
3C07
330
1F
100
AcDbEntity
  8
太線
100
AcDbLine
 10
169.6224896369902
 20
-75.66738796628232
 30
0.0
 11
175.6224896369902
 21
-75.66738796628232
 31
0.0
  0
ARC
  5
3C08
330
1F
100
AcDbEntity
  8
細線
100
AcDbCircle
 10
174.6012451215334
 20
-77.56206994205143
 30
0.0
 40
1.040603392511691
100
AcDbArc
 50
207.0324924700558
 51
343.3477876073676
  0
LINE
  5
3C09
330
1F
100
AcDbEntity
  8
太線
100
AcDbLine
 10
176.6224896369902
 20
-76.66738796628232
 30
0.0
 11
176.6224896369902
 21
-78.66738796628232
 31
0.0
  0
ARC
  5
3C0A
330
1F
100
AcDbEntity
  8
太線
100
AcDbCircle
 10
175.6224896369902
 20
-76.66738796628232
 30
0.0
 40
1.0
100
AcDbArc
 50
0.000000000000007
 51
90.0
  0
ARC
  5
3C0B
330
1F
100
AcDbEntity
  8
細線
100
AcDbCircle
 10
169.2379415498117
 20
-77.56206994205143
 30
0.0
 40
1.040603392511691
100
AcDbArc
 50
207.0324924700558
 51
343.3477876073676
  0
ARC
  5
3C0C
330
1F
100
AcDbEntity
  8
細線
100
AcDbCircle
 10
166.7835483616942
 20
-77.56206994205143
 30
0.0
 40
1.040603392511691
100
AcDbArc
 50
207.0324924700558
 51
343.3477876073676
  0
ARC
  5
3C0D
330
1F
100
AcDbEntity
  8
細線
100
AcDbCircle
 10
158.8749488277377
 20
-77.56206994205143
 30
0.0
 40
1.040603392511691
100
AcDbArc
 50
207.0324924700558
 51
343.3477876073676
  0
ARC
  5
3C0E
330
1F
100
AcDbEntity
  8
細線
100
AcDbCircle
 10
164.2382523994593
 20
-77.56206994205143
 30
0.0
 40
1.040603392511691
100
AcDbArc
 50
207.0324924700558
 51
343.3477876073676
  0
ARC
  5
3C0F
330
1F
100
AcDbEntity
  8
細線
100
AcDbCircle
 10
161.7838592113417
 20
-77.56206994205143
 30
0.0
 40
1.040603392511691
100
AcDbArc
 50
207.0324924700558
 51
343.3477876073676
  0
ARC
  5
3C10
330
1F
100
AcDbEntity
  8
細線
100
AcDbCircle
 10
156.4205556396201
 20
-77.56206994205143
 30
0.0
 40
1.040603392511691
100
AcDbArc
 50
207.0324924700558
 51
343.3477876073676
  0
LINE
  5
3C11
330
1F
100
AcDbEntity
  8
太線
100
AcDbLine
 10
165.6224896369902
 20
-72.14391500438996
 30
0.0
 11
154.6224896369902
 21
-72.14391500438996
 31
0.0
  0
LINE
  5
3C12
330
1F
100
AcDbEntity
  8
太線
100
AcDbLine
 10
165.6224896369902
 20
-72.14391500438996
 30
0.0
 11
168.6224896369902
 21
-72.14391500438996
 31
0.0
  0
ARC
  5
3C13
330
1F
100
AcDbEntity
  8
太線
100
AcDbCircle
 10
168.6224896369902
 20
-73.14391500438995
 30
0.0
 40
1.0
100
AcDbArc
 50
0.000000000000007
 51
90.0
  0
LINE
  5
3C16
330
1F
100
AcDbEntity
  8
太線
100
AcDbLine
 10
165.502434351258
 20
-72.53667055959187
 30
0.0
 11
165.502434351258
 21
-74.82353396490504
 31
0.0
  0
LINE
  5
3C17
330
1F
100
AcDbEntity
  8
太線
100
AcDbLine
 10
151.6224896369902
 20
-73.14391500438995
 30
0.0
 11
151.6224896369902
 21
-75.14391500438995
 31
0.0
  0
LINE
  5
3C18
330
1F
100
AcDbEntity
  8
太線
100
AcDbLine
 10
141.6224896369902
 20
-78.66738796628232
 30
0.0
 11
134.6224896369902
 21
-80.66738796628232
 31
0.0
  0
ARC
  5
3C19
330
1F
100
AcDbEntity
  8
細線
100
AcDbCircle
 10
145.8757557068614
 20
-77.56206994205143
 30
0.0
 40
1.040603392511691
100
AcDbArc
 50
207.0324924700558
 51
343.3477876073676
  0
LINE
  5
3C1A
330
1F
100
AcDbEntity
  8
太線
100
AcDbLine
 10
151.6224896369902
 20
-75.66738796628232
 30
0.0
 11
145.6224896369902
 21
-75.66738796628232
 31
0.0
  0
ARC
  5
3C1B
330
1F
100
AcDbEntity
  8
細線
100
AcDbCircle
 10
151.2390592785831
 20
-77.56206994205143
 30
0.0
 40
1.040603392511691
100
AcDbArc
 50
207.0324924700558
 51
343.3477876073676
  0
ARC
  5
3C1C
330
1F
100
AcDbEntity
  8
細線
100
AcDbCircle
 10
148.330148894979
 20
-77.56206994205143
 30
0.0
 40
1.040603392511691
100
AcDbArc
 50
207.0324924700558
 51
343.3477876073676
  0
ARC
  5
3C1D
330
1F
100
AcDbEntity
  8
太線
100
AcDbCircle
 10
145.6224896369902
 20
-76.66738796628232
 30
0.0
 40
1.0
100
AcDbArc
 50
90.0
 51
180.0
  0
LINE
  5
3C1E
330
1F
100
AcDbEntity
  8
太線
100
AcDbLine
 10
144.6224896369902
 20
-76.66738796628232
 30
0.0
 11
144.6224896369902
 21
-78.66738796628232
 31
0.0
  0
LINE
  5
3C1F
330
1F
100
AcDbEntity
  8
太線
100
AcDbLine
 10
144.6224896369902
 20
-78.66738796628232
 30
0.0
 11
141.6224896369902
 21
-78.66738796628232
 31
0.0
  0
ARC
  5
3C20
330
1F
100
AcDbEntity
  8
太線
100
AcDbCircle
 10
152.6224896369902
 20
-73.14391500438995
 30
0.0
 40
1.0
100
AcDbArc
 50
90.0
 51
180.0
  0
LINE
  5
3C21
330
1F
100
AcDbEntity
  8
想像線
100
AcDbLine
 10
150.6224896369902
 20
-62.14391500438996
 30
0.0
 11
150.6224896369902
 21
-61.64391500438995
 31
0.0
  0
LINE
  5
3C22
330
1F
100
AcDbEntity
  8
太線
100
AcDbLine
 10
165.6224896369902
 20
-38.14391500438995
 30
0.0
 11
155.6224896369902
 21
-38.14391500438995
 31
0.0
  0
LINE
  5
3C23
330
1F
100
AcDbEntity
  8
太線
100
AcDbLine
 10
166.6224896369902
 20
-39.44462738119545
 30
0.0
 11
165.6224896369902
 21
-38.14391500438995
 31
0.0
  0
LINE
  5
3C24
330
1F
100
AcDbEntity
  8
太線
100
AcDbLine
 10
155.6224896369902
 20
-38.14391500438995
 30
0.0
 11
154.6224896369902
 21
-39.44462738119545
 31
0.0
  0
ARC
  5
3C76
330
1F
100
AcDbEntity
  8
太線
100
AcDbCircle
 10
13.77764617036152
 20
-107.8466837937031
 30
0.0
 40
10.29441497526703
100
AcDbArc
 50
0.8334727907720777
 51
113.3327606800254
  0
ARC
  5
3C77
330
1F
100
AcDbEntity
  8
太線
100
AcDbCircle
 10
13.77764617036152
 20
-107.8466837937031
 30
0.0
 40
11.89190493022338
100
AcDbArc
 50
11.14775259192445
 51
108.7433120461438
  0
LINE
  5
3C7A
330
1F
100
AcDbEntity
  8
太線
100
AcDbLine
 10
-4.713007458946119
 20
-86.68122803158446
 30
0.0
 11
-5.992128947925557
 21
-88.23567709053053
 31
0.0
  0
LINE
  5
3C7B
330
1F
100
AcDbEntity
  8
太線
100
AcDbLine
 10
-5.992128947925557
 20
-88.23567709053053
 30
0.0
 11
9.486373570169991
 21
-98.48933592404225
 31
0.0
  0
LINE
  5
3C7C
330
1F
100
AcDbEntity
  8
太線
100
AcDbLine
 10
-4.713007458946119
 20
-86.68122803158446
 30
0.0
 11
10.37877331408746
 21
-96.45084831856776
 31
0.0
  0
LINE
  5
3C7E
330
1F
100
AcDbEntity
  8
太線
100
AcDbLine
 10
40.11408105345383
 20
-115.6999130975421
 30
0.0
 11
38.86382856238062
 21
-117.2730504181222
 31
0.0
  0
LINE
  5
3C7F
330
1F
100
AcDbEntity
  8
太線
100
AcDbLine
 10
38.86382856238062
 20
-117.2730504181222
 30
0.0
 11
24.07097196074514
 21
-107.6969378220523
 31
0.0
  0
LINE
  5
3C80
330
1F
100
AcDbEntity
  8
太線
100
AcDbLine
 10
25.03241987909631
 20
-105.9368437032606
 30
0.0
 11
40.11408105345383
 21
-115.6999130975421
 31
0.0
  0
ARC
  5
3C81
330
1F
100
AcDbEntity
  8
太線
100
AcDbCircle
 10
7.035750068173673
 20
-91.5797396992508
 30
0.0
 40
13.45021882309577
100
AcDbArc
 50
165.60382972368
 51
257.5871520373372
  0
ARC
  5
3C82
330
1F
100
AcDbEntity
  8
太線
100
AcDbCircle
 10
30.47837889755385
 20
-102.0488630796984
 30
0.0
 40
17.38078381997681
100
AcDbArc
 50
232.8302235075272
 51
298.845878638814
  0
ARC
  5
3C84
330
1F
100
AcDbEntity
  8
太線
100
AcDbCircle
 10
13.77764617036152
 20
-107.8466837937031
 30
0.0
 40
10.29441497526703
100
AcDbArc
 50
162.0781020914777
 51
307.7977419633961
  0
LINE
  5
3C85
330
1F
100
AcDbEntity
  8
太線
100
AcDbLine
 10
25.50003716653691
 20
-105.4655960769855
 30
0.0
 11
25.50003716653691
 21
-106.2553799910517
 31
0.0
  0
ARC
  5
3C86
330
1F
100
AcDbEntity
  8
太線
100
AcDbCircle
 10
14.01572565508135
 20
-107.1439150043899
 30
0.0
 40
18.08191140861927
100
AcDbArc
 50
349.8589807309198
 51
21.64302890254994
  0
ARC
  5
3C88
330
1F
100
AcDbEntity
  8
太線
100
AcDbCircle
 10
14.01572565508135
 20
-107.1439150043899
 30
0.0
 40
25.0
100
AcDbArc
 50
144.6298252566891
 51
333.2031153831637
  0
ARC
  5
3C89
330
1F
100
AcDbEntity
  8
太線
100
AcDbCircle
 10
14.01572565508135
 20
-107.1439150043899
 30
0.0
 40
18.08191140861927
100
AcDbArc
 50
159.0470096184023
 51
318.2895364935149
  0
LINE
  5
3C8A
330
1F
100
AcDbEntity
  8
太線
100
AcDbLine
 10
37.2953158362309
 20
-116.257678277469
 30
0.0
 11
38.86382856238061
 21
-117.2730504181222
 31
0.0
  0
ARC
  5
3C8B
330
1F
100
AcDbEntity
  8
太線
100
AcDbCircle
 10
14.01572565508135
 20
-107.1439150043899
 30
0.0
 40
25.0
100
AcDbArc
 50
343.3433214437106
 51
27.82709275197295
  0
LINE
  5
3C90
330
1F
100
AcDbEntity
  8
太線
100
AcDbLine
 10
157.2407705765527
 20
-136.3042552029622
 30
0.0
 11
187.6453995040575
 21
-155.9866031018338
 31
0.0
  0
LINE
  5
3C91
330
1F
100
AcDbEntity
  8
太線
100
AcDbLine
 10
187.6453995040575
 20
-155.9866031018338
 30
0.0
 11
185.1248904820538
 21
-159.1580479401232
 31
0.0
  0
ARC
  5
3C92
330
1F
100
AcDbEntity
  8
太線
100
AcDbCircle
 10
134.5511467797434
 20
-140.1544928252944
 30
0.0
 40
20.75354059013834
100
AcDbArc
 50
0.8334727907720777
 51
113.3327606800254
  0
ARC
  5
3C93
330
1F
100
AcDbEntity
  8
太線
100
AcDbCircle
 10
134.5511467797434
 20
-140.1544928252944
 30
0.0
 40
23.97408033933034
100
AcDbArc
 50
11.14775259192445
 51
108.7433120461438
  0
LINE
  5
3C95
330
1F
100
AcDbEntity
  8
太線
100
AcDbLine
 10
97.27398906305921
 20
-97.48493400886317
 30
0.0
 11
127.6990191014949
 21
-117.1804885074214
 31
0.0
  0
LINE
  5
3C96
330
1F
100
AcDbEntity
  8
太線
100
AcDbLine
 10
94.69528014127664
 20
-100.6187033116984
 30
0.0
 11
125.8999412177572
 21
-121.290079520058
 31
0.0
  0
CIRCLE
  5
3C99
330
1F
100
AcDbEntity
  8
太線
100
AcDbCircle
 10
135.0311150209386
 20
-138.7377109460389
 30
0.0
 40
4.432682340555196
  0
LINE
  5
3C9A
330
1F
100
AcDbEntity
  8
太線
100
AcDbLine
 10
181.962768826136
 20
-157.1110577045664
 30
0.0
 11
185.1248904820538
 21
-159.1580479401232
 31
0.0
  0
LINE
  5
3C9C
330
1F
100
AcDbEntity
  8
太線
100
AcDbLine
 10
185.1248904820538
 20
-159.1580479401232
 30
0.0
 11
155.3024915731568
 21
-139.8526049464463
 31
0.0
  0
LINE
  5
3C9D
330
1F
100
AcDbEntity
  8
太線
100
AcDbLine
 10
158.183487028033
 20
-135.3542199883917
 30
0.0
 11
158.183487028033
 21
-136.9464243591492
 31
0.0
  0
LINE
  5
3C9F
330
1F
100
AcDbEntity
  8
太線
100
AcDbLine
 10
97.27398906305921
 20
-97.48493400886317
 30
0.0
 11
94.69528014127664
 21
-100.6187033116984
 31
0.0
  0
ARC
  5
3CA1
330
1F
100
AcDbEntity
  8
太線
100
AcDbCircle
 10
135.0311150209386
 20
-138.7377109460389
 30
0.0
 40
12.76811044127669
100
AcDbArc
 50
175.5347774827814
 51
298.4483388205489
  0
ARC
  5
3CA2
330
1F
100
AcDbEntity
  8
太線
100
AcDbCircle
 10
113.0520135072412
 20
-104.1125889576322
 30
0.0
 40
18.68627562613751
100
AcDbArc
 50
169.2236388496548
 51
251.8562829536756
  0
ARC
  5
3CA3
330
1F
100
AcDbEntity
  8
太線
100
AcDbCircle
 10
130.4906103077815
 20
-114.8810990325818
 30
0.0
 40
24.28485361371379
100
AcDbArc
 50
196.7249933994312
 51
250.2936280925077
  0
ARC
  5
3CA4
330
1F
100
AcDbEntity
  8
太線
100
AcDbCircle
 10
174.8398232268746
 20
-141.7359964234278
 30
0.0
 40
20.23142326911166
100
AcDbArc
 50
226.4713641225224
 51
300.5553783261794
  0
ARC
  5
3CA5
330
1F
100
AcDbEntity
  8
太線
100
AcDbCircle
 10
157.2681409359809
 20
-133.9507605306807
 30
0.0
 40
22.74643303521155
100
AcDbArc
 50
224.7480467826318
 51
279.2031384191452
  0
LINE
  5
3CB8
330
1F
100
AcDbEntity
  8
太線
100
AcDbLine
 10
148.6489235188485
 20
-120.7635356768963
 30
0.0
 11
153.9726758979472
 21
-87.88290630688482
 31
0.0
  0
ARC
  5
3CBA
330
1F
100
AcDbEntity
  8
太線
100
AcDbCircle
 10
135.0311150209386
 20
-138.7377109460389
 30
0.0
 40
44.43547654268127
100
AcDbArc
 50
345.5999998565992
 51
51.29053993726113
  0
ARC
  5
3CBB
330
1F
100
AcDbEntity
  8
太線
100
AcDbCircle
 10
135.0311150209386
 20
-138.7377109460389
 30
0.0
 40
31.50138819427047
100
AcDbArc
 50
353.6972897739823
 51
47.82454902256512
  0
ARC
  5
3CBC
330
1F
100
AcDbEntity
  8
太線
100
AcDbCircle
 10
135.0311150209386
 20
-138.7377109460389
 30
0.0
 40
31.50138819427047
100
AcDbArc
 50
150.3412279622816
 51
325.6270000397198
  0
ARC
  5
3CBD
330
1F
100
AcDbEntity
  8
太線
100
AcDbCircle
 10
135.0311150209386
 20
-138.7377109460389
 30
0.0
 40
44.43547654268127
100
AcDbArc
 50
147.2559511148456
 51
328.6131677763223
  0
TEXT
  5
3CBE
330
1F
100
AcDbEntity
  8
文字
100
AcDbText
 10
136.8248995467811
 20
-95.50861266278207
 30
0.0
 40
5.759999999999999
  1
100                       
 51
15.0
  7
OKANO
100
AcDbText
  0
TEXT
  5
3CBF
330
1F
100
AcDbEntity
  8
文字
100
AcDbText
 10
27.07444773485031
 20
-91.09175836462828
 30
0.0
 40
5.759999999999999
  1
65                                                                                                                 
 51
15.0
  7
OKANO
100
AcDbText
  0
LINE
  5
3D92
330
1F
100
AcDbEntity
  8
想像線
100
AcDbLine
 10
378.4407302211598
 20
31.53560319628479
 30
0.0
 11
378.4407302211597
 21
19.48405216556758
 31
0.0
  0
LINE
  5
3D93
330
1F
100
AcDbEntity
  8
太線
100
AcDbLine
 10
419.4021533165871
 20
31.53560319628479
 30
0.0
 11
419.4021533165871
 21
-28.4643968037152
 31
0.0
  0
LINE
  5
3D94
330
1F
100
AcDbEntity
  8
想像線
100
AcDbLine
 10
330.3635764120144
 20
31.53560319628479
 30
0.0
 11
330.3635764120144
 21
19.4840521655675
 31
0.0
  0
CIRCLE
  5
3D95
330
1F
100
AcDbEntity
  8
太線
100
AcDbCircle
 10
354.4021533165871
 20
1.535603196284796
 30
0.0
 40
30.0
  0
LINE
  5
3D96
330
1F
100
AcDbEntity
  8
太線
100
AcDbLine
 10
324.4860735334875
 20
66.53560319628479
 30
0.0
 11
324.821754401089
 21
6.535603196284796
 31
0.0
  0
LINE
  5
3D99
330
1F
100
AcDbEntity
  8
想像線
100
AcDbLine
 10
419.4021533165871
 20
26.53560319628479
 30
0.0
 11
384.9919300605875
 21
26.53560319628479
 31
0.0
  0
LINE
  5
3D9A
330
1F
100
AcDbEntity
  8
想像線
100
AcDbLine
 10
384.4021533165871
 20
-23.4643968037152
 30
0.0
 11
419.4021533165871
 21
-23.4643968037152
 31
0.0
  0
LINE
  5
3D9B
330
1F
100
AcDbEntity
  8
太線
100
AcDbLine
 10
419.4021533165871
 20
-28.4643968037152
 30
0.0
 11
354.4021533165871
 21
-28.4643968037152
 31
0.0
  0
LINE
  5
3D9C
330
1F
100
AcDbEntity
  8
太線
100
AcDbLine
 10
335.4021533165871
 20
-28.46439680371523
 30
0.0
 11
373.4021533165871
 21
-28.46439680371523
 31
0.0
  0
CIRCLE
  5
3D9D
330
1F
100
AcDbEntity
  8
細線
100
AcDbCircle
 10
354.4021533165871
 20
1.535603196284796
 30
0.0
 40
24.03857690457265
  0
CIRCLE
  5
3D9E
330
1F
100
AcDbEntity
  8
太線
100
AcDbCircle
 10
354.4021533165871
 20
1.535603196284796
 30
0.0
 40
25.0
  0
LINE
  5
3D9F
330
1F
100
AcDbEntity
  8
太線
100
AcDbLine
 10
334.4021533165871
 20
-20.82507657871312
 30
0.0
 11
334.4021533165871
 21
-27.46439680371523
 31
0.0
  0
ARC
  5
3DA0
330
1F
100
AcDbEntity
  8
太線
100
AcDbCircle
 10
335.1341101416372
 20
-29.44635362876536
 30
0.0
 40
1.0
100
AcDbArc
 50
82.29795315063654
 51
98.89579528650337
  0
ARC
  5
3DA1
330
1F
100
AcDbEntity
  8
太線
100
AcDbCircle
 10
335.4021533165871
 20
-27.46439680371523
 30
0.0
 40
1.0
100
AcDbArc
 50
262.2979531506369
 51
270.0
  0
ARC
  5
3DA2
330
1F
100
AcDbEntity
  8
太線
100
AcDbCircle
 10
334.9021533165871
 20
-27.96439680371523
 30
0.0
 40
0.5
100
AcDbArc
 50
180.0
 51
278.8957952865034
  0
LINE
  5
3DA3
330
1F
100
AcDbEntity
  8
想像線
100
AcDbLine
 10
384.9919300605875
 20
26.53560319628479
 30
0.0
 11
384.4021533165871
 21
-23.4643968037152
 31
0.0
  0
LINE
  5
3DA4
330
1F
100
AcDbEntity
  8
太線
100
AcDbLine
 10
341.0659927147852
 20
-18.46439680371523
 30
0.0
 11
367.738313918389
 21
-18.46439680371523
 31
0.0
  0
LINE
  5
3DA5
330
1F
100
AcDbEntity
  8
想像線
100
AcDbLine
 10
374.4021533165871
 20
-22.50297370828787
 30
0.0
 11
384.4021533165871
 21
-22.50297370828787
 31
0.0
  0
ARC
  5
3DAA
330
1F
100
AcDbEntity
  8
太線
100
AcDbCircle
 10
373.4021533165871
 20
-27.46439680371523
 30
0.0
 40
1.0
100
AcDbArc
 50
270.0
 51
0.0
  0
LINE
  5
3DAC
330
1F
100
AcDbEntity
  8
太線
100
AcDbLine
 10
374.4021533165871
 20
-27.46439680371523
 30
0.0
 11
374.4021533165871
 21
-20.82507657871312
 31
0.0
  0
LINE
  5
3DAD
330
1F
100
AcDbEntity
  8
太線
100
AcDbLine
 10
374.4021533165871
 20
-20.82507657871312
 30
0.0
 11
374.4021533165871
 21
-22.50297370828787
 31
0.0
  0
LINE
  5
3DAE
330
1F
100
AcDbEntity
  8
想像線
100
AcDbLine
 10
372.3506022858698
 20
25.57418010085746
 30
0.0
 11
384.9805895609309
 21
25.57418010085746
 31
0.0
  0
LINE
  5
3DB3
330
1F
100
AcDbEntity
  8
太線
100
AcDbLine
 10
384.4021533165871
 20
31.53560319628479
 30
0.0
 11
419.4021533165871
 21
31.53560319628479
 31
0.0
  0
LINE
  5
3DB5
330
1F
100
AcDbEntity
  8
太線
100
AcDbLine
 10
324.4860735334875
 20
66.53560319628479
 30
0.0
 11
384.4021533165871
 21
66.53560319628479
 31
0.0
  0
LINE
  5
3DB6
330
1F
100
AcDbEntity
  8
想像線
100
AcDbLine
 10
329.4021533165871
 20
31.53560319628479
 30
0.0
 11
379.4021533165871
 21
31.53560319628479
 31
0.0
  0
LINE
  5
3DB7
330
1F
100
AcDbEntity
  8
想像線
100
AcDbLine
 10
329.4021533165871
 20
66.53560319628479
 30
0.0
 11
329.4021533165871
 21
31.53560319628479
 31
0.0
  0
LINE
  5
3DBD
330
1F
100
AcDbEntity
  8
太線
100
AcDbLine
 10
384.4021533165871
 20
66.53560319628479
 30
0.0
 11
384.4021533165871
 21
31.53560319628479
 31
0.0
  0
LINE
  5
3DBE
330
1F
100
AcDbEntity
  8
想像線
100
AcDbLine
 10
379.4021533165871
 20
31.53560319628479
 30
0.0
 11
379.4021533165871
 21
66.53560319628479
 31
0.0
  0
ARC
  5
3EAB
330
1F
100
AcDbEntity
  8
太線
370
    25
100
AcDbCircle
 10
302.0039218176767
 20
-131.726014024504
 30
0.0
 40
69.29999999999999
100
AcDbArc
 50
139.7285373065004
 51
321.2685101183006
  0
ARC
  5
3EAC
330
1F
100
AcDbEntity
  8
太線
370
    25
100
AcDbCircle
 10
302.0039218176767
 20
-131.726014024504
 30
0.0
 40
56.79399025411245
100
AcDbArc
 50
137.4046456189236
 51
319.4218394604528
  0
ARC
  5
3EAD
330
1F
100
AcDbEntity
  8
太線
370
    25
100
AcDbCircle
 10
291.5614616148001
 20
-95.29133199962041
 30
0.0
 40
24.47184618185459
100
AcDbArc
 50
175.4287099076642
 51
238.5737859093245
  0
LINE
  5
3EAE
330
1F
100
AcDbEntity
  8
太線
370
    25
100
AcDbLine
 10
246.0570137904146
 20
-66.23607559925403
 30
0.0
 11
294.8754933031185
 21
-107.9795034931442
 31
0.0
  0
LINE
  5
3EAF
330
1F
100
AcDbEntity
  8
太線
370
    25
100
AcDbLine
 10
247.6383401202716
 20
-63.86623888333923
 30
0.0
 11
295.7430159621842
 21
-104.4855924846108
 31
0.0
  0
ARC
  5
3EB0
330
1F
100
AcDbEntity
  8
太線
370
    25
100
AcDbCircle
 10
302.0039218176767
 20
-131.726014024504
 30
0.0
 40
27.95066202798101
100
AcDbArc
 50
146.1672774633285
 51
242.3066409760148
  0
ARC
  5
3EB1
330
1F
100
AcDbEntity
  8
太線
370
    25
100
AcDbCircle
 10
302.0039218176767
 20
-131.726014024504
 30
0.0
 40
27.95066202798101
100
AcDbArc
 50
146.1672774633285
 51
242.3066409760148
  0
CIRCLE
  5
3EB2
330
1F
100
AcDbEntity
  8
太線
370
    25
100
AcDbCircle
 10
273.8573884607493
 20
-169.4293120407014
 30
0.0
 40
5.943292661901378
  0
ARC
  5
3EB3
330
1F
100
AcDbEntity
  8
太線
370
    25
100
AcDbCircle
 10
302.0039218176767
 20
-131.6730039235721
 30
0.0
 40
33.06860997012282
100
AcDbArc
 50
145.6693984280073
 51
245.0534990903223
  0
ARC
  5
3EB4
330
1F
100
AcDbEntity
  8
太線
370
    25
100
AcDbCircle
 10
302.0039218176767
 20
-131.726014024504
 30
0.0
 40
56.79399025411245
100
AcDbArc
 50
100.4669265523306
 51
122.6442916331788
  0
ARC
  5
3EB5
330
1F
100
AcDbEntity
  8
太線
370
    25
100
AcDbCircle
 10
302.0039218176767
 20
-131.726014024504
 30
0.0
 40
69.29999999999999
100
AcDbArc
 50
105.622839729085
 51
125.8151413634129
  0
CIRCLE
  5
3EB7
330
1F
100
AcDbEntity
  8
太線
370
    25
100
AcDbCircle
 10
260.1837116517468
 20
-150.8473006210414
 30
0.0
 40
2.984652880286199
  0
ARC
  5
3EB8
330
1F
100
AcDbEntity
  8
太線
370
    25
100
AcDbCircle
 10
263.829674620859
 20
-74.14924973334223
 30
0.0
 40
19.4797786585114
100
AcDbArc
 50
156.4209316711254
 51
279.866102722987
  0
CIRCLE
  5
3EB9
330
1F
100
AcDbEntity
  8
太線
370
    25
100
AcDbCircle
 10
257.0080714369199
 20
-127.4730039235722
 30
0.0
 40
5.943292661901378
  0
CIRCLE
  5
3EBA
330
1F
100
AcDbEntity
  8
太線
370
    25
100
AcDbCircle
 10
264.8387957621918
 20
-104.8934903633721
 30
0.0
 40
2.984652880286199
  0
LINE
  5
3EBB
330
1F
100
AcDbEntity
  8
太線
370
    25
100
AcDbLine
 10
245.9762835930959
 20
-66.35706099112195
 30
0.0
 11
247.6383401202716
 21
-63.86623888333923
 31
0.0
  0
ARC
  5
3EBC
330
1F
100
AcDbEntity
  8
太線
370
    25
100
AcDbCircle
 10
302.0039218176767
 20
-131.726014024504
 30
0.0
 40
56.79399025411245
100
AcDbArc
 50
337.0005399087125
 51
39.00098492561957
  0
ARC
  5
3EBD
330
1F
100
AcDbEntity
  8
太線
370
    25
100
AcDbCircle
 10
302.0039218176767
 20
-131.726014024504
 30
0.0
 40
69.29999999999999
100
AcDbArc
 50
333.8296901784771
 51
42.26709966043594
  0
LINE
  5
3EBE
330
1F
100
AcDbEntity
  8
太線
370
    25
100
AcDbLine
 10
326.5693692993461
 20
-135.0801227777353
 30
0.0
 11
374.3699097076846
 21
-175.9531370899737
 31
0.0
  0
LINE
  5
3EBF
330
1F
100
AcDbEntity
  8
太線
370
    25
100
AcDbLine
 10
329.9082600870089
 20
-133.3345579477751
 30
0.0
 11
376.4474756488163
 21
-172.6320445256558
 31
0.0
  0
ARC
  5
3EC1
330
1F
100
AcDbEntity
  8
太線
370
    25
100
AcDbCircle
 10
366.6885462597261
 20
-144.485872665104
 30
0.0
 40
32.39123453658873
100
AcDbArc
 50
214.1493703220059
 51
283.7179952661997
  0
ARC
  5
3EC2
330
1F
100
AcDbEntity
  8
太線
370
    25
100
AcDbCircle
 10
332.089225407874
 20
-144.6037004306336
 30
0.0
 40
19.67431709545192
100
AcDbArc
 50
214.0210774011556
 51
293.3348659098706
  0
CIRCLE
  5
3EC3
330
1F
100
AcDbEntity
  8
太線
370
    25
100
AcDbCircle
 10
318.6172756511051
 20
-175.815529520212
 30
0.0
 40
5.943292661901378
  0
CIRCLE
  5
3EC4
330
1F
100
AcDbEntity
  8
太線
370
    25
100
AcDbCircle
 10
297.3488377072318
 20
-177.328219153971
 30
0.0
 40
2.984652880286199
  0
LINE
  5
3EC5
330
1F
100
AcDbEntity
  8
太線
370
    25
100
AcDbLine
 10
287.5795567238295
 20
-164.237077049175
 30
0.0
 11
307.7452626313381
 21
-167.3074977147264
 31
0.0
  0
LINE
  5
3EC6
330
1F
100
AcDbEntity
  8
太線
370
    25
100
AcDbLine
 10
303.9630476576201
 20
-155.4603672413382
 30
0.0
 11
291.9129831649683
 21
-153.3102864093367
 31
0.0
  0
LINE
  5
3EC7
330
1F
100
AcDbEntity
  8
太線
370
    25
100
AcDbLine
 10
289.2292725954762
 20
-155.3108678241711
 30
0.0
 11
287.5795567238295
 21
-164.237077049175
 31
0.0
  0
ARC
  5
3EC8
330
1F
100
AcDbEntity
  8
太線
370
    25
100
AcDbCircle
 10
291.5441081988725
 20
-155.3776352573515
 30
0.0
 40
2.099999999999999
100
AcDbArc
 50
79.8832374928176
 51
153.416676368777
  0
LINE
  5
3EC9
330
1F
100
AcDbEntity
  8
太線
370
    25
100
AcDbLine
 10
289.6661107013635
 20
-154.4378877384135
 30
0.0
 11
289.2292725954762
 21
-155.3108678241711
 31
0.0
  0
ARC
  5
3ECA
330
1F
100
AcDbEntity
  8
太線
370
    25
100
AcDbCircle
 10
302.0039218176767
 20
-131.6730039235721
 30
0.0
 40
33.06860997012282
100
AcDbArc
 50
278.4820078298612
 51
301.9591848450592
  0
ARC
  5
3ECB
330
1F
100
AcDbEntity
  8
太線
370
    25
100
AcDbCircle
 10
302.0039218176767
 20
-131.726014024504
 30
0.0
 40
27.95066202798101
100
AcDbArc
 50
279.3459000063314
 51
300.0409203135248
  0
LINE
  5
3ECC
330
1F
100
AcDbEntity
  8
太線
370
    25
100
AcDbLine
 10
307.7452626313381
 20
-167.3074977147264
 30
0.0
 11
306.8838884413571
 21
-164.4156686391291
 31
0.0
  0
ARC
  5
3ECD
330
1F
100
AcDbEntity
  8
太線
370
    25
100
AcDbCircle
 10
304.3283998978452
 20
-157.6587235079117
 30
0.0
 40
2.099999999999999
100
AcDbArc
 50
3.817085799385099
 51
79.8832374928176
  0
LINE
  5
3ECE
330
1F
100
AcDbEntity
  8
太線
370
    25
100
AcDbLine
 10
304.6972748639409
 20
-155.5913746598969
 30
0.0
 11
303.9630476576201
 21
-155.4603672413382
 31
0.0
  0
LINE
  5
3ECF
330
1F
100
AcDbEntity
  8
太線
370
    25
100
AcDbLine
 10
306.8838884413571
 20
-164.4156686391291
 30
0.0
 11
306.4237413855701
 21
-157.5189234727949
 31
0.0
  0
LINE
  5
3ED0
330
1F
100
AcDbEntity
  8
太線
370
    25
100
AcDbLine
 10
373.4839469403259
 20
-176.0158194070038
 30
0.0
 11
376.9429083809514
 21
-173.0536861941801
 31
0.0
  0
LINE
  5
3ED1
330
1F
100
AcDbEntity
  8
太線
370
    25
100
AcDbLine
 10
369.2039218176767
 20
-60.91076656171356
 30
0.0
 11
331.9274603737991
 21
-117.5976777946198
 31
0.0
  0
ARC
  5
3ED2
330
1F
100
AcDbEntity
  8
太線
370
    25
100
AcDbCircle
 10
364.1970236188618
 20
-41.35776843802943
 30
0.0
 40
2.185267124274552
100
AcDbArc
 50
207.0324924700536
 51
343.3477876073678
  0
LINE
  5
3ED4
330
1F
100
AcDbEntity
  8
太線
370
    25
100
AcDbLine
 10
390.2039218176767
 20
-41.57893628891429
 30
0.0
 11
323.0039218176767
 21
-41.57893628891429
 31
0.0
  0
LINE
  5
3ED5
330
1F
100
AcDbEntity
  8
太線
370
    25
100
AcDbLine
 10
390.2039218176767
 20
-43.67893628891437
 30
0.0
 11
323.0039218176767
 21
-43.67893628891437
 31
0.0
  0
LINE
  5
3ED7
330
1F
100
AcDbEntity
  8
太線
370
    25
100
AcDbLine
 10
371.3039218176768
 20
-37.3789362889143
 30
0.0
 11
337.7039218176767
 21
-37.3789362889143
 31
0.0
  0
LINE
  5
3ED8
330
1F
100
AcDbEntity
  8
太線
370
    25
100
AcDbLine
 10
293.5987740067778
 20
-103.3950922883824
 30
0.0
 11
291.1264108749175
 21
-67.82145502890279
 31
0.0
  0
LINE
  5
3ED9
330
1F
100
AcDbEntity
  8
太線
370
    25
100
AcDbLine
 10
328.220592785404
 20
-111.4419908765247
 30
0.0
 11
328.220592785404
 21
-48.99316965168236
 31
0.0
  0
LINE
  5
3EDA
330
1F
100
AcDbEntity
  8
太線
370
    25
100
AcDbLine
 10
302.3754845190662
 20
-47.82666946322239
 30
0.0
 11
294.4986139191214
 21
-102.9148011470057
 31
0.0
  0
ARC
  5
3EDB
330
1F
100
AcDbEntity
  8
太線
370
    25
100
AcDbCircle
 10
302.0039218176767
 20
-131.726014024504
 30
0.0
 40
24.79337120085022
100
AcDbArc
 50
352.2250453276531
 51
106.7091503020734
  0
ARC
  5
3EDC
330
1F
100
AcDbEntity
  8
太線
370
    25
100
AcDbCircle
 10
304.3133332898261
 20
-128.6813814740625
 30
0.0
 40
25.66878540014194
100
AcDbArc
 50
349.1585098697644
 51
109.504500789992
  0
CIRCLE
  5
3EDD
330
1F
100
AcDbEntity
  8
太線
370
    25
100
AcDbCircle
 10
302.0039218176767
 20
-131.726014024504
 30
0.0
 40
6.926066157117495
  0
CIRCLE
  5
3EDE
330
1F
100
AcDbEntity
  8
太線
370
    25
100
AcDbCircle
 10
302.0039218176767
 20
-131.726014024504
 30
0.0
 40
4.61737743807833
  0
ARC
  5
3EDF
330
1F
100
AcDbEntity
  8
太線
370
    25
100
AcDbCircle
 10
293.4204464382953
 20
-104.8961022162518
 30
0.0
 40
6.84587681269993
100
AcDbArc
 50
80.07126681834604
 51
121.1492590945551
  0
ARC
  5
3EE0
330
1F
100
AcDbEntity
  8
太線
370
    25
100
AcDbCircle
 10
302.0039218176767
 20
-131.726014024504
 30
0.0
 40
37.23616978930423
100
AcDbArc
 50
109.3258038895588
 51
113.0486645173269
  0
ARC
  5
3EE1
330
1F
100
AcDbEntity
  8
太線
370
    25
100
AcDbCircle
 10
284.9186416034461
 20
-91.90291328595368
 30
0.0
 40
5.943292661901378
100
AcDbArc
 50
293.5542985664574
 51
166.0905329754343
  0
LINE
  5
3EE2
330
1F
100
AcDbEntity
  8
太線
370
    25
100
AcDbLine
 10
305.0696392674335
 20
-99.63437185817804
 30
0.0
 11
304.7518538464002
 21
-103.1272450692152
 31
0.0
  0
LINE
  5
3EE3
330
1F
100
AcDbEntity
  8
太線
370
    25
100
AcDbLine
 10
317.1455494372821
 20
-90.74342087060177
 30
0.0
 11
316.5099721781588
 21
-95.18889453867336
 31
0.0
  0
LINE
  5
3EE4
330
1F
100
AcDbEntity
  8
太線
370
    25
100
AcDbLine
 10
303.4238442166802
 20
-98.93055448841256
 30
0.0
 11
304.9517002049324
 21
-99.235880016296
 31
0.0
  0
LINE
  5
3EE5
330
1F
100
AcDbEntity
  8
太線
370
    25
100
AcDbLine
 10
304.0349853285694
 20
-92.82401106784925
 30
0.0
 11
303.4238442166802
 21
-98.93055448841256
 31
0.0
  0
LINE
  5
3EE6
330
1F
100
AcDbEntity
  8
太線
370
    25
100
AcDbLine
 10
305.8684086642397
 20
-93.43466577504869
 30
0.0
 11
304.0349853285694
 21
-92.82401106784925
 31
0.0
  0
LINE
  5
3EE7
330
1F
100
AcDbEntity
  8
太線
370
    25
100
AcDbLine
 10
317.1745224427339
 20
-101.0678441378948
 30
0.0
 11
315.3410991070636
 21
-100.7625149585788
 31
0.0
  0
LINE
  5
3EE8
330
1F
100
AcDbEntity
  8
太線
370
    25
100
AcDbLine
 10
318.0912309020413
 20
-95.57195542453099
 30
0.0
 11
317.1745224427339
 21
-101.0678441378948
 31
0.0
  0
LINE
  5
3EE9
330
1F
100
AcDbEntity
  8
太線
370
    25
100
AcDbLine
 10
316.2271147900533
 20
-95.18698849062685
 30
0.0
 11
318.0912309020413
 21
-95.57195542453099
 31
0.0
  0
ARC
  5
3EEA
330
1F
100
AcDbEntity
  8
太線
370
    25
100
AcDbCircle
 10
314.9420940547079
 20
-90.27267655599336
 30
0.0
 40
2.099999999999999
100
AcDbArc
 50
351.1123654988787
 51
79.70319271025502
  0
ARC
  5
3EEB
330
1F
100
AcDbEntity
  8
太線
370
    25
100
AcDbCircle
 10
308.3320213211429
 20
-89.07180324554913
 30
0.0
 40
2.099999999999999
100
AcDbArc
 50
79.70319271025502
 51
174.6399248713155
  0
ARC
  5
3EEC
330
1F
100
AcDbEntity
  8
太線
370
    25
100
AcDbCircle
 10
310.0035676119797
 20
-99.6422769004932
 30
0.0
 40
2.730325925043368
100
AcDbArc
 50
185.203185049271
 51
334.2032358544486
  0
LINE
  5
3EED
330
1F
100
AcDbEntity
  8
太線
370
    25
100
AcDbLine
 10
314.8151187383284
 20
-100.3601708548399
 30
0.0
 11
313.4031291036602
 21
-100.3601708548399
 31
0.0
  0
LINE
  5
3EEE
330
1F
100
AcDbEntity
  8
太線
370
    25
100
AcDbLine
 10
304.9311720444813
 20
-98.94930459706968
 30
0.0
 11
306.813827029724
 21
-99.41959456680416
 31
0.0
  0
LINE
  5
3EEF
330
1F
100
AcDbEntity
  8
太線
370
    25
100
AcDbLine
 10
306.3431616791494
 20
-93.77612223285622
 30
0.0
 11
316.2271147900533
 21
-95.18698849062685
 31
0.0
  0
LINE
  5
3EF0
330
1F
100
AcDbEntity
  8
太線
370
    25
100
AcDbLine
 10
315.4250820975093
 20
-100.776501066997
 30
0.0
 11
314.861077689612
 21
-104.3832504003542
 31
0.0
  0
LINE
  5
3EF1
330
1F
100
AcDbEntity
  8
太線
370
    25
100
AcDbLine
 10
308.7073908391175
 20
-87.00562374585036
 30
0.0
 11
315.3174635726825
 21
-88.20649705629449
 31
0.0
  0
LINE
  5
3EF2
330
1F
100
AcDbEntity
  8
太線
370
    25
100
AcDbLine
 10
305.8151187946704
 20
-93.41691662292118
 30
0.0
 11
306.2412039922057
 21
-88.87563266412461
 31
0.0
  0
CIRCLE
  5
3EF3
330
1F
100
AcDbEntity
  8
太線
370
    25
100
AcDbCircle
 10
346.5278458176314
 20
-140.2454388825935
 30
0.0
 40
5.943292661901378
  0
ARC
  5
3EF4
330
1F
100
AcDbEntity
  8
太線
370
    25
100
AcDbCircle
 10
302.0039218176767
 20
-131.6730039235721
 30
0.0
 40
33.06860997012282
100
AcDbArc
 50
350.2211881971295
 51
25.19118575788173
  0
CIRCLE
  5
3EF5
330
1F
100
AcDbEntity
  8
太線
370
    25
100
AcDbCircle
 10
343.8241319836067
 20
-112.9563325561691
 30
0.0
 40
2.984652880286199
  0
LINE
  5
3EF6
330
1F
100
AcDbEntity
  8
太線
370
    25
100
AcDbLine
 10
327.2272932594201
 20
-47.99319210011034
 30
0.0
 11
302.3754845190662
 21
-47.82666946322239
 31
0.0
  0
LINE
  5
3EF7
330
1F
100
AcDbEntity
  8
太線
370
    25
100
AcDbLine
 10
323.0039218176767
 20
-43.67893628891437
 30
0.0
 11
316.7039218176768
 21
-43.67893628891437
 31
0.0
  0
LINE
  5
3EF8
330
1F
100
AcDbEntity
  8
太線
370
    25
100
AcDbLine
 10
283.3369555544195
 20
-58.8795324150077
 30
0.0
 11
302.0048022380481
 21
-54.97542148187119
 31
0.0
  0
ARC
  5
3EF9
330
1F
100
AcDbEntity
  8
太線
370
    25
100
AcDbCircle
 10
283.7668398059709
 20
-60.93506142970642
 30
0.0
 40
2.099999999999999
100
AcDbArc
 50
101.8123351493617
 51
205.0343726300269
  0
ARC
  5
3EFA
330
1F
100
AcDbEntity
  8
太線
370
    25
100
AcDbCircle
 10
286.9233967592817
 20
-70.87509984790194
 30
0.0
 40
5.500149674402688
100
AcDbArc
 50
40.16736151127506
 51
113.8633644315971
  0
LINE
  5
3EFB
330
1F
100
AcDbEntity
  8
太線
370
    25
100
AcDbLine
 10
284.203800522763
 20
-66.83330056836462
 30
0.0
 11
281.864126219725
 21
-61.82370140670276
 31
0.0
  0
LINE
  5
3EFC
330
1F
100
AcDbEntity
  8
太線
370
    25
100
AcDbLine
 10
316.7039218176768
 20
-43.67893628891437
 30
0.0
 11
302.0039218176767
 21
-47.8789362889143
 31
0.0
  0
ARC
  5
3EFD
330
1F
100
AcDbEntity
  8
太線
370
    25
100
AcDbCircle
 10
342.0529437600687
 20
-41.35776843802943
 30
0.0
 40
2.185267124274552
100
AcDbArc
 50
207.0324924700536
 51
343.3477876073678
  0
LINE
  5
3EFF
330
1F
100
AcDbEntity
  8
太線
370
    25
100
AcDbLine
 10
331.8369838541852
 20
-36.86881901735318
 30
0.0
 11
331.8369838541852
 21
-29.41138273423638
 31
0.0
  0
ARC
  5
3F00
330
1F
100
AcDbEntity
  8
太線
370
    25
100
AcDbCircle
 10
325.1039218176767
 20
-39.47893628891438
 30
0.0
 40
2.099999999999999
100
AcDbArc
 50
90.0
 51
180.0
  0
LINE
  5
3F01
330
1F
100
AcDbEntity
  8
太線
370
    25
100
AcDbLine
 10
323.0039218176767
 20
-39.47893628891438
 30
0.0
 11
323.0039218176767
 21
-43.67893628891437
 31
0.0
  0
ARC
  5
3F02
330
1F
100
AcDbEntity
  8
太線
370
    25
100
AcDbCircle
 10
330.7900062594532
 20
-41.35776843802943
 30
0.0
 40
2.185267124274552
100
AcDbArc
 50
207.0324924700536
 51
343.3477876073678
  0
ARC
  5
3F04
330
1F
100
AcDbEntity
  8
太線
370
    25
100
AcDbCircle
 10
336.8987180650217
 20
-41.35776843802943
 30
0.0
 40
2.185267124274552
100
AcDbArc
 50
207.0324924700536
 51
343.3477876073678
  0
ARC
  5
3F05
330
1F
100
AcDbEntity
  8
太線
370
    25
100
AcDbCircle
 10
325.6357805644063
 20
-41.35776843802943
 30
0.0
 40
2.185267124274552
100
AcDbArc
 50
207.0324924700536
 51
343.3477876073678
  0
LINE
  5
3F06
330
1F
100
AcDbEntity
  8
太線
370
    25
100
AcDbLine
 10
337.7039218176767
 20
-37.3789362889143
 30
0.0
 11
325.1039218176767
 21
-37.3789362889143
 31
0.0
  0
ARC
  5
3F08
330
1F
100
AcDbEntity
  8
太線
370
    25
100
AcDbCircle
 10
347.7798604231994
 20
-41.35776843802943
 30
0.0
 40
2.185267124274552
100
AcDbArc
 50
207.0324924700536
 51
343.3477876073678
  0
ARC
  5
3F09
330
1F
100
AcDbEntity
  8
太線
370
    25
100
AcDbCircle
 10
359.0427979238149
 20
-41.35776843802943
 30
0.0
 40
2.185267124274552
100
AcDbArc
 50
207.0324924700536
 51
343.3477876073678
  0
ARC
  5
3F0A
330
1F
100
AcDbEntity
  8
太線
370
    25
100
AcDbCircle
 10
352.9340861182464
 20
-41.35776843802943
 30
0.0
 40
2.185267124274552
100
AcDbArc
 50
207.0324924700536
 51
343.3477876073678
  0
LINE
  5
3F0B
330
1F
100
AcDbEntity
  8
太線
370
    25
100
AcDbLine
 10
396.5039218176768
 20
-46.21076656171356
 30
0.0
 11
396.5039218176768
 21
-58.81076656171365
 31
0.0
  0
LINE
  5
3F0C
330
1F
100
AcDbEntity
  8
太線
370
    25
100
AcDbLine
 10
394.4039218176767
 20
-60.91076656171356
 30
0.0
 11
369.2039218176767
 21
-60.91076656171356
 31
0.0
  0
ARC
  5
3F0D
330
1F
100
AcDbEntity
  8
太線
370
    25
100
AcDbCircle
 10
394.4039218176767
 20
-58.81076656171365
 30
0.0
 40
2.099999999999999
100
AcDbArc
 50
270.0
 51
0.0
  0
ARC
  5
3F0E
330
1F
100
AcDbEntity
  8
太線
370
    25
100
AcDbCircle
 10
385.9593083352174
 20
-41.35776843802943
 30
0.0
 40
2.185267124274552
100
AcDbArc
 50
207.0324924700536
 51
343.3477876073678
  0
LINE
  5
3F0F
330
1F
100
AcDbEntity
  8
太線
370
    25
100
AcDbLine
 10
375.5039218176768
 20
-37.3789362889143
 30
0.0
 11
388.1039218176768
 21
-37.3789362889143
 31
0.0
  0
LINE
  5
3F11
330
1F
100
AcDbEntity
  8
太線
370
    25
100
AcDbLine
 10
383.0024306095623
 20
-29.53320354184723
 30
0.0
 11
383.0024306095623
 21
-36.80018172857751
 31
0.0
  0
LINE
  5
3F12
330
1F
100
AcDbEntity
  8
太線
370
    25
100
AcDbLine
 10
375.5039218176768
 20
-37.3789362889143
 30
0.0
 11
371.3039218176768
 21
-37.3789362889143
 31
0.0
  0
ARC
  5
3F13
330
1F
100
AcDbEntity
  8
太線
370
    25
100
AcDbCircle
 10
374.6963708346019
 20
-41.35776843802943
 30
0.0
 40
2.185267124274552
100
AcDbArc
 50
207.0324924700536
 51
343.3477876073678
  0
ARC
  5
3F14
330
1F
100
AcDbEntity
  8
太線
370
    25
100
AcDbCircle
 10
369.542145139555
 20
-41.35776843802943
 30
0.0
 40
2.185267124274552
100
AcDbArc
 50
207.0324924700536
 51
343.3477876073678
  0
ARC
  5
3F15
330
1F
100
AcDbEntity
  8
太線
370
    25
100
AcDbCircle
 10
380.8050826401705
 20
-41.35776843802943
 30
0.0
 40
2.185267124274552
100
AcDbArc
 50
207.0324924700536
 51
343.3477876073678
  0
LINE
  5
3F16
330
1F
100
AcDbEntity
  8
太線
370
    25
100
AcDbLine
 10
390.2039218176767
 20
-43.67893628891437
 30
0.0
 11
394.4039218176767
 21
-43.67893628891437
 31
0.0
  0
ARC
  5
3F17
330
1F
100
AcDbEntity
  8
太線
370
    25
100
AcDbCircle
 10
388.1039218176768
 20
-39.47893628891438
 30
0.0
 40
2.099999999999999
100
AcDbArc
 50
0.0
 51
90.0
  0
LINE
  5
3F18
330
1F
100
AcDbEntity
  8
太線
370
    25
100
AcDbLine
 10
390.2039218176767
 20
-39.47893628891438
 30
0.0
 11
390.2039218176767
 21
-43.67893628891437
 31
0.0
  0
ARC
  5
3F19
330
1F
100
AcDbEntity
  8
太線
370
    25
100
AcDbCircle
 10
394.4039218176767
 20
-45.77893628891433
 30
0.0
 40
2.099999999999999
100
AcDbArc
 50
0.0
 51
90.0
  0
LINE
  5
40E7
330
1F
100
AcDbEntity
  8
太線
100
AcDbLine
 10
366.6777818241317
 20
4.488609371921926
 30
0.0
 11
346.2876396989796
 21
4.826504729892998
 31
0.0
  0
ARC
  5
40F1
330
1F
100
AcDbEntity
  8
太線
100
AcDbCircle
 10
346.2710704681269
 20
3.826642009021302
 30
0.0
 40
1.0
100
AcDbArc
 50
89.05060955813437
 51
180.0
  0
ARC
  5
40F2
330
1F
100
AcDbEntity
  8
太線
100
AcDbCircle
 10
366.661212593279
 20
3.488746651050231
 30
0.0
 40
1.0
100
AcDbArc
 50
0.0
 51
89.05060955813437
  0
LINE
  5
40F3
330
1F
100
AcDbEntity
  8
太線
100
AcDbLine
 10
367.6612125932791
 20
-18.46439680371523
 30
0.0
 11
367.661212593279
 21
3.488746651050231
 31
0.0
  0
LINE
  5
40F4
330
1F
100
AcDbEntity
  8
太線
100
AcDbLine
 10
345.2710704681269
 20
-18.46439680371523
 30
0.0
 11
345.2710704681269
 21
3.826642009021302
 31
0.0
  0
LINE
  5
40F5
330
1F
100
AcDbEntity
  8
太線
100
AcDbLine
 10
331.8369838541852
 20
-29.41138273423638
 30
0.0
 11
383.0024306095623
 21
-29.53320354184723
 31
0.0
  0
LINE
  5
40F6
330
1F
100
AcDbEntity
  8
太線
100
AcDbLine
 10
367.6612125932791
 20
-29.78425397701812
 30
0.0
 11
367.6612125932791
 21
-29.78425397701812
 31
0.0
  0
LINE
  5
40F7
330
1F
100
AcDbEntity
  8
太線
100
AcDbLine
 10
367.6612125932791
 20
-29.78425397701812
 30
0.0
 11
367.6612125932791
 21
-29.78425397701812
 31
0.0
  0
LINE
  5
40F8
330
1F
100
AcDbEntity
  8
太線
100
AcDbLine
 10
367.6612125932791
 20
-29.78425397701812
 30
0.0
 11
367.6612125932791
 21
-28.60978499972088
 31
0.0
  0
LINE
  5
40F9
330
1F
100
AcDbEntity
  8
太線
100
AcDbLine
 10
345.2813201861877
 20
-29.47622080422616
 30
0.0
 11
345.2813201861877
 21
-28.60978499972088
 31
0.0
  0
LINE
  5
40FA
330
1F
100
AcDbEntity
  8
太線
100
AcDbLine
 10
369.5540771143046
 20
-29.73219434665679
 30
0.0
 11
369.5540771143046
 21
-37.43153227735593
 31
0.0
  0
LINE
  5
40FB
330
1F
100
AcDbEntity
  8
太線
100
AcDbLine
 10
343.985905722578
 20
-29.55721027249092
 30
0.0
 11
343.985905722578
 21
-37.25654703145051
 31
0.0
  0
ARC
  5
40FC
330
1F
100
AcDbEntity
  8
太線
370
    25
100
AcDbCircle
 10
327.2205927854041
 20
-48.99316965168236
 30
0.0
 40
1.0
100
AcDbArc
 50
0.0
 51
89.61608824540061
  0
TEXT
  5
40FD
330
1F
100
AcDbEntity
  8
文字
100
AcDbText
 10
338.0921634469677
 20
-64.48385206511876
 30
0.0
 40
5.759999999999999
  1
150                       
 51
15.0
  7
OKANO
100
AcDbText
  0
TEXT
  5
41C1
330
1F
100
AcDbEntity
  8
文字
100
AcDbText
 10
332.8300604748115
 20
-204.6917808794428
 30
0.0
 40
5.759999999999999
  1
S-14-3Y150                                                                                                                 
 51
15.0
  7
OKANO
100
AcDbText
  0
TEXT
  5
41C2
330
1F
100
AcDbEntity
  8
文字
100
AcDbText
 10
315.5421404723933
 20
-217.8129749440918
 30
0.0
 40
5.759999999999999
  1
160Ｋストッパー付タイプ                                                                                                                                                                              
 51
15.0
  7
OKANO
100
AcDbText
  0
TEXT
  5
41C3
330
1F
100
AcDbEntity
  8
文字
100
AcDbText
 10
17.35414959110949
 20
-151.8087069689154
 30
0.0
 40
5.759999999999999
  1
S-14-3Y65                                                                                                                 
 51
15.0
  7
OKANO
100
AcDbText
  0
TEXT
  5
41C4
330
1F
100
AcDbEntity
  8
文字
100
AcDbText
 10
0.0662295886913853
 20
-164.9299010335644
 30
0.0
 40
5.759999999999999
  1
30Ｋストッパー付タイプ                                                                                                                                                                              
 51
15.0
  7
OKANO
100
AcDbText
  0
DIMENSION
  5
41C7
330
1F
100
AcDbEntity
  8
寸法線
100
AcDbDimension
  2
*D20
 10
402.8481248107791
 20
-199.6492746486283
 30
0.0
 11
399.3481248107792
 21
-113.7397178306086
 31
0.0
 70
    32
  1
196
 71
     5
 42
171.8191136360392
  3
sunpo
100
AcDbAlignedDimension
 13
405.9746009175723
 23
-27.83016101258908
 33
0.0
 14
405.9746009175723
 24
-199.6492746486283
 34
0.0
 50
90.0
100
AcDbRotatedDimension
1001
ACAD
1000
DSTYLE
1002
{
1070
    40
1040
1.0
1002
}
  0
DIMENSION
  5
41D4
330
1F
100
AcDbEntity
  8
寸法線
100
AcDbDimension
  2
*D21
 10
246.9827427363685
 20
-173.8586599478568
 30
0.0
 11
235.060666881498
 21
-182.9880281121108
 31
0.0
 70
   163
  1
150
 71
     5
 42
138.6
  3
sunpo
100
AcDbDiametricDimension
 15
357.0251008989848
 25
-89.59336810115123
 35
0.0
 40
0.0
1001
ACAD
1000
DSTYLE
1002
{
1070
    40
1040
1.0
1070
   279
1070
     1
1070
   288
1070
     1
1002
}
  0
DIMENSION
  5
41E6
330
1F
100
AcDbEntity
  8
寸法線
100
AcDbDimension
  2
*D22
 10
99.64339757928946
 20
-165.6118812559327
 30
0.0
 11
84.98988927052183
 21
-176.7400609294763
 31
0.0
 70
   163
  1
100
 71
     5
 42
88.87095308536254
  3
sunpo
100
AcDbDiametricDimension
 15
170.4188324625877
 25
-111.8635406361451
 35
0.0
 40
0.0
1001
ACAD
1000
DSTYLE
1002
{
1070
    40
1040
1.0
1070
   279
1070
     1
1070
   288
1070
     1
1002
}
  0
DIMENSION
  5
41F8
330
1F
100
AcDbEntity
  8
寸法線
100
AcDbDimension
  2
*D23
 10
-8.410447922338583
 20
-118.1922967264084
 30
0.0
 11
-16.83213597286205
 21
-122.3412891528128
 31
0.0
 70
   163
  1
65
 71
     5
 42
50.00000000000002
  3
sunpo
100
AcDbDiametricDimension
 15
36.4418992325013
 25
-96.09553328237147
 35
0.0
 40
0.0
1001
ACAD
1000
DSTYLE
1002
{
1070
    40
1040
1.0
1070
   279
1070
     1
1070
   288
1070
     1
1002
}
  0
ARC
  5
4294
330
1F
100
AcDbEntity
  8
太線
370
    25
100
AcDbCircle
 10
476.8659410809911
 20
-140.9480186640023
 30
0.0
 40
1.0
100
AcDbArc
 50
270.0
 51
0.0
  0
ARC
  5
4295
330
1F
100
AcDbEntity
  8
太線
370
    25
100
AcDbCircle
 10
476.8557186505851
 20
-133.3219769622039
 30
0.0
 40
1.0
100
AcDbArc
 50
0.0
 51
90.0
  0
LINE
  5
4296
330
1F
100
AcDbEntity
  8
太線
370
    25
100
AcDbLine
 10
476.8659410809911
 20
-141.9480186640023
 30
0.0
 11
460.8659410809912
 21
-141.9480186640023
 31
0.0
  0
LINE
  5
4297
330
1F
100
AcDbEntity
  8
太線
370
    25
100
AcDbLine
 10
459.8659410809911
 20
-132.9480186640023
 30
0.0
 11
477.8659410809912
 21
-132.9480186640023
 31
0.0
  0
LINE
  5
4298
330
1F
100
AcDbEntity
  8
太線
370
    25
100
AcDbLine
 10
463.8659410809911
 20
-140.9480186640023
 30
0.0
 11
460.8659410809912
 21
-141.9480186640023
 31
0.0
  0
LINE
  5
4299
330
1F
100
AcDbEntity
  8
太線
370
    25
100
AcDbLine
 10
463.8557186505851
 20
-132.3219769622039
 30
0.0
 11
460.855718650585
 21
-132.3219769622039
 31
0.0
  0
ARC
  5
429B
330
1F
100
AcDbEntity
  8
太線
370
    25
100
AcDbCircle
 10
460.855718650585
 20
-133.3219769622039
 30
0.0
 40
1.0
100
AcDbArc
 50
90.0
 51
180.0
  0
ARC
  5
429C
330
1F
100
AcDbEntity
  8
太線
370
    25
100
AcDbCircle
 10
460.8659410809912
 20
-140.9480186640023
 30
0.0
 40
1.0
100
AcDbArc
 50
180.0
 51
270.0
  0
LINE
  5
429D
330
1F
100
AcDbEntity
  8
太線
370
    25
100
AcDbLine
 10
459.8659410809911
 20
-140.9480186640023
 30
0.0
 11
459.8659410809911
 21
-132.9480186640023
 31
0.0
  0
ARC
  5
429E
330
1F
100
AcDbEntity
  8
太線
370
    25
100
AcDbCircle
 10
468.8659410809911
 20
-128.9480186640023
 30
0.0
 40
13.0
100
AcDbArc
 50
247.3801350519612
 51
292.6198649480387
  0
LINE
  5
42A0
330
1F
100
AcDbEntity
  8
太線
370
    25
100
AcDbLine
 10
473.8659410809912
 20
-140.9480186640023
 30
0.0
 11
476.8659410809911
 21
-141.9480186640023
 31
0.0
  0
LINE
  5
42A1
330
1F
100
AcDbEntity
  8
太線
370
    25
100
AcDbLine
 10
477.8659410809912
 20
-132.9480186640023
 30
0.0
 11
477.8659410809912
 21
-140.9480186640023
 31
0.0
  0
LINE
  5
42A2
330
1F
100
AcDbEntity
  8
太線
370
    25
100
AcDbLine
 10
473.8659410809912
 20
-132.9480186640023
 30
0.0
 11
473.8659410809912
 21
-140.9480186640023
 31
0.0
  0
LINE
  5
42A3
330
1F
100
AcDbEntity
  8
太線
370
    25
100
AcDbLine
 10
463.8557186505851
 20
-132.3219769622039
 30
0.0
 11
474.8557186505851
 21
-132.3219769622039
 31
0.0
  0
LINE
  5
42A4
330
1F
100
AcDbEntity
  8
太線
370
    25
100
AcDbLine
 10
474.8557186505851
 20
-132.3219769622039
 30
0.0
 11
476.8557186505851
 21
-132.3219769622039
 31
0.0
  0
DIMENSION
  5
42A5
330
1F
100
AcDbEntity
  8
寸法線
100
AcDbDimension
  2
*D24
 10
437.1755019775442
 20
-151.3667175018963
 30
0.0
 11
433.6755019775442
 21
-167.4135427458854
 31
0.0
 70
    32
  1
40
 71
     5
 42
32.0936504879784
  3
sunpo
100
AcDbAlignedDimension
 13
441.3659410809912
 23
-183.4603679898747
 33
0.0
 14
460.855718650585
 24
-151.3667175018963
 34
0.0
 50
90.0
100
AcDbRotatedDimension
1001
ACAD
1000
DSTYLE
1002
{
1070
    40
1040
1.0
1002
}
  0
ARC
  5
42BB
330
1F
100
AcDbEntity
  8
太線
100
AcDbCircle
 10
745.2160786675236
 20
-106.1078935731043
 30
0.0
 40
6.350862044312581
100
AcDbArc
 50
230.9396192866367
 51
312.0723616256726
  0
LINE
  5
42BC
330
1F
100
AcDbEntity
  8
太線
100
AcDbLine
 10
719.5246368337055
 20
-96.26625302936464
 30
0.0
 11
749.5246368337054
 21
-96.26625302936464
 31
0.0
  0
LINE
  5
42BD
330
1F
100
AcDbEntity
  8
太線
100
AcDbLine
 10
749.5246368337054
 20
-112.2662530293646
 30
0.0
 11
724.5246368337054
 21
-112.2662530293646
 31
0.0
  0
LINE
  5
42BE
330
1F
100
AcDbEntity
  8
太線
100
AcDbLine
 10
741.5246368337054
 20
-96.26625302936464
 30
0.0
 11
741.5246368337054
 21
-112.2662530293646
 31
0.0
  0
ARC
  5
42BF
330
1F
100
AcDbEntity
  8
太線
100
AcDbCircle
 10
723.723973789285
 20
-102.5653157045962
 30
0.0
 40
9.574652439182898
100
AcDbArc
 50
242.2559248299449
 51
294.8092894638859
  0
LINE
  5
42C0
330
1F
100
AcDbEntity
  8
太線
100
AcDbLine
 10
719.5246368337055
 20
-112.2662530293646
 30
0.0
 11
719.5246368337055
 21
-96.26625302936464
 31
0.0
  0
LINE
  5
42C1
330
1F
100
AcDbEntity
  8
太線
100
AcDbLine
 10
727.5246368337055
 20
-96.26625302936464
 30
0.0
 11
727.5246368337055
 21
-112.2662530293646
 31
0.0
  0
ARC
  5
42C2
330
1F
100
AcDbEntity
  8
太線
100
AcDbCircle
 10
734.8577341544262
 20
-86.8100972621832
 30
0.0
 40
25.31465050611781
100
AcDbArc
 50
253.1602647809359
 51
285.0511046503695
  0
LINE
  5
42C3
330
1F
100
AcDbEntity
  8
太線
100
AcDbLine
 10
724.5246368337054
 20
-112.2662530293646
 30
0.0
 11
719.5246368337055
 21
-112.2662530293646
 31
0.0
  0
LINE
  5
42C4
330
1F
100
AcDbEntity
  8
太線
100
AcDbLine
 10
749.5246368337054
 20
-96.26625302936464
 30
0.0
 11
749.5246368337054
 21
-112.2662530293646
 31
0.0
  0
LINE
  5
42C5
330
1F
100
AcDbEntity
  8
太線
100
AcDbLine
 10
744.5246368337053
 20
-96.26625302936464
 30
0.0
 11
744.5246368337055
 21
-46.16139504737623
 31
0.0
  0
LINE
  5
42C6
330
1F
100
AcDbEntity
  8
太線
100
AcDbLine
 10
742.9203310698937
 20
-112.2662530293646
 30
0.0
 11
742.9203310698937
 21
-132.4291716019319
 31
0.0
  0
LINE
  5
42C7
330
1F
100
AcDbEntity
  8
太線
100
AcDbLine
 10
725.5246368337052
 20
-112.2662530293646
 30
0.0
 11
725.5246368337052
 21
-132.4291716019319
 31
0.0
  0
LINE
  5
42C8
330
1F
100
AcDbEntity
  8
太線
100
AcDbLine
 10
724.5246368337054
 20
-112.2662530293646
 30
0.0
 11
724.5246368337054
 21
-132.4291716019319
 31
0.0
  0
DIMENSION
  5
42C9
330
1F
100
AcDbEntity
  8
寸法線
100
AcDbDimension
  2
*D25
 10
696.857053323984
 20
-132.4291716019319
 30
0.0
 11
693.357053323984
 21
-157.6740898798337
 31
0.0
 70
    32
  1
60
 71
     5
 42
50.48983655580386
  3
sunpo
100
AcDbAlignedDimension
 13
701.1749957161771
 23
-182.9190081577357
 33
0.0
 14
719.5246368337055
 24
-132.4291716019319
 34
0.0
 50
90.0
100
AcDbRotatedDimension
1001
ACAD
1000
DSTYLE
1002
{
1070
    40
1040
1.0
1002
}
  0
LINE
  5
42DF
330
1F
100
AcDbEntity
  8
太線
100
AcDbLine
 10
474.8659410809912
 20
-141.9480186640023
 30
0.0
 11
474.8659410809912
 21
-161.4603679898747
 31
0.0
  0
LINE
  5
42E0
330
1F
100
AcDbEntity
  8
細線
100
AcDbLine
 10
473.8659410809912
 20
-141.9480186640023
 30
0.0
 11
473.8659410809912
 21
-161.4603679898747
 31
0.0
  0
LINE
  5
42E1
330
1F
100
AcDbEntity
  8
細線
100
AcDbLine
 10
463.8659410809911
 20
-141.9480186640023
 30
0.0
 11
463.8659410809911
 21
-161.4603679898747
 31
0.0
  0
LINE
  5
42E2
330
1F
100
AcDbEntity
  8
太線
100
AcDbLine
 10
462.8659410809912
 20
-132.3219769622039
 30
0.0
 11
462.8659410809912
 21
-46.16139504737623
 31
0.0
  0
LINE
  5
42E3
330
1F
100
AcDbEntity
  8
太線
100
AcDbLine
 10
463.8659410809911
 20
-140.9480186640023
 30
0.0
 11
463.8659410809911
 21
-133.1394029625844
 31
0.0
  0
LINE
  5
42E4
330
1F
100
AcDbEntity
  8
太線
100
AcDbLine
 10
601.7952221565828
 20
-154.6466116048764
 30
0.0
 11
601.7952221565828
 21
-161.4603679898747
 31
0.0
  0
LINE
  5
42E5
330
1F
100
AcDbEntity
  8
細線
100
AcDbLine
 10
600.795222156583
 20
-154.6466116048764
 30
0.0
 11
600.7952221565829
 21
-161.4603679898747
 31
0.0
  0
LINE
  5
42E6
330
1F
100
AcDbEntity
  8
太線
100
AcDbLine
 10
589.7952221565827
 20
-145.020569903078
 30
0.0
 11
589.7952221565828
 21
-46.16139504737623
 31
0.0
  0
LINE
  5
42E7
330
1F
100
AcDbEntity
  8
細線
100
AcDbLine
 10
590.795222156583
 20
-154.6466116048764
 30
0.0
 11
590.7952221565828
 21
-161.4603679898747
 31
0.0
  0
DIMENSION
  5
4327
330
1F
100
AcDbEntity
  8
寸法線
370
    25
100
AcDbDimension
  2
*D26
 10
437.1224439674911
 20
198.0555948985637
 30
0.0
 11
509.8557434694875
 21
179.9925091759257
 31
0.0
 70
   163
 71
     5
 42
60.00000000000011
  3
ISO-25
100
AcDbDiametricDimension
 15
495.3535740225524
 25
183.5940772565408
 35
0.0
 40
0.0
1001
ACAD
1000
DSTYLE
1002
{
1070
   288
1070
     1
1002
}
  0
DIMENSION
  5
4328
330
1F
100
AcDbEntity
  8
寸法線
370
    25
100
AcDbDimension
  2
*D27
 10
444.9493488268492
 20
183.5417770880846
 30
0.0
 11
507.0094803687346
 21
204.7731554530515
 31
0.0
 70
   163
 71
     5
 42
45.00000000000006
  3
ISO-25
100
AcDbDiametricDimension
 15
487.5266691631943
 25
198.1078950670198
 35
0.0
 40
0.0
1001
ACAD
1000
DSTYLE
1002
{
1070
   288
1070
     1
1002
}
  0
CIRCLE
  5
4329
330
1F
100
AcDbEntity
  8
太線
370
    25
100
AcDbCircle
 10
466.2380089950218
 20
190.8248360775523
 30
0.0
 40
30.0
  0
CIRCLE
  5
432A
330
1F
100
AcDbEntity
  8
太線
370
    25
100
AcDbCircle
 10
466.2380089950218
 20
190.8248360775523
 30
0.0
 40
22.5
  0
DIMENSION
  5
432B
330
1F
100
AcDbEntity
  8
寸法線
370
    25
100
AcDbDimension
  2
*D28
 10
462.4966859006995
 20
186.4584873164145
 30
0.0
 11
474.9266163858264
 21
203.8466304771823
 31
0.0
 70
    35
 71
     5
 42
11.49999999999994
  3
ISO-25
100
AcDbDiametricDimension
 15
469.9793320893443
 25
195.1911848386902
 35
0.0
 40
0.0
1001
ACAD
1000
DSTYLE
1002
{
1070
   288
1070
     1
1002
}
  0
CIRCLE
  5
432C
330
1F
100
AcDbEntity
  8
太線
370
    25
100
AcDbCircle
 10
466.2380089950218
 20
190.8248360775523
 30
0.0
 40
5.75
  0
XLINE
  5
436E
330
1F
100
AcDbEntity
  8
構築線
100
AcDbXline
 10
40.26634590173673
 20
140.9623356026448
 30
0.0
 11
0.0
 21
1.0
 31
0.0
  0
LINE
  5
437A
330
1F
100
AcDbEntity
  8
想像線
100
AcDbLine
 10
68.26634590173672
 20
-22.50297488002741
 30
0.0
 11
68.26634590173672
 21
-28.46439797545474
 31
0.0
  0
LINE
  5
437B
330
1F
100
AcDbEntity
  8
想像線
100
AcDbLine
 10
62.26634590173671
 20
-22.50297488002741
 30
0.0
 11
62.26634590173671
 21
-28.46439797545474
 31
0.0
  0
LINE
  5
437F
330
1F
100
AcDbEntity
  8
想像線
100
AcDbLine
 10
43.26634590173672
 20
-22.50297488002741
 30
0.0
 11
43.32059380151074
 21
-28.30851916819094
 31
0.0
  0
LINE
  5
4380
330
1F
100
AcDbEntity
  8
想像線
100
AcDbLine
 10
37.26634590173672
 20
-22.31504114491778
 30
0.0
 11
37.26634590173672
 21
-28.31402108865335
 31
0.0
  0
LINE
  5
4381
330
1F
100
AcDbEntity
  8
想像線
100
AcDbLine
 10
181.7859270222745
 20
-22.50297488002741
 30
0.0
 11
181.7859270222745
 21
-28.46439797545474
 31
0.0
  0
LINE
  5
4382
330
1F
100
AcDbEntity
  8
想像線
100
AcDbLine
 10
187.7859270222745
 20
-22.50297488002741
 30
0.0
 11
187.7859270222745
 21
-28.46439797545474
 31
0.0
  0
LINE
  5
4383
330
1F
100
AcDbEntity
  8
想像線
100
AcDbLine
 10
382.4021533165871
 20
-22.50297370828787
 30
0.0
 11
382.4021533165871
 21
-28.4643968037152
 31
0.0
  0
LINE
  5
4384
330
1F
100
AcDbEntity
  8
想像線
100
AcDbLine
 10
376.4021533165871
 20
-22.50297370828787
 30
0.0
 11
376.4021533165871
 21
-28.4643968037152
 31
0.0
  0
LINE
  5
4385
330
1F
100
AcDbEntity
  8
想像線
100
AcDbLine
 10
488.5834665691927
 20
-23.17844173897049
 30
0.0
 11
488.5834665691927
 21
-29.13986483439782
 31
0.0
  0
LINE
  5
4386
330
1F
100
AcDbEntity
  8
想像線
100
AcDbLine
 10
494.5834665691927
 20
-23.17844173897049
 30
0.0
 11
494.5834665691927
 21
-29.13986483439782
 31
0.0
  0
LINE
  5
4387
330
1F
100
AcDbEntity
  8
想像線
100
AcDbLine
 10
615.5127476447844
 20
-23.17844173897049
 30
0.0
 11
615.5127476447844
 21
-29.13986483439782
 31
0.0
  0
LINE
  5
4388
330
1F
100
AcDbEntity
  8
想像線
100
AcDbLine
 10
621.5127476447844
 20
-23.17844173897049
 30
0.0
 11
621.5127476447844
 21
-29.13986483439782
 31
0.0
  0
LINE
  5
4389
330
1F
100
AcDbEntity
  8
想像線
100
AcDbLine
 10
762.3596591167722
 20
-23.17844173897049
 30
0.0
 11
762.3596591167722
 21
-29.13986483439782
 31
0.0
  0
LINE
  5
438A
330
1F
100
AcDbEntity
  8
想像線
100
AcDbLine
 10
756.3596591167723
 20
-23.17844173897049
 30
0.0
 11
756.3596591167723
 21
-29.13986483439782
 31
0.0
  0
LINE
  5
438D
330
1F
100
AcDbEntity
  8
想像線
100
AcDbLine
 10
156.7859270222745
 20
-22.31504114491778
 30
0.0
 11
156.7859270222745
 21
-28.31402108865335
 31
0.0
  0
LINE
  5
438E
330
1F
100
AcDbEntity
  8
想像線
100
AcDbLine
 10
162.7859270222745
 20
-22.50297488002741
 30
0.0
 11
162.8401749220485
 21
-28.30851916819094
 31
0.0
  0
LINE
  5
438F
330
1F
100
AcDbEntity
  8
想像線
100
AcDbLine
 10
351.4021533165871
 20
-22.31503997317824
 30
0.0
 11
351.4021533165871
 21
-28.31401991691381
 31
0.0
  0
LINE
  5
4390
330
1F
100
AcDbEntity
  8
想像線
100
AcDbLine
 10
357.4021533165871
 20
-22.50297370828787
 30
0.0
 11
357.4564012163611
 21
-28.3085179964514
 31
0.0
  0
LINE
  5
4391
330
1F
100
AcDbEntity
  8
想像線
100
AcDbLine
 10
463.5834665691927
 20
-22.99050800386087
 30
0.0
 11
463.5834665691927
 21
-28.98948794759643
 31
0.0
  0
LINE
  5
4392
330
1F
100
AcDbEntity
  8
想像線
100
AcDbLine
 10
469.5834665691927
 20
-23.17844173897049
 30
0.0
 11
469.6377144689668
 21
-28.98398602713402
 31
0.0
  0
LINE
  5
4393
330
1F
100
AcDbEntity
  8
想像線
100
AcDbLine
 10
590.5127476447844
 20
-22.99050800386087
 30
0.0
 11
590.5127476447844
 21
-28.98948794759643
 31
0.0
  0
LINE
  5
4394
330
1F
100
AcDbEntity
  8
想像線
100
AcDbLine
 10
596.5127476447844
 20
-23.17844173897049
 30
0.0
 11
596.5669955445584
 21
-28.98398602713402
 31
0.0
  0
LINE
  5
4395
330
1F
100
AcDbEntity
  8
想像線
100
AcDbLine
 10
731.3596591167723
 20
-22.99050800386087
 30
0.0
 11
731.3596591167723
 21
-28.98948794759643
 31
0.0
  0
LINE
  5
4396
330
1F
100
AcDbEntity
  8
想像線
100
AcDbLine
 10
737.3596591167722
 20
-23.17844173897049
 30
0.0
 11
737.4139070165463
 21
-28.98398602713402
 31
0.0
  0
LINE
  5
444E
330
1F
100
AcDbEntity
  8
太線
100
AcDbLine
 10
104.9163459017366
 20
121.3553268218409
 30
0.0
 11
104.9163459017366
 21
176.655326821841
 31
0.0
  0
LINE
  5
444F
330
1F
100
AcDbEntity
  8
太線
100
AcDbLine
 10
10.61634590173673
 20
211.6553268218409
 30
0.0
 11
10.61634590173673
 21
149.0053268218409
 31
0.0
  0
LINE
  5
4450
330
1F
100
AcDbEntity
  8
太線
100
AcDbLine
 10
64.91634590173669
 20
124.3553268218409
 30
0.0
 11
64.91634590173669
 21
173.6553268218409
 31
0.0
  0
LINE
  5
4451
330
1F
100
AcDbEntity
  8
太線
100
AcDbLine
 10
15.61634590173673
 20
173.6553268218409
 30
0.0
 11
15.61634590173673
 21
149.0053268218409
 31
0.0
  0
LINE
  5
4452
330
1F
100
AcDbEntity
  8
太線
100
AcDbLine
 10
40.26634590173671
 20
119.3553268218409
 30
0.0
 11
102.9163459017366
 21
119.3553268218409
 31
0.0
  0
ARC
  5
4453
330
1F
100
AcDbEntity
  8
太線
100
AcDbCircle
 10
40.26634590173671
 20
149.0053268218409
 30
0.0
 40
24.65
100
AcDbArc
 50
180.0
 51
270.0
  0
ARC
  5
4454
330
1F
100
AcDbEntity
  8
太線
100
AcDbCircle
 10
40.26634590173671
 20
149.0053268218409
 30
0.0
 40
29.65
100
AcDbArc
 50
180.0
 51
270.0
  0
CIRCLE
  5
4455
330
1F
100
AcDbEntity
  8
太線
100
AcDbCircle
 10
40.26634590173671
 20
149.0053268218409
 30
0.0
 40
10.0
  0
CIRCLE
  5
4456
330
1F
100
AcDbEntity
  8
想像線
100
AcDbCircle
 10
40.26634590173671
 20
149.0053268218409
 30
0.0
 40
8.929445221047904
  0
LINE
  5
4457
330
1F
100
AcDbEntity
  8
太線
100
AcDbLine
 10
40.26634590173671
 20
124.3553268218409
 30
0.0
 11
64.91634590173669
 21
124.3553268218409
 31
0.0
  0
CIRCLE
  5
4458
330
1F
100
AcDbEntity
  8
太線
100
AcDbCircle
 10
40.26634590173671
 20
149.0053268218409
 30
0.0
 40
6.0
  0
CIRCLE
  5
4459
330
1F
100
AcDbEntity
  8
想像線
100
AcDbCircle
 10
40.26634590173671
 20
149.0053268218409
 30
0.0
 40
4.759457580267518
  0
ARC
  5
445A
330
1F
100
AcDbEntity
  8
太線
100
AcDbCircle
 10
102.9163459017366
 20
121.3553268218409
 30
0.0
 40
2.0
100
AcDbArc
 50
270.0
 51
0.0
  0
LINE
  5
445B
330
1F
100
AcDbEntity
  8
太線
100
AcDbLine
 10
84.38461987773917
 20
178.655326821841
 30
0.0
 11
86.34491680181975
 21
183.0026888971966
 31
0.0
  0
ARC
  5
445C
330
1F
100
AcDbEntity
  8
太線
100
AcDbCircle
 10
93.64978463445083
 20
191.8846230777204
 30
0.0
 40
16.15108533179235
100
AcDbArc
 50
234.9944444592355
 51
304.1257532812706
  0
LINE
  5
445D
330
1F
100
AcDbEntity
  8
太線
100
AcDbLine
 10
67.91634590173669
 20
213.6553268218409
 30
0.0
 11
12.61634590173673
 21
213.6553268218409
 31
0.0
  0
LINE
  5
445E
330
1F
100
AcDbEntity
  8
太線
100
AcDbLine
 10
64.91634590173669
 20
173.6553268218409
 30
0.0
 11
15.61634590173673
 21
173.6553268218409
 31
0.0
  0
DIMENSION
  5
445F
330
1F
100
AcDbEntity
  8
寸法線
100
AcDbDimension
  2
*D29
 10
64.91634590173669
 20
186.3534107408733
 30
0.0
 11
40.26634590173671
 21
189.8534107408733
 31
0.0
 70
    32
 71
     5
 42
49.29999999999996
  3
sunpo
100
AcDbAlignedDimension
 13
15.61634590173673
 23
173.6553268218409
 33
0.0
 14
64.91634590173669
 24
173.6553268218409
 34
0.0
100
AcDbRotatedDimension
1001
ACAD
1000
DSTYLE
1002
{
1070
    40
1040
1.0
1002
}
  0
ARC
  5
4460
330
1F
100
AcDbEntity
  8
太線
100
AcDbCircle
 10
12.61634590173673
 20
211.6553268218409
 30
0.0
 40
2.0
100
AcDbArc
 50
90.0
 51
180.0
  0
LINE
  5
4461
330
1F
100
AcDbEntity
  8
太線
100
AcDbLine
 10
69.91634590173669
 20
178.6553268218409
 30
0.0
 11
69.91634590173669
 21
211.6553268218409
 31
0.0
  0
LINE
  5
4462
330
1F
100
AcDbEntity
  8
太線
100
AcDbLine
 10
84.38461987773917
 20
178.6553268218409
 30
0.0
 11
69.91634590173669
 21
178.6553268218409
 31
0.0
  0
ARC
  5
4463
330
1F
100
AcDbEntity
  8
太線
100
AcDbCircle
 10
67.91634590173669
 20
211.6553268218409
 30
0.0
 40
2.0
100
AcDbArc
 50
0.0
 51
90.0
  0
ARC
  5
4464
330
1F
100
AcDbEntity
  8
太線
100
AcDbCircle
 10
94.53684060343034
 20
196.1039019247679
 30
0.0
 40
15.41858898444818
100
AcDbArc
 50
238.630345164702
 51
296.5007467030425
  0
ARC
  5
4465
330
1F
100
AcDbEntity
  8
太線
100
AcDbCircle
 10
93.0383368481913
 20
149.0053268218409
 30
0.0
 40
34.65
100
AcDbArc
 50
76.13672947565522
 51
101.1379739341434
  0
ARC
  5
4466
330
1F
100
AcDbEntity
  8
太線
100
AcDbCircle
 10
102.9163459017366
 20
176.655326821841
 30
0.0
 40
2.0
100
AcDbArc
 50
0.0
 51
90.0
  0
LINE
  5
4467
330
1F
100
AcDbEntity
  8
太線
100
AcDbLine
 10
102.9163459017366
 20
178.6553268218409
 30
0.0
 11
101.3406748758738
 21
182.6459820365376
 31
0.0
  0
XLINE
  5
4486
330
1F
100
AcDbEntity
  8
構築線
100
AcDbXline
 10
734.3596591167722
 20
147.2840785510658
 30
0.0
 11
0.0
 21
1.0
 31
0.0
  0
TEXT
  5
457C
330
1F
100
AcDbEntity
  8
寸法線
100
AcDbText
 10
121.8474460075726
 20
195.3940047092212
 30
0.0
 40
7.0
  1
PF3/8 inch19yama クボミ先ホーローセット使用
 51
15.0
  7
OKANO
100
AcDbText
  0
DIMENSION
  5
457D
330
1F
100
AcDbEntity
  8
寸法線
100
AcDbDimension
  2
*D30
 10
714.6641615123039
 20
186.7948340862689
 30
0.0
 11
782.5963907993952
 21
205.1564114606683
 31
0.0
 70
   163
  1
Φ45　水抜き
 71
     5
 42
36.51758619483996
  3
sunpo
100
AcDbDiametricDimension
 15
749.9167043468865
 25
196.3233347654674
 35
0.0
 40
0.0
1001
ACAD
1000
DSTYLE
1002
{
1070
    40
1040
1.0
1070
   288
1070
     1
1002
}
  0
LINE
  5
457E
330
1F
100
AcDbEntity
  8
太線
100
AcDbLine
 10
673.7733300654847
 20
271.4784175212169
 30
0.0
 11
793.6678314122625
 21
271.965319721557
 31
0.0
  0
LINE
  5
457F
330
1F
100
AcDbEntity
  8
太線
100
AcDbLine
 10
674.0216112656234
 20
111.559084425868
 30
0.0
 11
794.3051091516466
 21
111.9087061949592
 31
0.0
  0
CIRCLE
  5
4580
330
1F
100
AcDbEntity
  8
太線
100
AcDbCircle
 10
734.3596591167722
 20
191.559084425868
 30
0.0
 40
29.5
  0
CIRCLE
  5
4581
330
1F
100
AcDbEntity
  8
太線
100
AcDbCircle
 10
734.3596591167722
 20
191.559084425868
 30
0.0
 40
24.5
  0
TEXT
  5
4582
330
1F
100
AcDbEntity
  8
文字
100
AcDbText
 10
115.7841382012356
 20
241.2073050404116
 30
0.0
 40
4.799999999999999
  1
8mm六角レンチ仕様
 51
15.0
  7
OKANO
100
AcDbText
  0
LINE
  5
4583
330
1F
100
AcDbEntity
  8
太線
100
AcDbLine
 10
146.076901653126
 20
208.6158923039653
 30
0.0
 11
146.1065510727291
 21
217.615843465606
 31
0.0
  0
LINE
  5
4584
330
1F
100
AcDbEntity
  8
破線
100
AcDbLine
 10
144.0769125060946
 20
208.6224810638771
 30
0.0
 11
144.1065619256978
 21
217.6224322255178
 31
0.0
  0
LINE
  5
4585
330
1F
100
AcDbEntity
  8
破線
100
AcDbLine
 10
145.1065564992134
 20
217.6191378455619
 30
0.0
 11
145.0769070796102
 21
208.6191866839212
 31
0.0
  0
LINE
  5
4586
330
1F
100
AcDbEntity
  8
太線
100
AcDbLine
 10
136.1066053375727
 20
217.6487872651649
 30
0.0
 11
136.0769559179695
 21
208.6488361035243
 31
0.0
  0
LINE
  5
4587
330
1F
100
AcDbEntity
  8
破線
100
AcDbLine
 10
138.0769450650011
 20
208.6422473436125
 30
0.0
 11
138.1065944846038
 21
217.6421985052531
 31
0.0
  0
LINE
  5
4588
330
1F
100
AcDbEntity
  8
破線
100
AcDbLine
 10
137.1065999110883
 20
217.645492885209
 30
0.0
 11
137.0769504914853
 21
208.6455417235684
 31
0.0
  0
DIMENSION
  5
4589
330
1F
100
AcDbEntity
  8
寸法線
100
AcDbDimension
  2
*D31
 10
154.7239721427213
 20
207.5873999871696
 30
0.0
 11
151.2404630351961
 21
212.5989031845934
 31
0.0
 70
    33
  1
13
 71
     5
 42
10.0
  3
sunpo
100
AcDbAlignedDimension
 13
145.1065564992134
 23
217.6191378455619
 33
0.0
 14
145.0736126996543
 24
207.6191921104056
 34
0.0
1001
ACAD
1000
DSTYLE
1002
{
1070
    40
1040
1.0
1002
}
  0
LINE
  5
458A
330
1F
100
AcDbEntity
  8
太線
100
AcDbLine
 10
137.0736561115295
 20
207.6455471500528
 30
0.0
 11
145.0736126996543
 21
207.6191921104056
 31
0.0
  0
LINE
  5
458B
330
1F
100
AcDbEntity
  8
破線
100
AcDbLine
 10
136.0769559179695
 20
208.6488361035243
 30
0.0
 11
146.076901653126
 21
208.6158923039653
 31
0.0
  0
LINE
  5
458C
330
1F
100
AcDbEntity
  8
破線
100
AcDbLine
 10
137.0736561115295
 20
207.6455471500528
 30
0.0
 11
138.0769450650011
 21
208.6422473436125
 31
0.0
  0
LINE
  5
458D
330
1F
100
AcDbEntity
  8
太線
100
AcDbLine
 10
136.0769559179695
 20
208.6488361035243
 30
0.0
 11
137.0736561115295
 21
207.6455471500528
 31
0.0
  0
LINE
  5
458E
330
1F
100
AcDbEntity
  8
太線
100
AcDbLine
 10
145.0736126996543
 20
207.6191921104056
 30
0.0
 11
146.076901653126
 21
208.6158923039653
 31
0.0
  0
LINE
  5
458F
330
1F
100
AcDbEntity
  8
破線
100
AcDbLine
 10
145.0736126996543
 20
207.6191921104056
 30
0.0
 11
144.0769125060946
 21
208.6224810638771
 31
0.0
  0
LWPOLYLINE
  5
4590
330
1F
100
AcDbEntity
  8
太線
100
AcDbPolyline
 90
        6
 70
     1
 43
0.0
 10
144.1395057252566
 20
227.622377960674
 10
142.6480729151778
 20
230.2253816435413
 10
139.6480891946309
 20
230.235264783409
 10
138.1395382841628
 20
227.6421442404095
 10
139.6309710942416
 20
225.0391405575422
 10
142.6309548147885
 20
225.0292574176746
  0
LEADER
  5
4591
330
1F
100
AcDbEntity
  8
寸法線
100
AcDbLeader
  3
sunpo
 76
     2
 10
141.5016651075857
 20
229.5630953235703
 30
0.0
 10
149.6944542563642
 20
239.9300551287823
 30
0.0
1001
ACAD
1000
DSTYLE
1002
{
1070
   147
1040
1.0
1070
    77
1070
     0
1002
}
  0
LINE
  5
4592
330
1F
100
AcDbEntity
  8
太線
100
AcDbLine
 10
146.1065510727291
 20
217.615843465606
 30
0.0
 11
136.1066053375727
 21
217.6487872651649
 31
0.0
  0
CIRCLE
  5
4593
330
1F
100
AcDbEntity
  8
太線
100
AcDbCircle
 10
141.1395220047097
 20
227.6322611005418
 30
0.0
 40
4.999999999999998
  0
CIRCLE
  5
4594
330
1F
100
AcDbEntity
  8
太線
100
AcDbCircle
 10
141.1395220047097
 20
227.6322611005418
 30
0.0
 40
3.999999999999994
  0
DIMENSION
  5
4595
330
1F
100
AcDbEntity
  8
寸法線
100
AcDbDimension
  2
*D32
 10
642.9167258587417
 20
128.8844902721983
 30
0.0
 11
639.4162337327575
 21
190.1814538967077
 31
0.0
 70
    32
  1
120
 71
     5
 42
122.5939272490186
  3
sunpo
100
AcDbAlignedDimension
 13
673.7733300654847
 23
251.478417521217
 33
0.0
 14
671.6563874701348
 24
128.8844902721983
 34
0.0
 50
90.0
100
AcDbRotatedDimension
1001
ACAD
1000
DSTYLE
1002
{
1070
    40
1040
1.0
1002
}
  0
LINE
  5
4596
330
1F
100
AcDbEntity
  8
太線
100
AcDbLine
 10
653.7733300654847
 20
251.478417521217
 30
0.0
 11
654.6478308870375
 21
131.549278246483
 31
0.0
  0
ARC
  5
4597
330
1F
100
AcDbEntity
  8
太線
100
AcDbCircle
 10
674.6478308870376
 20
131.549278246483
 30
0.0
 40
20.0
100
AcDbArc
 50
180.0
 51
270.0
  0
ARC
  5
4598
330
1F
100
AcDbEntity
  8
太線
100
AcDbCircle
 10
671.6563874701348
 20
128.8844902721983
 30
0.0
 40
6.0
100
AcDbArc
 50
149.2169771217101
 51
326.735293910241
  0
ARC
  5
4599
330
1F
100
AcDbEntity
  8
太線
100
AcDbCircle
 10
675.4941596678224
 20
132.4991583172784
 30
0.0
 40
6.0
100
AcDbArc
 50
300.3622165943843
 51
121.4577023579295
  0
LINE
  5
459A
330
1F
100
AcDbEntity
  8
太線
100
AcDbLine
 10
676.673259858441
 20
125.5934431076242
 30
0.0
 11
678.5269489115412
 21
127.3220752193183
 31
0.0
  0
LINE
  5
459B
330
1F
100
AcDbEntity
  8
太線
100
AcDbLine
 10
672.3939304399996
 20
137.6472441812514
 30
0.0
 11
666.5017179845071
 21
131.9552202332886
 31
0.0
  0
ARC
  5
459C
330
1F
100
AcDbEntity
  8
太線
100
AcDbCircle
 10
673.7733300654847
 20
251.478417521217
 30
0.0
 40
19.99999999999988
100
AcDbArc
 50
90.0
 51
180.0
  0
DIMENSION
  5
459D
330
1F
100
AcDbEntity
  8
寸法線
100
AcDbDimension
  2
*D33
 10
673.7733300654847
 20
251.4784175212175
 30
0.0
 11
643.1633046132056
 21
275.0327775337917
 31
0.0
 70
   164
 71
     5
 42
19.99999999999943
  3
sunpo
100
AcDbRadialDimension
 15
657.9228991741289
 25
263.675295833242
 35
0.0
 40
0.0
1001
ACAD
1000
DSTYLE
1002
{
1070
    40
1040
1.0
1070
   288
1070
     1
1002
}
  0
ARC
  5
459E
330
1F
100
AcDbEntity
  8
太線
100
AcDbCircle
 10
671.397244143415
 20
254.7544580273072
 30
0.0
 40
6.0
100
AcDbArc
 50
58.83348738433827
 51
236.3518041728814
  0
ARC
  5
459F
330
1F
100
AcDbEntity
  8
太線
100
AcDbCircle
 10
674.9861445971098
 20
250.8925784265252
 30
0.0
 40
6.0
100
AcDbArc
 50
209.978726857023
 51
31.07421262057136
  0
LINE
  5
45A0
330
1F
100
AcDbEntity
  8
太線
100
AcDbLine
 10
668.0726922236606
 20
249.7597253484885
 30
0.0
 11
669.7888786734213
 21
247.8945078939215
 31
0.0
  0
LINE
  5
45A1
330
1F
100
AcDbEntity
  8
太線
100
AcDbLine
 10
680.1548653194601
 20
253.9582815142738
 30
0.0
 11
674.5024060855286
 21
259.8884593238835
 31
0.0
  0
DIMENSION
  5
45A2
330
1F
100
AcDbEntity
  8
寸法線
100
AcDbDimension
  2
*D34
 10
1197.958363253997
 20
42.88292349842391
 30
0.0
 11
1194.458363253997
 21
72.70449547098039
 31
0.0
 70
    32
  1
60
 71
     5
 42
59.64314394511257
  3
sunpo
100
AcDbAlignedDimension
 13
1217.134022147194
 23
102.5260674435364
 33
0.0
 14
1217.752592251126
 24
42.8829234984239
 34
0.0
 50
90.0
100
AcDbRotatedDimension
1001
ACAD
1000
DSTYLE
1002
{
1070
    40
1040
1.0
1002
}
  0
LINE
  5
45A3
330
1F
100
AcDbEntity
  8
太線
100
AcDbLine
 10
1277.300318417707
 20
97.47847950177186
 30
0.0
 11
1277.300318417707
 21
43.03266267508738
 31
0.0
  0
LINE
  5
45A4
330
1F
100
AcDbEntity
  8
想像線
100
AcDbLine
 10
1272.300318417707
 20
102.4784795017718
 30
0.0
 11
1272.300318417707
 21
43.08090895012196
 31
0.0
  0
LINE
  5
45A5
330
1F
100
AcDbEntity
  8
太線
100
AcDbLine
 10
1218.300318417707
 20
43.03266267508732
 30
0.0
 11
1218.300318417707
 21
97.47847950177186
 31
0.0
  0
LINE
  5
45A6
330
1F
100
AcDbEntity
  8
想像線
100
AcDbLine
 10
1223.300318417707
 20
43.08090895012196
 30
0.0
 11
1222.647859470176
 21
102.4784795017718
 31
0.0
  0
LINE
  5
45A7
330
1F
100
AcDbEntity
  8
太線
100
AcDbLine
 10
1273.634300776943
 20
37.71731249360596
 30
0.0
 11
1307.800318417707
 21
38.03266267508735
 31
0.0
  0
LINE
  5
45A8
330
1F
100
AcDbEntity
  8
太線
100
AcDbLine
 10
1192.800318417707
 20
43.03266267508734
 30
0.0
 11
1302.800318417707
 21
43.03266267508738
 31
0.0
  0
DIMENSION
  5
45A9
330
1F
100
AcDbEntity
  8
寸法線
100
AcDbDimension
  2
*D35
 10
1328.300318417707
 20
22.48137100601059
 30
0.0
 11
1250.036775298388
 21
25.98137100601059
 31
0.0
 70
    32
  1
160
 71
     5
 42
156.5270862386387
  3
sunpo
100
AcDbAlignedDimension
 13
1171.773232179068
 23
38.03266267508735
 33
0.0
 14
1328.300318417707
 24
37.64069187588197
 34
0.0
100
AcDbRotatedDimension
1001
ACAD
1000
DSTYLE
1002
{
1070
    40
1040
1.0
1002
}
  0
LINE
  5
45AA
330
1F
100
AcDbEntity
  8
太線
100
AcDbLine
 10
1171.773232179068
 20
38.03266267508735
 30
0.0
 11
1187.800318417707
 21
38.03266267508735
 31
0.0
  0
ARC
  5
45AB
330
1F
100
AcDbEntity
  8
太線
100
AcDbCircle
 10
1176.773232179068
 20
38.03266267508735
 30
0.0
 40
5.0
100
AcDbArc
 50
90.0
 51
180.0
  0
LINE
  5
45AC
330
1F
100
AcDbEntity
  8
太線
100
AcDbLine
 10
1171.773232179068
 20
38.03266267508735
 30
0.0
 11
1171.773232179068
 21
38.03266267508735
 31
0.0
  0
LINE
  5
45AD
330
1F
100
AcDbEntity
  8
太線
100
AcDbLine
 10
1223.76828711244
 20
37.99108496151802
 30
0.0
 11
1273.634300776943
 21
37.71731249360596
 31
0.0
  0
DIMENSION
  5
45AE
330
1F
100
AcDbEntity
  8
寸法線
100
AcDbDimension
  2
*D36
 10
1271.390247480547
 20
55.78075684418866
 30
0.0
 11
1246.991815991608
 21
59.28075684418866
 31
0.0
 70
    32
  1
49***50
 71
     5
 42
48.79686297787839
  3
sunpo
100
AcDbAlignedDimension
 13
1222.593384502669
 23
59.91969907100963
 33
0.0
 14
1271.390247480547
 24
61.70858497533107
 34
0.0
100
AcDbRotatedDimension
1001
ACAD
1000
DSTYLE
1002
{
1070
    40
1040
1.0
1002
}
  0
LINE
  5
45AF
330
1F
100
AcDbEntity
  8
太線
100
AcDbLine
 10
1223.766477949058
 20
38.03266267508732
 30
0.0
 11
1187.800318417707
 21
38.03266267508735
 31
0.0
  0
LINE
  5
45B0
330
1F
100
AcDbEntity
  8
太線
100
AcDbLine
 10
1187.800318417707
 20
38.03266267508735
 30
0.0
 11
1223.766477949058
 21
38.03266267508732
 31
0.0
  0
LINE
  5
45B1
330
1F
100
AcDbEntity
  8
太線
100
AcDbLine
 10
1192.800318417707
 20
43.03266267508734
 30
0.0
 11
1176.773232179068
 21
43.03266267508734
 31
0.0
  0
LINE
  5
45B2
330
1F
100
AcDbEntity
  8
想像線
100
AcDbLine
 10
1225.737832411896
 20
42.86587499021118
 30
0.0
 11
1225.737832411896
 21
38.12814341534112
 31
0.0
  0
LINE
  5
45B3
330
1F
100
AcDbEntity
  8
想像線
100
AcDbLine
 10
1270.103744773005
 20
43.17153466637228
 30
0.0
 11
1270.103744773005
 21
38.28097369304646
 31
0.0
  0
DIMENSION
  5
45B4
330
1F
100
AcDbEntity
  8
寸法線
100
AcDbDimension
  2
*D37
 10
1339.387912392919
 20
42.79821997319969
 30
0.0
 11
1335.887912392919
 21
53.77610565616993
 31
0.0
 70
    32
  1
5.5
 71
     5
 42
5.041096136514511
  3
sunpo
100
AcDbAlignedDimension
 13
1324.005071268586
 23
37.75712383668519
 33
0.0
 14
1322.270427643538
 24
42.7982199731997
 34
0.0
 50
90.0
100
AcDbRotatedDimension
1001
ACAD
1000
DSTYLE
1002
{
1070
    40
1040
1.0
1002
}
  0
LINE
  5
45B5
330
1F
100
AcDbEntity
  8
太線
100
AcDbLine
 10
1302.800318417707
 20
43.03266267508738
 30
0.0
 11
1323.300318417707
 21
42.64069187588202
 31
0.0
  0
LINE
  5
45B6
330
1F
100
AcDbEntity
  8
太線
100
AcDbLine
 10
1307.800318417707
 20
38.03266267508735
 30
0.0
 11
1328.300318417707
 21
37.64069187588208
 31
0.0
  0
LINE
  5
45B7
330
1F
100
AcDbEntity
  8
太線
100
AcDbLine
 10
1328.300318417707
 20
37.64069187588208
 30
0.0
 11
1328.300318417707
 21
37.640691875882
 31
0.0
  0
ARC
  5
45B8
330
1F
100
AcDbEntity
  8
太線
100
AcDbCircle
 10
1323.300318417707
 20
37.64069187588202
 30
0.0
 40
5.0
100
AcDbArc
 50
0.0
 51
90.0
  0
DIMENSION
  5
45B9
330
1F
100
AcDbEntity
  8
寸法線
100
AcDbDimension
  2
*D38
 10
1305.170185884656
 20
87.47847950177186
 30
0.0
 11
1301.670185884656
 21
94.97847950177206
 31
0.0
 70
    32
 71
     5
 42
15.0
  3
sunpo
100
AcDbAlignedDimension
 13
1272.300318417707
 23
102.4784795017718
 33
0.0
 14
1282.658845978495
 24
87.47847950177186
 34
0.0
 50
90.0
100
AcDbRotatedDimension
1001
ACAD
1000
DSTYLE
1002
{
1070
    40
1040
1.0
1002
}
  0
ARC
  5
45BA
330
1F
100
AcDbEntity
  8
太線
100
AcDbCircle
 10
1272.300318417707
 20
97.40160989789082
 30
0.0
 40
5.0
100
AcDbArc
 50
0.0
 51
90.0
  0
LINE
  5
45BB
330
1F
100
AcDbEntity
  8
細線
100
AcDbLine
 10
1282.2962018736
 20
92.46183082374626
 30
0.0
 11
1272.518144465645
 21
92.46183082374637
 31
0.0
  0
LINE
  5
45BC
330
1F
100
AcDbEntity
  8
細線
100
AcDbLine
 10
1282.427195377114
 20
91.46183082374625
 30
0.0
 11
1272.518144465645
 21
91.46183082374637
 31
0.0
  0
LINE
  5
45BD
330
1F
100
AcDbEntity
  8
太線
100
AcDbLine
 10
1277.110188826452
 20
96.95954411584603
 30
0.0
 11
1281.837425177268
 21
94.96183082374626
 31
0.0
  0
LINE
  5
45BE
330
1F
100
AcDbEntity
  8
細線
100
AcDbLine
 10
1282.427195377114
 20
83.46183082374626
 30
0.0
 11
1272.518144465645
 21
83.46183082374636
 31
0.0
  0
LINE
  5
45BF
330
1F
100
AcDbEntity
  8
細線
100
AcDbLine
 10
1282.2962018736
 20
82.46183082374626
 30
0.0
 11
1272.518144465645
 21
82.46183082374637
 31
0.0
  0
TEXT
  5
45C0
330
1F
100
AcDbEntity
  8
文字
100
AcDbText
 10
1231.304587322218
 20
120.5128212442605
 30
0.0
 40
5.759999999999999
  1
15-1B　重量ベース
 51
15.0
  7
OKANO
100
AcDbText
  0
LINE
  5
45C1
330
1F
100
AcDbEntity
  8
太線
100
AcDbLine
 10
813.6678314122622
 20
251.9653197215571
 30
0.0
 11
814.3051091516465
 21
131.9087061949592
 31
0.0
  0
CIRCLE
  5
45C2
330
1F
100
AcDbEntity
  8
太線
100
AcDbCircle
 10
734.3596591167722
 20
191.559084425868
 30
0.0
 40
20.26353145890385
  0
CIRCLE
  5
45C3
330
1F
100
AcDbEntity
  8
太線
100
AcDbCircle
 10
734.3596591167722
 20
191.559084425868
 30
0.0
 40
20.26353145890382
  0
ARC
  5
45C4
330
1F
100
AcDbEntity
  8
太線
100
AcDbCircle
 10
794.3051091516466
 20
131.9087061949592
 30
0.0
 40
20.0
100
AcDbArc
 50
270.0
 51
0.0
  0
DIMENSION
  5
45C5
330
1F
100
AcDbEntity
  8
寸法線
100
AcDbDimension
  2
*D39
 10
825.8359605542334
 20
109.0332922662153
 30
0.0
 11
819.1846864670372
 21
107.336467732891
 31
0.0
 70
    33
  1
12
 71
     5
 42
11.80935482671668
  3
sunpo
100
AcDbAlignedDimension
 13
791.7056389091792
 23
126.487413228788
 33
0.0
 14
800.0601195115317
 24
134.8338804627865
 34
0.0
1001
ACAD
1000
DSTYLE
1002
{
1070
    40
1040
1.0
1002
}
  0
ARC
  5
45C6
330
1F
100
AcDbEntity
  8
太線
100
AcDbCircle
 10
797.1335362763928
 20
129.080279070213
 30
0.0
 40
6.0
100
AcDbArc
 50
213.0462060789229
 51
30.56452286745428
  0
ARC
  5
45C7
330
1F
100
AcDbEntity
  8
太線
100
AcDbCircle
 10
793.309576649676
 20
132.7095563110294
 30
0.0
 40
6.0
100
AcDbArc
 50
58.32379763122491
 51
239.4192833947737
  0
DIMENSION
  5
45C8
330
1F
100
AcDbEntity
  8
寸法線
100
AcDbDimension
  2
*D40
 10
811.2019398448426
 20
134.0616724678698
 30
0.0
 11
806.9943774175795
 21
142.9669039334274
 31
0.0
 70
    33
  1
20
 71
     5
 42
18.41230935112673
  3
sunpo
100
AcDbAlignedDimension
 13
788.7569992612595
 23
137.2887228755965
 33
0.0
 14
802.0258800767685
 24
124.5235382883918
 34
0.0
1001
ACAD
1000
DSTYLE
1002
{
1070
    40
1040
1.0
1002
}
  0
LINE
  5
45C9
330
1F
100
AcDbEntity
  8
太線
100
AcDbLine
 10
792.1041498437994
 20
125.8083878569167
 30
0.0
 11
790.2570664695809
 21
127.5440765075247
 31
0.0
  0
LINE
  5
45CA
330
1F
100
AcDbEntity
  8
太線
100
AcDbLine
 10
796.4294157415049
 20
137.8457819066379
 30
0.0
 11
802.2998786168628
 21
132.1313291879703
 31
0.0
  0
LINE
  5
45CB
330
1F
100
AcDbEntity
  8
太線
100
AcDbLine
 10
1223.300318417707
 20
102.4784795017718
 30
0.0
 11
1272.300318417707
 21
102.4784795017718
 31
0.0
  0
DIMENSION
  5
45CC
330
1F
100
AcDbEntity
  8
寸法線
100
AcDbDimension
  2
*D41
 10
1277.300318417707
 20
108.8697015505332
 30
0.0
 11
1247.800318417707
 21
112.3697015505332
 31
0.0
 70
    32
  1
60
 71
     5
 42
59.0
  3
sunpo
100
AcDbAlignedDimension
 13
1218.300318417707
 23
102.4784795017718
 33
0.0
 14
1277.300318417707
 24
102.4784795017718
 34
0.0
100
AcDbRotatedDimension
1001
ACAD
1000
DSTYLE
1002
{
1070
    40
1040
1.0
1002
}
  0
ARC
  5
45CD
330
1F
100
AcDbEntity
  8
太線
100
AcDbCircle
 10
1223.300318417707
 20
97.47847950177186
 30
0.0
 40
5.0
100
AcDbArc
 50
90.0
 51
180.0
  0
ARC
  5
45CE
330
1F
100
AcDbEntity
  8
太線
100
AcDbCircle
 10
793.6678314122625
 20
251.9653197215571
 30
0.0
 40
19.99999999999994
100
AcDbArc
 50
0.0
 51
90.0
  0
LINE
  5
45D2
330
1F
100
AcDbEntity
  8
破線
100
AcDbLine
 10
727.1749407281561
 20
220.9532039480943
 30
0.0
 11
727.1749407281561
 21
220.9532039480943
 31
0.0
  0
ARC
  5
45D7
330
1F
100
AcDbEntity
  8
太線
100
AcDbCircle
 10
792.5835779677452
 20
251.2525505536872
 30
0.0
 40
6.0
100
AcDbArc
 50
148.738598792638
 51
329.8340845561818
  0
LINE
  5
45D8
330
1F
100
AcDbEntity
  8
太線
100
AcDbLine
 10
787.4249006393713
 20
254.3351237563232
 30
0.0
 11
793.0967039025261
 21
260.2468030430328
 31
0.0
  0
ARC
  5
45D9
330
1F
100
AcDbEntity
  8
太線
100
AcDbCircle
 10
796.1850762270635
 20
255.1026844222162
 30
0.0
 40
6.0
100
AcDbArc
 50
303.461007240325
 51
120.9793240288619
  0
LINE
  5
45DA
330
1F
100
AcDbEntity
  8
太線
100
AcDbLine
 10
799.4932923561207
 20
250.0971169175824
 30
0.0
 11
797.7710213041466
 21
248.2375162866146
 31
0.0
  0
LINE
  5
45DB
330
1F
100
AcDbEntity
  8
太線
100
AcDbLine
 10
1277.658849978185
 20
78.19597978568561
 30
0.0
 11
1281.837425177268
 21
79.96183082374614
 31
0.0
  0
ARC
  5
45DC
330
1F
100
AcDbEntity
  8
太線
100
AcDbCircle
 10
1248.008849978185
 20
87.46183082374626
 30
0.0
 40
34.65
100
AcDbArc
 50
347.4993777707553
 51
12.50062222924467
  0
LINE
  5
45DD
330
1F
100
AcDbEntity
  8
破線
100
AcDbLine
 10
1277.658849978185
 20
95.58345707371859
 30
0.0
 11
1277.658849978185
 21
95.58345707371859
 31
0.0
  0
LINE
  5
470B
330
1F
100
AcDbEntity
  8
太線
100
AcDbLine
 10
682.2063392993222
 20
-177.9190081577358
 30
0.0
 11
701.1749957161771
 21
-177.9190081577358
 31
0.0
  0
LINE
  5
470C
330
1F
100
AcDbEntity
  8
太線
100
AcDbLine
 10
767.6340728198295
 20
-178.064043097788
 30
0.0
 11
786.7625734550365
 21
-178.064043097788
 31
0.0
  0
LINE
  5
470D
330
1F
100
AcDbEntity
  8
太線
100
AcDbLine
 10
655.5559804168506
 20
-182.9190081577357
 30
0.0
 11
665.8766280711634
 21
-182.9190081577357
 31
0.0
  0
LINE
  5
470E
330
1F
100
AcDbEntity
  8
太線
100
AcDbLine
 10
799.2361512116772
 20
-182.9190081577356
 30
0.0
 11
813.6531374689125
 21
-182.9190081577357
 31
0.0
  0
DIMENSION
  5
4719
330
1F
100
AcDbEntity
  8
寸法線
100
AcDbDimension
  2
*D42
 10
813.6531374689125
 20
-195.7645312213971
 30
0.0
 11
734.6045589428816
 21
-192.2645312213971
 31
0.0
 70
    32
  1
160
 71
     5
 42
158.0971570520619
  3
sunpo
100
AcDbAlignedDimension
 13
655.5559804168506
 23
-182.9190081577357
 33
0.0
 14
813.6531374689125
 24
-182.9190081577357
 34
0.0
100
AcDbRotatedDimension
1001
ACAD
1000
DSTYLE
1002
{
1070
    40
1040
1.0
1002
}
  0
DIMENSION
  5
4738
330
1F
100
AcDbEntity
  8
寸法線
100
AcDbDimension
  2
*D43
 10
69.91634590173669
 20
241.9578292342675
 30
0.0
 11
40.26634590173671
 21
245.4578292342675
 31
0.0
 70
    32
  1
60
 71
     5
 42
59.29999999999996
  3
sunpo
100
AcDbAlignedDimension
 13
10.61634590173673
 23
211.6553268218409
 33
0.0
 14
69.91634590173669
 24
211.6553268218409
 34
0.0
100
AcDbRotatedDimension
1001
ACAD
1000
DSTYLE
1002
{
1070
    40
1040
1.0
1002
}
  0
DIMENSION
  5
4745
330
1F
100
AcDbEntity
  8
寸法線
100
AcDbDimension
  2
*D44
 10
104.9163459017366
 20
241.9578292342675
 30
0.0
 11
87.41634590173669
 21
245.4578292342675
 31
0.0
 70
    32
 71
     5
 42
35.0
  3
sunpo
100
AcDbAlignedDimension
 13
69.91634590173669
 23
241.9578292342675
 33
0.0
 14
104.9163459017366
 24
176.655326821841
 34
0.0
100
AcDbRotatedDimension
1001
ACAD
1000
DSTYLE
1002
{
1070
    40
1040
1.0
1002
}
  0
DIMENSION
  5
475B
330
1F
100
AcDbEntity
  8
寸法線
100
AcDbDimension
  2
*D45
 10
184.7859270222745
 20
88.82839651771247
 30
0.0
 11
159.7859270222745
 21
92.32839651771246
 31
0.0
 70
    32
  1
49.5
 71
     5
 42
50.0
  3
sunpo
100
AcDbAlignedDimension
 13
134.7859270222745
 23
66.53560202454525
 33
0.0
 14
184.7859270222745
 24
66.53560202454525
 34
0.0
100
AcDbRotatedDimension
1001
ACAD
1000
DSTYLE
1002
{
1070
    40
1040
1.0
1002
}
  0
DIMENSION
  5
478C
330
1F
100
AcDbEntity
  8
寸法線
100
AcDbDimension
  2
*D46
 10
30.31886819525495
 20
147.9817608596047
 30
0.0
 11
128.0104911350899
 21
158.0339392094667
 31
0.0
 70
   163
  1
Ｍ12・Ｍ20
 71
     5
 42
20.0
  3
sunpo
100
AcDbDiametricDimension
 15
50.21382360821846
 25
150.0288927840771
 35
0.0
 40
0.0
1001
ACAD
1000
DSTYLE
1002
{
1070
    40
1040
1.0
1070
   288
1070
     1
1002
}
  0
LEADER
  5
47A0
330
1F
100
AcDbEntity
  8
寸法線
100
AcDbLeader
  3
sunpo
 76
     2
 10
94.28151378780057
 20
185.0035863544581
 30
0.0
 10
127.6892617131088
 20
211.3235602846425
 30
0.0
1001
ACAD
1000
DSTYLE
1002
{
1070
   147
1040
1.0
1070
    77
1070
     0
1002
}
  0
TEXT
  5
47A1
330
1F
100
AcDbEntity
  8
文字
100
AcDbText
 10
40.06789215276512
 20
265.8785271306596
 30
0.0
 40
10.0
  1
底コーナー三方出
 51
15.0
  7
OKANO
100
AcDbText
  0
DIMENSION
  5
47B6
330
1F
100
AcDbEntity
  8
寸法線
100
AcDbDimension
  2
*D48
 10
813.6678314122622
 20
290.5417231343049
 30
0.0
 11
733.7205807388735
 21
294.0417231343049
 31
0.0
 70
    32
  1
160
 71
     5
 42
159.8945013467775
  3
sunpo
100
AcDbAlignedDimension
 13
653.7733300654847
 23
251.478417521217
 33
0.0
 14
813.6678314122622
 24
251.9653197215571
 34
0.0
100
AcDbRotatedDimension
1001
ACAD
1000
DSTYLE
1002
{
1070
    40
1040
1.0
1002
}
  0
TEXT
  5
47CC
330
1F
100
AcDbEntity
  8
文字
100
AcDbText
 10
555.7947727750684
 20
212.3041570650448
 30
0.0
 40
10.0
  1
ベース部
 51
15.0
  7
OKANO
100
AcDbText
  0
LINE
  5
47D4
330
1F
100
AcDbEntity
  8
細線
100
AcDbLine
 10
680.7595085024026
 20
-182.9190081577357
 30
0.0
 11
680.7595085024026
 21
-177.9190081577358
 31
0.0
  0
LINE
  5
47D5
330
1F
100
AcDbEntity
  8
細線
100
AcDbLine
 10
787.7439848616837
 20
-177.9190081577358
 30
0.0
 11
787.7439848616837
 21
-182.9190081577357
 31
0.0
  0
TEXT
  5
47E6
330
1F
100
AcDbEntity
  8
寸法線
100
AcDbText
 10
167.2024883706385
 20
221.9604990300383
 30
0.0
 40
7.0
  1
ネジ3箇所詰め
 51
15.0
  7
OKANO
100
AcDbText
  0
XLINE
  5
47E7
330
1F
100
AcDbEntity
  8
構築線
100
AcDbXline
 10
731.8304685025716
 20
0.8601351656021734
 30
0.0
 11
-1.0
 21
0.0
 31
0.0
  0
XLINE
  5
47E8
330
1F
100
AcDbEntity
  8
構築線
100
AcDbXline
 10
593.5127476447844
 20
0.8601351656021734
 30
0.0
 11
0.0
 21
1.0
 31
0.0
  0
XLINE
  5
47E9
330
1F
100
AcDbEntity
  8
構築線
100
AcDbXline
 10
466.5834665691927
 20
0.8601351656021734
 30
0.0
 11
0.0
 21
1.0
 31
0.0
  0
XLINE
  5
47EA
330
1F
100
AcDbEntity
  8
構築線
100
AcDbXline
 10
354.4021533165871
 20
1.535603196284796
 30
0.0
 11
0.0
 21
1.0
 31
0.0
  0
XLINE
  5
47EB
330
1F
100
AcDbEntity
  8
構築線
100
AcDbXline
 10
159.7859270222745
 20
1.535602024545255
 30
0.0
 11
0.0
 21
1.0
 31
0.0
  0
XLINE
  5
47EC
330
1F
100
AcDbEntity
  8
構築線
100
AcDbXline
 10
734.3596591167722
 20
191.559084425868
 30
0.0
 11
-1.0
 21
0.0
 31
0.0
  0
XLINE
  5
47ED
330
1F
100
AcDbEntity
  8
構築線
100
AcDbXline
 10
354.7404455150549
 20
117.7938032485121
 30
0.0
 11
1.0
 21
0.0
 31
0.0
  0
VIEWPORT
  5
2E
330
1B
100
AcDbEntity
 67
     1
  8
0
100
AcDbViewport
 10
331.854437800041
 20
108.4856578538652
 30
0.0
 40
1010.075122688959
 41
513.0202414500299
 68
     2
 69
     1
 12
331.854437800041
 22
108.4856578538652
 13
0.0
 23
0.0
 14
10.0
 24
10.0
 15
10.0
 25
10.0
 16
0.0
 26
0.0
 36
1.0
 17
0.0
 27
0.0
 37
0.0
 42
50.0
 43
0.0
 44
0.0
 45
513.0202414500299
 50
0.0
 51
0.0
 72
   100
 90
    32800
  1

281
     0
 71
     1
 74
     0
110
0.0
120
0.0
130
0.0
111
1.0
121
0.0
131
0.0
112
0.0
122
1.0
132
0.0
 79
     0
146
0.0
  0
VIEWPORT
  5
30
330
1B
100
AcDbEntity
 67
     1
  8
70-0-CON
100
AcDbViewport
 10
141.8594093064315
 20
100.3480256368386
 30
0.0
 40
261.6199023344245
 41
192.6196987113174
 68
     1
 69
     2
 12
419.4985645424296
 22
42.64216764159937
 13
0.0
 23
0.0
 14
5.0
 24
5.0
 15
10.0
 25
10.0
 16
0.0
 26
0.0
 36
1.0
 17
0.0
 27
0.0
 37
0.0
 42
50.0
 43
0.0
 44
0.0
 45
730.7629590604814
 50
0.0
 51
0.0
 72
   100
 90
    32864
  1

281
     0
 71
     1
 74
     0
110
0.0
120
0.0
130
0.0
111
1.0
121
0.0
131
0.0
112
0.0
122
1.0
132
0.0
 79
     0
146
0.0
  0
LWPOLYLINE
  5
45
330
1B
100
AcDbEntity
 67
     1
  8
50-0-CON
100
AcDbPolyline
 90
        4
 70
     1
 43
0.0
 10
11.04945813921926
 20
4.038176281179858
 10
272.2125713060605
 20
4.033520706629644
 10
273.4987754093466
 20
195.9297862125246
 10
11.04945813921926
 20
196.6578749924973
  0
LINE
  5
4A
330
1B
100
AcDbEntity
 67
     1
  8
50-0-CON
100
AcDbLine
 10
10.38768783662635
 20
100.3480256368386
 30
0.0
 11
-4.391850629656119
 21
100.3480256368386
 31
0.0
  0
LINE
  5
4B
330
1B
100
AcDbEntity
 67
     1
  8
50-0-CON
100
AcDbLine
 10
141.8594093064315
 20
197.098652626247
 30
0.0
 11
141.8594093064315
 21
202.387980773708
 31
0.0
  0
LINE
  5
4C
330
1B
100
AcDbEntity
 67
     1
  8
50-0-CON
100
AcDbLine
 10
272.4487699456857
 20
100.7888032705883
 30
0.0
 11
278.8458837249377
 21
100.7888032705883
 31
0.0
  0
LINE
  5
4D
330
1B
100
AcDbEntity
 67
     1
  8
50-0-CON
100
AcDbLine
 10
140.9770484758805
 20
4.038176281179858
 30
0.0
 11
140.9770484758805
 21
-3.455038652015446
 31
0.0
  0
ENDSEC
  0
SECTION
  2
OBJECTS
  0
DICTIONARY
  5
C
330
0
100
AcDbDictionary
281
     1
  3
ACAD_GROUP
350
D
  3
ACAD_LAYOUT
350
1A
  3
ACAD_MLINESTYLE
350
17
  3
ACAD_PLOTSETTINGS
350
19
  3
ACAD_PLOTSTYLENAME
350
E
  3
AcadDim
350
43CB
  3
AcDbVariableDictionary
350
6AD
  3
DWGPROPS
350
30F
  0
DICTIONARY
  5
D
102
{ACAD_REACTORS
330
C
102
}
330
C
100
AcDbDictionary
281
     1
  0
DICTIONARY
  5
1A
102
{ACAD_REACTORS
330
C
102
}
330
C
100
AcDbDictionary
281
     1
  3
A4
350
1E
  3
Model
350
22
  0
DICTIONARY
  5
17
102
{ACAD_REACTORS
330
C
102
}
330
C
100
AcDbDictionary
281
     1
  3
Standard
350
18
  0
DICTIONARY
  5
19
102
{ACAD_REACTORS
330
C
102
}
330
C
100
AcDbDictionary
281
     1
  0
ACDBDICTIONARYWDFLT
  5
E
102
{ACAD_REACTORS
330
C
102
}
330
C
100
AcDbDictionary
281
     1
  3
Normal
350
F
100
AcDbDictionaryWithDefault
340
F
  0
XRECORD
  5
43CB
102
{ACAD_REACTORS
330
C
102
}
330
C
100
AcDbXrecord
280
     1
 90
   990106
  3

 60
     0
 61
     0
 62
     1
 63
     3
 64
     0
 65
     0
 66
     0
 67
     3
 68
     1
 69
     0
 70
     0
 71
     0
 72
     0
 40
0.0
170
     0
  0
DICTIONARY
  5
6AD
102
{ACAD_REACTORS
330
C
102
}
330
C
100
AcDbDictionary
281
     1
  3
SORTENTS
350
6AE
  0
XRECORD
  5
30F
102
{ACAD_REACTORS
330
C
102
}
330
C
100
AcDbXrecord
280
     1
  1
DWGPROPS COOKIE
  2

  3

  4

  6

  7

  8

  9

300
=
301
=
302
=
303
=
304
=
305
=
306
=
307
=
308
=
309
=
 40
0.3303803125
 41
2452362.482225463
 42
2452370.969861285
  1

 90
        0
  0
LAYOUT
  5
1E
102
{ACAD_REACTORS
330
1A
102
}
330
1A
100
AcDbPlotSettings
  1

  2
EPSON PM-920C
  4
A4
  6

 40
3.757083177566528
 41
14.7637300491333
 42
3.757080078125
 43
3.757080078125
 44
209.9733276367187
 45
296.9683227539062
 46
0.0
 47
0.0
 48
0.0
 49
0.0
140
0.0
141
0.0
142
1.0
143
1.0
 70
   688
 72
     1
 73
     1
 74
     5
  7
joint.ctb
 75
    16
147
1.0
148
0.0
149
0.0
100
AcDbLayout
  1
A4
 70
     1
 71
     1
 10
-3.757080078125
 20
-3.757083177566528
 11
293.2112426757812
 21
206.2162444591522
 12
0.0
 22
0.0
 32
0.0
 14
-4.391850629656119
 24
-3.455038652015446
 34
0.0
 15
278.8458837249377
 25
202.387980773708
 35
0.0
146
0.0
 13
0.0
 23
0.0
 33
0.0
 16
1.0
 26
0.0
 36
0.0
 17
0.0
 27
1.0
 37
0.0
 76
     0
330
1B
331
30
  0
LAYOUT
  5
22
102
{ACAD_REACTORS
330
1A
102
}
330
1A
100
AcDbPlotSettings
  1

  2
EPSON PM-920C
  4
A4
  6

 40
3.757083177566528
 41
14.7637300491333
 42
3.757080078125
 43
3.757080078125
 44
209.9733276367187
 45
296.9683227539062
 46
0.0
 47
0.0
 48
0.0
 49
0.0
140
0.0
141
0.0
142
1.0
143
1.0
 70
 11952
 72
     1
 73
     1
 74
     0
  7

 75
     0
147
1.0
148
-45.64199848979289
149
-84.48806419330498
100
AcDbLayout
  1
Model
 70
     1
 71
     0
 10
0.0
 20
0.0
 11
12.0
 21
9.0
 12
0.0
 22
0.0
 32
0.0
 14
0.0
 24
0.0
 34
0.0
 15
0.0
 25
0.0
 35
0.0
146
0.0
 13
0.0
 23
0.0
 33
0.0
 16
1.0
 26
0.0
 36
0.0
 17
0.0
 27
1.0
 37
0.0
 76
     0
330
1F
  0
MLINESTYLE
  5
18
102
{ACAD_REACTORS
330
17
102
}
330
17
100
AcDbMlineStyle
  2
STANDARD
 70
     0
  3

 62
   256
 51
90.0
 52
90.0
 71
     2
 49
0.5
 62
   256
  6
BYLAYER
 49
-0.5
 62
   256
  6
BYLAYER
  0
ACDBPLACEHOLDER
  5
F
102
{ACAD_REACTORS
330
E
102
}
330
E
  0
DICTIONARYVAR
  5
6AE
102
{ACAD_REACTORS
330
6AD
102
}
330
6AD
100
DictionaryVariables
280
     0
  1
96
  0
ENDSEC
  0
EOF
