  0
SECTION
  2
HEADER
  9
$ACADVER
  1
AC1015
  9
$ACADMAINTVER
 70
     6
  9
$DWGCODEPAGE
  3
ANSI_932
  9
$INSBASE
 10
0.0
 20
0.0
 30
0.0
  9
$EXTMIN
 10
230.3621351269752
 20
89.80189528538494
 30
0.0
  9
$EXTMAX
 10
665.9364969368778
 20
440.7702500961413
 30
0.0
  9
$LIMMIN
 10
0.0
 20
0.0
  9
$LIMMAX
 10
420.0
 20
297.0
  9
$ORTHOMODE
 70
     0
  9
$REGENMODE
 70
     1
  9
$FILLMODE
 70
     1
  9
$QTEXTMODE
 70
     0
  9
$MIRRTEXT
 70
     1
  9
$LTSCALE
 40
1.0
  9
$ATTMODE
 70
     1
  9
$TEXTSIZE
 40
5.0
  9
$TRACEWID
 40
1.0
  9
$TEXTSTYLE
  7
OKANO
  9
$CLAYER
  8
太線
  9
$CELTYPE
  6
ByLayer
  9
$CECOLOR
 62
   256
  9
$CELTSCALE
 40
1.0
  9
$DISPSILH
 70
     0
  9
$DIMSCALE
 40
0.0
  9
$DIMASZ
 40
3.0
  9
$DIMEXO
 40
2.0
  9
$DIMDLI
 40
8.0
  9
$DIMRND
 40
0.0
  9
$DIMDLE
 40
0.0
  9
$DIMEXE
 40
3.0
  9
$DIMTP
 40
0.0
  9
$DIMTM
 40
0.0
  9
$DIMTXT
 40
5.0
  9
$DIMCEN
 40
2.5
  9
$DIMTSZ
 40
0.0
  9
$DIMTOL
 70
     0
  9
$DIMLIM
 70
     0
  9
$DIMTIH
 70
     0
  9
$DIMTOH
 70
     0
  9
$DIMSE1
 70
     0
  9
$DIMSE2
 70
     0
  9
$DIMTAD
 70
     1
  9
$DIMZIN
 70
     8
  9
$DIMBLK
  1
Closed
  9
$DIMASO
 70
     1
  9
$DIMSHO
 70
     1
  9
$DIMPOST
  1

  9
$DIMAPOST
  1

  9
$DIMALT
 70
     0
  9
$DIMALTD
 70
     3
  9
$DIMALTF
 40
0.03937007874016
  9
$DIMLFAC
 40
1.0
  9
$DIMTOFL
 70
     1
  9
$DIMTVP
 40
0.0
  9
$DIMTIX
 70
     0
  9
$DIMSOXD
 70
     0
  9
$DIMSAH
 70
     0
  9
$DIMBLK1
  1

  9
$DIMBLK2
  1

  9
$DIMSTYLE
  2
sunpo
  9
$DIMCLRD
 70
     0
  9
$DIMCLRE
 70
     0
  9
$DIMCLRT
 70
     0
  9
$DIMTFAC
 40
1.0
  9
$DIMGAP
 40
1.0
  9
$DIMJUST
 70
     0
  9
$DIMSD1
 70
     0
  9
$DIMSD2
 70
     0
  9
$DIMTOLJ
 70
     0
  9
$DIMTZIN
 70
     8
  9
$DIMALTZ
 70
     0
  9
$DIMALTTZ
 70
     0
  9
$DIMUPT
 70
     0
  9
$DIMDEC
 70
     2
  9
$DIMTDEC
 70
     2
  9
$DIMALTU
 70
     2
  9
$DIMALTTD
 70
     3
  9
$DIMTXSTY
  7
OKANO
  9
$DIMAUNIT
 70
     0
  9
$DIMADEC
 70
     0
  9
$DIMALTRND
 40
0.0
  9
$DIMAZIN
 70
     0
  9
$DIMDSEP
 70
    46
  9
$DIMATFIT
 70
     3
  9
$DIMFRAC
 70
     0
  9
$DIMLDRBLK
  1
Closed
  9
$DIMLUNIT
 70
     2
  9
$DIMLWD
 70
    -2
  9
$DIMLWE
 70
    -2
  9
$DIMTMOVE
 70
     0
  9
$LUNITS
 70
     2
  9
$LUPREC
 70
     2
  9
$SKETCHINC
 40
1.0
  9
$FILLETRAD
 40
5.0
  9
$AUNITS
 70
     0
  9
$AUPREC
 70
     0
  9
$MENU
  1
.
  9
$ELEVATION
 40
0.0
  9
$PELEVATION
 40
0.0
  9
$THICKNESS
 40
0.0
  9
$LIMCHECK
 70
     0
  9
$CHAMFERA
 40
10.0
  9
$CHAMFERB
 40
10.0
  9
$CHAMFERC
 40
20.0
  9
$CHAMFERD
 40
0.0
  9
$SKPOLY
 70
     0
  9
$TDCREATE
 40
2452362.482225463
  9
$TDUCREATE
 40
2452362.107225463
  9
$TDUPDATE
 40
2456269.581992013
  9
$TDUUPDATE
 40
2456269.206992014
  9
$TDINDWG
 40
2.3301004167
  9
$TDUSRTIMER
 40
2.3301004167
  9
$USRTIMER
 70
     1
  9
$ANGBASE
 50
0.0
  9
$ANGDIR
 70
     0
  9
$PDMODE
 70
     0
  9
$PDSIZE
 40
0.0
  9
$PLINEWID
 40
0.0
  9
$SPLFRAME
 70
     0
  9
$SPLINETYPE
 70
     6
  9
$SPLINESEGS
 70
     8
  9
$HANDSEED
  5
3A18
  9
$SURFTAB1
 70
     6
  9
$SURFTAB2
 70
     6
  9
$SURFTYPE
 70
     6
  9
$SURFU
 70
     6
  9
$SURFV
 70
     6
  9
$UCSBASE
  2

  9
$UCSNAME
  2

  9
$UCSORG
 10
0.0
 20
0.0
 30
0.0
  9
$UCSXDIR
 10
1.0
 20
0.0
 30
0.0
  9
$UCSYDIR
 10
0.0
 20
1.0
 30
0.0
  9
$UCSORTHOREF
  2

  9
$UCSORTHOVIEW
 70
     0
  9
$UCSORGTOP
 10
0.0
 20
0.0
 30
0.0
  9
$UCSORGBOTTOM
 10
0.0
 20
0.0
 30
0.0
  9
$UCSORGLEFT
 10
0.0
 20
0.0
 30
0.0
  9
$UCSORGRIGHT
 10
0.0
 20
0.0
 30
0.0
  9
$UCSORGFRONT
 10
0.0
 20
0.0
 30
0.0
  9
$UCSORGBACK
 10
0.0
 20
0.0
 30
0.0
  9
$PUCSBASE
  2

  9
$PUCSNAME
  2

  9
$PUCSORG
 10
0.0
 20
0.0
 30
0.0
  9
$PUCSXDIR
 10
1.0
 20
0.0
 30
0.0
  9
$PUCSYDIR
 10
0.0
 20
1.0
 30
0.0
  9
$PUCSORTHOREF
  2

  9
$PUCSORTHOVIEW
 70
     0
  9
$PUCSORGTOP
 10
0.0
 20
0.0
 30
0.0
  9
$PUCSORGBOTTOM
 10
0.0
 20
0.0
 30
0.0
  9
$PUCSORGLEFT
 10
0.0
 20
0.0
 30
0.0
  9
$PUCSORGRIGHT
 10
0.0
 20
0.0
 30
0.0
  9
$PUCSORGFRONT
 10
0.0
 20
0.0
 30
0.0
  9
$PUCSORGBACK
 10
0.0
 20
0.0
 30
0.0
  9
$USERI1
 70
     0
  9
$USERI2
 70
     0
  9
$USERI3
 70
     0
  9
$USERI4
 70
     0
  9
$USERI5
 70
     0
  9
$USERR1
 40
0.0
  9
$USERR2
 40
0.0
  9
$USERR3
 40
0.0
  9
$USERR4
 40
0.0
  9
$USERR5
 40
0.0
  9
$WORLDVIEW
 70
     1
  9
$SHADEDGE
 70
     3
  9
$SHADEDIF
 70
    70
  9
$TILEMODE
 70
     0
  9
$MAXACTVP
 70
    64
  9
$PINSBASE
 10
0.0
 20
0.0
 30
0.0
  9
$PLIMCHECK
 70
     0
  9
$PEXTMIN
 10
-4.391850629656119
 20
-3.455038652015446
 30
0.0
  9
$PEXTMAX
 10
278.8458837249377
 20
202.387980773708
 30
0.0
  9
$PLIMMIN
 10
-3.757080078125
 20
-3.757083177566528
  9
$PLIMMAX
 10
293.2112426757812
 20
206.2162444591522
  9
$UNITMODE
 70
     0
  9
$VISRETAIN
 70
     1
  9
$PLINEGEN
 70
     0
  9
$PSLTSCALE
 70
     1
  9
$TREEDEPTH
 70
  3020
  9
$CMLSTYLE
  2
Standard
  9
$CMLJUST
 70
     0
  9
$CMLSCALE
 40
20.0
  9
$PROXYGRAPHICS
 70
     1
  9
$MEASUREMENT
 70
     1
  9
$CELWEIGHT
370
    -1
  9
$ENDCAPS
280
     0
  9
$JOINSTYLE
280
     0
  9
$LWDISPLAY
290
     0
  9
$INSUNITS
 70
     4
  9
$HYPERLINKBASE
  1

  9
$STYLESHEET
  1

  9
$XEDIT
290
     1
  9
$CEPSNTYPE
380
     0
  9
$PSTYLEMODE
290
     1
  9
$FINGERPRINTGUID
  2
{FF7F33C3-4233-11D6-AEE0-0000F45FD7F4}
  9
$VERSIONGUID
  2
{932F9359-6204-4063-848C-C684F34328D4}
  9
$EXTNAMES
290
     1
  9
$PSVPSCALE
 40
0.0
  9
$OLESTARTUP
290
     0
  0
ENDSEC
  0
SECTION
  2
CLASSES
  0
CLASS
  1
ACDBDICTIONARYWDFLT
  2
AcDbDictionaryWithDefault
  3
AutoCAD 2000
 90
        0
280
     0
281
     0
  0
CLASS
  1
ACDBPLACEHOLDER
  2
AcDbPlaceHolder
  3
AutoCAD 2000
 90
        0
280
     0
281
     0
  0
CLASS
  1
LAYOUT
  2
AcDbLayout
  3
AutoCAD 2000
 90
        0
280
     0
281
     0
  0
CLASS
  1
DICTIONARYVAR
  2
AcDbDictionaryVar
  3
AutoCAD 2000
 90
        0
280
     0
281
     0
  0
ENDSEC
  0
SECTION
  2
TABLES
  0
TABLE
  2
VPORT
  5
8
330
0
100
AcDbSymbolTable
 70
     2
  0
VPORT
  5
3A17
330
8
100
AcDbSymbolTableRecord
100
AcDbViewportTableRecord
  2
*Active
 70
     0
 10
0.0
 20
0.0
 11
1.0
 21
1.0
 12
544.6157951095547
 22
193.4425854790177
 13
0.0
 23
0.0
 14
5.0
 24
5.0
 15
10.0
 25
10.0
 16
0.0
 26
0.0
 36
1.0
 17
0.0
 27
0.0
 37
0.0
 40
317.177798440303
 41
1.968879668049792
 42
50.0
 43
0.0
 44
0.0
 50
0.0
 51
0.0
 71
     0
 72
   100
 73
     1
 74
     3
 75
     0
 76
     0
 77
     0
 78
     0
281
     0
 65
     1
110
0.0
120
0.0
130
0.0
111
1.0
121
0.0
131
0.0
112
0.0
122
1.0
132
0.0
 79
     0
146
0.0
  0
ENDTAB
  0
TABLE
  2
LTYPE
  5
5
330
0
100
AcDbSymbolTable
 70
     5
  0
LTYPE
  5
14
330
5
100
AcDbSymbolTableRecord
100
AcDbLinetypeTableRecord
  2
ByBlock
 70
     0
  3

 72
    65
 73
     0
 40
0.0
  0
LTYPE
  5
15
330
5
100
AcDbSymbolTableRecord
100
AcDbLinetypeTableRecord
  2
ByLayer
 70
     0
  3

 72
    65
 73
     0
 40
0.0
  0
LTYPE
  5
16
330
5
100
AcDbSymbolTableRecord
100
AcDbLinetypeTableRecord
  2
Continuous
 70
     0
  3
Solid line
 72
    65
 73
     0
 40
0.0
  0
LTYPE
  5
33
330
5
100
AcDbSymbolTableRecord
100
AcDbLinetypeTableRecord
  2
DASHED2
 70
     0
  3
Dashed (.5x) _ _ _ _ _ _ _ _ _ _ _ _ _ _ _ _ _
 72
    65
 73
     2
 40
9.524999999999998
 49
6.349999999999999
 74
     0
 49
-3.174999999999999
 74
     0
  0
LTYPE
  5
34
330
5
100
AcDbSymbolTableRecord
100
AcDbLinetypeTableRecord
  2
CENTER2
 70
     0
  3
Center (.5x) ___ _ ___ _ ___ _ ___ _ ___ _ ___
 72
    65
 73
     4
 40
28.57499999999999
 49
19.05
 74
     0
 49
-3.174999999999999
 74
     0
 49
3.174999999999999
 74
     0
 49
-3.174999999999999
 74
     0
  0
LTYPE
  5
35
330
5
100
AcDbSymbolTableRecord
100
AcDbLinetypeTableRecord
  2
PHANTOM2
 70
     0
  3
Phantom (.5x) ___ _ _ ___ _ _ ___ _ _ ___ _ _
 72
    65
 73
     6
 40
31.75
 49
15.875
 74
     0
 49
-3.174999999999999
 74
     0
 49
3.174999999999999
 74
     0
 49
-3.174999999999999
 74
     0
 49
3.174999999999999
 74
     0
 49
-3.174999999999999
 74
     0
  0
LTYPE
  5
36
330
5
100
AcDbSymbolTableRecord
100
AcDbLinetypeTableRecord
  2
HIDDEN2
 70
     0
  3
Hidden (.5x) _ _ _ _ _ _ _ _ _ _ _ _ _ _ _ _ _
 72
    65
 73
     2
 40
4.762499999999999
 49
3.174999999999999
 74
     0
 49
-1.587499999999999
 74
     0
  0
ENDTAB
  0
TABLE
  2
LAYER
  5
2
330
0
100
AcDbSymbolTable
 70
    13
  0
LAYER
  5
10
330
2
100
AcDbSymbolTableRecord
100
AcDbLayerTableRecord
  2
0
 70
     0
 62
     7
  6
Continuous
370
    -3
390
F
  0
LAYER
  5
40
330
2
100
AcDbSymbolTableRecord
100
AcDbLayerTableRecord
  2
50-0-CON
 70
     0
 62
     4
  6
Continuous
370
    50
390
F
  0
LAYER
  5
41
330
2
100
AcDbSymbolTableRecord
100
AcDbLayerTableRecord
  2
70-0-CON
 70
     0
 62
   202
  6
Continuous
370
    70
390
F
  0
LAYER
  5
4E
330
2
100
AcDbSymbolTableRecord
100
AcDbLayerTableRecord
  2
極太線
 70
     0
 62
     7
  6
Continuous
370
    70
390
F
  0
LAYER
  5
4F
330
2
100
AcDbSymbolTableRecord
100
AcDbLayerTableRecord
  2
細線
 70
     0
 62
     8
  6
Continuous
370
    18
390
F
  0
LAYER
  5
AB
330
2
100
AcDbSymbolTableRecord
100
AcDbLayerTableRecord
  2
構築線
 70
     0
 62
    -2
  6
Continuous
290
     0
370
    18
390
F
  0
LAYER
  5
B8
330
2
100
AcDbSymbolTableRecord
100
AcDbLayerTableRecord
  2
太線
 70
     0
 62
     7
  6
Continuous
370
    35
390
F
  0
LAYER
  5
B9
330
2
100
AcDbSymbolTableRecord
100
AcDbLayerTableRecord
  2
寸法線
 70
     0
 62
     5
  6
Continuous
370
    18
390
F
  0
LAYER
  5
BA
330
2
100
AcDbSymbolTableRecord
100
AcDbLayerTableRecord
  2
破線
 70
     0
 62
     8
  6
HIDDEN2
370
    18
390
F
  0
LAYER
  5
BB
330
2
100
AcDbSymbolTableRecord
100
AcDbLayerTableRecord
  2
中心線
 70
     0
 62
     1
  6
CENTER2
370
    18
390
F
  0
LAYER
  5
BC
330
2
100
AcDbSymbolTableRecord
100
AcDbLayerTableRecord
  2
想像線
 70
     0
 62
     8
  6
PHANTOM2
370
    18
390
F
  0
LAYER
  5
BD
330
2
100
AcDbSymbolTableRecord
100
AcDbLayerTableRecord
  2
文字
 70
     0
 62
     7
  6
Continuous
370
    18
390
F
  0
LAYER
  5
180
330
2
100
AcDbSymbolTableRecord
100
AcDbLayerTableRecord
  2
Defpoints
 70
     0
 62
     7
  6
Continuous
290
     0
370
    -3
390
F
  0
ENDTAB
  0
TABLE
  2
STYLE
  5
3
330
0
100
AcDbSymbolTable
 70
     3
  0
STYLE
  5
11
330
3
100
AcDbSymbolTableRecord
100
AcDbTextStyleTableRecord
  2
Standard
 70
     0
 40
0.0
 41
1.0
 50
0.0
 71
     0
 42
3.0
  3
txt
  4

  0
STYLE
  5
32
330
3
100
AcDbSymbolTableRecord
100
AcDbTextStyleTableRecord
  2

 70
     1
 40
0.0
 41
1.0
 50
0.0
 71
     0
 42
2.5
  3
ltypeshp.shx
  4

  0
STYLE
  5
50
330
3
100
AcDbSymbolTableRecord
100
AcDbTextStyleTableRecord
  2
OKANO
 70
     0
 40
0.0
 41
1.0
 50
15.0
 71
     0
 42
5.0
  3
isocp.shx
  4
bigfont.shx
  0
ENDTAB
  0
TABLE
  2
VIEW
  5
6
330
0
100
AcDbSymbolTable
 70
     0
  0
ENDTAB
  0
TABLE
  2
UCS
  5
7
330
0
100
AcDbSymbolTable
 70
     0
  0
ENDTAB
  0
TABLE
  2
APPID
  5
9
330
0
100
AcDbSymbolTable
 70
     1
  0
APPID
  5
12
330
9
100
AcDbSymbolTableRecord
100
AcDbRegAppTableRecord
  2
ACAD
 70
     0
  0
ENDTAB
  0
TABLE
  2
DIMSTYLE
  5
A
330
0
100
AcDbSymbolTable
 70
     2
100
AcDbDimStyleTable
 71
     2
340
A2
340
27
  0
DIMSTYLE
105
27
330
A
100
AcDbSymbolTableRecord
100
AcDbDimStyleTableRecord
  2
ISO-25
 70
     0
 41
2.5
 42
0.625
 43
3.75
 44
1.25
 73
     0
 74
     0
 77
     1
 78
     8
140
2.5
141
2.5
143
0.03937007874016
147
0.625
171
     3
172
     1
271
     2
272
     2
274
     3
283
     0
284
     8
340
11
  0
DIMSTYLE
105
A2
102
{ACAD_REACTORS
330
3414
330
3412
330
3432
330
340F
330
3535
330
3725
330
372F
330
3730
330
38B4
330
3945
330
398D
330
39C9
330
39F7
102
}
330
A
100
AcDbSymbolTableRecord
100
AcDbDimStyleTableRecord
  2
sunpo
 70
     0
 40
0.0
 41
3.0
 42
2.0
 43
8.0
 44
3.0
 73
     0
 74
     0
 77
     1
 78
     8
140
5.0
141
2.5
143
0.03937007874016
147
1.0
171
     3
172
     1
271
     2
272
     2
274
     3
283
     0
284
     8
340
50
341
9B
342
9B
  0
ENDTAB
  0
TABLE
  2
BLOCK_RECORD
  5
1
330
0
100
AcDbSymbolTable
 70
    20
  0
BLOCK_RECORD
  5
1F
330
1
100
AcDbSymbolTableRecord
100
AcDbBlockTableRecord
  2
*Model_Space
340
22
  0
BLOCK_RECORD
  5
1B
330
1
100
AcDbSymbolTableRecord
100
AcDbBlockTableRecord
  2
*Paper_Space
340
1E
  0
BLOCK_RECORD
  5
9B
330
1
100
AcDbSymbolTableRecord
100
AcDbBlockTableRecord
  2
_Closed
340
0
102
{BLKREFS
331
3523
331
3524
331
3545
331
3546
331
37D4
331
37D5
331
384A
331
384B
331
385E
331
3864
331
3865
331
386D
331
386E
331
38AE
331
38AF
331
38C4
331
38C5
331
391B
331
391C
331
3926
331
3927
331
3931
331
3932
331
393F
331
3940
331
3992
331
3993
331
399E
331
399F
331
39A7
331
39A8
331
39EA
331
39EB
331
39FC
331
39FD
331
3A08
331
3A09
331
3A11
331
3A12
102
}
  0
BLOCK_RECORD
  5
1510
330
1
100
AcDbSymbolTableRecord
100
AcDbBlockTableRecord
  2
A$C10A573AC
340
0
  0
BLOCK_RECORD
  5
346A
330
1
100
AcDbSymbolTableRecord
100
AcDbBlockTableRecord
  2
*D2
340
0
  0
BLOCK_RECORD
  5
3490
330
1
100
AcDbSymbolTableRecord
100
AcDbBlockTableRecord
  2
*D3
340
0
  0
BLOCK_RECORD
  5
349C
330
1
100
AcDbSymbolTableRecord
100
AcDbBlockTableRecord
  2
*D4
340
0
  0
BLOCK_RECORD
  5
34AA
330
1
100
AcDbSymbolTableRecord
100
AcDbBlockTableRecord
  2
*D5
340
0
  0
BLOCK_RECORD
  5
3536
330
1
100
AcDbSymbolTableRecord
100
AcDbBlockTableRecord
  2
*D6
340
0
  0
BLOCK_RECORD
  5
376B
330
1
100
AcDbSymbolTableRecord
100
AcDbBlockTableRecord
  2
*D9
340
0
  0
BLOCK_RECORD
  5
3774
330
1
100
AcDbSymbolTableRecord
100
AcDbBlockTableRecord
  2
*D10
340
0
  0
BLOCK_RECORD
  5
3780
330
1
100
AcDbSymbolTableRecord
100
AcDbBlockTableRecord
  2
*D11
340
0
  0
BLOCK_RECORD
  5
38B5
330
1
100
AcDbSymbolTableRecord
100
AcDbBlockTableRecord
  2
*D12
340
0
  0
BLOCK_RECORD
  5
3946
330
1
100
AcDbSymbolTableRecord
100
AcDbBlockTableRecord
  2
*D15
340
0
  0
BLOCK_RECORD
  5
398E
330
1
100
AcDbSymbolTableRecord
100
AcDbBlockTableRecord
  2
*D16
340
0
  0
BLOCK_RECORD
  5
39DB
330
1
100
AcDbSymbolTableRecord
100
AcDbBlockTableRecord
  2
*D18
340
0
  0
BLOCK_RECORD
  5
39F8
330
1
100
AcDbSymbolTableRecord
100
AcDbBlockTableRecord
  2
*D19
340
0
  0
ENDTAB
  0
ENDSEC
  0
SECTION
  2
BLOCKS
  0
BLOCK
  5
20
330
1F
100
AcDbEntity
  8
0
100
AcDbBlockBegin
  2
*Model_Space
 70
     0
 10
0.0
 20
0.0
 30
0.0
  3
*Model_Space
  1

  0
ENDBLK
  5
21
330
1F
100
AcDbEntity
  8
0
100
AcDbBlockEnd
  0
BLOCK
  5
1C
330
1B
100
AcDbEntity
 67
     1
  8
0
100
AcDbBlockBegin
  2
*Paper_Space
 70
     0
 10
0.0
 20
0.0
 30
0.0
  3
*Paper_Space
  1

  0
ENDBLK
  5
1D
330
1B
100
AcDbEntity
 67
     1
  8
0
100
AcDbBlockEnd
  0
BLOCK
  5
A0
330
9B
100
AcDbEntity
  8
0
100
AcDbBlockBegin
  2
_Closed
 70
     0
 10
0.0
 20
0.0
 30
0.0
  3
_Closed
  1

  0
LINE
  5
9C
330
9B
100
AcDbEntity
  8
0
 62
     0
370
    -2
100
AcDbLine
 10
-1.0
 20
0.1666666666666666
 30
0.0
 11
0.0
 21
0.0
 31
0.0
  0
LINE
  5
9D
330
9B
100
AcDbEntity
  8
0
 62
     0
370
    -2
100
AcDbLine
 10
0.0
 20
0.0
 30
0.0
 11
-1.0
 21
-0.1666666666666666
 31
0.0
  0
LINE
  5
9E
330
9B
100
AcDbEntity
  8
0
 62
     0
370
    -2
100
AcDbLine
 10
-1.0
 20
0.1666666666666666
 30
0.0
 11
-1.0
 21
-0.1666666666666666
 31
0.0
  0
LINE
  5
9F
330
9B
100
AcDbEntity
  8
0
 62
     0
370
    -2
100
AcDbLine
 10
0.0
 20
0.0
 30
0.0
 11
-1.0
 21
0.0
 31
0.0
  0
ENDBLK
  5
A1
330
9B
100
AcDbEntity
  8
0
100
AcDbBlockEnd
  0
BLOCK
  5
155B
330
1510
100
AcDbEntity
  8
0
100
AcDbBlockBegin
  2
A$C10A573AC
 70
     0
 10
0.0
 20
0.0
 30
0.0
  3
A$C10A573AC
  1

  0
TEXT
  5
1511
330
1510
100
AcDbEntity
  8
文字
100
AcDbText
 10
0.9844302777919438
 20
5.224957122252135
 30
0.0
 40
3.0
  1
Materal : Steel.
 51
15.0
  7
OKANO
100
AcDbText
  0
TEXT
  5
1512
330
1510
100
AcDbEntity
  8
文字
100
AcDbText
 10
-0.1141909619694843
 20
0.7500001922403499
 30
0.0
 40
3.0
  1
Surface treatment : Electro galvanized.
 51
15.0
  7
OKANO
100
AcDbText
  0
TEXT
  5
1513
330
1510
100
AcDbEntity
  8
文字
100
AcDbText
 10
-0.4901926332574931
 20
9.159967445193728
 30
0.0
 40
3.0
  1
5 TORGUE SCREW  M5-6
 51
15.0
  7
OKANO
100
AcDbText
  0
TEXT
  5
1514
330
1510
100
AcDbEntity
  8
文字
100
AcDbText
 10
1.364713526390005
 20
78.88822913323082
 30
0.0
 40
3.0
  1
Special standard,
 51
15.0
  7
OKANO
100
AcDbText
  0
TEXT
  5
1515
330
1510
100
AcDbEntity
  8
文字
100
AcDbText
 10
92.88160823408942
 20
89.92753849837379
 30
0.0
 40
3.0
  1
Screw Type
 51
15.0
  7
OKANO
100
AcDbText
  0
LINE
  5
1516
330
1510
100
AcDbEntity
  8
太線
100
AcDbLine
 10
113.9464587597784
 20
81.93930390144641
 30
0.0
 11
112.4464587597784
 21
81.93930390144641
 31
0.0
  0
LINE
  5
1517
330
1510
100
AcDbEntity
  8
太線
100
AcDbLine
 10
112.4464587597784
 20
76.9393039014464
 30
0.0
 11
121.4644995438761
 21
76.9393039014464
 31
0.0
  0
TEXT
  5
1518
330
1510
100
AcDbEntity
  8
文字
100
AcDbText
 10
93.46068240437217
 20
77.96976862235396
 30
0.0
 40
2.0
  1
17-30
 51
15.0
  7
OKANO
100
AcDbText
  0
LINE
  5
1519
330
1510
100
AcDbEntity
  8
太線
100
AcDbLine
 10
111.9464587597784
 20
81.43930390144641
 30
0.0
 11
111.9464587597784
 21
77.4393039014464
 31
0.0
  0
LINE
  5
151A
330
1510
100
AcDbEntity
  8
太線
100
AcDbLine
 10
91.94645875977846
 20
81.43930390144641
 30
0.0
 11
91.94645875977846
 21
77.43930390144639
 31
0.0
  0
LINE
  5
151B
330
1510
100
AcDbEntity
  8
太線
100
AcDbLine
 10
101.9644995438761
 20
77.4393039014464
 30
0.0
 11
101.9644995438761
 21
81.43930390144641
 31
0.0
  0
LINE
  5
151C
330
1510
100
AcDbEntity
  8
太線
100
AcDbLine
 10
92.44645875977846
 20
76.9393039014464
 30
0.0
 11
101.4644995438761
 21
76.9393039014464
 31
0.0
  0
ARC
  5
151D
330
1510
100
AcDbEntity
  8
太線
100
AcDbCircle
 10
92.44645875977846
 20
77.43930390144639
 30
0.0
 40
0.5
100
AcDbArc
 50
180.0
 51
270.0
  0
ARC
  5
151E
330
1510
100
AcDbEntity
  8
太線
100
AcDbCircle
 10
101.4644995438761
 20
77.4393039014464
 30
0.0
 40
0.5
100
AcDbArc
 50
270.0
 51
0.0
  0
ARC
  5
151F
330
1510
100
AcDbEntity
  8
太線
100
AcDbCircle
 10
112.4464587597784
 20
77.4393039014464
 30
0.0
 40
0.5
100
AcDbArc
 50
180.0
 51
270.0
  0
LINE
  5
1520
330
1510
100
AcDbEntity
  8
想像線
100
AcDbLine
 10
93.94645875977847
 20
81.93930390144641
 30
0.0
 11
99.96449954387617
 21
81.93930390144641
 31
0.0
  0
LINE
  5
1521
330
1510
100
AcDbEntity
  8
極太線
100
AcDbLine
 10
96.38762957111168
 20
85.43930390144641
 30
0.0
 11
97.50528794844525
 21
85.43930390144641
 31
0.0
  0
CIRCLE
  5
1522
330
1510
100
AcDbEntity
  8
太線
100
AcDbCircle
 10
96.94645875977847
 20
85.43930390144641
 30
0.0
 40
0.5588291886667776
  0
LINE
  5
1523
330
1510
100
AcDbEntity
  8
太線
100
AcDbLine
 10
99.46449954387617
 20
86.93930390144641
 30
0.0
 11
94.44645875977846
 21
86.93930390144641
 31
0.0
  0
LINE
  5
1524
330
1510
100
AcDbEntity
  8
太線
100
AcDbLine
 10
93.94645875977847
 20
86.43930390144641
 30
0.0
 11
93.94645875977847
 21
81.93930390144641
 31
0.0
  0
ARC
  5
1525
330
1510
100
AcDbEntity
  8
太線
100
AcDbCircle
 10
92.44645875977846
 20
81.43930390144641
 30
0.0
 40
0.5
100
AcDbArc
 50
90.0
 51
180.0
  0
LINE
  5
1526
330
1510
100
AcDbEntity
  8
太線
100
AcDbLine
 10
93.94645875977847
 20
81.93930390144641
 30
0.0
 11
92.44645875977846
 21
81.93930390144641
 31
0.0
  0
ARC
  5
1527
330
1510
100
AcDbEntity
  8
太線
100
AcDbCircle
 10
94.44645875977846
 20
86.43930390144641
 30
0.0
 40
0.5
100
AcDbArc
 50
90.0
 51
180.0
  0
LINE
  5
1528
330
1510
100
AcDbEntity
  8
太線
100
AcDbLine
 10
99.96449954387617
 20
81.93930390144641
 30
0.0
 11
99.96449954387617
 21
86.43930390144641
 31
0.0
  0
LINE
  5
1529
330
1510
100
AcDbEntity
  8
太線
100
AcDbLine
 10
101.4644995438761
 20
81.93930390144641
 30
0.0
 11
99.96449954387617
 21
81.93930390144641
 31
0.0
  0
ARC
  5
152A
330
1510
100
AcDbEntity
  8
太線
100
AcDbCircle
 10
101.4644995438761
 20
81.43930390144641
 30
0.0
 40
0.5
100
AcDbArc
 50
0.0
 51
90.0
  0
ARC
  5
152B
330
1510
100
AcDbEntity
  8
太線
100
AcDbCircle
 10
99.46449954387617
 20
86.43930390144641
 30
0.0
 40
0.5
100
AcDbArc
 50
0.0
 51
90.0
  0
LINE
  5
152C
330
1510
100
AcDbEntity
  8
極太線
100
AcDbLine
 10
96.94645875977847
 20
85.99813309011318
 30
0.0
 11
96.94645875977847
 21
84.88047471277964
 31
0.0
  0
ARC
  5
152D
330
1510
100
AcDbEntity
  8
太線
100
AcDbCircle
 10
112.4464587597784
 20
81.43930390144641
 30
0.0
 40
0.5
100
AcDbArc
 50
90.0
 51
180.0
  0
TEXT
  5
152E
330
1510
100
AcDbEntity
  8
文字
100
AcDbText
 10
134.3819212586066
 20
78.16263579228063
 30
0.0
 40
2.0
  1
101
 51
15.0
  7
OKANO
100
AcDbText
  0
TEXT
  5
152F
330
1510
100
AcDbEntity
  8
文字
100
AcDbText
 10
113.3422276612066
 20
77.96976862235396
 30
0.0
 40
2.0
  1
38-83
 51
15.0
  7
OKANO
100
AcDbText
  0
LINE
  5
1530
330
1510
100
AcDbEntity
  8
太線
100
AcDbLine
 10
141.9825403279738
 20
77.4393039014464
 30
0.0
 11
141.9825403279738
 21
81.43930390144641
 31
0.0
  0
LINE
  5
1531
330
1510
100
AcDbEntity
  8
太線
100
AcDbLine
 10
131.9644995438761
 20
81.43930390144641
 30
0.0
 11
131.9644995438761
 21
77.4393039014464
 31
0.0
  0
LINE
  5
1532
330
1510
100
AcDbEntity
  8
太線
100
AcDbLine
 10
121.9644995438761
 20
77.4393039014464
 30
0.0
 11
121.9644995438761
 21
81.43930390144641
 31
0.0
  0
ARC
  5
1533
330
1510
100
AcDbEntity
  8
太線
100
AcDbCircle
 10
121.4644995438761
 20
77.4393039014464
 30
0.0
 40
0.5
100
AcDbArc
 50
270.0
 51
0.0
  0
LINE
  5
1534
330
1510
100
AcDbEntity
  8
太線
100
AcDbLine
 10
132.4644995438761
 20
76.9393039014464
 30
0.0
 11
141.4825403279738
 21
76.9393039014464
 31
0.0
  0
ARC
  5
1535
330
1510
100
AcDbEntity
  8
太線
100
AcDbCircle
 10
132.4644995438761
 20
77.4393039014464
 30
0.0
 40
0.5
100
AcDbArc
 50
180.0
 51
270.0
  0
ARC
  5
1536
330
1510
100
AcDbEntity
  8
太線
100
AcDbCircle
 10
141.4825403279738
 20
77.4393039014464
 30
0.0
 40
0.5
100
AcDbArc
 50
270.0
 51
0.0
  0
ARC
  5
1537
330
1510
100
AcDbEntity
  8
太線
100
AcDbCircle
 10
121.4644995438761
 20
81.43930390144641
 30
0.0
 40
0.5
100
AcDbArc
 50
0.0
 51
90.0
  0
LINE
  5
1538
330
1510
100
AcDbEntity
  8
太線
100
AcDbLine
 10
119.9644995438761
 20
81.93930390144641
 30
0.0
 11
119.9644995438761
 21
86.43930390144641
 31
0.0
  0
LINE
  5
1539
330
1510
100
AcDbEntity
  8
太線
100
AcDbLine
 10
113.9464587597784
 20
86.43930390144641
 30
0.0
 11
113.9464587597784
 21
81.93930390144641
 31
0.0
  0
LINE
  5
153A
330
1510
100
AcDbEntity
  8
想像線
100
AcDbLine
 10
113.9464587597784
 20
81.93930390144641
 30
0.0
 11
119.9644995438761
 21
81.93930390144641
 31
0.0
  0
LINE
  5
153B
330
1510
100
AcDbEntity
  8
太線
100
AcDbLine
 10
121.4644995438761
 20
81.93930390144641
 30
0.0
 11
119.9644995438761
 21
81.93930390144641
 31
0.0
  0
LINE
  5
153C
330
1510
100
AcDbEntity
  8
太線
100
AcDbLine
 10
119.4644995438761
 20
86.93930390144641
 30
0.0
 11
114.4464587597784
 21
86.93930390144641
 31
0.0
  0
ARC
  5
153D
330
1510
100
AcDbEntity
  8
太線
100
AcDbCircle
 10
114.4464587597784
 20
86.43930390144641
 30
0.0
 40
0.5
100
AcDbArc
 50
90.0
 51
180.0
  0
CIRCLE
  5
153E
330
1510
100
AcDbEntity
  8
太線
100
AcDbCircle
 10
115.4464587597784
 20
85.43930390144641
 30
0.0
 40
0.5588291886667776
  0
LINE
  5
153F
330
1510
100
AcDbEntity
  8
極太線
100
AcDbLine
 10
115.4464587597784
 20
85.99813309011318
 30
0.0
 11
115.4464587597784
 21
84.88047471277964
 31
0.0
  0
LINE
  5
1540
330
1510
100
AcDbEntity
  8
極太線
100
AcDbLine
 10
114.8876295711116
 20
85.43930390144641
 30
0.0
 11
116.0052879484452
 21
85.43930390144641
 31
0.0
  0
ARC
  5
1541
330
1510
100
AcDbEntity
  8
太線
100
AcDbCircle
 10
119.4644995438761
 20
86.43930390144641
 30
0.0
 40
0.5
100
AcDbArc
 50
0.0
 51
90.0
  0
LINE
  5
1542
330
1510
100
AcDbEntity
  8
極太線
100
AcDbLine
 10
117.9056703552094
 20
85.43930390144641
 30
0.0
 11
119.0233287325429
 21
85.43930390144641
 31
0.0
  0
LINE
  5
1543
330
1510
100
AcDbEntity
  8
極太線
100
AcDbLine
 10
118.4644995438761
 20
85.99813309011318
 30
0.0
 11
118.4644995438761
 21
84.88047471277964
 31
0.0
  0
CIRCLE
  5
1544
330
1510
100
AcDbEntity
  8
太線
100
AcDbCircle
 10
118.4644995438761
 20
85.43930390144641
 30
0.0
 40
0.5588291886667776
  0
LINE
  5
1545
330
1510
100
AcDbEntity
  8
想像線
100
AcDbLine
 10
133.9644995438761
 20
81.93930390144641
 30
0.0
 11
139.9825403279738
 21
81.93930390144641
 31
0.0
  0
LINE
  5
1546
330
1510
100
AcDbEntity
  8
極太線
100
AcDbLine
 10
137.9237111393071
 20
85.43930390144641
 30
0.0
 11
139.0413695166406
 21
85.43930390144641
 31
0.0
  0
CIRCLE
  5
1547
330
1510
100
AcDbEntity
  8
太線
100
AcDbCircle
 10
138.4825403279738
 20
85.43930390144641
 30
0.0
 40
0.5588291886667776
  0
CIRCLE
  5
1548
330
1510
100
AcDbEntity
  8
太線
100
AcDbCircle
 10
138.4825403279738
 20
83.26342923362075
 30
0.0
 40
0.5588291886667776
  0
LINE
  5
1549
330
1510
100
AcDbEntity
  8
極太線
100
AcDbLine
 10
137.9237111393071
 20
83.26342923362075
 30
0.0
 11
139.0413695166406
 21
83.26342923362075
 31
0.0
  0
LINE
  5
154A
330
1510
100
AcDbEntity
  8
太線
100
AcDbLine
 10
139.4825403279738
 20
86.93930390144641
 30
0.0
 11
134.4644995438761
 21
86.93930390144641
 31
0.0
  0
LINE
  5
154B
330
1510
100
AcDbEntity
  8
太線
100
AcDbLine
 10
133.9644995438761
 20
86.43930390144641
 30
0.0
 11
133.9644995438761
 21
81.93930390144641
 31
0.0
  0
ARC
  5
154C
330
1510
100
AcDbEntity
  8
太線
100
AcDbCircle
 10
132.4644995438761
 20
81.43930390144641
 30
0.0
 40
0.5
100
AcDbArc
 50
90.0
 51
180.0
  0
LINE
  5
154D
330
1510
100
AcDbEntity
  8
太線
100
AcDbLine
 10
133.9644995438761
 20
81.93930390144641
 30
0.0
 11
132.4644995438761
 21
81.93930390144641
 31
0.0
  0
LINE
  5
154E
330
1510
100
AcDbEntity
  8
極太線
100
AcDbLine
 10
134.9056703552093
 20
83.26342923362075
 30
0.0
 11
136.0233287325429
 21
83.26342923362075
 31
0.0
  0
LINE
  5
154F
330
1510
100
AcDbEntity
  8
極太線
100
AcDbLine
 10
135.4644995438761
 20
83.82225842228752
 30
0.0
 11
135.4644995438761
 21
82.70460004495395
 31
0.0
  0
CIRCLE
  5
1550
330
1510
100
AcDbEntity
  8
太線
100
AcDbCircle
 10
135.4644995438761
 20
83.26342923362075
 30
0.0
 40
0.5588291886667776
  0
ARC
  5
1551
330
1510
100
AcDbEntity
  8
太線
100
AcDbCircle
 10
134.4644995438761
 20
86.43930390144641
 30
0.0
 40
0.5
100
AcDbArc
 50
90.0
 51
180.0
  0
CIRCLE
  5
1552
330
1510
100
AcDbEntity
  8
太線
100
AcDbCircle
 10
135.4644995438761
 20
85.43930390144641
 30
0.0
 40
0.5588291886667776
  0
LINE
  5
1553
330
1510
100
AcDbEntity
  8
極太線
100
AcDbLine
 10
135.4644995438761
 20
85.99813309011318
 30
0.0
 11
135.4644995438761
 21
84.88047471277964
 31
0.0
  0
LINE
  5
1554
330
1510
100
AcDbEntity
  8
極太線
100
AcDbLine
 10
134.9056703552093
 20
85.43930390144641
 30
0.0
 11
136.0233287325429
 21
85.43930390144641
 31
0.0
  0
LINE
  5
1555
330
1510
100
AcDbEntity
  8
太線
100
AcDbLine
 10
139.9825403279738
 20
81.93930390144641
 30
0.0
 11
139.9825403279738
 21
86.43930390144641
 31
0.0
  0
ARC
  5
1556
330
1510
100
AcDbEntity
  8
太線
100
AcDbCircle
 10
141.4825403279738
 20
81.43930390144641
 30
0.0
 40
0.5
100
AcDbArc
 50
0.0
 51
90.0
  0
LINE
  5
1557
330
1510
100
AcDbEntity
  8
極太線
100
AcDbLine
 10
138.4825403279738
 20
83.82225842228752
 30
0.0
 11
138.4825403279738
 21
82.70460004495395
 31
0.0
  0
LINE
  5
1558
330
1510
100
AcDbEntity
  8
太線
100
AcDbLine
 10
141.4825403279738
 20
81.93930390144641
 30
0.0
 11
139.9825403279738
 21
81.93930390144641
 31
0.0
  0
ARC
  5
1559
330
1510
100
AcDbEntity
  8
太線
100
AcDbCircle
 10
139.4825403279738
 20
86.43930390144641
 30
0.0
 40
0.5
100
AcDbArc
 50
0.0
 51
90.0
  0
LINE
  5
155A
330
1510
100
AcDbEntity
  8
極太線
100
AcDbLine
 10
138.4825403279738
 20
85.99813309011318
 30
0.0
 11
138.4825403279738
 21
84.88047471277964
 31
0.0
  0
ENDBLK
  5
155C
330
1510
100
AcDbEntity
  8
0
100
AcDbBlockEnd
  0
BLOCK
  5
3474
330
346A
100
AcDbEntity
  8
0
100
AcDbBlockBegin
  2
*D2
 70
     1
 10
0.0
 20
0.0
 30
0.0
  3
*D2
  1

  0
LINE
  5
3520
330
346A
100
AcDbEntity
  8
寸法線
 62
     0
370
    -2
100
AcDbLine
 10
482.0337151808912
 20
263.1490861672506
 30
0.0
 11
482.0337151808912
 21
270.540308216012
 31
0.0
  0
LINE
  5
3521
330
346A
100
AcDbEntity
  8
寸法線
 62
     0
370
    -2
100
AcDbLine
 10
541.0337151808912
 20
263.1490861672506
 30
0.0
 11
541.0337151808912
 21
270.540308216012
 31
0.0
  0
LINE
  5
3522
330
346A
100
AcDbEntity
  8
寸法線
 62
     0
370
    -2
100
AcDbLine
 10
485.0337151808912
 20
267.540308216012
 30
0.0
 11
538.0337151808912
 21
267.540308216012
 31
0.0
  0
INSERT
  5
3523
330
346A
100
AcDbEntity
  8
寸法線
 62
     0
370
    -2
100
AcDbBlockReference
  2
_Closed
 10
482.0337151808912
 20
267.540308216012
 30
0.0
 41
3.0
 42
3.0
 43
3.0
 50
180.0
  0
INSERT
  5
3524
330
346A
100
AcDbEntity
  8
寸法線
 62
     0
370
    -2
100
AcDbBlockReference
  2
_Closed
 10
541.0337151808912
 20
267.540308216012
 30
0.0
 41
3.0
 42
3.0
 43
3.0
  0
MTEXT
  5
3525
330
346A
100
AcDbEntity
  8
寸法線
 62
     0
100
AcDbMText
 10
511.5337151808912
 20
271.040308216012
 30
0.0
 40
5.0
 41
0.0
 71
     5
 72
     1
  1
60
  7
OKANO
 73
     1
 44
1.0
  0
POINT
  5
3526
330
346A
100
AcDbEntity
  8
Defpoints
 62
     0
100
AcDbPoint
 10
482.0337151808912
 20
261.1490861672506
 30
0.0
  0
POINT
  5
3527
330
346A
100
AcDbEntity
  8
Defpoints
 62
     0
100
AcDbPoint
 10
541.0337151808912
 20
261.1490861672506
 30
0.0
  0
POINT
  5
3528
330
346A
100
AcDbEntity
  8
Defpoints
 62
     0
100
AcDbPoint
 10
541.0337151808912
 20
267.540308216012
 30
0.0
  0
ENDBLK
  5
3475
330
346A
100
AcDbEntity
  8
0
100
AcDbBlockEnd
  0
BLOCK
  5
349A
330
3490
100
AcDbEntity
  8
0
100
AcDbBlockBegin
  2
*D3
 70
     1
 10
0.0
 20
0.0
 30
0.0
  3
*D3
  1

  0
LINE
  5
3923
330
3490
100
AcDbEntity
  8
寸法線
 62
     0
370
    -2
100
AcDbLine
 10
486.3267812658532
 20
216.5903057364884
 30
0.0
 11
486.3267812658532
 21
211.4513635096674
 31
0.0
  0
LINE
  5
3924
330
3490
100
AcDbEntity
  8
寸法線
 62
     0
370
    -2
100
AcDbLine
 10
535.1236442437316
 20
218.3791916408098
 30
0.0
 11
535.1236442437316
 21
211.4513635096674
 31
0.0
  0
LINE
  5
3925
330
3490
100
AcDbEntity
  8
寸法線
 62
     0
370
    -2
100
AcDbLine
 10
489.3267812658532
 20
214.4513635096674
 30
0.0
 11
532.1236442437316
 21
214.4513635096674
 31
0.0
  0
INSERT
  5
3926
330
3490
100
AcDbEntity
  8
寸法線
 62
     0
370
    -2
100
AcDbBlockReference
  2
_Closed
 10
486.3267812658532
 20
214.4513635096674
 30
0.0
 41
3.0
 42
3.0
 43
3.0
 50
180.0
  0
INSERT
  5
3927
330
3490
100
AcDbEntity
  8
寸法線
 62
     0
370
    -2
100
AcDbBlockReference
  2
_Closed
 10
535.1236442437316
 20
214.4513635096674
 30
0.0
 41
3.0
 42
3.0
 43
3.0
  0
MTEXT
  5
3928
330
3490
100
AcDbEntity
  8
寸法線
 62
     0
100
AcDbMText
 10
510.7252127547924
 20
217.9513635096674
 30
0.0
 40
5.0
 41
0.0
 71
     5
 72
     1
  1
49***50
  7
OKANO
 73
     1
 44
1.0
  0
POINT
  5
3929
330
3490
100
AcDbEntity
  8
Defpoints
 62
     0
100
AcDbPoint
 10
486.3267812658532
 20
218.5903057364884
 30
0.0
  0
POINT
  5
392A
330
3490
100
AcDbEntity
  8
Defpoints
 62
     0
100
AcDbPoint
 10
535.1236442437316
 20
220.3791916408098
 30
0.0
  0
POINT
  5
392B
330
3490
100
AcDbEntity
  8
Defpoints
 62
     0
100
AcDbPoint
 10
535.1236442437316
 20
214.4513635096674
 30
0.0
  0
ENDBLK
  5
349B
330
3490
100
AcDbEntity
  8
0
100
AcDbBlockEnd
  0
BLOCK
  5
34A8
330
349C
100
AcDbEntity
  8
0
100
AcDbBlockBegin
  2
*D4
 70
     1
 10
0.0
 20
0.0
 30
0.0
  3
*D4
  1

  0
LINE
  5
3A0C
330
349C
100
AcDbEntity
  8
寸法線
 62
     0
370
    -2
100
AcDbLine
 10
589.7384680317697
 20
196.4277305021639
 30
0.0
 11
606.1213091561035
 21
196.4277305021639
 31
0.0
  0
LINE
  5
3A0D
330
349C
100
AcDbEntity
  8
寸法線
 62
     0
370
    -2
100
AcDbLine
 10
588.0038244067224
 20
201.4688266386784
 30
0.0
 11
606.1213091561035
 21
201.4688266386784
 31
0.0
  0
LINE
  5
3A0E
330
349C
100
AcDbEntity
  8
寸法線
 62
     0
370
    -2
100
AcDbLine
 10
603.1213091561035
 20
193.4277305021639
 30
0.0
 11
603.1213091561035
 21
190.4277305021639
 31
0.0
  0
LINE
  5
3A0F
330
349C
100
AcDbEntity
  8
寸法線
 62
     0
370
    -2
100
AcDbLine
 10
603.1213091561035
 20
204.4688266386784
 30
0.0
 11
603.1213091561035
 21
207.4688266386784
 31
0.0
  0
LINE
  5
3A10
330
349C
100
AcDbEntity
  8
寸法線
 62
     0
370
    -2
100
AcDbLine
 10
603.1213091561035
 20
196.4277305021639
 30
0.0
 11
603.1213091561035
 21
201.4688266386784
 31
0.0
  0
INSERT
  5
3A11
330
349C
100
AcDbEntity
  8
寸法線
 62
     0
370
    -2
100
AcDbBlockReference
  2
_Closed
 10
603.1213091561035
 20
196.4277305021639
 30
0.0
 41
3.0
 42
3.0
 43
3.0
 50
90.0
  0
INSERT
  5
3A12
330
349C
100
AcDbEntity
  8
寸法線
 62
     0
370
    -2
100
AcDbBlockReference
  2
_Closed
 10
603.1213091561035
 20
201.4688266386784
 30
0.0
 41
3.0
 42
3.0
 43
3.0
 50
270.0
  0
MTEXT
  5
3A13
330
349C
100
AcDbEntity
  8
寸法線
 62
     0
100
AcDbMText
 10
599.6213091561035
 20
198.9482785704213
 30
0.0
 40
5.0
 41
0.0
 71
     5
 72
     1
  1
6
  7
OKANO
 11
0.0000000000000001
 21
1.0
 31
0.0
 73
     1
 44
1.0
  0
POINT
  5
3A14
330
349C
100
AcDbEntity
  8
Defpoints
 62
     0
100
AcDbPoint
 10
587.7384680317698
 20
196.4277305021639
 30
0.0
  0
POINT
  5
3A15
330
349C
100
AcDbEntity
  8
Defpoints
 62
     0
100
AcDbPoint
 10
586.0038244067225
 20
201.4688266386784
 30
0.0
  0
POINT
  5
3A16
330
349C
100
AcDbEntity
  8
Defpoints
 62
     0
100
AcDbPoint
 10
603.1213091561035
 20
201.4688266386784
 30
0.0
  0
ENDBLK
  5
34A9
330
349C
100
AcDbEntity
  8
0
100
AcDbBlockEnd
  0
BLOCK
  5
34B4
330
34AA
100
AcDbEntity
  8
0
100
AcDbBlockBegin
  2
*D5
 70
     1
 10
0.0
 20
0.0
 30
0.0
  3
*D5
  1

  0
LINE
  5
38AB
330
34AA
100
AcDbEntity
  8
寸法線
 62
     0
370
    -2
100
AcDbLine
 10
435.5066289422524
 20
194.7032693405661
 30
0.0
 11
435.5066289422524
 21
178.1519776714893
 31
0.0
  0
LINE
  5
38AC
330
34AA
100
AcDbEntity
  8
寸法線
 62
     0
370
    -2
100
AcDbLine
 10
592.0337151808912
 20
194.3112985413607
 30
0.0
 11
592.0337151808912
 21
178.1519776714893
 31
0.0
  0
LINE
  5
38AD
330
34AA
100
AcDbEntity
  8
寸法線
 62
     0
370
    -2
100
AcDbLine
 10
438.5066289422525
 20
181.1519776714893
 30
0.0
 11
589.0337151808912
 21
181.1519776714893
 31
0.0
  0
INSERT
  5
38AE
330
34AA
100
AcDbEntity
  8
寸法線
 62
     0
370
    -2
100
AcDbBlockReference
  2
_Closed
 10
435.5066289422524
 20
181.1519776714893
 30
0.0
 41
3.0
 42
3.0
 43
3.0
 50
180.0
  0
INSERT
  5
38AF
330
34AA
100
AcDbEntity
  8
寸法線
 62
     0
370
    -2
100
AcDbBlockReference
  2
_Closed
 10
592.0337151808912
 20
181.1519776714893
 30
0.0
 41
3.0
 42
3.0
 43
3.0
  0
MTEXT
  5
38B0
330
34AA
100
AcDbEntity
  8
寸法線
 62
     0
100
AcDbMText
 10
513.7701720615718
 20
184.6519776714893
 30
0.0
 40
5.0
 41
0.0
 71
     5
 72
     1
  1
160
  7
OKANO
 73
     1
 44
1.0
  0
POINT
  5
38B1
330
34AA
100
AcDbEntity
  8
Defpoints
 62
     0
100
AcDbPoint
 10
435.5066289422524
 20
196.7032693405661
 30
0.0
  0
POINT
  5
38B2
330
34AA
100
AcDbEntity
  8
Defpoints
 62
     0
100
AcDbPoint
 10
592.0337151808912
 20
196.3112985413607
 30
0.0
  0
POINT
  5
38B3
330
34AA
100
AcDbEntity
  8
Defpoints
 62
     0
100
AcDbPoint
 10
592.0337151808912
 20
181.1519776714893
 30
0.0
  0
ENDBLK
  5
34B5
330
34AA
100
AcDbEntity
  8
0
100
AcDbBlockEnd
  0
BLOCK
  5
3540
330
3536
100
AcDbEntity
  8
0
100
AcDbBlockBegin
  2
*D6
 70
     1
 10
0.0
 20
0.0
 30
0.0
  3
*D6
  1

  0
LINE
  5
3542
330
3536
100
AcDbEntity
  8
寸法線
 62
     0
370
    -2
100
AcDbLine
 10
478.8674189103779
 20
261.1966741090152
 30
0.0
 11
458.6917600171812
 21
261.1966741090152
 31
0.0
  0
LINE
  5
3543
330
3536
100
AcDbEntity
  8
寸法線
 62
     0
370
    -2
100
AcDbLine
 10
479.48598901431
 20
201.5535301639026
 30
0.0
 11
458.6917600171812
 21
201.5535301639026
 31
0.0
  0
LINE
  5
3544
330
3536
100
AcDbEntity
  8
寸法線
 62
     0
370
    -2
100
AcDbLine
 10
461.6917600171811
 20
258.1966741090152
 30
0.0
 11
461.6917600171811
 21
204.5535301639026
 31
0.0
  0
INSERT
  5
3545
330
3536
100
AcDbEntity
  8
寸法線
 62
     0
370
    -2
100
AcDbBlockReference
  2
_Closed
 10
461.6917600171811
 20
261.1966741090152
 30
0.0
 41
3.0
 42
3.0
 43
3.0
 50
90.0
  0
INSERT
  5
3546
330
3536
100
AcDbEntity
  8
寸法線
 62
     0
370
    -2
100
AcDbBlockReference
  2
_Closed
 10
461.6917600171811
 20
201.5535301639026
 30
0.0
 41
3.0
 42
3.0
 43
3.0
 50
270.0
  0
MTEXT
  5
3547
330
3536
100
AcDbEntity
  8
寸法線
 62
     0
100
AcDbMText
 10
458.1917600171811
 20
231.375102136459
 30
0.0
 40
5.0
 41
0.0
 71
     5
 72
     1
  1
60
  7
OKANO
 11
0.0000000000000001
 21
1.0
 31
0.0
 73
     1
 44
1.0
  0
POINT
  5
3548
330
3536
100
AcDbEntity
  8
Defpoints
 62
     0
100
AcDbPoint
 10
480.8674189103778
 20
261.1966741090152
 30
0.0
  0
POINT
  5
3549
330
3536
100
AcDbEntity
  8
Defpoints
 62
     0
100
AcDbPoint
 10
481.4859890143099
 20
201.5535301639026
 30
0.0
  0
POINT
  5
354A
330
3536
100
AcDbEntity
  8
Defpoints
 62
     0
100
AcDbPoint
 10
461.6917600171811
 20
201.5535301639026
 30
0.0
  0
ENDBLK
  5
3541
330
3536
100
AcDbEntity
  8
0
100
AcDbBlockEnd
  0
BLOCK
  5
3772
330
376B
100
AcDbEntity
  8
0
100
AcDbBlockBegin
  2
*D9
 70
     1
 10
0.0
 20
0.0
 30
0.0
  3
*D9
  1

  0
LINE
  5
385B
330
376B
100
AcDbEntity
  8
寸法線
 62
     0
370
    -2
100
AcDbLine
 10
259.3004600214564
 20
437.5584274616024
 30
0.0
 11
276.6923043659056
 21
424.1754342455246
 31
0.0
  0
MTEXT
  5
385C
330
376B
100
AcDbEntity
  8
寸法線
 62
     0
100
AcDbMText
 10
266.4450282633274
 20
436.4775996257033
 30
0.0
 40
5.0
 41
0.0
 71
     5
 72
     1
  1
R20
  7
OKANO
 11
0.7925215445678039
 21
-0.6098439156012484
 31
0.0
 73
     1
 44
1.0
  0
LINE
  5
385D
330
376B
100
AcDbEntity
  8
寸法線
 62
     0
370
    -2
100
AcDbLine
 10
294.9202998909648
 20
410.1490241866962
 30
0.0
 11
279.069868999609
 21
422.3459024987209
 31
0.0
  0
INSERT
  5
385E
330
376B
100
AcDbEntity
  8
寸法線
 62
     0
370
    -2
100
AcDbBlockReference
  2
_Closed
 10
279.069868999609
 20
422.3459024987209
 30
0.0
 41
3.0
 42
3.0
 43
3.0
 50
322.4217820975776
  0
POINT
  5
385F
330
376B
100
AcDbEntity
  8
Defpoints
 62
     0
100
AcDbPoint
 10
279.069868999609
 20
422.3459024987209
 30
0.0
  0
POINT
  5
3860
330
376B
100
AcDbEntity
  8
Defpoints
 62
     0
100
AcDbPoint
 10
294.9202998909648
 20
410.1490241866962
 30
0.0
  0
ENDBLK
  5
3773
330
376B
100
AcDbEntity
  8
0
100
AcDbBlockEnd
  0
BLOCK
  5
377E
330
3774
100
AcDbEntity
  8
0
100
AcDbBlockBegin
  2
*D10
 70
     1
 10
0.0
 20
0.0
 30
0.0
  3
*D10
  1

  0
LINE
  5
386A
330
3774
100
AcDbEntity
  8
寸法線
 62
     0
370
    -2
100
AcDbLine
 10
414.2661435731786
 20
283.7431279336236
 30
0.0
 11
440.7487520351399
 21
257.2350937567306
 31
0.0
  0
LINE
  5
386B
330
3774
100
AcDbEntity
  8
寸法線
 62
     0
370
    -2
100
AcDbLine
 10
422.6206241755309
 20
292.089595167622
 30
0.0
 11
449.1032326374923
 21
265.5815609907291
 31
0.0
  0
LINE
  5
386C
330
3774
100
AcDbEntity
  8
寸法線
 62
     0
370
    -2
100
AcDbLine
 10
440.7507877183262
 20
261.4777339554741
 30
0.0
 11
444.8605924387488
 21
265.5835966739153
 31
0.0
  0
INSERT
  5
386D
330
3774
100
AcDbEntity
  8
寸法線
 62
     0
370
    -2
100
AcDbBlockReference
  2
_Closed
 10
438.6284497773614
 20
259.3574316976955
 30
0.0
 41
3.0
 42
3.0
 43
3.0
 50
224.972508617138
  0
INSERT
  5
386E
330
3774
100
AcDbEntity
  8
寸法線
 62
     0
370
    -2
100
AcDbBlockReference
  2
_Closed
 10
446.9829303797137
 20
267.7038989316939
 30
0.0
 41
3.0
 42
3.0
 43
3.0
 50
44.972508617138
  0
MTEXT
  5
386F
330
3774
100
AcDbEntity
  8
寸法線
 62
     0
100
AcDbMText
 10
440.3316562925173
 20
266.0070743983698
 30
0.0
 40
5.0
 41
0.0
 71
     5
 72
     1
  1
12
  7
OKANO
 11
0.7074459803216251
 21
0.7067674192595291
 31
0.0
 73
     1
 44
1.0
  0
POINT
  5
3870
330
3774
100
AcDbEntity
  8
Defpoints
 62
     0
100
AcDbPoint
 10
412.8526087346594
 20
285.1580198942668
 30
0.0
  0
POINT
  5
3871
330
3774
100
AcDbEntity
  8
Defpoints
 62
     0
100
AcDbPoint
 10
421.2070893370118
 20
293.5044871282653
 30
0.0
  0
POINT
  5
3872
330
3774
100
AcDbEntity
  8
Defpoints
 62
     0
100
AcDbPoint
 10
446.9829303797137
 20
267.7038989316939
 30
0.0
  0
ENDBLK
  5
377F
330
3774
100
AcDbEntity
  8
0
100
AcDbBlockEnd
  0
BLOCK
  5
378A
330
3780
100
AcDbEntity
  8
0
100
AcDbBlockBegin
  2
*D11
 70
     1
 10
0.0
 20
0.0
 30
0.0
  3
*D11
  1

  0
LINE
  5
3861
330
3780
100
AcDbEntity
  8
寸法線
 62
     0
370
    -2
100
AcDbLine
 10
411.2905615389705
 20
297.4006349810903
 30
0.0
 11
421.15991753316
 21
307.6594218805758
 31
0.0
  0
LINE
  5
3862
330
3780
100
AcDbEntity
  8
寸法線
 62
     0
370
    -2
100
AcDbLine
 10
424.5594423544795
 20
284.6354503938856
 30
0.0
 11
434.4287983486689
 21
294.8942372933711
 31
0.0
  0
LINE
  5
3863
330
3780
100
AcDbEntity
  8
寸法線
 62
     0
370
    -2
100
AcDbLine
 10
421.2419870148364
 20
303.4175750422072
 30
0.0
 11
430.1869515103003
 21
294.8121678116947
 31
0.0
  0
INSERT
  5
3864
330
3780
100
AcDbEntity
  8
寸法線
 62
     0
370
    -2
100
AcDbBlockReference
  2
_Closed
 10
419.0800288548139
 20
305.4974637205532
 30
0.0
 41
3.0
 42
3.0
 43
3.0
 50
136.1083965334503
  0
INSERT
  5
3865
330
3780
100
AcDbEntity
  8
寸法線
 62
     0
370
    -2
100
AcDbBlockReference
  2
_Closed
 10
432.3489096703228
 20
292.7322791333486
 30
0.0
 41
3.0
 42
3.0
 43
3.0
 50
316.1083965334503
  0
MTEXT
  5
3866
330
3780
100
AcDbEntity
  8
寸法線
 62
     0
100
AcDbMText
 10
428.1413472430598
 20
301.6375105989062
 30
0.0
 40
5.0
 41
0.0
 71
     5
 72
     1
  1
20
  7
OKANO
 11
0.7206527200074976
 21
-0.6932962261153564
 31
0.0
 73
     1
 44
1.0
  0
POINT
  5
3867
330
3780
100
AcDbEntity
  8
Defpoints
 62
     0
100
AcDbPoint
 10
409.9039690867399
 20
295.9593295410754
 30
0.0
  0
POINT
  5
3868
330
3780
100
AcDbEntity
  8
Defpoints
 62
     0
100
AcDbPoint
 10
423.1728499022487
 20
283.1941449538707
 30
0.0
  0
POINT
  5
3869
330
3780
100
AcDbEntity
  8
Defpoints
 62
     0
100
AcDbPoint
 10
432.3489096703228
 20
292.7322791333486
 30
0.0
  0
ENDBLK
  5
378B
330
3780
100
AcDbEntity
  8
0
100
AcDbBlockEnd
  0
BLOCK
  5
38BF
330
38B5
100
AcDbEntity
  8
0
100
AcDbBlockBegin
  2
*D12
 70
     1
 10
0.0
 20
0.0
 30
0.0
  3
*D12
  1

  0
LINE
  5
38C1
330
38B5
100
AcDbEntity
  8
寸法線
 62
     0
370
    -2
100
AcDbLine
 10
292.9202998909648
 20
410.1490241866957
 30
0.0
 11
233.3631193789438
 21
410.1490241866957
 31
0.0
  0
LINE
  5
38C2
330
38B5
100
AcDbEntity
  8
寸法線
 62
     0
370
    -2
100
AcDbLine
 10
290.8033572956151
 20
287.555096937677
 30
0.0
 11
233.3631193789437
 21
287.555096937677
 31
0.0
  0
LINE
  5
38C3
330
38B5
100
AcDbEntity
  8
寸法線
 62
     0
370
    -2
100
AcDbLine
 10
236.3631193789438
 20
407.1490241866958
 30
0.0
 11
236.3631193789438
 21
290.5550969376771
 31
0.0
  0
INSERT
  5
38C4
330
38B5
100
AcDbEntity
  8
寸法線
 62
     0
370
    -2
100
AcDbBlockReference
  2
_Closed
 10
236.3631193789438
 20
410.1490241866957
 30
0.0
 41
3.0
 42
3.0
 43
3.0
 50
90.0
  0
INSERT
  5
38C5
330
38B5
100
AcDbEntity
  8
寸法線
 62
     0
370
    -2
100
AcDbBlockReference
  2
_Closed
 10
236.3631193789438
 20
287.555096937677
 30
0.0
 41
3.0
 42
3.0
 43
3.0
 50
270.0
  0
MTEXT
  5
38C6
330
38B5
100
AcDbEntity
  8
寸法線
 62
     0
100
AcDbMText
 10
232.8626272529595
 20
348.8520605621864
 30
0.0
 40
5.0
 41
0.0
 71
     5
 72
     1
  1
120
  7
OKANO
 11
0.0000000000000001
 21
1.0
 31
0.0
 73
     1
 44
1.0
  0
POINT
  5
38C7
330
38B5
100
AcDbEntity
  8
Defpoints
 62
     0
100
AcDbPoint
 10
294.9202998909648
 20
410.1490241866957
 30
0.0
  0
POINT
  5
38C8
330
38B5
100
AcDbEntity
  8
Defpoints
 62
     0
100
AcDbPoint
 10
292.8033572956151
 20
287.555096937677
 30
0.0
  0
POINT
  5
38C9
330
38B5
100
AcDbEntity
  8
Defpoints
 62
     0
100
AcDbPoint
 10
236.3631193789438
 20
287.555096937677
 30
0.0
  0
ENDBLK
  5
38C0
330
38B5
100
AcDbEntity
  8
0
100
AcDbBlockEnd
  0
BLOCK
  5
394F
330
3946
100
AcDbEntity
  8
0
100
AcDbBlockBegin
  2
*D15
 70
     1
 10
0.0
 20
0.0
 30
0.0
  3
*D15
  1

  0
LINE
  5
3A04
330
3946
100
AcDbEntity
  8
寸法線
 62
     0
370
    -2
100
AcDbLine
 10
422.9865622929635
 20
366.552776795428
 30
0.0
 11
378.1180295783928
 21
355.6992849712754
 31
0.0
  0
LINE
  5
3A05
330
3946
100
AcDbEntity
  8
寸法線
 62
     0
370
    -2
100
AcDbLine
 10
332.8952283061117
 20
344.7600972114182
 30
0.0
 11
329.9793252744394
 21
344.0547536710889
 31
0.0
  0
MTEXT
  5
3A06
330
3946
100
AcDbEntity
  8
寸法線
 62
     0
100
AcDbMText
 10
403.4098773836519
 20
365.4182094912649
 30
0.0
 40
5.0
 41
0.0
 71
     5
 72
     1
  1
Φ45　水抜き
  7
OKANO
 11
0.9719676772240994
 21
0.2351145134431067
 31
0.0
 73
     1
 44
1.0
  0
LINE
  5
3A07
330
3946
100
AcDbEntity
  8
寸法線
 62
     0
370
    -2
100
AcDbLine
 10
335.811131337784
 20
345.4654407517476
 30
0.0
 11
375.2021265467205
 21
354.993941430946
 31
0.0
  0
INSERT
  5
3A08
330
3946
100
AcDbEntity
  8
寸法線
 62
     0
370
    -2
100
AcDbBlockReference
  2
_Closed
 10
335.811131337784
 20
345.4654407517476
 30
0.0
 41
3.0
 42
3.0
 43
3.0
 50
13.59837304318581
  0
INSERT
  5
3A09
330
3946
100
AcDbEntity
  8
寸法線
 62
     0
370
    -2
100
AcDbBlockReference
  2
_Closed
 10
375.2021265467205
 20
354.993941430946
 30
0.0
 41
3.0
 42
3.0
 43
3.0
 50
193.5983730431858
  0
POINT
  5
3A0A
330
3946
100
AcDbEntity
  8
Defpoints
 62
     0
100
AcDbPoint
 10
375.2021265467205
 20
354.993941430946
 30
0.0
  0
POINT
  5
3A0B
330
3946
100
AcDbEntity
  8
Defpoints
 62
     0
100
AcDbPoint
 10
335.811131337784
 20
345.4654407517476
 30
0.0
  0
ENDBLK
  5
3950
330
3946
100
AcDbEntity
  8
0
100
AcDbBlockEnd
  0
BLOCK
  5
3998
330
398E
100
AcDbEntity
  8
0
100
AcDbBlockBegin
  2
*D16
 70
     1
 10
0.0
 20
0.0
 30
0.0
  3
*D16
  1

  0
LINE
  5
398F
330
398E
100
AcDbEntity
  8
寸法線
 62
     0
370
    -2
100
AcDbLine
 10
538.0337151808912
 20
261.1490861672506
 30
0.0
 11
571.9035826478402
 21
261.1490861672506
 31
0.0
  0
LINE
  5
3990
330
398E
100
AcDbEntity
  8
寸法線
 62
     0
370
    -2
100
AcDbLine
 10
548.3922427416796
 20
246.1490861672506
 30
0.0
 11
571.90358264784
 21
246.1490861672506
 31
0.0
  0
LINE
  5
3991
330
398E
100
AcDbEntity
  8
寸法線
 62
     0
370
    -2
100
AcDbLine
 10
568.9035826478401
 20
258.1490861672506
 30
0.0
 11
568.90358264784
 21
249.1490861672506
 31
0.0
  0
INSERT
  5
3992
330
398E
100
AcDbEntity
  8
寸法線
 62
     0
370
    -2
100
AcDbBlockReference
  2
_Closed
 10
568.9035826478401
 20
261.1490861672506
 30
0.0
 41
3.0
 42
3.0
 43
3.0
 50
90.0
  0
INSERT
  5
3993
330
398E
100
AcDbEntity
  8
寸法線
 62
     0
370
    -2
100
AcDbBlockReference
  2
_Closed
 10
568.90358264784
 20
246.1490861672506
 30
0.0
 41
3.0
 42
3.0
 43
3.0
 50
270.0
  0
MTEXT
  5
3994
330
398E
100
AcDbEntity
  8
寸法線
 62
     0
100
AcDbMText
 10
565.40358264784
 20
253.6490861672507
 30
0.0
 40
5.0
 41
0.0
 71
     5
 72
     1
  1
15
  7
OKANO
 11
0.0000000000000001
 21
1.0
 31
0.0
 73
     1
 44
1.0
  0
POINT
  5
3995
330
398E
100
AcDbEntity
  8
Defpoints
 62
     0
100
AcDbPoint
 10
536.0337151808912
 20
261.1490861672506
 30
0.0
  0
POINT
  5
3996
330
398E
100
AcDbEntity
  8
Defpoints
 62
     0
100
AcDbPoint
 10
546.3922427416796
 20
246.1490861672506
 30
0.0
  0
POINT
  5
3997
330
398E
100
AcDbEntity
  8
Defpoints
 62
     0
100
AcDbPoint
 10
568.90358264784
 20
246.1490861672506
 30
0.0
  0
ENDBLK
  5
3999
330
398E
100
AcDbEntity
  8
0
100
AcDbBlockEnd
  0
BLOCK
  5
39E5
330
39DB
100
AcDbEntity
  8
0
100
AcDbBlockBegin
  2
*D18
 70
     1
 10
0.0
 20
0.0
 30
0.0
  3
*D18
  1

  0
LINE
  5
39E7
330
39DB
100
AcDbEntity
  8
寸法線
 62
     0
370
    -2
100
AcDbLine
 10
310.228963302334
 20
188.1154867543682
 30
0.0
 11
320.8793173189167
 21
188.0804002511764
 31
0.0
  0
LINE
  5
39E8
330
39DB
100
AcDbEntity
  8
寸法線
 62
     0
370
    -2
100
AcDbLine
 10
310.196019502775
 20
178.1155410192119
 30
0.0
 11
320.8463735193577
 21
178.0804545160201
 31
0.0
  0
LINE
  5
39E9
330
39DB
100
AcDbEntity
  8
寸法線
 62
     0
370
    -2
100
AcDbLine
 10
317.8694504585021
 20
185.0902996704972
 30
0.0
 11
317.8562729386785
 21
181.0903213764347
 31
0.0
  0
INSERT
  5
39EA
330
39DB
100
AcDbEntity
  8
寸法線
 62
     0
370
    -2
100
AcDbBlockReference
  2
_Closed
 10
317.8793335983698
 20
188.0902833910441
 30
0.0
 41
3.0
 42
3.0
 43
3.0
 50
89.81124559099029
  0
INSERT
  5
39EB
330
39DB
100
AcDbEntity
  8
寸法線
 62
     0
370
    -2
100
AcDbBlockReference
  2
_Closed
 10
317.8463897988109
 20
178.0903376558878
 30
0.0
 41
3.0
 42
3.0
 43
3.0
 50
269.8112455909902
  0
MTEXT
  5
39EC
330
39DB
100
AcDbEntity
  8
寸法線
 62
     0
100
AcDbMText
 10
314.3628806912856
 20
183.1018408533116
 30
0.0
 40
5.0
 41
0.0
 71
     5
 72
     1
  1
13
  7
OKANO
 11
0.0032943799558955
 21
0.9999945735156297
 31
0.0
 73
     1
 44
1.0
  0
POINT
  5
39ED
330
39DB
100
AcDbEntity
  8
Defpoints
 62
     0
100
AcDbPoint
 10
308.2289741553027
 20
188.12207551428
 30
0.0
  0
POINT
  5
39EE
330
39DB
100
AcDbEntity
  8
Defpoints
 62
     0
100
AcDbPoint
 10
308.1960303557437
 20
178.1221297791237
 30
0.0
  0
POINT
  5
39EF
330
39DB
100
AcDbEntity
  8
Defpoints
 62
     0
100
AcDbPoint
 10
317.8463897988109
 20
178.0903376558878
 30
0.0
  0
ENDBLK
  5
39E6
330
39DB
100
AcDbEntity
  8
0
100
AcDbBlockEnd
  0
BLOCK
  5
3A02
330
39F8
100
AcDbEntity
  8
0
100
AcDbBlockBegin
  2
*D19
 70
     1
 10
0.0
 20
0.0
 30
0.0
  3
*D19
  1

  0
LINE
  5
39F9
330
39F8
100
AcDbEntity
  8
太線
 62
     0
370
    -2
100
AcDbLine
 10
435.5066289422524
 20
194.7032693405661
 30
0.0
 11
435.5066289422524
 21
147.5797234501099
 31
0.0
  0
LINE
  5
39FA
330
39F8
100
AcDbEntity
  8
太線
 62
     0
370
    -2
100
AcDbLine
 10
592.0323593569158
 20
194.4277305021639
 30
0.0
 11
592.0323593569158
 21
147.5797234501099
 31
0.0
  0
LINE
  5
39FB
330
39F8
100
AcDbEntity
  8
太線
 62
     0
370
    -2
100
AcDbLine
 10
438.5066289422524
 20
150.5797234501098
 30
0.0
 11
589.0323593569157
 21
150.5797234501098
 31
0.0
  0
INSERT
  5
39FC
330
39F8
100
AcDbEntity
  8
太線
 62
     0
370
    -2
100
AcDbBlockReference
  2
_Closed
 10
435.5066289422524
 20
150.5797234501098
 30
0.0
 41
3.0
 42
3.0
 43
3.0
 50
180.0
  0
INSERT
  5
39FD
330
39F8
100
AcDbEntity
  8
太線
 62
     0
370
    -2
100
AcDbBlockReference
  2
_Closed
 10
592.0323593569158
 20
150.5797234501098
 30
0.0
 41
3.0
 42
3.0
 43
3.0
  0
MTEXT
  5
39FE
330
39F8
100
AcDbEntity
  8
太線
 62
     0
100
AcDbMText
 10
513.7694941495841
 20
154.0797234501098
 30
0.0
 40
5.0
 41
0.0
 71
     5
 72
     1
  1
156.53
  7
OKANO
 73
     1
 44
1.0
  0
POINT
  5
39FF
330
39F8
100
AcDbEntity
  8
Defpoints
 62
     0
100
AcDbPoint
 10
435.5066289422524
 20
196.7032693405661
 30
0.0
  0
POINT
  5
3A00
330
39F8
100
AcDbEntity
  8
Defpoints
 62
     0
100
AcDbPoint
 10
592.0323593569158
 20
196.4277305021639
 30
0.0
  0
POINT
  5
3A01
330
39F8
100
AcDbEntity
  8
Defpoints
 62
     0
100
AcDbPoint
 10
592.0323593569158
 20
150.5797234501098
 30
0.0
  0
ENDBLK
  5
3A03
330
39F8
100
AcDbEntity
  8
0
100
AcDbBlockEnd
  0
ENDSEC
  0
SECTION
  2
ENTITIES
  0
TEXT
  5
29C2
330
1F
100
AcDbEntity
  8
文字
100
AcDbText
 10
578.2291463689706
 20
93.36401865715604
 30
0.0
 40
5.759999999999999
  1
joint kogyo T.okano
 51
15.0
  7
OKANO
100
AcDbText
  0
TEXT
  5
29C3
330
1F
100
AcDbEntity
  8
文字
100
AcDbText
 10
569.2431707548144
 20
111.0668644659013
 30
0.0
 40
5.759999999999999
  1
F-999-20121207 Auto CAD
 51
15.0
  7
OKANO
100
AcDbText
  0
LINE
  5
29C4
330
1F
100
AcDbEntity
  8
太線
100
AcDbLine
 10
536.3364969368777
 20
109.9618952853849
 30
0.0
 11
665.9364969368778
 21
109.9618952853849
 31
0.0
  0
LWPOLYLINE
  5
29C5
330
1F
100
AcDbEntity
  8
太線
100
AcDbPolyline
 90
        4
 70
     1
 43
0.0
 10
536.3364969368777
 20
120.0418952853849
 10
665.9364969368778
 20
120.0418952853849
 10
665.9364969368778
 20
89.80189528538494
 10
536.3364969368777
 20
89.80189528538494
  0
TEXT
  5
29C6
330
1F
100
AcDbEntity
  8
文字
100
AcDbText
 10
540.9833572161468
 20
100.1296811267641
 30
0.0
 40
2.879999999999999
  1
CHECK
 51
15.0
  7
OKANO
100
AcDbText
  0
LINE
  5
29C7
330
1F
100
AcDbEntity
  8
太線
100
AcDbLine
 10
565.1364969368778
 20
120.0418952853849
 30
0.0
 11
565.1364969368778
 21
89.80189528538494
 31
0.0
  0
TEXT
  5
29C8
330
1F
100
AcDbEntity
  8
文字
100
AcDbText
 10
540.9833572161468
 20
91.82636799930515
 30
0.0
 40
2.879999999999999
  1
ISSUED
 51
15.0
  7
OKANO
100
AcDbText
  0
TEXT
  5
29C9
330
1F
100
AcDbEntity
  8
文字
100
AcDbText
 10
541.2911745356276
 20
95.82425942642691
 30
0.0
 40
2.879999999999999
  1
APPR
 51
15.0
  7
OKANO
100
AcDbText
  0
TEXT
  5
29CA
330
1F
100
AcDbEntity
  8
文字
100
AcDbText
 10
538.8286425541239
 20
112.1233546999031
 30
0.0
 40
2.879999999999999
  1
FILM NAME
 51
15.0
  7
OKANO
100
AcDbText
  0
TEXT
  5
29CB
330
1F
100
AcDbEntity
  8
文字
100
AcDbText
 10
540.3677252069224
 20
104.4351021188749
 30
0.0
 40
2.879999999999999
  1
DRAWN
 51
15.0
  7
OKANO
100
AcDbText
  0
ARC
  5
32A4
330
1F
100
AcDbEntity
  8
構築線
100
AcDbCircle
 10
353.8392598281199
 20
314.660591209764
 30
0.0
 40
4.0
100
AcDbArc
 50
269.9999999999997
 51
0.0000000000001628
  0
DIMENSION
  5
340F
330
1F
100
AcDbEntity
  8
寸法線
100
AcDbDimension
  2
*D5
 10
592.0337151808912
 20
181.1519776714893
 30
0.0
 11
513.7701720615718
 21
184.6519776714893
 31
0.0
 70
    32
  1
160
 71
     5
 42
156.5270862386387
  3
sunpo
100
AcDbAlignedDimension
 13
435.5066289422524
 23
196.7032693405661
 33
0.0
 14
592.0337151808912
 24
196.3112985413607
 34
0.0
100
AcDbRotatedDimension
1001
ACAD
1000
DSTYLE
1002
{
1070
    40
1040
1.0
1002
}
  0
LINE
  5
3410
330
1F
100
AcDbEntity
  8
太線
100
AcDbLine
 10
451.5337151808912
 20
196.7032693405661
 30
0.0
 11
487.4998747122426
 21
196.7032693405661
 31
0.0
  0
DIMENSION
  5
3412
330
1F
100
AcDbEntity
  8
寸法線
100
AcDbDimension
  2
*D3
 10
535.1236442437316
 20
214.4513635096674
 30
0.0
 11
510.7252127547924
 21
217.9513635096674
 31
0.0
 70
    32
  1
49***50
 71
     5
 42
48.79686297787839
  3
sunpo
100
AcDbAlignedDimension
 13
486.3267812658532
 23
218.5903057364884
 33
0.0
 14
535.1236442437316
 24
220.3791916408098
 34
0.0
100
AcDbRotatedDimension
1001
ACAD
1000
DSTYLE
1002
{
1070
    40
1040
1.0
1002
}
  0
DIMENSION
  5
3414
330
1F
100
AcDbEntity
  8
寸法線
100
AcDbDimension
  2
*D2
 10
541.0337151808912
 20
267.540308216012
 30
0.0
 11
511.5337151808912
 21
271.040308216012
 31
0.0
 70
    32
  1
60
 71
     5
 42
59.0
  3
sunpo
100
AcDbAlignedDimension
 13
482.0337151808912
 23
261.1490861672506
 33
0.0
 14
541.0337151808912
 24
261.1490861672506
 34
0.0
100
AcDbRotatedDimension
1001
ACAD
1000
DSTYLE
1002
{
1070
    40
1040
1.0
1002
}
  0
LINE
  5
3417
330
1F
100
AcDbEntity
  8
太線
100
AcDbLine
 10
487.0337151808912
 20
261.1490861672506
 30
0.0
 11
536.0337151808912
 21
261.1490861672506
 31
0.0
  0
LINE
  5
3419
330
1F
100
AcDbEntity
  8
太線
100
AcDbLine
 10
456.5337151808913
 20
201.7032693405661
 30
0.0
 11
566.5337151808912
 21
201.7032693405661
 31
0.0
  0
LINE
  5
341B
330
1F
100
AcDbEntity
  8
想像線
100
AcDbLine
 10
487.0337151808912
 20
201.7515156156007
 30
0.0
 11
486.3812562333599
 21
261.1490861672506
 31
0.0
  0
LINE
  5
341C
330
1F
100
AcDbEntity
  8
太線
100
AcDbLine
 10
482.0337151808912
 20
201.703269340566
 30
0.0
 11
482.0337151808912
 21
256.1490861672506
 31
0.0
  0
ARC
  5
341D
330
1F
100
AcDbEntity
  8
太線
100
AcDbCircle
 10
440.5066289422525
 20
196.7032693405661
 30
0.0
 40
5.0
100
AcDbArc
 50
90.00000000000003
 51
180.0
  0
LINE
  5
341E
330
1F
100
AcDbEntity
  8
太線
100
AcDbLine
 10
435.5066289422524
 20
196.7032693405661
 30
0.0
 11
435.5066289422524
 21
196.7032693405661
 31
0.0
  0
LINE
  5
342D
330
1F
100
AcDbEntity
  8
想像線
100
AcDbLine
 10
536.0337151808912
 20
261.1490861672506
 30
0.0
 11
536.0337151808912
 21
201.7515156156007
 31
0.0
  0
LINE
  5
342E
330
1F
100
AcDbEntity
  8
太線
100
AcDbLine
 10
541.0337151808912
 20
256.1490861672506
 30
0.0
 11
541.0337151808912
 21
201.7032693405661
 31
0.0
  0
DIMENSION
  5
3432
330
1F
100
AcDbEntity
  8
寸法線
100
AcDbDimension
  2
*D4
 10
603.1213091561035
 20
201.4688266386784
 30
0.0
 11
599.6213091561035
 21
198.9482785704213
 31
0.0
 70
    32
  1
6
 71
     5
 42
5.041096136514511
  3
sunpo
100
AcDbAlignedDimension
 13
587.7384680317698
 23
196.4277305021639
 33
0.0
 14
586.0038244067225
 24
201.4688266386784
 34
0.0
 50
90.0
100
AcDbRotatedDimension
1001
ACAD
1000
DSTYLE
1002
{
1070
    40
1040
1.0
1002
}
  0
ARC
  5
3448
330
1F
100
AcDbEntity
  8
太線
100
AcDbCircle
 10
587.0337151808912
 20
196.3112985413608
 30
0.0
 40
5.0
100
AcDbArc
 50
0.0000000000006488
 51
90.0
  0
LINE
  5
3449
330
1F
100
AcDbEntity
  8
太線
100
AcDbLine
 10
592.0337151808912
 20
196.3112985413608
 30
0.0
 11
592.0337151808912
 21
196.3112985413607
 31
0.0
  0
DIMENSION
  5
3535
330
1F
100
AcDbEntity
  8
寸法線
100
AcDbDimension
  2
*D6
 10
461.6917600171811
 20
201.5535301639026
 30
0.0
 11
458.1917600171811
 21
231.375102136459
 31
0.0
 70
    32
  1
60
 71
     5
 42
59.64314394511257
  3
sunpo
100
AcDbAlignedDimension
 13
480.8674189103778
 23
261.1966741090152
 33
0.0
 14
481.4859890143099
 24
201.5535301639026
 34
0.0
 50
90.0
100
AcDbRotatedDimension
1001
ACAD
1000
DSTYLE
1002
{
1070
    40
1040
1.0
1002
}
  0
TEXT
  5
354B
330
1F
100
AcDbEntity
  8
文字
100
AcDbText
 10
495.0379840854025
 20
279.1834279097392
 30
0.0
 40
5.759999999999999
  1
15-1B　重量ベース
 51
15.0
  7
OKANO
100
AcDbText
  0
LINE
  5
35D7
330
1F
100
AcDbEntity
  8
太線
100
AcDbLine
 10
487.4998747122426
 20
196.7032693405661
 30
0.0
 11
451.5337151808912
 21
196.7032693405661
 31
0.0
  0
LINE
  5
35D9
330
1F
100
AcDbEntity
  8
太線
100
AcDbLine
 10
487.5016838756246
 20
196.6616916269968
 30
0.0
 11
537.3676975401272
 21
196.3879191590847
 31
0.0
  0
TEXT
  5
35DE
330
1F
100
AcDbEntity
  8
文字
100
AcDbText
 10
578.8249761160921
 20
102.0081544798404
 30
0.0
 40
5.759999999999999
  1
s-15-1b
 51
15.0
  7
OKANO
100
AcDbText
  0
CIRCLE
  5
36E6
330
1F
100
AcDbEntity
  8
太線
100
AcDbCircle
 10
355.5066289422525
 20
350.2296910913468
 30
0.0
 40
24.5
  0
CIRCLE
  5
36E7
330
1F
100
AcDbEntity
  8
太線
100
AcDbCircle
 10
355.5066289422525
 20
350.2296910913468
 30
0.0
 40
29.5
  0
ARC
  5
36F2
330
1F
100
AcDbEntity
  8
太線
100
AcDbCircle
 10
296.6411294933027
 20
291.1697649827572
 30
0.0
 40
6.0
100
AcDbArc
 50
300.3622165943852
 51
121.4577023579304
  0
LINE
  5
36F4
330
1F
100
AcDbEntity
  8
太線
100
AcDbLine
 10
297.8202296839213
 20
284.264049773103
 30
0.0
 11
299.6739187370215
 21
285.992681884797
 31
0.0
  0
ARC
  5
36F5
330
1F
100
AcDbEntity
  8
太線
100
AcDbCircle
 10
292.8033572956151
 20
287.555096937677
 30
0.0
 40
6.0
100
AcDbArc
 50
149.2169771217086
 51
326.735293910241
  0
ARC
  5
36F6
330
1F
100
AcDbEntity
  8
太線
100
AcDbCircle
 10
295.7948007125178
 20
290.2198849119618
 30
0.0
 40
20.0
100
AcDbArc
 50
180.0
 51
270.0
  0
LINE
  5
36F7
330
1F
100
AcDbEntity
  8
太線
100
AcDbLine
 10
293.5409002654798
 20
296.3178508467302
 30
0.0
 11
287.6486878099874
 21
290.6258268987674
 31
0.0
  0
CIRCLE
  5
36F8
330
1F
100
AcDbEntity
  8
太線
100
AcDbCircle
 10
355.5066289422525
 20
350.2296910913468
 30
0.0
 40
20.26353145890382
  0
ARC
  5
3724
330
1F
100
AcDbEntity
  8
太線
100
AcDbCircle
 10
296.13311442259
 20
409.563185092004
 30
0.0
 40
6.0
100
AcDbArc
 50
209.978726857023
 51
31.07421262057025
  0
DIMENSION
  5
3725
330
1F
100
AcDbEntity
  8
寸法線
100
AcDbDimension
  2
*D9
 10
294.9202998909648
 20
410.1490241866962
 30
0.0
 11
264.3102744386858
 21
433.7033841992708
 31
0.0
 70
   164
 71
     5
 42
19.99999999999971
  3
sunpo
100
AcDbRadialDimension
 15
279.069868999609
 25
422.3459024987209
 35
0.0
 40
0.0
1001
ACAD
1000
DSTYLE
1002
{
1070
    40
1040
1.0
1070
   288
1070
     1
1002
}
  0
ARC
  5
3726
330
1F
100
AcDbEntity
  8
太線
100
AcDbCircle
 10
294.9202998909648
 20
410.1490241866957
 30
0.0
 40
19.99999999999988
100
AcDbArc
 50
90.0
 51
180.0
  0
LINE
  5
3727
330
1F
100
AcDbEntity
  8
太線
100
AcDbLine
 10
301.3018351449405
 20
412.6288881797526
 30
0.0
 11
295.649375911009
 21
418.5590659893622
 31
0.0
  0
ARC
  5
3728
330
1F
100
AcDbEntity
  8
太線
100
AcDbCircle
 10
292.5442139688951
 20
413.4250646927859
 30
0.0
 40
6.0
100
AcDbArc
 50
58.83348738433917
 51
236.3518041728805
  0
LINE
  5
3729
330
1F
100
AcDbEntity
  8
太線
100
AcDbLine
 10
289.2196620491409
 20
408.4303320139673
 30
0.0
 11
290.9358484989014
 21
406.5651145594003
 31
0.0
  0
DIMENSION
  5
372F
330
1F
100
AcDbEntity
  8
寸法線
100
AcDbDimension
  2
*D10
 10
446.9829303797137
 20
267.7038989316939
 30
0.0
 11
440.3316562925173
 21
266.0070743983698
 31
0.0
 70
    33
  1
12
 71
     5
 42
11.80935482671651
  3
sunpo
100
AcDbAlignedDimension
 13
412.8526087346594
 23
285.1580198942668
 33
0.0
 14
421.2070893370118
 24
293.5044871282653
 34
0.0
1001
ACAD
1000
DSTYLE
1002
{
1070
    40
1040
1.0
1002
}
  0
DIMENSION
  5
3730
330
1F
100
AcDbEntity
  8
寸法線
100
AcDbDimension
  2
*D11
 10
432.3489096703228
 20
292.7322791333486
 30
0.0
 11
428.1413472430598
 21
301.6375105989062
 31
0.0
 70
    33
  1
20
 71
     5
 42
18.41230935112676
  3
sunpo
100
AcDbAlignedDimension
 13
409.9039690867398
 23
295.9593295410753
 33
0.0
 14
423.1728499022487
 24
283.1941449538706
 34
0.0
1001
ACAD
1000
DSTYLE
1002
{
1070
    40
1040
1.0
1002
}
  0
ARC
  5
3731
330
1F
100
AcDbEntity
  8
太線
100
AcDbCircle
 10
414.4565464751563
 20
291.3801629765082
 30
0.0
 40
6.0
100
AcDbArc
 50
58.32379763122585
 51
239.419283394774
  0
LINE
  5
3732
330
1F
100
AcDbEntity
  8
太線
100
AcDbLine
 10
413.2511196692796
 20
284.4789945223955
 30
0.0
 11
411.4040362950611
 21
286.2146831730035
 31
0.0
  0
ARC
  5
3733
330
1F
100
AcDbEntity
  8
太線
100
AcDbCircle
 10
418.280506101873
 20
287.7508857356918
 30
0.0
 40
6.0
100
AcDbArc
 50
213.0462060789215
 51
30.56452286745554
  0
ARC
  5
3734
330
1F
100
AcDbEntity
  8
太線
100
AcDbCircle
 10
415.4520789771269
 20
290.579312860438
 30
0.0
 40
20.0
100
AcDbArc
 50
270.0
 51
0.0
  0
LINE
  5
3736
330
1F
100
AcDbEntity
  8
太線
100
AcDbLine
 10
417.5763855669852
 20
296.5163885721167
 30
0.0
 11
423.4468484423429
 21
290.801935853449
 31
0.0
  0
LINE
  5
374E
330
1F
100
AcDbEntity
  8
太線
100
AcDbLine
 10
420.6402621816009
 20
408.7677235830612
 30
0.0
 11
418.9179911296269
 21
406.9081229520933
 31
0.0
  0
ARC
  5
374F
330
1F
100
AcDbEntity
  8
太線
100
AcDbCircle
 10
417.3320460525437
 20
413.773291087695
 30
0.0
 40
6.0
100
AcDbArc
 50
303.4610072403257
 51
120.9793240288627
  0
ARC
  5
3750
330
1F
100
AcDbEntity
  8
太線
100
AcDbCircle
 10
414.8148012377427
 20
410.6359263870358
 30
0.0
 40
19.99999999999994
100
AcDbArc
 50
0.0
 51
90.0
  0
LINE
  5
3751
330
1F
100
AcDbEntity
  8
太線
100
AcDbLine
 10
408.5718704648516
 20
413.0057304218019
 30
0.0
 11
414.2436737280062
 21
418.9174097085115
 31
0.0
  0
ARC
  5
3752
330
1F
100
AcDbEntity
  8
太線
100
AcDbCircle
 10
413.7305477932253
 20
409.9231572191659
 30
0.0
 40
6.0
100
AcDbArc
 50
148.7385987926364
 51
329.8340845561814
  0
LINE
  5
382B
330
1F
100
AcDbEntity
  8
想像線
100
AcDbLine
 10
489.4712291750806
 20
201.5364816556899
 30
0.0
 11
489.4712291750806
 21
196.7987500808199
 31
0.0
  0
LINE
  5
382C
330
1F
100
AcDbEntity
  8
想像線
100
AcDbLine
 10
533.8371415361893
 20
201.842141331851
 30
0.0
 11
533.8371415361893
 21
196.9515803585252
 31
0.0
  0
XLINE
  5
3841
330
1F
100
AcDbEntity
  8
構築線
100
AcDbXline
 10
355.5066289422525
 20
350.2296910913468
 30
0.0
 11
0.0
 21
-1.0
 31
0.0
  0
XLINE
  5
3842
330
1F
100
AcDbEntity
  8
構築線
100
AcDbXline
 10
355.5066289422525
 20
350.2296910913468
 30
0.0
 11
-1.0
 21
0.0
 31
0.0
  0
XLINE
  5
3843
330
1F
100
AcDbEntity
  8
構築線
100
AcDbXline
 10
275.5066289422525
 20
350.2296910913468
 30
0.0
 11
0.0
 21
-1.0
 31
0.0
  0
XLINE
  5
3844
330
1F
100
AcDbEntity
  8
構築線
100
AcDbXline
 10
435.5066289422524
 20
350.2296910913468
 30
0.0
 11
0.0
 21
-1.0
 31
0.0
  0
XLINE
  5
3845
330
1F
100
AcDbEntity
  8
構築線
100
AcDbXline
 10
355.5066289422525
 20
430.2296910913468
 30
0.0
 11
-1.0
 21
0.0
 31
0.0
  0
XLINE
  5
3857
330
1F
100
AcDbEntity
  8
構築線
100
AcDbXline
 10
275.5066289422525
 20
270.2296910913468
 30
0.0
 11
0.7071067811865476
 21
0.7071067811865476
 31
0.0
  0
CIRCLE
  5
385A
330
1F
100
AcDbEntity
  8
太線
100
AcDbCircle
 10
355.5066289422525
 20
350.2296910913468
 30
0.0
 40
20.26353145890385
  0
LINE
  5
3873
330
1F
100
AcDbEntity
  8
太線
100
AcDbLine
 10
274.920299890965
 20
410.1490241866957
 30
0.0
 11
275.7948007125178
 21
290.2198849119618
 31
0.0
  0
LINE
  5
3874
330
1F
100
AcDbEntity
  8
太線
100
AcDbLine
 10
295.1685810911037
 20
270.2296910913468
 30
0.0
 11
415.4520789771269
 21
270.5793128604379
 31
0.0
  0
LINE
  5
3875
330
1F
100
AcDbEntity
  8
太線
100
AcDbLine
 10
434.8148012377426
 20
410.6359263870358
 30
0.0
 11
435.4520789771269
 21
290.579312860438
 31
0.0
  0
LINE
  5
3876
330
1F
100
AcDbEntity
  8
太線
100
AcDbLine
 10
294.9202998909648
 20
430.1490241866956
 30
0.0
 11
414.8148012377427
 21
430.6359263870358
 31
0.0
  0
XLINE
  5
3878
330
1F
100
AcDbEntity
  8
構築線
100
AcDbXline
 10
512.0337151808912
 20
261.1490861672506
 30
0.0
 11
0.0
 21
1.0
 31
0.0
  0
XLINE
  5
3879
330
1F
100
AcDbEntity
  8
構築線
100
AcDbXline
 10
432.0337151808912
 20
261.1490861672506
 30
0.0
 11
0.0
 21
1.0
 31
0.0
  0
XLINE
  5
387A
330
1F
100
AcDbEntity
  8
構築線
100
AcDbXline
 10
592.0337151808912
 20
261.1490861672506
 30
0.0
 11
0.0
 21
1.0
 31
0.0
  0
XLINE
  5
387B
330
1F
100
AcDbEntity
  8
構築線
100
AcDbXline
 10
451.5337151808912
 20
196.7032693405661
 30
0.0
 11
-1.0
 21
0.0
 31
0.0
  0
LINE
  5
3887
330
1F
100
AcDbEntity
  8
太線
100
AcDbLine
 10
456.5337151808913
 20
201.7032693405661
 30
0.0
 11
440.5066289422525
 21
201.7032693405661
 31
0.0
  0
LINE
  5
3888
330
1F
100
AcDbEntity
  8
太線
100
AcDbLine
 10
435.5066289422524
 20
196.7032693405661
 30
0.0
 11
451.5337151808912
 21
196.7032693405661
 31
0.0
  0
LINE
  5
3889
330
1F
100
AcDbEntity
  8
太線
100
AcDbLine
 10
566.5337151808912
 20
201.7032693405661
 30
0.0
 11
587.0337151808912
 21
201.3112985413608
 31
0.0
  0
LINE
  5
388A
330
1F
100
AcDbEntity
  8
太線
100
AcDbLine
 10
571.5337151808912
 20
196.7032693405661
 30
0.0
 11
592.0337151808912
 21
196.3112985413608
 31
0.0
  0
LINE
  5
3896
330
1F
100
AcDbEntity
  8
太線
100
AcDbLine
 10
537.3676975401272
 20
196.3879191590847
 30
0.0
 11
571.5337151808912
 21
196.7032693405661
 31
0.0
  0
DIMENSION
  5
38B4
330
1F
100
AcDbEntity
  8
寸法線
100
AcDbDimension
  2
*D12
 10
236.3631193789438
 20
287.555096937677
 30
0.0
 11
232.8626272529595
 21
348.8520605621864
 31
0.0
 70
    32
  1
120
 71
     5
 42
122.5939272490186
  3
sunpo
100
AcDbAlignedDimension
 13
294.9202998909648
 23
410.1490241866957
 33
0.0
 14
292.8033572956151
 24
287.555096937677
 34
0.0
 50
90.0
100
AcDbRotatedDimension
1001
ACAD
1000
DSTYLE
1002
{
1070
    40
1040
1.0
1002
}
  0
DIMENSION
  5
3945
330
1F
100
AcDbEntity
  8
寸法線
100
AcDbDimension
  2
*D15
 10
335.811131337784
 20
345.4654407517476
 30
0.0
 11
404.2327781807028
 21
362.0163226209805
 31
0.0
 70
   163
  1
Φ45　水抜き
 71
     5
 42
40.52706291780771
  3
sunpo
100
AcDbDiametricDimension
 15
375.2021265467205
 25
354.993941430946
 35
0.0
 40
0.0
1001
ACAD
1000
DSTYLE
1002
{
1070
    40
1040
1.0
1070
   288
1070
     1
1002
}
  0
ARC
  5
396F
330
1F
100
AcDbEntity
  8
太線
100
AcDbCircle
 10
511.7422467413693
 20
246.132437489225
 30
0.0
 40
34.65
100
AcDbArc
 50
347.4993777707561
 51
12.50062222924392
  0
LINE
  5
3971
330
1F
100
AcDbEntity
  8
太線
100
AcDbLine
 10
541.3922467413693
 20
236.8665864511644
 30
0.0
 11
545.5708219404522
 21
238.6324374892249
 31
0.0
  0
LINE
  5
3972
330
1F
100
AcDbEntity
  8
細線
100
AcDbLine
 10
546.0295986367841
 20
241.132437489225
 30
0.0
 11
536.2515412288294
 21
241.1324374892251
 31
0.0
  0
LINE
  5
3973
330
1F
100
AcDbEntity
  8
細線
100
AcDbLine
 10
546.1605921402988
 20
242.132437489225
 30
0.0
 11
536.2515412288294
 21
242.1324374892251
 31
0.0
  0
LINE
  5
3975
330
1F
100
AcDbEntity
  8
太線
100
AcDbLine
 10
540.8435855896364
 20
255.6301507813248
 30
0.0
 11
545.5708219404522
 21
253.632437489225
 31
0.0
  0
LINE
  5
3976
330
1F
100
AcDbEntity
  8
細線
100
AcDbLine
 10
546.1605921402988
 20
250.132437489225
 30
0.0
 11
536.2515412288294
 21
250.1324374892251
 31
0.0
  0
LINE
  5
3977
330
1F
100
AcDbEntity
  8
細線
100
AcDbLine
 10
546.0295986367841
 20
251.132437489225
 30
0.0
 11
536.2515412288294
 21
251.1324374892251
 31
0.0
  0
LINE
  5
3978
330
1F
100
AcDbEntity
  8
破線
100
AcDbLine
 10
541.3922467413694
 20
254.2540637391973
 30
0.0
 11
541.3922467413694
 21
254.2540637391973
 31
0.0
  0
LINE
  5
3981
330
1F
100
AcDbEntity
  8
太線
100
AcDbLine
 10
346.9458235115089
 20
379.07514946184
 30
0.0
 11
348.9435368036088
 21
383.8023858126558
 31
0.0
  0
LINE
  5
3982
330
1F
100
AcDbEntity
  8
細線
100
AcDbLine
 10
361.4435368036088
 20
384.2611625089878
 30
0.0
 11
361.4435368036085
 21
374.483105101033
 31
0.0
  0
LINE
  5
3983
330
1F
100
AcDbEntity
  8
細線
100
AcDbLine
 10
360.4435368036088
 20
384.3921560125025
 30
0.0
 11
360.4435368036086
 21
374.483105101033
 31
0.0
  0
LINE
  5
3984
330
1F
100
AcDbEntity
  8
細線
100
AcDbLine
 10
352.4435368036088
 20
384.3921560125025
 30
0.0
 11
352.4435368036086
 21
374.483105101033
 31
0.0
  0
LINE
  5
3985
330
1F
100
AcDbEntity
  8
細線
100
AcDbLine
 10
351.4435368036088
 20
384.2611625089878
 30
0.0
 11
351.4435368036085
 21
374.483105101033
 31
0.0
  0
ARC
  5
3986
330
1F
100
AcDbEntity
  8
太線
100
AcDbCircle
 10
356.4435368036086
 20
349.973810613573
 30
0.0
 40
34.65
100
AcDbArc
 50
77.49937777075607
 51
102.5006222292439
  0
LINE
  5
3987
330
1F
100
AcDbEntity
  8
太線
100
AcDbLine
 10
365.7093878416694
 20
379.623810613573
 30
0.0
 11
363.9435368036088
 21
383.8023858126558
 31
0.0
  0
LINE
  5
3988
330
1F
100
AcDbEntity
  8
破線
100
AcDbLine
 10
348.3219105536363
 20
379.6238106135731
 30
0.0
 11
348.3219105536363
 21
379.6238106135731
 31
0.0
  0
ARC
  5
3989
330
1F
100
AcDbEntity
  8
太線
100
AcDbCircle
 10
536.0337151808912
 20
256.0722165633695
 30
0.0
 40
5.0
100
AcDbArc
 50
0.0
 51
90.0
  0
ARC
  5
398A
330
1F
100
AcDbEntity
  8
太線
100
AcDbCircle
 10
487.0337151808912
 20
256.1490861672506
 30
0.0
 40
5.0
100
AcDbArc
 50
90.0
 51
180.0
  0
XLINE
  5
398C
330
1F
100
AcDbEntity
  8
構築線
100
AcDbXline
 10
512.0337151808912
 20
246.1490861672506
 30
0.0
 11
1.0
 21
0.0
 31
0.0
  0
DIMENSION
  5
398D
330
1F
100
AcDbEntity
  8
寸法線
100
AcDbDimension
  2
*D16
 10
568.90358264784
 20
246.1490861672506
 30
0.0
 11
565.40358264784
 21
253.6490861672507
 31
0.0
 70
    32
 71
     5
 42
15.0
  3
sunpo
100
AcDbAlignedDimension
 13
536.0337151808912
 23
261.1490861672506
 33
0.0
 14
546.3922427416796
 24
246.1490861672506
 34
0.0
 50
90.0
100
AcDbRotatedDimension
1001
ACAD
1000
DSTYLE
1002
{
1070
    40
1040
1.0
1002
}
  0
CIRCLE
  5
39C7
330
1F
100
AcDbEntity
  8
太線
100
AcDbCircle
 10
304.2619396607991
 20
198.1351987692598
 30
0.0
 40
3.999999999999994
  0
CIRCLE
  5
39C8
330
1F
100
AcDbEntity
  8
太線
100
AcDbCircle
 10
304.2619396607991
 20
198.1351987692598
 30
0.0
 40
4.999999999999998
  0
DIMENSION
  5
39C9
330
1F
100
AcDbEntity
  8
寸法線
100
AcDbDimension
  2
*D18
 10
317.8463897988109
 20
178.0903376558878
 30
0.0
 11
314.3628806912856
 21
183.1018408533116
 31
0.0
 70
    33
  1
13
 71
     5
 42
10.00000000000002
  3
sunpo
100
AcDbAlignedDimension
 13
308.2289741553026
 23
188.12207551428
 33
0.0
 14
308.1960303557437
 24
178.1221297791236
 34
0.0
1001
ACAD
1000
DSTYLE
1002
{
1070
    40
1040
1.0
1002
}
  0
LINE
  5
39CA
330
1F
100
AcDbEntity
  8
破線
100
AcDbLine
 10
299.199373574059
 20
179.1517737722424
 30
0.0
 11
309.1993193092152
 21
179.1188299726834
 31
0.0
  0
LINE
  5
39CB
330
1F
100
AcDbEntity
  8
太線
100
AcDbLine
 10
309.2289687288183
 20
188.1187811343242
 30
0.0
 11
299.2290229936619
 21
188.151724933883
 31
0.0
  0
LINE
  5
39CC
330
1F
100
AcDbEntity
  8
太線
100
AcDbLine
 10
300.1960737676187
 20
178.1484848187709
 30
0.0
 11
308.1960303557437
 21
178.1221297791236
 31
0.0
  0
LINE
  5
39CD
330
1F
100
AcDbEntity
  8
破線
100
AcDbLine
 10
300.2290175671776
 20
188.1484305539271
 30
0.0
 11
300.1993681475746
 21
179.1484793922865
 31
0.0
  0
LINE
  5
39CE
330
1F
100
AcDbEntity
  8
破線
100
AcDbLine
 10
301.1993627210903
 20
179.1451850123306
 30
0.0
 11
301.2290121406932
 21
188.1451361739712
 31
0.0
  0
LINE
  5
39CF
330
1F
100
AcDbEntity
  8
太線
100
AcDbLine
 10
299.2290229936619
 20
188.151724933883
 30
0.0
 11
299.199373574059
 21
179.1517737722424
 31
0.0
  0
LINE
  5
39D0
330
1F
100
AcDbEntity
  8
太線
100
AcDbLine
 10
299.199373574059
 20
179.1517737722424
 30
0.0
 11
300.1960737676187
 21
178.1484848187709
 31
0.0
  0
LINE
  5
39D1
330
1F
100
AcDbEntity
  8
破線
100
AcDbLine
 10
300.1960737676187
 20
178.1484848187709
 30
0.0
 11
301.1993627210903
 21
179.1451850123306
 31
0.0
  0
LINE
  5
39D2
330
1F
100
AcDbEntity
  8
破線
100
AcDbLine
 10
308.2289741553026
 20
188.12207551428
 30
0.0
 11
308.1993247356996
 21
179.1221243526393
 31
0.0
  0
LINE
  5
39D3
330
1F
100
AcDbEntity
  8
破線
100
AcDbLine
 10
307.199330162184
 20
179.1254187325952
 30
0.0
 11
307.228979581787
 21
188.1253698942359
 31
0.0
  0
LINE
  5
39D4
330
1F
100
AcDbEntity
  8
太線
100
AcDbLine
 10
309.1993193092152
 20
179.1188299726834
 30
0.0
 11
309.2289687288183
 21
188.1187811343242
 31
0.0
  0
LINE
  5
39D5
330
1F
100
AcDbEntity
  8
破線
100
AcDbLine
 10
308.1960303557437
 20
178.1221297791236
 30
0.0
 11
307.199330162184
 21
179.1254187325952
 31
0.0
  0
LINE
  5
39D6
330
1F
100
AcDbEntity
  8
太線
100
AcDbLine
 10
308.1960303557437
 20
178.1221297791236
 30
0.0
 11
309.1993193092152
 21
179.1188299726834
 31
0.0
  0
TEXT
  5
39D7
330
1F
100
AcDbEntity
  8
文字
100
AcDbText
 10
278.9065558573249
 20
211.7102427091297
 30
0.0
 40
4.799999999999999
  1
8mm六角レンチ仕様
 51
15.0
  7
OKANO
100
AcDbText
  0
LEADER
  5
39D8
330
1F
100
AcDbEntity
  8
寸法線
100
AcDbLeader
  3
sunpo
 76
     2
 10
304.624082763675
 20
200.0660329922884
 30
0.0
 10
312.8168719124535
 20
210.4329927975004
 30
0.0
1001
ACAD
1000
DSTYLE
1002
{
1070
   147
1040
1.0
1070
    77
1070
     0
1002
}
  0
LWPOLYLINE
  5
39D9
330
1F
100
AcDbEntity
  8
太線
100
AcDbPolyline
 90
        6
 70
     1
 43
0.0
 10
307.2619233813459
 20
198.1253156293921
 10
305.770490571267
 20
200.7283193122594
 10
302.7705068507202
 20
200.7382024521271
 10
301.2619559402522
 20
198.1450819091276
 10
302.753388750331
 20
195.5420782262603
 10
305.7533724708779
 20
195.5321950863926
  0
TEXT
  5
39DA
330
1F
100
AcDbEntity
  8
寸法線
100
AcDbText
 10
282.7826246782212
 20
160.8142537768935
 30
0.0
 40
4.799999999999999
  1
PF3/8 inch19yama クボミ先ホーローセット使用
 51
15.0
  7
OKANO
100
AcDbText
  0
VIEWPORT
  5
2E
330
1B
100
AcDbEntity
 67
     1
  8
0
100
AcDbViewport
 10
264.9049412415088
 20
128.2949633547388
 30
0.0
 40
592.3113920247616
 41
300.8367660231139
 68
     2
 69
     1
 12
264.9049412415088
 22
128.2949633547388
 13
0.0
 23
0.0
 14
10.0
 24
10.0
 15
10.0
 25
10.0
 16
0.0
 26
0.0
 36
1.0
 17
0.0
 27
0.0
 37
0.0
 42
50.0
 43
0.0
 44
0.0
 45
300.8367660231139
 50
0.0
 51
0.0
 72
   100
 90
    32800
  1

281
     0
 71
     1
 74
     0
110
0.0
120
0.0
130
0.0
111
1.0
121
0.0
131
0.0
112
0.0
122
1.0
132
0.0
 79
     0
146
0.0
  0
VIEWPORT
  5
30
330
1B
100
AcDbEntity
 67
     1
  8
70-0-CON
100
AcDbViewport
 10
141.8594093064315
 20
100.3480256368386
 30
0.0
 40
261.6199023344245
 41
192.6196987113174
 68
     1
 69
     2
 12
452.5579283661411
 22
269.6128549033165
 13
0.0
 23
0.0
 14
5.0
 24
5.0
 15
10.0
 25
10.0
 16
0.0
 26
0.0
 36
1.0
 17
0.0
 27
0.0
 37
0.0
 42
50.0
 43
0.0
 44
0.0
 45
418.7743388383437
 50
0.0
 51
0.0
 72
   100
 90
    32864
  1

281
     0
 71
     1
 74
     0
110
0.0
120
0.0
130
0.0
111
1.0
121
0.0
131
0.0
112
0.0
122
1.0
132
0.0
 79
     0
146
0.0
  0
LWPOLYLINE
  5
45
330
1B
100
AcDbEntity
 67
     1
  8
50-0-CON
100
AcDbPolyline
 90
        4
 70
     1
 43
0.0
 10
11.04945813921926
 20
4.038176281179858
 10
272.2125713060605
 20
4.033520706629644
 10
273.4987754093466
 20
195.9297862125246
 10
11.04945813921926
 20
196.6578749924973
  0
LINE
  5
4A
330
1B
100
AcDbEntity
 67
     1
  8
50-0-CON
100
AcDbLine
 10
10.38768783662635
 20
100.3480256368386
 30
0.0
 11
-4.391850629656119
 21
100.3480256368386
 31
0.0
  0
LINE
  5
4B
330
1B
100
AcDbEntity
 67
     1
  8
50-0-CON
100
AcDbLine
 10
141.8594093064315
 20
197.098652626247
 30
0.0
 11
141.8594093064315
 21
202.387980773708
 31
0.0
  0
LINE
  5
4C
330
1B
100
AcDbEntity
 67
     1
  8
50-0-CON
100
AcDbLine
 10
272.4487699456857
 20
100.7888032705883
 30
0.0
 11
278.8458837249377
 21
100.7888032705883
 31
0.0
  0
LINE
  5
4D
330
1B
100
AcDbEntity
 67
     1
  8
50-0-CON
100
AcDbLine
 10
140.9770484758805
 20
4.038176281179858
 30
0.0
 11
140.9770484758805
 21
-3.455038652015446
 31
0.0
  0
ENDSEC
  0
SECTION
  2
OBJECTS
  0
DICTIONARY
  5
C
330
0
100
AcDbDictionary
281
     1
  3
ACAD_GROUP
350
D
  3
ACAD_LAYOUT
350
1A
  3
ACAD_MLINESTYLE
350
17
  3
ACAD_PLOTSETTINGS
350
19
  3
ACAD_PLOTSTYLENAME
350
E
  3
AcadDim
350
3360
  3
AcDbVariableDictionary
350
6AD
  3
DWGPROPS
350
30F
  0
DICTIONARY
  5
D
102
{ACAD_REACTORS
330
C
102
}
330
C
100
AcDbDictionary
281
     1
  0
DICTIONARY
  5
1A
102
{ACAD_REACTORS
330
C
102
}
330
C
100
AcDbDictionary
281
     1
  3
A4
350
1E
  3
Model
350
22
  0
DICTIONARY
  5
17
102
{ACAD_REACTORS
330
C
102
}
330
C
100
AcDbDictionary
281
     1
  3
Standard
350
18
  0
DICTIONARY
  5
19
102
{ACAD_REACTORS
330
C
102
}
330
C
100
AcDbDictionary
281
     1
  0
ACDBDICTIONARYWDFLT
  5
E
102
{ACAD_REACTORS
330
C
102
}
330
C
100
AcDbDictionary
281
     1
  3
Normal
350
F
100
AcDbDictionaryWithDefault
340
F
  0
XRECORD
  5
3360
102
{ACAD_REACTORS
330
C
102
}
330
C
100
AcDbXrecord
280
     1
 90
   990106
  3

 60
     0
 61
     0
 62
     1
 63
     3
 64
     0
 65
     0
 66
     0
 67
     3
 68
     1
 69
     0
 70
     0
 71
     0
 72
     0
 40
1.494273648781839
170
     0
  0
DICTIONARY
  5
6AD
102
{ACAD_REACTORS
330
C
102
}
330
C
100
AcDbDictionary
281
     1
  3
SORTENTS
350
6AE
  0
XRECORD
  5
30F
102
{ACAD_REACTORS
330
C
102
}
330
C
100
AcDbXrecord
280
     1
  1
DWGPROPS COOKIE
  2

  3

  4

  6

  7

  8

  9

300
=
301
=
302
=
303
=
304
=
305
=
306
=
307
=
308
=
309
=
 40
0.3303803125
 41
2452362.482225463
 42
2452370.969861285
  1

 90
        0
  0
LAYOUT
  5
1E
102
{ACAD_REACTORS
330
1A
102
}
330
1A
100
AcDbPlotSettings
  1

  2
EPSON PM-920C
  4
A4
  6

 40
3.757083177566528
 41
14.7637300491333
 42
3.757080078125
 43
3.757080078125
 44
209.9733276367187
 45
296.9683227539062
 46
0.0
 47
0.0
 48
0.0
 49
0.0
140
0.0
141
0.0
142
1.0
143
1.0
 70
   688
 72
     1
 73
     1
 74
     5
  7
joint.ctb
 75
    16
147
1.0
148
0.0
149
0.0
100
AcDbLayout
  1
A4
 70
     1
 71
     1
 10
-3.757080078125
 20
-3.757083177566528
 11
293.2112426757812
 21
206.2162444591522
 12
0.0
 22
0.0
 32
0.0
 14
-4.391850629656119
 24
-3.455038652015446
 34
0.0
 15
278.8458837249377
 25
202.387980773708
 35
0.0
146
0.0
 13
0.0
 23
0.0
 33
0.0
 16
1.0
 26
0.0
 36
0.0
 17
0.0
 27
1.0
 37
0.0
 76
     0
330
1B
331
30
  0
LAYOUT
  5
22
102
{ACAD_REACTORS
330
1A
102
}
330
1A
100
AcDbPlotSettings
  1

  2
EPSON PM-920C
  4
A4
  6

 40
3.757083177566528
 41
14.7637300491333
 42
3.757080078125
 43
3.757080078125
 44
209.9733276367187
 45
296.9683227539062
 46
0.0
 47
0.0
 48
0.0
 49
0.0
140
0.0
141
0.0
142
1.0
143
1.0
 70
 11952
 72
     1
 73
     1
 74
     0
  7

 75
     0
147
1.0
148
-45.64199848979289
149
-84.48806419330498
100
AcDbLayout
  1
Model
 70
     1
 71
     0
 10
0.0
 20
0.0
 11
12.0
 21
9.0
 12
0.0
 22
0.0
 32
0.0
 14
0.0
 24
0.0
 34
0.0
 15
0.0
 25
0.0
 35
0.0
146
0.0
 13
0.0
 23
0.0
 33
0.0
 16
1.0
 26
0.0
 36
0.0
 17
0.0
 27
1.0
 37
0.0
 76
     0
330
1F
  0
MLINESTYLE
  5
18
102
{ACAD_REACTORS
330
17
102
}
330
17
100
AcDbMlineStyle
  2
STANDARD
 70
     0
  3

 62
   256
 51
90.0
 52
90.0
 71
     2
 49
0.5
 62
   256
  6
BYLAYER
 49
-0.5
 62
   256
  6
BYLAYER
  0
ACDBPLACEHOLDER
  5
F
102
{ACAD_REACTORS
330
E
102
}
330
E
  0
DICTIONARYVAR
  5
6AE
102
{ACAD_REACTORS
330
6AD
102
}
330
6AD
100
DictionaryVariables
280
     0
  1
96
  0
ENDSEC
  0
EOF
