  0
SECTION
  2
HEADER
  9
$ACADVER
  1
AC1015
  9
$ACADMAINTVER
 70
     6
  9
$DWGCODEPAGE
  3
ANSI_932
  9
$INSBASE
 10
0.0
 20
0.0
 30
0.0
  9
$EXTMIN
 10
24.3867162961478
 20
-6.750747223656389
 30
0.0
  9
$EXTMAX
 10
324.4769407644665
 20
218.4711488256962
 30
0.0
  9
$LIMMIN
 10
0.0
 20
0.0
  9
$LIMMAX
 10
420.0
 20
297.0
  9
$ORTHOMODE
 70
     1
  9
$REGENMODE
 70
     1
  9
$FILLMODE
 70
     1
  9
$QTEXTMODE
 70
     0
  9
$MIRRTEXT
 70
     1
  9
$LTSCALE
 40
1.0
  9
$ATTMODE
 70
     1
  9
$TEXTSIZE
 40
5.0
  9
$TRACEWID
 40
1.0
  9
$TEXTSTYLE
  7
OKANO
  9
$CLAYER
  8
太線
  9
$CELTYPE
  6
ByLayer
  9
$CECOLOR
 62
   256
  9
$CELTSCALE
 40
1.0
  9
$DISPSILH
 70
     0
  9
$DIMSCALE
 40
0.0
  9
$DIMASZ
 40
3.0
  9
$DIMEXO
 40
2.0
  9
$DIMDLI
 40
8.0
  9
$DIMRND
 40
0.0
  9
$DIMDLE
 40
0.0
  9
$DIMEXE
 40
3.0
  9
$DIMTP
 40
0.0
  9
$DIMTM
 40
0.0
  9
$DIMTXT
 40
5.0
  9
$DIMCEN
 40
2.5
  9
$DIMTSZ
 40
0.0
  9
$DIMTOL
 70
     0
  9
$DIMLIM
 70
     0
  9
$DIMTIH
 70
     0
  9
$DIMTOH
 70
     0
  9
$DIMSE1
 70
     0
  9
$DIMSE2
 70
     0
  9
$DIMTAD
 70
     1
  9
$DIMZIN
 70
     8
  9
$DIMBLK
  1
Closed
  9
$DIMASO
 70
     1
  9
$DIMSHO
 70
     1
  9
$DIMPOST
  1

  9
$DIMAPOST
  1

  9
$DIMALT
 70
     0
  9
$DIMALTD
 70
     3
  9
$DIMALTF
 40
0.03937007874016
  9
$DIMLFAC
 40
1.0
  9
$DIMTOFL
 70
     1
  9
$DIMTVP
 40
0.0
  9
$DIMTIX
 70
     0
  9
$DIMSOXD
 70
     0
  9
$DIMSAH
 70
     0
  9
$DIMBLK1
  1

  9
$DIMBLK2
  1

  9
$DIMSTYLE
  2
sunpo
  9
$DIMCLRD
 70
     0
  9
$DIMCLRE
 70
     0
  9
$DIMCLRT
 70
     0
  9
$DIMTFAC
 40
1.0
  9
$DIMGAP
 40
1.0
  9
$DIMJUST
 70
     0
  9
$DIMSD1
 70
     0
  9
$DIMSD2
 70
     0
  9
$DIMTOLJ
 70
     0
  9
$DIMTZIN
 70
     8
  9
$DIMALTZ
 70
     0
  9
$DIMALTTZ
 70
     0
  9
$DIMUPT
 70
     0
  9
$DIMDEC
 70
     2
  9
$DIMTDEC
 70
     2
  9
$DIMALTU
 70
     2
  9
$DIMALTTD
 70
     3
  9
$DIMTXSTY
  7
OKANO
  9
$DIMAUNIT
 70
     0
  9
$DIMADEC
 70
     0
  9
$DIMALTRND
 40
0.0
  9
$DIMAZIN
 70
     0
  9
$DIMDSEP
 70
    46
  9
$DIMATFIT
 70
     3
  9
$DIMFRAC
 70
     0
  9
$DIMLDRBLK
  1
Closed
  9
$DIMLUNIT
 70
     2
  9
$DIMLWD
 70
    -2
  9
$DIMLWE
 70
    -2
  9
$DIMTMOVE
 70
     0
  9
$LUNITS
 70
     2
  9
$LUPREC
 70
     2
  9
$SKETCHINC
 40
1.0
  9
$FILLETRAD
 40
2.0
  9
$AUNITS
 70
     0
  9
$AUPREC
 70
     0
  9
$MENU
  1
.
  9
$ELEVATION
 40
0.0
  9
$PELEVATION
 40
0.0
  9
$THICKNESS
 40
0.0
  9
$LIMCHECK
 70
     0
  9
$CHAMFERA
 40
10.0
  9
$CHAMFERB
 40
10.0
  9
$CHAMFERC
 40
20.0
  9
$CHAMFERD
 40
0.0
  9
$SKPOLY
 70
     0
  9
$TDCREATE
 40
2452362.482225463
  9
$TDUCREATE
 40
2452362.107225463
  9
$TDUPDATE
 40
2456612.469822871
  9
$TDUUPDATE
 40
2456612.094822870
  9
$TDINDWG
 40
2.3609289815
  9
$TDUSRTIMER
 40
2.3609289815
  9
$USRTIMER
 70
     1
  9
$ANGBASE
 50
0.0
  9
$ANGDIR
 70
     0
  9
$PDMODE
 70
     0
  9
$PDSIZE
 40
0.0
  9
$PLINEWID
 40
0.0
  9
$SPLFRAME
 70
     0
  9
$SPLINETYPE
 70
     6
  9
$SPLINESEGS
 70
     8
  9
$HANDSEED
  5
3419
  9
$SURFTAB1
 70
     6
  9
$SURFTAB2
 70
     6
  9
$SURFTYPE
 70
     6
  9
$SURFU
 70
     6
  9
$SURFV
 70
     6
  9
$UCSBASE
  2

  9
$UCSNAME
  2

  9
$UCSORG
 10
0.0
 20
0.0
 30
0.0
  9
$UCSXDIR
 10
1.0
 20
0.0
 30
0.0
  9
$UCSYDIR
 10
0.0
 20
1.0
 30
0.0
  9
$UCSORTHOREF
  2

  9
$UCSORTHOVIEW
 70
     0
  9
$UCSORGTOP
 10
0.0
 20
0.0
 30
0.0
  9
$UCSORGBOTTOM
 10
0.0
 20
0.0
 30
0.0
  9
$UCSORGLEFT
 10
0.0
 20
0.0
 30
0.0
  9
$UCSORGRIGHT
 10
0.0
 20
0.0
 30
0.0
  9
$UCSORGFRONT
 10
0.0
 20
0.0
 30
0.0
  9
$UCSORGBACK
 10
0.0
 20
0.0
 30
0.0
  9
$PUCSBASE
  2

  9
$PUCSNAME
  2

  9
$PUCSORG
 10
0.0
 20
0.0
 30
0.0
  9
$PUCSXDIR
 10
1.0
 20
0.0
 30
0.0
  9
$PUCSYDIR
 10
0.0
 20
1.0
 30
0.0
  9
$PUCSORTHOREF
  2

  9
$PUCSORTHOVIEW
 70
     0
  9
$PUCSORGTOP
 10
0.0
 20
0.0
 30
0.0
  9
$PUCSORGBOTTOM
 10
0.0
 20
0.0
 30
0.0
  9
$PUCSORGLEFT
 10
0.0
 20
0.0
 30
0.0
  9
$PUCSORGRIGHT
 10
0.0
 20
0.0
 30
0.0
  9
$PUCSORGFRONT
 10
0.0
 20
0.0
 30
0.0
  9
$PUCSORGBACK
 10
0.0
 20
0.0
 30
0.0
  9
$USERI1
 70
     0
  9
$USERI2
 70
     0
  9
$USERI3
 70
     0
  9
$USERI4
 70
     0
  9
$USERI5
 70
     0
  9
$USERR1
 40
0.0
  9
$USERR2
 40
0.0
  9
$USERR3
 40
0.0
  9
$USERR4
 40
0.0
  9
$USERR5
 40
0.0
  9
$WORLDVIEW
 70
     1
  9
$SHADEDGE
 70
     3
  9
$SHADEDIF
 70
    70
  9
$TILEMODE
 70
     0
  9
$MAXACTVP
 70
    64
  9
$PINSBASE
 10
0.0
 20
0.0
 30
0.0
  9
$PLIMCHECK
 70
     0
  9
$PEXTMIN
 10
-4.391850629656119
 20
-3.455038652015446
 30
0.0
  9
$PEXTMAX
 10
278.8458837249377
 20
202.387980773708
 30
0.0
  9
$PLIMMIN
 10
-3.757080078125
 20
-3.757083177566528
  9
$PLIMMAX
 10
293.2112426757812
 20
206.2162444591522
  9
$UNITMODE
 70
     0
  9
$VISRETAIN
 70
     1
  9
$PLINEGEN
 70
     0
  9
$PSLTSCALE
 70
     1
  9
$TREEDEPTH
 70
  3020
  9
$CMLSTYLE
  2
Standard
  9
$CMLJUST
 70
     0
  9
$CMLSCALE
 40
20.0
  9
$PROXYGRAPHICS
 70
     1
  9
$MEASUREMENT
 70
     1
  9
$CELWEIGHT
370
    -1
  9
$ENDCAPS
280
     0
  9
$JOINSTYLE
280
     0
  9
$LWDISPLAY
290
     0
  9
$INSUNITS
 70
     4
  9
$HYPERLINKBASE
  1

  9
$STYLESHEET
  1

  9
$XEDIT
290
     1
  9
$CEPSNTYPE
380
     0
  9
$PSTYLEMODE
290
     1
  9
$FINGERPRINTGUID
  2
{FF7F33C3-4233-11D6-AEE0-0000F45FD7F4}
  9
$VERSIONGUID
  2
{E308297B-E180-46F1-A453-1DF9A76C8166}
  9
$EXTNAMES
290
     1
  9
$PSVPSCALE
 40
0.0
  9
$OLESTARTUP
290
     0
  0
ENDSEC
  0
SECTION
  2
CLASSES
  0
CLASS
  1
ACDBDICTIONARYWDFLT
  2
AcDbDictionaryWithDefault
  3
AutoCAD 2000
 90
        0
280
     0
281
     0
  0
CLASS
  1
ACDBPLACEHOLDER
  2
AcDbPlaceHolder
  3
AutoCAD 2000
 90
        0
280
     0
281
     0
  0
CLASS
  1
LAYOUT
  2
AcDbLayout
  3
AutoCAD 2000
 90
        0
280
     0
281
     0
  0
CLASS
  1
DICTIONARYVAR
  2
AcDbDictionaryVar
  3
AutoCAD 2000
 90
        0
280
     0
281
     0
  0
ENDSEC
  0
SECTION
  2
TABLES
  0
TABLE
  2
VPORT
  5
8
330
0
100
AcDbSymbolTable
 70
     3
  0
VPORT
  5
3418
330
8
100
AcDbSymbolTableRecord
100
AcDbViewportTableRecord
  2
*Active
 70
     0
 10
0.0
 20
0.0
 11
1.0
 21
1.0
 12
60.43131450261978
 22
132.5180673646122
 13
0.0
 23
0.0
 14
5.0
 24
5.0
 15
10.0
 25
10.0
 16
0.0
 26
0.0
 36
1.0
 17
0.0
 27
0.0
 37
0.0
 40
561.7568647816849
 41
2.26847290640394
 42
50.0
 43
0.0
 44
0.0
 50
0.0
 51
0.0
 71
     0
 72
   100
 73
     1
 74
     3
 75
     0
 76
     0
 77
     0
 78
     0
281
     0
 65
     1
110
0.0
120
0.0
130
0.0
111
1.0
121
0.0
131
0.0
112
0.0
122
1.0
132
0.0
 79
     0
146
0.0
  0
ENDTAB
  0
TABLE
  2
LTYPE
  5
5
330
0
100
AcDbSymbolTable
 70
     5
  0
LTYPE
  5
14
330
5
100
AcDbSymbolTableRecord
100
AcDbLinetypeTableRecord
  2
ByBlock
 70
     0
  3

 72
    65
 73
     0
 40
0.0
  0
LTYPE
  5
15
330
5
100
AcDbSymbolTableRecord
100
AcDbLinetypeTableRecord
  2
ByLayer
 70
     0
  3

 72
    65
 73
     0
 40
0.0
  0
LTYPE
  5
16
330
5
100
AcDbSymbolTableRecord
100
AcDbLinetypeTableRecord
  2
Continuous
 70
     0
  3
Solid line
 72
    65
 73
     0
 40
0.0
  0
LTYPE
  5
33
330
5
100
AcDbSymbolTableRecord
100
AcDbLinetypeTableRecord
  2
DASHED2
 70
     0
  3
Dashed (.5x) _ _ _ _ _ _ _ _ _ _ _ _ _ _ _ _ _
 72
    65
 73
     2
 40
9.524999999999998
 49
6.349999999999999
 74
     0
 49
-3.174999999999999
 74
     0
  0
LTYPE
  5
34
330
5
100
AcDbSymbolTableRecord
100
AcDbLinetypeTableRecord
  2
CENTER2
 70
     0
  3
Center (.5x) ___ _ ___ _ ___ _ ___ _ ___ _ ___
 72
    65
 73
     4
 40
28.57499999999999
 49
19.05
 74
     0
 49
-3.174999999999999
 74
     0
 49
3.174999999999999
 74
     0
 49
-3.174999999999999
 74
     0
  0
LTYPE
  5
35
330
5
100
AcDbSymbolTableRecord
100
AcDbLinetypeTableRecord
  2
PHANTOM2
 70
     0
  3
Phantom (.5x) ___ _ _ ___ _ _ ___ _ _ ___ _ _
 72
    65
 73
     6
 40
31.75
 49
15.875
 74
     0
 49
-3.174999999999999
 74
     0
 49
3.174999999999999
 74
     0
 49
-3.174999999999999
 74
     0
 49
3.174999999999999
 74
     0
 49
-3.174999999999999
 74
     0
  0
LTYPE
  5
36
330
5
100
AcDbSymbolTableRecord
100
AcDbLinetypeTableRecord
  2
HIDDEN2
 70
     0
  3
Hidden (.5x) _ _ _ _ _ _ _ _ _ _ _ _ _ _ _ _ _
 72
    65
 73
     2
 40
4.762499999999999
 49
3.174999999999999
 74
     0
 49
-1.587499999999999
 74
     0
  0
ENDTAB
  0
TABLE
  2
LAYER
  5
2
330
0
100
AcDbSymbolTable
 70
    13
  0
LAYER
  5
10
330
2
100
AcDbSymbolTableRecord
100
AcDbLayerTableRecord
  2
0
 70
     0
 62
     7
  6
Continuous
370
    -3
390
F
  0
LAYER
  5
40
330
2
100
AcDbSymbolTableRecord
100
AcDbLayerTableRecord
  2
50-0-CON
 70
     0
 62
     4
  6
Continuous
370
    50
390
F
  0
LAYER
  5
41
330
2
100
AcDbSymbolTableRecord
100
AcDbLayerTableRecord
  2
70-0-CON
 70
     0
 62
   202
  6
Continuous
370
    70
390
F
  0
LAYER
  5
4E
330
2
100
AcDbSymbolTableRecord
100
AcDbLayerTableRecord
  2
極太線
 70
     0
 62
     7
  6
Continuous
370
    70
390
F
  0
LAYER
  5
4F
330
2
100
AcDbSymbolTableRecord
100
AcDbLayerTableRecord
  2
細線
 70
     0
 62
     8
  6
Continuous
370
    18
390
F
  0
LAYER
  5
AB
330
2
100
AcDbSymbolTableRecord
100
AcDbLayerTableRecord
  2
構築線
 70
     0
 62
    -2
  6
Continuous
370
    18
390
F
  0
LAYER
  5
B8
330
2
100
AcDbSymbolTableRecord
100
AcDbLayerTableRecord
  2
太線
 70
     0
 62
     7
  6
Continuous
370
    35
390
F
  0
LAYER
  5
B9
330
2
100
AcDbSymbolTableRecord
100
AcDbLayerTableRecord
  2
寸法線
 70
     0
 62
     5
  6
Continuous
370
    18
390
F
  0
LAYER
  5
BA
330
2
100
AcDbSymbolTableRecord
100
AcDbLayerTableRecord
  2
破線
 70
     0
 62
     8
  6
HIDDEN2
370
    18
390
F
  0
LAYER
  5
BB
330
2
100
AcDbSymbolTableRecord
100
AcDbLayerTableRecord
  2
中心線
 70
     0
 62
     1
  6
CENTER2
370
    18
390
F
  0
LAYER
  5
BC
330
2
100
AcDbSymbolTableRecord
100
AcDbLayerTableRecord
  2
想像線
 70
     0
 62
     8
  6
PHANTOM2
370
    18
390
F
  0
LAYER
  5
BD
330
2
100
AcDbSymbolTableRecord
100
AcDbLayerTableRecord
  2
文字
 70
     0
 62
     7
  6
Continuous
370
    18
390
F
  0
LAYER
  5
180
330
2
100
AcDbSymbolTableRecord
100
AcDbLayerTableRecord
  2
Defpoints
 70
     0
 62
     7
  6
Continuous
290
     0
370
    -3
390
F
  0
ENDTAB
  0
TABLE
  2
STYLE
  5
3
330
0
100
AcDbSymbolTable
 70
     3
  0
STYLE
  5
11
330
3
100
AcDbSymbolTableRecord
100
AcDbTextStyleTableRecord
  2
Standard
 70
     0
 40
0.0
 41
1.0
 50
0.0
 71
     0
 42
3.0
  3
txt
  4

  0
STYLE
  5
32
330
3
100
AcDbSymbolTableRecord
100
AcDbTextStyleTableRecord
  2

 70
     1
 40
0.0
 41
1.0
 50
0.0
 71
     0
 42
2.5
  3
ltypeshp.shx
  4

  0
STYLE
  5
50
330
3
100
AcDbSymbolTableRecord
100
AcDbTextStyleTableRecord
  2
OKANO
 70
     0
 40
0.0
 41
1.0
 50
15.0
 71
     0
 42
5.0
  3
isocp.shx
  4
bigfont.shx
  0
ENDTAB
  0
TABLE
  2
VIEW
  5
6
330
0
100
AcDbSymbolTable
 70
     0
  0
ENDTAB
  0
TABLE
  2
UCS
  5
7
330
0
100
AcDbSymbolTable
 70
     0
  0
ENDTAB
  0
TABLE
  2
APPID
  5
9
330
0
100
AcDbSymbolTable
 70
     1
  0
APPID
  5
12
330
9
100
AcDbSymbolTableRecord
100
AcDbRegAppTableRecord
  2
ACAD
 70
     0
  0
ENDTAB
  0
TABLE
  2
DIMSTYLE
  5
A
330
0
100
AcDbSymbolTable
 70
     2
100
AcDbDimStyleTable
 71
     2
340
A2
340
27
  0
DIMSTYLE
105
27
330
A
100
AcDbSymbolTableRecord
100
AcDbDimStyleTableRecord
  2
ISO-25
 70
     0
 41
2.5
 42
0.625
 43
3.75
 44
1.25
 73
     0
 74
     0
 77
     1
 78
     8
140
2.5
141
2.5
143
0.03937007874016
147
0.625
171
     3
172
     1
271
     2
272
     2
274
     3
283
     0
284
     8
340
11
  0
DIMSTYLE
105
A2
102
{ACAD_REACTORS
330
2F1E
330
2F3A
330
2F85
330
2F92
330
30EF
330
3148
330
31EF
330
3242
330
3261
330
32A4
330
32CB
330
32E9
330
33E3
330
33F0
102
}
330
A
100
AcDbSymbolTableRecord
100
AcDbDimStyleTableRecord
  2
sunpo
 70
     0
 40
0.0
 41
3.0
 42
2.0
 43
8.0
 44
3.0
 73
     0
 74
     0
 77
     1
 78
     8
140
5.0
141
2.5
143
0.03937007874016
147
1.0
171
     3
172
     1
271
     2
272
     2
274
     3
283
     0
284
     8
340
50
341
9B
342
9B
  0
ENDTAB
  0
TABLE
  2
BLOCK_RECORD
  5
1
330
0
100
AcDbSymbolTable
 70
    20
  0
BLOCK_RECORD
  5
1F
330
1
100
AcDbSymbolTableRecord
100
AcDbBlockTableRecord
  2
*Model_Space
340
22
  0
BLOCK_RECORD
  5
1B
330
1
100
AcDbSymbolTableRecord
100
AcDbBlockTableRecord
  2
*Paper_Space
340
1E
  0
BLOCK_RECORD
  5
9B
330
1
100
AcDbSymbolTableRecord
100
AcDbBlockTableRecord
  2
_Closed
340
0
102
{BLKREFS
331
2F25
331
2F26
331
2F8A
331
2F8B
331
30F4
331
30F5
331
3135
331
313B
331
313C
331
3233
331
3234
331
323C
331
323D
331
3271
331
3272
331
3287
331
3288
331
32B5
331
32B6
331
32FA
331
32FB
331
3303
331
3304
331
3320
331
3326
331
3327
331
3336
331
3337
331
336C
331
336D
331
33E8
331
33E9
331
3400
331
3401
102
}
  0
BLOCK_RECORD
  5
1510
330
1
100
AcDbSymbolTableRecord
100
AcDbBlockTableRecord
  2
A$C10A573AC
340
0
  0
BLOCK_RECORD
  5
2F1F
330
1
100
AcDbSymbolTableRecord
100
AcDbBlockTableRecord
  2
*D2
340
0
  0
BLOCK_RECORD
  5
2F3B
330
1
100
AcDbSymbolTableRecord
100
AcDbBlockTableRecord
  2
*D3
340
0
  0
BLOCK_RECORD
  5
2F86
330
1
100
AcDbSymbolTableRecord
100
AcDbBlockTableRecord
  2
*D4
340
0
  0
BLOCK_RECORD
  5
2F93
330
1
100
AcDbSymbolTableRecord
100
AcDbBlockTableRecord
  2
*D5
340
0
  0
BLOCK_RECORD
  5
30F0
330
1
100
AcDbSymbolTableRecord
100
AcDbBlockTableRecord
  2
*D8
340
0
  0
BLOCK_RECORD
  5
3153
330
1
100
AcDbSymbolTableRecord
100
AcDbBlockTableRecord
  2
*D9
340
0
  0
BLOCK_RECORD
  5
31F0
330
1
100
AcDbSymbolTableRecord
100
AcDbBlockTableRecord
  2
*D10
340
0
  0
BLOCK_RECORD
  5
3243
330
1
100
AcDbSymbolTableRecord
100
AcDbBlockTableRecord
  2
*D12
340
0
  0
BLOCK_RECORD
  5
3262
330
1
100
AcDbSymbolTableRecord
100
AcDbBlockTableRecord
  2
*D13
340
0
  0
BLOCK_RECORD
  5
32A5
330
1
100
AcDbSymbolTableRecord
100
AcDbBlockTableRecord
  2
*D15
340
0
  0
BLOCK_RECORD
  5
32CC
330
1
100
AcDbSymbolTableRecord
100
AcDbBlockTableRecord
  2
*D16
340
0
  0
BLOCK_RECORD
  5
32EA
330
1
100
AcDbSymbolTableRecord
100
AcDbBlockTableRecord
  2
*D17
340
0
  0
BLOCK_RECORD
  5
33E4
330
1
100
AcDbSymbolTableRecord
100
AcDbBlockTableRecord
  2
*D18
340
0
  0
BLOCK_RECORD
  5
33F1
330
1
100
AcDbSymbolTableRecord
100
AcDbBlockTableRecord
  2
*D19
340
0
  0
ENDTAB
  0
ENDSEC
  0
SECTION
  2
BLOCKS
  0
BLOCK
  5
20
330
1F
100
AcDbEntity
  8
0
100
AcDbBlockBegin
  2
*Model_Space
 70
     0
 10
0.0
 20
0.0
 30
0.0
  3
*Model_Space
  1

  0
ENDBLK
  5
21
330
1F
100
AcDbEntity
  8
0
100
AcDbBlockEnd
  0
BLOCK
  5
1C
330
1B
100
AcDbEntity
 67
     1
  8
0
100
AcDbBlockBegin
  2
*Paper_Space
 70
     0
 10
0.0
 20
0.0
 30
0.0
  3
*Paper_Space
  1

  0
ENDBLK
  5
1D
330
1B
100
AcDbEntity
 67
     1
  8
0
100
AcDbBlockEnd
  0
BLOCK
  5
A0
330
9B
100
AcDbEntity
  8
0
100
AcDbBlockBegin
  2
_Closed
 70
     0
 10
0.0
 20
0.0
 30
0.0
  3
_Closed
  1

  0
LINE
  5
9C
330
9B
100
AcDbEntity
  8
0
 62
     0
370
    -2
100
AcDbLine
 10
-1.0
 20
0.1666666666666666
 30
0.0
 11
0.0
 21
0.0
 31
0.0
  0
LINE
  5
9D
330
9B
100
AcDbEntity
  8
0
 62
     0
370
    -2
100
AcDbLine
 10
0.0
 20
0.0
 30
0.0
 11
-1.0
 21
-0.1666666666666666
 31
0.0
  0
LINE
  5
9E
330
9B
100
AcDbEntity
  8
0
 62
     0
370
    -2
100
AcDbLine
 10
-1.0
 20
0.1666666666666666
 30
0.0
 11
-1.0
 21
-0.1666666666666666
 31
0.0
  0
LINE
  5
9F
330
9B
100
AcDbEntity
  8
0
 62
     0
370
    -2
100
AcDbLine
 10
0.0
 20
0.0
 30
0.0
 11
-1.0
 21
0.0
 31
0.0
  0
ENDBLK
  5
A1
330
9B
100
AcDbEntity
  8
0
100
AcDbBlockEnd
  0
BLOCK
  5
155B
330
1510
100
AcDbEntity
  8
0
100
AcDbBlockBegin
  2
A$C10A573AC
 70
     0
 10
0.0
 20
0.0
 30
0.0
  3
A$C10A573AC
  1

  0
TEXT
  5
1511
330
1510
100
AcDbEntity
  8
文字
100
AcDbText
 10
0.9844302777919438
 20
5.224957122252135
 30
0.0
 40
3.0
  1
Materal : Steel.
 51
15.0
  7
OKANO
100
AcDbText
  0
TEXT
  5
1512
330
1510
100
AcDbEntity
  8
文字
100
AcDbText
 10
-0.1141909619694843
 20
0.7500001922403499
 30
0.0
 40
3.0
  1
Surface treatment : Electro galvanized.
 51
15.0
  7
OKANO
100
AcDbText
  0
TEXT
  5
1513
330
1510
100
AcDbEntity
  8
文字
100
AcDbText
 10
-0.4901926332574931
 20
9.159967445193728
 30
0.0
 40
3.0
  1
5 TORGUE SCREW  M5-6
 51
15.0
  7
OKANO
100
AcDbText
  0
TEXT
  5
1514
330
1510
100
AcDbEntity
  8
文字
100
AcDbText
 10
1.364713526390005
 20
78.88822913323082
 30
0.0
 40
3.0
  1
Special standard,
 51
15.0
  7
OKANO
100
AcDbText
  0
TEXT
  5
1515
330
1510
100
AcDbEntity
  8
文字
100
AcDbText
 10
92.88160823408942
 20
89.92753849837379
 30
0.0
 40
3.0
  1
Screw Type
 51
15.0
  7
OKANO
100
AcDbText
  0
LINE
  5
1516
330
1510
100
AcDbEntity
  8
太線
100
AcDbLine
 10
113.9464587597784
 20
81.93930390144641
 30
0.0
 11
112.4464587597784
 21
81.93930390144641
 31
0.0
  0
LINE
  5
1517
330
1510
100
AcDbEntity
  8
太線
100
AcDbLine
 10
112.4464587597784
 20
76.9393039014464
 30
0.0
 11
121.4644995438761
 21
76.9393039014464
 31
0.0
  0
TEXT
  5
1518
330
1510
100
AcDbEntity
  8
文字
100
AcDbText
 10
93.46068240437217
 20
77.96976862235396
 30
0.0
 40
2.0
  1
17-30
 51
15.0
  7
OKANO
100
AcDbText
  0
LINE
  5
1519
330
1510
100
AcDbEntity
  8
太線
100
AcDbLine
 10
111.9464587597784
 20
81.43930390144641
 30
0.0
 11
111.9464587597784
 21
77.4393039014464
 31
0.0
  0
LINE
  5
151A
330
1510
100
AcDbEntity
  8
太線
100
AcDbLine
 10
91.94645875977846
 20
81.43930390144641
 30
0.0
 11
91.94645875977846
 21
77.43930390144639
 31
0.0
  0
LINE
  5
151B
330
1510
100
AcDbEntity
  8
太線
100
AcDbLine
 10
101.9644995438761
 20
77.4393039014464
 30
0.0
 11
101.9644995438761
 21
81.43930390144641
 31
0.0
  0
LINE
  5
151C
330
1510
100
AcDbEntity
  8
太線
100
AcDbLine
 10
92.44645875977846
 20
76.9393039014464
 30
0.0
 11
101.4644995438761
 21
76.9393039014464
 31
0.0
  0
ARC
  5
151D
330
1510
100
AcDbEntity
  8
太線
100
AcDbCircle
 10
92.44645875977846
 20
77.43930390144639
 30
0.0
 40
0.5
100
AcDbArc
 50
180.0
 51
270.0
  0
ARC
  5
151E
330
1510
100
AcDbEntity
  8
太線
100
AcDbCircle
 10
101.4644995438761
 20
77.4393039014464
 30
0.0
 40
0.5
100
AcDbArc
 50
270.0
 51
0.0
  0
ARC
  5
151F
330
1510
100
AcDbEntity
  8
太線
100
AcDbCircle
 10
112.4464587597784
 20
77.4393039014464
 30
0.0
 40
0.5
100
AcDbArc
 50
180.0
 51
270.0
  0
LINE
  5
1520
330
1510
100
AcDbEntity
  8
想像線
100
AcDbLine
 10
93.94645875977847
 20
81.93930390144641
 30
0.0
 11
99.96449954387617
 21
81.93930390144641
 31
0.0
  0
LINE
  5
1521
330
1510
100
AcDbEntity
  8
極太線
100
AcDbLine
 10
96.38762957111168
 20
85.43930390144641
 30
0.0
 11
97.50528794844525
 21
85.43930390144641
 31
0.0
  0
CIRCLE
  5
1522
330
1510
100
AcDbEntity
  8
太線
100
AcDbCircle
 10
96.94645875977847
 20
85.43930390144641
 30
0.0
 40
0.5588291886667776
  0
LINE
  5
1523
330
1510
100
AcDbEntity
  8
太線
100
AcDbLine
 10
99.46449954387617
 20
86.93930390144641
 30
0.0
 11
94.44645875977846
 21
86.93930390144641
 31
0.0
  0
LINE
  5
1524
330
1510
100
AcDbEntity
  8
太線
100
AcDbLine
 10
93.94645875977847
 20
86.43930390144641
 30
0.0
 11
93.94645875977847
 21
81.93930390144641
 31
0.0
  0
ARC
  5
1525
330
1510
100
AcDbEntity
  8
太線
100
AcDbCircle
 10
92.44645875977846
 20
81.43930390144641
 30
0.0
 40
0.5
100
AcDbArc
 50
90.0
 51
180.0
  0
LINE
  5
1526
330
1510
100
AcDbEntity
  8
太線
100
AcDbLine
 10
93.94645875977847
 20
81.93930390144641
 30
0.0
 11
92.44645875977846
 21
81.93930390144641
 31
0.0
  0
ARC
  5
1527
330
1510
100
AcDbEntity
  8
太線
100
AcDbCircle
 10
94.44645875977846
 20
86.43930390144641
 30
0.0
 40
0.5
100
AcDbArc
 50
90.0
 51
180.0
  0
LINE
  5
1528
330
1510
100
AcDbEntity
  8
太線
100
AcDbLine
 10
99.96449954387617
 20
81.93930390144641
 30
0.0
 11
99.96449954387617
 21
86.43930390144641
 31
0.0
  0
LINE
  5
1529
330
1510
100
AcDbEntity
  8
太線
100
AcDbLine
 10
101.4644995438761
 20
81.93930390144641
 30
0.0
 11
99.96449954387617
 21
81.93930390144641
 31
0.0
  0
ARC
  5
152A
330
1510
100
AcDbEntity
  8
太線
100
AcDbCircle
 10
101.4644995438761
 20
81.43930390144641
 30
0.0
 40
0.5
100
AcDbArc
 50
0.0
 51
90.0
  0
ARC
  5
152B
330
1510
100
AcDbEntity
  8
太線
100
AcDbCircle
 10
99.46449954387617
 20
86.43930390144641
 30
0.0
 40
0.5
100
AcDbArc
 50
0.0
 51
90.0
  0
LINE
  5
152C
330
1510
100
AcDbEntity
  8
極太線
100
AcDbLine
 10
96.94645875977847
 20
85.99813309011318
 30
0.0
 11
96.94645875977847
 21
84.88047471277964
 31
0.0
  0
ARC
  5
152D
330
1510
100
AcDbEntity
  8
太線
100
AcDbCircle
 10
112.4464587597784
 20
81.43930390144641
 30
0.0
 40
0.5
100
AcDbArc
 50
90.0
 51
180.0
  0
TEXT
  5
152E
330
1510
100
AcDbEntity
  8
文字
100
AcDbText
 10
134.3819212586066
 20
78.16263579228063
 30
0.0
 40
2.0
  1
101
 51
15.0
  7
OKANO
100
AcDbText
  0
TEXT
  5
152F
330
1510
100
AcDbEntity
  8
文字
100
AcDbText
 10
113.3422276612066
 20
77.96976862235396
 30
0.0
 40
2.0
  1
38-83
 51
15.0
  7
OKANO
100
AcDbText
  0
LINE
  5
1530
330
1510
100
AcDbEntity
  8
太線
100
AcDbLine
 10
141.9825403279738
 20
77.4393039014464
 30
0.0
 11
141.9825403279738
 21
81.43930390144641
 31
0.0
  0
LINE
  5
1531
330
1510
100
AcDbEntity
  8
太線
100
AcDbLine
 10
131.9644995438761
 20
81.43930390144641
 30
0.0
 11
131.9644995438761
 21
77.4393039014464
 31
0.0
  0
LINE
  5
1532
330
1510
100
AcDbEntity
  8
太線
100
AcDbLine
 10
121.9644995438761
 20
77.4393039014464
 30
0.0
 11
121.9644995438761
 21
81.43930390144641
 31
0.0
  0
ARC
  5
1533
330
1510
100
AcDbEntity
  8
太線
100
AcDbCircle
 10
121.4644995438761
 20
77.4393039014464
 30
0.0
 40
0.5
100
AcDbArc
 50
270.0
 51
0.0
  0
LINE
  5
1534
330
1510
100
AcDbEntity
  8
太線
100
AcDbLine
 10
132.4644995438761
 20
76.9393039014464
 30
0.0
 11
141.4825403279738
 21
76.9393039014464
 31
0.0
  0
ARC
  5
1535
330
1510
100
AcDbEntity
  8
太線
100
AcDbCircle
 10
132.4644995438761
 20
77.4393039014464
 30
0.0
 40
0.5
100
AcDbArc
 50
180.0
 51
270.0
  0
ARC
  5
1536
330
1510
100
AcDbEntity
  8
太線
100
AcDbCircle
 10
141.4825403279738
 20
77.4393039014464
 30
0.0
 40
0.5
100
AcDbArc
 50
270.0
 51
0.0
  0
ARC
  5
1537
330
1510
100
AcDbEntity
  8
太線
100
AcDbCircle
 10
121.4644995438761
 20
81.43930390144641
 30
0.0
 40
0.5
100
AcDbArc
 50
0.0
 51
90.0
  0
LINE
  5
1538
330
1510
100
AcDbEntity
  8
太線
100
AcDbLine
 10
119.9644995438761
 20
81.93930390144641
 30
0.0
 11
119.9644995438761
 21
86.43930390144641
 31
0.0
  0
LINE
  5
1539
330
1510
100
AcDbEntity
  8
太線
100
AcDbLine
 10
113.9464587597784
 20
86.43930390144641
 30
0.0
 11
113.9464587597784
 21
81.93930390144641
 31
0.0
  0
LINE
  5
153A
330
1510
100
AcDbEntity
  8
想像線
100
AcDbLine
 10
113.9464587597784
 20
81.93930390144641
 30
0.0
 11
119.9644995438761
 21
81.93930390144641
 31
0.0
  0
LINE
  5
153B
330
1510
100
AcDbEntity
  8
太線
100
AcDbLine
 10
121.4644995438761
 20
81.93930390144641
 30
0.0
 11
119.9644995438761
 21
81.93930390144641
 31
0.0
  0
LINE
  5
153C
330
1510
100
AcDbEntity
  8
太線
100
AcDbLine
 10
119.4644995438761
 20
86.93930390144641
 30
0.0
 11
114.4464587597784
 21
86.93930390144641
 31
0.0
  0
ARC
  5
153D
330
1510
100
AcDbEntity
  8
太線
100
AcDbCircle
 10
114.4464587597784
 20
86.43930390144641
 30
0.0
 40
0.5
100
AcDbArc
 50
90.0
 51
180.0
  0
CIRCLE
  5
153E
330
1510
100
AcDbEntity
  8
太線
100
AcDbCircle
 10
115.4464587597784
 20
85.43930390144641
 30
0.0
 40
0.5588291886667776
  0
LINE
  5
153F
330
1510
100
AcDbEntity
  8
極太線
100
AcDbLine
 10
115.4464587597784
 20
85.99813309011318
 30
0.0
 11
115.4464587597784
 21
84.88047471277964
 31
0.0
  0
LINE
  5
1540
330
1510
100
AcDbEntity
  8
極太線
100
AcDbLine
 10
114.8876295711116
 20
85.43930390144641
 30
0.0
 11
116.0052879484452
 21
85.43930390144641
 31
0.0
  0
ARC
  5
1541
330
1510
100
AcDbEntity
  8
太線
100
AcDbCircle
 10
119.4644995438761
 20
86.43930390144641
 30
0.0
 40
0.5
100
AcDbArc
 50
0.0
 51
90.0
  0
LINE
  5
1542
330
1510
100
AcDbEntity
  8
極太線
100
AcDbLine
 10
117.9056703552094
 20
85.43930390144641
 30
0.0
 11
119.0233287325429
 21
85.43930390144641
 31
0.0
  0
LINE
  5
1543
330
1510
100
AcDbEntity
  8
極太線
100
AcDbLine
 10
118.4644995438761
 20
85.99813309011318
 30
0.0
 11
118.4644995438761
 21
84.88047471277964
 31
0.0
  0
CIRCLE
  5
1544
330
1510
100
AcDbEntity
  8
太線
100
AcDbCircle
 10
118.4644995438761
 20
85.43930390144641
 30
0.0
 40
0.5588291886667776
  0
LINE
  5
1545
330
1510
100
AcDbEntity
  8
想像線
100
AcDbLine
 10
133.9644995438761
 20
81.93930390144641
 30
0.0
 11
139.9825403279738
 21
81.93930390144641
 31
0.0
  0
LINE
  5
1546
330
1510
100
AcDbEntity
  8
極太線
100
AcDbLine
 10
137.9237111393071
 20
85.43930390144641
 30
0.0
 11
139.0413695166406
 21
85.43930390144641
 31
0.0
  0
CIRCLE
  5
1547
330
1510
100
AcDbEntity
  8
太線
100
AcDbCircle
 10
138.4825403279738
 20
85.43930390144641
 30
0.0
 40
0.5588291886667776
  0
CIRCLE
  5
1548
330
1510
100
AcDbEntity
  8
太線
100
AcDbCircle
 10
138.4825403279738
 20
83.26342923362075
 30
0.0
 40
0.5588291886667776
  0
LINE
  5
1549
330
1510
100
AcDbEntity
  8
極太線
100
AcDbLine
 10
137.9237111393071
 20
83.26342923362075
 30
0.0
 11
139.0413695166406
 21
83.26342923362075
 31
0.0
  0
LINE
  5
154A
330
1510
100
AcDbEntity
  8
太線
100
AcDbLine
 10
139.4825403279738
 20
86.93930390144641
 30
0.0
 11
134.4644995438761
 21
86.93930390144641
 31
0.0
  0
LINE
  5
154B
330
1510
100
AcDbEntity
  8
太線
100
AcDbLine
 10
133.9644995438761
 20
86.43930390144641
 30
0.0
 11
133.9644995438761
 21
81.93930390144641
 31
0.0
  0
ARC
  5
154C
330
1510
100
AcDbEntity
  8
太線
100
AcDbCircle
 10
132.4644995438761
 20
81.43930390144641
 30
0.0
 40
0.5
100
AcDbArc
 50
90.0
 51
180.0
  0
LINE
  5
154D
330
1510
100
AcDbEntity
  8
太線
100
AcDbLine
 10
133.9644995438761
 20
81.93930390144641
 30
0.0
 11
132.4644995438761
 21
81.93930390144641
 31
0.0
  0
LINE
  5
154E
330
1510
100
AcDbEntity
  8
極太線
100
AcDbLine
 10
134.9056703552093
 20
83.26342923362075
 30
0.0
 11
136.0233287325429
 21
83.26342923362075
 31
0.0
  0
LINE
  5
154F
330
1510
100
AcDbEntity
  8
極太線
100
AcDbLine
 10
135.4644995438761
 20
83.82225842228752
 30
0.0
 11
135.4644995438761
 21
82.70460004495395
 31
0.0
  0
CIRCLE
  5
1550
330
1510
100
AcDbEntity
  8
太線
100
AcDbCircle
 10
135.4644995438761
 20
83.26342923362075
 30
0.0
 40
0.5588291886667776
  0
ARC
  5
1551
330
1510
100
AcDbEntity
  8
太線
100
AcDbCircle
 10
134.4644995438761
 20
86.43930390144641
 30
0.0
 40
0.5
100
AcDbArc
 50
90.0
 51
180.0
  0
CIRCLE
  5
1552
330
1510
100
AcDbEntity
  8
太線
100
AcDbCircle
 10
135.4644995438761
 20
85.43930390144641
 30
0.0
 40
0.5588291886667776
  0
LINE
  5
1553
330
1510
100
AcDbEntity
  8
極太線
100
AcDbLine
 10
135.4644995438761
 20
85.99813309011318
 30
0.0
 11
135.4644995438761
 21
84.88047471277964
 31
0.0
  0
LINE
  5
1554
330
1510
100
AcDbEntity
  8
極太線
100
AcDbLine
 10
134.9056703552093
 20
85.43930390144641
 30
0.0
 11
136.0233287325429
 21
85.43930390144641
 31
0.0
  0
LINE
  5
1555
330
1510
100
AcDbEntity
  8
太線
100
AcDbLine
 10
139.9825403279738
 20
81.93930390144641
 30
0.0
 11
139.9825403279738
 21
86.43930390144641
 31
0.0
  0
ARC
  5
1556
330
1510
100
AcDbEntity
  8
太線
100
AcDbCircle
 10
141.4825403279738
 20
81.43930390144641
 30
0.0
 40
0.5
100
AcDbArc
 50
0.0
 51
90.0
  0
LINE
  5
1557
330
1510
100
AcDbEntity
  8
極太線
100
AcDbLine
 10
138.4825403279738
 20
83.82225842228752
 30
0.0
 11
138.4825403279738
 21
82.70460004495395
 31
0.0
  0
LINE
  5
1558
330
1510
100
AcDbEntity
  8
太線
100
AcDbLine
 10
141.4825403279738
 20
81.93930390144641
 30
0.0
 11
139.9825403279738
 21
81.93930390144641
 31
0.0
  0
ARC
  5
1559
330
1510
100
AcDbEntity
  8
太線
100
AcDbCircle
 10
139.4825403279738
 20
86.43930390144641
 30
0.0
 40
0.5
100
AcDbArc
 50
0.0
 51
90.0
  0
LINE
  5
155A
330
1510
100
AcDbEntity
  8
極太線
100
AcDbLine
 10
138.4825403279738
 20
85.99813309011318
 30
0.0
 11
138.4825403279738
 21
84.88047471277964
 31
0.0
  0
ENDBLK
  5
155C
330
1510
100
AcDbEntity
  8
0
100
AcDbBlockEnd
  0
BLOCK
  5
2F2B
330
2F1F
100
AcDbEntity
  8
0
100
AcDbBlockBegin
  2
*D2
 70
     1
 10
0.0
 20
0.0
 30
0.0
  3
*D2
  1

  0
LINE
  5
2F20
330
2F1F
100
AcDbEntity
  8
寸法線
 62
     0
370
    -2
100
AcDbLine
 10
138.8515140254043
 20
205.1211488256961
 30
0.0
 11
163.9229676393258
 21
205.1211488256961
 31
0.0
  0
LINE
  5
2F21
330
2F1F
100
AcDbEntity
  8
寸法線
 62
     0
370
    -2
100
AcDbLine
 10
136.8515140254043
 20
210.1211488256961
 30
0.0
 11
163.9229676393258
 21
210.1211488256961
 31
0.0
  0
LINE
  5
2F22
330
2F1F
100
AcDbEntity
  8
寸法線
 62
     0
370
    -2
100
AcDbLine
 10
160.9229676393258
 20
202.1211488256961
 30
0.0
 11
160.9229676393258
 21
199.1211488256961
 31
0.0
  0
LINE
  5
2F23
330
2F1F
100
AcDbEntity
  8
寸法線
 62
     0
370
    -2
100
AcDbLine
 10
160.9229676393258
 20
213.1211488256961
 30
0.0
 11
160.9229676393258
 21
216.1211488256961
 31
0.0
  0
LINE
  5
2F24
330
2F1F
100
AcDbEntity
  8
寸法線
 62
     0
370
    -2
100
AcDbLine
 10
160.9229676393258
 20
205.1211488256961
 30
0.0
 11
160.9229676393258
 21
210.1211488256961
 31
0.0
  0
INSERT
  5
2F25
330
2F1F
100
AcDbEntity
  8
寸法線
 62
     0
370
    -2
100
AcDbBlockReference
  2
_Closed
 10
160.9229676393258
 20
205.1211488256961
 30
0.0
 41
3.0
 42
3.0
 43
3.0
 50
90.0
  0
INSERT
  5
2F26
330
2F1F
100
AcDbEntity
  8
寸法線
 62
     0
370
    -2
100
AcDbBlockReference
  2
_Closed
 10
160.9229676393258
 20
210.1211488256961
 30
0.0
 41
3.0
 42
3.0
 43
3.0
 50
270.0
  0
MTEXT
  5
2F27
330
2F1F
100
AcDbEntity
  8
寸法線
 62
     0
100
AcDbMText
 10
157.4229676393258
 20
207.6211488256961
 30
0.0
 40
5.0
 41
0.0
 71
     5
 72
     1
  1
5
  7
OKANO
 11
0.0000000000000001
 21
1.0
 31
0.0
 73
     1
 44
1.0
  0
POINT
  5
2F28
330
2F1F
100
AcDbEntity
  8
Defpoints
 62
     0
100
AcDbPoint
 10
136.8515140254043
 20
205.1211488256961
 30
0.0
  0
POINT
  5
2F29
330
2F1F
100
AcDbEntity
  8
Defpoints
 62
     0
100
AcDbPoint
 10
134.8515140254043
 20
210.1211488256961
 30
0.0
  0
POINT
  5
2F2A
330
2F1F
100
AcDbEntity
  8
Defpoints
 62
     0
100
AcDbPoint
 10
160.9229676393258
 20
210.1211488256961
 30
0.0
  0
ENDBLK
  5
2F2C
330
2F1F
100
AcDbEntity
  8
0
100
AcDbBlockEnd
  0
BLOCK
  5
2F45
330
2F3B
100
AcDbEntity
  8
0
100
AcDbBlockBegin
  2
*D3
 70
     1
 10
0.0
 20
0.0
 30
0.0
  3
*D3
  1

  0
LINE
  5
3239
330
2F3B
100
AcDbEntity
  8
寸法線
 62
     0
370
    -2
100
AcDbLine
 10
138.8515140254043
 20
20.84019332955458
 30
0.0
 11
168.0569865204413
 21
20.84019332955457
 31
0.0
  0
LINE
  5
323A
330
2F3B
100
AcDbEntity
  8
寸法線
 62
     0
370
    -2
100
AcDbLine
 10
136.7295230789496
 20
80.14019332955459
 30
0.0
 11
168.0569865204413
 21
80.14019332955458
 31
0.0
  0
LINE
  5
323B
330
2F3B
100
AcDbEntity
  8
寸法線
 62
     0
370
    -2
100
AcDbLine
 10
165.0569865204413
 20
23.84019332955458
 30
0.0
 11
165.0569865204413
 21
77.14019332955458
 31
0.0
  0
INSERT
  5
323C
330
2F3B
100
AcDbEntity
  8
寸法線
 62
     0
370
    -2
100
AcDbBlockReference
  2
_Closed
 10
165.0569865204413
 20
20.84019332955458
 30
0.0
 41
3.0
 42
3.0
 43
3.0
 50
270.0
  0
INSERT
  5
323D
330
2F3B
100
AcDbEntity
  8
寸法線
 62
     0
370
    -2
100
AcDbBlockReference
  2
_Closed
 10
165.0569865204413
 20
80.14019332955458
 30
0.0
 41
3.0
 42
3.0
 43
3.0
 50
90.0
  0
MTEXT
  5
323E
330
2F3B
100
AcDbEntity
  8
寸法線
 62
     0
100
AcDbMText
 10
161.5569865204413
 20
50.49019332955461
 30
0.0
 40
5.0
 41
0.0
 71
     5
 72
     1
  1
60
  7
OKANO
 11
0.0000000000000001
 21
1.0
 31
0.0
 73
     1
 44
1.0
  0
POINT
  5
323F
330
2F3B
100
AcDbEntity
  8
Defpoints
 62
     0
100
AcDbPoint
 10
136.8515140254043
 20
20.84019332955458
 30
0.0
  0
POINT
  5
3240
330
2F3B
100
AcDbEntity
  8
Defpoints
 62
     0
100
AcDbPoint
 10
134.7295230789496
 20
80.14019332955459
 30
0.0
  0
POINT
  5
3241
330
2F3B
100
AcDbEntity
  8
Defpoints
 62
     0
100
AcDbPoint
 10
165.0569865204413
 20
80.14019332955458
 30
0.0
  0
ENDBLK
  5
2F46
330
2F3B
100
AcDbEntity
  8
0
100
AcDbBlockEnd
  0
BLOCK
  5
2F90
330
2F86
100
AcDbEntity
  8
0
100
AcDbBlockBegin
  2
*D4
 70
     1
 10
0.0
 20
0.0
 30
0.0
  3
*D4
  1

  0
LINE
  5
2F87
330
2F86
100
AcDbEntity
  8
寸法線
 62
     0
370
    -2
100
AcDbLine
 10
124.8515140254043
 20
178.4711488256961
 30
0.0
 11
124.8515140254043
 21
123.2262366162249
 31
0.0
  0
LINE
  5
2F88
330
2F86
100
AcDbEntity
  8
寸法線
 62
     0
370
    -2
100
AcDbLine
 10
136.8515140254043
 20
153.8211488256961
 30
0.0
 11
136.8515140254043
 21
123.2262366162249
 31
0.0
  0
LINE
  5
2F89
330
2F86
100
AcDbEntity
  8
寸法線
 62
     0
370
    -2
100
AcDbLine
 10
127.8515140254043
 20
126.2262366162249
 30
0.0
 11
133.8515140254043
 21
126.2262366162249
 31
0.0
  0
INSERT
  5
2F8A
330
2F86
100
AcDbEntity
  8
寸法線
 62
     0
370
    -2
100
AcDbBlockReference
  2
_Closed
 10
124.8515140254043
 20
126.2262366162249
 30
0.0
 41
3.0
 42
3.0
 43
3.0
 50
180.0
  0
INSERT
  5
2F8B
330
2F86
100
AcDbEntity
  8
寸法線
 62
     0
370
    -2
100
AcDbBlockReference
  2
_Closed
 10
136.8515140254043
 20
126.2262366162249
 30
0.0
 41
3.0
 42
3.0
 43
3.0
  0
MTEXT
  5
2F8C
330
2F86
100
AcDbEntity
  8
寸法線
 62
     0
100
AcDbMText
 10
130.8515140254043
 20
129.7267287422091
 30
0.0
 40
5.0
 41
0.0
 71
     5
 72
     1
  1
12
  7
OKANO
 73
     1
 44
1.0
  0
POINT
  5
2F8D
330
2F86
100
AcDbEntity
  8
Defpoints
 62
     0
100
AcDbPoint
 10
124.8515140254043
 20
180.4711488256961
 30
0.0
  0
POINT
  5
2F8E
330
2F86
100
AcDbEntity
  8
Defpoints
 62
     0
100
AcDbPoint
 10
136.8515140254043
 20
155.8211488256961
 30
0.0
  0
POINT
  5
2F8F
330
2F86
100
AcDbEntity
  8
Defpoints
 62
     0
100
AcDbPoint
 10
136.8515140254043
 20
126.2262366162249
 30
0.0
  0
ENDBLK
  5
2F91
330
2F86
100
AcDbEntity
  8
0
100
AcDbBlockEnd
  0
BLOCK
  5
2F9D
330
2F93
100
AcDbEntity
  8
0
100
AcDbBlockBegin
  2
*D5
 70
     1
 10
0.0
 20
0.0
 30
0.0
  3
*D5
  1

  0
LINE
  5
32F7
330
2F93
100
AcDbEntity
  8
寸法線
 62
     0
370
    -2
100
AcDbLine
 10
114.9381829524736
 20
181.9276008441681
 30
0.0
 11
114.9381829524736
 21
201.5235908377877
 31
0.0
  0
LINE
  5
32F8
330
2F93
100
AcDbEntity
  8
寸法線
 62
     0
370
    -2
100
AcDbLine
 10
134.8944890800705
 20
181.9276008441681
 30
0.0
 11
134.8944890800705
 21
201.5235908377877
 31
0.0
  0
LINE
  5
32F9
330
2F93
100
AcDbEntity
  8
寸法線
 62
     0
370
    -2
100
AcDbLine
 10
117.9381829524736
 20
198.5235908377877
 30
0.0
 11
131.8944890800705
 21
198.5235908377877
 31
0.0
  0
INSERT
  5
32FA
330
2F93
100
AcDbEntity
  8
寸法線
 62
     0
370
    -2
100
AcDbBlockReference
  2
_Closed
 10
114.9381829524736
 20
198.5235908377877
 30
0.0
 41
3.0
 42
3.0
 43
3.0
 50
180.0
  0
INSERT
  5
32FB
330
2F93
100
AcDbEntity
  8
寸法線
 62
     0
370
    -2
100
AcDbBlockReference
  2
_Closed
 10
134.8944890800705
 20
198.5235908377877
 30
0.0
 41
3.0
 42
3.0
 43
3.0
  0
MTEXT
  5
32FC
330
2F93
100
AcDbEntity
  8
寸法線
 62
     0
100
AcDbMText
 10
124.9163360162721
 20
202.024082963772
 30
0.0
 40
5.0
 41
0.0
 71
     5
 72
     1
  1
24
  7
OKANO
 73
     1
 44
1.0
  0
POINT
  5
32FD
330
2F93
100
AcDbEntity
  8
Defpoints
 62
     0
100
AcDbPoint
 10
114.9381829524736
 20
179.9276008441681
 30
0.0
  0
POINT
  5
32FE
330
2F93
100
AcDbEntity
  8
Defpoints
 62
     0
100
AcDbPoint
 10
134.8944890800705
 20
179.9276008441681
 30
0.0
  0
POINT
  5
32FF
330
2F93
100
AcDbEntity
  8
Defpoints
 62
     0
100
AcDbPoint
 10
134.8944890800705
 20
198.5235908377877
 30
0.0
  0
ENDBLK
  5
2F9E
330
2F93
100
AcDbEntity
  8
0
100
AcDbBlockEnd
  0
BLOCK
  5
30FA
330
30F0
100
AcDbEntity
  8
0
100
AcDbBlockBegin
  2
*D8
 70
     1
 10
0.0
 20
0.0
 30
0.0
  3
*D8
  1

  0
LINE
  5
30F1
330
30F0
100
AcDbEntity
  8
寸法線
 62
     0
370
    -2
100
AcDbLine
 10
94.85151402540433
 20
203.1211488256961
 30
0.0
 11
88.78480587535456
 21
203.1211488256961
 31
0.0
  0
LINE
  5
30F2
330
30F0
100
AcDbEntity
  8
寸法線
 62
     0
370
    -2
100
AcDbLine
 10
94.85151402540433
 20
157.8211488256961
 30
0.0
 11
88.78480587535454
 21
157.8211488256961
 31
0.0
  0
LINE
  5
30F3
330
30F0
100
AcDbEntity
  8
寸法線
 62
     0
370
    -2
100
AcDbLine
 10
91.78480587535457
 20
200.1211488256961
 30
0.0
 11
91.78480587535457
 21
160.8211488256961
 31
0.0
  0
INSERT
  5
30F4
330
30F0
100
AcDbEntity
  8
寸法線
 62
     0
370
    -2
100
AcDbBlockReference
  2
_Closed
 10
91.78480587535457
 20
203.1211488256961
 30
0.0
 41
3.0
 42
3.0
 43
3.0
 50
90.0
  0
INSERT
  5
30F5
330
30F0
100
AcDbEntity
  8
寸法線
 62
     0
370
    -2
100
AcDbBlockReference
  2
_Closed
 10
91.78480587535455
 20
157.8211488256961
 30
0.0
 41
3.0
 42
3.0
 43
3.0
 50
270.0
  0
MTEXT
  5
30F6
330
30F0
100
AcDbEntity
  8
寸法線
 62
     0
100
AcDbMText
 10
88.28480587535453
 20
180.4711488256961
 30
0.0
 40
5.0
 41
0.0
 71
     5
 72
     1
  1
45.3
  7
OKANO
 11
0.0000000000000001
 21
1.0
 31
0.0
 73
     1
 44
1.0
  0
POINT
  5
30F7
330
30F0
100
AcDbEntity
  8
Defpoints
 62
     0
100
AcDbPoint
 10
96.85151402540434
 20
203.1211488256961
 30
0.0
  0
POINT
  5
30F8
330
30F0
100
AcDbEntity
  8
Defpoints
 62
     0
100
AcDbPoint
 10
96.85151402540434
 20
157.8211488256961
 30
0.0
  0
POINT
  5
30F9
330
30F0
100
AcDbEntity
  8
Defpoints
 62
     0
100
AcDbPoint
 10
91.78480587535455
 20
157.8211488256961
 30
0.0
  0
ENDBLK
  5
30FB
330
30F0
100
AcDbEntity
  8
0
100
AcDbBlockEnd
  0
BLOCK
  5
315D
330
3153
100
AcDbEntity
  8
0
100
AcDbBlockBegin
  2
*D9
 70
     1
 10
0.0
 20
0.0
 30
0.0
  3
*D9
  1

  0
LINE
  5
3333
330
3153
100
AcDbEntity
  8
寸法線
 62
     0
370
    -2
100
AcDbLine
 10
175.4585953611976
 20
108.9826672669605
 30
0.0
 11
186.1067688869815
 21
108.7643273804558
 31
0.0
  0
LINE
  5
3334
330
3153
100
AcDbEntity
  8
寸法線
 62
     0
370
    -2
100
AcDbLine
 10
175.253589310369
 20
98.98476886183944
 30
0.0
 11
185.9017628361528
 21
98.76642897533479
 31
0.0
  0
LINE
  5
3335
330
3153
100
AcDbEntity
  8
寸法線
 62
     0
370
    -2
100
AcDbLine
 10
183.0458975501965
 20
105.8264596741681
 30
0.0
 11
182.9638951298651
 21
101.8273003121197
 31
0.0
  0
INSERT
  5
3336
330
3153
100
AcDbEntity
  8
寸法線
 62
     0
370
    -2
100
AcDbBlockReference
  2
_Closed
 10
183.1073993654452
 20
108.8258291957044
 30
0.0
 41
3.0
 42
3.0
 43
3.0
 50
88.82531956005456
  0
INSERT
  5
3337
330
3153
100
AcDbEntity
  8
寸法線
 62
     0
370
    -2
100
AcDbBlockReference
  2
_Closed
 10
182.9023933146165
 20
98.82793079058338
 30
0.0
 41
3.0
 42
3.0
 43
3.0
 50
268.8253195600545
  0
MTEXT
  5
3338
330
3153
100
AcDbEntity
  8
寸法線
 62
     0
100
AcDbMText
 10
179.5056318982384
 20
103.8986321109339
 30
0.0
 40
5.0
 41
0.0
 71
     5
 72
     1
  1
13
  7
OKANO
 11
0.0205006050828647
 21
0.999789840512113
 31
0.0
 73
     1
 44
1.0
  0
POINT
  5
3339
330
3153
100
AcDbEntity
  8
Defpoints
 62
     0
100
AcDbPoint
 10
173.4590156801734
 20
109.0236684771262
 30
0.0
  0
POINT
  5
333A
330
3153
100
AcDbEntity
  8
Defpoints
 62
     0
100
AcDbPoint
 10
173.2540096293448
 20
99.02577007200516
 30
0.0
  0
POINT
  5
333B
330
3153
100
AcDbEntity
  8
Defpoints
 62
     0
100
AcDbPoint
 10
182.9023933146165
 20
98.82793079058338
 30
0.0
  0
ENDBLK
  5
315E
330
3153
100
AcDbEntity
  8
0
100
AcDbBlockEnd
  0
BLOCK
  5
31FA
330
31F0
100
AcDbEntity
  8
0
100
AcDbBlockBegin
  2
*D10
 70
     1
 10
0.0
 20
0.0
 30
0.0
  3
*D10
  1

  0
LINE
  5
3230
330
31F0
100
AcDbEntity
  8
寸法線
 62
     0
370
    -2
100
AcDbLine
 10
136.8515140254043
 20
77.14019332955459
 30
0.0
 11
136.8515140254043
 21
105.3957161532387
 31
0.0
  0
LINE
  5
3231
330
31F0
100
AcDbEntity
  8
寸法線
 62
     0
370
    -2
100
AcDbLine
 10
42.16283923760897
 20
77.14019332955459
 30
0.0
 11
42.16283923760897
 21
105.3957161532387
 31
0.0
  0
LINE
  5
3232
330
31F0
100
AcDbEntity
  8
寸法線
 62
     0
370
    -2
100
AcDbLine
 10
133.8515140254043
 20
102.3957161532387
 30
0.0
 11
45.16283923760897
 21
102.3957161532387
 31
0.0
  0
INSERT
  5
3233
330
31F0
100
AcDbEntity
  8
寸法線
 62
     0
370
    -2
100
AcDbBlockReference
  2
_Closed
 10
136.8515140254043
 20
102.3957161532387
 30
0.0
 41
3.0
 42
3.0
 43
3.0
  0
INSERT
  5
3234
330
31F0
100
AcDbEntity
  8
寸法線
 62
     0
370
    -2
100
AcDbBlockReference
  2
_Closed
 10
42.16283923760897
 20
102.3957161532387
 30
0.0
 41
3.0
 42
3.0
 43
3.0
 50
180.0
  0
MTEXT
  5
3235
330
31F0
100
AcDbEntity
  8
寸法線
 62
     0
100
AcDbMText
 10
89.50717663150665
 20
105.8957161532387
 30
0.0
 40
5.0
 41
0.0
 71
     5
 72
     1
  1
95
  7
OKANO
 73
     1
 44
1.0
  0
POINT
  5
3236
330
31F0
100
AcDbEntity
  8
Defpoints
 62
     0
100
AcDbPoint
 10
136.8515140254043
 20
75.14019332955459
 30
0.0
  0
POINT
  5
3237
330
31F0
100
AcDbEntity
  8
Defpoints
 62
     0
100
AcDbPoint
 10
42.16283923760897
 20
75.14019332955459
 30
0.0
  0
POINT
  5
3238
330
31F0
100
AcDbEntity
  8
Defpoints
 62
     0
100
AcDbPoint
 10
42.16283923760897
 20
102.3957161532387
 30
0.0
  0
ENDBLK
  5
31FB
330
31F0
100
AcDbEntity
  8
0
100
AcDbBlockEnd
  0
BLOCK
  5
324D
330
3243
100
AcDbEntity
  8
0
100
AcDbBlockBegin
  2
*D12
 70
     1
 10
0.0
 20
0.0
 30
0.0
  3
*D12
  1

  0
LINE
  5
3323
330
3243
100
AcDbEntity
  8
寸法線
 62
     0
370
    -2
100
AcDbLine
 10
138.8515140254043
 20
75.14019332955459
 30
0.0
 11
154.0019197550298
 21
75.14019332955459
 31
0.0
  0
LINE
  5
3324
330
3243
100
AcDbEntity
  8
寸法線
 62
     0
370
    -2
100
AcDbLine
 10
138.8515140254043
 20
25.84019332955458
 30
0.0
 11
154.0019197550298
 21
25.84019332955458
 31
0.0
  0
LINE
  5
3325
330
3243
100
AcDbEntity
  8
寸法線
 62
     0
370
    -2
100
AcDbLine
 10
151.0019197550298
 20
72.14019332955459
 30
0.0
 11
151.0019197550298
 21
28.84019332955459
 31
0.0
  0
INSERT
  5
3326
330
3243
100
AcDbEntity
  8
寸法線
 62
     0
370
    -2
100
AcDbBlockReference
  2
_Closed
 10
151.0019197550298
 20
75.14019332955459
 30
0.0
 41
3.0
 42
3.0
 43
3.0
 50
90.0
  0
INSERT
  5
3327
330
3243
100
AcDbEntity
  8
寸法線
 62
     0
370
    -2
100
AcDbBlockReference
  2
_Closed
 10
151.0019197550298
 20
25.84019332955458
 30
0.0
 41
3.0
 42
3.0
 43
3.0
 50
270.0
  0
MTEXT
  5
3328
330
3243
100
AcDbEntity
  8
寸法線
 62
     0
100
AcDbMText
 10
147.5019197550297
 20
50.49019332955461
 30
0.0
 40
5.0
 41
0.0
 71
     5
 72
     1
  1
49.3～50
  7
OKANO
 11
0.0000000000000001
 21
1.0
 31
0.0
 73
     1
 44
1.0
  0
POINT
  5
3329
330
3243
100
AcDbEntity
  8
Defpoints
 62
     0
100
AcDbPoint
 10
136.8515140254043
 20
75.14019332955459
 30
0.0
  0
POINT
  5
332A
330
3243
100
AcDbEntity
  8
Defpoints
 62
     0
100
AcDbPoint
 10
136.8515140254043
 20
25.84019332955458
 30
0.0
  0
POINT
  5
332B
330
3243
100
AcDbEntity
  8
Defpoints
 62
     0
100
AcDbPoint
 10
151.0019197550298
 20
25.84019332955458
 30
0.0
  0
ENDBLK
  5
324E
330
3243
100
AcDbEntity
  8
0
100
AcDbBlockEnd
  0
BLOCK
  5
326C
330
3262
100
AcDbEntity
  8
0
100
AcDbBlockBegin
  2
*D13
 70
     1
 10
0.0
 20
0.0
 30
0.0
  3
*D13
  1

  0
LINE
  5
326E
330
3262
100
AcDbEntity
  8
寸法線
 62
     0
370
    -2
100
AcDbLine
 10
261.0621096629795
 20
150.8211488256961
 30
0.0
 11
283.7720886785809
 21
150.8211488256961
 31
0.0
  0
LINE
  5
326F
330
3262
100
AcDbEntity
  8
寸法線
 62
     0
370
    -2
100
AcDbLine
 10
258.0621096629795
 20
210.1211488256962
 30
0.0
 11
283.7720886785809
 21
210.1211488256962
 31
0.0
  0
LINE
  5
3270
330
3262
100
AcDbEntity
  8
寸法線
 62
     0
370
    -2
100
AcDbLine
 10
280.7720886785809
 20
153.8211488256961
 30
0.0
 11
280.7720886785809
 21
207.1211488256961
 31
0.0
  0
INSERT
  5
3271
330
3262
100
AcDbEntity
  8
寸法線
 62
     0
370
    -2
100
AcDbBlockReference
  2
_Closed
 10
280.7720886785809
 20
150.8211488256961
 30
0.0
 41
3.0
 42
3.0
 43
3.0
 50
270.0
  0
INSERT
  5
3272
330
3262
100
AcDbEntity
  8
寸法線
 62
     0
370
    -2
100
AcDbBlockReference
  2
_Closed
 10
280.7720886785809
 20
210.1211488256962
 30
0.0
 41
3.0
 42
3.0
 43
3.0
 50
90.0
  0
MTEXT
  5
3273
330
3262
100
AcDbEntity
  8
寸法線
 62
     0
100
AcDbMText
 10
277.2720886785809
 20
180.4711488256961
 30
0.0
 40
5.0
 41
0.0
 71
     5
 72
     1
  1
60
  7
OKANO
 11
0.0000000000000001
 21
1.0
 31
0.0
 73
     1
 44
1.0
  0
POINT
  5
3274
330
3262
100
AcDbEntity
  8
Defpoints
 62
     0
100
AcDbPoint
 10
259.0621096629795
 20
150.8211488256961
 30
0.0
  0
POINT
  5
3275
330
3262
100
AcDbEntity
  8
Defpoints
 62
     0
100
AcDbPoint
 10
256.0621096629795
 20
210.1211488256962
 30
0.0
  0
POINT
  5
3276
330
3262
100
AcDbEntity
  8
Defpoints
 62
     0
100
AcDbPoint
 10
280.7720886785809
 20
210.1211488256962
 30
0.0
  0
ENDBLK
  5
326D
330
3262
100
AcDbEntity
  8
0
100
AcDbBlockEnd
  0
BLOCK
  5
32B0
330
32A5
100
AcDbEntity
  8
0
100
AcDbBlockBegin
  2
*D15
 70
     1
 10
0.0
 20
0.0
 30
0.0
  3
*D15
  1

  0
LINE
  5
32B2
330
32A5
100
AcDbEntity
  8
寸法線
 62
     0
370
    -2
100
AcDbLine
 10
66.11295625751473
 20
75.00737343373737
 30
0.0
 11
51.66900117207978
 21
75.00737343373737
 31
0.0
  0
LINE
  5
32B3
330
32A5
100
AcDbEntity
  8
寸法線
 62
     0
370
    -2
100
AcDbLine
 10
66.11295625751473
 20
84.95801532952908
 30
0.0
 11
51.66900117207979
 21
84.95801532952908
 31
0.0
  0
LINE
  5
32B4
330
32A5
100
AcDbEntity
  8
寸法線
 62
     0
370
    -2
100
AcDbLine
 10
54.66900117207978
 20
78.00737343373737
 30
0.0
 11
54.66900117207979
 21
81.95801532952907
 31
0.0
  0
INSERT
  5
32B5
330
32A5
100
AcDbEntity
  8
寸法線
 62
     0
370
    -2
100
AcDbBlockReference
  2
_Closed
 10
54.66900117207978
 20
75.00737343373737
 30
0.0
 41
3.0
 42
3.0
 43
3.0
 50
270.0
  0
INSERT
  5
32B6
330
32A5
100
AcDbEntity
  8
寸法線
 62
     0
370
    -2
100
AcDbBlockReference
  2
_Closed
 10
54.66900117207979
 20
84.95801532952908
 30
0.0
 41
3.0
 42
3.0
 43
3.0
 50
90.0
  0
MTEXT
  5
32B7
330
32A5
100
AcDbEntity
  8
寸法線
 62
     0
100
AcDbMText
 10
51.16900117207977
 20
79.98269438163323
 30
0.0
 40
5.0
 41
0.0
 71
     5
 72
     1
  1
10
  7
OKANO
 11
0.0000000000000001
 21
1.0
 31
0.0
 73
     1
 44
1.0
  0
POINT
  5
32B8
330
32A5
100
AcDbEntity
  8
Defpoints
 62
     0
100
AcDbPoint
 10
68.11295625751473
 20
75.00737343373737
 30
0.0
  0
POINT
  5
32B9
330
32A5
100
AcDbEntity
  8
Defpoints
 62
     0
100
AcDbPoint
 10
68.11295625751473
 20
84.95801532952908
 30
0.0
  0
POINT
  5
32BA
330
32A5
100
AcDbEntity
  8
Defpoints
 62
     0
100
AcDbPoint
 10
54.66900117207979
 20
84.95801532952908
 30
0.0
  0
ENDBLK
  5
32B1
330
32A5
100
AcDbEntity
  8
0
100
AcDbBlockEnd
  0
BLOCK
  5
32D2
330
32CC
100
AcDbEntity
  8
0
100
AcDbBlockBegin
  2
*D16
 70
     1
 10
0.0
 20
0.0
 30
0.0
  3
*D16
  1

  0
LINE
  5
331E
330
32CC
100
AcDbEntity
  8
寸法線
 62
     0
370
    -2
100
AcDbLine
 10
80.44355664510469
 20
50.37192510480425
 30
0.0
 11
50.55374260057647
 21
50.80082548888069
 31
0.0
  0
MTEXT
  5
331F
330
32CC
100
AcDbEntity
  8
寸法線
 62
     0
100
AcDbMText
 10
67.04871288819314
 20
54.06449316048719
 30
0.0
 40
5.0
 41
0.0
 71
     5
 72
     1
  1
49.3～50
  7
OKANO
 11
0.9998970635024402
 21
-0.0143479057425454
 31
0.0
 73
     1
 44
1.0
  0
INSERT
  5
3320
330
32CC
100
AcDbEntity
  8
寸法線
 62
     0
370
    -2
100
AcDbBlockReference
  2
_Closed
 10
47.55405141006914
 20
50.84386920610832
 30
0.0
 41
3.0
 42
3.0
 43
3.0
 50
179.1778973477844
  0
POINT
  5
3321
330
32CC
100
AcDbEntity
  8
Defpoints
 62
     0
100
AcDbPoint
 10
47.55405141006914
 20
50.84386920610832
 30
0.0
  0
POINT
  5
3322
330
32CC
100
AcDbEntity
  8
Defpoints
 62
     0
100
AcDbPoint
 10
96.84897664073949
 20
50.13651745300083
 30
0.0
  0
ENDBLK
  5
32D3
330
32CC
100
AcDbEntity
  8
0
100
AcDbBlockEnd
  0
BLOCK
  5
32F5
330
32EA
100
AcDbEntity
  8
0
100
AcDbBlockBegin
  2
*D17
 70
     1
 10
0.0
 20
0.0
 30
0.0
  3
*D17
  1

  0
LINE
  5
3300
330
32EA
100
AcDbEntity
  8
寸法線
 62
     0
370
    -2
100
AcDbLine
 10
117.3844935097151
 20
183.8450754240153
 30
0.0
 11
117.3844935097151
 21
193.9094855653012
 31
0.0
  0
LINE
  5
3301
330
32EA
100
AcDbEntity
  8
寸法線
 62
     0
370
    -2
100
AcDbLine
 10
132.265287327737
 20
183.8450754240153
 30
0.0
 11
132.265287327737
 21
193.9094855653012
 31
0.0
  0
LINE
  5
3302
330
32EA
100
AcDbEntity
  8
寸法線
 62
     0
370
    -2
100
AcDbLine
 10
120.3844935097151
 20
190.9094855653012
 30
0.0
 11
129.265287327737
 21
190.9094855653012
 31
0.0
  0
INSERT
  5
3303
330
32EA
100
AcDbEntity
  8
寸法線
 62
     0
370
    -2
100
AcDbBlockReference
  2
_Closed
 10
117.3844935097151
 20
190.9094855653012
 30
0.0
 41
3.0
 42
3.0
 43
3.0
 50
180.0
  0
INSERT
  5
3304
330
32EA
100
AcDbEntity
  8
寸法線
 62
     0
370
    -2
100
AcDbBlockReference
  2
_Closed
 10
132.265287327737
 20
190.9094855653012
 30
0.0
 41
3.0
 42
3.0
 43
3.0
  0
MTEXT
  5
3305
330
32EA
100
AcDbEntity
  8
寸法線
 62
     0
100
AcDbMText
 10
124.8248904187261
 20
194.4099776912855
 30
0.0
 40
5.0
 41
0.0
 71
     5
 72
     1
  1
20
  7
OKANO
 73
     1
 44
1.0
  0
POINT
  5
3306
330
32EA
100
AcDbEntity
  8
Defpoints
 62
     0
100
AcDbPoint
 10
117.3844935097151
 20
181.8450754240153
 30
0.0
  0
POINT
  5
3307
330
32EA
100
AcDbEntity
  8
Defpoints
 62
     0
100
AcDbPoint
 10
132.265287327737
 20
181.8450754240153
 30
0.0
  0
POINT
  5
3308
330
32EA
100
AcDbEntity
  8
Defpoints
 62
     0
100
AcDbPoint
 10
132.265287327737
 20
190.9094855653012
 30
0.0
  0
ENDBLK
  5
32F6
330
32EA
100
AcDbEntity
  8
0
100
AcDbBlockEnd
  0
BLOCK
  5
33EE
330
33E4
100
AcDbEntity
  8
0
100
AcDbBlockBegin
  2
*D18
 70
     1
 10
0.0
 20
0.0
 30
0.0
  3
*D18
  1

  0
LINE
  5
33E5
330
33E4
100
AcDbEntity
  8
寸法線
 62
     0
370
    -2
100
AcDbLine
 10
42.80811574320256
 20
218.4711488256961
 30
0.0
 11
27.13671629614784
 21
218.4711488256961
 31
0.0
  0
LINE
  5
33E6
330
33E4
100
AcDbEntity
  8
寸法線
 62
     0
370
    -2
100
AcDbLine
 10
42.55151402540431
 20
142.4711488256961
 30
0.0
 11
27.13671629614782
 21
142.4711488256961
 31
0.0
  0
LINE
  5
33E7
330
33E4
100
AcDbEntity
  8
寸法線
 62
     0
370
    -2
100
AcDbLine
 10
30.13671629614783
 20
215.4711488256961
 30
0.0
 11
30.13671629614782
 21
145.4711488256961
 31
0.0
  0
INSERT
  5
33E8
330
33E4
100
AcDbEntity
  8
寸法線
 62
     0
370
    -2
100
AcDbBlockReference
  2
_Closed
 10
30.13671629614784
 20
218.4711488256961
 30
0.0
 41
3.0
 42
3.0
 43
3.0
 50
90.0
  0
INSERT
  5
33E9
330
33E4
100
AcDbEntity
  8
寸法線
 62
     0
370
    -2
100
AcDbBlockReference
  2
_Closed
 10
30.13671629614782
 20
142.4711488256961
 30
0.0
 41
3.0
 42
3.0
 43
3.0
 50
270.0
  0
MTEXT
  5
33EA
330
33E4
100
AcDbEntity
  8
寸法線
 62
     0
100
AcDbMText
 10
26.6367162961478
 20
180.4711488256961
 30
0.0
 40
5.0
 41
0.0
 71
     5
 72
     1
  1
76
  7
OKANO
 11
0.0000000000000001
 21
1.0
 31
0.0
 73
     1
 44
1.0
  0
POINT
  5
33EB
330
33E4
100
AcDbEntity
  8
Defpoints
 62
     0
100
AcDbPoint
 10
44.80811574320255
 20
218.4711488256961
 30
0.0
  0
POINT
  5
33EC
330
33E4
100
AcDbEntity
  8
Defpoints
 62
     0
100
AcDbPoint
 10
44.55151402540431
 20
142.4711488256961
 30
0.0
  0
POINT
  5
33ED
330
33E4
100
AcDbEntity
  8
Defpoints
 62
     0
100
AcDbPoint
 10
30.13671629614782
 20
142.4711488256961
 30
0.0
  0
ENDBLK
  5
33EF
330
33E4
100
AcDbEntity
  8
0
100
AcDbBlockEnd
  0
BLOCK
  5
33FB
330
33F1
100
AcDbEntity
  8
0
100
AcDbBlockBegin
  2
*D19
 70
     1
 10
0.0
 20
0.0
 30
0.0
  3
*D19
  1

  0
LINE
  5
33FD
330
33F1
100
AcDbEntity
  8
寸法線
 62
     0
370
    -2
100
AcDbLine
 10
70.20151402540432
 20
154.4711488256961
 30
0.0
 11
52.82475856191127
 21
154.4711488256961
 31
0.0
  0
LINE
  5
33FE
330
33F1
100
AcDbEntity
  8
寸法線
 62
     0
370
    -2
100
AcDbLine
 10
70.20151402540432
 20
142.4711488256961
 30
0.0
 11
52.82475856191126
 21
142.4711488256962
 31
0.0
  0
LINE
  5
33FF
330
33F1
100
AcDbEntity
  8
寸法線
 62
     0
370
    -2
100
AcDbLine
 10
55.82475856191127
 20
151.4711488256961
 30
0.0
 11
55.82475856191127
 21
145.4711488256961
 31
0.0
  0
INSERT
  5
3400
330
33F1
100
AcDbEntity
  8
寸法線
 62
     0
370
    -2
100
AcDbBlockReference
  2
_Closed
 10
55.82475856191127
 20
154.4711488256961
 30
0.0
 41
3.0
 42
3.0
 43
3.0
 50
90.0
  0
INSERT
  5
3401
330
33F1
100
AcDbEntity
  8
寸法線
 62
     0
370
    -2
100
AcDbBlockReference
  2
_Closed
 10
55.82475856191127
 20
142.4711488256962
 30
0.0
 41
3.0
 42
3.0
 43
3.0
 50
270.0
  0
MTEXT
  5
3402
330
33F1
100
AcDbEntity
  8
寸法線
 62
     0
100
AcDbMText
 10
52.32426643592699
 20
148.4711488256961
 30
0.0
 40
5.0
 41
0.0
 71
     5
 72
     1
  1
12
  7
OKANO
 11
0.0000000000000001
 21
1.0
 31
0.0
 73
     1
 44
1.0
  0
POINT
  5
3403
330
33F1
100
AcDbEntity
  8
Defpoints
 62
     0
100
AcDbPoint
 10
72.20151402540432
 20
154.4711488256961
 30
0.0
  0
POINT
  5
3404
330
33F1
100
AcDbEntity
  8
Defpoints
 62
     0
100
AcDbPoint
 10
72.20151402540432
 20
142.4711488256961
 30
0.0
  0
POINT
  5
3405
330
33F1
100
AcDbEntity
  8
Defpoints
 62
     0
100
AcDbPoint
 10
55.82475856191127
 20
142.4711488256962
 30
0.0
  0
ENDBLK
  5
33FC
330
33F1
100
AcDbEntity
  8
0
100
AcDbBlockEnd
  0
ENDSEC
  0
SECTION
  2
ENTITIES
  0
XLINE
  5
22CA
330
1F
100
AcDbEntity
  8
構築線
370
     5
100
AcDbXline
 10
72.20151402540432
 20
178.0193172078315
 30
0.0
 11
0.0
 21
-1.0
 31
0.0
  0
TEXT
  5
29C1
330
1F
100
AcDbEntity
  8
文字
100
AcDbText
 10
280.17557812536
 20
3.315952255566458
 30
0.0
 40
3.599999999999999
  1
SET SCREW COUP
 51
15.0
  7
OKANO
100
AcDbText
  0
TEXT
  5
29C2
330
1F
100
AcDbEntity
  8
文字
100
AcDbText
 10
251.3874819578773
 20
-3.782311080513817
 30
0.0
 40
4.799999999999999
  1
joint kogyo T.okano
 51
15.0
  7
OKANO
100
AcDbText
  0
TEXT
  5
29C3
330
1F
100
AcDbEntity
  8
文字
100
AcDbText
 10
243.8991689460804
 20
10.97006042677396
 30
0.0
 40
4.799999999999999
  1
F-999-20131115 Auto CAD
 51
15.0
  7
OKANO
100
AcDbText
  0
LINE
  5
29C4
330
1F
100
AcDbEntity
  8
太線
100
AcDbLine
 10
216.4769407644665
 20
10.04925277634361
 30
0.0
 11
324.4769407644665
 21
10.04925277634361
 31
0.0
  0
LWPOLYLINE
  5
29C5
330
1F
100
AcDbEntity
  8
太線
100
AcDbPolyline
 90
        4
 70
     1
 43
0.0
 10
216.4769407644665
 20
18.4492527763436
 10
324.4769407644665
 20
18.4492527763436
 10
324.4769407644665
 20
-6.750747223656389
 10
216.4769407644665
 20
-6.750747223656389
  0
TEXT
  5
29C6
330
1F
100
AcDbEntity
  8
文字
100
AcDbText
 10
220.3493243305241
 20
1.855740977492928
 30
0.0
 40
2.399999999999999
  1
CHECK
 51
15.0
  7
OKANO
100
AcDbText
  0
LINE
  5
29C7
330
1F
100
AcDbEntity
  8
太線
100
AcDbLine
 10
240.4769407644665
 20
18.4492527763436
 30
0.0
 11
240.4769407644665
 21
-6.750747223656389
 31
0.0
  0
TEXT
  5
29C8
330
1F
100
AcDbEntity
  8
文字
100
AcDbText
 10
220.3493243305241
 20
-5.063686628722894
 30
0.0
 40
2.399999999999999
  1
ISSUED
 51
15.0
  7
OKANO
100
AcDbText
  0
TEXT
  5
29C9
330
1F
100
AcDbEntity
  8
文字
100
AcDbText
 10
220.6058387634247
 20
-1.732110439454753
 30
0.0
 40
2.399999999999999
  1
APPR
 51
15.0
  7
OKANO
100
AcDbText
  0
TEXT
  5
29CA
330
1F
100
AcDbEntity
  8
文字
100
AcDbText
 10
218.5537287788383
 20
11.85046895510877
 30
0.0
 40
2.399999999999999
  1
FILM NAME
 51
15.0
  7
OKANO
100
AcDbText
  0
TEXT
  5
29CB
330
1F
100
AcDbEntity
  8
文字
100
AcDbText
 10
219.8362976561704
 20
5.443591804251965
 30
0.0
 40
2.399999999999999
  1
DRAWN
 51
15.0
  7
OKANO
100
AcDbText
  0
TEXT
  5
29CC
330
1F
100
AcDbEntity
  8
文字
100
AcDbText
 10
246.0529359624883
 20
2.22791308182559
 30
0.0
 40
4.799999999999999
  1
Ｓ-3-3Ｔ
 51
15.0
  7
OKANO
100
AcDbText
  0
XLINE
  5
2DB6
330
1F
100
AcDbEntity
  8
構築線
100
AcDbXline
 10
72.20151402540432
 20
180.4711488256961
 30
0.0
 11
1.0
 21
0.0
 31
0.0
  0
XLINE
  5
2DB7
330
1F
100
AcDbEntity
  8
構築線
370
     5
100
AcDbXline
 10
4921.501514025404
 20
178.0193172078315
 30
0.0
 11
0.0
 21
-1.0
 31
0.0
  0
XLINE
  5
2DB8
330
1F
100
AcDbEntity
  8
構築線
370
     5
100
AcDbXline
 10
-4777.098485974596
 20
178.0193172078315
 30
0.0
 11
0.0
 21
-1.0
 31
0.0
  0
LINE
  5
2DE6
330
1F
100
AcDbEntity
  8
構築線
100
AcDbLine
 10
101.8515140254043
 20
150.8211488256961
 30
0.0
 11
136.8515140254043
 21
150.8211488256961
 31
0.0
  0
LINE
  5
2DE7
330
1F
100
AcDbEntity
  8
構築線
100
AcDbLine
 10
136.8515140254043
 20
150.8211488256961
 30
0.0
 11
136.8515140254043
 21
210.1211488256961
 31
0.0
  0
LINE
  5
2DEA
330
1F
100
AcDbEntity
  8
太線
100
AcDbLine
 10
136.8515140254043
 20
208.1211488256961
 30
0.0
 11
136.8515140254042
 21
152.8211488256961
 31
0.0
  0
LINE
  5
2DEB
330
1F
100
AcDbEntity
  8
太線
100
AcDbLine
 10
134.8515140254042
 20
150.8211488256961
 30
0.0
 11
103.8515140254043
 21
150.8211488256961
 31
0.0
  0
LINE
  5
2DFB
330
1F
100
AcDbEntity
  8
破線
100
AcDbLine
 10
136.8515140254043
 20
205.1211488256961
 30
0.0
 11
101.8515140254043
 21
205.1211488256961
 31
0.0
  0
LINE
  5
2DFC
330
1F
100
AcDbEntity
  8
破線
100
AcDbLine
 10
101.8515140254043
 20
205.1211488256961
 30
0.0
 11
101.8515140254043
 21
203.1211488256961
 31
0.0
  0
LINE
  5
2DFD
330
1F
100
AcDbEntity
  8
破線
100
AcDbLine
 10
101.8515140254043
 20
203.1211488256961
 30
0.0
 11
99.85151402540433
 21
203.1211488256961
 31
0.0
  0
LINE
  5
2E00
330
1F
100
AcDbEntity
  8
破線
100
AcDbLine
 10
136.8515140254043
 20
155.8211488256961
 30
0.0
 11
101.8515140254043
 21
155.8211488256961
 31
0.0
  0
LINE
  5
2E01
330
1F
100
AcDbEntity
  8
破線
100
AcDbLine
 10
101.8515140254043
 20
155.8211488256961
 30
0.0
 11
101.8515140254043
 21
157.8211488256961
 31
0.0
  0
LINE
  5
2E02
330
1F
100
AcDbEntity
  8
破線
100
AcDbLine
 10
101.8515140254043
 20
157.8211488256961
 30
0.0
 11
99.85151402540433
 21
157.8211488256961
 31
0.0
  0
LINE
  5
2E05
330
1F
100
AcDbEntity
  8
破線
100
AcDbLine
 10
101.8515140254043
 20
203.1211488256961
 30
0.0
 11
101.8515140254043
 21
157.8211488256961
 31
0.0
  0
CIRCLE
  5
2E3E
330
1F
100
AcDbEntity
  8
太線
100
AcDbCircle
 10
124.8515140254043
 20
180.4711488256961
 30
0.0
 40
10.0
  0
CIRCLE
  5
2E3F
330
1F
100
AcDbEntity
  8
太線
100
AcDbCircle
 10
124.8515140254043
 20
180.4711488256961
 30
0.0
 40
3.999999999999994
  0
CIRCLE
  5
2E40
330
1F
100
AcDbEntity
  8
太線
100
AcDbCircle
 10
124.8515140254043
 20
180.4711488256961
 30
0.0
 40
4.999999999999998
  0
CIRCLE
  5
2E41
330
1F
100
AcDbEntity
  8
太線
100
AcDbCircle
 10
124.8515140254043
 20
180.4711488256961
 30
0.0
 40
7.500000000000017
  0
XLINE
  5
2E46
330
1F
100
AcDbEntity
  8
構築線
100
AcDbXline
 10
231.4121096629795
 20
179.4103712277987
 30
0.0
 11
0.0
 21
1.0
 31
0.0
  0
CIRCLE
  5
2E49
330
1F
100
AcDbEntity
  8
太線
100
AcDbCircle
 10
231.4121096629795
 20
180.4711488256961
 30
0.0
 40
24.64999999999998
  0
CIRCLE
  5
2E4C
330
1F
100
AcDbEntity
  8
太線
100
AcDbCircle
 10
231.4121096629795
 20
180.4711488256961
 30
0.0
 40
29.64999999999998
  0
LINE
  5
2E4D
330
1F
100
AcDbEntity
  8
太線
100
AcDbLine
 10
201.7621096629795
 20
180.4711488256961
 30
0.0
 11
201.7621096629795
 21
216.4711488256961
 31
0.0
  0
LINE
  5
2E4F
330
1F
100
AcDbEntity
  8
太線
100
AcDbLine
 10
261.0621096629794
 20
216.4711488256961
 30
0.0
 11
261.0621096629795
 21
180.4711488256961
 31
0.0
  0
LINE
  5
2E50
330
1F
100
AcDbEntity
  8
太線
100
AcDbLine
 10
201.7621096629795
 20
180.4711488256961
 30
0.0
 11
201.7621096629795
 21
144.4711488256961
 31
0.0
  0
LINE
  5
2E52
330
1F
100
AcDbEntity
  8
太線
100
AcDbLine
 10
261.0621096629795
 20
144.4711488256961
 30
0.0
 11
261.0621096629795
 21
180.4711488256961
 31
0.0
  0
LINE
  5
2E53
330
1F
100
AcDbEntity
  8
太線
100
AcDbLine
 10
203.7621096629795
 20
218.4711488256961
 30
0.0
 11
259.0621096629795
 21
218.4711488256961
 31
0.0
  0
LINE
  5
2E8F
330
1F
100
AcDbEntity
  8
細線
100
AcDbLine
 10
197.0986194317167
 20
185.2885016411992
 30
0.0
 11
207.1908186922941
 21
185.0484366376423
 31
0.0
  0
LINE
  5
2E90
330
1F
100
AcDbEntity
  8
細線
100
AcDbLine
 10
197.2533563482926
 20
186.2851037607091
 30
0.0
 11
207.4002634935737
 21
186.0437374106174
 31
0.0
  0
LINE
  5
2E91
330
1F
100
AcDbEntity
  8
細線
100
AcDbLine
 10
196.9083757726986
 20
177.2907640017037
 30
0.0
 11
207.0005750332759
 21
177.0506989981468
 31
0.0
  0
LINE
  5
2E92
330
1F
100
AcDbEntity
  8
細線
100
AcDbLine
 10
197.0155517745198
 20
176.2879317113397
 30
0.0
 11
207.1624589198011
 21
176.046565361248
 31
0.0
  0
ARC
  5
2E93
330
1F
100
AcDbEntity
  8
太線
100
AcDbCircle
 10
231.4121096629795
 20
180.4711488256961
 30
0.0
 40
34.65
100
AcDbArc
 50
166.1367294756544
 51
191.137973934145
  0
LINE
  5
2E94
330
1F
100
AcDbEntity
  8
太線
100
AcDbLine
 10
203.26943278497
 20
171.1377551160131
 30
0.0
 11
197.4147475876238
 21
173.7777287793246
 31
0.0
  0
LINE
  5
2E95
330
1F
100
AcDbEntity
  8
太線
100
AcDbLine
 10
203.7450419325153
 20
191.1320992147519
 30
0.0
 11
197.7714544482829
 21
188.7734868533787
 31
0.0
  0
LINE
  5
2EA0
330
1F
100
AcDbEntity
  8
破線
100
AcDbLine
 10
206.7621096629795
 20
180.4711488256961
 30
0.0
 11
206.7621096629795
 21
152.8211488256961
 31
0.0
  0
LINE
  5
2EA2
330
1F
100
AcDbEntity
  8
破線
100
AcDbLine
 10
256.0621096629795
 20
152.8211488256961
 30
0.0
 11
256.0621096629795
 21
180.4711488256961
 31
0.0
  0
XLINE
  5
2EA8
330
1F
100
AcDbEntity
  8
構築線
100
AcDbXline
 10
32.65221632861516
 20
50.49019332955459
 30
0.0
 11
1.0
 21
0.0
 31
0.0
  0
CIRCLE
  5
2EAB
330
1F
100
AcDbEntity
  8
太線
100
AcDbCircle
 10
72.20151402540432
 20
50.49019332955459
 30
0.0
 40
24.65
  0
CIRCLE
  5
2EAE
330
1F
100
AcDbEntity
  8
太線
100
AcDbCircle
 10
72.20151402540432
 20
50.49019332955459
 30
0.0
 40
29.65
  0
LINE
  5
2EB4
330
1F
100
AcDbEntity
  8
太線
100
AcDbLine
 10
72.20151402540432
 20
80.14019332955458
 30
0.0
 11
134.8515140254043
 21
80.14019332955459
 31
0.0
  0
LINE
  5
2EB5
330
1F
100
AcDbEntity
  8
太線
100
AcDbLine
 10
136.8515140254043
 20
78.14019332955459
 30
0.0
 11
136.8515140254043
 21
22.84019332955459
 31
0.0
  0
LINE
  5
2EB6
330
1F
100
AcDbEntity
  8
太線
100
AcDbLine
 10
134.8515140254043
 20
20.84019332955459
 30
0.0
 11
72.20151402540432
 21
20.84019332955459
 31
0.0
  0
ARC
  5
2EB8
330
1F
100
AcDbEntity
  8
太線
100
AcDbCircle
 10
72.20151402540429
 20
50.49019332955459
 30
0.0
 40
34.65
100
AcDbArc
 50
76.13672947565451
 51
101.137973934145
  0
LINE
  5
2EB9
330
1F
100
AcDbEntity
  8
太線
100
AcDbLine
 10
62.86812031572131
 20
78.63287020756406
 30
0.0
 11
65.50809397903273
 21
84.48755540491024
 31
0.0
  0
LINE
  5
2EBA
330
1F
100
AcDbEntity
  8
細線
100
AcDbLine
 10
68.01829691104789
 20
84.88675121801424
 30
0.0
 11
67.77693056095618
 21
74.73984407273295
 31
0.0
  0
LINE
  5
2EBB
330
1F
100
AcDbEntity
  8
細線
100
AcDbLine
 10
69.02112920141189
 20
84.99392721983548
 30
0.0
 11
68.78106419785493
 21
74.90172795925815
 31
0.0
  0
LINE
  5
2EBC
330
1F
100
AcDbEntity
  8
細線
100
AcDbLine
 10
78.01546896041728
 20
84.64894664424154
 30
0.0
 11
77.77410261032557
 21
74.50203949896033
 31
0.0
  0
LINE
  5
2EBD
330
1F
100
AcDbEntity
  8
細線
100
AcDbLine
 10
77.01886684090741
 20
84.80368356081735
 30
0.0
 11
76.77880183735044
 21
74.71148430024001
 31
0.0
  0
LINE
  5
2EBE
330
1F
100
AcDbEntity
  8
太線
100
AcDbLine
 10
82.8624644144601
 20
78.15726106001872
 30
0.0
 11
80.50385205308684
 21
84.13084854425122
 31
0.0
  0
ARC
  5
2EBF
330
1F
100
AcDbEntity
  8
太線
100
AcDbCircle
 10
124.8515140254043
 20
50.49019332955459
 30
0.0
 40
34.65
100
AcDbArc
 50
76.13672947565451
 51
101.137973934145
  0
LINE
  5
2EC0
330
1F
100
AcDbEntity
  8
太線
100
AcDbLine
 10
116.1977970549521
 20
80.14019332955461
 30
0.0
 11
118.1580939790327
 21
84.48755540491024
 31
0.0
  0
LINE
  5
2EC1
330
1F
100
AcDbEntity
  8
細線
100
AcDbLine
 10
120.6682969110479
 20
84.88675121801424
 30
0.0
 11
120.4269305609561
 21
74.73984407273295
 31
0.0
  0
LINE
  5
2EC2
330
1F
100
AcDbEntity
  8
細線
100
AcDbLine
 10
121.6711292014118
 20
84.99392721983548
 30
0.0
 11
121.4310641978549
 21
74.90172795925815
 31
0.0
  0
LINE
  5
2EC3
330
1F
100
AcDbEntity
  8
細線
100
AcDbLine
 10
130.6654689604172
 20
84.64894664424154
 30
0.0
 11
130.4241026103255
 21
74.50203949896033
 31
0.0
  0
LINE
  5
2EC4
330
1F
100
AcDbEntity
  8
細線
100
AcDbLine
 10
129.6688668409074
 20
84.80368356081735
 30
0.0
 11
129.4288018373504
 21
74.71148430024001
 31
0.0
  0
LINE
  5
2EC5
330
1F
100
AcDbEntity
  8
太線
100
AcDbLine
 10
134.7295230789496
 20
80.14019332955459
 30
0.0
 11
133.1538520530868
 21
84.13084854425122
 31
0.0
  0
LINE
  5
2EC8
330
1F
100
AcDbEntity
  8
破線
100
AcDbLine
 10
136.8515140254043
 20
75.14019332955459
 30
0.0
 11
101.8515140254043
 21
75.14019332955459
 31
0.0
  0
LINE
  5
2EC9
330
1F
100
AcDbEntity
  8
破線
100
AcDbLine
 10
101.8515140254043
 20
75.14019332955459
 30
0.0
 11
101.8515140254043
 21
73.14019332955459
 31
0.0
  0
LINE
  5
2ECA
330
1F
100
AcDbEntity
  8
破線
100
AcDbLine
 10
101.8515140254043
 20
73.14019332955459
 30
0.0
 11
99.85151402540433
 21
73.14019332955459
 31
0.0
  0
LINE
  5
2ECD
330
1F
100
AcDbEntity
  8
破線
100
AcDbLine
 10
136.8515140254043
 20
25.84019332955458
 30
0.0
 11
101.8515140254043
 21
25.84019332955458
 31
0.0
  0
LINE
  5
2ECE
330
1F
100
AcDbEntity
  8
破線
100
AcDbLine
 10
101.8515140254043
 20
25.84019332955458
 30
0.0
 11
101.8515140254043
 21
27.84019332955459
 31
0.0
  0
LINE
  5
2ED2
330
1F
100
AcDbEntity
  8
破線
100
AcDbLine
 10
101.8515140254043
 20
73.14019332955459
 30
0.0
 11
101.8515140254043
 21
27.84019332955459
 31
0.0
  0
CIRCLE
  5
2EEF
330
1F
100
AcDbEntity
  8
太線
100
AcDbCircle
 10
231.4121096629795
 20
180.4711488256961
 30
0.0
 40
22.65
  0
ARC
  5
2F13
330
1F
100
AcDbEntity
  8
太線
100
AcDbCircle
 10
134.8515140254043
 20
78.14019332955459
 30
0.0
 40
2.0
100
AcDbArc
 50
0.0
 51
90.0
  0
ARC
  5
2F16
330
1F
100
AcDbEntity
  8
太線
100
AcDbCircle
 10
134.8515140254042
 20
152.8211488256961
 30
0.0
 40
2.0
100
AcDbArc
 50
270.0
 51
0.0
  0
ARC
  5
2F17
330
1F
100
AcDbEntity
  8
太線
100
AcDbCircle
 10
134.8515140254043
 20
208.1211488256961
 30
0.0
 40
2.0
100
AcDbArc
 50
0.0
 51
90.0
  0
ARC
  5
2F18
330
1F
100
AcDbEntity
  8
太線
100
AcDbCircle
 10
203.7621096629795
 20
216.4711488256961
 30
0.0
 40
2.0
100
AcDbArc
 50
90.0
 51
180.0
  0
ARC
  5
2F19
330
1F
100
AcDbEntity
  8
太線
100
AcDbCircle
 10
259.0621096629795
 20
216.4711488256961
 30
0.0
 40
2.0
100
AcDbArc
 50
0.0000000000001018
 51
90.0
  0
DIMENSION
  5
2F1E
330
1F
100
AcDbEntity
  8
寸法線
100
AcDbDimension
  2
*D2
 10
160.9229676393258
 20
210.1211488256961
 30
0.0
 11
157.4229676393258
 21
207.6211488256961
 31
0.0
 70
    32
 71
     5
 42
5.0
  3
sunpo
100
AcDbAlignedDimension
 13
136.8515140254043
 23
205.1211488256961
 33
0.0
 14
134.8515140254043
 24
210.1211488256961
 34
0.0
 50
90.0
100
AcDbRotatedDimension
1001
ACAD
1000
DSTYLE
1002
{
1070
    40
1040
1.0
1002
}
  0
DIMENSION
  5
2F3A
330
1F
100
AcDbEntity
  8
寸法線
100
AcDbDimension
  2
*D3
 10
165.0569865204413
 20
80.14019332955458
 30
0.0
 11
161.5569865204413
 21
50.49019332955461
 31
0.0
 70
    32
  1
60
 71
     5
 42
59.29999999999999
  3
sunpo
100
AcDbAlignedDimension
 13
136.8515140254043
 23
20.84019332955458
 33
0.0
 14
134.7295230789496
 24
80.14019332955459
 34
0.0
 50
90.0
100
AcDbRotatedDimension
1001
ACAD
1000
DSTYLE
1002
{
1070
    40
1040
1.0
1002
}
  0
DIMENSION
  5
2F85
330
1F
100
AcDbEntity
  8
寸法線
100
AcDbDimension
  2
*D4
 10
136.8515140254043
 20
126.2262366162249
 30
0.0
 11
130.8515140254043
 21
129.7267287422091
 31
0.0
 70
    32
 71
     5
 42
12.0
  3
sunpo
100
AcDbAlignedDimension
 13
124.8515140254043
 23
180.4711488256961
 33
0.0
 14
136.8515140254043
 24
155.8211488256961
 34
0.0
100
AcDbRotatedDimension
1001
ACAD
1000
DSTYLE
1002
{
1070
    40
1040
1.0
1002
}
  0
DIMENSION
  5
2F92
330
1F
100
AcDbEntity
  8
寸法線
100
AcDbDimension
  2
*D5
 10
134.8944890800705
 20
198.5235908377877
 30
0.0
 11
124.9163360162721
 21
202.024082963772
 31
0.0
 70
    32
  1
24
 71
     5
 42
19.95630612759691
  3
sunpo
100
AcDbAlignedDimension
 13
114.9381829524736
 23
179.9276008441681
 33
0.0
 14
134.8944890800705
 24
179.9276008441681
 34
0.0
100
AcDbRotatedDimension
1001
ACAD
1000
DSTYLE
1002
{
1070
    40
1040
1.0
1002
}
  0
ARC
  5
2FF9
330
1F
100
AcDbEntity
  8
太線
100
AcDbCircle
 10
134.8515140254043
 20
22.84019332955459
 30
0.0
 40
2.0
100
AcDbArc
 50
270.0
 51
0.0
  0
LINE
  5
30AA
330
1F
100
AcDbEntity
  8
文字
100
AcDbLine
 10
203.7621096629795
 20
142.4711488256961
 30
0.0
 11
259.0621096629795
 21
142.4711488256961
 31
0.0
  0
LINE
  5
30AB
330
1F
100
AcDbEntity
  8
文字
100
AcDbLine
 10
203.7621096629795
 20
218.4711488256961
 30
0.0
 11
259.0621096629795
 21
218.4711488256961
 31
0.0
  0
LINE
  5
30AC
330
1F
100
AcDbEntity
  8
破線
100
AcDbLine
 10
256.0621096629795
 20
210.1211488256961
 30
0.0
 11
256.0621096629795
 21
180.4711488256961
 31
0.0
  0
LINE
  5
30AD
330
1F
100
AcDbEntity
  8
破線
100
AcDbLine
 10
206.7621096629795
 20
210.1211488256961
 30
0.0
 11
206.7621096629795
 21
180.4711488256961
 31
0.0
  0
LINE
  5
30AE
330
1F
100
AcDbEntity
  8
破線
100
AcDbLine
 10
206.7621096629795
 20
144.4711488256961
 30
0.0
 11
206.7621096629795
 21
142.4711488256961
 31
0.0
  0
LINE
  5
30AF
330
1F
100
AcDbEntity
  8
破線
100
AcDbLine
 10
256.0621096629795
 20
144.4711488256961
 30
0.0
 11
256.0621096629795
 21
142.4711488256961
 31
0.0
  0
ARC
  5
30B0
330
1F
100
AcDbEntity
  8
太線
100
AcDbCircle
 10
203.7621096629795
 20
144.4711488256961
 30
0.0
 40
2.0
100
AcDbArc
 50
180.0
 51
270.0
  0
ARC
  5
30B1
330
1F
100
AcDbEntity
  8
太線
100
AcDbCircle
 10
259.0621096629795
 20
144.4711488256961
 30
0.0
 40
2.0
100
AcDbArc
 50
270.0
 51
0.0
  0
LINE
  5
30B2
330
1F
100
AcDbEntity
  8
破線
100
AcDbLine
 10
96.85151402540434
 20
218.4711488256962
 30
0.0
 11
96.85151402540432
 21
142.4711488256961
 31
0.0
  0
LINE
  5
30B3
330
1F
100
AcDbEntity
  8
破線
100
AcDbLine
 10
47.55151402540432
 20
218.4711488256962
 30
0.0
 11
47.55151402540432
 21
142.4711488256961
 31
0.0
  0
LINE
  5
30B5
330
1F
100
AcDbEntity
  8
破線
100
AcDbLine
 10
99.85151402540433
 20
203.1211488256961
 30
0.0
 11
96.85151402540434
 21
203.1211488256961
 31
0.0
  0
LINE
  5
30B7
330
1F
100
AcDbEntity
  8
破線
100
AcDbLine
 10
99.85151402540433
 20
157.8211488256961
 30
0.0
 11
96.85151402540434
 21
157.8211488256961
 31
0.0
  0
LINE
  5
30D3
330
1F
100
AcDbEntity
  8
破線
100
AcDbLine
 10
101.8515140254043
 20
27.84019332955459
 30
0.0
 11
81.92776715803461
 21
27.84019332955459
 31
0.0
  0
LINE
  5
30D4
330
1F
100
AcDbEntity
  8
破線
100
AcDbLine
 10
99.85151402540433
 20
73.14019332955457
 30
0.0
 11
81.92776715803459
 21
73.14019332955459
 31
0.0
  0
DIMENSION
  5
30EF
330
1F
100
AcDbEntity
  8
寸法線
100
AcDbDimension
  2
*D8
 10
91.78480587535455
 20
157.8211488256961
 30
0.0
 11
88.28480587535453
 21
180.4711488256961
 31
0.0
 70
    32
 71
     5
 42
45.30000000000001
  3
sunpo
100
AcDbAlignedDimension
 13
96.85151402540434
 23
203.1211488256961
 33
0.0
 14
96.85151402540434
 24
157.8211488256961
 34
0.0
 50
90.0
100
AcDbRotatedDimension
1001
ACAD
1000
DSTYLE
1002
{
1070
    40
1040
1.0
1002
}
  0
LINE
  5
3142
330
1F
100
AcDbEntity
  8
破線
100
AcDbLine
 10
172.2747203939155
 20
100.0460605176
 30
0.0
 11
172.4592258396613
 21
109.0441690822091
 31
0.0
  0
LINE
  5
3143
330
1F
100
AcDbEntity
  8
破線
100
AcDbLine
 10
166.2759813508429
 20
100.1690641480973
 30
0.0
 11
166.4604867965887
 21
109.1671727127063
 31
0.0
  0
LINE
  5
3144
330
1F
100
AcDbEntity
  8
破線
100
AcDbLine
 10
165.4606969560766
 20
109.1876733177891
 30
0.0
 11
165.2761915103307
 21
100.1895647531802
 31
0.0
  0
LINE
  5
3145
330
1F
100
AcDbEntity
  8
太線
100
AcDbLine
 10
164.4609071155645
 20
109.208173922872
 30
0.0
 11
164.2764016698186
 21
100.2100653582629
 31
0.0
  0
LINE
  5
3146
330
1F
100
AcDbEntity
  8
太線
100
AcDbLine
 10
174.2743000749398
 20
100.0050593074343
 30
0.0
 11
174.4588055206856
 21
109.0031678720434
 31
0.0
  0
LINE
  5
3147
330
1F
100
AcDbEntity
  8
破線
100
AcDbLine
 10
173.4590156801734
 20
109.0236684771262
 30
0.0
 11
173.2745102344277
 21
100.0255599125172
 31
0.0
  0
DIMENSION
  5
3148
330
1F
100
AcDbEntity
  8
寸法線
100
AcDbDimension
  2
*D9
 10
182.9023933146165
 20
98.82793079058338
 30
0.0
 11
179.5056318982384
 21
103.8986321109339
 31
0.0
 70
    33
  1
13
 71
     5
 42
9.999999999999943
  3
sunpo
100
AcDbAlignedDimension
 13
173.4590156801734
 23
109.0236684771262
 33
0.0
 14
173.2540096293448
 24
99.02577007200518
 34
0.0
1001
ACAD
1000
DSTYLE
1002
{
1070
    40
1040
1.0
1002
}
  0
LINE
  5
3149
330
1F
100
AcDbEntity
  8
太線
100
AcDbLine
 10
165.2556909052479
 20
99.18977491266804
 30
0.0
 11
173.2540096293448
 21
99.02577007200518
 31
0.0
  0
LINE
  5
314A
330
1F
100
AcDbEntity
  8
破線
100
AcDbLine
 10
164.2764016698186
 20
100.2100653582629
 30
0.0
 11
174.2743000749398
 21
100.0050593074343
 31
0.0
  0
LINE
  5
314B
330
1F
100
AcDbEntity
  8
破線
100
AcDbLine
 10
165.2556909052479
 20
99.18977491266804
 30
0.0
 11
166.2759813508429
 21
100.1690641480973
 31
0.0
  0
LINE
  5
314C
330
1F
100
AcDbEntity
  8
太線
100
AcDbLine
 10
164.2764016698186
 20
100.2100653582629
 30
0.0
 11
165.2556909052479
 21
99.18977491266804
 31
0.0
  0
LINE
  5
314D
330
1F
100
AcDbEntity
  8
破線
100
AcDbLine
 10
173.2540096293448
 20
99.02577007200518
 30
0.0
 11
172.2747203939155
 21
100.0460605176
 31
0.0
  0
LINE
  5
314E
330
1F
100
AcDbEntity
  8
太線
100
AcDbLine
 10
173.2540096293448
 20
99.02577007200518
 30
0.0
 11
174.2743000749398
 21
100.0050593074343
 31
0.0
  0
CIRCLE
  5
314F
330
1F
100
AcDbEntity
  8
太線
100
AcDbCircle
 10
169.6648623689537
 20
119.1035693025788
 30
0.0
 40
4.999999999999998
  0
CIRCLE
  5
3150
330
1F
100
AcDbEntity
  8
太線
100
AcDbCircle
 10
169.6648623689537
 20
119.1035693025788
 30
0.0
 40
3.999999999999994
  0
LWPOLYLINE
  5
3151
330
1F
100
AcDbEntity
  8
太線
100
AcDbPolyline
 90
        6
 70
     1
 43
0.0
 10
172.66423189049
 20
119.0420674873303
 10
171.217809264106
 20
121.6703485959417
 10
168.2184397425697
 20
121.7318504111904
 10
166.6654928474173
 20
119.1650711178274
 10
168.1119154738014
 20
116.5367900092159
 10
171.1112849953377
 20
116.4752881939673
  0
LINE
  5
3152
330
1F
100
AcDbEntity
  8
太線
100
AcDbLine
 10
174.4588055206856
 20
109.0031678720434
 30
0.0
 11
164.4609071155645
 21
109.208173922872
 31
0.0
  0
LINE
  5
31C1
330
1F
100
AcDbEntity
  8
太線
100
AcDbLine
 10
42.55151402540432
 20
208.1211488256961
 30
0.0
 11
42.55151402540432
 21
180.4711488256961
 31
0.0
  0
LINE
  5
31C2
330
1F
100
AcDbEntity
  8
太線
100
AcDbLine
 10
42.55151402540432
 20
180.4711488256961
 30
0.0
 11
42.5515140254043
 21
152.8211488256961
 31
0.0
  0
DIMENSION
  5
31EF
330
1F
100
AcDbEntity
  8
寸法線
100
AcDbDimension
  2
*D10
 10
42.16283923760897
 20
102.3957161532387
 30
0.0
 11
89.50717663150665
 21
105.8957161532387
 31
0.0
 70
    32
  1
95
 71
     5
 42
94.68867478779534
  3
sunpo
100
AcDbAlignedDimension
 13
136.8515140254043
 23
75.14019332955459
 33
0.0
 14
42.16283923760897
 24
75.14019332955459
 34
0.0
100
AcDbRotatedDimension
1001
ACAD
1000
DSTYLE
1002
{
1070
    40
1040
1.0
1002
}
  0
DIMENSION
  5
3242
330
1F
100
AcDbEntity
  8
寸法線
100
AcDbDimension
  2
*D12
 10
151.0019197550298
 20
25.84019332955458
 30
0.0
 11
147.5019197550297
 21
50.49019332955461
 31
0.0
 70
    32
  1
49.3～50
 71
     5
 42
49.29999999999999
  3
sunpo
100
AcDbAlignedDimension
 13
136.8515140254043
 23
75.14019332955459
 33
0.0
 14
136.8515140254043
 24
25.84019332955458
 34
0.0
 50
90.0
100
AcDbRotatedDimension
1001
ACAD
1000
DSTYLE
1002
{
1070
    40
1040
1.0
1002
}
  0
DIMENSION
  5
3261
330
1F
100
AcDbEntity
  8
寸法線
100
AcDbDimension
  2
*D13
 10
280.7720886785809
 20
210.1211488256962
 30
0.0
 11
277.2720886785809
 21
180.4711488256961
 31
0.0
 70
    32
  1
60
 71
     5
 42
59.30000000000006
  3
sunpo
100
AcDbAlignedDimension
 13
259.0621096629795
 23
150.8211488256961
 33
0.0
 14
256.0621096629795
 24
210.1211488256962
 34
0.0
 50
90.0
100
AcDbRotatedDimension
1001
ACAD
1000
DSTYLE
1002
{
1070
    40
1040
1.0
1002
}
  0
DIMENSION
  5
32A4
330
1F
100
AcDbEntity
  8
寸法線
100
AcDbDimension
  2
*D15
 10
54.66900117207979
 20
84.95801532952908
 30
0.0
 11
51.16900117207977
 21
79.98269438163323
 31
0.0
 70
    32
  1
10
 71
     5
 42
9.950641895791704
  3
sunpo
100
AcDbAlignedDimension
 13
68.11295625751473
 23
75.00737343373737
 33
0.0
 14
68.11295625751473
 24
84.95801532952908
 34
0.0
 50
90.0
100
AcDbRotatedDimension
1001
ACAD
1000
DSTYLE
1002
{
1070
    40
1040
1.0
1002
}
  0
DIMENSION
  5
32CB
330
1F
100
AcDbEntity
  8
寸法線
100
AcDbDimension
  2
*D16
 10
96.84897664073949
 20
50.13651745300083
 30
0.0
 11
66.99849521809423
 21
50.56485343822865
 31
0.0
 70
   163
  1
49.3～50
 71
     5
 42
49.30000000000003
  3
sunpo
100
AcDbDiametricDimension
 15
47.55405141006914
 25
50.84386920610832
 35
0.0
 40
0.0
1001
ACAD
1000
DSTYLE
1002
{
1070
    40
1040
1.0
1070
   288
1070
     1
1002
}
  0
DIMENSION
  5
32E9
330
1F
100
AcDbEntity
  8
寸法線
100
AcDbDimension
  2
*D17
 10
132.265287327737
 20
190.9094855653012
 30
0.0
 11
124.8248904187261
 21
194.4099776912855
 31
0.0
 70
    32
  1
20
 71
     5
 42
14.88079381802185
  3
sunpo
100
AcDbAlignedDimension
 13
117.3844935097151
 23
181.8450754240153
 33
0.0
 14
132.265287327737
 24
181.8450754240153
 34
0.0
100
AcDbRotatedDimension
1001
ACAD
1000
DSTYLE
1002
{
1070
    40
1040
1.0
1002
}
  0
TEXT
  5
3315
330
1F
100
AcDbEntity
  8
文字
100
AcDbText
 10
168.7120243022759
 20
133.9773070316488
 30
0.0
 40
4.799999999999999
  1
8mm六角レンチ仕様
 51
15.0
  7
OKANO
100
AcDbText
  0
LEADER
  5
3316
330
1F
100
AcDbEntity
  8
寸法線
100
AcDbLeader
  3
sunpo
 76
     2
 10
169.7535637494147
 20
119.9948174750139
 30
0.0
 10
185.6808998612541
 20
132.5308426798711
 30
0.0
1001
ACAD
1000
DSTYLE
1002
{
1070
   147
1040
1.0
1070
    77
1070
     0
1002
}
  0
TEXT
  5
3348
330
1F
100
AcDbEntity
  8
寸法線
100
AcDbText
 10
170.4177531770897
 20
88.26025371296475
 30
0.0
 40
4.799999999999999
  1
PF3/8 inch19yama クボミ先ホーローセット使用
 51
15.0
  7
OKANO
100
AcDbText
  0
LINE
  5
3353
330
1F
100
AcDbEntity
  8
太線
100
AcDbLine
 10
96.85151402540434
 20
218.4711488256961
 30
0.0
 11
44.55151402540432
 21
218.4711488256961
 31
0.0
  0
LINE
  5
3355
330
1F
100
AcDbEntity
  8
太線
100
AcDbLine
 10
42.55151402540432
 20
208.1211488256961
 30
0.0
 11
42.55151402540432
 21
216.4711488256961
 31
0.0
  0
LINE
  5
3356
330
1F
100
AcDbEntity
  8
太線
100
AcDbLine
 10
101.8515140254043
 20
212.1211488256961
 30
0.0
 11
101.8515140254043
 21
216.4711488256961
 31
0.0
  0
LINE
  5
3357
330
1F
100
AcDbEntity
  8
太線
100
AcDbLine
 10
99.85151402540434
 20
218.4711488256961
 30
0.0
 11
96.85151402540434
 21
218.4711488256961
 31
0.0
  0
LINE
  5
3358
330
1F
100
AcDbEntity
  8
太線
100
AcDbLine
 10
101.8515140254043
 20
148.8211488256961
 30
0.0
 11
101.8515140254043
 21
144.4711488256961
 31
0.0
  0
LINE
  5
3359
330
1F
100
AcDbEntity
  8
太線
100
AcDbLine
 10
99.85151402540433
 20
142.4711488256962
 30
0.0
 11
44.55151402540431
 21
142.4711488256961
 31
0.0
  0
LINE
  5
335A
330
1F
100
AcDbEntity
  8
太線
100
AcDbLine
 10
42.55151402540431
 20
144.4711488256961
 30
0.0
 11
42.5515140254043
 21
152.8211488256961
 31
0.0
  0
CIRCLE
  5
335E
330
1F
100
AcDbEntity
  8
太線
100
AcDbCircle
 10
72.20151402540432
 20
206.4711488256961
 30
0.0
 40
7.500000000000017
  0
CIRCLE
  5
335F
330
1F
100
AcDbEntity
  8
太線
100
AcDbCircle
 10
72.20151402540432
 20
206.4711488256961
 30
0.0
 40
10.0
  0
CIRCLE
  5
3360
330
1F
100
AcDbEntity
  8
太線
100
AcDbCircle
 10
72.20151402540432
 20
206.4711488256961
 30
0.0
 40
4.999999999999998
  0
CIRCLE
  5
3361
330
1F
100
AcDbEntity
  8
太線
100
AcDbCircle
 10
72.20151402540432
 20
206.4711488256961
 30
0.0
 40
3.999999999999994
  0
CIRCLE
  5
3363
330
1F
100
AcDbEntity
  8
太線
100
AcDbCircle
 10
72.20151402540432
 20
154.4711488256961
 30
0.0
 40
7.500000000000017
  0
CIRCLE
  5
3364
330
1F
100
AcDbEntity
  8
太線
100
AcDbCircle
 10
72.20151402540432
 20
154.4711488256961
 30
0.0
 40
10.0
  0
CIRCLE
  5
3365
330
1F
100
AcDbEntity
  8
太線
100
AcDbCircle
 10
72.20151402540432
 20
154.4711488256961
 30
0.0
 40
4.999999999999998
  0
CIRCLE
  5
3366
330
1F
100
AcDbEntity
  8
太線
100
AcDbCircle
 10
72.20151402540432
 20
154.4711488256961
 30
0.0
 40
3.999999999999994
  0
CIRCLE
  5
3367
330
1F
100
AcDbEntity
  8
太線
100
AcDbCircle
 10
72.20151402540432
 20
180.4711488256961
 30
0.0
 40
2.5
  0
CIRCLE
  5
3368
330
1F
100
AcDbEntity
  8
太線
100
AcDbCircle
 10
72.20151402540432
 20
180.4711488256961
 30
0.0
 40
2.043533586536363
  0
LINE
  5
3372
330
1F
100
AcDbEntity
  8
破線
100
AcDbLine
 10
206.7621096629795
 20
152.8211488256961
 30
0.0
 11
206.7621096629795
 21
144.4711488256961
 31
0.0
  0
LINE
  5
3373
330
1F
100
AcDbEntity
  8
破線
100
AcDbLine
 10
256.0621096629795
 20
152.8211488256961
 30
0.0
 11
256.0621096629795
 21
144.4711488256961
 31
0.0
  0
LINE
  5
3374
330
1F
100
AcDbEntity
  8
破線
100
AcDbLine
 10
206.7621096629795
 20
210.1211488256961
 30
0.0
 11
206.7621096629795
 21
218.4711488256961
 31
0.0
  0
LINE
  5
3375
330
1F
100
AcDbEntity
  8
破線
100
AcDbLine
 10
256.0621096629795
 20
210.1211488256961
 30
0.0
 11
256.0621096629795
 21
218.4711488256961
 31
0.0
  0
LINE
  5
3376
330
1F
100
AcDbEntity
  8
太線
100
AcDbLine
 10
201.7621096629795
 20
216.3491578792416
 30
0.0
 11
197.7714544482829
 21
214.7734868533787
 31
0.0
  0
LINE
  5
3377
330
1F
100
AcDbEntity
  8
太線
100
AcDbLine
 10
201.7621096629795
 20
197.817431855244
 30
0.0
 11
197.4147475876238
 21
199.7777287793246
 31
0.0
  0
LINE
  5
3378
330
1F
100
AcDbEntity
  8
細線
100
AcDbLine
 10
197.0155517745198
 20
202.2879317113397
 30
0.0
 11
207.1624589198011
 21
202.046565361248
 31
0.0
  0
LINE
  5
3379
330
1F
100
AcDbEntity
  8
細線
100
AcDbLine
 10
196.9083757726986
 20
203.2907640017037
 30
0.0
 11
207.0005750332759
 21
203.0506989981468
 31
0.0
  0
LINE
  5
337A
330
1F
100
AcDbEntity
  8
細線
100
AcDbLine
 10
197.2533563482926
 20
212.2851037607091
 30
0.0
 11
207.4002634935737
 21
212.0437374106174
 31
0.0
  0
LINE
  5
337B
330
1F
100
AcDbEntity
  8
細線
100
AcDbLine
 10
197.0986194317167
 20
211.2885016411992
 30
0.0
 11
207.1908186922941
 21
211.0484366376423
 31
0.0
  0
ARC
  5
337C
330
1F
100
AcDbEntity
  8
太線
100
AcDbCircle
 10
231.4121096629795
 20
206.4711488256961
 30
0.0
 40
34.65
100
AcDbArc
 50
166.1367294756544
 51
191.137973934145
  0
LINE
  5
337D
330
1F
100
AcDbEntity
  8
太線
100
AcDbLine
 10
201.7621096629795
 20
164.3491578792415
 30
0.0
 11
197.7714544482829
 21
162.7734868533787
 31
0.0
  0
LINE
  5
337E
330
1F
100
AcDbEntity
  8
太線
100
AcDbLine
 10
201.7621096629796
 20
145.817431855244
 30
0.0
 11
197.4147475876239
 21
147.7777287793246
 31
0.0
  0
LINE
  5
337F
330
1F
100
AcDbEntity
  8
細線
100
AcDbLine
 10
197.0155517745198
 20
150.2879317113397
 30
0.0
 11
207.1624589198012
 21
150.046565361248
 31
0.0
  0
LINE
  5
3380
330
1F
100
AcDbEntity
  8
細線
100
AcDbLine
 10
196.9083757726986
 20
151.2907640017037
 30
0.0
 11
207.000575033276
 21
151.0506989981468
 31
0.0
  0
LINE
  5
3381
330
1F
100
AcDbEntity
  8
細線
100
AcDbLine
 10
197.2533563482926
 20
160.2851037607091
 30
0.0
 11
207.4002634935738
 21
160.0437374106174
 31
0.0
  0
LINE
  5
3382
330
1F
100
AcDbEntity
  8
細線
100
AcDbLine
 10
197.0986194317168
 20
159.2885016411992
 30
0.0
 11
207.1908186922941
 21
159.0484366376423
 31
0.0
  0
ARC
  5
3383
330
1F
100
AcDbEntity
  8
太線
100
AcDbCircle
 10
231.4121096629795
 20
154.4711488256961
 30
0.0
 40
34.65
100
AcDbArc
 50
166.1367294756544
 51
191.137973934145
  0
LINE
  5
3384
330
1F
100
AcDbEntity
  8
太線
100
AcDbLine
 10
103.8515140254043
 20
210.1211488256961
 30
0.0
 11
134.8515140254043
 21
210.1211488256961
 31
0.0
  0
TEXT
  5
33B5
330
1F
100
AcDbEntity
  8
太線
100
AcDbText
 10
53.90947857428614
 20
169.1345315945097
 30
0.0
 40
5.0
  1
Ｍ5-8 SUS
 51
15.0
  7
OKANO
100
AcDbText
  0
ARC
  5
33C0
330
1F
100
AcDbEntity
  8
太線
100
AcDbCircle
 10
70.84005157525689
 20
180.234064600243
 30
0.0
 40
0.488593508593816
100
AcDbArc
 50
324.8783938121186
 51
54.8783938121182
  0
ARC
  5
33C1
330
1F
100
AcDbEntity
  8
太線
100
AcDbCircle
 10
73.56297647555172
 20
180.7082330511493
 30
0.0
 40
0.488593508593816
100
AcDbArc
 50
144.8783938121186
 51
234.8783938121182
  0
CIRCLE
  5
33C2
330
1F
100
AcDbEntity
  8
太線
100
AcDbCircle
 10
72.20151402540432
 20
180.4711488256961
 30
0.0
 40
3.908748068750528
  0
LINE
  5
33C3
330
1F
100
AcDbEntity
  8
太線
100
AcDbLine
 10
74.11281272003311
 20
179.7241401929213
 30
0.0
 11
73.28188191937815
 21
180.3085963822491
 31
0.0
  0
ARC
  5
33C4
330
1F
100
AcDbEntity
  8
太線
100
AcDbCircle
 10
72.20151402540432
 20
180.4711488256961
 30
0.0
 40
2.052092736094021
100
AcDbArc
 50
311.1042468140921
 51
338.6525408101458
  0
ARC
  5
33C5
330
1F
100
AcDbEntity
  8
太線
100
AcDbCircle
 10
72.20151402540432
 20
180.4711488256961
 30
0.0
 40
2.052092736094021
100
AcDbArc
 50
221.1042468140915
 51
248.6525408101458
  0
LINE
  5
33C6
330
1F
100
AcDbEntity
  8
太線
100
AcDbLine
 10
70.65523205482918
 20
179.1220392434144
 30
0.0
 11
71.23968824415704
 21
179.9529700440694
 31
0.0
  0
LINE
  5
33C7
330
1F
100
AcDbEntity
  8
太線
100
AcDbLine
 10
71.45450539262945
 20
178.5598501310673
 30
0.0
 11
72.03896158195729
 21
179.3907809317223
 31
0.0
  0
ARC
  5
33C8
330
1F
100
AcDbEntity
  8
太線
100
AcDbCircle
 10
72.43859825085745
 20
179.1096863755487
 30
0.0
 40
0.488593508593816
100
AcDbArc
 50
54.8783938121182
 51
144.8783938121186
  0
LINE
  5
33C9
330
1F
100
AcDbEntity
  8
太線
100
AcDbLine
 10
72.71969280703101
 20
179.5093230444488
 30
0.0
 11
73.55062360768595
 21
178.924866855121
 31
0.0
  0
LINE
  5
33CA
330
1F
100
AcDbEntity
  8
太線
100
AcDbLine
 10
71.12114613143045
 20
180.6337012691431
 30
0.0
 11
70.29021533077551
 21
181.218157458471
 31
0.0
  0
LINE
  5
33CB
330
1F
100
AcDbEntity
  8
太線
100
AcDbLine
 10
70.85240444312266
 20
182.0174307962712
 30
0.0
 11
71.68333524377761
 21
181.4329746069434
 31
0.0
  0
LINE
  5
33CC
330
1F
100
AcDbEntity
  8
太線
100
AcDbLine
 10
72.36406646885129
 20
181.55151671967
 30
0.0
 11
72.94852265817915
 21
182.3824475203249
 31
0.0
  0
LINE
  5
33CD
330
1F
100
AcDbEntity
  8
太線
100
AcDbLine
 10
73.16333980665156
 20
180.9893276073228
 30
0.0
 11
73.74779599597943
 21
181.8202584079777
 31
0.0
  0
ARC
  5
33CE
330
1F
100
AcDbEntity
  8
太線
100
AcDbCircle
 10
72.20151402540432
 20
180.4711488256961
 30
0.0
 40
2.052092736094021
100
AcDbArc
 50
41.10424681409157
 51
68.65254081014585
  0
ARC
  5
33CF
330
1F
100
AcDbEntity
  8
太線
100
AcDbCircle
 10
71.96442979995118
 20
181.8326112758436
 30
0.0
 40
0.488593508593816
100
AcDbArc
 50
234.8783938121182
 51
324.8783938121186
  0
ARC
  5
33D0
330
1F
100
AcDbEntity
  8
太線
100
AcDbCircle
 10
72.20151402540432
 20
180.4711488256961
 30
0.0
 40
2.052092736094021
100
AcDbArc
 50
131.1042468140918
 51
158.652540810146
  0
ARC
  5
33DE
330
1F
100
AcDbEntity
  8
太線
100
AcDbCircle
 10
44.55151402540431
 20
144.4711488256961
 30
0.0
 40
2.0
100
AcDbArc
 50
180.0000000000001
 51
270.0
  0
ARC
  5
33DF
330
1F
100
AcDbEntity
  8
太線
100
AcDbCircle
 10
99.85151402540434
 20
216.4711488256961
 30
0.0
 40
2.0
100
AcDbArc
 50
0.0
 51
90.0
  0
ARC
  5
33E0
330
1F
100
AcDbEntity
  8
太線
100
AcDbCircle
 10
44.55151402540432
 20
216.4711488256961
 30
0.0
 40
2.0
100
AcDbArc
 50
90.0
 51
180.0
  0
ARC
  5
33E1
330
1F
100
AcDbEntity
  8
太線
100
AcDbCircle
 10
103.8515140254043
 20
148.8211488256961
 30
0.0
 40
2.0
100
AcDbArc
 50
90.0
 51
180.0
  0
ARC
  5
33E2
330
1F
100
AcDbEntity
  8
太線
100
AcDbCircle
 10
103.8515140254043
 20
212.1211488256961
 30
0.0
 40
2.0
100
AcDbArc
 50
179.9999999999998
 51
270.0
  0
DIMENSION
  5
33E3
330
1F
100
AcDbEntity
  8
寸法線
100
AcDbDimension
  2
*D18
 10
30.13671629614782
 20
142.4711488256961
 30
0.0
 11
26.6367162961478
 21
180.4711488256961
 31
0.0
 70
    32
 71
     5
 42
76.0
  3
sunpo
100
AcDbAlignedDimension
 13
44.80811574320255
 23
218.4711488256961
 33
0.0
 14
44.55151402540431
 24
142.4711488256961
 34
0.0
 50
90.0
100
AcDbRotatedDimension
1001
ACAD
1000
DSTYLE
1002
{
1070
    40
1040
1.0
1002
}
  0
DIMENSION
  5
33F0
330
1F
100
AcDbEntity
  8
寸法線
100
AcDbDimension
  2
*D19
 10
55.82475856191127
 20
142.4711488256962
 30
0.0
 11
52.32426643592699
 21
148.4711488256961
 31
0.0
 70
    32
 71
     5
 42
12.0
  3
sunpo
100
AcDbAlignedDimension
 13
72.20151402540432
 23
154.4711488256961
 33
0.0
 14
72.20151402540432
 24
142.4711488256961
 34
0.0
 50
90.0
100
AcDbRotatedDimension
1001
ACAD
1000
DSTYLE
1002
{
1070
    40
1040
1.0
1002
}
  0
TEXT
  5
3406
330
1F
100
AcDbEntity
  8
文字
100
AcDbText
 10
181.7107369533887
 20
61.65323575415607
 30
0.0
 40
4.799999999999999
  1
三方止まり、1箇所貫通可
 51
15.0
  7
OKANO
100
AcDbText
  0
ARC
  5
340E
330
1F
100
AcDbEntity
  8
太線
100
AcDbCircle
 10
99.85151402540433
 20
144.4711488256961
 30
0.0
 40
2.0
100
AcDbArc
 50
270.0
 51
359.9999999999998
  0
LINE
  5
3412
330
1F
100
AcDbEntity
  8
細線
100
AcDbLine
 10
206.8469621877313
 20
182.5146824122325
 30
0.0
 11
201.8326155753401
 21
182.5146824122325
 31
0.0
  0
LINE
  5
3413
330
1F
100
AcDbEntity
  8
細線
100
AcDbLine
 10
206.7621096629795
 20
178.6941538825743
 30
0.0
 11
201.8154073302513
 21
178.6941538825743
 31
0.0
  0
LINE
  5
3414
330
1F
100
AcDbEntity
  8
細線
100
AcDbLine
 10
206.7297579905598
 20
181.8660677997736
 30
0.0
 11
202.1972837706286
 21
181.8660677997736
 31
0.0
  0
LINE
  5
3415
330
1F
100
AcDbEntity
  8
細線
100
AcDbLine
 10
206.6038570767832
 20
179.2257564488196
 30
0.0
 11
202.1972837706286
 21
179.2257564488196
 31
0.0
  0
VIEWPORT
  5
2E
330
1B
100
AcDbEntity
 67
     1
  8
0
100
AcDbViewport
 10
311.7912689425189
 20
122.4799709109428
 30
0.0
 40
875.2733534912172
 41
385.8425423642064
 68
     2
 69
     1
 12
311.7912689425189
 22
122.4799709109428
 13
0.0
 23
0.0
 14
10.0
 24
10.0
 15
10.0
 25
10.0
 16
0.0
 26
0.0
 36
1.0
 17
0.0
 27
0.0
 37
0.0
 42
50.0
 43
0.0
 44
0.0
 45
385.8425423642064
 50
0.0
 51
0.0
 72
   100
 90
    32800
  1

281
     0
 71
     1
 74
     0
110
0.0
120
0.0
130
0.0
111
1.0
121
0.0
131
0.0
112
0.0
122
1.0
132
0.0
 79
     0
146
0.0
  0
VIEWPORT
  5
30
330
1B
100
AcDbEntity
 67
     1
  8
70-0-CON
100
AcDbViewport
 10
141.8594093064315
 20
100.3480256368386
 30
0.0
 40
261.6199023344245
 41
192.6196987113174
 68
     1
 69
     2
 12
164.6125602177456
 22
111.6118513220572
 13
0.0
 23
0.0
 14
5.0
 24
5.0
 15
10.0
 25
10.0
 16
0.0
 26
0.0
 36
1.0
 17
0.0
 27
0.0
 37
0.0
 42
50.0
 43
0.0
 44
0.0
 45
258.1087008666203
 50
0.0
 51
0.0
 72
   100
 90
    32864
  1

281
     0
 71
     1
 74
     0
110
0.0
120
0.0
130
0.0
111
1.0
121
0.0
131
0.0
112
0.0
122
1.0
132
0.0
 79
     0
146
0.0
  0
LWPOLYLINE
  5
45
330
1B
100
AcDbEntity
 67
     1
  8
50-0-CON
100
AcDbPolyline
 90
        4
 70
     1
 43
0.0
 10
11.04945813921926
 20
4.038176281179858
 10
272.2125713060605
 20
4.033520706629644
 10
273.4987754093466
 20
195.9297862125246
 10
11.04945813921926
 20
196.6578749924973
  0
LINE
  5
4A
330
1B
100
AcDbEntity
 67
     1
  8
50-0-CON
100
AcDbLine
 10
10.38768783662635
 20
100.3480256368386
 30
0.0
 11
-4.391850629656119
 21
100.3480256368386
 31
0.0
  0
LINE
  5
4B
330
1B
100
AcDbEntity
 67
     1
  8
50-0-CON
100
AcDbLine
 10
141.8594093064315
 20
197.098652626247
 30
0.0
 11
141.8594093064315
 21
202.387980773708
 31
0.0
  0
LINE
  5
4C
330
1B
100
AcDbEntity
 67
     1
  8
50-0-CON
100
AcDbLine
 10
272.4487699456857
 20
100.7888032705883
 30
0.0
 11
278.8458837249377
 21
100.7888032705883
 31
0.0
  0
LINE
  5
4D
330
1B
100
AcDbEntity
 67
     1
  8
50-0-CON
100
AcDbLine
 10
140.9770484758805
 20
4.038176281179858
 30
0.0
 11
140.9770484758805
 21
-3.455038652015446
 31
0.0
  0
ENDSEC
  0
SECTION
  2
OBJECTS
  0
DICTIONARY
  5
C
330
0
100
AcDbDictionary
281
     1
  3
ACAD_GROUP
350
D
  3
ACAD_LAYOUT
350
1A
  3
ACAD_MLINESTYLE
350
17
  3
ACAD_PLOTSETTINGS
350
19
  3
ACAD_PLOTSTYLENAME
350
E
  3
AcadDim
350
13D0
  3
AcDbVariableDictionary
350
6AD
  3
DWGPROPS
350
30F
  0
DICTIONARY
  5
D
102
{ACAD_REACTORS
330
C
102
}
330
C
100
AcDbDictionary
281
     1
  0
DICTIONARY
  5
1A
102
{ACAD_REACTORS
330
C
102
}
330
C
100
AcDbDictionary
281
     1
  3
A4
350
1E
  3
Model
350
22
  0
DICTIONARY
  5
17
102
{ACAD_REACTORS
330
C
102
}
330
C
100
AcDbDictionary
281
     1
  3
Standard
350
18
  0
DICTIONARY
  5
19
102
{ACAD_REACTORS
330
C
102
}
330
C
100
AcDbDictionary
281
     1
  0
ACDBDICTIONARYWDFLT
  5
E
102
{ACAD_REACTORS
330
C
102
}
330
C
100
AcDbDictionary
281
     1
  3
Normal
350
F
100
AcDbDictionaryWithDefault
340
F
  0
XRECORD
  5
13D0
102
{ACAD_REACTORS
330
C
102
}
330
C
100
AcDbXrecord
280
     1
 90
   990106
  3

 60
     0
 61
     0
 62
     1
 63
     3
 64
     0
 65
     0
 66
     0
 67
     3
 68
     1
 69
     0
 70
     0
 71
     0
 72
     0
 40
0.0
170
     0
  0
DICTIONARY
  5
6AD
102
{ACAD_REACTORS
330
C
102
}
330
C
100
AcDbDictionary
281
     1
  3
SORTENTS
350
6AE
  0
XRECORD
  5
30F
102
{ACAD_REACTORS
330
C
102
}
330
C
100
AcDbXrecord
280
     1
  1
DWGPROPS COOKIE
  2

  3

  4

  6

  7

  8

  9

300
=
301
=
302
=
303
=
304
=
305
=
306
=
307
=
308
=
309
=
 40
0.3303803125
 41
2452362.482225463
 42
2452370.969861285
  1

 90
        0
  0
LAYOUT
  5
1E
102
{ACAD_REACTORS
330
1A
102
}
330
1A
100
AcDbPlotSettings
  1

  2
EPSON PM-920C
  4
A4
  6

 40
3.757083177566528
 41
14.7637300491333
 42
3.757080078125
 43
3.757080078125
 44
209.9733276367187
 45
296.9683227539062
 46
0.0
 47
0.0
 48
0.0
 49
0.0
140
0.0
141
0.0
142
1.0
143
1.0
 70
   688
 72
     1
 73
     1
 74
     5
  7
joint.ctb
 75
    16
147
1.0
148
0.0
149
0.0
100
AcDbLayout
  1
A4
 70
     1
 71
     1
 10
-3.757080078125
 20
-3.757083177566528
 11
293.2112426757812
 21
206.2162444591522
 12
0.0
 22
0.0
 32
0.0
 14
-4.391850629656119
 24
-3.455038652015446
 34
0.0
 15
278.8458837249377
 25
202.387980773708
 35
0.0
146
0.0
 13
0.0
 23
0.0
 33
0.0
 16
1.0
 26
0.0
 36
0.0
 17
0.0
 27
1.0
 37
0.0
 76
     0
330
1B
331
30
  0
LAYOUT
  5
22
102
{ACAD_REACTORS
330
1A
102
}
330
1A
100
AcDbPlotSettings
  1

  2
EPSON PM-920C
  4
A4
  6

 40
3.757083177566528
 41
14.7637300491333
 42
3.757080078125
 43
3.757080078125
 44
209.9733276367187
 45
296.9683227539062
 46
0.0
 47
0.0
 48
0.0
 49
0.0
140
0.0
141
0.0
142
1.0
143
1.0
 70
 11952
 72
     1
 73
     1
 74
     0
  7

 75
     0
147
1.0
148
-45.64199848979289
149
-84.48806419330498
100
AcDbLayout
  1
Model
 70
     1
 71
     0
 10
0.0
 20
0.0
 11
12.0
 21
9.0
 12
0.0
 22
0.0
 32
0.0
 14
0.0
 24
0.0
 34
0.0
 15
0.0
 25
0.0
 35
0.0
146
0.0
 13
0.0
 23
0.0
 33
0.0
 16
1.0
 26
0.0
 36
0.0
 17
0.0
 27
1.0
 37
0.0
 76
     0
330
1F
  0
MLINESTYLE
  5
18
102
{ACAD_REACTORS
330
17
102
}
330
17
100
AcDbMlineStyle
  2
STANDARD
 70
     0
  3

 62
   256
 51
90.0
 52
90.0
 71
     2
 49
0.5
 62
   256
  6
BYLAYER
 49
-0.5
 62
   256
  6
BYLAYER
  0
ACDBPLACEHOLDER
  5
F
102
{ACAD_REACTORS
330
E
102
}
330
E
  0
DICTIONARYVAR
  5
6AE
102
{ACAD_REACTORS
330
6AD
102
}
330
6AD
100
DictionaryVariables
280
     0
  1
96
  0
ENDSEC
  0
EOF
