  0
SECTION
  2
HEADER
  9
$ACADVER
  1
AC1015
  9
$ACADMAINTVER
 70
     6
  9
$DWGCODEPAGE
  3
ANSI_932
  9
$INSBASE
 10
0.0
 20
0.0
 30
0.0
  9
$EXTMIN
 10
-20.91069924183786
 20
-25.21600865763969
 30
0.0
  9
$EXTMAX
 10
328.9041682279316
 20
229.9081983468096
 30
0.0
  9
$LIMMIN
 10
0.0
 20
0.0
  9
$LIMMAX
 10
420.0
 20
297.0
  9
$ORTHOMODE
 70
     0
  9
$REGENMODE
 70
     1
  9
$FILLMODE
 70
     1
  9
$QTEXTMODE
 70
     0
  9
$MIRRTEXT
 70
     1
  9
$LTSCALE
 40
1.0
  9
$ATTMODE
 70
     1
  9
$TEXTSIZE
 40
5.0
  9
$TRACEWID
 40
1.0
  9
$TEXTSTYLE
  7
OKANO
  9
$CLAYER
  8
寸法線
  9
$CELTYPE
  6
ByLayer
  9
$CECOLOR
 62
   256
  9
$CELTSCALE
 40
1.0
  9
$DISPSILH
 70
     0
  9
$DIMSCALE
 40
0.0
  9
$DIMASZ
 40
3.0
  9
$DIMEXO
 40
2.0
  9
$DIMDLI
 40
8.0
  9
$DIMRND
 40
0.0
  9
$DIMDLE
 40
0.0
  9
$DIMEXE
 40
3.0
  9
$DIMTP
 40
0.0
  9
$DIMTM
 40
0.0
  9
$DIMTXT
 40
5.0
  9
$DIMCEN
 40
2.5
  9
$DIMTSZ
 40
0.0
  9
$DIMTOL
 70
     0
  9
$DIMLIM
 70
     0
  9
$DIMTIH
 70
     0
  9
$DIMTOH
 70
     0
  9
$DIMSE1
 70
     0
  9
$DIMSE2
 70
     0
  9
$DIMTAD
 70
     1
  9
$DIMZIN
 70
     8
  9
$DIMBLK
  1
Closed
  9
$DIMASO
 70
     1
  9
$DIMSHO
 70
     1
  9
$DIMPOST
  1

  9
$DIMAPOST
  1

  9
$DIMALT
 70
     0
  9
$DIMALTD
 70
     3
  9
$DIMALTF
 40
0.03937007874016
  9
$DIMLFAC
 40
1.0
  9
$DIMTOFL
 70
     1
  9
$DIMTVP
 40
0.0
  9
$DIMTIX
 70
     0
  9
$DIMSOXD
 70
     0
  9
$DIMSAH
 70
     0
  9
$DIMBLK1
  1

  9
$DIMBLK2
  1

  9
$DIMSTYLE
  2
sunpo
  9
$DIMCLRD
 70
     0
  9
$DIMCLRE
 70
     0
  9
$DIMCLRT
 70
     0
  9
$DIMTFAC
 40
1.0
  9
$DIMGAP
 40
1.0
  9
$DIMJUST
 70
     0
  9
$DIMSD1
 70
     0
  9
$DIMSD2
 70
     0
  9
$DIMTOLJ
 70
     0
  9
$DIMTZIN
 70
     8
  9
$DIMALTZ
 70
     0
  9
$DIMALTTZ
 70
     0
  9
$DIMUPT
 70
     0
  9
$DIMDEC
 70
     2
  9
$DIMTDEC
 70
     2
  9
$DIMALTU
 70
     2
  9
$DIMALTTD
 70
     3
  9
$DIMTXSTY
  7
OKANO
  9
$DIMAUNIT
 70
     0
  9
$DIMADEC
 70
     0
  9
$DIMALTRND
 40
0.0
  9
$DIMAZIN
 70
     0
  9
$DIMDSEP
 70
    46
  9
$DIMATFIT
 70
     3
  9
$DIMFRAC
 70
     0
  9
$DIMLDRBLK
  1
Closed
  9
$DIMLUNIT
 70
     2
  9
$DIMLWD
 70
    -2
  9
$DIMLWE
 70
    -2
  9
$DIMTMOVE
 70
     0
  9
$LUNITS
 70
     2
  9
$LUPREC
 70
     2
  9
$SKETCHINC
 40
1.0
  9
$FILLETRAD
 40
3.0
  9
$AUNITS
 70
     0
  9
$AUPREC
 70
     0
  9
$MENU
  1
.
  9
$ELEVATION
 40
0.0
  9
$PELEVATION
 40
0.0
  9
$THICKNESS
 40
0.0
  9
$LIMCHECK
 70
     0
  9
$CHAMFERA
 40
10.0
  9
$CHAMFERB
 40
10.0
  9
$CHAMFERC
 40
20.0
  9
$CHAMFERD
 40
0.0
  9
$SKPOLY
 70
     0
  9
$TDCREATE
 40
2452362.482225463
  9
$TDUCREATE
 40
2452362.107225463
  9
$TDUPDATE
 40
2456276.641345926
  9
$TDUUPDATE
 40
2456276.266345926
  9
$TDINDWG
 40
2.4734020602
  9
$TDUSRTIMER
 40
2.4734020602
  9
$USRTIMER
 70
     1
  9
$ANGBASE
 50
0.0
  9
$ANGDIR
 70
     0
  9
$PDMODE
 70
     0
  9
$PDSIZE
 40
0.0
  9
$PLINEWID
 40
0.0
  9
$SPLFRAME
 70
     0
  9
$SPLINETYPE
 70
     6
  9
$SPLINESEGS
 70
     8
  9
$HANDSEED
  5
3ACF
  9
$SURFTAB1
 70
     6
  9
$SURFTAB2
 70
     6
  9
$SURFTYPE
 70
     6
  9
$SURFU
 70
     6
  9
$SURFV
 70
     6
  9
$UCSBASE
  2

  9
$UCSNAME
  2

  9
$UCSORG
 10
0.0
 20
0.0
 30
0.0
  9
$UCSXDIR
 10
1.0
 20
0.0
 30
0.0
  9
$UCSYDIR
 10
0.0
 20
1.0
 30
0.0
  9
$UCSORTHOREF
  2

  9
$UCSORTHOVIEW
 70
     0
  9
$UCSORGTOP
 10
0.0
 20
0.0
 30
0.0
  9
$UCSORGBOTTOM
 10
0.0
 20
0.0
 30
0.0
  9
$UCSORGLEFT
 10
0.0
 20
0.0
 30
0.0
  9
$UCSORGRIGHT
 10
0.0
 20
0.0
 30
0.0
  9
$UCSORGFRONT
 10
0.0
 20
0.0
 30
0.0
  9
$UCSORGBACK
 10
0.0
 20
0.0
 30
0.0
  9
$PUCSBASE
  2

  9
$PUCSNAME
  2

  9
$PUCSORG
 10
0.0
 20
0.0
 30
0.0
  9
$PUCSXDIR
 10
1.0
 20
0.0
 30
0.0
  9
$PUCSYDIR
 10
0.0
 20
1.0
 30
0.0
  9
$PUCSORTHOREF
  2

  9
$PUCSORTHOVIEW
 70
     0
  9
$PUCSORGTOP
 10
0.0
 20
0.0
 30
0.0
  9
$PUCSORGBOTTOM
 10
0.0
 20
0.0
 30
0.0
  9
$PUCSORGLEFT
 10
0.0
 20
0.0
 30
0.0
  9
$PUCSORGRIGHT
 10
0.0
 20
0.0
 30
0.0
  9
$PUCSORGFRONT
 10
0.0
 20
0.0
 30
0.0
  9
$PUCSORGBACK
 10
0.0
 20
0.0
 30
0.0
  9
$USERI1
 70
     0
  9
$USERI2
 70
     0
  9
$USERI3
 70
     0
  9
$USERI4
 70
     0
  9
$USERI5
 70
     0
  9
$USERR1
 40
0.0
  9
$USERR2
 40
0.0
  9
$USERR3
 40
0.0
  9
$USERR4
 40
0.0
  9
$USERR5
 40
0.0
  9
$WORLDVIEW
 70
     1
  9
$SHADEDGE
 70
     3
  9
$SHADEDIF
 70
    70
  9
$TILEMODE
 70
     0
  9
$MAXACTVP
 70
    64
  9
$PINSBASE
 10
0.0
 20
0.0
 30
0.0
  9
$PLIMCHECK
 70
     0
  9
$PEXTMIN
 10
-4.391850629656119
 20
-3.455038652015446
 30
0.0
  9
$PEXTMAX
 10
278.8458837249377
 20
202.387980773708
 30
0.0
  9
$PLIMMIN
 10
-3.757080078125
 20
-3.757083177566528
  9
$PLIMMAX
 10
293.2112426757812
 20
206.2162444591522
  9
$UNITMODE
 70
     0
  9
$VISRETAIN
 70
     1
  9
$PLINEGEN
 70
     0
  9
$PSLTSCALE
 70
     1
  9
$TREEDEPTH
 70
  3020
  9
$CMLSTYLE
  2
Standard
  9
$CMLJUST
 70
     0
  9
$CMLSCALE
 40
20.0
  9
$PROXYGRAPHICS
 70
     1
  9
$MEASUREMENT
 70
     1
  9
$CELWEIGHT
370
    -1
  9
$ENDCAPS
280
     0
  9
$JOINSTYLE
280
     0
  9
$LWDISPLAY
290
     0
  9
$INSUNITS
 70
     4
  9
$HYPERLINKBASE
  1

  9
$STYLESHEET
  1

  9
$XEDIT
290
     1
  9
$CEPSNTYPE
380
     0
  9
$PSTYLEMODE
290
     1
  9
$FINGERPRINTGUID
  2
{FF7F33C3-4233-11D6-AEE0-0000F45FD7F4}
  9
$VERSIONGUID
  2
{F739E0D5-1864-49DC-A31A-F258DEC807BE}
  9
$EXTNAMES
290
     1
  9
$PSVPSCALE
 40
0.0
  9
$OLESTARTUP
290
     0
  0
ENDSEC
  0
SECTION
  2
CLASSES
  0
CLASS
  1
ACDBDICTIONARYWDFLT
  2
AcDbDictionaryWithDefault
  3
AutoCAD 2000
 90
        0
280
     0
281
     0
  0
CLASS
  1
ACDBPLACEHOLDER
  2
AcDbPlaceHolder
  3
AutoCAD 2000
 90
        0
280
     0
281
     0
  0
CLASS
  1
LAYOUT
  2
AcDbLayout
  3
AutoCAD 2000
 90
        0
280
     0
281
     0
  0
CLASS
  1
DICTIONARYVAR
  2
AcDbDictionaryVar
  3
AutoCAD 2000
 90
        0
280
     0
281
     0
  0
ENDSEC
  0
SECTION
  2
TABLES
  0
TABLE
  2
VPORT
  5
8
330
0
100
AcDbSymbolTable
 70
     1
  0
VPORT
  5
3AC8
330
8
100
AcDbSymbolTableRecord
100
AcDbViewportTableRecord
  2
*Active
 70
     0
 10
0.0
 20
0.0
 11
1.0
 21
1.0
 12
213.1892650640433
 22
148.618673552167
 13
0.0
 23
0.0
 14
5.0
 24
5.0
 15
10.0
 25
10.0
 16
0.0
 26
0.0
 36
1.0
 17
0.0
 27
0.0
 37
0.0
 40
368.7399401910262
 41
2.124716553287981
 42
50.0
 43
0.0
 44
0.0
 50
0.0
 51
0.0
 71
     0
 72
   100
 73
     1
 74
     3
 75
     0
 76
     0
 77
     0
 78
     0
281
     0
 65
     1
110
0.0
120
0.0
130
0.0
111
1.0
121
0.0
131
0.0
112
0.0
122
1.0
132
0.0
 79
     0
146
0.0
  0
ENDTAB
  0
TABLE
  2
LTYPE
  5
5
330
0
100
AcDbSymbolTable
 70
     5
  0
LTYPE
  5
14
330
5
100
AcDbSymbolTableRecord
100
AcDbLinetypeTableRecord
  2
ByBlock
 70
     0
  3

 72
    65
 73
     0
 40
0.0
  0
LTYPE
  5
15
330
5
100
AcDbSymbolTableRecord
100
AcDbLinetypeTableRecord
  2
ByLayer
 70
     0
  3

 72
    65
 73
     0
 40
0.0
  0
LTYPE
  5
16
330
5
100
AcDbSymbolTableRecord
100
AcDbLinetypeTableRecord
  2
Continuous
 70
     0
  3
Solid line
 72
    65
 73
     0
 40
0.0
  0
LTYPE
  5
33
330
5
100
AcDbSymbolTableRecord
100
AcDbLinetypeTableRecord
  2
DASHED2
 70
     0
  3
Dashed (.5x) _ _ _ _ _ _ _ _ _ _ _ _ _ _ _ _ _
 72
    65
 73
     2
 40
9.524999999999998
 49
6.349999999999999
 74
     0
 49
-3.174999999999999
 74
     0
  0
LTYPE
  5
34
330
5
100
AcDbSymbolTableRecord
100
AcDbLinetypeTableRecord
  2
CENTER2
 70
     0
  3
Center (.5x) ___ _ ___ _ ___ _ ___ _ ___ _ ___
 72
    65
 73
     4
 40
28.57499999999999
 49
19.05
 74
     0
 49
-3.174999999999999
 74
     0
 49
3.174999999999999
 74
     0
 49
-3.174999999999999
 74
     0
  0
LTYPE
  5
35
330
5
100
AcDbSymbolTableRecord
100
AcDbLinetypeTableRecord
  2
PHANTOM2
 70
     0
  3
Phantom (.5x) ___ _ _ ___ _ _ ___ _ _ ___ _ _
 72
    65
 73
     6
 40
31.75
 49
15.875
 74
     0
 49
-3.174999999999999
 74
     0
 49
3.174999999999999
 74
     0
 49
-3.174999999999999
 74
     0
 49
3.174999999999999
 74
     0
 49
-3.174999999999999
 74
     0
  0
LTYPE
  5
36
330
5
100
AcDbSymbolTableRecord
100
AcDbLinetypeTableRecord
  2
HIDDEN2
 70
     0
  3
Hidden (.5x) _ _ _ _ _ _ _ _ _ _ _ _ _ _ _ _ _
 72
    65
 73
     2
 40
4.762499999999999
 49
3.174999999999999
 74
     0
 49
-1.587499999999999
 74
     0
  0
ENDTAB
  0
TABLE
  2
LAYER
  5
2
330
0
100
AcDbSymbolTable
 70
    13
  0
LAYER
  5
10
330
2
100
AcDbSymbolTableRecord
100
AcDbLayerTableRecord
  2
0
 70
     0
 62
     7
  6
Continuous
370
    -3
390
F
  0
LAYER
  5
40
330
2
100
AcDbSymbolTableRecord
100
AcDbLayerTableRecord
  2
50-0-CON
 70
     0
 62
     4
  6
Continuous
370
    50
390
F
  0
LAYER
  5
41
330
2
100
AcDbSymbolTableRecord
100
AcDbLayerTableRecord
  2
70-0-CON
 70
     0
 62
   202
  6
Continuous
370
    70
390
F
  0
LAYER
  5
4E
330
2
100
AcDbSymbolTableRecord
100
AcDbLayerTableRecord
  2
極太線
 70
     0
 62
     7
  6
Continuous
370
    70
390
F
  0
LAYER
  5
4F
330
2
100
AcDbSymbolTableRecord
100
AcDbLayerTableRecord
  2
細線
 70
     0
 62
     8
  6
Continuous
370
    18
390
F
  0
LAYER
  5
AB
330
2
100
AcDbSymbolTableRecord
100
AcDbLayerTableRecord
  2
構築線
 70
     0
 62
    -2
  6
Continuous
290
     0
370
    18
390
F
  0
LAYER
  5
B8
330
2
100
AcDbSymbolTableRecord
100
AcDbLayerTableRecord
  2
太線
 70
     0
 62
     7
  6
Continuous
370
    35
390
F
  0
LAYER
  5
B9
330
2
100
AcDbSymbolTableRecord
100
AcDbLayerTableRecord
  2
寸法線
 70
     0
 62
     5
  6
Continuous
370
    18
390
F
  0
LAYER
  5
BA
330
2
100
AcDbSymbolTableRecord
100
AcDbLayerTableRecord
  2
破線
 70
     0
 62
     8
  6
HIDDEN2
370
    18
390
F
  0
LAYER
  5
BB
330
2
100
AcDbSymbolTableRecord
100
AcDbLayerTableRecord
  2
中心線
 70
     0
 62
     1
  6
CENTER2
370
    18
390
F
  0
LAYER
  5
BC
330
2
100
AcDbSymbolTableRecord
100
AcDbLayerTableRecord
  2
想像線
 70
     0
 62
     8
  6
PHANTOM2
370
    18
390
F
  0
LAYER
  5
BD
330
2
100
AcDbSymbolTableRecord
100
AcDbLayerTableRecord
  2
文字
 70
     0
 62
     7
  6
Continuous
370
    18
390
F
  0
LAYER
  5
180
330
2
100
AcDbSymbolTableRecord
100
AcDbLayerTableRecord
  2
Defpoints
 70
     0
 62
     7
  6
Continuous
290
     0
370
    -3
390
F
  0
ENDTAB
  0
TABLE
  2
STYLE
  5
3
330
0
100
AcDbSymbolTable
 70
     3
  0
STYLE
  5
11
330
3
100
AcDbSymbolTableRecord
100
AcDbTextStyleTableRecord
  2
Standard
 70
     0
 40
0.0
 41
1.0
 50
0.0
 71
     0
 42
3.0
  3
txt
  4

  0
STYLE
  5
32
330
3
100
AcDbSymbolTableRecord
100
AcDbTextStyleTableRecord
  2

 70
     1
 40
0.0
 41
1.0
 50
0.0
 71
     0
 42
2.5
  3
ltypeshp.shx
  4

  0
STYLE
  5
50
330
3
100
AcDbSymbolTableRecord
100
AcDbTextStyleTableRecord
  2
OKANO
 70
     0
 40
0.0
 41
1.0
 50
15.0
 71
     0
 42
5.0
  3
isocp.shx
  4
bigfont.shx
  0
ENDTAB
  0
TABLE
  2
VIEW
  5
6
330
0
100
AcDbSymbolTable
 70
     0
  0
ENDTAB
  0
TABLE
  2
UCS
  5
7
330
0
100
AcDbSymbolTable
 70
     0
  0
ENDTAB
  0
TABLE
  2
APPID
  5
9
330
0
100
AcDbSymbolTable
 70
     1
  0
APPID
  5
12
330
9
100
AcDbSymbolTableRecord
100
AcDbRegAppTableRecord
  2
ACAD
 70
     0
  0
ENDTAB
  0
TABLE
  2
DIMSTYLE
  5
A
330
0
100
AcDbSymbolTable
 70
     2
100
AcDbDimStyleTable
 71
     2
340
A2
340
27
  0
DIMSTYLE
105
27
330
A
100
AcDbSymbolTableRecord
100
AcDbDimStyleTableRecord
  2
ISO-25
 70
     0
 41
2.5
 42
0.625
 43
3.75
 44
1.25
 73
     0
 74
     0
 77
     1
 78
     8
140
2.5
141
2.5
143
0.03937007874016
147
0.625
171
     3
172
     1
271
     2
272
     2
274
     3
283
     0
284
     8
340
11
  0
DIMSTYLE
105
A2
102
{ACAD_REACTORS
330
3319
330
3330
330
3453
330
3518
330
38C7
330
38D4
330
38EA
330
391E
330
3942
330
394E
330
3968
330
3977
330
3984
330
3991
330
399F
330
39AC
330
39E7
330
3A01
330
3A1B
330
3A2A
330
3A77
330
3A84
330
3A9A
102
}
330
A
100
AcDbSymbolTableRecord
100
AcDbDimStyleTableRecord
  2
sunpo
 70
     0
 40
0.0
 41
3.0
 42
2.0
 43
8.0
 44
3.0
 73
     0
 74
     0
 77
     1
 78
     8
140
5.0
141
2.5
143
0.03937007874016
147
1.0
171
     3
172
     1
271
     2
272
     2
274
     3
283
     0
284
     8
340
50
341
9B
342
9B
  0
ENDTAB
  0
TABLE
  2
BLOCK_RECORD
  5
1
330
0
100
AcDbSymbolTable
 70
    30
  0
BLOCK_RECORD
  5
1F
330
1
100
AcDbSymbolTableRecord
100
AcDbBlockTableRecord
  2
*Model_Space
340
22
  0
BLOCK_RECORD
  5
1B
330
1
100
AcDbSymbolTableRecord
100
AcDbBlockTableRecord
  2
*Paper_Space
340
1E
  0
BLOCK_RECORD
  5
9B
330
1
100
AcDbSymbolTableRecord
100
AcDbBlockTableRecord
  2
_Closed
340
0
102
{BLKREFS
331
375D
331
375E
331
37A9
331
37AA
331
37EE
331
37EF
331
37F7
331
37F8
331
38EF
331
38F0
331
38FE
331
38FF
331
3918
331
3919
331
392E
331
392F
331
396F
331
3970
331
397C
331
397D
331
3989
331
398A
331
3996
331
3997
331
39A4
331
39A5
331
39DB
331
39E1
331
39E2
331
39FB
331
39FC
331
3A15
331
3A16
331
3A22
331
3A23
331
3A3A
331
3A3B
331
3A45
331
3A46
331
3A52
331
3A53
331
3A5B
331
3A5C
331
3A71
331
3A72
331
3A7C
331
3A7D
331
3A94
331
3A95
331
3AB2
331
3AB3
331
3ABC
331
3ABD
331
3AC4
331
3AC5
102
}
  0
BLOCK_RECORD
  5
1510
330
1
100
AcDbSymbolTableRecord
100
AcDbBlockTableRecord
  2
A$C10A573AC
340
0
  0
BLOCK_RECORD
  5
331A
330
1
100
AcDbSymbolTableRecord
100
AcDbBlockTableRecord
  2
*D3
340
0
  0
BLOCK_RECORD
  5
3331
330
1
100
AcDbSymbolTableRecord
100
AcDbBlockTableRecord
  2
*D4
340
0
  0
BLOCK_RECORD
  5
346E
330
1
100
AcDbSymbolTableRecord
100
AcDbBlockTableRecord
  2
*D5
340
0
  0
BLOCK_RECORD
  5
3536
330
1
100
AcDbSymbolTableRecord
100
AcDbBlockTableRecord
  2
*D7
340
0
  0
BLOCK_RECORD
  5
38C8
330
1
100
AcDbSymbolTableRecord
100
AcDbBlockTableRecord
  2
*D8
340
0
  0
BLOCK_RECORD
  5
38D5
330
1
100
AcDbSymbolTableRecord
100
AcDbBlockTableRecord
  2
*D9
340
0
  0
BLOCK_RECORD
  5
38EB
330
1
100
AcDbSymbolTableRecord
100
AcDbBlockTableRecord
  2
*D10
340
0
  0
BLOCK_RECORD
  5
391F
330
1
100
AcDbSymbolTableRecord
100
AcDbBlockTableRecord
  2
*D13
340
0
  0
BLOCK_RECORD
  5
3943
330
1
100
AcDbSymbolTableRecord
100
AcDbBlockTableRecord
  2
*D14
340
0
  0
BLOCK_RECORD
  5
394F
330
1
100
AcDbSymbolTableRecord
100
AcDbBlockTableRecord
  2
*D15
340
0
  0
BLOCK_RECORD
  5
3969
330
1
100
AcDbSymbolTableRecord
100
AcDbBlockTableRecord
  2
*D16
340
0
  0
BLOCK_RECORD
  5
3978
330
1
100
AcDbSymbolTableRecord
100
AcDbBlockTableRecord
  2
*D17
340
0
  0
BLOCK_RECORD
  5
3985
330
1
100
AcDbSymbolTableRecord
100
AcDbBlockTableRecord
  2
*D18
340
0
  0
BLOCK_RECORD
  5
3992
330
1
100
AcDbSymbolTableRecord
100
AcDbBlockTableRecord
  2
*D19
340
0
  0
BLOCK_RECORD
  5
39A0
330
1
100
AcDbSymbolTableRecord
100
AcDbBlockTableRecord
  2
*D20
340
0
  0
BLOCK_RECORD
  5
39AD
330
1
100
AcDbSymbolTableRecord
100
AcDbBlockTableRecord
  2
*D21
340
0
  0
BLOCK_RECORD
  5
39E8
330
1
100
AcDbSymbolTableRecord
100
AcDbBlockTableRecord
  2
*D22
340
0
  0
BLOCK_RECORD
  5
3A02
330
1
100
AcDbSymbolTableRecord
100
AcDbBlockTableRecord
  2
*D23
340
0
  0
BLOCK_RECORD
  5
3A1C
330
1
100
AcDbSymbolTableRecord
100
AcDbBlockTableRecord
  2
*D24
340
0
  0
BLOCK_RECORD
  5
3A2B
330
1
100
AcDbSymbolTableRecord
100
AcDbBlockTableRecord
  2
*D25
340
0
  0
BLOCK_RECORD
  5
3A78
330
1
100
AcDbSymbolTableRecord
100
AcDbBlockTableRecord
  2
*D27
340
0
  0
BLOCK_RECORD
  5
3A85
330
1
100
AcDbSymbolTableRecord
100
AcDbBlockTableRecord
  2
*D28
340
0
  0
BLOCK_RECORD
  5
3A9B
330
1
100
AcDbSymbolTableRecord
100
AcDbBlockTableRecord
  2
*D29
340
0
  0
ENDTAB
  0
ENDSEC
  0
SECTION
  2
BLOCKS
  0
BLOCK
  5
20
330
1F
100
AcDbEntity
  8
0
100
AcDbBlockBegin
  2
*Model_Space
 70
     0
 10
0.0
 20
0.0
 30
0.0
  3
*Model_Space
  1

  0
ENDBLK
  5
21
330
1F
100
AcDbEntity
  8
0
100
AcDbBlockEnd
  0
BLOCK
  5
1C
330
1B
100
AcDbEntity
 67
     1
  8
0
100
AcDbBlockBegin
  2
*Paper_Space
 70
     0
 10
0.0
 20
0.0
 30
0.0
  3
*Paper_Space
  1

  0
ENDBLK
  5
1D
330
1B
100
AcDbEntity
 67
     1
  8
0
100
AcDbBlockEnd
  0
BLOCK
  5
A0
330
9B
100
AcDbEntity
  8
0
100
AcDbBlockBegin
  2
_Closed
 70
     0
 10
0.0
 20
0.0
 30
0.0
  3
_Closed
  1

  0
LINE
  5
9C
330
9B
100
AcDbEntity
  8
0
 62
     0
370
    -2
100
AcDbLine
 10
-1.0
 20
0.1666666666666666
 30
0.0
 11
0.0
 21
0.0
 31
0.0
  0
LINE
  5
9D
330
9B
100
AcDbEntity
  8
0
 62
     0
370
    -2
100
AcDbLine
 10
0.0
 20
0.0
 30
0.0
 11
-1.0
 21
-0.1666666666666666
 31
0.0
  0
LINE
  5
9E
330
9B
100
AcDbEntity
  8
0
 62
     0
370
    -2
100
AcDbLine
 10
-1.0
 20
0.1666666666666666
 30
0.0
 11
-1.0
 21
-0.1666666666666666
 31
0.0
  0
LINE
  5
9F
330
9B
100
AcDbEntity
  8
0
 62
     0
370
    -2
100
AcDbLine
 10
0.0
 20
0.0
 30
0.0
 11
-1.0
 21
0.0
 31
0.0
  0
ENDBLK
  5
A1
330
9B
100
AcDbEntity
  8
0
100
AcDbBlockEnd
  0
BLOCK
  5
155B
330
1510
100
AcDbEntity
  8
0
100
AcDbBlockBegin
  2
A$C10A573AC
 70
     0
 10
0.0
 20
0.0
 30
0.0
  3
A$C10A573AC
  1

  0
TEXT
  5
1511
330
1510
100
AcDbEntity
  8
文字
100
AcDbText
 10
0.9844302777919438
 20
5.224957122252135
 30
0.0
 40
3.0
  1
Materal : Steel.
 51
15.0
  7
OKANO
100
AcDbText
  0
TEXT
  5
1512
330
1510
100
AcDbEntity
  8
文字
100
AcDbText
 10
-0.1141909619694843
 20
0.7500001922403499
 30
0.0
 40
3.0
  1
Surface treatment : Electro galvanized.
 51
15.0
  7
OKANO
100
AcDbText
  0
TEXT
  5
1513
330
1510
100
AcDbEntity
  8
文字
100
AcDbText
 10
-0.4901926332574931
 20
9.159967445193728
 30
0.0
 40
3.0
  1
5 TORGUE SCREW  M5-6
 51
15.0
  7
OKANO
100
AcDbText
  0
TEXT
  5
1514
330
1510
100
AcDbEntity
  8
文字
100
AcDbText
 10
1.364713526390005
 20
78.88822913323082
 30
0.0
 40
3.0
  1
Special standard,
 51
15.0
  7
OKANO
100
AcDbText
  0
TEXT
  5
1515
330
1510
100
AcDbEntity
  8
文字
100
AcDbText
 10
92.88160823408942
 20
89.92753849837379
 30
0.0
 40
3.0
  1
Screw Type
 51
15.0
  7
OKANO
100
AcDbText
  0
LINE
  5
1516
330
1510
100
AcDbEntity
  8
太線
100
AcDbLine
 10
113.9464587597784
 20
81.93930390144641
 30
0.0
 11
112.4464587597784
 21
81.93930390144641
 31
0.0
  0
LINE
  5
1517
330
1510
100
AcDbEntity
  8
太線
100
AcDbLine
 10
112.4464587597784
 20
76.9393039014464
 30
0.0
 11
121.4644995438761
 21
76.9393039014464
 31
0.0
  0
TEXT
  5
1518
330
1510
100
AcDbEntity
  8
文字
100
AcDbText
 10
93.46068240437217
 20
77.96976862235396
 30
0.0
 40
2.0
  1
17-30
 51
15.0
  7
OKANO
100
AcDbText
  0
LINE
  5
1519
330
1510
100
AcDbEntity
  8
太線
100
AcDbLine
 10
111.9464587597784
 20
81.43930390144641
 30
0.0
 11
111.9464587597784
 21
77.4393039014464
 31
0.0
  0
LINE
  5
151A
330
1510
100
AcDbEntity
  8
太線
100
AcDbLine
 10
91.94645875977846
 20
81.43930390144641
 30
0.0
 11
91.94645875977846
 21
77.43930390144639
 31
0.0
  0
LINE
  5
151B
330
1510
100
AcDbEntity
  8
太線
100
AcDbLine
 10
101.9644995438761
 20
77.4393039014464
 30
0.0
 11
101.9644995438761
 21
81.43930390144641
 31
0.0
  0
LINE
  5
151C
330
1510
100
AcDbEntity
  8
太線
100
AcDbLine
 10
92.44645875977846
 20
76.9393039014464
 30
0.0
 11
101.4644995438761
 21
76.9393039014464
 31
0.0
  0
ARC
  5
151D
330
1510
100
AcDbEntity
  8
太線
100
AcDbCircle
 10
92.44645875977846
 20
77.43930390144639
 30
0.0
 40
0.5
100
AcDbArc
 50
180.0
 51
270.0
  0
ARC
  5
151E
330
1510
100
AcDbEntity
  8
太線
100
AcDbCircle
 10
101.4644995438761
 20
77.4393039014464
 30
0.0
 40
0.5
100
AcDbArc
 50
270.0
 51
0.0
  0
ARC
  5
151F
330
1510
100
AcDbEntity
  8
太線
100
AcDbCircle
 10
112.4464587597784
 20
77.4393039014464
 30
0.0
 40
0.5
100
AcDbArc
 50
180.0
 51
270.0
  0
LINE
  5
1520
330
1510
100
AcDbEntity
  8
想像線
100
AcDbLine
 10
93.94645875977847
 20
81.93930390144641
 30
0.0
 11
99.96449954387617
 21
81.93930390144641
 31
0.0
  0
LINE
  5
1521
330
1510
100
AcDbEntity
  8
極太線
100
AcDbLine
 10
96.38762957111168
 20
85.43930390144641
 30
0.0
 11
97.50528794844525
 21
85.43930390144641
 31
0.0
  0
CIRCLE
  5
1522
330
1510
100
AcDbEntity
  8
太線
100
AcDbCircle
 10
96.94645875977847
 20
85.43930390144641
 30
0.0
 40
0.5588291886667776
  0
LINE
  5
1523
330
1510
100
AcDbEntity
  8
太線
100
AcDbLine
 10
99.46449954387617
 20
86.93930390144641
 30
0.0
 11
94.44645875977846
 21
86.93930390144641
 31
0.0
  0
LINE
  5
1524
330
1510
100
AcDbEntity
  8
太線
100
AcDbLine
 10
93.94645875977847
 20
86.43930390144641
 30
0.0
 11
93.94645875977847
 21
81.93930390144641
 31
0.0
  0
ARC
  5
1525
330
1510
100
AcDbEntity
  8
太線
100
AcDbCircle
 10
92.44645875977846
 20
81.43930390144641
 30
0.0
 40
0.5
100
AcDbArc
 50
90.0
 51
180.0
  0
LINE
  5
1526
330
1510
100
AcDbEntity
  8
太線
100
AcDbLine
 10
93.94645875977847
 20
81.93930390144641
 30
0.0
 11
92.44645875977846
 21
81.93930390144641
 31
0.0
  0
ARC
  5
1527
330
1510
100
AcDbEntity
  8
太線
100
AcDbCircle
 10
94.44645875977846
 20
86.43930390144641
 30
0.0
 40
0.5
100
AcDbArc
 50
90.0
 51
180.0
  0
LINE
  5
1528
330
1510
100
AcDbEntity
  8
太線
100
AcDbLine
 10
99.96449954387617
 20
81.93930390144641
 30
0.0
 11
99.96449954387617
 21
86.43930390144641
 31
0.0
  0
LINE
  5
1529
330
1510
100
AcDbEntity
  8
太線
100
AcDbLine
 10
101.4644995438761
 20
81.93930390144641
 30
0.0
 11
99.96449954387617
 21
81.93930390144641
 31
0.0
  0
ARC
  5
152A
330
1510
100
AcDbEntity
  8
太線
100
AcDbCircle
 10
101.4644995438761
 20
81.43930390144641
 30
0.0
 40
0.5
100
AcDbArc
 50
0.0
 51
90.0
  0
ARC
  5
152B
330
1510
100
AcDbEntity
  8
太線
100
AcDbCircle
 10
99.46449954387617
 20
86.43930390144641
 30
0.0
 40
0.5
100
AcDbArc
 50
0.0
 51
90.0
  0
LINE
  5
152C
330
1510
100
AcDbEntity
  8
極太線
100
AcDbLine
 10
96.94645875977847
 20
85.99813309011318
 30
0.0
 11
96.94645875977847
 21
84.88047471277964
 31
0.0
  0
ARC
  5
152D
330
1510
100
AcDbEntity
  8
太線
100
AcDbCircle
 10
112.4464587597784
 20
81.43930390144641
 30
0.0
 40
0.5
100
AcDbArc
 50
90.0
 51
180.0
  0
TEXT
  5
152E
330
1510
100
AcDbEntity
  8
文字
100
AcDbText
 10
134.3819212586066
 20
78.16263579228063
 30
0.0
 40
2.0
  1
101
 51
15.0
  7
OKANO
100
AcDbText
  0
TEXT
  5
152F
330
1510
100
AcDbEntity
  8
文字
100
AcDbText
 10
113.3422276612066
 20
77.96976862235396
 30
0.0
 40
2.0
  1
38-83
 51
15.0
  7
OKANO
100
AcDbText
  0
LINE
  5
1530
330
1510
100
AcDbEntity
  8
太線
100
AcDbLine
 10
141.9825403279738
 20
77.4393039014464
 30
0.0
 11
141.9825403279738
 21
81.43930390144641
 31
0.0
  0
LINE
  5
1531
330
1510
100
AcDbEntity
  8
太線
100
AcDbLine
 10
131.9644995438761
 20
81.43930390144641
 30
0.0
 11
131.9644995438761
 21
77.4393039014464
 31
0.0
  0
LINE
  5
1532
330
1510
100
AcDbEntity
  8
太線
100
AcDbLine
 10
121.9644995438761
 20
77.4393039014464
 30
0.0
 11
121.9644995438761
 21
81.43930390144641
 31
0.0
  0
ARC
  5
1533
330
1510
100
AcDbEntity
  8
太線
100
AcDbCircle
 10
121.4644995438761
 20
77.4393039014464
 30
0.0
 40
0.5
100
AcDbArc
 50
270.0
 51
0.0
  0
LINE
  5
1534
330
1510
100
AcDbEntity
  8
太線
100
AcDbLine
 10
132.4644995438761
 20
76.9393039014464
 30
0.0
 11
141.4825403279738
 21
76.9393039014464
 31
0.0
  0
ARC
  5
1535
330
1510
100
AcDbEntity
  8
太線
100
AcDbCircle
 10
132.4644995438761
 20
77.4393039014464
 30
0.0
 40
0.5
100
AcDbArc
 50
180.0
 51
270.0
  0
ARC
  5
1536
330
1510
100
AcDbEntity
  8
太線
100
AcDbCircle
 10
141.4825403279738
 20
77.4393039014464
 30
0.0
 40
0.5
100
AcDbArc
 50
270.0
 51
0.0
  0
ARC
  5
1537
330
1510
100
AcDbEntity
  8
太線
100
AcDbCircle
 10
121.4644995438761
 20
81.43930390144641
 30
0.0
 40
0.5
100
AcDbArc
 50
0.0
 51
90.0
  0
LINE
  5
1538
330
1510
100
AcDbEntity
  8
太線
100
AcDbLine
 10
119.9644995438761
 20
81.93930390144641
 30
0.0
 11
119.9644995438761
 21
86.43930390144641
 31
0.0
  0
LINE
  5
1539
330
1510
100
AcDbEntity
  8
太線
100
AcDbLine
 10
113.9464587597784
 20
86.43930390144641
 30
0.0
 11
113.9464587597784
 21
81.93930390144641
 31
0.0
  0
LINE
  5
153A
330
1510
100
AcDbEntity
  8
想像線
100
AcDbLine
 10
113.9464587597784
 20
81.93930390144641
 30
0.0
 11
119.9644995438761
 21
81.93930390144641
 31
0.0
  0
LINE
  5
153B
330
1510
100
AcDbEntity
  8
太線
100
AcDbLine
 10
121.4644995438761
 20
81.93930390144641
 30
0.0
 11
119.9644995438761
 21
81.93930390144641
 31
0.0
  0
LINE
  5
153C
330
1510
100
AcDbEntity
  8
太線
100
AcDbLine
 10
119.4644995438761
 20
86.93930390144641
 30
0.0
 11
114.4464587597784
 21
86.93930390144641
 31
0.0
  0
ARC
  5
153D
330
1510
100
AcDbEntity
  8
太線
100
AcDbCircle
 10
114.4464587597784
 20
86.43930390144641
 30
0.0
 40
0.5
100
AcDbArc
 50
90.0
 51
180.0
  0
CIRCLE
  5
153E
330
1510
100
AcDbEntity
  8
太線
100
AcDbCircle
 10
115.4464587597784
 20
85.43930390144641
 30
0.0
 40
0.5588291886667776
  0
LINE
  5
153F
330
1510
100
AcDbEntity
  8
極太線
100
AcDbLine
 10
115.4464587597784
 20
85.99813309011318
 30
0.0
 11
115.4464587597784
 21
84.88047471277964
 31
0.0
  0
LINE
  5
1540
330
1510
100
AcDbEntity
  8
極太線
100
AcDbLine
 10
114.8876295711116
 20
85.43930390144641
 30
0.0
 11
116.0052879484452
 21
85.43930390144641
 31
0.0
  0
ARC
  5
1541
330
1510
100
AcDbEntity
  8
太線
100
AcDbCircle
 10
119.4644995438761
 20
86.43930390144641
 30
0.0
 40
0.5
100
AcDbArc
 50
0.0
 51
90.0
  0
LINE
  5
1542
330
1510
100
AcDbEntity
  8
極太線
100
AcDbLine
 10
117.9056703552094
 20
85.43930390144641
 30
0.0
 11
119.0233287325429
 21
85.43930390144641
 31
0.0
  0
LINE
  5
1543
330
1510
100
AcDbEntity
  8
極太線
100
AcDbLine
 10
118.4644995438761
 20
85.99813309011318
 30
0.0
 11
118.4644995438761
 21
84.88047471277964
 31
0.0
  0
CIRCLE
  5
1544
330
1510
100
AcDbEntity
  8
太線
100
AcDbCircle
 10
118.4644995438761
 20
85.43930390144641
 30
0.0
 40
0.5588291886667776
  0
LINE
  5
1545
330
1510
100
AcDbEntity
  8
想像線
100
AcDbLine
 10
133.9644995438761
 20
81.93930390144641
 30
0.0
 11
139.9825403279738
 21
81.93930390144641
 31
0.0
  0
LINE
  5
1546
330
1510
100
AcDbEntity
  8
極太線
100
AcDbLine
 10
137.9237111393071
 20
85.43930390144641
 30
0.0
 11
139.0413695166406
 21
85.43930390144641
 31
0.0
  0
CIRCLE
  5
1547
330
1510
100
AcDbEntity
  8
太線
100
AcDbCircle
 10
138.4825403279738
 20
85.43930390144641
 30
0.0
 40
0.5588291886667776
  0
CIRCLE
  5
1548
330
1510
100
AcDbEntity
  8
太線
100
AcDbCircle
 10
138.4825403279738
 20
83.26342923362075
 30
0.0
 40
0.5588291886667776
  0
LINE
  5
1549
330
1510
100
AcDbEntity
  8
極太線
100
AcDbLine
 10
137.9237111393071
 20
83.26342923362075
 30
0.0
 11
139.0413695166406
 21
83.26342923362075
 31
0.0
  0
LINE
  5
154A
330
1510
100
AcDbEntity
  8
太線
100
AcDbLine
 10
139.4825403279738
 20
86.93930390144641
 30
0.0
 11
134.4644995438761
 21
86.93930390144641
 31
0.0
  0
LINE
  5
154B
330
1510
100
AcDbEntity
  8
太線
100
AcDbLine
 10
133.9644995438761
 20
86.43930390144641
 30
0.0
 11
133.9644995438761
 21
81.93930390144641
 31
0.0
  0
ARC
  5
154C
330
1510
100
AcDbEntity
  8
太線
100
AcDbCircle
 10
132.4644995438761
 20
81.43930390144641
 30
0.0
 40
0.5
100
AcDbArc
 50
90.0
 51
180.0
  0
LINE
  5
154D
330
1510
100
AcDbEntity
  8
太線
100
AcDbLine
 10
133.9644995438761
 20
81.93930390144641
 30
0.0
 11
132.4644995438761
 21
81.93930390144641
 31
0.0
  0
LINE
  5
154E
330
1510
100
AcDbEntity
  8
極太線
100
AcDbLine
 10
134.9056703552093
 20
83.26342923362075
 30
0.0
 11
136.0233287325429
 21
83.26342923362075
 31
0.0
  0
LINE
  5
154F
330
1510
100
AcDbEntity
  8
極太線
100
AcDbLine
 10
135.4644995438761
 20
83.82225842228752
 30
0.0
 11
135.4644995438761
 21
82.70460004495395
 31
0.0
  0
CIRCLE
  5
1550
330
1510
100
AcDbEntity
  8
太線
100
AcDbCircle
 10
135.4644995438761
 20
83.26342923362075
 30
0.0
 40
0.5588291886667776
  0
ARC
  5
1551
330
1510
100
AcDbEntity
  8
太線
100
AcDbCircle
 10
134.4644995438761
 20
86.43930390144641
 30
0.0
 40
0.5
100
AcDbArc
 50
90.0
 51
180.0
  0
CIRCLE
  5
1552
330
1510
100
AcDbEntity
  8
太線
100
AcDbCircle
 10
135.4644995438761
 20
85.43930390144641
 30
0.0
 40
0.5588291886667776
  0
LINE
  5
1553
330
1510
100
AcDbEntity
  8
極太線
100
AcDbLine
 10
135.4644995438761
 20
85.99813309011318
 30
0.0
 11
135.4644995438761
 21
84.88047471277964
 31
0.0
  0
LINE
  5
1554
330
1510
100
AcDbEntity
  8
極太線
100
AcDbLine
 10
134.9056703552093
 20
85.43930390144641
 30
0.0
 11
136.0233287325429
 21
85.43930390144641
 31
0.0
  0
LINE
  5
1555
330
1510
100
AcDbEntity
  8
太線
100
AcDbLine
 10
139.9825403279738
 20
81.93930390144641
 30
0.0
 11
139.9825403279738
 21
86.43930390144641
 31
0.0
  0
ARC
  5
1556
330
1510
100
AcDbEntity
  8
太線
100
AcDbCircle
 10
141.4825403279738
 20
81.43930390144641
 30
0.0
 40
0.5
100
AcDbArc
 50
0.0
 51
90.0
  0
LINE
  5
1557
330
1510
100
AcDbEntity
  8
極太線
100
AcDbLine
 10
138.4825403279738
 20
83.82225842228752
 30
0.0
 11
138.4825403279738
 21
82.70460004495395
 31
0.0
  0
LINE
  5
1558
330
1510
100
AcDbEntity
  8
太線
100
AcDbLine
 10
141.4825403279738
 20
81.93930390144641
 30
0.0
 11
139.9825403279738
 21
81.93930390144641
 31
0.0
  0
ARC
  5
1559
330
1510
100
AcDbEntity
  8
太線
100
AcDbCircle
 10
139.4825403279738
 20
86.43930390144641
 30
0.0
 40
0.5
100
AcDbArc
 50
0.0
 51
90.0
  0
LINE
  5
155A
330
1510
100
AcDbEntity
  8
極太線
100
AcDbLine
 10
138.4825403279738
 20
85.99813309011318
 30
0.0
 11
138.4825403279738
 21
84.88047471277964
 31
0.0
  0
ENDBLK
  5
155C
330
1510
100
AcDbEntity
  8
0
100
AcDbBlockEnd
  0
BLOCK
  5
3325
330
331A
100
AcDbEntity
  8
0
100
AcDbBlockBegin
  2
*D3
 70
     1
 10
0.0
 20
0.0
 30
0.0
  3
*D3
  1

  0
LINE
  5
37F4
330
331A
100
AcDbEntity
  8
寸法線
 62
     0
370
    -2
100
AcDbLine
 10
64.81403670416466
 20
183.105798027382
 30
0.0
 11
64.81403670416466
 21
217.2751686379246
 31
0.0
  0
LINE
  5
37F5
330
331A
100
AcDbEntity
  8
寸法線
 62
     0
370
    -2
100
AcDbLine
 10
79.73585347775861
 20
182.5172428108736
 30
0.0
 11
79.73585347775861
 21
217.2751686379246
 31
0.0
  0
LINE
  5
37F6
330
331A
100
AcDbEntity
  8
寸法線
 62
     0
370
    -2
100
AcDbLine
 10
67.81403670416466
 20
214.2751686379245
 30
0.0
 11
76.73585347775861
 21
214.2751686379245
 31
0.0
  0
INSERT
  5
37F7
330
331A
100
AcDbEntity
  8
寸法線
 62
     0
370
    -2
100
AcDbBlockReference
  2
_Closed
 10
64.81403670416466
 20
214.2751686379245
 30
0.0
 41
3.0
 42
3.0
 43
3.0
 50
180.0
  0
INSERT
  5
37F8
330
331A
100
AcDbEntity
  8
寸法線
 62
     0
370
    -2
100
AcDbBlockReference
  2
_Closed
 10
79.73585347775861
 20
214.2751686379245
 30
0.0
 41
3.0
 42
3.0
 43
3.0
  0
MTEXT
  5
37F9
330
331A
100
AcDbEntity
  8
寸法線
 62
     0
100
AcDbMText
 10
72.27494509096164
 20
217.7756607639088
 30
0.0
 40
5.0
 41
0.0
 71
     5
 72
     1
  1
20
  7
OKANO
 73
     1
 44
1.0
  0
POINT
  5
37FA
330
331A
100
AcDbEntity
  8
Defpoints
 62
     0
100
AcDbPoint
 10
64.81403670416466
 20
181.105798027382
 30
0.0
  0
POINT
  5
37FB
330
331A
100
AcDbEntity
  8
Defpoints
 62
     0
100
AcDbPoint
 10
79.73585347775861
 20
180.5172428108736
 30
0.0
  0
POINT
  5
37FC
330
331A
100
AcDbEntity
  8
Defpoints
 62
     0
100
AcDbPoint
 10
79.73585347775861
 20
214.2751686379245
 30
0.0
  0
ENDBLK
  5
3326
330
331A
100
AcDbEntity
  8
0
100
AcDbBlockEnd
  0
BLOCK
  5
333B
330
3331
100
AcDbEntity
  8
0
100
AcDbBlockBegin
  2
*D4
 70
     1
 10
0.0
 20
0.0
 30
0.0
  3
*D4
  1

  0
LINE
  5
37EB
330
3331
100
AcDbEntity
  8
寸法線
 62
     0
370
    -2
100
AcDbLine
 10
62.26162108200901
 20
179.105798027382
 30
0.0
 11
62.26162108200901
 21
141.0948213795444
 31
0.0
  0
LINE
  5
37EC
330
3331
100
AcDbEntity
  8
寸法線
 62
     0
370
    -2
100
AcDbLine
 10
82.6809483387276
 20
178.713427883043
 30
0.0
 11
82.6809483387276
 21
141.0948213795444
 31
0.0
  0
LINE
  5
37ED
330
3331
100
AcDbEntity
  8
寸法線
 62
     0
370
    -2
100
AcDbLine
 10
65.26162108200901
 20
144.0948213795444
 30
0.0
 11
79.6809483387276
 21
144.0948213795444
 31
0.0
  0
INSERT
  5
37EE
330
3331
100
AcDbEntity
  8
寸法線
 62
     0
370
    -2
100
AcDbBlockReference
  2
_Closed
 10
62.26162108200901
 20
144.0948213795444
 30
0.0
 41
3.0
 42
3.0
 43
3.0
 50
180.0
  0
INSERT
  5
37EF
330
3331
100
AcDbEntity
  8
寸法線
 62
     0
370
    -2
100
AcDbBlockReference
  2
_Closed
 10
82.6809483387276
 20
144.0948213795444
 30
0.0
 41
3.0
 42
3.0
 43
3.0
  0
MTEXT
  5
37F0
330
3331
100
AcDbEntity
  8
寸法線
 62
     0
100
AcDbMText
 10
72.4712847103683
 20
147.5953135055287
 30
0.0
 40
5.0
 41
0.0
 71
     5
 72
     1
  1
24
  7
OKANO
 73
     1
 44
1.0
  0
POINT
  5
37F1
330
3331
100
AcDbEntity
  8
Defpoints
 62
     0
100
AcDbPoint
 10
62.26162108200901
 20
181.105798027382
 30
0.0
  0
POINT
  5
37F2
330
3331
100
AcDbEntity
  8
Defpoints
 62
     0
100
AcDbPoint
 10
82.6809483387276
 20
180.7134278830431
 30
0.0
  0
POINT
  5
37F3
330
3331
100
AcDbEntity
  8
Defpoints
 62
     0
100
AcDbPoint
 10
82.6809483387276
 20
144.0948213795444
 30
0.0
  0
ENDBLK
  5
333C
330
3331
100
AcDbEntity
  8
0
100
AcDbBlockEnd
  0
BLOCK
  5
3478
330
346E
100
AcDbEntity
  8
0
100
AcDbBlockBegin
  2
*D5
 70
     1
 10
0.0
 20
0.0
 30
0.0
  3
*D5
  1

  0
LINE
  5
37A6
330
346E
100
AcDbEntity
  8
寸法線
 62
     0
370
    -2
100
AcDbLine
 10
179.8974196310255
 20
89.0256110613485
 30
0.0
 11
190.5455931568092
 21
88.80727117484386
 31
0.0
  0
LINE
  5
37A7
330
346E
100
AcDbEntity
  8
寸法線
 62
     0
370
    -2
100
AcDbLine
 10
179.6924135801968
 20
79.02771265622743
 30
0.0
 11
190.3405871059806
 21
78.8093727697228
 31
0.0
  0
LINE
  5
37A8
330
346E
100
AcDbEntity
  8
寸法線
 62
     0
370
    -2
100
AcDbLine
 10
187.4847218200243
 20
85.86940346855611
 30
0.0
 11
187.4027193996928
 21
81.87024410650773
 31
0.0
  0
INSERT
  5
37A9
330
346E
100
AcDbEntity
  8
寸法線
 62
     0
370
    -2
100
AcDbBlockReference
  2
_Closed
 10
187.5462236352729
 20
88.86877299009245
 30
0.0
 41
3.0
 42
3.0
 43
3.0
 50
88.82531956005456
  0
INSERT
  5
37AA
330
346E
100
AcDbEntity
  8
寸法線
 62
     0
370
    -2
100
AcDbBlockReference
  2
_Closed
 10
187.3412175844443
 20
78.87087458497139
 30
0.0
 41
3.0
 42
3.0
 43
3.0
 50
268.8253195600545
  0
MTEXT
  5
37AB
330
346E
100
AcDbEntity
  8
寸法線
 62
     0
100
AcDbMText
 10
183.9444561680662
 20
83.94157590532197
 30
0.0
 40
5.0
 41
0.0
 71
     5
 72
     1
  1
13
  7
OKANO
 11
0.0205006050828647
 21
0.999789840512113
 31
0.0
 73
     1
 44
1.0
  0
POINT
  5
37AC
330
346E
100
AcDbEntity
  8
Defpoints
 62
     0
100
AcDbPoint
 10
177.8978399500012
 20
89.06661227151422
 30
0.0
  0
POINT
  5
37AD
330
346E
100
AcDbEntity
  8
Defpoints
 62
     0
100
AcDbPoint
 10
177.6928338991726
 20
79.06871386639316
 30
0.0
  0
POINT
  5
37AE
330
346E
100
AcDbEntity
  8
Defpoints
 62
     0
100
AcDbPoint
 10
187.3412175844443
 20
78.87087458497139
 30
0.0
  0
ENDBLK
  5
3479
330
346E
100
AcDbEntity
  8
0
100
AcDbBlockEnd
  0
BLOCK
  5
3542
330
3536
100
AcDbEntity
  8
0
100
AcDbBlockBegin
  2
*D7
 70
     1
 10
0.0
 20
0.0
 30
0.0
  3
*D7
  1

  0
LINE
  5
3A40
330
3536
100
AcDbEntity
  8
寸法線
 62
     0
370
    -2
100
AcDbLine
 10
74.08299003925271
 20
21.32124002356658
 30
0.0
 11
95.3077448144179
 21
21.32124002356658
 31
0.0
  0
LINE
  5
3A41
330
3536
100
AcDbEntity
  8
寸法線
 62
     0
370
    -2
100
AcDbLine
 10
74.08299003925271
 20
16.07627475042636
 30
0.0
 11
95.3077448144179
 21
16.07627475042636
 31
0.0
  0
LINE
  5
3A42
330
3536
100
AcDbEntity
  8
寸法線
 62
     0
370
    -2
100
AcDbLine
 10
92.30774481441789
 20
24.32124002356658
 30
0.0
 11
92.30774481441789
 21
27.32124002356658
 31
0.0
  0
LINE
  5
3A43
330
3536
100
AcDbEntity
  8
寸法線
 62
     0
370
    -2
100
AcDbLine
 10
92.30774481441789
 20
13.07627475042636
 30
0.0
 11
92.30774481441789
 21
10.07627475042636
 31
0.0
  0
LINE
  5
3A44
330
3536
100
AcDbEntity
  8
寸法線
 62
     0
370
    -2
100
AcDbLine
 10
92.30774481441789
 20
21.32124002356658
 30
0.0
 11
92.30774481441789
 21
16.07627475042636
 31
0.0
  0
INSERT
  5
3A45
330
3536
100
AcDbEntity
  8
寸法線
 62
     0
370
    -2
100
AcDbBlockReference
  2
_Closed
 10
92.30774481441789
 20
21.32124002356658
 30
0.0
 41
3.0
 42
3.0
 43
3.0
 50
270.0
  0
INSERT
  5
3A46
330
3536
100
AcDbEntity
  8
寸法線
 62
     0
370
    -2
100
AcDbBlockReference
  2
_Closed
 10
92.30774481441789
 20
16.07627475042636
 30
0.0
 41
3.0
 42
3.0
 43
3.0
 50
90.0
  0
MTEXT
  5
3A47
330
3536
100
AcDbEntity
  8
寸法線
 62
     0
100
AcDbMText
 10
88.8077448144179
 20
18.69875738699648
 30
0.0
 40
5.0
 41
0.0
 71
     5
 72
     1
  1
5
  7
OKANO
 11
0.0000000000000001
 21
1.0
 31
0.0
 73
     1
 44
1.0
  0
POINT
  5
3A48
330
3536
100
AcDbEntity
  8
Defpoints
 62
     0
100
AcDbPoint
 10
72.08299003925271
 20
21.32124002356658
 30
0.0
  0
POINT
  5
3A49
330
3536
100
AcDbEntity
  8
Defpoints
 62
     0
100
AcDbPoint
 10
72.08299003925271
 20
16.07627475042636
 30
0.0
  0
POINT
  5
3A4A
330
3536
100
AcDbEntity
  8
Defpoints
 62
     0
100
AcDbPoint
 10
92.30774481441789
 20
16.07627475042636
 30
0.0
  0
ENDBLK
  5
3543
330
3536
100
AcDbEntity
  8
0
100
AcDbBlockEnd
  0
BLOCK
  5
38D2
330
38C8
100
AcDbEntity
  8
0
100
AcDbBlockBegin
  2
*D8
 70
     1
 10
0.0
 20
0.0
 30
0.0
  3
*D8
  1

  0
LINE
  5
3A58
330
38C8
100
AcDbEntity
  8
寸法線
 62
     0
370
    -2
100
AcDbLine
 10
7.458901267498731
 20
197.4711488256961
 30
0.0
 11
7.458901267498733
 21
226.9337888979906
 31
0.0
  0
LINE
  5
3A59
330
38C8
100
AcDbEntity
  8
寸法線
 62
     0
370
    -2
100
AcDbLine
 10
42.45890126749872
 20
197.4711488256961
 30
0.0
 11
42.45890126749872
 21
226.9337888979906
 31
0.0
  0
LINE
  5
3A5A
330
38C8
100
AcDbEntity
  8
寸法線
 62
     0
370
    -2
100
AcDbLine
 10
10.45890126749873
 20
223.9337888979906
 30
0.0
 11
39.45890126749873
 21
223.9337888979906
 31
0.0
  0
INSERT
  5
3A5B
330
38C8
100
AcDbEntity
  8
寸法線
 62
     0
370
    -2
100
AcDbBlockReference
  2
_Closed
 10
7.458901267498733
 20
223.9337888979906
 30
0.0
 41
3.0
 42
3.0
 43
3.0
 50
180.0
  0
INSERT
  5
3A5C
330
38C8
100
AcDbEntity
  8
寸法線
 62
     0
370
    -2
100
AcDbBlockReference
  2
_Closed
 10
42.45890126749872
 20
223.9337888979906
 30
0.0
 41
3.0
 42
3.0
 43
3.0
  0
MTEXT
  5
3A5D
330
38C8
100
AcDbEntity
  8
寸法線
 62
     0
100
AcDbMText
 10
24.95890126749873
 20
227.4337888979906
 30
0.0
 40
5.0
 41
0.0
 71
     5
 72
     1
  1
36
  7
OKANO
 73
     1
 44
1.0
  0
POINT
  5
3A5E
330
38C8
100
AcDbEntity
  8
Defpoints
 62
     0
100
AcDbPoint
 10
7.458901267498731
 20
195.4711488256961
 30
0.0
  0
POINT
  5
3A5F
330
38C8
100
AcDbEntity
  8
Defpoints
 62
     0
100
AcDbPoint
 10
42.45890126749872
 20
195.4711488256961
 30
0.0
  0
POINT
  5
3A60
330
38C8
100
AcDbEntity
  8
Defpoints
 62
     0
100
AcDbPoint
 10
42.45890126749872
 20
223.9337888979906
 30
0.0
  0
ENDBLK
  5
38D3
330
38C8
100
AcDbEntity
  8
0
100
AcDbBlockEnd
  0
BLOCK
  5
38DF
330
38D5
100
AcDbEntity
  8
0
100
AcDbBlockBegin
  2
*D9
 70
     1
 10
0.0
 20
0.0
 30
0.0
  3
*D9
  1

  0
LINE
  5
3A4F
330
38D5
100
AcDbEntity
  8
寸法線
 62
     0
370
    -2
100
AcDbLine
 10
42.45890126749872
 20
197.4711488256961
 30
0.0
 11
42.45890126749872
 21
226.9337888979906
 31
0.0
  0
LINE
  5
3A50
330
38D5
100
AcDbEntity
  8
寸法線
 62
     0
370
    -2
100
AcDbLine
 10
101.8515140254043
 20
197.4711488256961
 30
0.0
 11
101.8515140254043
 21
226.9337888979906
 31
0.0
  0
LINE
  5
3A51
330
38D5
100
AcDbEntity
  8
寸法線
 62
     0
370
    -2
100
AcDbLine
 10
45.45890126749873
 20
223.9337888979906
 30
0.0
 11
98.85151402540433
 21
223.9337888979906
 31
0.0
  0
INSERT
  5
3A52
330
38D5
100
AcDbEntity
  8
寸法線
 62
     0
370
    -2
100
AcDbBlockReference
  2
_Closed
 10
42.45890126749872
 20
223.9337888979906
 30
0.0
 41
3.0
 42
3.0
 43
3.0
 50
180.0
  0
INSERT
  5
3A53
330
38D5
100
AcDbEntity
  8
寸法線
 62
     0
370
    -2
100
AcDbBlockReference
  2
_Closed
 10
101.8515140254043
 20
223.9337888979906
 30
0.0
 41
3.0
 42
3.0
 43
3.0
  0
MTEXT
  5
3A54
330
38D5
100
AcDbEntity
  8
寸法線
 62
     0
100
AcDbMText
 10
72.15520764645153
 20
227.4337888979906
 30
0.0
 40
5.0
 41
0.0
 71
     5
 72
     1
  1
61
  7
OKANO
 73
     1
 44
1.0
  0
POINT
  5
3A55
330
38D5
100
AcDbEntity
  8
Defpoints
 62
     0
100
AcDbPoint
 10
42.45890126749872
 20
195.4711488256961
 30
0.0
  0
POINT
  5
3A56
330
38D5
100
AcDbEntity
  8
Defpoints
 62
     0
100
AcDbPoint
 10
101.8515140254043
 20
195.4711488256961
 30
0.0
  0
POINT
  5
3A57
330
38D5
100
AcDbEntity
  8
Defpoints
 62
     0
100
AcDbPoint
 10
101.8515140254043
 20
223.9337888979906
 30
0.0
  0
ENDBLK
  5
38E0
330
38D5
100
AcDbEntity
  8
0
100
AcDbBlockEnd
  0
BLOCK
  5
38F5
330
38EB
100
AcDbEntity
  8
0
100
AcDbBlockBegin
  2
*D10
 70
     1
 10
0.0
 20
0.0
 30
0.0
  3
*D10
  1

  0
LINE
  5
38EC
330
38EB
100
AcDbEntity
  8
寸法線
 62
     0
370
    -2
100
AcDbLine
 10
5.458901267498731
 20
116.4901933295545
 30
0.0
 11
-17.90971498986934
 21
116.4901933295545
 31
0.0
  0
LINE
  5
38ED
330
38EB
100
AcDbEntity
  8
寸法線
 62
     0
370
    -2
100
AcDbLine
 10
5.458901267498735
 20
-15.50980667044541
 30
0.0
 11
-17.90971498986937
 21
-15.5098066704454
 31
0.0
  0
LINE
  5
38EE
330
38EB
100
AcDbEntity
  8
寸法線
 62
     0
370
    -2
100
AcDbLine
 10
-14.90971498986934
 20
113.4901933295545
 30
0.0
 11
-14.90971498986937
 21
-12.5098066704454
 31
0.0
  0
INSERT
  5
38EF
330
38EB
100
AcDbEntity
  8
寸法線
 62
     0
370
    -2
100
AcDbBlockReference
  2
_Closed
 10
-14.90971498986934
 20
116.4901933295545
 30
0.0
 41
3.0
 42
3.0
 43
3.0
 50
90.0
  0
INSERT
  5
38F0
330
38EB
100
AcDbEntity
  8
寸法線
 62
     0
370
    -2
100
AcDbBlockReference
  2
_Closed
 10
-14.90971498986937
 20
-15.5098066704454
 30
0.0
 41
3.0
 42
3.0
 43
3.0
 50
270.0
  0
MTEXT
  5
38F1
330
38EB
100
AcDbEntity
  8
寸法線
 62
     0
100
AcDbMText
 10
-18.41020711585361
 20
50.49019332955459
 30
0.0
 40
5.0
 41
0.0
 71
     5
 72
     1
  1
132
  7
OKANO
 11
0.0000000000000001
 21
1.0
 31
0.0
 73
     1
 44
1.0
  0
POINT
  5
38F2
330
38EB
100
AcDbEntity
  8
Defpoints
 62
     0
100
AcDbPoint
 10
7.458901267498731
 20
116.4901933295545
 30
0.0
  0
POINT
  5
38F3
330
38EB
100
AcDbEntity
  8
Defpoints
 62
     0
100
AcDbPoint
 10
7.458901267498735
 20
-15.50980667044541
 30
0.0
  0
POINT
  5
38F4
330
38EB
100
AcDbEntity
  8
Defpoints
 62
     0
100
AcDbPoint
 10
-14.90971498986937
 20
-15.5098066704454
 30
0.0
  0
ENDBLK
  5
38F6
330
38EB
100
AcDbEntity
  8
0
100
AcDbBlockEnd
  0
BLOCK
  5
3929
330
391F
100
AcDbEntity
  8
0
100
AcDbBlockBegin
  2
*D13
 70
     1
 10
0.0
 20
0.0
 30
0.0
  3
*D13
  1

  0
LINE
  5
392B
330
391F
100
AcDbEntity
  8
寸法線
 62
     0
370
    -2
100
AcDbLine
 10
180.8844772961612
 20
163.4711488256961
 30
0.0
 11
180.8844772961612
 21
141.6918655694226
 31
0.0
  0
LINE
  5
392C
330
391F
100
AcDbEntity
  8
寸法線
 62
     0
370
    -2
100
AcDbLine
 10
217.2344772961613
 20
163.4711488256961
 30
0.0
 11
217.2344772961613
 21
141.6918655694226
 31
0.0
  0
LINE
  5
392D
330
391F
100
AcDbEntity
  8
寸法線
 62
     0
370
    -2
100
AcDbLine
 10
183.8844772961612
 20
144.6918655694227
 30
0.0
 11
214.2344772961613
 21
144.6918655694227
 31
0.0
  0
INSERT
  5
392E
330
391F
100
AcDbEntity
  8
寸法線
 62
     0
370
    -2
100
AcDbBlockReference
  2
_Closed
 10
180.8844772961612
 20
144.6918655694227
 30
0.0
 41
3.0
 42
3.0
 43
3.0
 50
180.0
  0
INSERT
  5
392F
330
391F
100
AcDbEntity
  8
寸法線
 62
     0
370
    -2
100
AcDbBlockReference
  2
_Closed
 10
217.2344772961613
 20
144.6918655694227
 30
0.0
 41
3.0
 42
3.0
 43
3.0
  0
MTEXT
  5
3930
330
391F
100
AcDbEntity
  8
寸法線
 62
     0
100
AcDbMText
 10
199.0594772961613
 20
148.1918655694227
 30
0.0
 40
5.0
 41
0.0
 71
     5
 72
     1
  1
36
  7
OKANO
 73
     1
 44
1.0
  0
POINT
  5
3931
330
391F
100
AcDbEntity
  8
Defpoints
 62
     0
100
AcDbPoint
 10
180.8844772961612
 20
165.4711488256961
 30
0.0
  0
POINT
  5
3932
330
391F
100
AcDbEntity
  8
Defpoints
 62
     0
100
AcDbPoint
 10
217.2344772961613
 20
165.4711488256961
 30
0.0
  0
POINT
  5
3933
330
391F
100
AcDbEntity
  8
Defpoints
 62
     0
100
AcDbPoint
 10
217.2344772961613
 20
144.6918655694227
 30
0.0
  0
ENDBLK
  5
392A
330
391F
100
AcDbEntity
  8
0
100
AcDbBlockEnd
  0
BLOCK
  5
394C
330
3943
100
AcDbEntity
  8
0
100
AcDbBlockBegin
  2
*D14
 70
     1
 10
0.0
 20
0.0
 30
0.0
  3
*D14
  1

  0
LINE
  5
3AB8
330
3943
100
AcDbEntity
  8
寸法線
 62
     0
370
    -2
100
AcDbLine
 10
210.191436932235
 20
209.1750822805964
 30
0.0
 11
203.5061493460077
 21
188.5567431553081
 31
0.0
  0
LINE
  5
3AB9
330
3943
100
AcDbEntity
  8
寸法線
 62
     0
370
    -2
100
AcDbLine
 10
198.2628052463147
 20
172.3855544960841
 30
0.0
 11
197.3375092287218
 21
169.5318153209269
 31
0.0
  0
MTEXT
  5
3ABA
330
3943
100
AcDbEntity
  8
寸法線
 62
     0
100
AcDbMText
 10
205.1649568314757
 20
205.0204516504059
 30
0.0
 40
5.0
 41
0.0
 71
     5
 72
     1
  1
\U+220511
  7
OKANO
 11
0.3084320058642932
 21
0.9512463917190586
 31
0.0
 73
     1
 44
1.0
  0
LINE
  5
3ABB
330
3943
100
AcDbEntity
  8
寸法線
 62
     0
370
    -2
100
AcDbLine
 10
199.1881012639076
 20
175.2392936712412
 30
0.0
 11
202.5808533284148
 21
185.7030039801509
 31
0.0
  0
INSERT
  5
3ABC
330
3943
100
AcDbEntity
  8
寸法線
 62
     0
370
    -2
100
AcDbBlockReference
  2
_Closed
 10
199.1881012639076
 20
175.2392936712412
 30
0.0
 41
3.0
 42
3.0
 43
3.0
 50
72.03523873251358
  0
INSERT
  5
3ABD
330
3943
100
AcDbEntity
  8
寸法線
 62
     0
370
    -2
100
AcDbBlockReference
  2
_Closed
 10
202.5808533284148
 20
185.7030039801509
 30
0.0
 41
3.0
 42
3.0
 43
3.0
 50
252.0352387325135
  0
POINT
  5
3ABE
330
3943
100
AcDbEntity
  8
Defpoints
 62
     0
100
AcDbPoint
 10
202.5808533284148
 20
185.7030039801509
 30
0.0
  0
POINT
  5
3ABF
330
3943
100
AcDbEntity
  8
Defpoints
 62
     0
100
AcDbPoint
 10
199.1881012639076
 20
175.2392936712412
 30
0.0
  0
ENDBLK
  5
394D
330
3943
100
AcDbEntity
  8
0
100
AcDbBlockEnd
  0
BLOCK
  5
3958
330
394F
100
AcDbEntity
  8
0
100
AcDbBlockBegin
  2
*D15
 70
     1
 10
0.0
 20
0.0
 30
0.0
  3
*D15
  1

  0
LINE
  5
3AC0
330
394F
100
AcDbEntity
  8
寸法線
 62
     0
370
    -2
100
AcDbLine
 10
197.0514414096158
 20
210.1502425215515
 30
0.0
 11
189.360042721889
 21
185.2484604833543
 31
0.0
  0
LINE
  5
3AC1
330
394F
100
AcDbEntity
  8
寸法線
 62
     0
370
    -2
100
AcDbLine
 10
186.4089118704334
 20
175.6938371680379
 30
0.0
 11
185.5235726149967
 21
172.827450173443
 31
0.0
  0
MTEXT
  5
3AC2
330
394F
100
AcDbEntity
  8
寸法線
 62
     0
100
AcDbMText
 10
192.369429951995
 20
206.8515559076521
 30
0.0
 40
5.0
 41
0.0
 71
     5
 72
     1
  1
\U+22054
  7
OKANO
 11
0.2951130851455648
 21
0.9554623315316343
 31
0.0
 73
     1
 44
1.0
  0
LINE
  5
3AC3
330
394F
100
AcDbEntity
  8
寸法線
 62
     0
370
    -2
100
AcDbLine
 10
187.2942511258701
 20
178.5602241626328
 30
0.0
 11
188.4747034664523
 21
182.3820734887594
 31
0.0
  0
INSERT
  5
3AC4
330
394F
100
AcDbEntity
  8
寸法線
 62
     0
370
    -2
100
AcDbBlockReference
  2
_Closed
 10
187.2942511258701
 20
178.5602241626328
 30
0.0
 41
3.0
 42
3.0
 43
3.0
 50
72.83568142621644
  0
INSERT
  5
3AC5
330
394F
100
AcDbEntity
  8
寸法線
 62
     0
370
    -2
100
AcDbBlockReference
  2
_Closed
 10
188.4747034664523
 20
182.3820734887594
 30
0.0
 41
3.0
 42
3.0
 43
3.0
 50
252.8356814262164
  0
POINT
  5
3AC6
330
394F
100
AcDbEntity
  8
Defpoints
 62
     0
100
AcDbPoint
 10
188.4747034664523
 20
182.3820734887594
 30
0.0
  0
POINT
  5
3AC7
330
394F
100
AcDbEntity
  8
Defpoints
 62
     0
100
AcDbPoint
 10
187.2942511258701
 20
178.5602241626328
 30
0.0
  0
ENDBLK
  5
3959
330
394F
100
AcDbEntity
  8
0
100
AcDbBlockEnd
  0
BLOCK
  5
3975
330
3969
100
AcDbEntity
  8
0
100
AcDbBlockBegin
  2
*D16
 70
     1
 10
0.0
 20
0.0
 30
0.0
  3
*D16
  1

  0
LINE
  5
396A
330
3969
100
AcDbEntity
  8
寸法線
 62
     0
370
    -2
100
AcDbLine
 10
312.8844772961612
 20
163.4711488256961
 30
0.0
 11
312.8844772961612
 21
143.4047932903735
 31
0.0
  0
LINE
  5
396B
330
3969
100
AcDbEntity
  8
寸法線
 62
     0
370
    -2
100
AcDbLine
 10
305.8844772961612
 20
178.4711488256961
 30
0.0
 11
305.8844772961612
 21
143.4047932903735
 31
0.0
  0
LINE
  5
396C
330
3969
100
AcDbEntity
  8
寸法線
 62
     0
370
    -2
100
AcDbLine
 10
315.8844772961612
 20
146.4047932903735
 30
0.0
 11
318.8844772961612
 21
146.4047932903735
 31
0.0
  0
LINE
  5
396D
330
3969
100
AcDbEntity
  8
寸法線
 62
     0
370
    -2
100
AcDbLine
 10
302.8844772961612
 20
146.4047932903735
 30
0.0
 11
299.8844772961612
 21
146.4047932903735
 31
0.0
  0
LINE
  5
396E
330
3969
100
AcDbEntity
  8
寸法線
 62
     0
370
    -2
100
AcDbLine
 10
312.8844772961612
 20
146.4047932903735
 30
0.0
 11
305.8844772961612
 21
146.4047932903735
 31
0.0
  0
INSERT
  5
396F
330
3969
100
AcDbEntity
  8
寸法線
 62
     0
370
    -2
100
AcDbBlockReference
  2
_Closed
 10
312.8844772961612
 20
146.4047932903735
 30
0.0
 41
3.0
 42
3.0
 43
3.0
 50
180.0
  0
INSERT
  5
3970
330
3969
100
AcDbEntity
  8
寸法線
 62
     0
370
    -2
100
AcDbBlockReference
  2
_Closed
 10
305.8844772961612
 20
146.4047932903735
 30
0.0
 41
3.0
 42
3.0
 43
3.0
  0
MTEXT
  5
3971
330
3969
100
AcDbEntity
  8
寸法線
 62
     0
100
AcDbMText
 10
309.3844772961612
 20
149.9047932903735
 30
0.0
 40
5.0
 41
0.0
 71
     5
 72
     1
  1
7
  7
OKANO
 73
     1
 44
1.0
  0
POINT
  5
3972
330
3969
100
AcDbEntity
  8
Defpoints
 62
     0
100
AcDbPoint
 10
312.8844772961612
 20
165.4711488256961
 30
0.0
  0
POINT
  5
3973
330
3969
100
AcDbEntity
  8
Defpoints
 62
     0
100
AcDbPoint
 10
305.8844772961612
 20
180.4711488256961
 30
0.0
  0
POINT
  5
3974
330
3969
100
AcDbEntity
  8
Defpoints
 62
     0
100
AcDbPoint
 10
305.8844772961612
 20
146.4047932903735
 30
0.0
  0
ENDBLK
  5
3976
330
3969
100
AcDbEntity
  8
0
100
AcDbBlockEnd
  0
BLOCK
  5
3982
330
3978
100
AcDbEntity
  8
0
100
AcDbBlockBegin
  2
*D17
 70
     1
 10
0.0
 20
0.0
 30
0.0
  3
*D17
  1

  0
LINE
  5
3979
330
3978
100
AcDbEntity
  8
寸法線
 62
     0
370
    -2
100
AcDbLine
 10
305.8844772961612
 20
178.4711488256961
 30
0.0
 11
305.8844772961612
 21
143.4047932903735
 31
0.0
  0
LINE
  5
397A
330
3978
100
AcDbEntity
  8
寸法線
 62
     0
370
    -2
100
AcDbLine
 10
292.8844772961612
 20
178.4711488256962
 30
0.0
 11
292.8844772961612
 21
143.4047932903735
 31
0.0
  0
LINE
  5
397B
330
3978
100
AcDbEntity
  8
寸法線
 62
     0
370
    -2
100
AcDbLine
 10
302.8844772961612
 20
146.4047932903735
 30
0.0
 11
295.8844772961612
 21
146.4047932903735
 31
0.0
  0
INSERT
  5
397C
330
3978
100
AcDbEntity
  8
寸法線
 62
     0
370
    -2
100
AcDbBlockReference
  2
_Closed
 10
305.8844772961612
 20
146.4047932903735
 30
0.0
 41
3.0
 42
3.0
 43
3.0
  0
INSERT
  5
397D
330
3978
100
AcDbEntity
  8
寸法線
 62
     0
370
    -2
100
AcDbBlockReference
  2
_Closed
 10
292.8844772961612
 20
146.4047932903735
 30
0.0
 41
3.0
 42
3.0
 43
3.0
 50
180.0
  0
MTEXT
  5
397E
330
3978
100
AcDbEntity
  8
寸法線
 62
     0
100
AcDbMText
 10
299.3844772961612
 20
149.9047932903735
 30
0.0
 40
5.0
 41
0.0
 71
     5
 72
     1
  1
13
  7
OKANO
 73
     1
 44
1.0
  0
POINT
  5
397F
330
3978
100
AcDbEntity
  8
Defpoints
 62
     0
100
AcDbPoint
 10
305.8844772961612
 20
180.4711488256961
 30
0.0
  0
POINT
  5
3980
330
3978
100
AcDbEntity
  8
Defpoints
 62
     0
100
AcDbPoint
 10
292.8844772961612
 20
180.4711488256962
 30
0.0
  0
POINT
  5
3981
330
3978
100
AcDbEntity
  8
Defpoints
 62
     0
100
AcDbPoint
 10
292.8844772961612
 20
146.4047932903735
 30
0.0
  0
ENDBLK
  5
3983
330
3978
100
AcDbEntity
  8
0
100
AcDbBlockEnd
  0
BLOCK
  5
398F
330
3985
100
AcDbEntity
  8
0
100
AcDbBlockBegin
  2
*D18
 70
     1
 10
0.0
 20
0.0
 30
0.0
  3
*D18
  1

  0
LINE
  5
3986
330
3985
100
AcDbEntity
  8
寸法線
 62
     0
370
    -2
100
AcDbLine
 10
178.8844772961612
 20
165.4711488256961
 30
0.0
 11
168.1230701668896
 21
165.4711488256961
 31
0.0
  0
LINE
  5
3987
330
3985
100
AcDbEntity
  8
寸法線
 62
     0
370
    -2
100
AcDbLine
 10
178.8844772961612
 20
195.4711488256961
 30
0.0
 11
168.1230701668896
 21
195.4711488256961
 31
0.0
  0
LINE
  5
3988
330
3985
100
AcDbEntity
  8
寸法線
 62
     0
370
    -2
100
AcDbLine
 10
171.1230701668896
 20
168.4711488256961
 30
0.0
 11
171.1230701668896
 21
192.4711488256961
 31
0.0
  0
INSERT
  5
3989
330
3985
100
AcDbEntity
  8
寸法線
 62
     0
370
    -2
100
AcDbBlockReference
  2
_Closed
 10
171.1230701668896
 20
165.4711488256961
 30
0.0
 41
3.0
 42
3.0
 43
3.0
 50
270.0
  0
INSERT
  5
398A
330
3985
100
AcDbEntity
  8
寸法線
 62
     0
370
    -2
100
AcDbBlockReference
  2
_Closed
 10
171.1230701668896
 20
195.4711488256961
 30
0.0
 41
3.0
 42
3.0
 43
3.0
 50
90.0
  0
MTEXT
  5
398B
330
3985
100
AcDbEntity
  8
寸法線
 62
     0
100
AcDbMText
 10
167.6230701668895
 20
180.4711488256961
 30
0.0
 40
5.0
 41
0.0
 71
     5
 72
     1
  1
30
  7
OKANO
 11
0.0000000000000001
 21
1.0
 31
0.0
 73
     1
 44
1.0
  0
POINT
  5
398C
330
3985
100
AcDbEntity
  8
Defpoints
 62
     0
100
AcDbPoint
 10
180.8844772961612
 20
165.4711488256961
 30
0.0
  0
POINT
  5
398D
330
3985
100
AcDbEntity
  8
Defpoints
 62
     0
100
AcDbPoint
 10
180.8844772961612
 20
195.4711488256961
 30
0.0
  0
POINT
  5
398E
330
3985
100
AcDbEntity
  8
Defpoints
 62
     0
100
AcDbPoint
 10
171.1230701668896
 20
195.4711488256961
 30
0.0
  0
ENDBLK
  5
3990
330
3985
100
AcDbEntity
  8
0
100
AcDbBlockEnd
  0
BLOCK
  5
399C
330
3992
100
AcDbEntity
  8
0
100
AcDbBlockBegin
  2
*D19
 70
     1
 10
0.0
 20
0.0
 30
0.0
  3
*D19
  1

  0
LINE
  5
3993
330
3992
100
AcDbEntity
  8
寸法線
 62
     0
370
    -2
100
AcDbLine
 10
314.8844772961612
 20
195.4711488256961
 30
0.0
 11
328.9041682279316
 21
195.4711488256961
 31
0.0
  0
LINE
  5
3994
330
3992
100
AcDbEntity
  8
寸法線
 62
     0
370
    -2
100
AcDbLine
 10
307.8844772961612
 20
180.4711488256961
 30
0.0
 11
328.9041682279316
 21
180.4711488256961
 31
0.0
  0
LINE
  5
3995
330
3992
100
AcDbEntity
  8
寸法線
 62
     0
370
    -2
100
AcDbLine
 10
325.9041682279316
 20
192.4711488256961
 30
0.0
 11
325.9041682279316
 21
183.4711488256961
 31
0.0
  0
INSERT
  5
3996
330
3992
100
AcDbEntity
  8
寸法線
 62
     0
370
    -2
100
AcDbBlockReference
  2
_Closed
 10
325.9041682279316
 20
195.4711488256961
 30
0.0
 41
3.0
 42
3.0
 43
3.0
 50
90.0
  0
INSERT
  5
3997
330
3992
100
AcDbEntity
  8
寸法線
 62
     0
370
    -2
100
AcDbBlockReference
  2
_Closed
 10
325.9041682279316
 20
180.4711488256961
 30
0.0
 41
3.0
 42
3.0
 43
3.0
 50
270.0
  0
MTEXT
  5
3998
330
3992
100
AcDbEntity
  8
寸法線
 62
     0
100
AcDbMText
 10
322.4041682279316
 20
187.9711488256961
 30
0.0
 40
5.0
 41
0.0
 71
     5
 72
     1
  1
15
  7
OKANO
 11
0.0000000000000001
 21
1.0
 31
0.0
 73
     1
 44
1.0
  0
POINT
  5
3999
330
3992
100
AcDbEntity
  8
Defpoints
 62
     0
100
AcDbPoint
 10
312.8844772961612
 20
195.4711488256961
 30
0.0
  0
POINT
  5
399A
330
3992
100
AcDbEntity
  8
Defpoints
 62
     0
100
AcDbPoint
 10
305.8844772961612
 20
180.4711488256961
 30
0.0
  0
POINT
  5
399B
330
3992
100
AcDbEntity
  8
Defpoints
 62
     0
100
AcDbPoint
 10
325.9041682279316
 20
180.4711488256961
 30
0.0
  0
ENDBLK
  5
399D
330
3992
100
AcDbEntity
  8
0
100
AcDbBlockEnd
  0
BLOCK
  5
39AA
330
39A0
100
AcDbEntity
  8
0
100
AcDbBlockBegin
  2
*D20
 70
     1
 10
0.0
 20
0.0
 30
0.0
  3
*D20
  1

  0
LINE
  5
39A1
330
39A0
100
AcDbEntity
  8
寸法線
 62
     0
370
    -2
100
AcDbLine
 10
12.45890126749873
 20
60.48966645674396
 30
0.0
 11
12.45890126749873
 21
93.99019332955459
 31
0.0
  0
LINE
  5
39A2
330
39A0
100
AcDbEntity
  8
寸法線
 62
     0
370
    -2
100
AcDbLine
 10
42.45890126749872
 20
58.17463143060869
 30
0.0
 11
42.45890126749872
 21
93.99019332955459
 31
0.0
  0
LINE
  5
39A3
330
39A0
100
AcDbEntity
  8
寸法線
 62
     0
370
    -2
100
AcDbLine
 10
15.45890126749873
 20
90.99019332955458
 30
0.0
 11
39.45890126749873
 21
90.99019332955458
 31
0.0
  0
INSERT
  5
39A4
330
39A0
100
AcDbEntity
  8
寸法線
 62
     0
370
    -2
100
AcDbBlockReference
  2
_Closed
 10
12.45890126749873
 20
90.99019332955458
 30
0.0
 41
3.0
 42
3.0
 43
3.0
 50
180.0
  0
INSERT
  5
39A5
330
39A0
100
AcDbEntity
  8
寸法線
 62
     0
370
    -2
100
AcDbBlockReference
  2
_Closed
 10
42.45890126749872
 20
90.99019332955458
 30
0.0
 41
3.0
 42
3.0
 43
3.0
  0
MTEXT
  5
39A6
330
39A0
100
AcDbEntity
  8
寸法線
 62
     0
100
AcDbMText
 10
27.45890126749873
 20
94.49019332955458
 30
0.0
 40
5.0
 41
0.0
 71
     5
 72
     1
  1
30
  7
OKANO
 73
     1
 44
1.0
  0
POINT
  5
39A7
330
39A0
100
AcDbEntity
  8
Defpoints
 62
     0
100
AcDbPoint
 10
12.45890126749873
 20
58.48966645674396
 30
0.0
  0
POINT
  5
39A8
330
39A0
100
AcDbEntity
  8
Defpoints
 62
     0
100
AcDbPoint
 10
42.45890126749872
 20
56.1746314306087
 30
0.0
  0
POINT
  5
39A9
330
39A0
100
AcDbEntity
  8
Defpoints
 62
     0
100
AcDbPoint
 10
42.45890126749872
 20
90.99019332955458
 30
0.0
  0
ENDBLK
  5
39AB
330
39A0
100
AcDbEntity
  8
0
100
AcDbBlockEnd
  0
BLOCK
  5
39B7
330
39AD
100
AcDbEntity
  8
0
100
AcDbBlockBegin
  2
*D21
 70
     1
 10
0.0
 20
0.0
 30
0.0
  3
*D21
  1

  0
LINE
  5
39DE
330
39AD
100
AcDbEntity
  8
寸法線
 62
     0
370
    -2
100
AcDbLine
 10
42.45890126749872
 20
58.17463143060869
 30
0.0
 11
42.45890126749872
 21
93.99019332955459
 31
0.0
  0
LINE
  5
39DF
330
39AD
100
AcDbEntity
  8
寸法線
 62
     0
370
    -2
100
AcDbLine
 10
101.8515140254045
 20
52.49019332955459
 30
0.0
 11
101.8515140254045
 21
93.99019332955459
 31
0.0
  0
LINE
  5
39E0
330
39AD
100
AcDbEntity
  8
寸法線
 62
     0
370
    -2
100
AcDbLine
 10
45.45890126749873
 20
90.99019332955458
 30
0.0
 11
98.85151402540451
 21
90.99019332955458
 31
0.0
  0
INSERT
  5
39E1
330
39AD
100
AcDbEntity
  8
寸法線
 62
     0
370
    -2
100
AcDbBlockReference
  2
_Closed
 10
42.45890126749872
 20
90.99019332955458
 30
0.0
 41
3.0
 42
3.0
 43
3.0
 50
180.0
  0
INSERT
  5
39E2
330
39AD
100
AcDbEntity
  8
寸法線
 62
     0
370
    -2
100
AcDbBlockReference
  2
_Closed
 10
101.8515140254045
 20
90.99019332955458
 30
0.0
 41
3.0
 42
3.0
 43
3.0
  0
MTEXT
  5
39E3
330
39AD
100
AcDbEntity
  8
寸法線
 62
     0
100
AcDbMText
 10
72.15520764645162
 20
94.49019332955458
 30
0.0
 40
5.0
 41
0.0
 71
     5
 72
     1
  1
61
  7
OKANO
 73
     1
 44
1.0
  0
POINT
  5
39E4
330
39AD
100
AcDbEntity
  8
Defpoints
 62
     0
100
AcDbPoint
 10
42.45890126749872
 20
56.1746314306087
 30
0.0
  0
POINT
  5
39E5
330
39AD
100
AcDbEntity
  8
Defpoints
 62
     0
100
AcDbPoint
 10
101.8515140254045
 20
50.49019332955459
 30
0.0
  0
POINT
  5
39E6
330
39AD
100
AcDbEntity
  8
Defpoints
 62
     0
100
AcDbPoint
 10
101.8515140254045
 20
90.99019332955458
 30
0.0
  0
ENDBLK
  5
39B8
330
39AD
100
AcDbEntity
  8
0
100
AcDbBlockEnd
  0
BLOCK
  5
39F4
330
39E8
100
AcDbEntity
  8
0
100
AcDbBlockBegin
  2
*D22
 70
     1
 10
0.0
 20
0.0
 30
0.0
  3
*D22
  1

  0
LINE
  5
39F6
330
39E8
100
AcDbEntity
  8
寸法線
 62
     0
370
    -2
100
AcDbLine
 10
6.769445694480054
 20
118.4901933295545
 30
0.0
 11
6.769445694480055
 21
124.9422027092642
 31
0.0
  0
LINE
  5
39F7
330
39E8
100
AcDbEntity
  8
寸法線
 62
     0
370
    -2
100
AcDbLine
 10
12.45890126749873
 20
118.4901933295545
 30
0.0
 11
12.45890126749873
 21
124.9422027092642
 31
0.0
  0
LINE
  5
39F8
330
39E8
100
AcDbEntity
  8
寸法線
 62
     0
370
    -2
100
AcDbLine
 10
3.769445694480054
 20
121.9422027092642
 30
0.0
 11
0.769445694480055
 21
121.9422027092642
 31
0.0
  0
LINE
  5
39F9
330
39E8
100
AcDbEntity
  8
寸法線
 62
     0
370
    -2
100
AcDbLine
 10
15.45890126749873
 20
121.9422027092642
 30
0.0
 11
18.45890126749873
 21
121.9422027092642
 31
0.0
  0
LINE
  5
39FA
330
39E8
100
AcDbEntity
  8
寸法線
 62
     0
370
    -2
100
AcDbLine
 10
6.769445694480054
 20
121.9422027092642
 30
0.0
 11
12.45890126749873
 21
121.9422027092642
 31
0.0
  0
INSERT
  5
39FB
330
39E8
100
AcDbEntity
  8
寸法線
 62
     0
370
    -2
100
AcDbBlockReference
  2
_Closed
 10
6.769445694480054
 20
121.9422027092642
 30
0.0
 41
3.0
 42
3.0
 43
3.0
  0
INSERT
  5
39FC
330
39E8
100
AcDbEntity
  8
寸法線
 62
     0
370
    -2
100
AcDbBlockReference
  2
_Closed
 10
12.45890126749873
 20
121.9422027092642
 30
0.0
 41
3.0
 42
3.0
 43
3.0
 50
180.0
  0
MTEXT
  5
39FD
330
39E8
100
AcDbEntity
  8
寸法線
 62
     0
100
AcDbMText
 10
9.614173480989393
 20
125.4422027092642
 30
0.0
 40
5.0
 41
0.0
 71
     5
 72
     1
  1
6
  7
OKANO
 73
     1
 44
1.0
  0
POINT
  5
39FE
330
39E8
100
AcDbEntity
  8
Defpoints
 62
     0
100
AcDbPoint
 10
6.769445694480054
 20
116.4901933295545
 30
0.0
  0
POINT
  5
39FF
330
39E8
100
AcDbEntity
  8
Defpoints
 62
     0
100
AcDbPoint
 10
12.45890126749873
 20
116.4901933295545
 30
0.0
  0
POINT
  5
3A00
330
39E8
100
AcDbEntity
  8
Defpoints
 62
     0
100
AcDbPoint
 10
12.45890126749873
 20
121.9422027092642
 30
0.0
  0
ENDBLK
  5
39F5
330
39E8
100
AcDbEntity
  8
0
100
AcDbBlockEnd
  0
BLOCK
  5
3A0E
330
3A02
100
AcDbEntity
  8
0
100
AcDbBlockBegin
  2
*D23
 70
     1
 10
0.0
 20
0.0
 30
0.0
  3
*D23
  1

  0
LINE
  5
3A10
330
3A02
100
AcDbEntity
  8
寸法線
 62
     0
370
    -2
100
AcDbLine
 10
74.02020813042691
 20
75.12514489246462
 30
0.0
 11
123.9495987225957
 21
75.1251448924646
 31
0.0
  0
LINE
  5
3A11
330
3A02
100
AcDbEntity
  8
寸法線
 62
     0
370
    -2
100
AcDbLine
 10
74.02020813042691
 20
79.98101494535001
 30
0.0
 11
123.9495987225957
 21
79.98101494534999
 31
0.0
  0
LINE
  5
3A12
330
3A02
100
AcDbEntity
  8
寸法線
 62
     0
370
    -2
100
AcDbLine
 10
120.9495987225957
 20
72.1251448924646
 30
0.0
 11
120.9495987225957
 21
69.1251448924646
 31
0.0
  0
LINE
  5
3A13
330
3A02
100
AcDbEntity
  8
寸法線
 62
     0
370
    -2
100
AcDbLine
 10
120.9495987225957
 20
82.98101494535
 30
0.0
 11
120.9495987225957
 21
95.93678631129005
 31
0.0
  0
LINE
  5
3A14
330
3A02
100
AcDbEntity
  8
寸法線
 62
     0
370
    -2
100
AcDbLine
 10
120.9495987225957
 20
75.1251448924646
 30
0.0
 11
120.9495987225957
 21
79.98101494534999
 31
0.0
  0
INSERT
  5
3A15
330
3A02
100
AcDbEntity
  8
寸法線
 62
     0
370
    -2
100
AcDbBlockReference
  2
_Closed
 10
120.9495987225957
 20
75.1251448924646
 30
0.0
 41
3.0
 42
3.0
 43
3.0
 50
90.0
  0
INSERT
  5
3A16
330
3A02
100
AcDbEntity
  8
寸法線
 62
     0
370
    -2
100
AcDbBlockReference
  2
_Closed
 10
120.9495987225957
 20
79.98101494534999
 30
0.0
 41
3.0
 42
3.0
 43
3.0
 50
270.0
  0
MTEXT
  5
3A17
330
3A02
100
AcDbEntity
  8
寸法線
 62
     0
100
AcDbMText
 10
117.4495987225957
 20
90.95890062832003
 30
0.0
 40
5.0
 41
0.0
 71
     5
 72
     1
  1
5.5
  7
OKANO
 11
0.0000000000000001
 21
1.0
 31
0.0
 73
     1
 44
1.0
  0
POINT
  5
3A18
330
3A02
100
AcDbEntity
  8
Defpoints
 62
     0
100
AcDbPoint
 10
72.02020813042691
 20
75.12514489246462
 30
0.0
  0
POINT
  5
3A19
330
3A02
100
AcDbEntity
  8
Defpoints
 62
     0
100
AcDbPoint
 10
72.02020813042691
 20
79.98101494535001
 30
0.0
  0
POINT
  5
3A1A
330
3A02
100
AcDbEntity
  8
Defpoints
 62
     0
100
AcDbPoint
 10
120.9495987225957
 20
79.98101494534999
 30
0.0
  0
ENDBLK
  5
3A0F
330
3A02
100
AcDbEntity
  8
0
100
AcDbBlockEnd
  0
BLOCK
  5
3A28
330
3A1C
100
AcDbEntity
  8
0
100
AcDbBlockBegin
  2
*D24
 70
     1
 10
0.0
 20
0.0
 30
0.0
  3
*D24
  1

  0
LINE
  5
3A1D
330
3A1C
100
AcDbEntity
  8
寸法線
 62
     0
370
    -2
100
AcDbLine
 10
14.45890126749873
 20
54.49019332955458
 30
0.0
 11
32.7926675251299
 21
54.49019332955458
 31
0.0
  0
LINE
  5
3A1E
330
3A1C
100
AcDbEntity
  8
寸法線
 62
     0
370
    -2
100
AcDbLine
 10
14.45890126749873
 20
46.49019332955458
 30
0.0
 11
32.79266752512989
 21
46.49019332955457
 31
0.0
  0
LINE
  5
3A1F
330
3A1C
100
AcDbEntity
  8
寸法線
 62
     0
370
    -2
100
AcDbLine
 10
29.7926675251299
 20
57.49019332955458
 30
0.0
 11
29.7926675251299
 21
60.49019332955458
 31
0.0
  0
LINE
  5
3A20
330
3A1C
100
AcDbEntity
  8
寸法線
 62
     0
370
    -2
100
AcDbLine
 10
29.7926675251299
 20
43.49019332955458
 30
0.0
 11
29.7926675251299
 21
40.49019332955458
 31
0.0
  0
LINE
  5
3A21
330
3A1C
100
AcDbEntity
  8
寸法線
 62
     0
370
    -2
100
AcDbLine
 10
29.7926675251299
 20
54.49019332955458
 30
0.0
 11
29.7926675251299
 21
46.49019332955457
 31
0.0
  0
INSERT
  5
3A22
330
3A1C
100
AcDbEntity
  8
寸法線
 62
     0
370
    -2
100
AcDbBlockReference
  2
_Closed
 10
29.7926675251299
 20
54.49019332955458
 30
0.0
 41
3.0
 42
3.0
 43
3.0
 50
270.0
  0
INSERT
  5
3A23
330
3A1C
100
AcDbEntity
  8
寸法線
 62
     0
370
    -2
100
AcDbBlockReference
  2
_Closed
 10
29.7926675251299
 20
46.49019332955457
 30
0.0
 41
3.0
 42
3.0
 43
3.0
 50
90.0
  0
MTEXT
  5
3A24
330
3A1C
100
AcDbEntity
  8
寸法線
 62
     0
100
AcDbMText
 10
26.29266752512989
 20
50.49019332955459
 30
0.0
 40
5.0
 41
0.0
 71
     5
 72
     1
  1
8
  7
OKANO
 11
0.0000000000000001
 21
1.0
 31
0.0
 73
     1
 44
1.0
  0
POINT
  5
3A25
330
3A1C
100
AcDbEntity
  8
Defpoints
 62
     0
100
AcDbPoint
 10
12.45890126749873
 20
54.49019332955458
 30
0.0
  0
POINT
  5
3A26
330
3A1C
100
AcDbEntity
  8
Defpoints
 62
     0
100
AcDbPoint
 10
12.45890126749873
 20
46.49019332955458
 30
0.0
  0
POINT
  5
3A27
330
3A1C
100
AcDbEntity
  8
Defpoints
 62
     0
100
AcDbPoint
 10
29.7926675251299
 20
46.49019332955457
 30
0.0
  0
ENDBLK
  5
3A29
330
3A1C
100
AcDbEntity
  8
0
100
AcDbBlockEnd
  0
BLOCK
  5
3A35
330
3A2B
100
AcDbEntity
  8
0
100
AcDbBlockBegin
  2
*D25
 70
     1
 10
0.0
 20
0.0
 30
0.0
  3
*D25
  1

  0
LINE
  5
3A37
330
3A2B
100
AcDbEntity
  8
寸法線
 62
     0
370
    -2
100
AcDbLine
 10
5.458901267498735
 20
-17.50980667044541
 30
0.0
 11
5.458901267498734
 21
-25.21600865763969
 31
0.0
  0
LINE
  5
3A38
330
3A2B
100
AcDbEntity
  8
寸法線
 62
     0
370
    -2
100
AcDbLine
 10
101.8515140254045
 20
50.49019332955459
 30
0.0
 11
101.8515140254045
 21
-25.21600865763969
 31
0.0
  0
LINE
  5
3A39
330
3A2B
100
AcDbEntity
  8
寸法線
 62
     0
370
    -2
100
AcDbLine
 10
8.458901267498735
 20
-22.21600865763968
 30
0.0
 11
98.85151402540451
 21
-22.21600865763968
 31
0.0
  0
INSERT
  5
3A3A
330
3A2B
100
AcDbEntity
  8
寸法線
 62
     0
370
    -2
100
AcDbBlockReference
  2
_Closed
 10
5.458901267498735
 20
-22.21600865763968
 30
0.0
 41
3.0
 42
3.0
 43
3.0
 50
180.0
  0
INSERT
  5
3A3B
330
3A2B
100
AcDbEntity
  8
寸法線
 62
     0
370
    -2
100
AcDbBlockReference
  2
_Closed
 10
101.8515140254045
 20
-22.21600865763968
 30
0.0
 41
3.0
 42
3.0
 43
3.0
  0
MTEXT
  5
3A3C
330
3A2B
100
AcDbEntity
  8
寸法線
 62
     0
100
AcDbMText
 10
53.65520764645161
 20
-18.71600865763969
 30
0.0
 40
5.0
 41
0.0
 71
     5
 72
     1
  1
97
  7
OKANO
 73
     1
 44
1.0
  0
POINT
  5
3A3D
330
3A2B
100
AcDbEntity
  8
Defpoints
 62
     0
100
AcDbPoint
 10
5.458901267498735
 20
-15.50980667044541
 30
0.0
  0
POINT
  5
3A3E
330
3A2B
100
AcDbEntity
  8
Defpoints
 62
     0
100
AcDbPoint
 10
101.8515140254045
 20
52.49019332955459
 30
0.0
  0
POINT
  5
3A3F
330
3A2B
100
AcDbEntity
  8
Defpoints
 62
     0
100
AcDbPoint
 10
101.8515140254045
 20
-22.21600865763968
 30
0.0
  0
ENDBLK
  5
3A36
330
3A2B
100
AcDbEntity
  8
0
100
AcDbBlockEnd
  0
BLOCK
  5
3A82
330
3A78
100
AcDbEntity
  8
0
100
AcDbBlockBegin
  2
*D27
 70
     1
 10
0.0
 20
0.0
 30
0.0
  3
*D27
  1

  0
LINE
  5
3A79
330
3A78
100
AcDbEntity
  8
寸法線
 62
     0
370
    -2
100
AcDbLine
 10
180.8844772961612
 20
197.4711488256961
 30
0.0
 11
180.8844772961612
 21
223.4758593447942
 31
0.0
  0
LINE
  5
3A7A
330
3A78
100
AcDbEntity
  8
寸法線
 62
     0
370
    -2
100
AcDbLine
 10
312.8844772961612
 20
197.4711488256961
 30
0.0
 11
312.8844772961612
 21
223.4758593447942
 31
0.0
  0
LINE
  5
3A7B
330
3A78
100
AcDbEntity
  8
寸法線
 62
     0
370
    -2
100
AcDbLine
 10
183.8844772961612
 20
220.4758593447942
 30
0.0
 11
309.8844772961612
 21
220.4758593447942
 31
0.0
  0
INSERT
  5
3A7C
330
3A78
100
AcDbEntity
  8
寸法線
 62
     0
370
    -2
100
AcDbBlockReference
  2
_Closed
 10
180.8844772961612
 20
220.4758593447942
 30
0.0
 41
3.0
 42
3.0
 43
3.0
 50
180.0
  0
INSERT
  5
3A7D
330
3A78
100
AcDbEntity
  8
寸法線
 62
     0
370
    -2
100
AcDbBlockReference
  2
_Closed
 10
312.8844772961612
 20
220.4758593447942
 30
0.0
 41
3.0
 42
3.0
 43
3.0
  0
MTEXT
  5
3A7E
330
3A78
100
AcDbEntity
  8
寸法線
 62
     0
100
AcDbMText
 10
246.8844772961612
 20
223.9763514707785
 30
0.0
 40
5.0
 41
0.0
 71
     5
 72
     1
  1
132
  7
OKANO
 73
     1
 44
1.0
  0
POINT
  5
3A7F
330
3A78
100
AcDbEntity
  8
Defpoints
 62
     0
100
AcDbPoint
 10
180.8844772961612
 20
195.4711488256961
 30
0.0
  0
POINT
  5
3A80
330
3A78
100
AcDbEntity
  8
Defpoints
 62
     0
100
AcDbPoint
 10
312.8844772961612
 20
195.4711488256961
 30
0.0
  0
POINT
  5
3A81
330
3A78
100
AcDbEntity
  8
Defpoints
 62
     0
100
AcDbPoint
 10
312.8844772961612
 20
220.4758593447942
 30
0.0
  0
ENDBLK
  5
3A83
330
3A78
100
AcDbEntity
  8
0
100
AcDbBlockEnd
  0
BLOCK
  5
3A8F
330
3A85
100
AcDbEntity
  8
0
100
AcDbBlockBegin
  2
*D28
 70
     1
 10
0.0
 20
0.0
 30
0.0
  3
*D28
  1

  0
LINE
  5
3A91
330
3A85
100
AcDbEntity
  8
寸法線
 62
     0
370
    -2
100
AcDbLine
 10
97.30774481441791
 20
21.32124002356658
 30
0.0
 11
137.6323763040647
 21
21.32124002356657
 31
0.0
  0
LINE
  5
3A92
330
3A85
100
AcDbEntity
  8
寸法線
 62
     0
370
    -2
100
AcDbLine
 10
125.9495987225957
 20
79.98101494534999
 30
0.0
 11
137.6323763040647
 21
79.98101494534999
 31
0.0
  0
LINE
  5
3A93
330
3A85
100
AcDbEntity
  8
寸法線
 62
     0
370
    -2
100
AcDbLine
 10
134.6323763040647
 20
24.32124002356657
 30
0.0
 11
134.6323763040647
 21
76.98101494534999
 31
0.0
  0
INSERT
  5
3A94
330
3A85
100
AcDbEntity
  8
寸法線
 62
     0
370
    -2
100
AcDbBlockReference
  2
_Closed
 10
134.6323763040647
 20
21.32124002356657
 30
0.0
 41
3.0
 42
3.0
 43
3.0
 50
270.0
  0
INSERT
  5
3A95
330
3A85
100
AcDbEntity
  8
寸法線
 62
     0
370
    -2
100
AcDbBlockReference
  2
_Closed
 10
134.6323763040647
 20
79.98101494534999
 30
0.0
 41
3.0
 42
3.0
 43
3.0
 50
90.0
  0
MTEXT
  5
3A96
330
3A85
100
AcDbEntity
  8
寸法線
 62
     0
100
AcDbMText
 10
131.1323763040647
 20
50.6511274844583
 30
0.0
 40
5.0
 41
0.0
 71
     5
 72
     1
  1
61
  7
OKANO
 11
0.0000000000000001
 21
1.0
 31
0.0
 73
     1
 44
1.0
  0
POINT
  5
3A97
330
3A85
100
AcDbEntity
  8
Defpoints
 62
     0
100
AcDbPoint
 10
95.3077448144179
 20
21.32124002356658
 30
0.0
  0
POINT
  5
3A98
330
3A85
100
AcDbEntity
  8
Defpoints
 62
     0
100
AcDbPoint
 10
123.9495987225957
 20
79.98101494534999
 30
0.0
  0
POINT
  5
3A99
330
3A85
100
AcDbEntity
  8
Defpoints
 62
     0
100
AcDbPoint
 10
134.6323763040647
 20
79.98101494534999
 30
0.0
  0
ENDBLK
  5
3A90
330
3A85
100
AcDbEntity
  8
0
100
AcDbBlockEnd
  0
BLOCK
  5
3AA4
330
3A9B
100
AcDbEntity
  8
0
100
AcDbBlockBegin
  2
*D29
 70
     1
 10
0.0
 20
0.0
 30
0.0
  3
*D29
  1

  0
LINE
  5
3AAE
330
3A9B
100
AcDbEntity
  8
寸法線
 62
     0
370
    -2
100
AcDbLine
 10
146.9840011227483
 20
-9.841410542386427
 30
0.0
 11
93.7213793896063
 21
33.12880240870299
 31
0.0
  0
LINE
  5
3AAF
330
3A9B
100
AcDbEntity
  8
寸法線
 62
     0
370
    -2
100
AcDbLine
 10
50.6816486612027
 20
67.85158425040616
 30
0.0
 11
48.34676272656959
 21
69.7352794678584
 31
0.0
  0
MTEXT
  5
3AB0
330
3A9B
100
AcDbEntity
  8
寸法線
 62
     0
100
AcDbMText
 10
138.7163400091435
 20
1.325624777182866
 30
0.0
 40
5.0
 41
0.0
 71
     5
 72
     1
  1
49.5～50
  7
OKANO
 11
0.778295311544369
 21
-0.6278984058174171
 31
0.0
 73
     1
 44
1.0
  0
LINE
  5
3AB1
330
3A9B
100
AcDbEntity
  8
寸法線
 62
     0
370
    -2
100
AcDbLine
 10
53.0165345958358
 20
65.9678890329539
 30
0.0
 11
91.38649345497318
 21
35.01249762615524
 31
0.0
  0
INSERT
  5
3AB2
330
3A9B
100
AcDbEntity
  8
寸法線
 62
     0
370
    -2
100
AcDbBlockReference
  2
_Closed
 10
53.0165345958358
 20
65.9678890329539
 30
0.0
 41
3.0
 42
3.0
 43
3.0
 50
321.1047596345348
  0
INSERT
  5
3AB3
330
3A9B
100
AcDbEntity
  8
寸法線
 62
     0
370
    -2
100
AcDbBlockReference
  2
_Closed
 10
91.38649345497318
 20
35.01249762615524
 30
0.0
 41
3.0
 42
3.0
 43
3.0
 50
141.1047596345349
  0
POINT
  5
3AB4
330
3A9B
100
AcDbEntity
  8
Defpoints
 62
     0
100
AcDbPoint
 10
91.38649345497318
 20
35.01249762615524
 30
0.0
  0
POINT
  5
3AB5
330
3A9B
100
AcDbEntity
  8
Defpoints
 62
     0
100
AcDbPoint
 10
53.0165345958358
 20
65.9678890329539
 30
0.0
  0
ENDBLK
  5
3AA5
330
3A9B
100
AcDbEntity
  8
0
100
AcDbBlockEnd
  0
ENDSEC
  0
SECTION
  2
ENTITIES
  0
XLINE
  5
22CA
330
1F
100
AcDbEntity
  8
構築線
370
     5
100
AcDbXline
 10
72.20151402540432
 20
178.0193172078315
 30
0.0
 11
0.0
 21
-1.0
 31
0.0
  0
TEXT
  5
29C2
330
1F
100
AcDbEntity
  8
文字
100
AcDbText
 10
243.3623808613172
 20
-2.491683326584464
 30
0.0
 40
4.799999999999999
  1
joint kogyo T.okano
 51
15.0
  7
OKANO
100
AcDbText
  0
TEXT
  5
29C3
330
1F
100
AcDbEntity
  8
文字
100
AcDbText
 10
235.8740678495203
 20
12.26068818070332
 30
0.0
 40
4.799999999999999
  1
F-999-20121010 Auto CAD
 51
15.0
  7
OKANO
100
AcDbText
  0
LINE
  5
29C4
330
1F
100
AcDbEntity
  8
太線
100
AcDbLine
 10
208.4518396679064
 20
11.33988053027296
 30
0.0
 11
316.4518396679064
 21
11.33988053027296
 31
0.0
  0
LWPOLYLINE
  5
29C5
330
1F
100
AcDbEntity
  8
太線
100
AcDbPolyline
 90
        4
 70
     1
 43
0.0
 10
208.4518396679064
 20
19.73988053027296
 10
316.4518396679064
 20
19.73988053027296
 10
316.4518396679064
 20
-5.460119469727032
 10
208.4518396679064
 20
-5.460119469727032
  0
TEXT
  5
29C6
330
1F
100
AcDbEntity
  8
文字
100
AcDbText
 10
212.324223233964
 20
3.146368731422285
 30
0.0
 40
2.399999999999999
  1
CHECK
 51
15.0
  7
OKANO
100
AcDbText
  0
LINE
  5
29C7
330
1F
100
AcDbEntity
  8
太線
100
AcDbLine
 10
232.4518396679065
 20
19.73988053027296
 30
0.0
 11
232.4518396679065
 21
-5.460119469727032
 31
0.0
  0
TEXT
  5
29C8
330
1F
100
AcDbEntity
  8
文字
100
AcDbText
 10
212.324223233964
 20
-3.773058874793537
 30
0.0
 40
2.399999999999999
  1
ISSUED
 51
15.0
  7
OKANO
100
AcDbText
  0
TEXT
  5
29C9
330
1F
100
AcDbEntity
  8
文字
100
AcDbText
 10
212.5807376668646
 20
-0.4414826855254006
 30
0.0
 40
2.399999999999999
  1
APPR
 51
15.0
  7
OKANO
100
AcDbText
  0
TEXT
  5
29CA
330
1F
100
AcDbEntity
  8
文字
100
AcDbText
 10
210.5286276822782
 20
13.14109670903812
 30
0.0
 40
2.399999999999999
  1
FILM NAME
 51
15.0
  7
OKANO
100
AcDbText
  0
TEXT
  5
29CB
330
1F
100
AcDbEntity
  8
文字
100
AcDbText
 10
211.8111965596103
 20
6.734219558181322
 30
0.0
 40
2.399999999999999
  1
DRAWN
 51
15.0
  7
OKANO
100
AcDbText
  0
TEXT
  5
29CC
330
1F
100
AcDbEntity
  8
文字
100
AcDbText
 10
238.0278348659282
 20
3.518540835754947
 30
0.0
 40
4.799999999999999
  1
31-1B
 51
15.0
  7
OKANO
100
AcDbText
  0
XLINE
  5
2DB6
330
1F
100
AcDbEntity
  8
構築線
100
AcDbXline
 10
72.20151402540432
 20
180.4711488256961
 30
0.0
 11
1.0
 21
0.0
 31
0.0
  0
XLINE
  5
2DB7
330
1F
100
AcDbEntity
  8
構築線
370
     5
100
AcDbXline
 10
4921.501514025404
 20
178.0193172078315
 30
0.0
 11
0.0
 21
-1.0
 31
0.0
  0
XLINE
  5
2DB8
330
1F
100
AcDbEntity
  8
構築線
370
     5
100
AcDbXline
 10
-4777.098485974596
 20
178.0193172078315
 30
0.0
 11
0.0
 21
-1.0
 31
0.0
  0
LINE
  5
2E05
330
1F
100
AcDbEntity
  8
破線
100
AcDbLine
 10
101.8515140254043
 20
195.4711488256961
 30
0.0
 11
101.8515140254043
 21
165.4711488256961
 31
0.0
  0
LINE
  5
2E4D
330
1F
100
AcDbEntity
  8
太線
100
AcDbLine
 10
217.2344772961612
 20
180.4711488256961
 30
0.0
 11
217.2344772961612
 21
195.4711488256961
 31
0.0
  0
LINE
  5
2E4F
330
1F
100
AcDbEntity
  8
太線
100
AcDbLine
 10
276.5344772961611
 20
195.4711488256961
 30
0.0
 11
276.5344772961613
 21
180.4711488256961
 31
0.0
  0
LINE
  5
2E50
330
1F
100
AcDbEntity
  8
太線
100
AcDbLine
 10
217.2344772961612
 20
180.4711488256961
 30
0.0
 11
217.2344772961613
 21
165.4711488256961
 31
0.0
  0
LINE
  5
2E52
330
1F
100
AcDbEntity
  8
太線
100
AcDbLine
 10
276.5344772961613
 20
165.4711488256961
 30
0.0
 11
276.5344772961613
 21
180.4711488256961
 31
0.0
  0
LINE
  5
2E8F
330
1F
100
AcDbEntity
  8
細線
100
AcDbLine
 10
212.5709870648984
 20
185.2885016411992
 30
0.0
 11
222.6631863254758
 21
185.0484366376423
 31
0.0
  0
LINE
  5
2E90
330
1F
100
AcDbEntity
  8
細線
100
AcDbLine
 10
212.7257239814743
 20
186.2851037607091
 30
0.0
 11
222.8726311267555
 21
186.0437374106174
 31
0.0
  0
LINE
  5
2E91
330
1F
100
AcDbEntity
  8
細線
100
AcDbLine
 10
212.3807434058803
 20
177.2907640017037
 30
0.0
 11
222.4729426664576
 21
177.0506989981468
 31
0.0
  0
LINE
  5
2E92
330
1F
100
AcDbEntity
  8
細線
100
AcDbLine
 10
212.4879194077016
 20
176.2879317113397
 30
0.0
 11
222.6348265529829
 21
176.046565361248
 31
0.0
  0
ARC
  5
2E93
330
1F
100
AcDbEntity
  8
太線
100
AcDbCircle
 10
246.8844772961612
 20
180.4711488256961
 30
0.0
 40
34.65
100
AcDbArc
 50
166.1367294756544
 51
191.137973934145
  0
LINE
  5
2E94
330
1F
100
AcDbEntity
  8
太線
100
AcDbLine
 10
217.2344772961613
 20
171.817431855244
 30
0.0
 11
212.8871152208056
 21
173.7777287793246
 31
0.0
  0
LINE
  5
2E95
330
1F
100
AcDbEntity
  8
太線
100
AcDbLine
 10
217.2344772961613
 20
190.3491578792416
 30
0.0
 11
213.2438220814646
 21
188.7734868533787
 31
0.0
  0
LINE
  5
2EA0
330
1F
100
AcDbEntity
  8
破線
100
AcDbLine
 10
222.2344772961613
 20
180.4711488256961
 30
0.0
 11
222.2344772961613
 21
165.4711488256961
 31
0.0
  0
LINE
  5
2EA2
330
1F
100
AcDbEntity
  8
破線
100
AcDbLine
 10
271.5344772961613
 20
165.4711488256961
 30
0.0
 11
271.5344772961612
 21
180.4711488256961
 31
0.0
  0
XLINE
  5
2EA8
330
1F
100
AcDbEntity
  8
構築線
100
AcDbXline
 10
32.65221632861516
 20
50.49019332955459
 30
0.0
 11
1.0
 21
0.0
 31
0.0
  0
CIRCLE
  5
309E
330
1F
100
AcDbEntity
  8
太線
100
AcDbCircle
 10
72.20151402540432
 20
180.4711488256961
 30
0.0
 40
3.999999999999994
  0
CIRCLE
  5
309F
330
1F
100
AcDbEntity
  8
太線
100
AcDbCircle
 10
72.20151402540432
 20
180.4711488256961
 30
0.0
 40
4.999999999999998
  0
CIRCLE
  5
30A0
330
1F
100
AcDbEntity
  8
太線
100
AcDbCircle
 10
72.20151402540432
 20
180.4711488256961
 30
0.0
 40
10.0
  0
CIRCLE
  5
30A1
330
1F
100
AcDbEntity
  8
太線
100
AcDbCircle
 10
72.20151402540432
 20
180.4711488256961
 30
0.0
 40
7.513741701180227
  0
LINE
  5
30AC
330
1F
100
AcDbEntity
  8
破線
100
AcDbLine
 10
271.5344772961612
 20
195.4711488256961
 30
0.0
 11
271.5344772961612
 21
180.4711488256961
 31
0.0
  0
LINE
  5
30AD
330
1F
100
AcDbEntity
  8
破線
100
AcDbLine
 10
222.2344772961613
 20
195.4711488256961
 30
0.0
 11
222.2344772961613
 21
180.4711488256961
 31
0.0
  0
LINE
  5
30B2
330
1F
100
AcDbEntity
  8
破線
100
AcDbLine
 10
96.85151402540434
 20
195.4711488256961
 30
0.0
 11
96.85151402540434
 21
165.4711488256961
 31
0.0
  0
LINE
  5
32E1
330
1F
100
AcDbEntity
  8
太線
100
AcDbLine
 10
101.8515140254043
 20
165.4711488256961
 30
0.0
 11
101.8515140254043
 21
195.4711488256961
 31
0.0
  0
DIMENSION
  5
3319
330
1F
100
AcDbEntity
  8
寸法線
100
AcDbDimension
  2
*D3
 10
79.73585347775861
 20
214.2751686379245
 30
0.0
 11
72.27494509096164
 21
217.7756607639088
 31
0.0
 70
    32
  1
20
 71
     5
 42
14.92181677359394
  3
sunpo
100
AcDbAlignedDimension
 13
64.81403670416466
 23
181.105798027382
 33
0.0
 14
79.73585347775861
 24
180.5172428108736
 34
0.0
100
AcDbRotatedDimension
1001
ACAD
1000
DSTYLE
1002
{
1070
    40
1040
1.0
1002
}
  0
DIMENSION
  5
3330
330
1F
100
AcDbEntity
  8
寸法線
100
AcDbDimension
  2
*D4
 10
82.6809483387276
 20
144.0948213795444
 30
0.0
 11
72.4712847103683
 21
147.5953135055287
 31
0.0
 70
    32
  1
24
 71
     5
 42
20.41932725671859
  3
sunpo
100
AcDbAlignedDimension
 13
62.26162108200901
 23
181.105798027382
 33
0.0
 14
82.6809483387276
 24
180.7134278830431
 34
0.0
100
AcDbRotatedDimension
1001
ACAD
1000
DSTYLE
1002
{
1070
    40
1040
1.0
1002
}
  0
LEADER
  5
3451
330
1F
100
AcDbEntity
  8
寸法線
100
AcDbLeader
  3
sunpo
 76
     2
 10
174.050454793653
 20
99.97251037497262
 30
0.0
 10
193.4009264517599
 20
107.5531989291629
 30
0.0
1001
ACAD
1000
DSTYLE
1002
{
1070
   147
1040
1.0
1070
    77
1070
     0
1002
}
  0
TEXT
  5
3452
330
1F
100
AcDbEntity
  8
文字
100
AcDbText
 10
175.6648623733147
 20
109.8274054954201
 30
0.0
 40
4.799999999999999
  1
8mm六角レンチ仕様
 51
15.0
  7
OKANO
100
AcDbText
  0
DIMENSION
  5
3453
330
1F
100
AcDbEntity
  8
寸法線
100
AcDbDimension
  2
*D5
 10
187.3412175844443
 20
78.87087458497139
 30
0.0
 11
183.9444561680662
 21
83.94157590532197
 31
0.0
 70
    33
  1
13
 71
     5
 42
9.999999999999943
  3
sunpo
100
AcDbAlignedDimension
 13
177.8978399500013
 23
89.06661227151426
 33
0.0
 14
177.6928338991726
 24
79.06871386639318
 34
0.0
1001
ACAD
1000
DSTYLE
1002
{
1070
    40
1040
1.0
1002
}
  0
LINE
  5
3454
330
1F
100
AcDbEntity
  8
破線
100
AcDbLine
 10
177.8978399500013
 20
89.06661227151426
 30
0.0
 11
177.7133345042555
 21
80.06850370690528
 31
0.0
  0
LINE
  5
3455
330
1F
100
AcDbEntity
  8
太線
100
AcDbLine
 10
178.7131243447676
 20
80.04800310182236
 30
0.0
 11
178.8976297905134
 21
89.04611166643144
 31
0.0
  0
LINE
  5
3456
330
1F
100
AcDbEntity
  8
太線
100
AcDbLine
 10
168.8997313853923
 20
89.25111771726012
 30
0.0
 11
168.7152259396465
 21
80.25300915265097
 31
0.0
  0
LINE
  5
3457
330
1F
100
AcDbEntity
  8
破線
100
AcDbLine
 10
169.8995212259044
 20
89.23061711217718
 30
0.0
 11
169.7150157801586
 21
80.23250854756822
 31
0.0
  0
LINE
  5
3458
330
1F
100
AcDbEntity
  8
破線
100
AcDbLine
 10
170.7148056206707
 20
80.21200794248533
 30
0.0
 11
170.8993110664166
 21
89.21011650709431
 31
0.0
  0
LINE
  5
3459
330
1F
100
AcDbEntity
  8
破線
100
AcDbLine
 10
176.7135446637434
 20
80.0890043119881
 30
0.0
 11
176.8980501094892
 21
89.08711287659713
 31
0.0
  0
LINE
  5
345A
330
1F
100
AcDbEntity
  8
破線
100
AcDbLine
 10
168.7152259396465
 20
80.25300915265097
 30
0.0
 11
178.7131243447676
 21
80.04800310182236
 31
0.0
  0
LINE
  5
345C
330
1F
100
AcDbEntity
  8
破線
100
AcDbLine
 10
169.6945151750757
 20
79.23271870705605
 30
0.0
 11
170.7148056206707
 21
80.21200794248533
 31
0.0
  0
LINE
  5
345D
330
1F
100
AcDbEntity
  8
太線
100
AcDbLine
 10
168.7152259396465
 20
80.25300915265097
 30
0.0
 11
169.6945151750757
 21
79.23271870705605
 31
0.0
  0
LINE
  5
345E
330
1F
100
AcDbEntity
  8
太線
100
AcDbLine
 10
177.6928338991726
 20
79.06871386639318
 30
0.0
 11
178.7131243447676
 21
80.04800310182236
 31
0.0
  0
LINE
  5
345F
330
1F
100
AcDbEntity
  8
破線
100
AcDbLine
 10
177.6928338991726
 20
79.06871386639318
 30
0.0
 11
176.7135446637434
 21
80.0890043119881
 31
0.0
  0
LINE
  5
3461
330
1F
100
AcDbEntity
  8
太線
100
AcDbLine
 10
178.8976297905134
 20
89.04611166643144
 30
0.0
 11
168.8997313853923
 21
89.25111771726012
 31
0.0
  0
LWPOLYLINE
  5
3462
330
1F
100
AcDbEntity
  8
太線
100
AcDbPolyline
 90
        6
 70
     1
 43
0.0
 10
177.1030561603178
 20
99.08501128171833
 10
175.6566335339338
 20
101.7132923903298
 10
172.6572640123975
 20
101.7747942055784
 10
171.1043171172452
 20
99.20801491221546
 10
172.5507397436292
 20
96.57973380360397
 10
175.5501092651655
 20
96.51823198835536
  0
CIRCLE
  5
3463
330
1F
100
AcDbEntity
  8
太線
100
AcDbCircle
 10
174.1036866387815
 20
99.14651309696683
 30
0.0
 40
3.999999999999994
  0
CIRCLE
  5
3464
330
1F
100
AcDbEntity
  8
太線
100
AcDbCircle
 10
174.1036866387815
 20
99.14651309696683
 30
0.0
 40
4.999999999999998
  0
XLINE
  5
34FF
330
1F
100
AcDbEntity
  8
構築線
100
AcDbXline
 10
71.49890190262727
 20
-98.3201866155041
 30
0.0
 11
1.0
 21
0.0
 31
0.0
  0
CIRCLE
  5
3517
330
1F
100
AcDbEntity
  8
太線
100
AcDbCircle
 10
72.20151402540449
 20
50.49019332955456
 30
0.0
 40
24.65
  0
DIMENSION
  5
3518
330
1F
100
AcDbEntity
  8
寸法線
100
AcDbDimension
  2
*D7
 10
92.30774481441789
 20
16.07627475042636
 30
0.0
 11
88.8077448144179
 21
18.69875738699648
 31
0.0
 70
    32
  1
5
 71
     5
 42
5.244965273140223
  3
sunpo
100
AcDbAlignedDimension
 13
72.08299003925271
 23
21.32124002356658
 33
0.0
 14
72.08299003925271
 24
16.07627475042636
 34
0.0
 50
90.0
100
AcDbRotatedDimension
1001
ACAD
1000
DSTYLE
1002
{
1070
    40
1040
1.0
1002
}
  0
LINE
  5
3519
330
1F
100
AcDbEntity
  8
太線
100
AcDbLine
 10
81.5349077350875
 20
22.3475164515451
 30
0.0
 11
78.89493407177607
 21
16.4928312541989
 31
0.0
  0
LINE
  5
351A
330
1F
100
AcDbEntity
  8
太線
100
AcDbLine
 10
61.54056363634869
 20
22.82312559909043
 30
0.0
 11
63.89917599772196
 21
16.84953811485792
 31
0.0
  0
LINE
  5
351B
330
1F
100
AcDbEntity
  8
細線
100
AcDbLine
 10
67.38416120990139
 20
16.17670309829179
 30
0.0
 11
67.62422621345836
 21
26.26890235886914
 31
0.0
  0
LINE
  5
351C
330
1F
100
AcDbEntity
  8
細線
100
AcDbLine
 10
66.38755909039152
 20
16.33144001486761
 30
0.0
 11
66.62892544048323
 21
26.47834716014882
 31
0.0
  0
LINE
  5
351D
330
1F
100
AcDbEntity
  8
細線
100
AcDbLine
 10
75.3818988493969
 20
15.98645943927368
 30
0.0
 11
75.62196385295386
 21
26.078658699851
 31
0.0
  0
LINE
  5
351E
330
1F
100
AcDbEntity
  8
細線
100
AcDbLine
 10
76.38473113976091
 20
16.09363544109493
 30
0.0
 11
76.62609748985262
 21
26.2405425863762
 31
0.0
  0
ARC
  5
351F
330
1F
100
AcDbEntity
  8
太線
100
AcDbCircle
 10
72.20151402540452
 20
50.49019332955456
 30
0.0
 40
34.65
100
AcDbArc
 50
256.1367294756545
 51
281.137973934145
  0
LINE
  5
35B1
330
1F
100
AcDbEntity
  8
太線
100
AcDbLine
 10
101.8515140254043
 20
195.4711488256961
 30
0.0
 11
101.8515140254043
 21
165.4711488256961
 31
0.0
  0
LINE
  5
35B7
330
1F
100
AcDbEntity
  8
破線
100
AcDbLine
 10
96.85151402540434
 20
195.4711488256961
 30
0.0
 11
96.85151402540434
 21
165.4711488256961
 31
0.0
  0
LINE
  5
35CE
330
1F
100
AcDbEntity
  8
太線
100
AcDbLine
 10
177.6928338991726
 20
79.06871386639318
 30
0.0
 11
169.6945151750757
 21
79.23271870705605
 31
0.0
  0
XLINE
  5
3683
330
1F
100
AcDbEntity
  8
構築線
100
AcDbXline
 10
606.3972008252935
 20
50.06187743036401
 30
0.0
 11
0.0
 21
1.0
 31
0.0
  0
XLINE
  5
3793
330
1F
100
AcDbEntity
  8
構築線
100
AcDbXline
 10
246.8844772961612
 20
180.4711488256961
 30
0.0
 11
0.0
 21
-1.0
 31
0.0
  0
CIRCLE
  5
37A3
330
1F
100
AcDbEntity
  8
構築線
100
AcDbCircle
 10
72.20151402540449
 20
50.49019332955456
 30
0.0
 40
29.65000000000001
  0
ARC
  5
37A4
330
1F
100
AcDbEntity
  8
太線
100
AcDbCircle
 10
72.20151402540449
 20
50.49019332955456
 30
0.0
 40
29.65
100
AcDbArc
 50
192.3800415539156
 51
165.8257375680013
  0
TEXT
  5
37C8
330
1F
100
AcDbEntity
  8
寸法線
100
AcDbText
 10
143.9080736900084
 20
68.54131235596634
 30
0.0
 40
4.799999999999999
  1
PF3/8 inch19yama クボミ先ホーローセット使用
 51
15.0
  7
OKANO
100
AcDbText
  0
XLINE
  5
37D9
330
1F
100
AcDbEntity
  8
構築線
100
AcDbXline
 10
72.20151402540432
 20
165.4711488256961
 30
0.0
 11
1.0
 21
0.0
 31
0.0
  0
XLINE
  5
37DB
330
1F
100
AcDbEntity
  8
構築線
100
AcDbXline
 10
42.45890126749872
 20
227.000649176835
 30
0.0
 11
0.0
 21
-1.0
 31
0.0
  0
XLINE
  5
37DC
330
1F
100
AcDbEntity
  8
構築線
100
AcDbXline
 10
12.45890126749873
 20
227.000649176835
 30
0.0
 11
0.0
 21
-1.0
 31
0.0
  0
LINE
  5
37E1
330
1F
100
AcDbEntity
  8
太線
100
AcDbLine
 10
101.8515140254043
 20
195.4711488256961
 30
0.0
 11
7.458901267498731
 21
195.4711488256961
 31
0.0
  0
LINE
  5
37E8
330
1F
100
AcDbEntity
  8
太線
100
AcDbLine
 10
101.8515140254043
 20
165.4711488256961
 30
0.0
 11
7.458901267498731
 21
165.4711488256961
 31
0.0
  0
LINE
  5
37FD
330
1F
100
AcDbEntity
  8
太線
100
AcDbLine
 10
42.45890126749872
 20
165.4711488256961
 30
0.0
 11
42.45890126749872
 21
195.4711488256961
 31
0.0
  0
XLINE
  5
37FE
330
1F
100
AcDbEntity
  8
構築線
100
AcDbXline
 10
47.45890126749872
 20
227.000649176835
 30
0.0
 11
0.0
 21
-1.0
 31
0.0
  0
LINE
  5
37FF
330
1F
100
AcDbEntity
  8
破線
100
AcDbLine
 10
47.45890126749872
 20
195.4711488256961
 30
0.0
 11
47.45890126749872
 21
165.4711488256961
 31
0.0
  0
LINE
  5
3806
330
1F
100
AcDbEntity
  8
太線
100
AcDbLine
 10
7.458901267498731
 20
195.4711488256961
 30
0.0
 11
7.458901267498731
 21
165.4711488256961
 31
0.0
  0
LINE
  5
3810
330
1F
100
AcDbEntity
  8
破線
100
AcDbLine
 10
12.45890126749873
 20
185.9711488256961
 30
0.0
 11
7.458901267498731
 21
185.9711488256961
 31
0.0
  0
LINE
  5
3811
330
1F
100
AcDbEntity
  8
破線
100
AcDbLine
 10
12.45890126749873
 20
174.9711488256961
 30
0.0
 11
7.458901267498731
 21
174.9711488256961
 31
0.0
  0
LINE
  5
3812
330
1F
100
AcDbEntity
  8
破線
100
AcDbLine
 10
12.45890126749873
 20
182.4711488256961
 30
0.0
 11
7.458901267498731
 21
182.4711488256961
 31
0.0
  0
LINE
  5
3813
330
1F
100
AcDbEntity
  8
破線
100
AcDbLine
 10
12.45890126749873
 20
178.4711488256961
 30
0.0
 11
7.458901267498731
 21
178.4711488256961
 31
0.0
  0
XLINE
  5
3850
330
1F
100
AcDbEntity
  8
構築線
100
AcDbXline
 10
32.65221632861516
 20
90.99019332955458
 30
0.0
 11
1.0
 21
0.0
 31
0.0
  0
XLINE
  5
3851
330
1F
100
AcDbEntity
  8
構築線
100
AcDbXline
 10
32.65221632861516
 20
9.990193329554585
 30
0.0
 11
1.0
 21
0.0
 31
0.0
  0
XLINE
  5
3866
330
1F
100
AcDbEntity
  8
構築線
100
AcDbXline
 10
32.65221632861516
 20
106.4901933295545
 30
0.0
 11
1.0
 21
0.0
 31
0.0
  0
XLINE
  5
3867
330
1F
100
AcDbEntity
  8
構築線
100
AcDbXline
 10
32.65221632861516
 20
-5.509806670445414
 30
0.0
 11
1.0
 21
0.0
 31
0.0
  0
LINE
  5
3873
330
1F
100
AcDbEntity
  8
太線
100
AcDbLine
 10
12.45890126749873
 20
58.48966645674396
 30
0.0
 11
12.45890126749873
 21
116.4901933295545
 31
0.0
  0
LINE
  5
3874
330
1F
100
AcDbEntity
  8
太線
100
AcDbLine
 10
12.45890126749873
 20
116.4901933295545
 30
0.0
 11
7.458901267498731
 21
116.4901933295545
 31
0.0
  0
LINE
  5
3876
330
1F
100
AcDbEntity
  8
太線
100
AcDbLine
 10
7.458901267498735
 20
-15.50980667044541
 30
0.0
 11
12.45890126749873
 21
-15.50980667044541
 31
0.0
  0
LINE
  5
3877
330
1F
100
AcDbEntity
  8
太線
100
AcDbLine
 10
12.45890126749873
 20
-15.50980667044541
 30
0.0
 11
12.45890126749873
 21
42.49019332955458
 31
0.0
  0
LINE
  5
3878
330
1F
100
AcDbEntity
  8
破線
100
AcDbLine
 10
12.45890126749873
 20
108.9901933295545
 30
0.0
 11
6.769445694480054
 21
108.9901933295545
 31
0.0
  0
LINE
  5
3879
330
1F
100
AcDbEntity
  8
破線
100
AcDbLine
 10
12.45890126749873
 20
103.9901933295545
 30
0.0
 11
6.769445694480054
 21
103.9901933295545
 31
0.0
  0
LINE
  5
387A
330
1F
100
AcDbEntity
  8
破線
100
AcDbLine
 10
12.45890126749873
 20
96.49019332955459
 30
0.0
 11
6.769445694480054
 21
96.49019332955459
 31
0.0
  0
LINE
  5
387B
330
1F
100
AcDbEntity
  8
破線
100
AcDbLine
 10
12.45890126749873
 20
85.49019332955458
 30
0.0
 11
6.769445694480054
 21
85.49019332955458
 31
0.0
  0
LINE
  5
387C
330
1F
100
AcDbEntity
  8
破線
100
AcDbLine
 10
12.45890126749873
 20
15.49019332955458
 30
0.0
 11
6.769445694480054
 21
15.49019332955458
 31
0.0
  0
LINE
  5
387D
330
1F
100
AcDbEntity
  8
破線
100
AcDbLine
 10
12.45890126749873
 20
4.490193329554585
 30
0.0
 11
6.769445694480054
 21
4.490193329554585
 31
0.0
  0
LINE
  5
387E
330
1F
100
AcDbEntity
  8
破線
100
AcDbLine
 10
12.45890126749873
 20
-3.009806670445414
 30
0.0
 11
6.769445694480054
 21
-3.009806670445414
 31
0.0
  0
LINE
  5
387F
330
1F
100
AcDbEntity
  8
破線
100
AcDbLine
 10
12.45890126749873
 20
-8.009806670445414
 30
0.0
 11
6.769445694480054
 21
-8.009806670445414
 31
0.0
  0
LINE
  5
3883
330
1F
100
AcDbEntity
  8
太線
100
AcDbLine
 10
180.8844772961612
 20
195.4711488256961
 30
0.0
 11
217.2344772961612
 21
195.4711488256961
 31
0.0
  0
LINE
  5
3884
330
1F
100
AcDbEntity
  8
太線
100
AcDbLine
 10
276.5344772961612
 20
195.4711488256961
 30
0.0
 11
312.8844772961612
 21
195.4711488256961
 31
0.0
  0
LINE
  5
3885
330
1F
100
AcDbEntity
  8
太線
100
AcDbLine
 10
312.8844772961612
 20
195.4711488256961
 30
0.0
 11
312.8844772961612
 21
165.4711488256961
 31
0.0
  0
LINE
  5
3886
330
1F
100
AcDbEntity
  8
太線
100
AcDbLine
 10
312.8844772961612
 20
165.4711488256961
 30
0.0
 11
276.5344772961613
 21
165.4711488256961
 31
0.0
  0
LINE
  5
3887
330
1F
100
AcDbEntity
  8
太線
100
AcDbLine
 10
217.2344772961613
 20
165.4711488256961
 30
0.0
 11
180.8844772961612
 21
165.4711488256961
 31
0.0
  0
LINE
  5
3888
330
1F
100
AcDbEntity
  8
太線
100
AcDbLine
 10
180.8844772961612
 20
165.4711488256961
 30
0.0
 11
180.8844772961612
 21
195.4711488256961
 31
0.0
  0
LINE
  5
3889
330
1F
100
AcDbEntity
  8
太線
100
AcDbLine
 10
217.2344772961612
 20
195.4711488256961
 30
0.0
 11
276.5344772961612
 21
195.4711488256961
 31
0.0
  0
LINE
  5
388A
330
1F
100
AcDbEntity
  8
太線
100
AcDbLine
 10
217.2344772961613
 20
165.4711488256961
 30
0.0
 11
276.5344772961613
 21
165.4711488256961
 31
0.0
  0
XLINE
  5
3890
330
1F
100
AcDbEntity
  8
構築線
100
AcDbXline
 10
200.8844772961612
 20
180.4711488256961
 30
0.0
 11
0.0
 21
-1.0
 31
0.0
  0
XLINE
  5
3891
330
1F
100
AcDbEntity
  8
構築線
100
AcDbXline
 10
292.8844772961612
 20
180.4711488256961
 30
0.0
 11
0.0
 21
-1.0
 31
0.0
  0
CIRCLE
  5
3892
330
1F
100
AcDbEntity
  8
太線
100
AcDbCircle
 10
187.8844772961612
 20
180.4711488256961
 30
0.0
 40
2.0
  0
XLINE
  5
3899
330
1F
100
AcDbEntity
  8
構築線
100
AcDbXline
 10
305.8844772961612
 20
180.4711488256961
 30
0.0
 11
0.0
 21
-1.0
 31
0.0
  0
XLINE
  5
389A
330
1F
100
AcDbEntity
  8
構築線
100
AcDbXline
 10
187.8844772961612
 20
180.4711488256961
 30
0.0
 11
0.0
 21
-1.0
 31
0.0
  0
CIRCLE
  5
389B
330
1F
100
AcDbEntity
  8
構築線
100
AcDbCircle
 10
305.8844772961612
 20
180.4711488256961
 30
0.0
 40
2.0
  0
CIRCLE
  5
389C
330
1F
100
AcDbEntity
  8
太線
100
AcDbCircle
 10
305.8844772961612
 20
180.4711488256961
 30
0.0
 40
2.0
  0
XLINE
  5
38A2
330
1F
100
AcDbEntity
  8
構築線
100
AcDbXline
 10
312.8844772961612
 20
195.4711488256961
 30
0.0
 11
1.0
 21
0.0
 31
0.0
  0
XLINE
  5
38A5
330
1F
100
AcDbEntity
  8
構築線
100
AcDbXline
 10
251.8844772961612
 20
180.4711488256961
 30
0.0
 11
0.0
 21
-1.0
 31
0.0
  0
XLINE
  5
38A6
330
1F
100
AcDbEntity
  8
構築線
100
AcDbXline
 10
241.8844772961612
 20
180.4711488256961
 30
0.0
 11
0.0
 21
-1.0
 31
0.0
  0
LINE
  5
38A7
330
1F
100
AcDbEntity
  8
想像線
100
AcDbLine
 10
251.8844772961612
 20
195.4711488256961
 30
0.0
 11
251.8844772961612
 21
165.4711488256961
 31
0.0
  0
LINE
  5
38A8
330
1F
100
AcDbEntity
  8
想像線
100
AcDbLine
 10
241.8844772961612
 20
195.4711488256961
 30
0.0
 11
241.8844772961612
 21
165.4711488256961
 31
0.0
  0
LINE
  5
38AB
330
1F
100
AcDbEntity
  8
想像線
100
AcDbLine
 10
12.45890126749873
 20
195.4711488256961
 30
0.0
 11
12.45890126749873
 21
165.4711488256961
 31
0.0
  0
LINE
  5
38B9
330
1F
100
AcDbEntity
  8
太線
100
AcDbLine
 10
42.45890126749872
 20
195.4711488256961
 30
0.0
 11
7.458901267498731
 21
195.4711488256961
 31
0.0
  0
DIMENSION
  5
38C7
330
1F
100
AcDbEntity
  8
寸法線
100
AcDbDimension
  2
*D8
 10
42.45890126749872
 20
223.9337888979906
 30
0.0
 11
24.95890126749873
 21
227.4337888979906
 31
0.0
 70
    32
  1
36
 71
     5
 42
35.0
  3
sunpo
100
AcDbAlignedDimension
 13
7.458901267498731
 23
195.4711488256961
 33
0.0
 14
42.45890126749872
 24
195.4711488256961
 34
0.0
100
AcDbRotatedDimension
1001
ACAD
1000
DSTYLE
1002
{
1070
    40
1040
1.0
1002
}
  0
DIMENSION
  5
38D4
330
1F
100
AcDbEntity
  8
寸法線
100
AcDbDimension
  2
*D9
 10
101.8515140254043
 20
223.9337888979906
 30
0.0
 11
72.15520764645153
 21
227.4337888979906
 31
0.0
 70
    32
  1
61
 71
     5
 42
59.3926127579056
  3
sunpo
100
AcDbAlignedDimension
 13
42.45890126749872
 23
195.4711488256961
 33
0.0
 14
101.8515140254043
 24
195.4711488256961
 34
0.0
100
AcDbRotatedDimension
1001
ACAD
1000
DSTYLE
1002
{
1070
    40
1040
1.0
1070
   279
1070
     1
1002
}
  0
DIMENSION
  5
38EA
330
1F
100
AcDbEntity
  8
寸法線
100
AcDbDimension
  2
*D10
 10
-14.90971498986937
 20
-15.5098066704454
 30
0.0
 11
-18.41020711585361
 21
50.49019332955459
 31
0.0
 70
    32
 71
     5
 42
132.0
  3
sunpo
100
AcDbAlignedDimension
 13
7.458901267498731
 23
116.4901933295545
 33
0.0
 14
7.458901267498735
 24
-15.50980667044541
 34
0.0
 50
90.0
100
AcDbRotatedDimension
1001
ACAD
1000
DSTYLE
1002
{
1070
    40
1040
1.0
1002
}
  0
DIMENSION
  5
391E
330
1F
100
AcDbEntity
  8
寸法線
100
AcDbDimension
  2
*D13
 10
217.2344772961613
 20
144.6918655694227
 30
0.0
 11
199.0594772961613
 21
148.1918655694227
 31
0.0
 70
    32
  1
36
 71
     5
 42
36.35000000000008
  3
sunpo
100
AcDbAlignedDimension
 13
180.8844772961612
 23
165.4711488256961
 33
0.0
 14
217.2344772961613
 24
165.4711488256961
 34
0.0
100
AcDbRotatedDimension
1001
ACAD
1000
DSTYLE
1002
{
1070
    40
1040
1.0
1002
}
  0
CIRCLE
  5
3941
330
1F
100
AcDbEntity
  8
太線
100
AcDbCircle
 10
200.8844772961612
 20
180.4711488256961
 30
0.0
 40
5.5
  0
DIMENSION
  5
3942
330
1F
100
AcDbEntity
  8
寸法線
100
AcDbDimension
  2
*D14
 10
199.1881012639076
 20
175.2392936712412
 30
0.0
 11
208.4943192024924
 21
203.9409396298809
 31
0.0
 70
   163
 71
     5
 42
11.0
  3
sunpo
100
AcDbDiametricDimension
 15
202.5808533284148
 25
185.7030039801509
 35
0.0
 40
0.0
1001
ACAD
1000
DSTYLE
1002
{
1070
    40
1040
1.0
1070
   288
1070
     1
1002
}
  0
DIMENSION
  5
394E
330
1F
100
AcDbEntity
  8
寸法線
100
AcDbDimension
  2
*D15
 10
187.2942511258701
 20
178.5602241626328
 30
0.0
 11
195.7135481123557
 21
205.8186601096426
 31
0.0
 70
   163
 71
     5
 42
4.0
  3
sunpo
100
AcDbDiametricDimension
 15
188.4747034664523
 25
182.3820734887594
 35
0.0
 40
0.0
1001
ACAD
1000
DSTYLE
1002
{
1070
    40
1040
1.0
1070
   288
1070
     1
1002
}
  0
CIRCLE
  5
395A
330
1F
100
AcDbEntity
  8
太線
100
AcDbCircle
 10
292.8844772961612
 20
180.4711488256962
 30
0.0
 40
5.5
  0
DIMENSION
  5
3968
330
1F
100
AcDbEntity
  8
寸法線
100
AcDbDimension
  2
*D16
 10
305.8844772961612
 20
146.4047932903735
 30
0.0
 11
309.3844772961612
 21
149.9047932903735
 31
0.0
 70
    32
 71
     5
 42
7.0
  3
sunpo
100
AcDbAlignedDimension
 13
312.8844772961612
 23
165.4711488256961
 33
0.0
 14
305.8844772961612
 24
180.4711488256961
 34
0.0
100
AcDbRotatedDimension
1001
ACAD
1000
DSTYLE
1002
{
1070
    40
1040
1.0
1002
}
  0
DIMENSION
  5
3977
330
1F
100
AcDbEntity
  8
寸法線
100
AcDbDimension
  2
*D17
 10
292.8844772961612
 20
146.4047932903735
 30
0.0
 11
299.3844772961612
 21
149.9047932903735
 31
0.0
 70
    32
 71
     5
 42
13.0
  3
sunpo
100
AcDbAlignedDimension
 13
305.8844772961612
 23
180.4711488256961
 33
0.0
 14
292.8844772961612
 24
180.4711488256962
 34
0.0
100
AcDbRotatedDimension
1001
ACAD
1000
DSTYLE
1002
{
1070
    40
1040
1.0
1070
   279
1070
     1
1002
}
  0
DIMENSION
  5
3984
330
1F
100
AcDbEntity
  8
寸法線
100
AcDbDimension
  2
*D18
 10
171.1230701668896
 20
195.4711488256961
 30
0.0
 11
167.6230701668895
 21
180.4711488256961
 31
0.0
 70
    32
 71
     5
 42
30.0
  3
sunpo
100
AcDbAlignedDimension
 13
180.8844772961612
 23
165.4711488256961
 33
0.0
 14
180.8844772961612
 24
195.4711488256961
 34
0.0
 50
90.0
100
AcDbRotatedDimension
1001
ACAD
1000
DSTYLE
1002
{
1070
    40
1040
1.0
1002
}
  0
DIMENSION
  5
3991
330
1F
100
AcDbEntity
  8
寸法線
100
AcDbDimension
  2
*D19
 10
325.9041682279316
 20
180.4711488256961
 30
0.0
 11
322.4041682279316
 21
187.9711488256961
 31
0.0
 70
    32
 71
     5
 42
15.0
  3
sunpo
100
AcDbAlignedDimension
 13
312.8844772961612
 23
195.4711488256961
 33
0.0
 14
305.8844772961612
 24
180.4711488256961
 34
0.0
 50
90.0
100
AcDbRotatedDimension
1001
ACAD
1000
DSTYLE
1002
{
1070
    40
1040
1.0
1002
}
  0
DIMENSION
  5
399F
330
1F
100
AcDbEntity
  8
寸法線
100
AcDbDimension
  2
*D20
 10
42.45890126749872
 20
90.99019332955458
 30
0.0
 11
27.45890126749873
 21
94.49019332955458
 31
0.0
 70
    32
 71
     5
 42
30.0
  3
sunpo
100
AcDbAlignedDimension
 13
12.45890126749873
 23
58.48966645674396
 33
0.0
 14
42.45890126749872
 24
56.1746314306087
 34
0.0
100
AcDbRotatedDimension
1001
ACAD
1000
DSTYLE
1002
{
1070
    40
1040
1.0
1002
}
  0
DIMENSION
  5
39AC
330
1F
100
AcDbEntity
  8
寸法線
100
AcDbDimension
  2
*D21
 10
101.8515140254045
 20
90.99019332955458
 30
0.0
 11
72.15520764645162
 21
94.49019332955458
 31
0.0
 70
    32
  1
61
 71
     5
 42
59.39261275790577
  3
sunpo
100
AcDbAlignedDimension
 13
42.45890126749872
 23
56.1746314306087
 33
0.0
 14
101.8515140254045
 24
50.49019332955459
 34
0.0
100
AcDbRotatedDimension
1001
ACAD
1000
DSTYLE
1002
{
1070
    40
1040
1.0
1070
   279
1070
     1
1002
}
  0
XLINE
  5
39C9
330
1F
100
AcDbEntity
  8
構築線
100
AcDbXline
 10
6.769445694480054
 20
227.000649176835
 30
0.0
 11
0.0
 21
-1.0
 31
0.0
  0
XLINE
  5
39CA
330
1F
100
AcDbEntity
  8
構築線
100
AcDbXline
 10
12.45890126749873
 20
116.4901933295545
 30
0.0
 11
1.0
 21
0.0
 31
0.0
  0
XLINE
  5
39CB
330
1F
100
AcDbEntity
  8
構築線
100
AcDbXline
 10
12.45890126749873
 20
-15.50980667044541
 30
0.0
 11
1.0
 21
0.0
 31
0.0
  0
XLINE
  5
39CC
330
1F
100
AcDbEntity
  8
構築線
100
AcDbXline
 10
32.65221632861516
 20
54.49019332955458
 30
0.0
 11
1.0
 21
0.0
 31
0.0
  0
XLINE
  5
39CD
330
1F
100
AcDbEntity
  8
構築線
100
AcDbXline
 10
32.65221632861516
 20
46.49019332955458
 30
0.0
 11
1.0
 21
0.0
 31
0.0
  0
LINE
  5
39CE
330
1F
100
AcDbEntity
  8
太線
100
AcDbLine
 10
12.45890126749872
 20
43.49019332955458
 30
0.0
 11
12.45890126749873
 21
42.49019332955458
 31
0.0
  0
LINE
  5
39CF
330
1F
100
AcDbEntity
  8
太線
100
AcDbLine
 10
15.45890126749872
 20
46.49019332955458
 30
0.0
 11
40.31072381882603
 21
46.49019332955457
 31
0.0
  0
LINE
  5
39D1
330
1F
100
AcDbEntity
  8
太線
100
AcDbLine
 10
40.31072381882604
 20
54.49019332955458
 30
0.0
 11
15.45890126749873
 21
54.49019332955458
 31
0.0
  0
LINE
  5
39D2
330
1F
100
AcDbEntity
  8
太線
100
AcDbLine
 10
12.45890126749873
 20
57.49019332955459
 30
0.0
 11
12.45890126749873
 21
58.48966645674396
 31
0.0
  0
ARC
  5
39D3
330
1F
100
AcDbEntity
  8
太線
100
AcDbCircle
 10
72.20151402540437
 20
50.49019332955456
 30
0.0
 40
29.64999999999989
100
AcDbArc
 50
165.8257375680013
 51
167.6199584460842
  0
LINE
  5
39D6
330
1F
100
AcDbEntity
  8
太線
100
AcDbLine
 10
7.458901267498731
 20
116.4901933295545
 30
0.0
 11
6.769445694480054
 21
116.4901933295545
 31
0.0
  0
LINE
  5
39D7
330
1F
100
AcDbEntity
  8
太線
100
AcDbLine
 10
6.769445694480054
 20
116.4901933295545
 30
0.0
 11
6.769445694480054
 21
-15.50980667044541
 31
0.0
  0
LINE
  5
39D8
330
1F
100
AcDbEntity
  8
太線
100
AcDbLine
 10
6.769445694480054
 20
-15.50980667044541
 30
0.0
 11
7.458901267498735
 21
-15.50980667044541
 31
0.0
  0
DIMENSION
  5
39E7
330
1F
100
AcDbEntity
  8
寸法線
100
AcDbDimension
  2
*D22
 10
12.45890126749873
 20
121.9422027092642
 30
0.0
 11
9.614173480989393
 21
125.4422027092642
 31
0.0
 70
    32
  1
6
 71
     5
 42
5.689455573018676
  3
sunpo
100
AcDbAlignedDimension
 13
6.769445694480054
 23
116.4901933295545
 33
0.0
 14
12.45890126749873
 24
116.4901933295545
 34
0.0
100
AcDbRotatedDimension
1001
ACAD
1000
DSTYLE
1002
{
1070
    40
1040
1.0
1002
}
  0
DIMENSION
  5
3A01
330
1F
100
AcDbEntity
  8
寸法線
100
AcDbDimension
  2
*D23
 10
120.9495987225957
 20
79.98101494534999
 30
0.0
 11
117.4495987225957
 21
90.95890062832003
 31
0.0
 70
    32
  1
5.5
 71
     5
 42
4.855870052885393
  3
sunpo
100
AcDbAlignedDimension
 13
72.02020813042691
 23
75.12514489246462
 33
0.0
 14
72.02020813042691
 24
79.98101494535001
 34
0.0
 50
90.0
100
AcDbRotatedDimension
1001
ACAD
1000
DSTYLE
1002
{
1070
    40
1040
1.0
1002
}
  0
DIMENSION
  5
3A1B
330
1F
100
AcDbEntity
  8
寸法線
100
AcDbDimension
  2
*D24
 10
29.7926675251299
 20
46.49019332955457
 30
0.0
 11
26.29266752512989
 21
50.49019332955459
 31
0.0
 70
    32
 71
     5
 42
8.0
  3
sunpo
100
AcDbAlignedDimension
 13
12.45890126749873
 23
54.49019332955458
 33
0.0
 14
12.45890126749873
 24
46.49019332955458
 34
0.0
 50
90.0
100
AcDbRotatedDimension
1001
ACAD
1000
DSTYLE
1002
{
1070
    40
1040
1.0
1002
}
  0
DIMENSION
  5
3A2A
330
1F
100
AcDbEntity
  8
寸法線
100
AcDbDimension
  2
*D25
 10
101.8515140254045
 20
-22.21600865763968
 30
0.0
 11
53.65520764645161
 21
-18.71600865763969
 31
0.0
 70
    32
  1
97
 71
     5
 42
96.39261275790577
  3
sunpo
100
AcDbAlignedDimension
 13
5.458901267498735
 23
-15.50980667044541
 33
0.0
 14
101.8515140254045
 24
52.49019332955459
 34
0.0
100
AcDbRotatedDimension
1001
ACAD
1000
DSTYLE
1002
{
1070
    40
1040
1.0
1002
}
  0
ARC
  5
3A4B
330
1F
100
AcDbEntity
  8
太線
100
AcDbCircle
 10
15.45890126749873
 20
57.49019332955459
 30
0.0
 40
3.0
100
AcDbArc
 50
180.0
 51
270.0
  0
ARC
  5
3A4C
330
1F
100
AcDbEntity
  8
太線
100
AcDbCircle
 10
40.31072381882604
 20
57.49019332955459
 30
0.0
 40
3.0
100
AcDbArc
 50
270.0
 51
347.6199584460844
  0
ARC
  5
3A4D
330
1F
100
AcDbEntity
  8
太線
100
AcDbCircle
 10
15.45890126749872
 20
43.49019332955458
 30
0.0
 40
3.0
100
AcDbArc
 50
90.0
 51
180.0
  0
ARC
  5
3A4E
330
1F
100
AcDbEntity
  8
太線
100
AcDbCircle
 10
40.31072381882603
 20
43.49019332955458
 30
0.0
 40
3.0
100
AcDbArc
 50
12.38004155391583
 51
90.0
  0
DIMENSION
  5
3A77
330
1F
100
AcDbEntity
  8
寸法線
100
AcDbDimension
  2
*D27
 10
312.8844772961612
 20
220.4758593447942
 30
0.0
 11
246.8844772961612
 21
223.9763514707785
 31
0.0
 70
    32
 71
     5
 42
132.0
  3
sunpo
100
AcDbAlignedDimension
 13
180.8844772961612
 23
195.4711488256961
 33
0.0
 14
312.8844772961612
 24
195.4711488256961
 34
0.0
100
AcDbRotatedDimension
1001
ACAD
1000
DSTYLE
1002
{
1070
    40
1040
1.0
1002
}
  0
DIMENSION
  5
3A84
330
1F
100
AcDbEntity
  8
寸法線
100
AcDbDimension
  2
*D28
 10
134.6323763040647
 20
79.98101494534999
 30
0.0
 11
131.1323763040647
 21
50.6511274844583
 31
0.0
 70
    32
  1
61
 71
     5
 42
58.65977492178342
  3
sunpo
100
AcDbAlignedDimension
 13
95.3077448144179
 23
21.32124002356658
 33
0.0
 14
123.9495987225957
 24
79.98101494534999
 34
0.0
 50
90.0
100
AcDbRotatedDimension
1001
ACAD
1000
DSTYLE
1002
{
1070
    40
1040
1.0
1002
}
  0
DIMENSION
  5
3A9A
330
1F
100
AcDbEntity
  8
寸法線
100
AcDbDimension
  2
*D29
 10
53.0165345958358
 20
65.9678890329539
 30
0.0
 11
136.5186955887825
 21
-1.398408813222417
 31
0.0
 70
   163
  1
49.5～50
 71
     5
 42
49.29999999999999
  3
sunpo
100
AcDbDiametricDimension
 15
91.38649345497318
 25
35.01249762615524
 35
0.0
 40
0.0
1001
ACAD
1000
DSTYLE
1002
{
1070
    40
1040
1.0
1070
   288
1070
     1
1002
}
  0
TEXT
  5
3AB6
330
1F
100
AcDbEntity
  8
寸法線
100
AcDbText
 10
123.807297594494
 20
122.6670898390638
 30
0.0
 40
4.799999999999999
  1
材質：FCD450  表面処理：ダクロ
 51
15.0
  7
OKANO
100
AcDbText
  0
TEXT
  5
3AB7
330
1F
100
AcDbEntity
  8
寸法線
100
AcDbText
 10
223.0785287450416
 20
25.7291187595066
 30
0.0
 40
4.799999999999999
  1
JAN 4562182300010
 51
15.0
  7
OKANO
100
AcDbText
  0
VIEWPORT
  5
2E
330
1B
100
AcDbEntity
 67
     1
  8
0
100
AcDbViewport
 10
231.3427539195979
 20
177.8865399090904
 30
0.0
 40
752.5582941835516
 41
382.2266573197807
 68
     2
 69
     1
 12
231.3427539195979
 22
177.8865399090904
 13
0.0
 23
0.0
 14
10.0
 24
10.0
 15
10.0
 25
10.0
 16
0.0
 26
0.0
 36
1.0
 17
0.0
 27
0.0
 37
0.0
 42
50.0
 43
0.0
 44
0.0
 45
382.2266573197807
 50
0.0
 51
0.0
 72
   100
 90
    32800
  1

281
     0
 71
     1
 74
     0
110
0.0
120
0.0
130
0.0
111
1.0
121
0.0
131
0.0
112
0.0
122
1.0
132
0.0
 79
     0
146
0.0
  0
VIEWPORT
  5
30
330
1B
100
AcDbEntity
 67
     1
  8
70-0-CON
100
AcDbViewport
 10
141.8594093064315
 20
100.3480256368386
 30
0.0
 40
261.6199023344245
 41
192.6196987113174
 68
     1
 69
     2
 12
150.4729381650377
 22
118.6405452021168
 13
0.0
 23
0.0
 14
5.0
 24
5.0
 15
10.0
 25
10.0
 16
0.0
 26
0.0
 36
1.0
 17
0.0
 27
0.0
 37
0.0
 42
50.0
 43
0.0
 44
0.0
 45
285.2348649769333
 50
0.0
 51
0.0
 72
   100
 90
    32864
  1

281
     0
 71
     1
 74
     0
110
0.0
120
0.0
130
0.0
111
1.0
121
0.0
131
0.0
112
0.0
122
1.0
132
0.0
 79
     0
146
0.0
  0
LWPOLYLINE
  5
45
330
1B
100
AcDbEntity
 67
     1
  8
50-0-CON
100
AcDbPolyline
 90
        4
 70
     1
 43
0.0
 10
11.04945813921926
 20
4.038176281179858
 10
272.2125713060605
 20
4.033520706629644
 10
273.4987754093466
 20
195.9297862125246
 10
11.04945813921926
 20
196.6578749924973
  0
LINE
  5
4A
330
1B
100
AcDbEntity
 67
     1
  8
50-0-CON
100
AcDbLine
 10
10.38768783662635
 20
100.3480256368386
 30
0.0
 11
-4.391850629656119
 21
100.3480256368386
 31
0.0
  0
LINE
  5
4B
330
1B
100
AcDbEntity
 67
     1
  8
50-0-CON
100
AcDbLine
 10
141.8594093064315
 20
197.098652626247
 30
0.0
 11
141.8594093064315
 21
202.387980773708
 31
0.0
  0
LINE
  5
4C
330
1B
100
AcDbEntity
 67
     1
  8
50-0-CON
100
AcDbLine
 10
272.4487699456857
 20
100.7888032705883
 30
0.0
 11
278.8458837249377
 21
100.7888032705883
 31
0.0
  0
LINE
  5
4D
330
1B
100
AcDbEntity
 67
     1
  8
50-0-CON
100
AcDbLine
 10
140.9770484758805
 20
4.038176281179858
 30
0.0
 11
140.9770484758805
 21
-3.455038652015446
 31
0.0
  0
ENDSEC
  0
SECTION
  2
OBJECTS
  0
DICTIONARY
  5
C
330
0
100
AcDbDictionary
281
     1
  3
ACAD_GROUP
350
D
  3
ACAD_LAYOUT
350
1A
  3
ACAD_MLINESTYLE
350
17
  3
ACAD_PLOTSETTINGS
350
19
  3
ACAD_PLOTSTYLENAME
350
E
  3
AcadDim
350
13D0
  3
AcDbVariableDictionary
350
6AD
  3
DWGPROPS
350
30F
  0
DICTIONARY
  5
D
102
{ACAD_REACTORS
330
C
102
}
330
C
100
AcDbDictionary
281
     1
  0
DICTIONARY
  5
1A
102
{ACAD_REACTORS
330
C
102
}
330
C
100
AcDbDictionary
281
     1
  3
A4
350
1E
  3
Model
350
22
  0
DICTIONARY
  5
17
102
{ACAD_REACTORS
330
C
102
}
330
C
100
AcDbDictionary
281
     1
  3
Standard
350
18
  0
DICTIONARY
  5
19
102
{ACAD_REACTORS
330
C
102
}
330
C
100
AcDbDictionary
281
     1
  0
ACDBDICTIONARYWDFLT
  5
E
102
{ACAD_REACTORS
330
C
102
}
330
C
100
AcDbDictionary
281
     1
  3
Normal
350
F
100
AcDbDictionaryWithDefault
340
F
  0
XRECORD
  5
13D0
102
{ACAD_REACTORS
330
C
102
}
330
C
100
AcDbXrecord
280
     1
 90
   990106
  3

 60
     0
 61
     0
 62
     1
 63
     3
 64
     0
 65
     0
 66
     0
 67
     3
 68
     1
 69
     0
 70
     0
 71
     0
 72
     0
 40
9.044121132502835
170
     0
  0
DICTIONARY
  5
6AD
102
{ACAD_REACTORS
330
C
102
}
330
C
100
AcDbDictionary
281
     1
  3
SORTENTS
350
6AE
  0
XRECORD
  5
30F
102
{ACAD_REACTORS
330
C
102
}
330
C
100
AcDbXrecord
280
     1
  1
DWGPROPS COOKIE
  2

  3

  4

  6

  7

  8

  9

300
=
301
=
302
=
303
=
304
=
305
=
306
=
307
=
308
=
309
=
 40
0.3303803125
 41
2452362.482225463
 42
2452370.969861285
  1

 90
        0
  0
LAYOUT
  5
1E
102
{ACAD_REACTORS
330
1A
102
}
330
1A
100
AcDbPlotSettings
  1

  2
EPSON PM-920C
  4
A4
  6

 40
3.757083177566528
 41
14.7637300491333
 42
3.757080078125
 43
3.757080078125
 44
209.9733276367187
 45
296.9683227539062
 46
0.0
 47
0.0
 48
0.0
 49
0.0
140
0.0
141
0.0
142
1.0
143
1.0
 70
   688
 72
     1
 73
     1
 74
     5
  7
joint.ctb
 75
    16
147
1.0
148
0.0
149
0.0
100
AcDbLayout
  1
A4
 70
     1
 71
     1
 10
-3.757080078125
 20
-3.757083177566528
 11
293.2112426757812
 21
206.2162444591522
 12
0.0
 22
0.0
 32
0.0
 14
-4.391850629656119
 24
-3.455038652015446
 34
0.0
 15
278.8458837249377
 25
202.387980773708
 35
0.0
146
0.0
 13
0.0
 23
0.0
 33
0.0
 16
1.0
 26
0.0
 36
0.0
 17
0.0
 27
1.0
 37
0.0
 76
     0
330
1B
331
30
  0
LAYOUT
  5
22
102
{ACAD_REACTORS
330
1A
102
}
330
1A
100
AcDbPlotSettings
  1

  2
EPSON PM-920C
  4
A4
  6

 40
3.757083177566528
 41
14.7637300491333
 42
3.757080078125
 43
3.757080078125
 44
209.9733276367187
 45
296.9683227539062
 46
0.0
 47
0.0
 48
0.0
 49
0.0
140
0.0
141
0.0
142
1.0
143
1.0
 70
 11952
 72
     1
 73
     1
 74
     0
  7

 75
     0
147
1.0
148
-45.64199848979289
149
-84.48806419330498
100
AcDbLayout
  1
Model
 70
     1
 71
     0
 10
0.0
 20
0.0
 11
12.0
 21
9.0
 12
0.0
 22
0.0
 32
0.0
 14
0.0
 24
0.0
 34
0.0
 15
0.0
 25
0.0
 35
0.0
146
0.0
 13
0.0
 23
0.0
 33
0.0
 16
1.0
 26
0.0
 36
0.0
 17
0.0
 27
1.0
 37
0.0
 76
     0
330
1F
  0
MLINESTYLE
  5
18
102
{ACAD_REACTORS
330
17
102
}
330
17
100
AcDbMlineStyle
  2
STANDARD
 70
     0
  3

 62
   256
 51
90.0
 52
90.0
 71
     2
 49
0.5
 62
   256
  6
BYLAYER
 49
-0.5
 62
   256
  6
BYLAYER
  0
ACDBPLACEHOLDER
  5
F
102
{ACAD_REACTORS
330
E
102
}
330
E
  0
DICTIONARYVAR
  5
6AE
102
{ACAD_REACTORS
330
6AD
102
}
330
6AD
100
DictionaryVariables
280
     0
  1
96
  0
ENDSEC
  0
EOF
