  0
SECTION
  2
HEADER
  9
$ACADVER
  1
AC1015
  9
$ACADMAINTVER
 70
     6
  9
$DWGCODEPAGE
  3
ANSI_932
  9
$INSBASE
 10
0.0
 20
0.0
 30
0.0
  9
$EXTMIN
 10
-44.09445759809277
 20
-5.460119469727032
 30
0.0
  9
$EXTMAX
 10
316.4518396679064
 20
229.9750586256539
 30
0.0
  9
$LIMMIN
 10
0.0
 20
0.0
  9
$LIMMAX
 10
420.0
 20
297.0
  9
$ORTHOMODE
 70
     0
  9
$REGENMODE
 70
     1
  9
$FILLMODE
 70
     1
  9
$QTEXTMODE
 70
     0
  9
$MIRRTEXT
 70
     1
  9
$LTSCALE
 40
1.0
  9
$ATTMODE
 70
     1
  9
$TEXTSIZE
 40
5.0
  9
$TRACEWID
 40
1.0
  9
$TEXTSTYLE
  7
OKANO
  9
$CLAYER
  8
太線
  9
$CELTYPE
  6
ByLayer
  9
$CECOLOR
 62
   256
  9
$CELTSCALE
 40
1.0
  9
$DISPSILH
 70
     0
  9
$DIMSCALE
 40
0.0
  9
$DIMASZ
 40
3.0
  9
$DIMEXO
 40
2.0
  9
$DIMDLI
 40
8.0
  9
$DIMRND
 40
0.0
  9
$DIMDLE
 40
0.0
  9
$DIMEXE
 40
3.0
  9
$DIMTP
 40
0.0
  9
$DIMTM
 40
0.0
  9
$DIMTXT
 40
5.0
  9
$DIMCEN
 40
2.5
  9
$DIMTSZ
 40
0.0
  9
$DIMTOL
 70
     0
  9
$DIMLIM
 70
     0
  9
$DIMTIH
 70
     0
  9
$DIMTOH
 70
     0
  9
$DIMSE1
 70
     0
  9
$DIMSE2
 70
     0
  9
$DIMTAD
 70
     1
  9
$DIMZIN
 70
     8
  9
$DIMBLK
  1
Closed
  9
$DIMASO
 70
     1
  9
$DIMSHO
 70
     1
  9
$DIMPOST
  1

  9
$DIMAPOST
  1

  9
$DIMALT
 70
     0
  9
$DIMALTD
 70
     3
  9
$DIMALTF
 40
0.03937007874016
  9
$DIMLFAC
 40
1.0
  9
$DIMTOFL
 70
     1
  9
$DIMTVP
 40
0.0
  9
$DIMTIX
 70
     0
  9
$DIMSOXD
 70
     0
  9
$DIMSAH
 70
     0
  9
$DIMBLK1
  1

  9
$DIMBLK2
  1

  9
$DIMSTYLE
  2
sunpo
  9
$DIMCLRD
 70
     0
  9
$DIMCLRE
 70
     0
  9
$DIMCLRT
 70
     0
  9
$DIMTFAC
 40
1.0
  9
$DIMGAP
 40
1.0
  9
$DIMJUST
 70
     0
  9
$DIMSD1
 70
     0
  9
$DIMSD2
 70
     0
  9
$DIMTOLJ
 70
     0
  9
$DIMTZIN
 70
     8
  9
$DIMALTZ
 70
     0
  9
$DIMALTTZ
 70
     0
  9
$DIMUPT
 70
     0
  9
$DIMDEC
 70
     2
  9
$DIMTDEC
 70
     2
  9
$DIMALTU
 70
     2
  9
$DIMALTTD
 70
     3
  9
$DIMTXSTY
  7
OKANO
  9
$DIMAUNIT
 70
     0
  9
$DIMADEC
 70
     0
  9
$DIMALTRND
 40
0.0
  9
$DIMAZIN
 70
     0
  9
$DIMDSEP
 70
    46
  9
$DIMATFIT
 70
     3
  9
$DIMFRAC
 70
     0
  9
$DIMLDRBLK
  1
Closed
  9
$DIMLUNIT
 70
     2
  9
$DIMLWD
 70
    -2
  9
$DIMLWE
 70
    -2
  9
$DIMTMOVE
 70
     0
  9
$LUNITS
 70
     2
  9
$LUPREC
 70
     2
  9
$SKETCHINC
 40
1.0
  9
$FILLETRAD
 40
3.0
  9
$AUNITS
 70
     0
  9
$AUPREC
 70
     0
  9
$MENU
  1
.
  9
$ELEVATION
 40
0.0
  9
$PELEVATION
 40
0.0
  9
$THICKNESS
 40
0.0
  9
$LIMCHECK
 70
     0
  9
$CHAMFERA
 40
10.0
  9
$CHAMFERB
 40
10.0
  9
$CHAMFERC
 40
20.0
  9
$CHAMFERD
 40
0.0
  9
$SKPOLY
 70
     0
  9
$TDCREATE
 40
2452362.482225463
  9
$TDUCREATE
 40
2452362.107225463
  9
$TDUPDATE
 40
2456073.527170023
  9
$TDUUPDATE
 40
2456073.152170023
  9
$TDINDWG
 40
2.3874253009
  9
$TDUSRTIMER
 40
2.3874253009
  9
$USRTIMER
 70
     1
  9
$ANGBASE
 50
0.0
  9
$ANGDIR
 70
     0
  9
$PDMODE
 70
     0
  9
$PDSIZE
 40
0.0
  9
$PLINEWID
 40
0.0
  9
$SPLFRAME
 70
     0
  9
$SPLINETYPE
 70
     6
  9
$SPLINESEGS
 70
     8
  9
$HANDSEED
  5
37D7
  9
$SURFTAB1
 70
     6
  9
$SURFTAB2
 70
     6
  9
$SURFTYPE
 70
     6
  9
$SURFU
 70
     6
  9
$SURFV
 70
     6
  9
$UCSBASE
  2

  9
$UCSNAME
  2

  9
$UCSORG
 10
0.0
 20
0.0
 30
0.0
  9
$UCSXDIR
 10
1.0
 20
0.0
 30
0.0
  9
$UCSYDIR
 10
0.0
 20
1.0
 30
0.0
  9
$UCSORTHOREF
  2

  9
$UCSORTHOVIEW
 70
     0
  9
$UCSORGTOP
 10
0.0
 20
0.0
 30
0.0
  9
$UCSORGBOTTOM
 10
0.0
 20
0.0
 30
0.0
  9
$UCSORGLEFT
 10
0.0
 20
0.0
 30
0.0
  9
$UCSORGRIGHT
 10
0.0
 20
0.0
 30
0.0
  9
$UCSORGFRONT
 10
0.0
 20
0.0
 30
0.0
  9
$UCSORGBACK
 10
0.0
 20
0.0
 30
0.0
  9
$PUCSBASE
  2

  9
$PUCSNAME
  2

  9
$PUCSORG
 10
0.0
 20
0.0
 30
0.0
  9
$PUCSXDIR
 10
1.0
 20
0.0
 30
0.0
  9
$PUCSYDIR
 10
0.0
 20
1.0
 30
0.0
  9
$PUCSORTHOREF
  2

  9
$PUCSORTHOVIEW
 70
     0
  9
$PUCSORGTOP
 10
0.0
 20
0.0
 30
0.0
  9
$PUCSORGBOTTOM
 10
0.0
 20
0.0
 30
0.0
  9
$PUCSORGLEFT
 10
0.0
 20
0.0
 30
0.0
  9
$PUCSORGRIGHT
 10
0.0
 20
0.0
 30
0.0
  9
$PUCSORGFRONT
 10
0.0
 20
0.0
 30
0.0
  9
$PUCSORGBACK
 10
0.0
 20
0.0
 30
0.0
  9
$USERI1
 70
     0
  9
$USERI2
 70
     0
  9
$USERI3
 70
     0
  9
$USERI4
 70
     0
  9
$USERI5
 70
     0
  9
$USERR1
 40
0.0
  9
$USERR2
 40
0.0
  9
$USERR3
 40
0.0
  9
$USERR4
 40
0.0
  9
$USERR5
 40
0.0
  9
$WORLDVIEW
 70
     1
  9
$SHADEDGE
 70
     3
  9
$SHADEDIF
 70
    70
  9
$TILEMODE
 70
     0
  9
$MAXACTVP
 70
    64
  9
$PINSBASE
 10
0.0
 20
0.0
 30
0.0
  9
$PLIMCHECK
 70
     0
  9
$PEXTMIN
 10
-4.391850629656119
 20
-3.455038652015446
 30
0.0
  9
$PEXTMAX
 10
278.8458837249377
 20
202.387980773708
 30
0.0
  9
$PLIMMIN
 10
-3.757080078125
 20
-3.757083177566528
  9
$PLIMMAX
 10
293.2112426757812
 20
206.2162444591522
  9
$UNITMODE
 70
     0
  9
$VISRETAIN
 70
     1
  9
$PLINEGEN
 70
     0
  9
$PSLTSCALE
 70
     1
  9
$TREEDEPTH
 70
  3020
  9
$CMLSTYLE
  2
Standard
  9
$CMLJUST
 70
     0
  9
$CMLSCALE
 40
20.0
  9
$PROXYGRAPHICS
 70
     1
  9
$MEASUREMENT
 70
     1
  9
$CELWEIGHT
370
    -1
  9
$ENDCAPS
280
     0
  9
$JOINSTYLE
280
     0
  9
$LWDISPLAY
290
     0
  9
$INSUNITS
 70
     4
  9
$HYPERLINKBASE
  1

  9
$STYLESHEET
  1

  9
$XEDIT
290
     1
  9
$CEPSNTYPE
380
     0
  9
$PSTYLEMODE
290
     1
  9
$FINGERPRINTGUID
  2
{FF7F33C3-4233-11D6-AEE0-0000F45FD7F4}
  9
$VERSIONGUID
  2
{D76EC063-5EBF-4C7B-AE26-BC38CC85380B}
  9
$EXTNAMES
290
     1
  9
$PSVPSCALE
 40
0.0
  9
$OLESTARTUP
290
     0
  0
ENDSEC
  0
SECTION
  2
CLASSES
  0
CLASS
  1
ACDBDICTIONARYWDFLT
  2
AcDbDictionaryWithDefault
  3
AutoCAD 2000
 90
        0
280
     0
281
     0
  0
CLASS
  1
ACDBPLACEHOLDER
  2
AcDbPlaceHolder
  3
AutoCAD 2000
 90
        0
280
     0
281
     0
  0
CLASS
  1
LAYOUT
  2
AcDbLayout
  3
AutoCAD 2000
 90
        0
280
     0
281
     0
  0
CLASS
  1
DICTIONARYVAR
  2
AcDbDictionaryVar
  3
AutoCAD 2000
 90
        0
280
     0
281
     0
  0
ENDSEC
  0
SECTION
  2
TABLES
  0
TABLE
  2
VPORT
  5
8
330
0
100
AcDbSymbolTable
 70
     1
  0
VPORT
  5
37D0
330
8
100
AcDbSymbolTableRecord
100
AcDbViewportTableRecord
  2
*Active
 70
     0
 10
0.0
 20
0.0
 11
1.0
 21
1.0
 12
205.7522143820879
 22
97.00848929118496
 13
0.0
 23
0.0
 14
5.0
 24
5.0
 15
10.0
 25
10.0
 16
0.0
 26
0.0
 36
1.0
 17
0.0
 27
0.0
 37
0.0
 40
278.2881107512356
 41
2.124716553287981
 42
50.0
 43
0.0
 44
0.0
 50
0.0
 51
0.0
 71
     0
 72
   100
 73
     1
 74
     3
 75
     0
 76
     0
 77
     0
 78
     0
281
     0
 65
     1
110
0.0
120
0.0
130
0.0
111
1.0
121
0.0
131
0.0
112
0.0
122
1.0
132
0.0
 79
     0
146
0.0
  0
ENDTAB
  0
TABLE
  2
LTYPE
  5
5
330
0
100
AcDbSymbolTable
 70
     5
  0
LTYPE
  5
14
330
5
100
AcDbSymbolTableRecord
100
AcDbLinetypeTableRecord
  2
ByBlock
 70
     0
  3

 72
    65
 73
     0
 40
0.0
  0
LTYPE
  5
15
330
5
100
AcDbSymbolTableRecord
100
AcDbLinetypeTableRecord
  2
ByLayer
 70
     0
  3

 72
    65
 73
     0
 40
0.0
  0
LTYPE
  5
16
330
5
100
AcDbSymbolTableRecord
100
AcDbLinetypeTableRecord
  2
Continuous
 70
     0
  3
Solid line
 72
    65
 73
     0
 40
0.0
  0
LTYPE
  5
33
330
5
100
AcDbSymbolTableRecord
100
AcDbLinetypeTableRecord
  2
DASHED2
 70
     0
  3
Dashed (.5x) _ _ _ _ _ _ _ _ _ _ _ _ _ _ _ _ _
 72
    65
 73
     2
 40
9.524999999999998
 49
6.349999999999999
 74
     0
 49
-3.174999999999999
 74
     0
  0
LTYPE
  5
34
330
5
100
AcDbSymbolTableRecord
100
AcDbLinetypeTableRecord
  2
CENTER2
 70
     0
  3
Center (.5x) ___ _ ___ _ ___ _ ___ _ ___ _ ___
 72
    65
 73
     4
 40
28.57499999999999
 49
19.05
 74
     0
 49
-3.174999999999999
 74
     0
 49
3.174999999999999
 74
     0
 49
-3.174999999999999
 74
     0
  0
LTYPE
  5
35
330
5
100
AcDbSymbolTableRecord
100
AcDbLinetypeTableRecord
  2
PHANTOM2
 70
     0
  3
Phantom (.5x) ___ _ _ ___ _ _ ___ _ _ ___ _ _
 72
    65
 73
     6
 40
31.75
 49
15.875
 74
     0
 49
-3.174999999999999
 74
     0
 49
3.174999999999999
 74
     0
 49
-3.174999999999999
 74
     0
 49
3.174999999999999
 74
     0
 49
-3.174999999999999
 74
     0
  0
LTYPE
  5
36
330
5
100
AcDbSymbolTableRecord
100
AcDbLinetypeTableRecord
  2
HIDDEN2
 70
     0
  3
Hidden (.5x) _ _ _ _ _ _ _ _ _ _ _ _ _ _ _ _ _
 72
    65
 73
     2
 40
4.762499999999999
 49
3.174999999999999
 74
     0
 49
-1.587499999999999
 74
     0
  0
ENDTAB
  0
TABLE
  2
LAYER
  5
2
330
0
100
AcDbSymbolTable
 70
    13
  0
LAYER
  5
10
330
2
100
AcDbSymbolTableRecord
100
AcDbLayerTableRecord
  2
0
 70
     0
 62
     7
  6
Continuous
370
    -3
390
F
  0
LAYER
  5
40
330
2
100
AcDbSymbolTableRecord
100
AcDbLayerTableRecord
  2
50-0-CON
 70
     0
 62
     4
  6
Continuous
370
    50
390
F
  0
LAYER
  5
41
330
2
100
AcDbSymbolTableRecord
100
AcDbLayerTableRecord
  2
70-0-CON
 70
     0
 62
   202
  6
Continuous
370
    70
390
F
  0
LAYER
  5
4E
330
2
100
AcDbSymbolTableRecord
100
AcDbLayerTableRecord
  2
極太線
 70
     0
 62
     7
  6
Continuous
370
    70
390
F
  0
LAYER
  5
4F
330
2
100
AcDbSymbolTableRecord
100
AcDbLayerTableRecord
  2
細線
 70
     0
 62
     8
  6
Continuous
370
    18
390
F
  0
LAYER
  5
AB
330
2
100
AcDbSymbolTableRecord
100
AcDbLayerTableRecord
  2
構築線
 70
     0
 62
    -2
  6
Continuous
290
     0
370
    18
390
F
  0
LAYER
  5
B8
330
2
100
AcDbSymbolTableRecord
100
AcDbLayerTableRecord
  2
太線
 70
     0
 62
     7
  6
Continuous
370
    35
390
F
  0
LAYER
  5
B9
330
2
100
AcDbSymbolTableRecord
100
AcDbLayerTableRecord
  2
寸法線
 70
     0
 62
     5
  6
Continuous
370
    18
390
F
  0
LAYER
  5
BA
330
2
100
AcDbSymbolTableRecord
100
AcDbLayerTableRecord
  2
破線
 70
     0
 62
     8
  6
HIDDEN2
370
    18
390
F
  0
LAYER
  5
BB
330
2
100
AcDbSymbolTableRecord
100
AcDbLayerTableRecord
  2
中心線
 70
     0
 62
     1
  6
CENTER2
370
    18
390
F
  0
LAYER
  5
BC
330
2
100
AcDbSymbolTableRecord
100
AcDbLayerTableRecord
  2
想像線
 70
     0
 62
     8
  6
PHANTOM2
370
    18
390
F
  0
LAYER
  5
BD
330
2
100
AcDbSymbolTableRecord
100
AcDbLayerTableRecord
  2
文字
 70
     0
 62
     7
  6
Continuous
370
    18
390
F
  0
LAYER
  5
180
330
2
100
AcDbSymbolTableRecord
100
AcDbLayerTableRecord
  2
Defpoints
 70
     0
 62
     7
  6
Continuous
290
     0
370
    -3
390
F
  0
ENDTAB
  0
TABLE
  2
STYLE
  5
3
330
0
100
AcDbSymbolTable
 70
     3
  0
STYLE
  5
11
330
3
100
AcDbSymbolTableRecord
100
AcDbTextStyleTableRecord
  2
Standard
 70
     0
 40
0.0
 41
1.0
 50
0.0
 71
     0
 42
3.0
  3
txt
  4

  0
STYLE
  5
32
330
3
100
AcDbSymbolTableRecord
100
AcDbTextStyleTableRecord
  2

 70
     1
 40
0.0
 41
1.0
 50
0.0
 71
     0
 42
2.5
  3
ltypeshp.shx
  4

  0
STYLE
  5
50
330
3
100
AcDbSymbolTableRecord
100
AcDbTextStyleTableRecord
  2
OKANO
 70
     0
 40
0.0
 41
1.0
 50
15.0
 71
     0
 42
5.0
  3
isocp.shx
  4
bigfont.shx
  0
ENDTAB
  0
TABLE
  2
VIEW
  5
6
330
0
100
AcDbSymbolTable
 70
     0
  0
ENDTAB
  0
TABLE
  2
UCS
  5
7
330
0
100
AcDbSymbolTable
 70
     0
  0
ENDTAB
  0
TABLE
  2
APPID
  5
9
330
0
100
AcDbSymbolTable
 70
     1
  0
APPID
  5
12
330
9
100
AcDbSymbolTableRecord
100
AcDbRegAppTableRecord
  2
ACAD
 70
     0
  0
ENDTAB
  0
TABLE
  2
DIMSTYLE
  5
A
330
0
100
AcDbSymbolTable
 70
     2
100
AcDbDimStyleTable
 71
     2
340
A2
340
27
  0
DIMSTYLE
105
27
330
A
100
AcDbSymbolTableRecord
100
AcDbDimStyleTableRecord
  2
ISO-25
 70
     0
 41
2.5
 42
0.625
 43
3.75
 44
1.25
 73
     0
 74
     0
 77
     1
 78
     8
140
2.5
141
2.5
143
0.03937007874016
147
0.625
171
     3
172
     1
271
     2
272
     2
274
     3
283
     0
284
     8
340
11
  0
DIMSTYLE
105
A2
102
{ACAD_REACTORS
330
3236
330
3319
330
3330
330
3353
330
3385
330
33D3
330
33EF
330
33FD
330
343A
330
3453
330
3516
330
3502
330
3518
330
350D
330
3506
330
3610
330
361D
102
}
330
A
100
AcDbSymbolTableRecord
100
AcDbDimStyleTableRecord
  2
sunpo
 70
     0
 40
0.0
 41
3.0
 42
2.0
 43
8.0
 44
3.0
 73
     0
 74
     0
 77
     1
 78
     8
140
5.0
141
2.5
143
0.03937007874016
147
1.0
171
     3
172
     1
271
     2
272
     2
274
     3
283
     0
284
     8
340
50
341
9B
342
9B
  0
ENDTAB
  0
TABLE
  2
BLOCK_RECORD
  5
1
330
0
100
AcDbSymbolTable
 70
    19
  0
BLOCK_RECORD
  5
1F
330
1
100
AcDbSymbolTableRecord
100
AcDbBlockTableRecord
  2
*Model_Space
340
22
  0
BLOCK_RECORD
  5
1B
330
1
100
AcDbSymbolTableRecord
100
AcDbBlockTableRecord
  2
*Paper_Space
340
1E
  0
BLOCK_RECORD
  5
9B
330
1
100
AcDbSymbolTableRecord
100
AcDbBlockTableRecord
  2
_Closed
340
0
102
{BLKREFS
331
332A
331
332B
331
3340
331
3341
331
340D
331
340E
331
3416
331
3417
331
341F
331
3420
331
3447
331
35A8
331
35A9
331
366B
331
366C
331
3674
331
3675
331
3754
331
3755
331
375D
331
375E
331
3766
331
376E
331
376F
331
3777
331
377C
331
3784
331
3785
331
37A9
331
37AA
102
}
  0
BLOCK_RECORD
  5
1510
330
1
100
AcDbSymbolTableRecord
100
AcDbBlockTableRecord
  2
A$C10A573AC
340
0
  0
BLOCK_RECORD
  5
3237
330
1
100
AcDbSymbolTableRecord
100
AcDbBlockTableRecord
  2
*D2
340
0
  0
BLOCK_RECORD
  5
331A
330
1
100
AcDbSymbolTableRecord
100
AcDbBlockTableRecord
  2
*D3
340
0
  0
BLOCK_RECORD
  5
3331
330
1
100
AcDbSymbolTableRecord
100
AcDbBlockTableRecord
  2
*D4
340
0
  0
BLOCK_RECORD
  5
3354
330
1
100
AcDbSymbolTableRecord
100
AcDbBlockTableRecord
  2
*D5
340
0
  0
BLOCK_RECORD
  5
3386
330
1
100
AcDbSymbolTableRecord
100
AcDbBlockTableRecord
  2
*D6
340
0
  0
BLOCK_RECORD
  5
33D4
330
1
100
AcDbSymbolTableRecord
100
AcDbBlockTableRecord
  2
*D7
340
0
  0
BLOCK_RECORD
  5
33F0
330
1
100
AcDbSymbolTableRecord
100
AcDbBlockTableRecord
  2
*D8
340
0
  0
BLOCK_RECORD
  5
33FE
330
1
100
AcDbSymbolTableRecord
100
AcDbBlockTableRecord
  2
*D9
340
0
  0
BLOCK_RECORD
  5
343B
330
1
100
AcDbSymbolTableRecord
100
AcDbBlockTableRecord
  2
*D10
340
0
  0
BLOCK_RECORD
  5
346E
330
1
100
AcDbSymbolTableRecord
100
AcDbBlockTableRecord
  2
*D11
340
0
  0
BLOCK_RECORD
  5
3520
330
1
100
AcDbSymbolTableRecord
100
AcDbBlockTableRecord
  2
*D12
340
0
  0
BLOCK_RECORD
  5
3528
330
1
100
AcDbSymbolTableRecord
100
AcDbBlockTableRecord
  2
*D13
340
0
  0
BLOCK_RECORD
  5
3536
330
1
100
AcDbSymbolTableRecord
100
AcDbBlockTableRecord
  2
*D14
340
0
  0
BLOCK_RECORD
  5
3544
330
1
100
AcDbSymbolTableRecord
100
AcDbBlockTableRecord
  2
*D15
340
0
  0
BLOCK_RECORD
  5
354C
330
1
100
AcDbSymbolTableRecord
100
AcDbBlockTableRecord
  2
*D16
340
0
  0
BLOCK_RECORD
  5
3611
330
1
100
AcDbSymbolTableRecord
100
AcDbBlockTableRecord
  2
*D17
340
0
  0
BLOCK_RECORD
  5
361E
330
1
100
AcDbSymbolTableRecord
100
AcDbBlockTableRecord
  2
*D18
340
0
  0
ENDTAB
  0
ENDSEC
  0
SECTION
  2
BLOCKS
  0
BLOCK
  5
20
330
1F
100
AcDbEntity
  8
0
100
AcDbBlockBegin
  2
*Model_Space
 70
     0
 10
0.0
 20
0.0
 30
0.0
  3
*Model_Space
  1

  0
ENDBLK
  5
21
330
1F
100
AcDbEntity
  8
0
100
AcDbBlockEnd
  0
BLOCK
  5
1C
330
1B
100
AcDbEntity
 67
     1
  8
0
100
AcDbBlockBegin
  2
*Paper_Space
 70
     0
 10
0.0
 20
0.0
 30
0.0
  3
*Paper_Space
  1

  0
ENDBLK
  5
1D
330
1B
100
AcDbEntity
 67
     1
  8
0
100
AcDbBlockEnd
  0
BLOCK
  5
A0
330
9B
100
AcDbEntity
  8
0
100
AcDbBlockBegin
  2
_Closed
 70
     0
 10
0.0
 20
0.0
 30
0.0
  3
_Closed
  1

  0
LINE
  5
9C
330
9B
100
AcDbEntity
  8
0
 62
     0
370
    -2
100
AcDbLine
 10
-1.0
 20
0.1666666666666666
 30
0.0
 11
0.0
 21
0.0
 31
0.0
  0
LINE
  5
9D
330
9B
100
AcDbEntity
  8
0
 62
     0
370
    -2
100
AcDbLine
 10
0.0
 20
0.0
 30
0.0
 11
-1.0
 21
-0.1666666666666666
 31
0.0
  0
LINE
  5
9E
330
9B
100
AcDbEntity
  8
0
 62
     0
370
    -2
100
AcDbLine
 10
-1.0
 20
0.1666666666666666
 30
0.0
 11
-1.0
 21
-0.1666666666666666
 31
0.0
  0
LINE
  5
9F
330
9B
100
AcDbEntity
  8
0
 62
     0
370
    -2
100
AcDbLine
 10
0.0
 20
0.0
 30
0.0
 11
-1.0
 21
0.0
 31
0.0
  0
ENDBLK
  5
A1
330
9B
100
AcDbEntity
  8
0
100
AcDbBlockEnd
  0
BLOCK
  5
155B
330
1510
100
AcDbEntity
  8
0
100
AcDbBlockBegin
  2
A$C10A573AC
 70
     0
 10
0.0
 20
0.0
 30
0.0
  3
A$C10A573AC
  1

  0
TEXT
  5
1511
330
1510
100
AcDbEntity
  8
文字
100
AcDbText
 10
0.9844302777919438
 20
5.224957122252135
 30
0.0
 40
3.0
  1
Materal : Steel.
 51
15.0
  7
OKANO
100
AcDbText
  0
TEXT
  5
1512
330
1510
100
AcDbEntity
  8
文字
100
AcDbText
 10
-0.1141909619694843
 20
0.7500001922403499
 30
0.0
 40
3.0
  1
Surface treatment : Electro galvanized.
 51
15.0
  7
OKANO
100
AcDbText
  0
TEXT
  5
1513
330
1510
100
AcDbEntity
  8
文字
100
AcDbText
 10
-0.4901926332574931
 20
9.159967445193728
 30
0.0
 40
3.0
  1
5 TORGUE SCREW  M5-6
 51
15.0
  7
OKANO
100
AcDbText
  0
TEXT
  5
1514
330
1510
100
AcDbEntity
  8
文字
100
AcDbText
 10
1.364713526390005
 20
78.88822913323082
 30
0.0
 40
3.0
  1
Special standard,
 51
15.0
  7
OKANO
100
AcDbText
  0
TEXT
  5
1515
330
1510
100
AcDbEntity
  8
文字
100
AcDbText
 10
92.88160823408942
 20
89.92753849837379
 30
0.0
 40
3.0
  1
Screw Type
 51
15.0
  7
OKANO
100
AcDbText
  0
LINE
  5
1516
330
1510
100
AcDbEntity
  8
太線
100
AcDbLine
 10
113.9464587597784
 20
81.93930390144641
 30
0.0
 11
112.4464587597784
 21
81.93930390144641
 31
0.0
  0
LINE
  5
1517
330
1510
100
AcDbEntity
  8
太線
100
AcDbLine
 10
112.4464587597784
 20
76.9393039014464
 30
0.0
 11
121.4644995438761
 21
76.9393039014464
 31
0.0
  0
TEXT
  5
1518
330
1510
100
AcDbEntity
  8
文字
100
AcDbText
 10
93.46068240437217
 20
77.96976862235396
 30
0.0
 40
2.0
  1
17-30
 51
15.0
  7
OKANO
100
AcDbText
  0
LINE
  5
1519
330
1510
100
AcDbEntity
  8
太線
100
AcDbLine
 10
111.9464587597784
 20
81.43930390144641
 30
0.0
 11
111.9464587597784
 21
77.4393039014464
 31
0.0
  0
LINE
  5
151A
330
1510
100
AcDbEntity
  8
太線
100
AcDbLine
 10
91.94645875977846
 20
81.43930390144641
 30
0.0
 11
91.94645875977846
 21
77.43930390144639
 31
0.0
  0
LINE
  5
151B
330
1510
100
AcDbEntity
  8
太線
100
AcDbLine
 10
101.9644995438761
 20
77.4393039014464
 30
0.0
 11
101.9644995438761
 21
81.43930390144641
 31
0.0
  0
LINE
  5
151C
330
1510
100
AcDbEntity
  8
太線
100
AcDbLine
 10
92.44645875977846
 20
76.9393039014464
 30
0.0
 11
101.4644995438761
 21
76.9393039014464
 31
0.0
  0
ARC
  5
151D
330
1510
100
AcDbEntity
  8
太線
100
AcDbCircle
 10
92.44645875977846
 20
77.43930390144639
 30
0.0
 40
0.5
100
AcDbArc
 50
180.0
 51
270.0
  0
ARC
  5
151E
330
1510
100
AcDbEntity
  8
太線
100
AcDbCircle
 10
101.4644995438761
 20
77.4393039014464
 30
0.0
 40
0.5
100
AcDbArc
 50
270.0
 51
0.0
  0
ARC
  5
151F
330
1510
100
AcDbEntity
  8
太線
100
AcDbCircle
 10
112.4464587597784
 20
77.4393039014464
 30
0.0
 40
0.5
100
AcDbArc
 50
180.0
 51
270.0
  0
LINE
  5
1520
330
1510
100
AcDbEntity
  8
想像線
100
AcDbLine
 10
93.94645875977847
 20
81.93930390144641
 30
0.0
 11
99.96449954387617
 21
81.93930390144641
 31
0.0
  0
LINE
  5
1521
330
1510
100
AcDbEntity
  8
極太線
100
AcDbLine
 10
96.38762957111168
 20
85.43930390144641
 30
0.0
 11
97.50528794844525
 21
85.43930390144641
 31
0.0
  0
CIRCLE
  5
1522
330
1510
100
AcDbEntity
  8
太線
100
AcDbCircle
 10
96.94645875977847
 20
85.43930390144641
 30
0.0
 40
0.5588291886667776
  0
LINE
  5
1523
330
1510
100
AcDbEntity
  8
太線
100
AcDbLine
 10
99.46449954387617
 20
86.93930390144641
 30
0.0
 11
94.44645875977846
 21
86.93930390144641
 31
0.0
  0
LINE
  5
1524
330
1510
100
AcDbEntity
  8
太線
100
AcDbLine
 10
93.94645875977847
 20
86.43930390144641
 30
0.0
 11
93.94645875977847
 21
81.93930390144641
 31
0.0
  0
ARC
  5
1525
330
1510
100
AcDbEntity
  8
太線
100
AcDbCircle
 10
92.44645875977846
 20
81.43930390144641
 30
0.0
 40
0.5
100
AcDbArc
 50
90.0
 51
180.0
  0
LINE
  5
1526
330
1510
100
AcDbEntity
  8
太線
100
AcDbLine
 10
93.94645875977847
 20
81.93930390144641
 30
0.0
 11
92.44645875977846
 21
81.93930390144641
 31
0.0
  0
ARC
  5
1527
330
1510
100
AcDbEntity
  8
太線
100
AcDbCircle
 10
94.44645875977846
 20
86.43930390144641
 30
0.0
 40
0.5
100
AcDbArc
 50
90.0
 51
180.0
  0
LINE
  5
1528
330
1510
100
AcDbEntity
  8
太線
100
AcDbLine
 10
99.96449954387617
 20
81.93930390144641
 30
0.0
 11
99.96449954387617
 21
86.43930390144641
 31
0.0
  0
LINE
  5
1529
330
1510
100
AcDbEntity
  8
太線
100
AcDbLine
 10
101.4644995438761
 20
81.93930390144641
 30
0.0
 11
99.96449954387617
 21
81.93930390144641
 31
0.0
  0
ARC
  5
152A
330
1510
100
AcDbEntity
  8
太線
100
AcDbCircle
 10
101.4644995438761
 20
81.43930390144641
 30
0.0
 40
0.5
100
AcDbArc
 50
0.0
 51
90.0
  0
ARC
  5
152B
330
1510
100
AcDbEntity
  8
太線
100
AcDbCircle
 10
99.46449954387617
 20
86.43930390144641
 30
0.0
 40
0.5
100
AcDbArc
 50
0.0
 51
90.0
  0
LINE
  5
152C
330
1510
100
AcDbEntity
  8
極太線
100
AcDbLine
 10
96.94645875977847
 20
85.99813309011318
 30
0.0
 11
96.94645875977847
 21
84.88047471277964
 31
0.0
  0
ARC
  5
152D
330
1510
100
AcDbEntity
  8
太線
100
AcDbCircle
 10
112.4464587597784
 20
81.43930390144641
 30
0.0
 40
0.5
100
AcDbArc
 50
90.0
 51
180.0
  0
TEXT
  5
152E
330
1510
100
AcDbEntity
  8
文字
100
AcDbText
 10
134.3819212586066
 20
78.16263579228063
 30
0.0
 40
2.0
  1
101
 51
15.0
  7
OKANO
100
AcDbText
  0
TEXT
  5
152F
330
1510
100
AcDbEntity
  8
文字
100
AcDbText
 10
113.3422276612066
 20
77.96976862235396
 30
0.0
 40
2.0
  1
38-83
 51
15.0
  7
OKANO
100
AcDbText
  0
LINE
  5
1530
330
1510
100
AcDbEntity
  8
太線
100
AcDbLine
 10
141.9825403279738
 20
77.4393039014464
 30
0.0
 11
141.9825403279738
 21
81.43930390144641
 31
0.0
  0
LINE
  5
1531
330
1510
100
AcDbEntity
  8
太線
100
AcDbLine
 10
131.9644995438761
 20
81.43930390144641
 30
0.0
 11
131.9644995438761
 21
77.4393039014464
 31
0.0
  0
LINE
  5
1532
330
1510
100
AcDbEntity
  8
太線
100
AcDbLine
 10
121.9644995438761
 20
77.4393039014464
 30
0.0
 11
121.9644995438761
 21
81.43930390144641
 31
0.0
  0
ARC
  5
1533
330
1510
100
AcDbEntity
  8
太線
100
AcDbCircle
 10
121.4644995438761
 20
77.4393039014464
 30
0.0
 40
0.5
100
AcDbArc
 50
270.0
 51
0.0
  0
LINE
  5
1534
330
1510
100
AcDbEntity
  8
太線
100
AcDbLine
 10
132.4644995438761
 20
76.9393039014464
 30
0.0
 11
141.4825403279738
 21
76.9393039014464
 31
0.0
  0
ARC
  5
1535
330
1510
100
AcDbEntity
  8
太線
100
AcDbCircle
 10
132.4644995438761
 20
77.4393039014464
 30
0.0
 40
0.5
100
AcDbArc
 50
180.0
 51
270.0
  0
ARC
  5
1536
330
1510
100
AcDbEntity
  8
太線
100
AcDbCircle
 10
141.4825403279738
 20
77.4393039014464
 30
0.0
 40
0.5
100
AcDbArc
 50
270.0
 51
0.0
  0
ARC
  5
1537
330
1510
100
AcDbEntity
  8
太線
100
AcDbCircle
 10
121.4644995438761
 20
81.43930390144641
 30
0.0
 40
0.5
100
AcDbArc
 50
0.0
 51
90.0
  0
LINE
  5
1538
330
1510
100
AcDbEntity
  8
太線
100
AcDbLine
 10
119.9644995438761
 20
81.93930390144641
 30
0.0
 11
119.9644995438761
 21
86.43930390144641
 31
0.0
  0
LINE
  5
1539
330
1510
100
AcDbEntity
  8
太線
100
AcDbLine
 10
113.9464587597784
 20
86.43930390144641
 30
0.0
 11
113.9464587597784
 21
81.93930390144641
 31
0.0
  0
LINE
  5
153A
330
1510
100
AcDbEntity
  8
想像線
100
AcDbLine
 10
113.9464587597784
 20
81.93930390144641
 30
0.0
 11
119.9644995438761
 21
81.93930390144641
 31
0.0
  0
LINE
  5
153B
330
1510
100
AcDbEntity
  8
太線
100
AcDbLine
 10
121.4644995438761
 20
81.93930390144641
 30
0.0
 11
119.9644995438761
 21
81.93930390144641
 31
0.0
  0
LINE
  5
153C
330
1510
100
AcDbEntity
  8
太線
100
AcDbLine
 10
119.4644995438761
 20
86.93930390144641
 30
0.0
 11
114.4464587597784
 21
86.93930390144641
 31
0.0
  0
ARC
  5
153D
330
1510
100
AcDbEntity
  8
太線
100
AcDbCircle
 10
114.4464587597784
 20
86.43930390144641
 30
0.0
 40
0.5
100
AcDbArc
 50
90.0
 51
180.0
  0
CIRCLE
  5
153E
330
1510
100
AcDbEntity
  8
太線
100
AcDbCircle
 10
115.4464587597784
 20
85.43930390144641
 30
0.0
 40
0.5588291886667776
  0
LINE
  5
153F
330
1510
100
AcDbEntity
  8
極太線
100
AcDbLine
 10
115.4464587597784
 20
85.99813309011318
 30
0.0
 11
115.4464587597784
 21
84.88047471277964
 31
0.0
  0
LINE
  5
1540
330
1510
100
AcDbEntity
  8
極太線
100
AcDbLine
 10
114.8876295711116
 20
85.43930390144641
 30
0.0
 11
116.0052879484452
 21
85.43930390144641
 31
0.0
  0
ARC
  5
1541
330
1510
100
AcDbEntity
  8
太線
100
AcDbCircle
 10
119.4644995438761
 20
86.43930390144641
 30
0.0
 40
0.5
100
AcDbArc
 50
0.0
 51
90.0
  0
LINE
  5
1542
330
1510
100
AcDbEntity
  8
極太線
100
AcDbLine
 10
117.9056703552094
 20
85.43930390144641
 30
0.0
 11
119.0233287325429
 21
85.43930390144641
 31
0.0
  0
LINE
  5
1543
330
1510
100
AcDbEntity
  8
極太線
100
AcDbLine
 10
118.4644995438761
 20
85.99813309011318
 30
0.0
 11
118.4644995438761
 21
84.88047471277964
 31
0.0
  0
CIRCLE
  5
1544
330
1510
100
AcDbEntity
  8
太線
100
AcDbCircle
 10
118.4644995438761
 20
85.43930390144641
 30
0.0
 40
0.5588291886667776
  0
LINE
  5
1545
330
1510
100
AcDbEntity
  8
想像線
100
AcDbLine
 10
133.9644995438761
 20
81.93930390144641
 30
0.0
 11
139.9825403279738
 21
81.93930390144641
 31
0.0
  0
LINE
  5
1546
330
1510
100
AcDbEntity
  8
極太線
100
AcDbLine
 10
137.9237111393071
 20
85.43930390144641
 30
0.0
 11
139.0413695166406
 21
85.43930390144641
 31
0.0
  0
CIRCLE
  5
1547
330
1510
100
AcDbEntity
  8
太線
100
AcDbCircle
 10
138.4825403279738
 20
85.43930390144641
 30
0.0
 40
0.5588291886667776
  0
CIRCLE
  5
1548
330
1510
100
AcDbEntity
  8
太線
100
AcDbCircle
 10
138.4825403279738
 20
83.26342923362075
 30
0.0
 40
0.5588291886667776
  0
LINE
  5
1549
330
1510
100
AcDbEntity
  8
極太線
100
AcDbLine
 10
137.9237111393071
 20
83.26342923362075
 30
0.0
 11
139.0413695166406
 21
83.26342923362075
 31
0.0
  0
LINE
  5
154A
330
1510
100
AcDbEntity
  8
太線
100
AcDbLine
 10
139.4825403279738
 20
86.93930390144641
 30
0.0
 11
134.4644995438761
 21
86.93930390144641
 31
0.0
  0
LINE
  5
154B
330
1510
100
AcDbEntity
  8
太線
100
AcDbLine
 10
133.9644995438761
 20
86.43930390144641
 30
0.0
 11
133.9644995438761
 21
81.93930390144641
 31
0.0
  0
ARC
  5
154C
330
1510
100
AcDbEntity
  8
太線
100
AcDbCircle
 10
132.4644995438761
 20
81.43930390144641
 30
0.0
 40
0.5
100
AcDbArc
 50
90.0
 51
180.0
  0
LINE
  5
154D
330
1510
100
AcDbEntity
  8
太線
100
AcDbLine
 10
133.9644995438761
 20
81.93930390144641
 30
0.0
 11
132.4644995438761
 21
81.93930390144641
 31
0.0
  0
LINE
  5
154E
330
1510
100
AcDbEntity
  8
極太線
100
AcDbLine
 10
134.9056703552093
 20
83.26342923362075
 30
0.0
 11
136.0233287325429
 21
83.26342923362075
 31
0.0
  0
LINE
  5
154F
330
1510
100
AcDbEntity
  8
極太線
100
AcDbLine
 10
135.4644995438761
 20
83.82225842228752
 30
0.0
 11
135.4644995438761
 21
82.70460004495395
 31
0.0
  0
CIRCLE
  5
1550
330
1510
100
AcDbEntity
  8
太線
100
AcDbCircle
 10
135.4644995438761
 20
83.26342923362075
 30
0.0
 40
0.5588291886667776
  0
ARC
  5
1551
330
1510
100
AcDbEntity
  8
太線
100
AcDbCircle
 10
134.4644995438761
 20
86.43930390144641
 30
0.0
 40
0.5
100
AcDbArc
 50
90.0
 51
180.0
  0
CIRCLE
  5
1552
330
1510
100
AcDbEntity
  8
太線
100
AcDbCircle
 10
135.4644995438761
 20
85.43930390144641
 30
0.0
 40
0.5588291886667776
  0
LINE
  5
1553
330
1510
100
AcDbEntity
  8
極太線
100
AcDbLine
 10
135.4644995438761
 20
85.99813309011318
 30
0.0
 11
135.4644995438761
 21
84.88047471277964
 31
0.0
  0
LINE
  5
1554
330
1510
100
AcDbEntity
  8
極太線
100
AcDbLine
 10
134.9056703552093
 20
85.43930390144641
 30
0.0
 11
136.0233287325429
 21
85.43930390144641
 31
0.0
  0
LINE
  5
1555
330
1510
100
AcDbEntity
  8
太線
100
AcDbLine
 10
139.9825403279738
 20
81.93930390144641
 30
0.0
 11
139.9825403279738
 21
86.43930390144641
 31
0.0
  0
ARC
  5
1556
330
1510
100
AcDbEntity
  8
太線
100
AcDbCircle
 10
141.4825403279738
 20
81.43930390144641
 30
0.0
 40
0.5
100
AcDbArc
 50
0.0
 51
90.0
  0
LINE
  5
1557
330
1510
100
AcDbEntity
  8
極太線
100
AcDbLine
 10
138.4825403279738
 20
83.82225842228752
 30
0.0
 11
138.4825403279738
 21
82.70460004495395
 31
0.0
  0
LINE
  5
1558
330
1510
100
AcDbEntity
  8
太線
100
AcDbLine
 10
141.4825403279738
 20
81.93930390144641
 30
0.0
 11
139.9825403279738
 21
81.93930390144641
 31
0.0
  0
ARC
  5
1559
330
1510
100
AcDbEntity
  8
太線
100
AcDbCircle
 10
139.4825403279738
 20
86.43930390144641
 30
0.0
 40
0.5
100
AcDbArc
 50
0.0
 51
90.0
  0
LINE
  5
155A
330
1510
100
AcDbEntity
  8
極太線
100
AcDbLine
 10
138.4825403279738
 20
85.99813309011318
 30
0.0
 11
138.4825403279738
 21
84.88047471277964
 31
0.0
  0
ENDBLK
  5
155C
330
1510
100
AcDbEntity
  8
0
100
AcDbBlockEnd
  0
BLOCK
  5
3241
330
3237
100
AcDbEntity
  8
0
100
AcDbBlockBegin
  2
*D2
 70
     1
 10
0.0
 20
0.0
 30
0.0
  3
*D2
  1

  0
LINE
  5
375A
330
3237
100
AcDbEntity
  8
寸法線
 62
     0
370
    -2
100
AcDbLine
 10
217.1214068258001
 20
209.2037013284614
 30
0.0
 11
217.1214068258001
 21
223.0462572246039
 31
0.0
  0
LINE
  5
375B
330
3237
100
AcDbEntity
  8
寸法線
 62
     0
370
    -2
100
AcDbLine
 10
276.7111045696552
 20
209.2037013284614
 30
0.0
 11
276.7111045696552
 21
223.0462572246039
 31
0.0
  0
LINE
  5
375C
330
3237
100
AcDbEntity
  8
寸法線
 62
     0
370
    -2
100
AcDbLine
 10
220.1214068258001
 20
220.0462572246038
 30
0.0
 11
273.7111045696552
 21
220.0462572246038
 31
0.0
  0
INSERT
  5
375D
330
3237
100
AcDbEntity
  8
寸法線
 62
     0
370
    -2
100
AcDbBlockReference
  2
_Closed
 10
217.1214068258001
 20
220.0462572246038
 30
0.0
 41
3.0
 42
3.0
 43
3.0
 50
180.0
  0
INSERT
  5
375E
330
3237
100
AcDbEntity
  8
寸法線
 62
     0
370
    -2
100
AcDbBlockReference
  2
_Closed
 10
276.7111045696552
 20
220.0462572246038
 30
0.0
 41
3.0
 42
3.0
 43
3.0
  0
MTEXT
  5
375F
330
3237
100
AcDbEntity
  8
寸法線
 62
     0
100
AcDbMText
 10
246.9162556977277
 20
223.5462572246039
 30
0.0
 40
5.0
 41
0.0
 71
     5
 72
     1
  1
60
  7
OKANO
 73
     1
 44
1.0
  0
POINT
  5
3760
330
3237
100
AcDbEntity
  8
Defpoints
 62
     0
100
AcDbPoint
 10
217.1214068258001
 20
207.2037013284614
 30
0.0
  0
POINT
  5
3761
330
3237
100
AcDbEntity
  8
Defpoints
 62
     0
100
AcDbPoint
 10
276.7111045696552
 20
207.2037013284614
 30
0.0
  0
POINT
  5
3762
330
3237
100
AcDbEntity
  8
Defpoints
 62
     0
100
AcDbPoint
 10
276.7111045696552
 20
220.0462572246038
 30
0.0
  0
ENDBLK
  5
3242
330
3237
100
AcDbEntity
  8
0
100
AcDbBlockEnd
  0
BLOCK
  5
3325
330
331A
100
AcDbEntity
  8
0
100
AcDbBlockBegin
  2
*D3
 70
     1
 10
0.0
 20
0.0
 30
0.0
  3
*D3
  1

  0
LINE
  5
3327
330
331A
100
AcDbEntity
  8
寸法線
 62
     0
370
    -2
100
AcDbLine
 10
64.81403670416466
 20
183.105798027382
 30
0.0
 11
64.81403670416466
 21
199.2120456900526
 31
0.0
  0
LINE
  5
3328
330
331A
100
AcDbEntity
  8
寸法線
 62
     0
370
    -2
100
AcDbLine
 10
79.73585347775861
 20
182.5172428108736
 30
0.0
 11
79.73585347775861
 21
199.2120456900526
 31
0.0
  0
LINE
  5
3329
330
331A
100
AcDbEntity
  8
寸法線
 62
     0
370
    -2
100
AcDbLine
 10
67.81403670416466
 20
196.2120456900526
 30
0.0
 11
76.73585347775861
 21
196.2120456900526
 31
0.0
  0
INSERT
  5
332A
330
331A
100
AcDbEntity
  8
寸法線
 62
     0
370
    -2
100
AcDbBlockReference
  2
_Closed
 10
64.81403670416466
 20
196.2120456900526
 30
0.0
 41
3.0
 42
3.0
 43
3.0
 50
180.0
  0
INSERT
  5
332B
330
331A
100
AcDbEntity
  8
寸法線
 62
     0
370
    -2
100
AcDbBlockReference
  2
_Closed
 10
79.73585347775861
 20
196.2120456900526
 30
0.0
 41
3.0
 42
3.0
 43
3.0
  0
MTEXT
  5
332C
330
331A
100
AcDbEntity
  8
寸法線
 62
     0
100
AcDbMText
 10
72.27494509096164
 20
199.7125378160368
 30
0.0
 40
5.0
 41
0.0
 71
     5
 72
     1
  1
20
  7
OKANO
 73
     1
 44
1.0
  0
POINT
  5
332D
330
331A
100
AcDbEntity
  8
Defpoints
 62
     0
100
AcDbPoint
 10
64.81403670416466
 20
181.105798027382
 30
0.0
  0
POINT
  5
332E
330
331A
100
AcDbEntity
  8
Defpoints
 62
     0
100
AcDbPoint
 10
79.73585347775861
 20
180.5172428108736
 30
0.0
  0
POINT
  5
332F
330
331A
100
AcDbEntity
  8
Defpoints
 62
     0
100
AcDbPoint
 10
79.73585347775861
 20
196.2120456900526
 30
0.0
  0
ENDBLK
  5
3326
330
331A
100
AcDbEntity
  8
0
100
AcDbBlockEnd
  0
BLOCK
  5
333B
330
3331
100
AcDbEntity
  8
0
100
AcDbBlockBegin
  2
*D4
 70
     1
 10
0.0
 20
0.0
 30
0.0
  3
*D4
  1

  0
LINE
  5
333D
330
3331
100
AcDbEntity
  8
寸法線
 62
     0
370
    -2
100
AcDbLine
 10
62.26162108200901
 20
183.105798027382
 30
0.0
 11
62.26162108200901
 21
206.8632617680346
 31
0.0
  0
LINE
  5
333E
330
3331
100
AcDbEntity
  8
寸法線
 62
     0
370
    -2
100
AcDbLine
 10
82.6809483387276
 20
182.713427883043
 30
0.0
 11
82.6809483387276
 21
206.8632617680346
 31
0.0
  0
LINE
  5
333F
330
3331
100
AcDbEntity
  8
寸法線
 62
     0
370
    -2
100
AcDbLine
 10
65.26162108200901
 20
203.8632617680347
 30
0.0
 11
79.6809483387276
 21
203.8632617680347
 31
0.0
  0
INSERT
  5
3340
330
3331
100
AcDbEntity
  8
寸法線
 62
     0
370
    -2
100
AcDbBlockReference
  2
_Closed
 10
62.26162108200901
 20
203.8632617680347
 30
0.0
 41
3.0
 42
3.0
 43
3.0
 50
180.0
  0
INSERT
  5
3341
330
3331
100
AcDbEntity
  8
寸法線
 62
     0
370
    -2
100
AcDbBlockReference
  2
_Closed
 10
82.6809483387276
 20
203.8632617680347
 30
0.0
 41
3.0
 42
3.0
 43
3.0
  0
MTEXT
  5
3342
330
3331
100
AcDbEntity
  8
寸法線
 62
     0
100
AcDbMText
 10
72.4712847103683
 20
207.3637538940189
 30
0.0
 40
5.0
 41
0.0
 71
     5
 72
     1
  1
24
  7
OKANO
 73
     1
 44
1.0
  0
POINT
  5
3343
330
3331
100
AcDbEntity
  8
Defpoints
 62
     0
100
AcDbPoint
 10
62.26162108200901
 20
181.105798027382
 30
0.0
  0
POINT
  5
3344
330
3331
100
AcDbEntity
  8
Defpoints
 62
     0
100
AcDbPoint
 10
82.6809483387276
 20
180.7134278830431
 30
0.0
  0
POINT
  5
3345
330
3331
100
AcDbEntity
  8
Defpoints
 62
     0
100
AcDbPoint
 10
82.6809483387276
 20
203.8632617680347
 30
0.0
  0
ENDBLK
  5
333C
330
3331
100
AcDbEntity
  8
0
100
AcDbBlockEnd
  0
BLOCK
  5
335E
330
3354
100
AcDbEntity
  8
0
100
AcDbBlockBegin
  2
*D5
 70
     1
 10
0.0
 20
0.0
 30
0.0
  3
*D5
  1

  0
LINE
  5
35A5
330
3354
100
AcDbEntity
  8
寸法線
 62
     0
370
    -2
100
AcDbLine
 10
74.20151402540432
 20
180.4711488256961
 30
0.0
 11
95.49303938094658
 21
180.4711488256961
 31
0.0
  0
LINE
  5
35A6
330
3354
100
AcDbEntity
  8
寸法線
 62
     0
370
    -2
100
AcDbLine
 10
99.85151402540433
 20
210.1211488256961
 30
0.0
 11
89.49303938094658
 21
210.1211488256961
 31
0.0
  0
LINE
  5
35A7
330
3354
100
AcDbEntity
  8
寸法線
 62
     0
370
    -2
100
AcDbLine
 10
92.49303938094659
 20
183.4711488256961
 30
0.0
 11
92.49303938094659
 21
207.1211488256961
 31
0.0
  0
INSERT
  5
35A8
330
3354
100
AcDbEntity
  8
寸法線
 62
     0
370
    -2
100
AcDbBlockReference
  2
_Closed
 10
92.49303938094659
 20
180.4711488256961
 30
0.0
 41
3.0
 42
3.0
 43
3.0
 50
270.0
  0
INSERT
  5
35A9
330
3354
100
AcDbEntity
  8
寸法線
 62
     0
370
    -2
100
AcDbBlockReference
  2
_Closed
 10
92.49303938094659
 20
210.1211488256961
 30
0.0
 41
3.0
 42
3.0
 43
3.0
 50
90.0
  0
MTEXT
  5
35AA
330
3354
100
AcDbEntity
  8
寸法線
 62
     0
100
AcDbMText
 10
88.99303938094655
 20
195.2961488256962
 30
0.0
 40
5.0
 41
0.0
 71
     5
 72
     1
  1
30
  7
OKANO
 11
0.0000000000000001
 21
1.0
 31
0.0
 73
     1
 44
1.0
  0
POINT
  5
35AB
330
3354
100
AcDbEntity
  8
Defpoints
 62
     0
100
AcDbPoint
 10
72.20151402540432
 20
180.4711488256961
 30
0.0
  0
POINT
  5
35AC
330
3354
100
AcDbEntity
  8
Defpoints
 62
     0
100
AcDbPoint
 10
101.8515140254043
 20
210.1211488256961
 30
0.0
  0
POINT
  5
35AD
330
3354
100
AcDbEntity
  8
Defpoints
 62
     0
100
AcDbPoint
 10
92.49303938094659
 20
210.1211488256961
 30
0.0
  0
ENDBLK
  5
335F
330
3354
100
AcDbEntity
  8
0
100
AcDbBlockEnd
  0
BLOCK
  5
3390
330
3386
100
AcDbEntity
  8
0
100
AcDbBlockBegin
  2
*D6
 70
     1
 10
0.0
 20
0.0
 30
0.0
  3
*D6
  1

  0
LINE
  5
3751
330
3386
100
AcDbEntity
  8
寸法線
 62
     0
370
    -2
100
AcDbLine
 10
273.5344772961612
 20
210.1211488256962
 30
0.0
 11
300.0172473692956
 21
210.1211488256962
 31
0.0
  0
LINE
  5
3752
330
3386
100
AcDbEntity
  8
寸法線
 62
     0
370
    -2
100
AcDbLine
 10
273.5344772961612
 20
150.8211488256961
 30
0.0
 11
300.0172473692956
 21
150.8211488256961
 31
0.0
  0
LINE
  5
3753
330
3386
100
AcDbEntity
  8
寸法線
 62
     0
370
    -2
100
AcDbLine
 10
297.0172473692956
 20
207.1211488256961
 30
0.0
 11
297.0172473692956
 21
153.8211488256961
 31
0.0
  0
INSERT
  5
3754
330
3386
100
AcDbEntity
  8
寸法線
 62
     0
370
    -2
100
AcDbBlockReference
  2
_Closed
 10
297.0172473692956
 20
210.1211488256962
 30
0.0
 41
3.0
 42
3.0
 43
3.0
 50
90.0
  0
INSERT
  5
3755
330
3386
100
AcDbEntity
  8
寸法線
 62
     0
370
    -2
100
AcDbBlockReference
  2
_Closed
 10
297.0172473692956
 20
150.8211488256961
 30
0.0
 41
3.0
 42
3.0
 43
3.0
 50
270.0
  0
MTEXT
  5
3756
330
3386
100
AcDbEntity
  8
寸法線
 62
     0
100
AcDbMText
 10
293.5172473692956
 20
180.4711488256961
 30
0.0
 40
5.0
 41
0.0
 71
     5
 72
     1
  1
60
  7
OKANO
 11
0.0000000000000001
 21
1.0
 31
0.0
 73
     1
 44
1.0
  0
POINT
  5
3757
330
3386
100
AcDbEntity
  8
Defpoints
 62
     0
100
AcDbPoint
 10
271.5344772961612
 20
210.1211488256962
 30
0.0
  0
POINT
  5
3758
330
3386
100
AcDbEntity
  8
Defpoints
 62
     0
100
AcDbPoint
 10
271.5344772961612
 20
150.8211488256961
 30
0.0
  0
POINT
  5
3759
330
3386
100
AcDbEntity
  8
Defpoints
 62
     0
100
AcDbPoint
 10
297.0172473692956
 20
150.8211488256961
 30
0.0
  0
ENDBLK
  5
3391
330
3386
100
AcDbEntity
  8
0
100
AcDbBlockEnd
  0
BLOCK
  5
33DF
330
33D4
100
AcDbEntity
  8
0
100
AcDbBlockBegin
  2
*D7
 70
     1
 10
0.0
 20
0.0
 30
0.0
  3
*D7
  1

  0
LINE
  5
3413
330
33D4
100
AcDbEntity
  8
寸法線
 62
     0
370
    -2
100
AcDbLine
 10
-2.296823222367038
 20
177.8036643073074
 30
0.0
 11
-2.296823222367041
 21
119.2016328613581
 31
0.0
  0
LINE
  5
3414
330
33D4
100
AcDbEntity
  8
寸法線
 62
     0
370
    -2
100
AcDbLine
 10
-12.89865092847935
 20
178.4657564364732
 30
0.0
 11
-12.89865092847936
 21
119.2016328613581
 31
0.0
  0
LINE
  5
3415
330
33D4
100
AcDbEntity
  8
寸法線
 62
     0
370
    -2
100
AcDbLine
 10
-5.296823222367041
 20
122.2016328613581
 30
0.0
 11
-9.898650928479359
 21
122.2016328613581
 31
0.0
  0
INSERT
  5
3416
330
33D4
100
AcDbEntity
  8
寸法線
 62
     0
370
    -2
100
AcDbBlockReference
  2
_Closed
 10
-2.296823222367041
 20
122.2016328613581
 30
0.0
 41
3.0
 42
3.0
 43
3.0
  0
INSERT
  5
3417
330
33D4
100
AcDbEntity
  8
寸法線
 62
     0
370
    -2
100
AcDbBlockReference
  2
_Closed
 10
-12.89865092847936
 20
122.2016328613581
 30
0.0
 41
3.0
 42
3.0
 43
3.0
 50
180.0
  0
MTEXT
  5
3418
330
33D4
100
AcDbEntity
  8
寸法線
 62
     0
100
AcDbMText
 10
-7.5977370754232
 20
125.7016328613581
 30
0.0
 40
5.0
 41
0.0
 71
     5
 72
     1
  1
10
  7
OKANO
 73
     1
 44
1.0
  0
POINT
  5
3419
330
33D4
100
AcDbEntity
  8
Defpoints
 62
     0
100
AcDbPoint
 10
-2.296823222367038
 20
179.8036643073074
 30
0.0
  0
POINT
  5
341A
330
33D4
100
AcDbEntity
  8
Defpoints
 62
     0
100
AcDbPoint
 10
-12.89865092847935
 20
180.4657564364732
 30
0.0
  0
POINT
  5
341B
330
33D4
100
AcDbEntity
  8
Defpoints
 62
     0
100
AcDbPoint
 10
-12.89865092847936
 20
122.2016328613581
 30
0.0
  0
ENDBLK
  5
33E0
330
33D4
100
AcDbEntity
  8
0
100
AcDbBlockEnd
  0
BLOCK
  5
33FB
330
33F0
100
AcDbEntity
  8
0
100
AcDbBlockBegin
  2
*D8
 70
     1
 10
0.0
 20
0.0
 30
0.0
  3
*D8
  1

  0
LINE
  5
340A
330
33F0
100
AcDbEntity
  8
寸法線
 62
     0
370
    -2
100
AcDbLine
 10
1.541723882739916
 20
186.8300713330686
 30
0.0
 11
-41.09347334612425
 21
186.8300713330686
 31
0.0
  0
LINE
  5
340B
330
33F0
100
AcDbEntity
  8
寸法線
 62
     0
370
    -2
100
AcDbLine
 10
1.159749052508914
 20
174.616522362319
 30
0.0
 11
-41.09347334612426
 21
174.616522362319
 31
0.0
  0
LINE
  5
340C
330
33F0
100
AcDbEntity
  8
寸法線
 62
     0
370
    -2
100
AcDbLine
 10
-38.09347334612425
 20
183.8300713330686
 30
0.0
 11
-38.09347334612425
 21
177.616522362319
 31
0.0
  0
INSERT
  5
340D
330
33F0
100
AcDbEntity
  8
寸法線
 62
     0
370
    -2
100
AcDbBlockReference
  2
_Closed
 10
-38.09347334612425
 20
186.8300713330686
 30
0.0
 41
3.0
 42
3.0
 43
3.0
 50
90.0
  0
INSERT
  5
340E
330
33F0
100
AcDbEntity
  8
寸法線
 62
     0
370
    -2
100
AcDbBlockReference
  2
_Closed
 10
-38.09347334612426
 20
174.616522362319
 30
0.0
 41
3.0
 42
3.0
 43
3.0
 50
270.0
  0
MTEXT
  5
340F
330
33F0
100
AcDbEntity
  8
寸法線
 62
     0
100
AcDbMText
 10
-41.59396547210853
 20
180.7232968476938
 30
0.0
 40
5.0
 41
0.0
 71
     5
 72
     1
  1
12
  7
OKANO
 11
0.0000000000000001
 21
1.0
 31
0.0
 73
     1
 44
1.0
  0
POINT
  5
3410
330
33F0
100
AcDbEntity
  8
Defpoints
 62
     0
100
AcDbPoint
 10
3.541723882739916
 20
186.8300713330686
 30
0.0
  0
POINT
  5
3411
330
33F0
100
AcDbEntity
  8
Defpoints
 62
     0
100
AcDbPoint
 10
3.159749052508914
 20
174.616522362319
 30
0.0
  0
POINT
  5
3412
330
33F0
100
AcDbEntity
  8
Defpoints
 62
     0
100
AcDbPoint
 10
-38.09347334612426
 20
174.616522362319
 30
0.0
  0
ENDBLK
  5
33FC
330
33F0
100
AcDbEntity
  8
0
100
AcDbBlockEnd
  0
BLOCK
  5
3408
330
33FE
100
AcDbEntity
  8
0
100
AcDbBlockBegin
  2
*D9
 70
     1
 10
0.0
 20
0.0
 30
0.0
  3
*D9
  1

  0
LINE
  5
341C
330
33FE
100
AcDbEntity
  8
寸法線
 62
     0
370
    -2
100
AcDbLine
 10
-2.928620393995061
 20
182.871406571313
 30
0.0
 11
-2.92862039399506
 21
195.9788319720991
 31
0.0
  0
LINE
  5
341D
330
33FE
100
AcDbEntity
  8
寸法線
 62
     0
370
    -2
100
AcDbLine
 10
27.15489129049274
 20
182.4539091636609
 30
0.0
 11
27.15489129049274
 21
195.9788319720991
 31
0.0
  0
LINE
  5
341E
330
33FE
100
AcDbEntity
  8
寸法線
 62
     0
370
    -2
100
AcDbLine
 10
0.0713796060049399
 20
192.9788319720991
 30
0.0
 11
24.15489129049274
 21
192.9788319720991
 31
0.0
  0
INSERT
  5
341F
330
33FE
100
AcDbEntity
  8
寸法線
 62
     0
370
    -2
100
AcDbBlockReference
  2
_Closed
 10
-2.92862039399506
 20
192.9788319720991
 30
0.0
 41
3.0
 42
3.0
 43
3.0
 50
180.0
  0
INSERT
  5
3420
330
33FE
100
AcDbEntity
  8
寸法線
 62
     0
370
    -2
100
AcDbBlockReference
  2
_Closed
 10
27.15489129049274
 20
192.9788319720991
 30
0.0
 41
3.0
 42
3.0
 43
3.0
  0
MTEXT
  5
3421
330
33FE
100
AcDbEntity
  8
寸法線
 62
     0
100
AcDbMText
 10
12.11313544824884
 20
196.4788319720991
 30
0.0
 40
5.0
 41
0.0
 71
     5
 72
     1
  1
30
  7
OKANO
 73
     1
 44
1.0
  0
POINT
  5
3422
330
33FE
100
AcDbEntity
  8
Defpoints
 62
     0
100
AcDbPoint
 10
-2.928620393995061
 20
180.871406571313
 30
0.0
  0
POINT
  5
3423
330
33FE
100
AcDbEntity
  8
Defpoints
 62
     0
100
AcDbPoint
 10
27.15489129049274
 20
180.4539091636609
 30
0.0
  0
POINT
  5
3424
330
33FE
100
AcDbEntity
  8
Defpoints
 62
     0
100
AcDbPoint
 10
27.15489129049274
 20
192.9788319720991
 30
0.0
  0
ENDBLK
  5
3409
330
33FE
100
AcDbEntity
  8
0
100
AcDbBlockEnd
  0
BLOCK
  5
3442
330
343B
100
AcDbEntity
  8
0
100
AcDbBlockBegin
  2
*D10
 70
     1
 10
0.0
 20
0.0
 30
0.0
  3
*D10
  1

  0
LINE
  5
3444
330
343B
100
AcDbEntity
  8
寸法線
 62
     0
370
    -2
100
AcDbLine
 10
-40.1817171542133
 20
148.885936292848
 30
0.0
 11
-11.40177423466381
 21
164.7265966001043
 31
0.0
  0
MTEXT
  5
3445
330
343B
100
AcDbEntity
  8
寸法線
 62
     0
100
AcDbMText
 10
-38.08359380169942
 20
154.0358911757329
 30
0.0
 40
5.0
 41
0.0
 71
     5
 72
     1
  1
30
  7
OKANO
 11
0.876065583241521
 21
0.4821919678506618
 31
0.0
 73
     1
 44
1.0
  0
LINE
  5
3446
330
343B
100
AcDbEntity
  8
寸法線
 62
     0
370
    -2
100
AcDbLine
 10
17.203555692071
 20
180.4711488256961
 30
0.0
 11
-8.773577484939245
 21
166.1731725036563
 31
0.0
  0
INSERT
  5
3447
330
343B
100
AcDbEntity
  8
寸法線
 62
     0
370
    -2
100
AcDbBlockReference
  2
_Closed
 10
-8.773577484939245
 20
166.1731725036563
 30
0.0
 41
3.0
 42
3.0
 43
3.0
 50
28.82866101227928
  0
POINT
  5
3448
330
343B
100
AcDbEntity
  8
Defpoints
 62
     0
100
AcDbPoint
 10
-8.773577484939245
 20
166.1731725036563
 30
0.0
  0
POINT
  5
3449
330
343B
100
AcDbEntity
  8
Defpoints
 62
     0
100
AcDbPoint
 10
17.203555692071
 20
180.4711488256961
 30
0.0
  0
ENDBLK
  5
3443
330
343B
100
AcDbEntity
  8
0
100
AcDbBlockEnd
  0
BLOCK
  5
3478
330
346E
100
AcDbEntity
  8
0
100
AcDbBlockBegin
  2
*D11
 70
     1
 10
0.0
 20
0.0
 30
0.0
  3
*D11
  1

  0
LINE
  5
37A6
330
346E
100
AcDbEntity
  8
寸法線
 62
     0
370
    -2
100
AcDbLine
 10
179.8974196310255
 20
89.0256110613485
 30
0.0
 11
190.5455931568092
 21
88.80727117484386
 31
0.0
  0
LINE
  5
37A7
330
346E
100
AcDbEntity
  8
寸法線
 62
     0
370
    -2
100
AcDbLine
 10
179.6924135801968
 20
79.02771265622743
 30
0.0
 11
190.3405871059806
 21
78.8093727697228
 31
0.0
  0
LINE
  5
37A8
330
346E
100
AcDbEntity
  8
寸法線
 62
     0
370
    -2
100
AcDbLine
 10
187.4847218200243
 20
85.86940346855611
 30
0.0
 11
187.4027193996928
 21
81.87024410650773
 31
0.0
  0
INSERT
  5
37A9
330
346E
100
AcDbEntity
  8
寸法線
 62
     0
370
    -2
100
AcDbBlockReference
  2
_Closed
 10
187.5462236352729
 20
88.86877299009245
 30
0.0
 41
3.0
 42
3.0
 43
3.0
 50
88.82531956005456
  0
INSERT
  5
37AA
330
346E
100
AcDbEntity
  8
寸法線
 62
     0
370
    -2
100
AcDbBlockReference
  2
_Closed
 10
187.3412175844443
 20
78.87087458497139
 30
0.0
 41
3.0
 42
3.0
 43
3.0
 50
268.8253195600545
  0
MTEXT
  5
37AB
330
346E
100
AcDbEntity
  8
寸法線
 62
     0
100
AcDbMText
 10
183.9444561680662
 20
83.94157590532197
 30
0.0
 40
5.0
 41
0.0
 71
     5
 72
     1
  1
13
  7
OKANO
 11
0.0205006050828647
 21
0.999789840512113
 31
0.0
 73
     1
 44
1.0
  0
POINT
  5
37AC
330
346E
100
AcDbEntity
  8
Defpoints
 62
     0
100
AcDbPoint
 10
177.8978399500012
 20
89.06661227151422
 30
0.0
  0
POINT
  5
37AD
330
346E
100
AcDbEntity
  8
Defpoints
 62
     0
100
AcDbPoint
 10
177.6928338991726
 20
79.06871386639316
 30
0.0
  0
POINT
  5
37AE
330
346E
100
AcDbEntity
  8
Defpoints
 62
     0
100
AcDbPoint
 10
187.3412175844443
 20
78.87087458497139
 30
0.0
  0
ENDBLK
  5
3479
330
346E
100
AcDbEntity
  8
0
100
AcDbBlockEnd
  0
BLOCK
  5
3526
330
3520
100
AcDbEntity
  8
0
100
AcDbBlockBegin
  2
*D12
 70
     1
 10
0.0
 20
0.0
 30
0.0
  3
*D12
  1

  0
LINE
  5
3764
330
3520
100
AcDbEntity
  8
寸法線
 62
     0
370
    -2
100
AcDbLine
 10
63.95899440637018
 20
50.56845090284746
 30
0.0
 11
93.8505382916731
 21
50.28464937193696
 31
0.0
  0
MTEXT
  5
3765
330
3520
100
AcDbEntity
  8
寸法線
 62
     0
100
AcDbMText
 10
77.43806276713982
 20
53.94063331837912
 30
0.0
 40
5.0
 41
0.0
 71
     5
 72
     1
  1
49.3～50
  7
OKANO
 11
0.9999549314673719
 21
-0.0094939472340701
 31
0.0
 73
     1
 44
1.0
  0
INSERT
  5
3766
330
3520
100
AcDbEntity
  8
寸法線
 62
     0
370
    -2
100
AcDbBlockReference
  2
_Closed
 10
96.85040308607522
 20
50.25616753023474
 30
0.0
 41
3.0
 42
3.0
 43
3.0
 50
359.4560287205475
  0
POINT
  5
3767
330
3520
100
AcDbEntity
  8
Defpoints
 62
     0
100
AcDbPoint
 10
96.85040308607522
 20
50.25616753023474
 30
0.0
  0
POINT
  5
3768
330
3520
100
AcDbEntity
  8
Defpoints
 62
     0
100
AcDbPoint
 10
47.55262496473377
 20
50.7242191288744
 30
0.0
  0
ENDBLK
  5
3527
330
3520
100
AcDbEntity
  8
0
100
AcDbBlockEnd
  0
BLOCK
  5
3534
330
3528
100
AcDbEntity
  8
0
100
AcDbBlockBegin
  2
*D13
 70
     1
 10
0.0
 20
0.0
 30
0.0
  3
*D13
  1

  0
LINE
  5
377F
330
3528
100
AcDbEntity
  8
寸法線
 62
     0
370
    -2
100
AcDbLine
 10
42.87305252471793
 20
52.99019332955459
 30
0.0
 11
58.61846306424826
 21
52.99019332955458
 31
0.0
  0
LINE
  5
3780
330
3528
100
AcDbEntity
  8
寸法線
 62
     0
370
    -2
100
AcDbLine
 10
42.87305252471793
 20
47.99019332955459
 30
0.0
 11
58.61846306424825
 21
47.99019332955458
 31
0.0
  0
LINE
  5
3781
330
3528
100
AcDbEntity
  8
寸法線
 62
     0
370
    -2
100
AcDbLine
 10
55.61846306424826
 20
55.99019332955458
 30
0.0
 11
55.61846306424826
 21
58.99019332955457
 31
0.0
  0
LINE
  5
3782
330
3528
100
AcDbEntity
  8
寸法線
 62
     0
370
    -2
100
AcDbLine
 10
55.61846306424826
 20
44.99019332955458
 30
0.0
 11
55.61846306424826
 21
41.99019332955457
 31
0.0
  0
LINE
  5
3783
330
3528
100
AcDbEntity
  8
寸法線
 62
     0
370
    -2
100
AcDbLine
 10
55.61846306424826
 20
52.99019332955458
 30
0.0
 11
55.61846306424826
 21
47.99019332955458
 31
0.0
  0
INSERT
  5
3784
330
3528
100
AcDbEntity
  8
寸法線
 62
     0
370
    -2
100
AcDbBlockReference
  2
_Closed
 10
55.61846306424826
 20
52.99019332955458
 30
0.0
 41
3.0
 42
3.0
 43
3.0
 50
270.0
  0
INSERT
  5
3785
330
3528
100
AcDbEntity
  8
寸法線
 62
     0
370
    -2
100
AcDbBlockReference
  2
_Closed
 10
55.61846306424826
 20
47.99019332955458
 30
0.0
 41
3.0
 42
3.0
 43
3.0
 50
90.0
  0
MTEXT
  5
3786
330
3528
100
AcDbEntity
  8
寸法線
 62
     0
100
AcDbMText
 10
52.11846306424824
 20
50.4901933295546
 30
0.0
 40
5.0
 41
0.0
 71
     5
 72
     1
  1
5
  7
OKANO
 11
0.0000000000000001
 21
1.0
 31
0.0
 73
     1
 44
1.0
  0
POINT
  5
3787
330
3528
100
AcDbEntity
  8
Defpoints
 62
     0
100
AcDbPoint
 10
40.87305252471793
 20
52.99019332955459
 30
0.0
  0
POINT
  5
3788
330
3528
100
AcDbEntity
  8
Defpoints
 62
     0
100
AcDbPoint
 10
40.87305252471793
 20
47.99019332955459
 30
0.0
  0
POINT
  5
3789
330
3528
100
AcDbEntity
  8
Defpoints
 62
     0
100
AcDbPoint
 10
55.61846306424826
 20
47.99019332955458
 30
0.0
  0
ENDBLK
  5
3535
330
3528
100
AcDbEntity
  8
0
100
AcDbBlockEnd
  0
BLOCK
  5
3542
330
3536
100
AcDbEntity
  8
0
100
AcDbBlockBegin
  2
*D14
 70
     1
 10
0.0
 20
0.0
 30
0.0
  3
*D14
  1

  0
LINE
  5
3769
330
3536
100
AcDbEntity
  8
寸法線
 62
     0
370
    -2
100
AcDbLine
 10
74.08299003925271
 20
21.32124002356658
 30
0.0
 11
102.7282501235687
 21
21.32124002356658
 31
0.0
  0
LINE
  5
376A
330
3536
100
AcDbEntity
  8
寸法線
 62
     0
370
    -2
100
AcDbLine
 10
74.08299003925271
 20
16.07627475042636
 30
0.0
 11
102.7282501235687
 21
16.07627475042635
 31
0.0
  0
LINE
  5
376B
330
3536
100
AcDbEntity
  8
寸法線
 62
     0
370
    -2
100
AcDbLine
 10
99.72825012356878
 20
24.32124002356658
 30
0.0
 11
99.72825012356878
 21
27.32124002356658
 31
0.0
  0
LINE
  5
376C
330
3536
100
AcDbEntity
  8
寸法線
 62
     0
370
    -2
100
AcDbLine
 10
99.72825012356878
 20
13.07627475042636
 30
0.0
 11
99.72825012356878
 21
10.07627475042636
 31
0.0
  0
LINE
  5
376D
330
3536
100
AcDbEntity
  8
寸法線
 62
     0
370
    -2
100
AcDbLine
 10
99.72825012356878
 20
21.32124002356658
 30
0.0
 11
99.72825012356878
 21
16.07627475042636
 31
0.0
  0
INSERT
  5
376E
330
3536
100
AcDbEntity
  8
寸法線
 62
     0
370
    -2
100
AcDbBlockReference
  2
_Closed
 10
99.72825012356878
 20
21.32124002356658
 30
0.0
 41
3.0
 42
3.0
 43
3.0
 50
270.0
  0
INSERT
  5
376F
330
3536
100
AcDbEntity
  8
寸法線
 62
     0
370
    -2
100
AcDbBlockReference
  2
_Closed
 10
99.72825012356878
 20
16.07627475042636
 30
0.0
 41
3.0
 42
3.0
 43
3.0
 50
90.0
  0
MTEXT
  5
3770
330
3536
100
AcDbEntity
  8
寸法線
 62
     0
100
AcDbMText
 10
96.22825012356878
 20
18.69875738699648
 30
0.0
 40
5.0
 41
0.0
 71
     5
 72
     1
  1
5
  7
OKANO
 11
0.0000000000000001
 21
1.0
 31
0.0
 73
     1
 44
1.0
  0
POINT
  5
3771
330
3536
100
AcDbEntity
  8
Defpoints
 62
     0
100
AcDbPoint
 10
72.08299003925271
 20
21.32124002356658
 30
0.0
  0
POINT
  5
3772
330
3536
100
AcDbEntity
  8
Defpoints
 62
     0
100
AcDbPoint
 10
72.08299003925271
 20
16.07627475042636
 30
0.0
  0
POINT
  5
3773
330
3536
100
AcDbEntity
  8
Defpoints
 62
     0
100
AcDbPoint
 10
99.72825012356878
 20
16.07627475042636
 30
0.0
  0
ENDBLK
  5
3543
330
3536
100
AcDbEntity
  8
0
100
AcDbBlockEnd
  0
BLOCK
  5
354A
330
3544
100
AcDbEntity
  8
0
100
AcDbBlockBegin
  2
*D15
 70
     1
 10
0.0
 20
0.0
 30
0.0
  3
*D15
  1

  0
LINE
  5
377A
330
3544
100
AcDbEntity
  8
寸法線
 62
     0
370
    -2
100
AcDbLine
 10
24.25710554272639
 20
27.07282610620221
 30
0.0
 11
40.0180943811218
 21
44.99019332955454
 31
0.0
  0
MTEXT
  5
377B
330
3544
100
AcDbEntity
  8
寸法線
 62
     0
100
AcDbMText
 10
24.66926082269555
 20
32.8405539634857
 30
0.0
 40
5.0
 41
0.0
 71
     5
 72
     1
  1
R3
  7
OKANO
 11
0.6604792292186579
 21
0.7508443166001375
 31
0.0
 73
     1
 44
1.0
  0
INSERT
  5
377C
330
3544
100
AcDbEntity
  8
寸法線
 62
     0
370
    -2
100
AcDbBlockReference
  2
_Closed
 10
41.99953206877778
 20
47.24272627935496
 30
0.0
 41
3.0
 42
3.0
 43
3.0
 50
48.66356821825669
  0
POINT
  5
377D
330
3544
100
AcDbEntity
  8
Defpoints
 62
     0
100
AcDbPoint
 10
41.99953206877778
 20
47.24272627935496
 30
0.0
  0
POINT
  5
377E
330
3544
100
AcDbEntity
  8
Defpoints
 62
     0
100
AcDbPoint
 10
40.01809438112183
 20
44.99019332955458
 30
0.0
  0
ENDBLK
  5
354B
330
3544
100
AcDbEntity
  8
0
100
AcDbBlockEnd
  0
BLOCK
  5
3553
330
354C
100
AcDbEntity
  8
0
100
AcDbBlockBegin
  2
*D16
 70
     1
 10
0.0
 20
0.0
 30
0.0
  3
*D16
  1

  0
LINE
  5
3774
330
354C
100
AcDbEntity
  8
寸法線
 62
     0
370
    -2
100
AcDbLine
 10
-22.72337470093148
 20
38.7876266406285
 30
0.0
 11
-14.41443579851328
 21
46.30632640997714
 31
0.0
  0
MTEXT
  5
3775
330
354C
100
AcDbEntity
  8
寸法線
 62
     0
100
AcDbMText
 10
-22.02951998832181
 20
44.13573252638934
 30
0.0
 40
5.0
 41
0.0
 71
     5
 72
     1
  1
R1
  7
OKANO
 11
0.741487455979445
 21
0.6709667298943597
 31
0.0
 73
     1
 44
1.0
  0
LINE
  5
3776
330
354C
100
AcDbEntity
  8
寸法線
 62
     0
370
    -2
100
AcDbLine
 10
-11.4484859745955
 20
48.99019332955458
 30
0.0
 11
-12.18997343057495
 21
48.31922659966022
 31
0.0
  0
INSERT
  5
3777
330
354C
100
AcDbEntity
  8
寸法線
 62
     0
370
    -2
100
AcDbBlockReference
  2
_Closed
 10
-12.18997343057495
 20
48.31922659966022
 30
0.0
 41
3.0
 42
3.0
 43
3.0
 50
42.14172139044168
  0
POINT
  5
3778
330
354C
100
AcDbEntity
  8
Defpoints
 62
     0
100
AcDbPoint
 10
-12.18997343057495
 20
48.31922659966022
 30
0.0
  0
POINT
  5
3779
330
354C
100
AcDbEntity
  8
Defpoints
 62
     0
100
AcDbPoint
 10
-11.4484859745955
 20
48.99019332955458
 30
0.0
  0
ENDBLK
  5
3554
330
354C
100
AcDbEntity
  8
0
100
AcDbBlockEnd
  0
BLOCK
  5
361B
330
3611
100
AcDbEntity
  8
0
100
AcDbBlockBegin
  2
*D17
 70
     1
 10
0.0
 20
0.0
 30
0.0
  3
*D17
  1

  0
LINE
  5
3668
330
3611
100
AcDbEntity
  8
寸法線
 62
     0
370
    -2
100
AcDbLine
 10
-12.43461494299208
 20
183.2805837673586
 30
0.0
 11
-12.43461494299208
 21
227.000649176835
 31
0.0
  0
LINE
  5
3669
330
3611
100
AcDbEntity
  8
寸法線
 62
     0
370
    -2
100
AcDbLine
 10
42.45890126749872
 20
183.2805837673586
 30
0.0
 11
42.45890126749872
 21
227.000649176835
 31
0.0
  0
LINE
  5
366A
330
3611
100
AcDbEntity
  8
寸法線
 62
     0
370
    -2
100
AcDbLine
 10
-9.434614942992082
 20
224.000649176835
 30
0.0
 11
39.45890126749873
 21
224.000649176835
 31
0.0
  0
INSERT
  5
366B
330
3611
100
AcDbEntity
  8
寸法線
 62
     0
370
    -2
100
AcDbBlockReference
  2
_Closed
 10
-12.43461494299208
 20
224.000649176835
 30
0.0
 41
3.0
 42
3.0
 43
3.0
 50
180.0
  0
INSERT
  5
366C
330
3611
100
AcDbEntity
  8
寸法線
 62
     0
370
    -2
100
AcDbBlockReference
  2
_Closed
 10
42.45890126749872
 20
224.000649176835
 30
0.0
 41
3.0
 42
3.0
 43
3.0
  0
MTEXT
  5
366D
330
3611
100
AcDbEntity
  8
寸法線
 62
     0
100
AcDbMText
 10
15.01214316225332
 20
227.500649176835
 30
0.0
 40
5.0
 41
0.0
 71
     5
 72
     1
  1
55
  7
OKANO
 73
     1
 44
1.0
  0
POINT
  5
366E
330
3611
100
AcDbEntity
  8
Defpoints
 62
     0
100
AcDbPoint
 10
-12.43461494299208
 20
181.2805837673586
 30
0.0
  0
POINT
  5
366F
330
3611
100
AcDbEntity
  8
Defpoints
 62
     0
100
AcDbPoint
 10
42.45890126749872
 20
181.2805837673586
 30
0.0
  0
POINT
  5
3670
330
3611
100
AcDbEntity
  8
Defpoints
 62
     0
100
AcDbPoint
 10
42.45890126749872
 20
224.000649176835
 30
0.0
  0
ENDBLK
  5
361C
330
3611
100
AcDbEntity
  8
0
100
AcDbBlockEnd
  0
BLOCK
  5
3628
330
361E
100
AcDbEntity
  8
0
100
AcDbBlockBegin
  2
*D18
 70
     1
 10
0.0
 20
0.0
 30
0.0
  3
*D18
  1

  0
LINE
  5
3671
330
361E
100
AcDbEntity
  8
寸法線
 62
     0
370
    -2
100
AcDbLine
 10
42.45890126749872
 20
183.2805837673586
 30
0.0
 11
42.45890126749872
 21
227.000649176835
 31
0.0
  0
LINE
  5
3672
330
361E
100
AcDbEntity
  8
寸法線
 62
     0
370
    -2
100
AcDbLine
 10
101.7304287824611
 20
211.8727539027738
 30
0.0
 11
101.7304287824611
 21
227.000649176835
 31
0.0
  0
LINE
  5
3673
330
361E
100
AcDbEntity
  8
寸法線
 62
     0
370
    -2
100
AcDbLine
 10
45.45890126749873
 20
224.000649176835
 30
0.0
 11
98.7304287824611
 21
224.000649176835
 31
0.0
  0
INSERT
  5
3674
330
361E
100
AcDbEntity
  8
寸法線
 62
     0
370
    -2
100
AcDbBlockReference
  2
_Closed
 10
42.45890126749872
 20
224.000649176835
 30
0.0
 41
3.0
 42
3.0
 43
3.0
 50
180.0
  0
INSERT
  5
3675
330
361E
100
AcDbEntity
  8
寸法線
 62
     0
370
    -2
100
AcDbBlockReference
  2
_Closed
 10
101.7304287824611
 20
224.000649176835
 30
0.0
 41
3.0
 42
3.0
 43
3.0
  0
MTEXT
  5
3676
330
361E
100
AcDbEntity
  8
寸法線
 62
     0
100
AcDbMText
 10
72.09466502497992
 20
227.500649176835
 30
0.0
 40
5.0
 41
0.0
 71
     5
 72
     1
  1
60
  7
OKANO
 73
     1
 44
1.0
  0
POINT
  5
3677
330
361E
100
AcDbEntity
  8
Defpoints
 62
     0
100
AcDbPoint
 10
42.45890126749872
 20
181.2805837673586
 30
0.0
  0
POINT
  5
3678
330
361E
100
AcDbEntity
  8
Defpoints
 62
     0
100
AcDbPoint
 10
101.7304287824611
 20
209.8727539027738
 30
0.0
  0
POINT
  5
3679
330
361E
100
AcDbEntity
  8
Defpoints
 62
     0
100
AcDbPoint
 10
101.7304287824611
 20
224.000649176835
 30
0.0
  0
ENDBLK
  5
3629
330
361E
100
AcDbEntity
  8
0
100
AcDbBlockEnd
  0
ENDSEC
  0
SECTION
  2
ENTITIES
  0
XLINE
  5
22CA
330
1F
100
AcDbEntity
  8
構築線
370
     5
100
AcDbXline
 10
72.20151402540432
 20
178.0193172078315
 30
0.0
 11
0.0
 21
-1.0
 31
0.0
  0
TEXT
  5
29C2
330
1F
100
AcDbEntity
  8
文字
100
AcDbText
 10
243.3623808613172
 20
-2.491683326584464
 30
0.0
 40
4.799999999999999
  1
joint kogyo T.okano
 51
15.0
  7
OKANO
100
AcDbText
  0
TEXT
  5
29C3
330
1F
100
AcDbEntity
  8
文字
100
AcDbText
 10
235.8740678495203
 20
12.26068818070332
 30
0.0
 40
4.799999999999999
  1
F-999-20120223 Auto CAD
 51
15.0
  7
OKANO
100
AcDbText
  0
LINE
  5
29C4
330
1F
100
AcDbEntity
  8
太線
100
AcDbLine
 10
208.4518396679064
 20
11.33988053027296
 30
0.0
 11
316.4518396679064
 21
11.33988053027296
 31
0.0
  0
LWPOLYLINE
  5
29C5
330
1F
100
AcDbEntity
  8
太線
100
AcDbPolyline
 90
        4
 70
     1
 43
0.0
 10
208.4518396679064
 20
19.73988053027296
 10
316.4518396679064
 20
19.73988053027296
 10
316.4518396679064
 20
-5.460119469727032
 10
208.4518396679064
 20
-5.460119469727032
  0
TEXT
  5
29C6
330
1F
100
AcDbEntity
  8
文字
100
AcDbText
 10
212.324223233964
 20
3.146368731422285
 30
0.0
 40
2.399999999999999
  1
CHECK
 51
15.0
  7
OKANO
100
AcDbText
  0
LINE
  5
29C7
330
1F
100
AcDbEntity
  8
太線
100
AcDbLine
 10
232.4518396679065
 20
19.73988053027296
 30
0.0
 11
232.4518396679065
 21
-5.460119469727032
 31
0.0
  0
TEXT
  5
29C8
330
1F
100
AcDbEntity
  8
文字
100
AcDbText
 10
212.324223233964
 20
-3.773058874793537
 30
0.0
 40
2.399999999999999
  1
ISSUED
 51
15.0
  7
OKANO
100
AcDbText
  0
TEXT
  5
29C9
330
1F
100
AcDbEntity
  8
文字
100
AcDbText
 10
212.5807376668646
 20
-0.4414826855254006
 30
0.0
 40
2.399999999999999
  1
APPR
 51
15.0
  7
OKANO
100
AcDbText
  0
TEXT
  5
29CA
330
1F
100
AcDbEntity
  8
文字
100
AcDbText
 10
210.5286276822782
 20
13.14109670903812
 30
0.0
 40
2.399999999999999
  1
FILM NAME
 51
15.0
  7
OKANO
100
AcDbText
  0
TEXT
  5
29CB
330
1F
100
AcDbEntity
  8
文字
100
AcDbText
 10
211.8111965596103
 20
6.734219558181322
 30
0.0
 40
2.399999999999999
  1
DRAWN
 51
15.0
  7
OKANO
100
AcDbText
  0
TEXT
  5
29CC
330
1F
100
AcDbEntity
  8
文字
100
AcDbText
 10
238.0278348659282
 20
3.518540835754947
 30
0.0
 40
4.799999999999999
  1
S-7-1S
 51
15.0
  7
OKANO
100
AcDbText
  0
XLINE
  5
2DB6
330
1F
100
AcDbEntity
  8
構築線
100
AcDbXline
 10
72.20151402540432
 20
180.4711488256961
 30
0.0
 11
1.0
 21
0.0
 31
0.0
  0
XLINE
  5
2DB7
330
1F
100
AcDbEntity
  8
構築線
370
     5
100
AcDbXline
 10
4921.501514025404
 20
178.0193172078315
 30
0.0
 11
0.0
 21
-1.0
 31
0.0
  0
XLINE
  5
2DB8
330
1F
100
AcDbEntity
  8
構築線
370
     5
100
AcDbXline
 10
-4777.098485974596
 20
178.0193172078315
 30
0.0
 11
0.0
 21
-1.0
 31
0.0
  0
LINE
  5
2DFC
330
1F
100
AcDbEntity
  8
破線
100
AcDbLine
 10
101.8515140254043
 20
205.1211488256961
 30
0.0
 11
101.8515140254043
 21
203.1211488256961
 31
0.0
  0
LINE
  5
2E01
330
1F
100
AcDbEntity
  8
破線
100
AcDbLine
 10
101.8515140254043
 20
155.8211488256961
 30
0.0
 11
101.8515140254043
 21
157.8211488256961
 31
0.0
  0
LINE
  5
2E05
330
1F
100
AcDbEntity
  8
破線
100
AcDbLine
 10
101.8515140254043
 20
203.1211488256961
 30
0.0
 11
101.8515140254043
 21
157.8211488256961
 31
0.0
  0
LINE
  5
2E4D
330
1F
100
AcDbEntity
  8
太線
100
AcDbLine
 10
217.2344772961612
 20
180.4711488256961
 30
0.0
 11
217.2344772961612
 21
208.1211488256961
 31
0.0
  0
LINE
  5
2E4F
330
1F
100
AcDbEntity
  8
太線
100
AcDbLine
 10
276.5344772961611
 20
208.1211488256962
 30
0.0
 11
276.5344772961613
 21
180.4711488256961
 31
0.0
  0
LINE
  5
2E50
330
1F
100
AcDbEntity
  8
太線
100
AcDbLine
 10
217.2344772961612
 20
180.4711488256961
 30
0.0
 11
217.2344772961613
 21
152.8211488256961
 31
0.0
  0
LINE
  5
2E52
330
1F
100
AcDbEntity
  8
太線
100
AcDbLine
 10
276.5344772961613
 20
152.8211488256961
 30
0.0
 11
276.5344772961613
 21
180.4711488256961
 31
0.0
  0
LINE
  5
2E53
330
1F
100
AcDbEntity
  8
太線
100
AcDbLine
 10
219.2344772961612
 20
210.1211488256961
 30
0.0
 11
274.5344772961611
 21
210.1211488256962
 31
0.0
  0
LINE
  5
2E8F
330
1F
100
AcDbEntity
  8
細線
100
AcDbLine
 10
212.5709870648984
 20
185.2885016411992
 30
0.0
 11
222.6631863254758
 21
185.0484366376423
 31
0.0
  0
LINE
  5
2E90
330
1F
100
AcDbEntity
  8
細線
100
AcDbLine
 10
212.7257239814743
 20
186.2851037607091
 30
0.0
 11
222.8726311267555
 21
186.0437374106174
 31
0.0
  0
LINE
  5
2E91
330
1F
100
AcDbEntity
  8
細線
100
AcDbLine
 10
212.3807434058803
 20
177.2907640017037
 30
0.0
 11
222.4729426664576
 21
177.0506989981468
 31
0.0
  0
LINE
  5
2E92
330
1F
100
AcDbEntity
  8
細線
100
AcDbLine
 10
212.4879194077016
 20
176.2879317113397
 30
0.0
 11
222.6348265529829
 21
176.046565361248
 31
0.0
  0
ARC
  5
2E93
330
1F
100
AcDbEntity
  8
太線
100
AcDbCircle
 10
246.8844772961612
 20
180.4711488256961
 30
0.0
 40
34.65
100
AcDbArc
 50
166.1367294756544
 51
191.137973934145
  0
LINE
  5
2E94
330
1F
100
AcDbEntity
  8
太線
100
AcDbLine
 10
217.2344772961613
 20
171.817431855244
 30
0.0
 11
212.8871152208056
 21
173.7777287793246
 31
0.0
  0
LINE
  5
2E95
330
1F
100
AcDbEntity
  8
太線
100
AcDbLine
 10
217.2344772961613
 20
190.3491578792416
 30
0.0
 11
213.2438220814646
 21
188.7734868533787
 31
0.0
  0
LINE
  5
2EA0
330
1F
100
AcDbEntity
  8
破線
100
AcDbLine
 10
222.2344772961613
 20
180.4711488256961
 30
0.0
 11
222.2344772961613
 21
152.8211488256961
 31
0.0
  0
LINE
  5
2EA2
330
1F
100
AcDbEntity
  8
破線
100
AcDbLine
 10
271.5344772961612
 20
152.8211488256961
 30
0.0
 11
271.5344772961612
 21
180.4711488256961
 31
0.0
  0
XLINE
  5
2EA8
330
1F
100
AcDbEntity
  8
構築線
100
AcDbXline
 10
32.65221632861516
 20
50.49019332955459
 30
0.0
 11
1.0
 21
0.0
 31
0.0
  0
ARC
  5
2F18
330
1F
100
AcDbEntity
  8
太線
100
AcDbCircle
 10
219.2344772961612
 20
208.1211488256961
 30
0.0
 40
2.0
100
AcDbArc
 50
90.0
 51
180.0
  0
ARC
  5
2F19
330
1F
100
AcDbEntity
  8
太線
100
AcDbCircle
 10
274.5344772961611
 20
208.1211488256962
 30
0.0
 40
2.0
100
AcDbArc
 50
0.0000000000001018
 51
90.0
  0
CIRCLE
  5
309E
330
1F
100
AcDbEntity
  8
太線
100
AcDbCircle
 10
72.20151402540432
 20
180.4711488256961
 30
0.0
 40
3.999999999999994
  0
CIRCLE
  5
309F
330
1F
100
AcDbEntity
  8
太線
100
AcDbCircle
 10
72.20151402540432
 20
180.4711488256961
 30
0.0
 40
4.999999999999998
  0
CIRCLE
  5
30A0
330
1F
100
AcDbEntity
  8
太線
100
AcDbCircle
 10
72.20151402540432
 20
180.4711488256961
 30
0.0
 40
10.0
  0
CIRCLE
  5
30A1
330
1F
100
AcDbEntity
  8
太線
100
AcDbCircle
 10
72.20151402540432
 20
180.4711488256961
 30
0.0
 40
7.513741701180227
  0
LINE
  5
30A9
330
1F
100
AcDbEntity
  8
構築線
100
AcDbLine
 10
217.2344772961612
 20
150.8211488256961
 30
0.0
 11
276.5344772961613
 21
150.8211488256961
 31
0.0
  0
LINE
  5
30AA
330
1F
100
AcDbEntity
  8
文字
100
AcDbLine
 10
219.2344772961613
 20
150.8211488256961
 30
0.0
 11
274.5344772961613
 21
150.8211488256961
 31
0.0
  0
LINE
  5
30AB
330
1F
100
AcDbEntity
  8
文字
100
AcDbLine
 10
219.2344772961612
 20
210.1211488256961
 30
0.0
 11
274.5344772961611
 21
210.1211488256961
 31
0.0
  0
LINE
  5
30AC
330
1F
100
AcDbEntity
  8
破線
100
AcDbLine
 10
271.5344772961612
 20
210.1211488256961
 30
0.0
 11
271.5344772961612
 21
180.4711488256961
 31
0.0
  0
LINE
  5
30AD
330
1F
100
AcDbEntity
  8
破線
100
AcDbLine
 10
222.2344772961613
 20
210.1211488256961
 30
0.0
 11
222.2344772961613
 21
180.4711488256961
 31
0.0
  0
LINE
  5
30AE
330
1F
100
AcDbEntity
  8
破線
100
AcDbLine
 10
222.2344772961613
 20
152.8211488256961
 30
0.0
 11
222.2344772961612
 21
150.8211488256961
 31
0.0
  0
LINE
  5
30AF
330
1F
100
AcDbEntity
  8
破線
100
AcDbLine
 10
271.5344772961612
 20
152.8211488256961
 30
0.0
 11
271.5344772961612
 21
150.8211488256961
 31
0.0
  0
ARC
  5
30B0
330
1F
100
AcDbEntity
  8
太線
100
AcDbCircle
 10
219.2344772961613
 20
152.8211488256961
 30
0.0
 40
2.0
100
AcDbArc
 50
180.0
 51
270.0
  0
ARC
  5
30B1
330
1F
100
AcDbEntity
  8
太線
100
AcDbCircle
 10
274.5344772961613
 20
152.8211488256961
 30
0.0
 40
2.0
100
AcDbArc
 50
270.0
 51
0.0
  0
LINE
  5
30B2
330
1F
100
AcDbEntity
  8
破線
100
AcDbLine
 10
96.85151402540434
 20
210.1211488256961
 30
0.0
 11
96.85151402540434
 21
150.8211488256961
 31
0.0
  0
LINE
  5
30B3
330
1F
100
AcDbEntity
  8
破線
100
AcDbLine
 10
47.55151402540432
 20
210.1211488256961
 30
0.0
 11
47.55151402540432
 21
150.8211488256961
 31
0.0
  0
DIMENSION
  5
3236
330
1F
100
AcDbEntity
  8
寸法線
100
AcDbDimension
  2
*D2
 10
276.7111045696552
 20
220.0462572246038
 30
0.0
 11
246.9162556977277
 21
223.5462572246039
 31
0.0
 70
    32
  1
60
 71
     5
 42
59.58969774385517
  3
sunpo
100
AcDbAlignedDimension
 13
217.1214068258001
 23
207.2037013284614
 33
0.0
 14
276.7111045696552
 24
207.2037013284614
 34
0.0
100
AcDbRotatedDimension
1001
ACAD
1000
DSTYLE
1002
{
1070
    40
1040
1.0
1002
}
  0
ARC
  5
32DC
330
1F
100
AcDbEntity
  8
太線
100
AcDbCircle
 10
17.20355569207098
 20
180.4711488256961
 30
0.0
 40
29.6520416666667
100
AcDbArc
 50
90.67236522039566
 51
270.6723652203957
  0
LINE
  5
32DE
330
1F
100
AcDbEntity
  8
太線
100
AcDbLine
 10
42.55151402540432
 20
210.1211488256961
 30
0.0
 11
42.55151402540432
 21
150.8211488256961
 31
0.0
  0
LINE
  5
32DF
330
1F
100
AcDbEntity
  8
太線
100
AcDbLine
 10
42.55151402540432
 20
150.8211488256961
 30
0.0
 11
17.55151402540432
 21
150.8211488256961
 31
0.0
  0
LINE
  5
32E1
330
1F
100
AcDbEntity
  8
太線
100
AcDbLine
 10
101.8515140254043
 20
150.8211488256961
 30
0.0
 11
101.8515140254043
 21
210.1211488256961
 31
0.0
  0
LINE
  5
32E2
330
1F
100
AcDbEntity
  8
太線
100
AcDbLine
 10
16.85559735873771
 20
210.1211488256962
 30
0.0
 11
101.8515140254043
 21
210.1211488256961
 31
0.0
  0
LINE
  5
32E3
330
1F
100
AcDbEntity
  8
太線
100
AcDbLine
 10
42.55151402540432
 20
150.8211488256961
 30
0.0
 11
101.8515140254043
 21
150.8211488256961
 31
0.0
  0
ARC
  5
32E4
330
1F
100
AcDbEntity
  8
太線
100
AcDbCircle
 10
3.551514025404306
 20
180.4711488256961
 30
0.0
 40
5.999999999999971
100
AcDbArc
 50
89.99999999999984
 51
270.0000000000001
  0
ARC
  5
32E5
330
1F
100
AcDbEntity
  8
太線
100
AcDbCircle
 10
21.55151402540432
 20
180.4711488256961
 30
0.0
 40
6.000000000000056
100
AcDbArc
 50
270.0
 51
90.0
  0
LINE
  5
32E6
330
1F
100
AcDbEntity
  8
太線
100
AcDbLine
 10
21.55151402540432
 20
186.4711488256961
 30
0.0
 11
3.551514025404323
 21
186.4711488256961
 31
0.0
  0
LINE
  5
32E7
330
1F
100
AcDbEntity
  8
太線
100
AcDbLine
 10
3.551514025404323
 20
174.4711488256961
 30
0.0
 11
21.55151402540432
 21
174.471148825696
 31
0.0
  0
LINE
  5
32EA
330
1F
100
AcDbEntity
  8
想像線
100
AcDbLine
 10
249.3844772961613
 20
210.1211488256961
 30
0.0
 11
249.3844772961613
 21
150.8211488256961
 31
0.0
  0
LINE
  5
32EB
330
1F
100
AcDbEntity
  8
想像線
100
AcDbLine
 10
244.3844772961612
 20
210.1211488256961
 30
0.0
 11
244.3844772961612
 21
150.8211488256961
 31
0.0
  0
LINE
  5
32EC
330
1F
100
AcDbEntity
  8
想像線
100
AcDbLine
 10
249.3844772961613
 20
186.4711488256961
 30
0.0
 11
244.3844772961612
 21
186.4711488256961
 31
0.0
  0
LINE
  5
32ED
330
1F
100
AcDbEntity
  8
想像線
100
AcDbLine
 10
249.3844772961613
 20
174.4711488256961
 30
0.0
 11
244.3844772961612
 21
174.4711488256961
 31
0.0
  0
DIMENSION
  5
3319
330
1F
100
AcDbEntity
  8
寸法線
100
AcDbDimension
  2
*D3
 10
79.73585347775861
 20
196.2120456900526
 30
0.0
 11
72.27494509096164
 21
199.7125378160368
 31
0.0
 70
    32
  1
20
 71
     5
 42
14.92181677359394
  3
sunpo
100
AcDbAlignedDimension
 13
64.81403670416466
 23
181.105798027382
 33
0.0
 14
79.73585347775861
 24
180.5172428108736
 34
0.0
100
AcDbRotatedDimension
1001
ACAD
1000
DSTYLE
1002
{
1070
    40
1040
1.0
1002
}
  0
DIMENSION
  5
3330
330
1F
100
AcDbEntity
  8
寸法線
100
AcDbDimension
  2
*D4
 10
82.6809483387276
 20
203.8632617680347
 30
0.0
 11
72.4712847103683
 21
207.3637538940189
 31
0.0
 70
    32
  1
24
 71
     5
 42
20.41932725671859
  3
sunpo
100
AcDbAlignedDimension
 13
62.26162108200901
 23
181.105798027382
 33
0.0
 14
82.6809483387276
 24
180.7134278830431
 34
0.0
100
AcDbRotatedDimension
1001
ACAD
1000
DSTYLE
1002
{
1070
    40
1040
1.0
1002
}
  0
DIMENSION
  5
3353
330
1F
100
AcDbEntity
  8
寸法線
100
AcDbDimension
  2
*D5
 10
92.49303938094659
 20
210.1211488256961
 30
0.0
 11
88.99303938094655
 21
195.2961488256962
 31
0.0
 70
    32
  1
30
 71
     5
 42
29.65
  3
sunpo
100
AcDbAlignedDimension
 13
72.20151402540432
 23
180.4711488256961
 33
0.0
 14
101.8515140254043
 24
210.1211488256961
 34
0.0
 50
90.0
100
AcDbRotatedDimension
1001
ACAD
1000
DSTYLE
1002
{
1070
    40
1040
1.0
1002
}
  0
DIMENSION
  5
3385
330
1F
100
AcDbEntity
  8
寸法線
100
AcDbDimension
  2
*D6
 10
297.0172473692956
 20
150.8211488256961
 30
0.0
 11
293.5172473692956
 21
180.4711488256961
 31
0.0
 70
    32
  1
60
 71
     5
 42
59.30000000000006
  3
sunpo
100
AcDbAlignedDimension
 13
271.5344772961612
 23
210.1211488256962
 33
0.0
 14
271.5344772961612
 24
150.8211488256961
 34
0.0
 50
90.0
100
AcDbRotatedDimension
1001
ACAD
1000
DSTYLE
1002
{
1070
    40
1040
1.0
1002
}
  0
DIMENSION
  5
33D3
330
1F
100
AcDbEntity
  8
寸法線
100
AcDbDimension
  2
*D7
 10
-12.89865092847936
 20
122.2016328613581
 30
0.0
 11
-7.5977370754232
 21
125.7016328613581
 31
0.0
 70
    32
  1
10
 71
     5
 42
10.60182770611231
  3
sunpo
100
AcDbAlignedDimension
 13
-2.296823222367038
 23
179.8036643073074
 33
0.0
 14
-12.89865092847935
 24
180.4657564364732
 34
0.0
100
AcDbRotatedDimension
1001
ACAD
1000
DSTYLE
1002
{
1070
    40
1040
1.0
1002
}
  0
DIMENSION
  5
33EF
330
1F
100
AcDbEntity
  8
寸法線
100
AcDbDimension
  2
*D8
 10
-38.09347334612426
 20
174.616522362319
 30
0.0
 11
-41.59396547210853
 21
180.7232968476938
 31
0.0
 70
    32
  1
12
 71
     5
 42
12.21354897074957
  3
sunpo
100
AcDbAlignedDimension
 13
3.541723882739916
 23
186.8300713330686
 33
0.0
 14
3.159749052508914
 24
174.616522362319
 34
0.0
 50
90.0
100
AcDbRotatedDimension
1001
ACAD
1000
DSTYLE
1002
{
1070
    40
1040
1.0
1002
}
  0
DIMENSION
  5
33FD
330
1F
100
AcDbEntity
  8
寸法線
100
AcDbDimension
  2
*D9
 10
27.15489129049274
 20
192.9788319720991
 30
0.0
 11
12.11313544824884
 21
196.4788319720991
 31
0.0
 70
    32
  1
30
 71
     5
 42
30.0835116844878
  3
sunpo
100
AcDbAlignedDimension
 13
-2.928620393995061
 23
180.871406571313
 33
0.0
 14
27.15489129049274
 24
180.4539091636609
 34
0.0
100
AcDbRotatedDimension
1001
ACAD
1000
DSTYLE
1002
{
1070
    40
1040
1.0
1002
}
  0
DIMENSION
  5
343A
330
1F
100
AcDbEntity
  8
寸法線
100
AcDbDimension
  2
*D10
 10
17.203555692071
 20
180.4711488256961
 30
0.0
 11
-36.3959219142221
 21
150.9696616343876
 31
0.0
 70
   164
  1
30
 71
     5
 42
29.65204166666669
  3
sunpo
100
AcDbRadialDimension
 15
-8.773577484939245
 25
166.1731725036563
 35
0.0
 40
0.0
1001
ACAD
1000
DSTYLE
1002
{
1070
    40
1040
1.0
1070
   288
1070
     1
1002
}
  0
LEADER
  5
3451
330
1F
100
AcDbEntity
  8
寸法線
100
AcDbLeader
  3
sunpo
 76
     2
 10
174.050454793653
 20
99.97251037497262
 30
0.0
 10
193.4009264517599
 20
107.5531989291629
 30
0.0
1001
ACAD
1000
DSTYLE
1002
{
1070
   147
1040
1.0
1070
    77
1070
     0
1002
}
  0
TEXT
  5
3452
330
1F
100
AcDbEntity
  8
文字
100
AcDbText
 10
175.6648623733147
 20
109.8274054954201
 30
0.0
 40
4.799999999999999
  1
8mm六角レンチ仕様
 51
15.0
  7
OKANO
100
AcDbText
  0
DIMENSION
  5
3453
330
1F
100
AcDbEntity
  8
寸法線
100
AcDbDimension
  2
*D11
 10
187.3412175844443
 20
78.87087458497139
 30
0.0
 11
183.9444561680662
 21
83.94157590532197
 31
0.0
 70
    33
  1
13
 71
     5
 42
9.999999999999943
  3
sunpo
100
AcDbAlignedDimension
 13
177.8978399500013
 23
89.06661227151426
 33
0.0
 14
177.6928338991726
 24
79.06871386639318
 34
0.0
1001
ACAD
1000
DSTYLE
1002
{
1070
    40
1040
1.0
1002
}
  0
LINE
  5
3454
330
1F
100
AcDbEntity
  8
破線
100
AcDbLine
 10
177.8978399500013
 20
89.06661227151426
 30
0.0
 11
177.7133345042555
 21
80.06850370690528
 31
0.0
  0
LINE
  5
3455
330
1F
100
AcDbEntity
  8
太線
100
AcDbLine
 10
178.7131243447676
 20
80.04800310182236
 30
0.0
 11
178.8976297905134
 21
89.04611166643144
 31
0.0
  0
LINE
  5
3456
330
1F
100
AcDbEntity
  8
太線
100
AcDbLine
 10
168.8997313853923
 20
89.25111771726012
 30
0.0
 11
168.7152259396465
 21
80.25300915265097
 31
0.0
  0
LINE
  5
3457
330
1F
100
AcDbEntity
  8
破線
100
AcDbLine
 10
169.8995212259044
 20
89.23061711217718
 30
0.0
 11
169.7150157801586
 21
80.23250854756822
 31
0.0
  0
LINE
  5
3458
330
1F
100
AcDbEntity
  8
破線
100
AcDbLine
 10
170.7148056206707
 20
80.21200794248533
 30
0.0
 11
170.8993110664166
 21
89.21011650709431
 31
0.0
  0
LINE
  5
3459
330
1F
100
AcDbEntity
  8
破線
100
AcDbLine
 10
176.7135446637434
 20
80.0890043119881
 30
0.0
 11
176.8980501094892
 21
89.08711287659713
 31
0.0
  0
LINE
  5
345A
330
1F
100
AcDbEntity
  8
破線
100
AcDbLine
 10
168.7152259396465
 20
80.25300915265097
 30
0.0
 11
178.7131243447676
 21
80.04800310182236
 31
0.0
  0
LINE
  5
345C
330
1F
100
AcDbEntity
  8
破線
100
AcDbLine
 10
169.6945151750757
 20
79.23271870705605
 30
0.0
 11
170.7148056206707
 21
80.21200794248533
 31
0.0
  0
LINE
  5
345D
330
1F
100
AcDbEntity
  8
太線
100
AcDbLine
 10
168.7152259396465
 20
80.25300915265097
 30
0.0
 11
169.6945151750757
 21
79.23271870705605
 31
0.0
  0
LINE
  5
345E
330
1F
100
AcDbEntity
  8
太線
100
AcDbLine
 10
177.6928338991726
 20
79.06871386639318
 30
0.0
 11
178.7131243447676
 21
80.04800310182236
 31
0.0
  0
LINE
  5
345F
330
1F
100
AcDbEntity
  8
破線
100
AcDbLine
 10
177.6928338991726
 20
79.06871386639318
 30
0.0
 11
176.7135446637434
 21
80.0890043119881
 31
0.0
  0
LINE
  5
3461
330
1F
100
AcDbEntity
  8
太線
100
AcDbLine
 10
178.8976297905134
 20
89.04611166643144
 30
0.0
 11
168.8997313853923
 21
89.25111771726012
 31
0.0
  0
LWPOLYLINE
  5
3462
330
1F
100
AcDbEntity
  8
太線
100
AcDbPolyline
 90
        6
 70
     1
 43
0.0
 10
177.1030561603178
 20
99.08501128171833
 10
175.6566335339338
 20
101.7132923903298
 10
172.6572640123975
 20
101.7747942055784
 10
171.1043171172452
 20
99.20801491221546
 10
172.5507397436292
 20
96.57973380360397
 10
175.5501092651655
 20
96.51823198835536
  0
CIRCLE
  5
3463
330
1F
100
AcDbEntity
  8
太線
100
AcDbCircle
 10
174.1036866387815
 20
99.14651309696683
 30
0.0
 40
3.999999999999994
  0
CIRCLE
  5
3464
330
1F
100
AcDbEntity
  8
太線
100
AcDbCircle
 10
174.1036866387815
 20
99.14651309696683
 30
0.0
 40
4.999999999999998
  0
XLINE
  5
3488
330
1F
100
AcDbEntity
  8
構築線
100
AcDbXline
 10
128.2415242377076
 20
92.95999247616203
 30
0.0
 11
1.0
 21
0.0
 31
0.0
  0
XLINE
  5
34FF
330
1F
100
AcDbEntity
  8
構築線
100
AcDbXline
 10
71.49890190262727
 20
-98.3201866155041
 30
0.0
 11
1.0
 21
0.0
 31
0.0
  0
ARC
  5
3500
330
1F
100
AcDbEntity
  8
太線
100
AcDbCircle
 10
40.01809438112181
 20
55.99019332955458
 30
0.0
 40
3.0
100
AcDbArc
 50
270.0
 51
350.3020976189441
  0
ARC
  5
3501
330
1F
100
AcDbEntity
  8
太線
100
AcDbCircle
 10
40.01809438112181
 20
44.99019332955458
 30
0.0
 40
3.0
100
AcDbArc
 50
9.697902381056037
 51
90.0
  0
DIMENSION
  5
3502
330
1F
100
AcDbEntity
  8
寸法線
100
AcDbDimension
  2
*D13
 10
55.61846306424826
 20
47.99019332955458
 30
0.0
 11
52.11846306424824
 21
50.4901933295546
 31
0.0
 70
    32
 71
     5
 42
5.0
  3
sunpo
100
AcDbAlignedDimension
 13
40.87305252471793
 23
52.99019332955459
 33
0.0
 14
40.87305252471793
 24
47.99019332955459
 34
0.0
 50
90.0
100
AcDbRotatedDimension
1001
ACAD
1000
DSTYLE
1002
{
1070
    40
1040
1.0
1002
}
  0
LINE
  5
3504
330
1F
100
AcDbEntity
  8
太線
100
AcDbLine
 10
-10.4484859745955
 20
52.99019332955459
 30
0.0
 11
40.01809438112181
 21
52.99019332955457
 31
0.0
  0
LINE
  5
3505
330
1F
100
AcDbEntity
  8
太線
100
AcDbLine
 10
40.01809438112181
 20
47.99019332955459
 30
0.0
 11
-11.44848597459549
 21
47.99019332955459
 31
0.0
  0
DIMENSION
  5
3506
330
1F
100
AcDbEntity
  8
寸法線
100
AcDbDimension
  2
*D16
 10
-11.4484859745955
 20
48.99019332955458
 30
0.0
 11
-22.02951998832181
 21
44.13573252638934
 31
0.0
 70
    36
 71
     5
 42
1.000000000000003
  3
sunpo
100
AcDbRadialDimension
 15
-12.18997343057495
 25
48.31922659966022
 35
0.0
 40
0.0
1001
ACAD
1000
DSTYLE
1002
{
1070
    40
1040
1.0
1070
   288
1070
     1
1002
}
  0
ARC
  5
3507
330
1F
100
AcDbEntity
  8
太線
100
AcDbCircle
 10
-11.44848597459551
 20
51.99019332955458
 30
0.0
 40
1.0
100
AcDbArc
 50
90.0
 51
180.0
  0
ARC
  5
3508
330
1F
100
AcDbEntity
  8
太線
100
AcDbCircle
 10
-11.44848597459549
 20
48.99019332955458
 30
0.0
 40
1.0
100
AcDbArc
 50
180.0000000000001
 51
270.0
  0
LINE
  5
3509
330
1F
100
AcDbEntity
  8
太線
100
AcDbLine
 10
-12.4484859745955
 20
48.99019332955458
 30
0.0
 11
-12.4484859745955
 21
50.99019332955458
 31
0.0
  0
LINE
  5
350A
330
1F
100
AcDbEntity
  8
太線
100
AcDbLine
 10
-12.44848597459551
 20
50.49019332955459
 30
0.0
 11
-12.44848597459551
 21
51.99019332955458
 31
0.0
  0
LINE
  5
350B
330
1F
100
AcDbEntity
  8
想像線
100
AcDbLine
 10
-2.448485974595513
 20
52.99019332955459
 30
0.0
 11
-2.448485974595513
 21
47.99019332955459
 31
0.0
  0
LINE
  5
350C
330
1F
100
AcDbEntity
  8
太線
100
AcDbLine
 10
-11.44848597459551
 20
52.99019332955459
 30
0.0
 11
-10.4484859745955
 21
52.99019332955459
 31
0.0
  0
DIMENSION
  5
350D
330
1F
100
AcDbEntity
  8
寸法線
100
AcDbDimension
  2
*D15
 10
40.01809438112183
 20
44.99019332955458
 30
0.0
 11
27.29721593079603
 21
30.52887666122039
 31
0.0
 70
   164
 71
     5
 42
2.999999999999957
  3
sunpo
100
AcDbRadialDimension
 15
41.99953206877778
 25
47.24272627935496
 35
0.0
 40
0.0
1001
ACAD
1000
DSTYLE
1002
{
1070
    40
1040
1.0
1070
   279
1070
     1
1070
   288
1070
     1
1002
}
  0
LINE
  5
350E
330
1F
100
AcDbEntity
  8
想像線
100
AcDbLine
 10
27.55151402540449
 20
50.49019332955459
 30
0.0
 11
27.55151402540449
 21
47.99019332955459
 31
0.0
  0
LINE
  5
350F
330
1F
100
AcDbEntity
  8
想像線
100
AcDbLine
 10
27.55151402540449
 20
52.99019332955459
 30
0.0
 11
27.55151402540449
 21
50.49019332955459
 31
0.0
  0
DIMENSION
  5
3516
330
1F
100
AcDbEntity
  8
寸法線
100
AcDbDimension
  2
*D12
 10
47.55262496473377
 20
50.7242191288744
 30
0.0
 11
77.40483395182057
 21
50.44079105824332
 31
0.0
 70
   163
  1
49.3～50
 71
     5
 42
49.30000000000002
  3
sunpo
100
AcDbDiametricDimension
 15
96.85040308607522
 25
50.25616753023474
 35
0.0
 40
0.0
1001
ACAD
1000
DSTYLE
1002
{
1070
    40
1040
1.0
1070
   288
1070
     1
1002
}
  0
CIRCLE
  5
3517
330
1F
100
AcDbEntity
  8
太線
100
AcDbCircle
 10
72.20151402540449
 20
50.49019332955456
 30
0.0
 40
24.65
  0
DIMENSION
  5
3518
330
1F
100
AcDbEntity
  8
寸法線
100
AcDbDimension
  2
*D14
 10
99.72825012356878
 20
16.07627475042636
 30
0.0
 11
96.22825012356878
 21
18.69875738699648
 31
0.0
 70
    32
  1
5
 71
     5
 42
5.244965273140223
  3
sunpo
100
AcDbAlignedDimension
 13
72.08299003925271
 23
21.32124002356658
 33
0.0
 14
72.08299003925271
 24
16.07627475042636
 34
0.0
 50
90.0
100
AcDbRotatedDimension
1001
ACAD
1000
DSTYLE
1002
{
1070
    40
1040
1.0
1002
}
  0
LINE
  5
3519
330
1F
100
AcDbEntity
  8
太線
100
AcDbLine
 10
81.5349077350875
 20
22.3475164515451
 30
0.0
 11
78.89493407177607
 21
16.4928312541989
 31
0.0
  0
LINE
  5
351A
330
1F
100
AcDbEntity
  8
太線
100
AcDbLine
 10
61.54056363634869
 20
22.82312559909043
 30
0.0
 11
63.89917599772196
 21
16.84953811485792
 31
0.0
  0
LINE
  5
351B
330
1F
100
AcDbEntity
  8
細線
100
AcDbLine
 10
67.38416120990139
 20
16.17670309829179
 30
0.0
 11
67.62422621345836
 21
26.26890235886914
 31
0.0
  0
LINE
  5
351C
330
1F
100
AcDbEntity
  8
細線
100
AcDbLine
 10
66.38755909039152
 20
16.33144001486761
 30
0.0
 11
66.62892544048323
 21
26.47834716014882
 31
0.0
  0
LINE
  5
351D
330
1F
100
AcDbEntity
  8
細線
100
AcDbLine
 10
75.3818988493969
 20
15.98645943927368
 30
0.0
 11
75.62196385295386
 21
26.078658699851
 31
0.0
  0
LINE
  5
351E
330
1F
100
AcDbEntity
  8
細線
100
AcDbLine
 10
76.38473113976091
 20
16.09363544109493
 30
0.0
 11
76.62609748985262
 21
26.2405425863762
 31
0.0
  0
ARC
  5
351F
330
1F
100
AcDbEntity
  8
太線
100
AcDbCircle
 10
72.20151402540452
 20
50.49019332955456
 30
0.0
 40
34.65
100
AcDbArc
 50
256.1367294756545
 51
281.137973934145
  0
LINE
  5
35B1
330
1F
100
AcDbEntity
  8
太線
100
AcDbLine
 10
101.8515140254043
 20
210.1211488256961
 30
0.0
 11
101.8515140254043
 21
150.8211488256961
 31
0.0
  0
LINE
  5
35B7
330
1F
100
AcDbEntity
  8
破線
100
AcDbLine
 10
96.85151402540434
 20
210.1211488256961
 30
0.0
 11
96.85151402540434
 21
150.8211488256961
 31
0.0
  0
LINE
  5
35CE
330
1F
100
AcDbEntity
  8
太線
100
AcDbLine
 10
177.6928338991726
 20
79.06871386639318
 30
0.0
 11
169.6945151750757
 21
79.23271870705605
 31
0.0
  0
DIMENSION
  5
3610
330
1F
100
AcDbEntity
  8
寸法線
100
AcDbDimension
  2
*D17
 10
42.45890126749872
 20
224.000649176835
 30
0.0
 11
15.01214316225332
 21
227.500649176835
 31
0.0
 70
    32
  1
55
 71
     5
 42
54.89351621049081
  3
sunpo
100
AcDbAlignedDimension
 13
-12.43461494299208
 23
181.2805837673586
 33
0.0
 14
42.45890126749872
 24
181.2805837673586
 34
0.0
100
AcDbRotatedDimension
1001
ACAD
1000
DSTYLE
1002
{
1070
    40
1040
1.0
1002
}
  0
DIMENSION
  5
361D
330
1F
100
AcDbEntity
  8
寸法線
100
AcDbDimension
  2
*D18
 10
101.7304287824611
 20
224.000649176835
 30
0.0
 11
72.09466502497992
 21
227.500649176835
 31
0.0
 70
    32
  1
60
 71
     5
 42
59.27152751496237
  3
sunpo
100
AcDbAlignedDimension
 13
42.45890126749872
 23
181.2805837673586
 33
0.0
 14
101.7304287824611
 24
209.8727539027738
 34
0.0
100
AcDbRotatedDimension
1001
ACAD
1000
DSTYLE
1002
{
1070
    40
1040
1.0
1070
   279
1070
     1
1002
}
  0
XLINE
  5
3683
330
1F
100
AcDbEntity
  8
構築線
100
AcDbXline
 10
606.3972008252935
 20
50.06187743036401
 30
0.0
 11
0.0
 21
1.0
 31
0.0
  0
XLINE
  5
3793
330
1F
100
AcDbEntity
  8
構築線
100
AcDbXline
 10
246.8844772961612
 20
180.4711488256961
 30
0.0
 11
0.0
 21
-1.0
 31
0.0
  0
TEXT
  5
3796
330
1F
100
AcDbEntity
  8
文字
100
AcDbText
 10
61.44391060066016
 20
2.440494678420577
 30
0.0
 40
4.799999999999999
  1
S-7-1S
 51
15.0
  7
OKANO
100
AcDbText
  0
CIRCLE
  5
37A3
330
1F
100
AcDbEntity
  8
構築線
100
AcDbCircle
 10
72.20151402540449
 20
50.49019332955456
 30
0.0
 40
29.65000000000001
  0
ARC
  5
37A4
330
1F
100
AcDbEntity
  8
太線
100
AcDbCircle
 10
72.20151402540449
 20
50.49019332955456
 30
0.0
 40
29.65
100
AcDbArc
 50
189.6979023810559
 51
170.3020976189439
  0
TEXT
  5
37BB
330
1F
100
AcDbEntity
  8
文字
100
AcDbText
 10
206.9295704121032
 20
25.9037772880311
 30
0.0
 40
4.799999999999999
  1
JAN4562182300713
 51
15.0
  7
OKANO
100
AcDbText
  0
TEXT
  5
37C8
330
1F
100
AcDbEntity
  8
寸法線
100
AcDbText
 10
143.9080736900084
 20
68.54131235596634
 30
0.0
 40
4.799999999999999
  1
PF3/8 inch19yama クボミ先ホーローセット使用
 51
15.0
  7
OKANO
100
AcDbText
  0
VIEWPORT
  5
2E
330
1B
100
AcDbEntity
 67
     1
  8
0
100
AcDbViewport
 10
231.342753919598
 20
131.5497962567395
 30
0.0
 40
615.2184133880476
 41
289.5531700150789
 68
     2
 69
     1
 12
231.342753919598
 22
131.5497962567395
 13
0.0
 23
0.0
 14
10.0
 24
10.0
 15
10.0
 25
10.0
 16
0.0
 26
0.0
 36
1.0
 17
0.0
 27
0.0
 37
0.0
 42
50.0
 43
0.0
 44
0.0
 45
289.5531700150789
 50
0.0
 51
0.0
 72
   100
 90
    32800
  1

281
     0
 71
     1
 74
     0
110
0.0
120
0.0
130
0.0
111
1.0
121
0.0
131
0.0
112
0.0
122
1.0
132
0.0
 79
     0
146
0.0
  0
VIEWPORT
  5
30
330
1B
100
AcDbEntity
 67
     1
  8
70-0-CON
100
AcDbViewport
 10
141.8594093064315
 20
100.3480256368386
 30
0.0
 40
261.6199023344245
 41
192.6196987113174
 68
     1
 69
     2
 12
138.9218728381868
 22
118.6405452021169
 13
0.0
 23
0.0
 14
5.0
 24
5.0
 15
10.0
 25
10.0
 16
0.0
 26
0.0
 36
1.0
 17
0.0
 27
0.0
 37
0.0
 42
50.0
 43
0.0
 44
0.0
 45
285.2348651097551
 50
0.0
 51
0.0
 72
   100
 90
    32864
  1

281
     0
 71
     1
 74
     0
110
0.0
120
0.0
130
0.0
111
1.0
121
0.0
131
0.0
112
0.0
122
1.0
132
0.0
 79
     0
146
0.0
  0
LWPOLYLINE
  5
45
330
1B
100
AcDbEntity
 67
     1
  8
50-0-CON
100
AcDbPolyline
 90
        4
 70
     1
 43
0.0
 10
11.04945813921926
 20
4.038176281179858
 10
272.2125713060605
 20
4.033520706629644
 10
273.4987754093466
 20
195.9297862125246
 10
11.04945813921926
 20
196.6578749924973
  0
LINE
  5
4A
330
1B
100
AcDbEntity
 67
     1
  8
50-0-CON
100
AcDbLine
 10
10.38768783662635
 20
100.3480256368386
 30
0.0
 11
-4.391850629656119
 21
100.3480256368386
 31
0.0
  0
LINE
  5
4B
330
1B
100
AcDbEntity
 67
     1
  8
50-0-CON
100
AcDbLine
 10
141.8594093064315
 20
197.098652626247
 30
0.0
 11
141.8594093064315
 21
202.387980773708
 31
0.0
  0
LINE
  5
4C
330
1B
100
AcDbEntity
 67
     1
  8
50-0-CON
100
AcDbLine
 10
272.4487699456857
 20
100.7888032705883
 30
0.0
 11
278.8458837249377
 21
100.7888032705883
 31
0.0
  0
LINE
  5
4D
330
1B
100
AcDbEntity
 67
     1
  8
50-0-CON
100
AcDbLine
 10
140.9770484758805
 20
4.038176281179858
 30
0.0
 11
140.9770484758805
 21
-3.455038652015446
 31
0.0
  0
ENDSEC
  0
SECTION
  2
OBJECTS
  0
DICTIONARY
  5
C
330
0
100
AcDbDictionary
281
     1
  3
ACAD_GROUP
350
D
  3
ACAD_LAYOUT
350
1A
  3
ACAD_MLINESTYLE
350
17
  3
ACAD_PLOTSETTINGS
350
19
  3
ACAD_PLOTSTYLENAME
350
E
  3
AcadDim
350
13D0
  3
AcDbVariableDictionary
350
6AD
  3
DWGPROPS
350
30F
  0
DICTIONARY
  5
D
102
{ACAD_REACTORS
330
C
102
}
330
C
100
AcDbDictionary
281
     1
  0
DICTIONARY
  5
1A
102
{ACAD_REACTORS
330
C
102
}
330
C
100
AcDbDictionary
281
     1
  3
A4
350
1E
  3
Model
350
22
  0
DICTIONARY
  5
17
102
{ACAD_REACTORS
330
C
102
}
330
C
100
AcDbDictionary
281
     1
  3
Standard
350
18
  0
DICTIONARY
  5
19
102
{ACAD_REACTORS
330
C
102
}
330
C
100
AcDbDictionary
281
     1
  0
ACDBDICTIONARYWDFLT
  5
E
102
{ACAD_REACTORS
330
C
102
}
330
C
100
AcDbDictionary
281
     1
  3
Normal
350
F
100
AcDbDictionaryWithDefault
340
F
  0
XRECORD
  5
13D0
102
{ACAD_REACTORS
330
C
102
}
330
C
100
AcDbXrecord
280
     1
 90
   990106
  3

 60
     0
 61
     0
 62
     1
 63
     3
 64
     0
 65
     0
 66
     0
 67
     3
 68
     1
 69
     0
 70
     0
 71
     0
 72
     0
 40
9.044121132502835
170
     0
  0
DICTIONARY
  5
6AD
102
{ACAD_REACTORS
330
C
102
}
330
C
100
AcDbDictionary
281
     1
  3
SORTENTS
350
6AE
  0
XRECORD
  5
30F
102
{ACAD_REACTORS
330
C
102
}
330
C
100
AcDbXrecord
280
     1
  1
DWGPROPS COOKIE
  2

  3

  4

  6

  7

  8

  9

300
=
301
=
302
=
303
=
304
=
305
=
306
=
307
=
308
=
309
=
 40
0.3303803125
 41
2452362.482225463
 42
2452370.969861285
  1

 90
        0
  0
LAYOUT
  5
1E
102
{ACAD_REACTORS
330
1A
102
}
330
1A
100
AcDbPlotSettings
  1

  2
EPSON PM-920C
  4
A4
  6

 40
3.757083177566528
 41
14.7637300491333
 42
3.757080078125
 43
3.757080078125
 44
209.9733276367187
 45
296.9683227539062
 46
0.0
 47
0.0
 48
0.0
 49
0.0
140
0.0
141
0.0
142
1.0
143
1.0
 70
   688
 72
     1
 73
     1
 74
     5
  7
joint.ctb
 75
    16
147
1.0
148
0.0
149
0.0
100
AcDbLayout
  1
A4
 70
     1
 71
     1
 10
-3.757080078125
 20
-3.757083177566528
 11
293.2112426757812
 21
206.2162444591522
 12
0.0
 22
0.0
 32
0.0
 14
-4.391850629656119
 24
-3.455038652015446
 34
0.0
 15
278.8458837249377
 25
202.387980773708
 35
0.0
146
0.0
 13
0.0
 23
0.0
 33
0.0
 16
1.0
 26
0.0
 36
0.0
 17
0.0
 27
1.0
 37
0.0
 76
     0
330
1B
331
30
  0
LAYOUT
  5
22
102
{ACAD_REACTORS
330
1A
102
}
330
1A
100
AcDbPlotSettings
  1

  2
EPSON PM-920C
  4
A4
  6

 40
3.757083177566528
 41
14.7637300491333
 42
3.757080078125
 43
3.757080078125
 44
209.9733276367187
 45
296.9683227539062
 46
0.0
 47
0.0
 48
0.0
 49
0.0
140
0.0
141
0.0
142
1.0
143
1.0
 70
 11952
 72
     1
 73
     1
 74
     0
  7

 75
     0
147
1.0
148
-45.64199848979289
149
-84.48806419330498
100
AcDbLayout
  1
Model
 70
     1
 71
     0
 10
0.0
 20
0.0
 11
12.0
 21
9.0
 12
0.0
 22
0.0
 32
0.0
 14
0.0
 24
0.0
 34
0.0
 15
0.0
 25
0.0
 35
0.0
146
0.0
 13
0.0
 23
0.0
 33
0.0
 16
1.0
 26
0.0
 36
0.0
 17
0.0
 27
1.0
 37
0.0
 76
     0
330
1F
  0
MLINESTYLE
  5
18
102
{ACAD_REACTORS
330
17
102
}
330
17
100
AcDbMlineStyle
  2
STANDARD
 70
     0
  3

 62
   256
 51
90.0
 52
90.0
 71
     2
 49
0.5
 62
   256
  6
BYLAYER
 49
-0.5
 62
   256
  6
BYLAYER
  0
ACDBPLACEHOLDER
  5
F
102
{ACAD_REACTORS
330
E
102
}
330
E
  0
DICTIONARYVAR
  5
6AE
102
{ACAD_REACTORS
330
6AD
102
}
330
6AD
100
DictionaryVariables
280
     0
  1
96
  0
ENDSEC
  0
EOF
