  0
SECTION
  2
HEADER
  9
$ACADVER
  1
AC1015
  9
$ACADMAINTVER
 70
     6
  9
$DWGCODEPAGE
  3
ANSI_932
  9
$INSBASE
 10
0.0
 20
0.0
 30
0.0
  9
$EXTMIN
 10
-44.09445759809277
 20
-36.18030376963257
 30
0.0
  9
$EXTMAX
 10
379.5180012788771
 20
239.2175700503318
 30
0.0
  9
$LIMMIN
 10
0.0
 20
0.0
  9
$LIMMAX
 10
420.0
 20
297.0
  9
$ORTHOMODE
 70
     0
  9
$REGENMODE
 70
     1
  9
$FILLMODE
 70
     1
  9
$QTEXTMODE
 70
     0
  9
$MIRRTEXT
 70
     1
  9
$LTSCALE
 40
1.0
  9
$ATTMODE
 70
     1
  9
$TEXTSIZE
 40
5.0
  9
$TRACEWID
 40
1.0
  9
$TEXTSTYLE
  7
OKANO
  9
$CLAYER
  8
太線
  9
$CELTYPE
  6
ByLayer
  9
$CECOLOR
 62
   256
  9
$CELTSCALE
 40
1.0
  9
$DISPSILH
 70
     0
  9
$DIMSCALE
 40
0.0
  9
$DIMASZ
 40
3.0
  9
$DIMEXO
 40
2.0
  9
$DIMDLI
 40
8.0
  9
$DIMRND
 40
0.0
  9
$DIMDLE
 40
0.0
  9
$DIMEXE
 40
3.0
  9
$DIMTP
 40
0.0
  9
$DIMTM
 40
0.0
  9
$DIMTXT
 40
5.0
  9
$DIMCEN
 40
2.5
  9
$DIMTSZ
 40
0.0
  9
$DIMTOL
 70
     0
  9
$DIMLIM
 70
     0
  9
$DIMTIH
 70
     0
  9
$DIMTOH
 70
     0
  9
$DIMSE1
 70
     0
  9
$DIMSE2
 70
     0
  9
$DIMTAD
 70
     1
  9
$DIMZIN
 70
     8
  9
$DIMBLK
  1
Closed
  9
$DIMASO
 70
     1
  9
$DIMSHO
 70
     1
  9
$DIMPOST
  1

  9
$DIMAPOST
  1

  9
$DIMALT
 70
     0
  9
$DIMALTD
 70
     3
  9
$DIMALTF
 40
0.03937007874016
  9
$DIMLFAC
 40
1.0
  9
$DIMTOFL
 70
     1
  9
$DIMTVP
 40
0.0
  9
$DIMTIX
 70
     0
  9
$DIMSOXD
 70
     0
  9
$DIMSAH
 70
     0
  9
$DIMBLK1
  1

  9
$DIMBLK2
  1

  9
$DIMSTYLE
  2
sunpo
  9
$DIMCLRD
 70
     0
  9
$DIMCLRE
 70
     0
  9
$DIMCLRT
 70
     0
  9
$DIMTFAC
 40
1.0
  9
$DIMGAP
 40
1.0
  9
$DIMJUST
 70
     0
  9
$DIMSD1
 70
     0
  9
$DIMSD2
 70
     0
  9
$DIMTOLJ
 70
     0
  9
$DIMTZIN
 70
     8
  9
$DIMALTZ
 70
     0
  9
$DIMALTTZ
 70
     0
  9
$DIMUPT
 70
     0
  9
$DIMDEC
 70
     2
  9
$DIMTDEC
 70
     2
  9
$DIMALTU
 70
     2
  9
$DIMALTTD
 70
     3
  9
$DIMTXSTY
  7
OKANO
  9
$DIMAUNIT
 70
     0
  9
$DIMADEC
 70
     0
  9
$DIMALTRND
 40
0.0
  9
$DIMAZIN
 70
     0
  9
$DIMDSEP
 70
    46
  9
$DIMATFIT
 70
     3
  9
$DIMFRAC
 70
     0
  9
$DIMLDRBLK
  1
Closed
  9
$DIMLUNIT
 70
     2
  9
$DIMLWD
 70
    -2
  9
$DIMLWE
 70
    -2
  9
$DIMTMOVE
 70
     0
  9
$LUNITS
 70
     2
  9
$LUPREC
 70
     2
  9
$SKETCHINC
 40
1.0
  9
$FILLETRAD
 40
3.0
  9
$AUNITS
 70
     0
  9
$AUPREC
 70
     0
  9
$MENU
  1
.
  9
$ELEVATION
 40
0.0
  9
$PELEVATION
 40
0.0
  9
$THICKNESS
 40
0.0
  9
$LIMCHECK
 70
     0
  9
$CHAMFERA
 40
10.0
  9
$CHAMFERB
 40
10.0
  9
$CHAMFERC
 40
20.0
  9
$CHAMFERD
 40
0.0
  9
$SKPOLY
 70
     0
  9
$TDCREATE
 40
2452362.482225463
  9
$TDUCREATE
 40
2452362.107225463
  9
$TDUPDATE
 40
2456897.488551215
  9
$TDUUPDATE
 40
2456897.113551215
  9
$TDINDWG
 40
2.4489831366
  9
$TDUSRTIMER
 40
2.4489831366
  9
$USRTIMER
 70
     1
  9
$ANGBASE
 50
0.0
  9
$ANGDIR
 70
     0
  9
$PDMODE
 70
     0
  9
$PDSIZE
 40
0.0
  9
$PLINEWID
 40
0.0
  9
$SPLFRAME
 70
     0
  9
$SPLINETYPE
 70
     6
  9
$SPLINESEGS
 70
     8
  9
$HANDSEED
  5
3A28
  9
$SURFTAB1
 70
     6
  9
$SURFTAB2
 70
     6
  9
$SURFTYPE
 70
     6
  9
$SURFU
 70
     6
  9
$SURFV
 70
     6
  9
$UCSBASE
  2

  9
$UCSNAME
  2

  9
$UCSORG
 10
0.0
 20
0.0
 30
0.0
  9
$UCSXDIR
 10
1.0
 20
0.0
 30
0.0
  9
$UCSYDIR
 10
0.0
 20
1.0
 30
0.0
  9
$UCSORTHOREF
  2

  9
$UCSORTHOVIEW
 70
     0
  9
$UCSORGTOP
 10
0.0
 20
0.0
 30
0.0
  9
$UCSORGBOTTOM
 10
0.0
 20
0.0
 30
0.0
  9
$UCSORGLEFT
 10
0.0
 20
0.0
 30
0.0
  9
$UCSORGRIGHT
 10
0.0
 20
0.0
 30
0.0
  9
$UCSORGFRONT
 10
0.0
 20
0.0
 30
0.0
  9
$UCSORGBACK
 10
0.0
 20
0.0
 30
0.0
  9
$PUCSBASE
  2

  9
$PUCSNAME
  2

  9
$PUCSORG
 10
0.0
 20
0.0
 30
0.0
  9
$PUCSXDIR
 10
1.0
 20
0.0
 30
0.0
  9
$PUCSYDIR
 10
0.0
 20
1.0
 30
0.0
  9
$PUCSORTHOREF
  2

  9
$PUCSORTHOVIEW
 70
     0
  9
$PUCSORGTOP
 10
0.0
 20
0.0
 30
0.0
  9
$PUCSORGBOTTOM
 10
0.0
 20
0.0
 30
0.0
  9
$PUCSORGLEFT
 10
0.0
 20
0.0
 30
0.0
  9
$PUCSORGRIGHT
 10
0.0
 20
0.0
 30
0.0
  9
$PUCSORGFRONT
 10
0.0
 20
0.0
 30
0.0
  9
$PUCSORGBACK
 10
0.0
 20
0.0
 30
0.0
  9
$USERI1
 70
     0
  9
$USERI2
 70
     0
  9
$USERI3
 70
     0
  9
$USERI4
 70
     0
  9
$USERI5
 70
     0
  9
$USERR1
 40
0.0
  9
$USERR2
 40
0.0
  9
$USERR3
 40
0.0
  9
$USERR4
 40
0.0
  9
$USERR5
 40
0.0
  9
$WORLDVIEW
 70
     1
  9
$SHADEDGE
 70
     3
  9
$SHADEDIF
 70
    70
  9
$TILEMODE
 70
     0
  9
$MAXACTVP
 70
    64
  9
$PINSBASE
 10
0.0
 20
0.0
 30
0.0
  9
$PLIMCHECK
 70
     0
  9
$PEXTMIN
 10
-4.391850629656119
 20
-3.455038652015446
 30
0.0
  9
$PEXTMAX
 10
278.8458837249377
 20
202.387980773708
 30
0.0
  9
$PLIMMIN
 10
-3.757080078125
 20
-3.757083177566528
  9
$PLIMMAX
 10
293.2112426757812
 20
206.2162444591522
  9
$UNITMODE
 70
     0
  9
$VISRETAIN
 70
     1
  9
$PLINEGEN
 70
     0
  9
$PSLTSCALE
 70
     1
  9
$TREEDEPTH
 70
  3020
  9
$CMLSTYLE
  2
Standard
  9
$CMLJUST
 70
     0
  9
$CMLSCALE
 40
20.0
  9
$PROXYGRAPHICS
 70
     1
  9
$MEASUREMENT
 70
     1
  9
$CELWEIGHT
370
    -1
  9
$ENDCAPS
280
     0
  9
$JOINSTYLE
280
     0
  9
$LWDISPLAY
290
     0
  9
$INSUNITS
 70
     4
  9
$HYPERLINKBASE
  1

  9
$STYLESHEET
  1

  9
$XEDIT
290
     1
  9
$CEPSNTYPE
380
     0
  9
$PSTYLEMODE
290
     1
  9
$FINGERPRINTGUID
  2
{FF7F33C3-4233-11D6-AEE0-0000F45FD7F4}
  9
$VERSIONGUID
  2
{D1326146-3536-49CA-9D05-FF7B73C9C060}
  9
$EXTNAMES
290
     1
  9
$PSVPSCALE
 40
0.0
  9
$OLESTARTUP
290
     0
  0
ENDSEC
  0
SECTION
  2
CLASSES
  0
CLASS
  1
ACDBDICTIONARYWDFLT
  2
AcDbDictionaryWithDefault
  3
AutoCAD 2000
 90
        0
280
     0
281
     0
  0
CLASS
  1
ACDBPLACEHOLDER
  2
AcDbPlaceHolder
  3
AutoCAD 2000
 90
        0
280
     0
281
     0
  0
CLASS
  1
LAYOUT
  2
AcDbLayout
  3
AutoCAD 2000
 90
        0
280
     0
281
     0
  0
CLASS
  1
DICTIONARYVAR
  2
AcDbDictionaryVar
  3
AutoCAD 2000
 90
        0
280
     0
281
     0
  0
ENDSEC
  0
SECTION
  2
TABLES
  0
TABLE
  2
VPORT
  5
8
330
0
100
AcDbSymbolTable
 70
     1
  0
VPORT
  5
3A21
330
8
100
AcDbSymbolTableRecord
100
AcDbViewportTableRecord
  2
*Active
 70
     0
 10
0.0
 20
0.0
 11
1.0
 21
1.0
 12
280.7715428892436
 22
107.3496747817123
 13
0.0
 23
0.0
 14
5.0
 24
5.0
 15
10.0
 25
10.0
 16
0.0
 26
0.0
 36
1.0
 17
0.0
 27
0.0
 37
0.0
 40
338.0892733929324
 41
1.968879668049792
 42
50.0
 43
0.0
 44
0.0
 50
0.0
 51
0.0
 71
     0
 72
   100
 73
     1
 74
     3
 75
     0
 76
     0
 77
     0
 78
     0
281
     0
 65
     1
110
0.0
120
0.0
130
0.0
111
1.0
121
0.0
131
0.0
112
0.0
122
1.0
132
0.0
 79
     0
146
0.0
  0
ENDTAB
  0
TABLE
  2
LTYPE
  5
5
330
0
100
AcDbSymbolTable
 70
     5
  0
LTYPE
  5
14
330
5
100
AcDbSymbolTableRecord
100
AcDbLinetypeTableRecord
  2
ByBlock
 70
     0
  3

 72
    65
 73
     0
 40
0.0
  0
LTYPE
  5
15
330
5
100
AcDbSymbolTableRecord
100
AcDbLinetypeTableRecord
  2
ByLayer
 70
     0
  3

 72
    65
 73
     0
 40
0.0
  0
LTYPE
  5
16
330
5
100
AcDbSymbolTableRecord
100
AcDbLinetypeTableRecord
  2
Continuous
 70
     0
  3
Solid line
 72
    65
 73
     0
 40
0.0
  0
LTYPE
  5
33
330
5
100
AcDbSymbolTableRecord
100
AcDbLinetypeTableRecord
  2
DASHED2
 70
     0
  3
Dashed (.5x) _ _ _ _ _ _ _ _ _ _ _ _ _ _ _ _ _
 72
    65
 73
     2
 40
9.524999999999998
 49
6.349999999999999
 74
     0
 49
-3.174999999999999
 74
     0
  0
LTYPE
  5
34
330
5
100
AcDbSymbolTableRecord
100
AcDbLinetypeTableRecord
  2
CENTER2
 70
     0
  3
Center (.5x) ___ _ ___ _ ___ _ ___ _ ___ _ ___
 72
    65
 73
     4
 40
28.57499999999999
 49
19.05
 74
     0
 49
-3.174999999999999
 74
     0
 49
3.174999999999999
 74
     0
 49
-3.174999999999999
 74
     0
  0
LTYPE
  5
35
330
5
100
AcDbSymbolTableRecord
100
AcDbLinetypeTableRecord
  2
PHANTOM2
 70
     0
  3
Phantom (.5x) ___ _ _ ___ _ _ ___ _ _ ___ _ _
 72
    65
 73
     6
 40
31.75
 49
15.875
 74
     0
 49
-3.174999999999999
 74
     0
 49
3.174999999999999
 74
     0
 49
-3.174999999999999
 74
     0
 49
3.174999999999999
 74
     0
 49
-3.174999999999999
 74
     0
  0
LTYPE
  5
36
330
5
100
AcDbSymbolTableRecord
100
AcDbLinetypeTableRecord
  2
HIDDEN2
 70
     0
  3
Hidden (.5x) _ _ _ _ _ _ _ _ _ _ _ _ _ _ _ _ _
 72
    65
 73
     2
 40
4.762499999999999
 49
3.174999999999999
 74
     0
 49
-1.587499999999999
 74
     0
  0
ENDTAB
  0
TABLE
  2
LAYER
  5
2
330
0
100
AcDbSymbolTable
 70
    13
  0
LAYER
  5
10
330
2
100
AcDbSymbolTableRecord
100
AcDbLayerTableRecord
  2
0
 70
     0
 62
     7
  6
Continuous
370
    -3
390
F
  0
LAYER
  5
40
330
2
100
AcDbSymbolTableRecord
100
AcDbLayerTableRecord
  2
50-0-CON
 70
     0
 62
     4
  6
Continuous
370
    50
390
F
  0
LAYER
  5
41
330
2
100
AcDbSymbolTableRecord
100
AcDbLayerTableRecord
  2
70-0-CON
 70
     0
 62
   202
  6
Continuous
370
    70
390
F
  0
LAYER
  5
4E
330
2
100
AcDbSymbolTableRecord
100
AcDbLayerTableRecord
  2
極太線
 70
     0
 62
     7
  6
Continuous
370
    70
390
F
  0
LAYER
  5
4F
330
2
100
AcDbSymbolTableRecord
100
AcDbLayerTableRecord
  2
細線
 70
     0
 62
     8
  6
Continuous
370
    18
390
F
  0
LAYER
  5
AB
330
2
100
AcDbSymbolTableRecord
100
AcDbLayerTableRecord
  2
構築線
 70
     0
 62
    -2
  6
Continuous
370
    18
390
F
  0
LAYER
  5
B8
330
2
100
AcDbSymbolTableRecord
100
AcDbLayerTableRecord
  2
太線
 70
     0
 62
     7
  6
Continuous
370
    35
390
F
  0
LAYER
  5
B9
330
2
100
AcDbSymbolTableRecord
100
AcDbLayerTableRecord
  2
寸法線
 70
     0
 62
     5
  6
Continuous
370
    18
390
F
  0
LAYER
  5
BA
330
2
100
AcDbSymbolTableRecord
100
AcDbLayerTableRecord
  2
破線
 70
     0
 62
     8
  6
HIDDEN2
370
    18
390
F
  0
LAYER
  5
BB
330
2
100
AcDbSymbolTableRecord
100
AcDbLayerTableRecord
  2
中心線
 70
     0
 62
     1
  6
CENTER2
370
    18
390
F
  0
LAYER
  5
BC
330
2
100
AcDbSymbolTableRecord
100
AcDbLayerTableRecord
  2
想像線
 70
     0
 62
     8
  6
PHANTOM2
370
    18
390
F
  0
LAYER
  5
BD
330
2
100
AcDbSymbolTableRecord
100
AcDbLayerTableRecord
  2
文字
 70
     0
 62
     7
  6
Continuous
370
    18
390
F
  0
LAYER
  5
180
330
2
100
AcDbSymbolTableRecord
100
AcDbLayerTableRecord
  2
Defpoints
 70
     0
 62
     7
  6
Continuous
290
     0
370
    -3
390
F
  0
ENDTAB
  0
TABLE
  2
STYLE
  5
3
330
0
100
AcDbSymbolTable
 70
     3
  0
STYLE
  5
11
330
3
100
AcDbSymbolTableRecord
100
AcDbTextStyleTableRecord
  2
Standard
 70
     0
 40
0.0
 41
1.0
 50
0.0
 71
     0
 42
3.0
  3
txt
  4

  0
STYLE
  5
32
330
3
100
AcDbSymbolTableRecord
100
AcDbTextStyleTableRecord
  2

 70
     1
 40
0.0
 41
1.0
 50
0.0
 71
     0
 42
2.5
  3
ltypeshp.shx
  4

  0
STYLE
  5
50
330
3
100
AcDbSymbolTableRecord
100
AcDbTextStyleTableRecord
  2
OKANO
 70
     0
 40
0.0
 41
1.0
 50
15.0
 71
     0
 42
5.0
  3
isocp.shx
  4
bigfont.shx
  0
ENDTAB
  0
TABLE
  2
VIEW
  5
6
330
0
100
AcDbSymbolTable
 70
     0
  0
ENDTAB
  0
TABLE
  2
UCS
  5
7
330
0
100
AcDbSymbolTable
 70
     0
  0
ENDTAB
  0
TABLE
  2
APPID
  5
9
330
0
100
AcDbSymbolTable
 70
     1
  0
APPID
  5
12
330
9
100
AcDbSymbolTableRecord
100
AcDbRegAppTableRecord
  2
ACAD
 70
     0
  0
ENDTAB
  0
TABLE
  2
DIMSTYLE
  5
A
330
0
100
AcDbSymbolTable
 70
     2
100
AcDbDimStyleTable
 71
     2
340
A2
340
27
  0
DIMSTYLE
105
27
330
A
100
AcDbSymbolTableRecord
100
AcDbDimStyleTableRecord
  2
ISO-25
 70
     0
 41
2.5
 42
0.625
 43
3.75
 44
1.25
 73
     0
 74
     0
 77
     1
 78
     8
140
2.5
141
2.5
143
0.03937007874016
147
0.625
171
     3
172
     1
271
     2
272
     2
274
     3
283
     0
284
     8
340
11
  0
DIMSTYLE
105
A2
102
{ACAD_REACTORS
330
3236
330
3319
330
3330
330
3353
330
3385
330
33D3
330
33EF
330
33FD
330
343A
330
3516
330
3502
330
3518
330
350D
330
3506
330
35B0
330
3610
330
361D
330
362A
330
3453
330
38BA
330
38CC
102
}
330
A
100
AcDbSymbolTableRecord
100
AcDbDimStyleTableRecord
  2
sunpo
 70
     0
 40
0.0
 41
3.0
 42
2.0
 43
8.0
 44
3.0
 73
     0
 74
     0
 77
     1
 78
     8
140
5.0
141
2.5
143
0.03937007874016
147
1.0
171
     3
172
     1
271
     2
272
     2
274
     3
283
     0
284
     8
340
50
341
9B
342
9B
  0
ENDTAB
  0
TABLE
  2
BLOCK_RECORD
  5
1
330
0
100
AcDbSymbolTable
 70
    23
  0
BLOCK_RECORD
  5
1F
330
1
100
AcDbSymbolTableRecord
100
AcDbBlockTableRecord
  2
*Model_Space
340
22
  0
BLOCK_RECORD
  5
1B
330
1
100
AcDbSymbolTableRecord
100
AcDbBlockTableRecord
  2
*Paper_Space
340
1E
  0
BLOCK_RECORD
  5
9B
330
1
100
AcDbSymbolTableRecord
100
AcDbBlockTableRecord
  2
_Closed
340
0
102
{BLKREFS
331
332A
331
332B
331
3340
331
3341
331
341F
331
3420
331
3447
331
35A8
331
35A9
331
35C7
331
35C8
331
366B
331
366C
331
3674
331
3675
331
367D
331
367E
331
3766
331
376E
331
376F
331
3777
331
377C
331
3784
331
3785
331
3804
331
3805
331
380D
331
380E
331
385D
331
385E
331
386F
331
3870
331
38BF
331
38C0
331
38D1
331
38D2
331
3A03
331
3A04
102
}
  0
BLOCK_RECORD
  5
1510
330
1
100
AcDbSymbolTableRecord
100
AcDbBlockTableRecord
  2
A$C10A573AC
340
0
  0
BLOCK_RECORD
  5
3237
330
1
100
AcDbSymbolTableRecord
100
AcDbBlockTableRecord
  2
*D2
340
0
  0
BLOCK_RECORD
  5
331A
330
1
100
AcDbSymbolTableRecord
100
AcDbBlockTableRecord
  2
*D3
340
0
  0
BLOCK_RECORD
  5
3331
330
1
100
AcDbSymbolTableRecord
100
AcDbBlockTableRecord
  2
*D4
340
0
  0
BLOCK_RECORD
  5
3354
330
1
100
AcDbSymbolTableRecord
100
AcDbBlockTableRecord
  2
*D5
340
0
  0
BLOCK_RECORD
  5
3386
330
1
100
AcDbSymbolTableRecord
100
AcDbBlockTableRecord
  2
*D6
340
0
  0
BLOCK_RECORD
  5
33D4
330
1
100
AcDbSymbolTableRecord
100
AcDbBlockTableRecord
  2
*D7
340
0
  0
BLOCK_RECORD
  5
33F0
330
1
100
AcDbSymbolTableRecord
100
AcDbBlockTableRecord
  2
*D8
340
0
  0
BLOCK_RECORD
  5
33FE
330
1
100
AcDbSymbolTableRecord
100
AcDbBlockTableRecord
  2
*D9
340
0
  0
BLOCK_RECORD
  5
343B
330
1
100
AcDbSymbolTableRecord
100
AcDbBlockTableRecord
  2
*D10
340
0
  0
BLOCK_RECORD
  5
346E
330
1
100
AcDbSymbolTableRecord
100
AcDbBlockTableRecord
  2
*D11
340
0
  0
BLOCK_RECORD
  5
3520
330
1
100
AcDbSymbolTableRecord
100
AcDbBlockTableRecord
  2
*D12
340
0
  0
BLOCK_RECORD
  5
3528
330
1
100
AcDbSymbolTableRecord
100
AcDbBlockTableRecord
  2
*D13
340
0
  0
BLOCK_RECORD
  5
3536
330
1
100
AcDbSymbolTableRecord
100
AcDbBlockTableRecord
  2
*D14
340
0
  0
BLOCK_RECORD
  5
3544
330
1
100
AcDbSymbolTableRecord
100
AcDbBlockTableRecord
  2
*D15
340
0
  0
BLOCK_RECORD
  5
354C
330
1
100
AcDbSymbolTableRecord
100
AcDbBlockTableRecord
  2
*D16
340
0
  0
BLOCK_RECORD
  5
35B8
330
1
100
AcDbSymbolTableRecord
100
AcDbBlockTableRecord
  2
*D17
340
0
  0
BLOCK_RECORD
  5
3611
330
1
100
AcDbSymbolTableRecord
100
AcDbBlockTableRecord
  2
*D18
340
0
  0
BLOCK_RECORD
  5
361E
330
1
100
AcDbSymbolTableRecord
100
AcDbBlockTableRecord
  2
*D19
340
0
  0
BLOCK_RECORD
  5
362B
330
1
100
AcDbSymbolTableRecord
100
AcDbBlockTableRecord
  2
*D20
340
0
  0
BLOCK_RECORD
  5
38BB
330
1
100
AcDbSymbolTableRecord
100
AcDbBlockTableRecord
  2
*D21
340
0
  0
BLOCK_RECORD
  5
38CD
330
1
100
AcDbSymbolTableRecord
100
AcDbBlockTableRecord
  2
*D22
340
0
  0
ENDTAB
  0
ENDSEC
  0
SECTION
  2
BLOCKS
  0
BLOCK
  5
20
330
1F
100
AcDbEntity
  8
0
100
AcDbBlockBegin
  2
*Model_Space
 70
     0
 10
0.0
 20
0.0
 30
0.0
  3
*Model_Space
  1

  0
ENDBLK
  5
21
330
1F
100
AcDbEntity
  8
0
100
AcDbBlockEnd
  0
BLOCK
  5
1C
330
1B
100
AcDbEntity
 67
     1
  8
0
100
AcDbBlockBegin
  2
*Paper_Space
 70
     0
 10
0.0
 20
0.0
 30
0.0
  3
*Paper_Space
  1

  0
ENDBLK
  5
1D
330
1B
100
AcDbEntity
 67
     1
  8
0
100
AcDbBlockEnd
  0
BLOCK
  5
A0
330
9B
100
AcDbEntity
  8
0
100
AcDbBlockBegin
  2
_Closed
 70
     0
 10
0.0
 20
0.0
 30
0.0
  3
_Closed
  1

  0
LINE
  5
9C
330
9B
100
AcDbEntity
  8
0
 62
     0
370
    -2
100
AcDbLine
 10
-1.0
 20
0.1666666666666666
 30
0.0
 11
0.0
 21
0.0
 31
0.0
  0
LINE
  5
9D
330
9B
100
AcDbEntity
  8
0
 62
     0
370
    -2
100
AcDbLine
 10
0.0
 20
0.0
 30
0.0
 11
-1.0
 21
-0.1666666666666666
 31
0.0
  0
LINE
  5
9E
330
9B
100
AcDbEntity
  8
0
 62
     0
370
    -2
100
AcDbLine
 10
-1.0
 20
0.1666666666666666
 30
0.0
 11
-1.0
 21
-0.1666666666666666
 31
0.0
  0
LINE
  5
9F
330
9B
100
AcDbEntity
  8
0
 62
     0
370
    -2
100
AcDbLine
 10
0.0
 20
0.0
 30
0.0
 11
-1.0
 21
0.0
 31
0.0
  0
ENDBLK
  5
A1
330
9B
100
AcDbEntity
  8
0
100
AcDbBlockEnd
  0
BLOCK
  5
155B
330
1510
100
AcDbEntity
  8
0
100
AcDbBlockBegin
  2
A$C10A573AC
 70
     0
 10
0.0
 20
0.0
 30
0.0
  3
A$C10A573AC
  1

  0
TEXT
  5
1511
330
1510
100
AcDbEntity
  8
文字
100
AcDbText
 10
0.9844302777919438
 20
5.224957122252135
 30
0.0
 40
3.0
  1
Materal : Steel.
 51
15.0
  7
OKANO
100
AcDbText
  0
TEXT
  5
1512
330
1510
100
AcDbEntity
  8
文字
100
AcDbText
 10
-0.1141909619694843
 20
0.7500001922403499
 30
0.0
 40
3.0
  1
Surface treatment : Electro galvanized.
 51
15.0
  7
OKANO
100
AcDbText
  0
TEXT
  5
1513
330
1510
100
AcDbEntity
  8
文字
100
AcDbText
 10
-0.4901926332574931
 20
9.159967445193728
 30
0.0
 40
3.0
  1
5 TORGUE SCREW  M5-6
 51
15.0
  7
OKANO
100
AcDbText
  0
TEXT
  5
1514
330
1510
100
AcDbEntity
  8
文字
100
AcDbText
 10
1.364713526390005
 20
78.88822913323082
 30
0.0
 40
3.0
  1
Special standard,
 51
15.0
  7
OKANO
100
AcDbText
  0
TEXT
  5
1515
330
1510
100
AcDbEntity
  8
文字
100
AcDbText
 10
92.88160823408942
 20
89.92753849837379
 30
0.0
 40
3.0
  1
Screw Type
 51
15.0
  7
OKANO
100
AcDbText
  0
LINE
  5
1516
330
1510
100
AcDbEntity
  8
太線
100
AcDbLine
 10
113.9464587597784
 20
81.93930390144641
 30
0.0
 11
112.4464587597784
 21
81.93930390144641
 31
0.0
  0
LINE
  5
1517
330
1510
100
AcDbEntity
  8
太線
100
AcDbLine
 10
112.4464587597784
 20
76.9393039014464
 30
0.0
 11
121.4644995438761
 21
76.9393039014464
 31
0.0
  0
TEXT
  5
1518
330
1510
100
AcDbEntity
  8
文字
100
AcDbText
 10
93.46068240437217
 20
77.96976862235396
 30
0.0
 40
2.0
  1
17-30
 51
15.0
  7
OKANO
100
AcDbText
  0
LINE
  5
1519
330
1510
100
AcDbEntity
  8
太線
100
AcDbLine
 10
111.9464587597784
 20
81.43930390144641
 30
0.0
 11
111.9464587597784
 21
77.4393039014464
 31
0.0
  0
LINE
  5
151A
330
1510
100
AcDbEntity
  8
太線
100
AcDbLine
 10
91.94645875977846
 20
81.43930390144641
 30
0.0
 11
91.94645875977846
 21
77.43930390144639
 31
0.0
  0
LINE
  5
151B
330
1510
100
AcDbEntity
  8
太線
100
AcDbLine
 10
101.9644995438761
 20
77.4393039014464
 30
0.0
 11
101.9644995438761
 21
81.43930390144641
 31
0.0
  0
LINE
  5
151C
330
1510
100
AcDbEntity
  8
太線
100
AcDbLine
 10
92.44645875977846
 20
76.9393039014464
 30
0.0
 11
101.4644995438761
 21
76.9393039014464
 31
0.0
  0
ARC
  5
151D
330
1510
100
AcDbEntity
  8
太線
100
AcDbCircle
 10
92.44645875977846
 20
77.43930390144639
 30
0.0
 40
0.5
100
AcDbArc
 50
180.0
 51
270.0
  0
ARC
  5
151E
330
1510
100
AcDbEntity
  8
太線
100
AcDbCircle
 10
101.4644995438761
 20
77.4393039014464
 30
0.0
 40
0.5
100
AcDbArc
 50
270.0
 51
0.0
  0
ARC
  5
151F
330
1510
100
AcDbEntity
  8
太線
100
AcDbCircle
 10
112.4464587597784
 20
77.4393039014464
 30
0.0
 40
0.5
100
AcDbArc
 50
180.0
 51
270.0
  0
LINE
  5
1520
330
1510
100
AcDbEntity
  8
想像線
100
AcDbLine
 10
93.94645875977847
 20
81.93930390144641
 30
0.0
 11
99.96449954387617
 21
81.93930390144641
 31
0.0
  0
LINE
  5
1521
330
1510
100
AcDbEntity
  8
極太線
100
AcDbLine
 10
96.38762957111168
 20
85.43930390144641
 30
0.0
 11
97.50528794844525
 21
85.43930390144641
 31
0.0
  0
CIRCLE
  5
1522
330
1510
100
AcDbEntity
  8
太線
100
AcDbCircle
 10
96.94645875977847
 20
85.43930390144641
 30
0.0
 40
0.5588291886667776
  0
LINE
  5
1523
330
1510
100
AcDbEntity
  8
太線
100
AcDbLine
 10
99.46449954387617
 20
86.93930390144641
 30
0.0
 11
94.44645875977846
 21
86.93930390144641
 31
0.0
  0
LINE
  5
1524
330
1510
100
AcDbEntity
  8
太線
100
AcDbLine
 10
93.94645875977847
 20
86.43930390144641
 30
0.0
 11
93.94645875977847
 21
81.93930390144641
 31
0.0
  0
ARC
  5
1525
330
1510
100
AcDbEntity
  8
太線
100
AcDbCircle
 10
92.44645875977846
 20
81.43930390144641
 30
0.0
 40
0.5
100
AcDbArc
 50
90.0
 51
180.0
  0
LINE
  5
1526
330
1510
100
AcDbEntity
  8
太線
100
AcDbLine
 10
93.94645875977847
 20
81.93930390144641
 30
0.0
 11
92.44645875977846
 21
81.93930390144641
 31
0.0
  0
ARC
  5
1527
330
1510
100
AcDbEntity
  8
太線
100
AcDbCircle
 10
94.44645875977846
 20
86.43930390144641
 30
0.0
 40
0.5
100
AcDbArc
 50
90.0
 51
180.0
  0
LINE
  5
1528
330
1510
100
AcDbEntity
  8
太線
100
AcDbLine
 10
99.96449954387617
 20
81.93930390144641
 30
0.0
 11
99.96449954387617
 21
86.43930390144641
 31
0.0
  0
LINE
  5
1529
330
1510
100
AcDbEntity
  8
太線
100
AcDbLine
 10
101.4644995438761
 20
81.93930390144641
 30
0.0
 11
99.96449954387617
 21
81.93930390144641
 31
0.0
  0
ARC
  5
152A
330
1510
100
AcDbEntity
  8
太線
100
AcDbCircle
 10
101.4644995438761
 20
81.43930390144641
 30
0.0
 40
0.5
100
AcDbArc
 50
0.0
 51
90.0
  0
ARC
  5
152B
330
1510
100
AcDbEntity
  8
太線
100
AcDbCircle
 10
99.46449954387617
 20
86.43930390144641
 30
0.0
 40
0.5
100
AcDbArc
 50
0.0
 51
90.0
  0
LINE
  5
152C
330
1510
100
AcDbEntity
  8
極太線
100
AcDbLine
 10
96.94645875977847
 20
85.99813309011318
 30
0.0
 11
96.94645875977847
 21
84.88047471277964
 31
0.0
  0
ARC
  5
152D
330
1510
100
AcDbEntity
  8
太線
100
AcDbCircle
 10
112.4464587597784
 20
81.43930390144641
 30
0.0
 40
0.5
100
AcDbArc
 50
90.0
 51
180.0
  0
TEXT
  5
152E
330
1510
100
AcDbEntity
  8
文字
100
AcDbText
 10
134.3819212586066
 20
78.16263579228063
 30
0.0
 40
2.0
  1
101
 51
15.0
  7
OKANO
100
AcDbText
  0
TEXT
  5
152F
330
1510
100
AcDbEntity
  8
文字
100
AcDbText
 10
113.3422276612066
 20
77.96976862235396
 30
0.0
 40
2.0
  1
38-83
 51
15.0
  7
OKANO
100
AcDbText
  0
LINE
  5
1530
330
1510
100
AcDbEntity
  8
太線
100
AcDbLine
 10
141.9825403279738
 20
77.4393039014464
 30
0.0
 11
141.9825403279738
 21
81.43930390144641
 31
0.0
  0
LINE
  5
1531
330
1510
100
AcDbEntity
  8
太線
100
AcDbLine
 10
131.9644995438761
 20
81.43930390144641
 30
0.0
 11
131.9644995438761
 21
77.4393039014464
 31
0.0
  0
LINE
  5
1532
330
1510
100
AcDbEntity
  8
太線
100
AcDbLine
 10
121.9644995438761
 20
77.4393039014464
 30
0.0
 11
121.9644995438761
 21
81.43930390144641
 31
0.0
  0
ARC
  5
1533
330
1510
100
AcDbEntity
  8
太線
100
AcDbCircle
 10
121.4644995438761
 20
77.4393039014464
 30
0.0
 40
0.5
100
AcDbArc
 50
270.0
 51
0.0
  0
LINE
  5
1534
330
1510
100
AcDbEntity
  8
太線
100
AcDbLine
 10
132.4644995438761
 20
76.9393039014464
 30
0.0
 11
141.4825403279738
 21
76.9393039014464
 31
0.0
  0
ARC
  5
1535
330
1510
100
AcDbEntity
  8
太線
100
AcDbCircle
 10
132.4644995438761
 20
77.4393039014464
 30
0.0
 40
0.5
100
AcDbArc
 50
180.0
 51
270.0
  0
ARC
  5
1536
330
1510
100
AcDbEntity
  8
太線
100
AcDbCircle
 10
141.4825403279738
 20
77.4393039014464
 30
0.0
 40
0.5
100
AcDbArc
 50
270.0
 51
0.0
  0
ARC
  5
1537
330
1510
100
AcDbEntity
  8
太線
100
AcDbCircle
 10
121.4644995438761
 20
81.43930390144641
 30
0.0
 40
0.5
100
AcDbArc
 50
0.0
 51
90.0
  0
LINE
  5
1538
330
1510
100
AcDbEntity
  8
太線
100
AcDbLine
 10
119.9644995438761
 20
81.93930390144641
 30
0.0
 11
119.9644995438761
 21
86.43930390144641
 31
0.0
  0
LINE
  5
1539
330
1510
100
AcDbEntity
  8
太線
100
AcDbLine
 10
113.9464587597784
 20
86.43930390144641
 30
0.0
 11
113.9464587597784
 21
81.93930390144641
 31
0.0
  0
LINE
  5
153A
330
1510
100
AcDbEntity
  8
想像線
100
AcDbLine
 10
113.9464587597784
 20
81.93930390144641
 30
0.0
 11
119.9644995438761
 21
81.93930390144641
 31
0.0
  0
LINE
  5
153B
330
1510
100
AcDbEntity
  8
太線
100
AcDbLine
 10
121.4644995438761
 20
81.93930390144641
 30
0.0
 11
119.9644995438761
 21
81.93930390144641
 31
0.0
  0
LINE
  5
153C
330
1510
100
AcDbEntity
  8
太線
100
AcDbLine
 10
119.4644995438761
 20
86.93930390144641
 30
0.0
 11
114.4464587597784
 21
86.93930390144641
 31
0.0
  0
ARC
  5
153D
330
1510
100
AcDbEntity
  8
太線
100
AcDbCircle
 10
114.4464587597784
 20
86.43930390144641
 30
0.0
 40
0.5
100
AcDbArc
 50
90.0
 51
180.0
  0
CIRCLE
  5
153E
330
1510
100
AcDbEntity
  8
太線
100
AcDbCircle
 10
115.4464587597784
 20
85.43930390144641
 30
0.0
 40
0.5588291886667776
  0
LINE
  5
153F
330
1510
100
AcDbEntity
  8
極太線
100
AcDbLine
 10
115.4464587597784
 20
85.99813309011318
 30
0.0
 11
115.4464587597784
 21
84.88047471277964
 31
0.0
  0
LINE
  5
1540
330
1510
100
AcDbEntity
  8
極太線
100
AcDbLine
 10
114.8876295711116
 20
85.43930390144641
 30
0.0
 11
116.0052879484452
 21
85.43930390144641
 31
0.0
  0
ARC
  5
1541
330
1510
100
AcDbEntity
  8
太線
100
AcDbCircle
 10
119.4644995438761
 20
86.43930390144641
 30
0.0
 40
0.5
100
AcDbArc
 50
0.0
 51
90.0
  0
LINE
  5
1542
330
1510
100
AcDbEntity
  8
極太線
100
AcDbLine
 10
117.9056703552094
 20
85.43930390144641
 30
0.0
 11
119.0233287325429
 21
85.43930390144641
 31
0.0
  0
LINE
  5
1543
330
1510
100
AcDbEntity
  8
極太線
100
AcDbLine
 10
118.4644995438761
 20
85.99813309011318
 30
0.0
 11
118.4644995438761
 21
84.88047471277964
 31
0.0
  0
CIRCLE
  5
1544
330
1510
100
AcDbEntity
  8
太線
100
AcDbCircle
 10
118.4644995438761
 20
85.43930390144641
 30
0.0
 40
0.5588291886667776
  0
LINE
  5
1545
330
1510
100
AcDbEntity
  8
想像線
100
AcDbLine
 10
133.9644995438761
 20
81.93930390144641
 30
0.0
 11
139.9825403279738
 21
81.93930390144641
 31
0.0
  0
LINE
  5
1546
330
1510
100
AcDbEntity
  8
極太線
100
AcDbLine
 10
137.9237111393071
 20
85.43930390144641
 30
0.0
 11
139.0413695166406
 21
85.43930390144641
 31
0.0
  0
CIRCLE
  5
1547
330
1510
100
AcDbEntity
  8
太線
100
AcDbCircle
 10
138.4825403279738
 20
85.43930390144641
 30
0.0
 40
0.5588291886667776
  0
CIRCLE
  5
1548
330
1510
100
AcDbEntity
  8
太線
100
AcDbCircle
 10
138.4825403279738
 20
83.26342923362075
 30
0.0
 40
0.5588291886667776
  0
LINE
  5
1549
330
1510
100
AcDbEntity
  8
極太線
100
AcDbLine
 10
137.9237111393071
 20
83.26342923362075
 30
0.0
 11
139.0413695166406
 21
83.26342923362075
 31
0.0
  0
LINE
  5
154A
330
1510
100
AcDbEntity
  8
太線
100
AcDbLine
 10
139.4825403279738
 20
86.93930390144641
 30
0.0
 11
134.4644995438761
 21
86.93930390144641
 31
0.0
  0
LINE
  5
154B
330
1510
100
AcDbEntity
  8
太線
100
AcDbLine
 10
133.9644995438761
 20
86.43930390144641
 30
0.0
 11
133.9644995438761
 21
81.93930390144641
 31
0.0
  0
ARC
  5
154C
330
1510
100
AcDbEntity
  8
太線
100
AcDbCircle
 10
132.4644995438761
 20
81.43930390144641
 30
0.0
 40
0.5
100
AcDbArc
 50
90.0
 51
180.0
  0
LINE
  5
154D
330
1510
100
AcDbEntity
  8
太線
100
AcDbLine
 10
133.9644995438761
 20
81.93930390144641
 30
0.0
 11
132.4644995438761
 21
81.93930390144641
 31
0.0
  0
LINE
  5
154E
330
1510
100
AcDbEntity
  8
極太線
100
AcDbLine
 10
134.9056703552093
 20
83.26342923362075
 30
0.0
 11
136.0233287325429
 21
83.26342923362075
 31
0.0
  0
LINE
  5
154F
330
1510
100
AcDbEntity
  8
極太線
100
AcDbLine
 10
135.4644995438761
 20
83.82225842228752
 30
0.0
 11
135.4644995438761
 21
82.70460004495395
 31
0.0
  0
CIRCLE
  5
1550
330
1510
100
AcDbEntity
  8
太線
100
AcDbCircle
 10
135.4644995438761
 20
83.26342923362075
 30
0.0
 40
0.5588291886667776
  0
ARC
  5
1551
330
1510
100
AcDbEntity
  8
太線
100
AcDbCircle
 10
134.4644995438761
 20
86.43930390144641
 30
0.0
 40
0.5
100
AcDbArc
 50
90.0
 51
180.0
  0
CIRCLE
  5
1552
330
1510
100
AcDbEntity
  8
太線
100
AcDbCircle
 10
135.4644995438761
 20
85.43930390144641
 30
0.0
 40
0.5588291886667776
  0
LINE
  5
1553
330
1510
100
AcDbEntity
  8
極太線
100
AcDbLine
 10
135.4644995438761
 20
85.99813309011318
 30
0.0
 11
135.4644995438761
 21
84.88047471277964
 31
0.0
  0
LINE
  5
1554
330
1510
100
AcDbEntity
  8
極太線
100
AcDbLine
 10
134.9056703552093
 20
85.43930390144641
 30
0.0
 11
136.0233287325429
 21
85.43930390144641
 31
0.0
  0
LINE
  5
1555
330
1510
100
AcDbEntity
  8
太線
100
AcDbLine
 10
139.9825403279738
 20
81.93930390144641
 30
0.0
 11
139.9825403279738
 21
86.43930390144641
 31
0.0
  0
ARC
  5
1556
330
1510
100
AcDbEntity
  8
太線
100
AcDbCircle
 10
141.4825403279738
 20
81.43930390144641
 30
0.0
 40
0.5
100
AcDbArc
 50
0.0
 51
90.0
  0
LINE
  5
1557
330
1510
100
AcDbEntity
  8
極太線
100
AcDbLine
 10
138.4825403279738
 20
83.82225842228752
 30
0.0
 11
138.4825403279738
 21
82.70460004495395
 31
0.0
  0
LINE
  5
1558
330
1510
100
AcDbEntity
  8
太線
100
AcDbLine
 10
141.4825403279738
 20
81.93930390144641
 30
0.0
 11
139.9825403279738
 21
81.93930390144641
 31
0.0
  0
ARC
  5
1559
330
1510
100
AcDbEntity
  8
太線
100
AcDbCircle
 10
139.4825403279738
 20
86.43930390144641
 30
0.0
 40
0.5
100
AcDbArc
 50
0.0
 51
90.0
  0
LINE
  5
155A
330
1510
100
AcDbEntity
  8
極太線
100
AcDbLine
 10
138.4825403279738
 20
85.99813309011318
 30
0.0
 11
138.4825403279738
 21
84.88047471277964
 31
0.0
  0
ENDBLK
  5
155C
330
1510
100
AcDbEntity
  8
0
100
AcDbBlockEnd
  0
BLOCK
  5
3241
330
3237
100
AcDbEntity
  8
0
100
AcDbBlockBegin
  2
*D2
 70
     1
 10
0.0
 20
0.0
 30
0.0
  3
*D2
  1

  0
LINE
  5
3801
330
3237
100
AcDbEntity
  8
寸法線
 62
     0
370
    -2
100
AcDbLine
 10
132.0809162403323
 20
22.61646229550581
 30
0.0
 11
132.0809162403323
 21
36.45901819164828
 31
0.0
  0
LINE
  5
3802
330
3237
100
AcDbEntity
  8
寸法線
 62
     0
370
    -2
100
AcDbLine
 10
191.6706139841875
 20
22.61646229550581
 30
0.0
 11
191.6706139841875
 21
36.45901819164828
 31
0.0
  0
LINE
  5
3803
330
3237
100
AcDbEntity
  8
寸法線
 62
     0
370
    -2
100
AcDbLine
 10
135.0809162403323
 20
33.45901819164828
 30
0.0
 11
188.6706139841875
 21
33.45901819164828
 31
0.0
  0
INSERT
  5
3804
330
3237
100
AcDbEntity
  8
寸法線
 62
     0
370
    -2
100
AcDbBlockReference
  2
_Closed
 10
132.0809162403323
 20
33.45901819164828
 30
0.0
 41
3.0
 42
3.0
 43
3.0
 50
180.0
  0
INSERT
  5
3805
330
3237
100
AcDbEntity
  8
寸法線
 62
     0
370
    -2
100
AcDbBlockReference
  2
_Closed
 10
191.6706139841875
 20
33.45901819164828
 30
0.0
 41
3.0
 42
3.0
 43
3.0
  0
MTEXT
  5
3806
330
3237
100
AcDbEntity
  8
寸法線
 62
     0
100
AcDbMText
 10
161.8757651122599
 20
36.95901819164828
 30
0.0
 40
5.0
 41
0.0
 71
     5
 72
     1
  1
60
  7
OKANO
 73
     1
 44
1.0
  0
POINT
  5
3807
330
3237
100
AcDbEntity
  8
Defpoints
 62
     0
100
AcDbPoint
 10
132.0809162403323
 20
20.61646229550581
 30
0.0
  0
POINT
  5
3808
330
3237
100
AcDbEntity
  8
Defpoints
 62
     0
100
AcDbPoint
 10
191.6706139841875
 20
20.61646229550581
 30
0.0
  0
POINT
  5
3809
330
3237
100
AcDbEntity
  8
Defpoints
 62
     0
100
AcDbPoint
 10
191.6706139841875
 20
33.45901819164828
 30
0.0
  0
ENDBLK
  5
3242
330
3237
100
AcDbEntity
  8
0
100
AcDbBlockEnd
  0
BLOCK
  5
3325
330
331A
100
AcDbEntity
  8
0
100
AcDbBlockBegin
  2
*D3
 70
     1
 10
0.0
 20
0.0
 30
0.0
  3
*D3
  1

  0
LINE
  5
3327
330
331A
100
AcDbEntity
  8
寸法線
 62
     0
370
    -2
100
AcDbLine
 10
64.81403670416466
 20
183.105798027382
 30
0.0
 11
64.81403670416466
 21
199.2120456900526
 31
0.0
  0
LINE
  5
3328
330
331A
100
AcDbEntity
  8
寸法線
 62
     0
370
    -2
100
AcDbLine
 10
79.73585347775861
 20
182.5172428108736
 30
0.0
 11
79.73585347775861
 21
199.2120456900526
 31
0.0
  0
LINE
  5
3329
330
331A
100
AcDbEntity
  8
寸法線
 62
     0
370
    -2
100
AcDbLine
 10
67.81403670416466
 20
196.2120456900526
 30
0.0
 11
76.73585347775861
 21
196.2120456900526
 31
0.0
  0
INSERT
  5
332A
330
331A
100
AcDbEntity
  8
寸法線
 62
     0
370
    -2
100
AcDbBlockReference
  2
_Closed
 10
64.81403670416466
 20
196.2120456900526
 30
0.0
 41
3.0
 42
3.0
 43
3.0
 50
180.0
  0
INSERT
  5
332B
330
331A
100
AcDbEntity
  8
寸法線
 62
     0
370
    -2
100
AcDbBlockReference
  2
_Closed
 10
79.73585347775861
 20
196.2120456900526
 30
0.0
 41
3.0
 42
3.0
 43
3.0
  0
MTEXT
  5
332C
330
331A
100
AcDbEntity
  8
寸法線
 62
     0
100
AcDbMText
 10
72.27494509096164
 20
199.7125378160368
 30
0.0
 40
5.0
 41
0.0
 71
     5
 72
     1
  1
20
  7
OKANO
 73
     1
 44
1.0
  0
POINT
  5
332D
330
331A
100
AcDbEntity
  8
Defpoints
 62
     0
100
AcDbPoint
 10
64.81403670416466
 20
181.105798027382
 30
0.0
  0
POINT
  5
332E
330
331A
100
AcDbEntity
  8
Defpoints
 62
     0
100
AcDbPoint
 10
79.73585347775861
 20
180.5172428108736
 30
0.0
  0
POINT
  5
332F
330
331A
100
AcDbEntity
  8
Defpoints
 62
     0
100
AcDbPoint
 10
79.73585347775861
 20
196.2120456900526
 30
0.0
  0
ENDBLK
  5
3326
330
331A
100
AcDbEntity
  8
0
100
AcDbBlockEnd
  0
BLOCK
  5
333B
330
3331
100
AcDbEntity
  8
0
100
AcDbBlockBegin
  2
*D4
 70
     1
 10
0.0
 20
0.0
 30
0.0
  3
*D4
  1

  0
LINE
  5
333D
330
3331
100
AcDbEntity
  8
寸法線
 62
     0
370
    -2
100
AcDbLine
 10
62.26162108200901
 20
183.105798027382
 30
0.0
 11
62.26162108200901
 21
206.8632617680346
 31
0.0
  0
LINE
  5
333E
330
3331
100
AcDbEntity
  8
寸法線
 62
     0
370
    -2
100
AcDbLine
 10
82.6809483387276
 20
182.713427883043
 30
0.0
 11
82.6809483387276
 21
206.8632617680346
 31
0.0
  0
LINE
  5
333F
330
3331
100
AcDbEntity
  8
寸法線
 62
     0
370
    -2
100
AcDbLine
 10
65.26162108200901
 20
203.8632617680347
 30
0.0
 11
79.6809483387276
 21
203.8632617680347
 31
0.0
  0
INSERT
  5
3340
330
3331
100
AcDbEntity
  8
寸法線
 62
     0
370
    -2
100
AcDbBlockReference
  2
_Closed
 10
62.26162108200901
 20
203.8632617680347
 30
0.0
 41
3.0
 42
3.0
 43
3.0
 50
180.0
  0
INSERT
  5
3341
330
3331
100
AcDbEntity
  8
寸法線
 62
     0
370
    -2
100
AcDbBlockReference
  2
_Closed
 10
82.6809483387276
 20
203.8632617680347
 30
0.0
 41
3.0
 42
3.0
 43
3.0
  0
MTEXT
  5
3342
330
3331
100
AcDbEntity
  8
寸法線
 62
     0
100
AcDbMText
 10
72.4712847103683
 20
207.3637538940189
 30
0.0
 40
5.0
 41
0.0
 71
     5
 72
     1
  1
24
  7
OKANO
 73
     1
 44
1.0
  0
POINT
  5
3343
330
3331
100
AcDbEntity
  8
Defpoints
 62
     0
100
AcDbPoint
 10
62.26162108200901
 20
181.105798027382
 30
0.0
  0
POINT
  5
3344
330
3331
100
AcDbEntity
  8
Defpoints
 62
     0
100
AcDbPoint
 10
82.6809483387276
 20
180.7134278830431
 30
0.0
  0
POINT
  5
3345
330
3331
100
AcDbEntity
  8
Defpoints
 62
     0
100
AcDbPoint
 10
82.6809483387276
 20
203.8632617680347
 30
0.0
  0
ENDBLK
  5
333C
330
3331
100
AcDbEntity
  8
0
100
AcDbBlockEnd
  0
BLOCK
  5
335E
330
3354
100
AcDbEntity
  8
0
100
AcDbBlockBegin
  2
*D5
 70
     1
 10
0.0
 20
0.0
 30
0.0
  3
*D5
  1

  0
LINE
  5
35A5
330
3354
100
AcDbEntity
  8
寸法線
 62
     0
370
    -2
100
AcDbLine
 10
74.20151402540432
 20
180.4711488256961
 30
0.0
 11
95.49303938094658
 21
180.4711488256961
 31
0.0
  0
LINE
  5
35A6
330
3354
100
AcDbEntity
  8
寸法線
 62
     0
370
    -2
100
AcDbLine
 10
99.85151402540433
 20
210.1211488256961
 30
0.0
 11
89.49303938094658
 21
210.1211488256961
 31
0.0
  0
LINE
  5
35A7
330
3354
100
AcDbEntity
  8
寸法線
 62
     0
370
    -2
100
AcDbLine
 10
92.49303938094659
 20
183.4711488256961
 30
0.0
 11
92.49303938094659
 21
207.1211488256961
 31
0.0
  0
INSERT
  5
35A8
330
3354
100
AcDbEntity
  8
寸法線
 62
     0
370
    -2
100
AcDbBlockReference
  2
_Closed
 10
92.49303938094659
 20
180.4711488256961
 30
0.0
 41
3.0
 42
3.0
 43
3.0
 50
270.0
  0
INSERT
  5
35A9
330
3354
100
AcDbEntity
  8
寸法線
 62
     0
370
    -2
100
AcDbBlockReference
  2
_Closed
 10
92.49303938094659
 20
210.1211488256961
 30
0.0
 41
3.0
 42
3.0
 43
3.0
 50
90.0
  0
MTEXT
  5
35AA
330
3354
100
AcDbEntity
  8
寸法線
 62
     0
100
AcDbMText
 10
88.99303938094655
 20
195.2961488256962
 30
0.0
 40
5.0
 41
0.0
 71
     5
 72
     1
  1
30
  7
OKANO
 11
0.0000000000000001
 21
1.0
 31
0.0
 73
     1
 44
1.0
  0
POINT
  5
35AB
330
3354
100
AcDbEntity
  8
Defpoints
 62
     0
100
AcDbPoint
 10
72.20151402540432
 20
180.4711488256961
 30
0.0
  0
POINT
  5
35AC
330
3354
100
AcDbEntity
  8
Defpoints
 62
     0
100
AcDbPoint
 10
101.8515140254043
 20
210.1211488256961
 30
0.0
  0
POINT
  5
35AD
330
3354
100
AcDbEntity
  8
Defpoints
 62
     0
100
AcDbPoint
 10
92.49303938094659
 20
210.1211488256961
 30
0.0
  0
ENDBLK
  5
335F
330
3354
100
AcDbEntity
  8
0
100
AcDbBlockEnd
  0
BLOCK
  5
3390
330
3386
100
AcDbEntity
  8
0
100
AcDbBlockBegin
  2
*D6
 70
     1
 10
0.0
 20
0.0
 30
0.0
  3
*D6
  1

  0
LINE
  5
380A
330
3386
100
AcDbEntity
  8
寸法線
 62
     0
370
    -2
100
AcDbLine
 10
188.4939867106935
 20
23.53390979274058
 30
0.0
 11
214.9767567838279
 21
23.53390979274058
 31
0.0
  0
LINE
  5
380B
330
3386
100
AcDbEntity
  8
寸法線
 62
     0
370
    -2
100
AcDbLine
 10
188.4939867106935
 20
-35.76609020725948
 30
0.0
 11
214.9767567838279
 21
-35.76609020725948
 31
0.0
  0
LINE
  5
380C
330
3386
100
AcDbEntity
  8
寸法線
 62
     0
370
    -2
100
AcDbLine
 10
211.9767567838279
 20
20.53390979274058
 30
0.0
 11
211.9767567838279
 21
-32.76609020725949
 31
0.0
  0
INSERT
  5
380D
330
3386
100
AcDbEntity
  8
寸法線
 62
     0
370
    -2
100
AcDbBlockReference
  2
_Closed
 10
211.9767567838279
 20
23.53390979274058
 30
0.0
 41
3.0
 42
3.0
 43
3.0
 50
90.0
  0
INSERT
  5
380E
330
3386
100
AcDbEntity
  8
寸法線
 62
     0
370
    -2
100
AcDbBlockReference
  2
_Closed
 10
211.9767567838279
 20
-35.76609020725948
 30
0.0
 41
3.0
 42
3.0
 43
3.0
 50
270.0
  0
MTEXT
  5
380F
330
3386
100
AcDbEntity
  8
寸法線
 62
     0
100
AcDbMText
 10
208.4767567838279
 20
-6.116090207259416
 30
0.0
 40
5.0
 41
0.0
 71
     5
 72
     1
  1
60
  7
OKANO
 11
0.0000000000000001
 21
1.0
 31
0.0
 73
     1
 44
1.0
  0
POINT
  5
3810
330
3386
100
AcDbEntity
  8
Defpoints
 62
     0
100
AcDbPoint
 10
186.4939867106935
 20
23.53390979274058
 30
0.0
  0
POINT
  5
3811
330
3386
100
AcDbEntity
  8
Defpoints
 62
     0
100
AcDbPoint
 10
186.4939867106935
 20
-35.76609020725948
 30
0.0
  0
POINT
  5
3812
330
3386
100
AcDbEntity
  8
Defpoints
 62
     0
100
AcDbPoint
 10
211.9767567838279
 20
-35.76609020725948
 30
0.0
  0
ENDBLK
  5
3391
330
3386
100
AcDbEntity
  8
0
100
AcDbBlockEnd
  0
BLOCK
  5
33DF
330
33D4
100
AcDbEntity
  8
0
100
AcDbBlockBegin
  2
*D7
 70
     1
 10
0.0
 20
0.0
 30
0.0
  3
*D7
  1

  0
LINE
  5
386C
330
33D4
100
AcDbEntity
  8
寸法線
 62
     0
370
    -2
100
AcDbLine
 10
-2.296823222367038
 20
177.8036643073074
 30
0.0
 11
-2.296823222367041
 21
135.7135194612908
 31
0.0
  0
LINE
  5
386D
330
33D4
100
AcDbEntity
  8
寸法線
 62
     0
370
    -2
100
AcDbLine
 10
-12.89865092847935
 20
178.4657564364732
 30
0.0
 11
-12.89865092847936
 21
135.7135194612908
 31
0.0
  0
LINE
  5
386E
330
33D4
100
AcDbEntity
  8
寸法線
 62
     0
370
    -2
100
AcDbLine
 10
-5.296823222367041
 20
138.7135194612908
 30
0.0
 11
-9.898650928479357
 21
138.7135194612908
 31
0.0
  0
INSERT
  5
386F
330
33D4
100
AcDbEntity
  8
寸法線
 62
     0
370
    -2
100
AcDbBlockReference
  2
_Closed
 10
-2.296823222367041
 20
138.7135194612908
 30
0.0
 41
3.0
 42
3.0
 43
3.0
  0
INSERT
  5
3870
330
33D4
100
AcDbEntity
  8
寸法線
 62
     0
370
    -2
100
AcDbBlockReference
  2
_Closed
 10
-12.89865092847935
 20
138.7135194612908
 30
0.0
 41
3.0
 42
3.0
 43
3.0
 50
180.0
  0
MTEXT
  5
3871
330
33D4
100
AcDbEntity
  8
寸法線
 62
     0
100
AcDbMText
 10
-7.597737075423198
 20
142.2135194612908
 30
0.0
 40
5.0
 41
0.0
 71
     5
 72
     1
  1
10
  7
OKANO
 73
     1
 44
1.0
  0
POINT
  5
3872
330
33D4
100
AcDbEntity
  8
Defpoints
 62
     0
100
AcDbPoint
 10
-2.296823222367038
 20
179.8036643073074
 30
0.0
  0
POINT
  5
3873
330
33D4
100
AcDbEntity
  8
Defpoints
 62
     0
100
AcDbPoint
 10
-12.89865092847935
 20
180.4657564364732
 30
0.0
  0
POINT
  5
3874
330
33D4
100
AcDbEntity
  8
Defpoints
 62
     0
100
AcDbPoint
 10
-12.89865092847935
 20
138.7135194612908
 30
0.0
  0
ENDBLK
  5
33E0
330
33D4
100
AcDbEntity
  8
0
100
AcDbBlockEnd
  0
BLOCK
  5
33FB
330
33F0
100
AcDbEntity
  8
0
100
AcDbBlockBegin
  2
*D8
 70
     1
 10
0.0
 20
0.0
 30
0.0
  3
*D8
  1

  0
LINE
  5
3A00
330
33F0
100
AcDbEntity
  8
太線
 62
     0
370
    -2
100
AcDbLine
 10
1.541723882739916
 20
186.8300713330686
 30
0.0
 11
-41.09347334612425
 21
186.8300713330686
 31
0.0
  0
LINE
  5
3A01
330
33F0
100
AcDbEntity
  8
太線
 62
     0
370
    -2
100
AcDbLine
 10
1.159749052508914
 20
174.616522362319
 30
0.0
 11
-41.09347334612426
 21
174.616522362319
 31
0.0
  0
LINE
  5
3A02
330
33F0
100
AcDbEntity
  8
太線
 62
     0
370
    -2
100
AcDbLine
 10
-38.09347334612425
 20
183.8300713330686
 30
0.0
 11
-38.09347334612425
 21
177.616522362319
 31
0.0
  0
INSERT
  5
3A03
330
33F0
100
AcDbEntity
  8
太線
 62
     0
370
    -2
100
AcDbBlockReference
  2
_Closed
 10
-38.09347334612425
 20
186.8300713330686
 30
0.0
 41
3.0
 42
3.0
 43
3.0
 50
90.0
  0
INSERT
  5
3A04
330
33F0
100
AcDbEntity
  8
太線
 62
     0
370
    -2
100
AcDbBlockReference
  2
_Closed
 10
-38.09347334612426
 20
174.616522362319
 30
0.0
 41
3.0
 42
3.0
 43
3.0
 50
270.0
  0
MTEXT
  5
3A05
330
33F0
100
AcDbEntity
  8
太線
 62
     0
100
AcDbMText
 10
-41.59396547210853
 20
180.7232968476938
 30
0.0
 40
5.0
 41
0.0
 71
     5
 72
     1
  1
12
  7
OKANO
 11
0.0000000000000001
 21
1.0
 31
0.0
 73
     1
 44
1.0
  0
POINT
  5
3A06
330
33F0
100
AcDbEntity
  8
Defpoints
 62
     0
100
AcDbPoint
 10
3.541723882739916
 20
186.8300713330686
 30
0.0
  0
POINT
  5
3A07
330
33F0
100
AcDbEntity
  8
Defpoints
 62
     0
100
AcDbPoint
 10
3.159749052508914
 20
174.616522362319
 30
0.0
  0
POINT
  5
3A08
330
33F0
100
AcDbEntity
  8
Defpoints
 62
     0
100
AcDbPoint
 10
-38.09347334612426
 20
174.616522362319
 30
0.0
  0
ENDBLK
  5
33FC
330
33F0
100
AcDbEntity
  8
0
100
AcDbBlockEnd
  0
BLOCK
  5
3408
330
33FE
100
AcDbEntity
  8
0
100
AcDbBlockBegin
  2
*D9
 70
     1
 10
0.0
 20
0.0
 30
0.0
  3
*D9
  1

  0
LINE
  5
341C
330
33FE
100
AcDbEntity
  8
寸法線
 62
     0
370
    -2
100
AcDbLine
 10
-2.928620393995061
 20
182.871406571313
 30
0.0
 11
-2.92862039399506
 21
195.9788319720991
 31
0.0
  0
LINE
  5
341D
330
33FE
100
AcDbEntity
  8
寸法線
 62
     0
370
    -2
100
AcDbLine
 10
27.15489129049274
 20
182.4539091636609
 30
0.0
 11
27.15489129049274
 21
195.9788319720991
 31
0.0
  0
LINE
  5
341E
330
33FE
100
AcDbEntity
  8
寸法線
 62
     0
370
    -2
100
AcDbLine
 10
0.0713796060049399
 20
192.9788319720991
 30
0.0
 11
24.15489129049274
 21
192.9788319720991
 31
0.0
  0
INSERT
  5
341F
330
33FE
100
AcDbEntity
  8
寸法線
 62
     0
370
    -2
100
AcDbBlockReference
  2
_Closed
 10
-2.92862039399506
 20
192.9788319720991
 30
0.0
 41
3.0
 42
3.0
 43
3.0
 50
180.0
  0
INSERT
  5
3420
330
33FE
100
AcDbEntity
  8
寸法線
 62
     0
370
    -2
100
AcDbBlockReference
  2
_Closed
 10
27.15489129049274
 20
192.9788319720991
 30
0.0
 41
3.0
 42
3.0
 43
3.0
  0
MTEXT
  5
3421
330
33FE
100
AcDbEntity
  8
寸法線
 62
     0
100
AcDbMText
 10
12.11313544824884
 20
196.4788319720991
 30
0.0
 40
5.0
 41
0.0
 71
     5
 72
     1
  1
30
  7
OKANO
 73
     1
 44
1.0
  0
POINT
  5
3422
330
33FE
100
AcDbEntity
  8
Defpoints
 62
     0
100
AcDbPoint
 10
-2.928620393995061
 20
180.871406571313
 30
0.0
  0
POINT
  5
3423
330
33FE
100
AcDbEntity
  8
Defpoints
 62
     0
100
AcDbPoint
 10
27.15489129049274
 20
180.4539091636609
 30
0.0
  0
POINT
  5
3424
330
33FE
100
AcDbEntity
  8
Defpoints
 62
     0
100
AcDbPoint
 10
27.15489129049274
 20
192.9788319720991
 30
0.0
  0
ENDBLK
  5
3409
330
33FE
100
AcDbEntity
  8
0
100
AcDbBlockEnd
  0
BLOCK
  5
3442
330
343B
100
AcDbEntity
  8
0
100
AcDbBlockBegin
  2
*D10
 70
     1
 10
0.0
 20
0.0
 30
0.0
  3
*D10
  1

  0
LINE
  5
3444
330
343B
100
AcDbEntity
  8
寸法線
 62
     0
370
    -2
100
AcDbLine
 10
-40.1817171542133
 20
148.885936292848
 30
0.0
 11
-11.40177423466381
 21
164.7265966001043
 31
0.0
  0
MTEXT
  5
3445
330
343B
100
AcDbEntity
  8
寸法線
 62
     0
100
AcDbMText
 10
-38.08359380169942
 20
154.0358911757329
 30
0.0
 40
5.0
 41
0.0
 71
     5
 72
     1
  1
30
  7
OKANO
 11
0.876065583241521
 21
0.4821919678506618
 31
0.0
 73
     1
 44
1.0
  0
LINE
  5
3446
330
343B
100
AcDbEntity
  8
寸法線
 62
     0
370
    -2
100
AcDbLine
 10
17.203555692071
 20
180.4711488256961
 30
0.0
 11
-8.773577484939245
 21
166.1731725036563
 31
0.0
  0
INSERT
  5
3447
330
343B
100
AcDbEntity
  8
寸法線
 62
     0
370
    -2
100
AcDbBlockReference
  2
_Closed
 10
-8.773577484939245
 20
166.1731725036563
 30
0.0
 41
3.0
 42
3.0
 43
3.0
 50
28.82866101227928
  0
POINT
  5
3448
330
343B
100
AcDbEntity
  8
Defpoints
 62
     0
100
AcDbPoint
 10
-8.773577484939245
 20
166.1731725036563
 30
0.0
  0
POINT
  5
3449
330
343B
100
AcDbEntity
  8
Defpoints
 62
     0
100
AcDbPoint
 10
17.203555692071
 20
180.4711488256961
 30
0.0
  0
ENDBLK
  5
3443
330
343B
100
AcDbEntity
  8
0
100
AcDbBlockEnd
  0
BLOCK
  5
3478
330
346E
100
AcDbEntity
  8
0
100
AcDbBlockBegin
  2
*D11
 70
     1
 10
0.0
 20
0.0
 30
0.0
  3
*D11
  1

  0
LINE
  5
385A
330
346E
100
AcDbEntity
  8
寸法線
 62
     0
370
    -2
100
AcDbLine
 10
9.699389238587949
 20
-13.50716178985991
 30
0.0
 11
20.34756276437171
 21
-13.72550167636455
 31
0.0
  0
LINE
  5
385B
330
346E
100
AcDbEntity
  8
寸法線
 62
     0
370
    -2
100
AcDbLine
 10
9.494383187759304
 20
-23.50506019498099
 30
0.0
 11
20.14255671354307
 21
-23.72340008148563
 31
0.0
  0
LINE
  5
385C
330
346E
100
AcDbEntity
  8
寸法線
 62
     0
370
    -2
100
AcDbLine
 10
17.28669142758678
 20
-16.6633693826523
 30
0.0
 11
17.20468900725532
 21
-20.6625287447007
 31
0.0
  0
INSERT
  5
385D
330
346E
100
AcDbEntity
  8
寸法線
 62
     0
370
    -2
100
AcDbBlockReference
  2
_Closed
 10
17.34819324283537
 20
-13.66399986111596
 30
0.0
 41
3.0
 42
3.0
 43
3.0
 50
88.82531956005456
  0
INSERT
  5
385E
330
346E
100
AcDbEntity
  8
寸法線
 62
     0
370
    -2
100
AcDbBlockReference
  2
_Closed
 10
17.14318719200673
 20
-23.66189826623704
 30
0.0
 41
3.0
 42
3.0
 43
3.0
 50
268.8253195600545
  0
MTEXT
  5
385F
330
346E
100
AcDbEntity
  8
寸法線
 62
     0
100
AcDbMText
 10
13.74642577562866
 20
-18.59119694588648
 30
0.0
 40
5.0
 41
0.0
 71
     5
 72
     1
  1
13
  7
OKANO
 11
0.0205006050828647
 21
0.999789840512113
 31
0.0
 73
     1
 44
1.0
  0
POINT
  5
3860
330
346E
100
AcDbEntity
  8
Defpoints
 62
     0
100
AcDbPoint
 10
7.699809557563724
 20
-13.46616057969418
 30
0.0
  0
POINT
  5
3861
330
346E
100
AcDbEntity
  8
Defpoints
 62
     0
100
AcDbPoint
 10
7.494803506735079
 20
-23.46405898481526
 30
0.0
  0
POINT
  5
3862
330
346E
100
AcDbEntity
  8
Defpoints
 62
     0
100
AcDbPoint
 10
17.14318719200673
 20
-23.66189826623704
 30
0.0
  0
ENDBLK
  5
3479
330
346E
100
AcDbEntity
  8
0
100
AcDbBlockEnd
  0
BLOCK
  5
3526
330
3520
100
AcDbEntity
  8
0
100
AcDbBlockBegin
  2
*D12
 70
     1
 10
0.0
 20
0.0
 30
0.0
  3
*D12
  1

  0
LINE
  5
3764
330
3520
100
AcDbEntity
  8
寸法線
 62
     0
370
    -2
100
AcDbLine
 10
63.95899440637018
 20
50.56845090284746
 30
0.0
 11
93.8505382916731
 21
50.28464937193696
 31
0.0
  0
MTEXT
  5
3765
330
3520
100
AcDbEntity
  8
寸法線
 62
     0
100
AcDbMText
 10
77.43806276713982
 20
53.94063331837912
 30
0.0
 40
5.0
 41
0.0
 71
     5
 72
     1
  1
49.3～50
  7
OKANO
 11
0.9999549314673719
 21
-0.0094939472340701
 31
0.0
 73
     1
 44
1.0
  0
INSERT
  5
3766
330
3520
100
AcDbEntity
  8
寸法線
 62
     0
370
    -2
100
AcDbBlockReference
  2
_Closed
 10
96.85040308607522
 20
50.25616753023474
 30
0.0
 41
3.0
 42
3.0
 43
3.0
 50
359.4560287205475
  0
POINT
  5
3767
330
3520
100
AcDbEntity
  8
Defpoints
 62
     0
100
AcDbPoint
 10
96.85040308607522
 20
50.25616753023474
 30
0.0
  0
POINT
  5
3768
330
3520
100
AcDbEntity
  8
Defpoints
 62
     0
100
AcDbPoint
 10
47.55262496473377
 20
50.7242191288744
 30
0.0
  0
ENDBLK
  5
3527
330
3520
100
AcDbEntity
  8
0
100
AcDbBlockEnd
  0
BLOCK
  5
3534
330
3528
100
AcDbEntity
  8
0
100
AcDbBlockBegin
  2
*D13
 70
     1
 10
0.0
 20
0.0
 30
0.0
  3
*D13
  1

  0
LINE
  5
377F
330
3528
100
AcDbEntity
  8
寸法線
 62
     0
370
    -2
100
AcDbLine
 10
42.87305252471793
 20
52.99019332955459
 30
0.0
 11
58.61846306424826
 21
52.99019332955458
 31
0.0
  0
LINE
  5
3780
330
3528
100
AcDbEntity
  8
寸法線
 62
     0
370
    -2
100
AcDbLine
 10
42.87305252471793
 20
47.99019332955459
 30
0.0
 11
58.61846306424825
 21
47.99019332955458
 31
0.0
  0
LINE
  5
3781
330
3528
100
AcDbEntity
  8
寸法線
 62
     0
370
    -2
100
AcDbLine
 10
55.61846306424826
 20
55.99019332955458
 30
0.0
 11
55.61846306424826
 21
58.99019332955457
 31
0.0
  0
LINE
  5
3782
330
3528
100
AcDbEntity
  8
寸法線
 62
     0
370
    -2
100
AcDbLine
 10
55.61846306424826
 20
44.99019332955458
 30
0.0
 11
55.61846306424826
 21
41.99019332955457
 31
0.0
  0
LINE
  5
3783
330
3528
100
AcDbEntity
  8
寸法線
 62
     0
370
    -2
100
AcDbLine
 10
55.61846306424826
 20
52.99019332955458
 30
0.0
 11
55.61846306424826
 21
47.99019332955458
 31
0.0
  0
INSERT
  5
3784
330
3528
100
AcDbEntity
  8
寸法線
 62
     0
370
    -2
100
AcDbBlockReference
  2
_Closed
 10
55.61846306424826
 20
52.99019332955458
 30
0.0
 41
3.0
 42
3.0
 43
3.0
 50
270.0
  0
INSERT
  5
3785
330
3528
100
AcDbEntity
  8
寸法線
 62
     0
370
    -2
100
AcDbBlockReference
  2
_Closed
 10
55.61846306424826
 20
47.99019332955458
 30
0.0
 41
3.0
 42
3.0
 43
3.0
 50
90.0
  0
MTEXT
  5
3786
330
3528
100
AcDbEntity
  8
寸法線
 62
     0
100
AcDbMText
 10
52.11846306424824
 20
50.4901933295546
 30
0.0
 40
5.0
 41
0.0
 71
     5
 72
     1
  1
5
  7
OKANO
 11
0.0000000000000001
 21
1.0
 31
0.0
 73
     1
 44
1.0
  0
POINT
  5
3787
330
3528
100
AcDbEntity
  8
Defpoints
 62
     0
100
AcDbPoint
 10
40.87305252471793
 20
52.99019332955459
 30
0.0
  0
POINT
  5
3788
330
3528
100
AcDbEntity
  8
Defpoints
 62
     0
100
AcDbPoint
 10
40.87305252471793
 20
47.99019332955459
 30
0.0
  0
POINT
  5
3789
330
3528
100
AcDbEntity
  8
Defpoints
 62
     0
100
AcDbPoint
 10
55.61846306424826
 20
47.99019332955458
 30
0.0
  0
ENDBLK
  5
3535
330
3528
100
AcDbEntity
  8
0
100
AcDbBlockEnd
  0
BLOCK
  5
3542
330
3536
100
AcDbEntity
  8
0
100
AcDbBlockBegin
  2
*D14
 70
     1
 10
0.0
 20
0.0
 30
0.0
  3
*D14
  1

  0
LINE
  5
3769
330
3536
100
AcDbEntity
  8
寸法線
 62
     0
370
    -2
100
AcDbLine
 10
74.08299003925271
 20
21.32124002356658
 30
0.0
 11
102.7282501235687
 21
21.32124002356658
 31
0.0
  0
LINE
  5
376A
330
3536
100
AcDbEntity
  8
寸法線
 62
     0
370
    -2
100
AcDbLine
 10
74.08299003925271
 20
16.07627475042636
 30
0.0
 11
102.7282501235687
 21
16.07627475042635
 31
0.0
  0
LINE
  5
376B
330
3536
100
AcDbEntity
  8
寸法線
 62
     0
370
    -2
100
AcDbLine
 10
99.72825012356878
 20
24.32124002356658
 30
0.0
 11
99.72825012356878
 21
27.32124002356658
 31
0.0
  0
LINE
  5
376C
330
3536
100
AcDbEntity
  8
寸法線
 62
     0
370
    -2
100
AcDbLine
 10
99.72825012356878
 20
13.07627475042636
 30
0.0
 11
99.72825012356878
 21
10.07627475042636
 31
0.0
  0
LINE
  5
376D
330
3536
100
AcDbEntity
  8
寸法線
 62
     0
370
    -2
100
AcDbLine
 10
99.72825012356878
 20
21.32124002356658
 30
0.0
 11
99.72825012356878
 21
16.07627475042636
 31
0.0
  0
INSERT
  5
376E
330
3536
100
AcDbEntity
  8
寸法線
 62
     0
370
    -2
100
AcDbBlockReference
  2
_Closed
 10
99.72825012356878
 20
21.32124002356658
 30
0.0
 41
3.0
 42
3.0
 43
3.0
 50
270.0
  0
INSERT
  5
376F
330
3536
100
AcDbEntity
  8
寸法線
 62
     0
370
    -2
100
AcDbBlockReference
  2
_Closed
 10
99.72825012356878
 20
16.07627475042636
 30
0.0
 41
3.0
 42
3.0
 43
3.0
 50
90.0
  0
MTEXT
  5
3770
330
3536
100
AcDbEntity
  8
寸法線
 62
     0
100
AcDbMText
 10
96.22825012356878
 20
18.69875738699648
 30
0.0
 40
5.0
 41
0.0
 71
     5
 72
     1
  1
5
  7
OKANO
 11
0.0000000000000001
 21
1.0
 31
0.0
 73
     1
 44
1.0
  0
POINT
  5
3771
330
3536
100
AcDbEntity
  8
Defpoints
 62
     0
100
AcDbPoint
 10
72.08299003925271
 20
21.32124002356658
 30
0.0
  0
POINT
  5
3772
330
3536
100
AcDbEntity
  8
Defpoints
 62
     0
100
AcDbPoint
 10
72.08299003925271
 20
16.07627475042636
 30
0.0
  0
POINT
  5
3773
330
3536
100
AcDbEntity
  8
Defpoints
 62
     0
100
AcDbPoint
 10
99.72825012356878
 20
16.07627475042636
 30
0.0
  0
ENDBLK
  5
3543
330
3536
100
AcDbEntity
  8
0
100
AcDbBlockEnd
  0
BLOCK
  5
354A
330
3544
100
AcDbEntity
  8
0
100
AcDbBlockBegin
  2
*D15
 70
     1
 10
0.0
 20
0.0
 30
0.0
  3
*D15
  1

  0
LINE
  5
377A
330
3544
100
AcDbEntity
  8
寸法線
 62
     0
370
    -2
100
AcDbLine
 10
24.25710554272639
 20
27.07282610620221
 30
0.0
 11
40.0180943811218
 21
44.99019332955454
 31
0.0
  0
MTEXT
  5
377B
330
3544
100
AcDbEntity
  8
寸法線
 62
     0
100
AcDbMText
 10
24.66926082269555
 20
32.8405539634857
 30
0.0
 40
5.0
 41
0.0
 71
     5
 72
     1
  1
R3
  7
OKANO
 11
0.6604792292186579
 21
0.7508443166001375
 31
0.0
 73
     1
 44
1.0
  0
INSERT
  5
377C
330
3544
100
AcDbEntity
  8
寸法線
 62
     0
370
    -2
100
AcDbBlockReference
  2
_Closed
 10
41.99953206877778
 20
47.24272627935496
 30
0.0
 41
3.0
 42
3.0
 43
3.0
 50
48.66356821825669
  0
POINT
  5
377D
330
3544
100
AcDbEntity
  8
Defpoints
 62
     0
100
AcDbPoint
 10
41.99953206877778
 20
47.24272627935496
 30
0.0
  0
POINT
  5
377E
330
3544
100
AcDbEntity
  8
Defpoints
 62
     0
100
AcDbPoint
 10
40.01809438112183
 20
44.99019332955458
 30
0.0
  0
ENDBLK
  5
354B
330
3544
100
AcDbEntity
  8
0
100
AcDbBlockEnd
  0
BLOCK
  5
3553
330
354C
100
AcDbEntity
  8
0
100
AcDbBlockBegin
  2
*D16
 70
     1
 10
0.0
 20
0.0
 30
0.0
  3
*D16
  1

  0
LINE
  5
3774
330
354C
100
AcDbEntity
  8
寸法線
 62
     0
370
    -2
100
AcDbLine
 10
-22.72337470093148
 20
38.7876266406285
 30
0.0
 11
-14.41443579851328
 21
46.30632640997714
 31
0.0
  0
MTEXT
  5
3775
330
354C
100
AcDbEntity
  8
寸法線
 62
     0
100
AcDbMText
 10
-22.02951998832181
 20
44.13573252638934
 30
0.0
 40
5.0
 41
0.0
 71
     5
 72
     1
  1
R1
  7
OKANO
 11
0.741487455979445
 21
0.6709667298943597
 31
0.0
 73
     1
 44
1.0
  0
LINE
  5
3776
330
354C
100
AcDbEntity
  8
寸法線
 62
     0
370
    -2
100
AcDbLine
 10
-11.4484859745955
 20
48.99019332955458
 30
0.0
 11
-12.18997343057495
 21
48.31922659966022
 31
0.0
  0
INSERT
  5
3777
330
354C
100
AcDbEntity
  8
寸法線
 62
     0
370
    -2
100
AcDbBlockReference
  2
_Closed
 10
-12.18997343057495
 20
48.31922659966022
 30
0.0
 41
3.0
 42
3.0
 43
3.0
 50
42.14172139044168
  0
POINT
  5
3778
330
354C
100
AcDbEntity
  8
Defpoints
 62
     0
100
AcDbPoint
 10
-12.18997343057495
 20
48.31922659966022
 30
0.0
  0
POINT
  5
3779
330
354C
100
AcDbEntity
  8
Defpoints
 62
     0
100
AcDbPoint
 10
-11.4484859745955
 20
48.99019332955458
 30
0.0
  0
ENDBLK
  5
3554
330
354C
100
AcDbEntity
  8
0
100
AcDbBlockEnd
  0
BLOCK
  5
35C2
330
35B8
100
AcDbEntity
  8
0
100
AcDbBlockBegin
  2
*D17
 70
     1
 10
0.0
 20
0.0
 30
0.0
  3
*D17
  1

  0
LINE
  5
35C4
330
35B8
100
AcDbEntity
  8
寸法線
 62
     0
370
    -2
100
AcDbLine
 10
147.3316484448037
 20
182.871406571313
 30
0.0
 11
147.3316484448037
 21
195.9788319720991
 31
0.0
  0
LINE
  5
35C5
330
35B8
100
AcDbEntity
  8
寸法線
 62
     0
370
    -2
100
AcDbLine
 10
117.2481367603159
 20
182.4539091636609
 30
0.0
 11
117.2481367603159
 21
195.9788319720991
 31
0.0
  0
LINE
  5
35C6
330
35B8
100
AcDbEntity
  8
寸法線
 62
     0
370
    -2
100
AcDbLine
 10
144.3316484448037
 20
192.9788319720991
 30
0.0
 11
120.2481367603158
 21
192.9788319720991
 31
0.0
  0
INSERT
  5
35C7
330
35B8
100
AcDbEntity
  8
寸法線
 62
     0
370
    -2
100
AcDbBlockReference
  2
_Closed
 10
147.3316484448037
 20
192.9788319720991
 30
0.0
 41
3.0
 42
3.0
 43
3.0
  0
INSERT
  5
35C8
330
35B8
100
AcDbEntity
  8
寸法線
 62
     0
370
    -2
100
AcDbBlockReference
  2
_Closed
 10
117.2481367603159
 20
192.9788319720991
 30
0.0
 41
3.0
 42
3.0
 43
3.0
 50
180.0
  0
MTEXT
  5
35C9
330
35B8
100
AcDbEntity
  8
寸法線
 62
     0
100
AcDbMText
 10
132.2898926025598
 20
196.4788319720991
 30
0.0
 40
5.0
 41
0.0
 71
     5
 72
     1
  1
30
  7
OKANO
 73
     1
 44
1.0
  0
POINT
  5
35CA
330
35B8
100
AcDbEntity
  8
Defpoints
 62
     0
100
AcDbPoint
 10
147.3316484448037
 20
180.871406571313
 30
0.0
  0
POINT
  5
35CB
330
35B8
100
AcDbEntity
  8
Defpoints
 62
     0
100
AcDbPoint
 10
117.2481367603159
 20
180.4539091636609
 30
0.0
  0
POINT
  5
35CC
330
35B8
100
AcDbEntity
  8
Defpoints
 62
     0
100
AcDbPoint
 10
117.2481367603159
 20
192.9788319720991
 30
0.0
  0
ENDBLK
  5
35C3
330
35B8
100
AcDbEntity
  8
0
100
AcDbBlockEnd
  0
BLOCK
  5
361B
330
3611
100
AcDbEntity
  8
0
100
AcDbBlockBegin
  2
*D18
 70
     1
 10
0.0
 20
0.0
 30
0.0
  3
*D18
  1

  0
LINE
  5
3668
330
3611
100
AcDbEntity
  8
寸法線
 62
     0
370
    -2
100
AcDbLine
 10
-12.43461494299208
 20
183.2805837673586
 30
0.0
 11
-12.43461494299208
 21
227.000649176835
 31
0.0
  0
LINE
  5
3669
330
3611
100
AcDbEntity
  8
寸法線
 62
     0
370
    -2
100
AcDbLine
 10
42.45890126749872
 20
183.2805837673586
 30
0.0
 11
42.45890126749872
 21
227.000649176835
 31
0.0
  0
LINE
  5
366A
330
3611
100
AcDbEntity
  8
寸法線
 62
     0
370
    -2
100
AcDbLine
 10
-9.434614942992082
 20
224.000649176835
 30
0.0
 11
39.45890126749873
 21
224.000649176835
 31
0.0
  0
INSERT
  5
366B
330
3611
100
AcDbEntity
  8
寸法線
 62
     0
370
    -2
100
AcDbBlockReference
  2
_Closed
 10
-12.43461494299208
 20
224.000649176835
 30
0.0
 41
3.0
 42
3.0
 43
3.0
 50
180.0
  0
INSERT
  5
366C
330
3611
100
AcDbEntity
  8
寸法線
 62
     0
370
    -2
100
AcDbBlockReference
  2
_Closed
 10
42.45890126749872
 20
224.000649176835
 30
0.0
 41
3.0
 42
3.0
 43
3.0
  0
MTEXT
  5
366D
330
3611
100
AcDbEntity
  8
寸法線
 62
     0
100
AcDbMText
 10
15.01214316225332
 20
227.500649176835
 30
0.0
 40
5.0
 41
0.0
 71
     5
 72
     1
  1
55
  7
OKANO
 73
     1
 44
1.0
  0
POINT
  5
366E
330
3611
100
AcDbEntity
  8
Defpoints
 62
     0
100
AcDbPoint
 10
-12.43461494299208
 20
181.2805837673586
 30
0.0
  0
POINT
  5
366F
330
3611
100
AcDbEntity
  8
Defpoints
 62
     0
100
AcDbPoint
 10
42.45890126749872
 20
181.2805837673586
 30
0.0
  0
POINT
  5
3670
330
3611
100
AcDbEntity
  8
Defpoints
 62
     0
100
AcDbPoint
 10
42.45890126749872
 20
224.000649176835
 30
0.0
  0
ENDBLK
  5
361C
330
3611
100
AcDbEntity
  8
0
100
AcDbBlockEnd
  0
BLOCK
  5
3628
330
361E
100
AcDbEntity
  8
0
100
AcDbBlockBegin
  2
*D19
 70
     1
 10
0.0
 20
0.0
 30
0.0
  3
*D19
  1

  0
LINE
  5
3671
330
361E
100
AcDbEntity
  8
寸法線
 62
     0
370
    -2
100
AcDbLine
 10
42.45890126749872
 20
183.2805837673586
 30
0.0
 11
42.45890126749872
 21
227.000649176835
 31
0.0
  0
LINE
  5
3672
330
361E
100
AcDbEntity
  8
寸法線
 62
     0
370
    -2
100
AcDbLine
 10
101.7304287824611
 20
211.8727539027738
 30
0.0
 11
101.7304287824611
 21
227.000649176835
 31
0.0
  0
LINE
  5
3673
330
361E
100
AcDbEntity
  8
寸法線
 62
     0
370
    -2
100
AcDbLine
 10
45.45890126749873
 20
224.000649176835
 30
0.0
 11
98.7304287824611
 21
224.000649176835
 31
0.0
  0
INSERT
  5
3674
330
361E
100
AcDbEntity
  8
寸法線
 62
     0
370
    -2
100
AcDbBlockReference
  2
_Closed
 10
42.45890126749872
 20
224.000649176835
 30
0.0
 41
3.0
 42
3.0
 43
3.0
 50
180.0
  0
INSERT
  5
3675
330
361E
100
AcDbEntity
  8
寸法線
 62
     0
370
    -2
100
AcDbBlockReference
  2
_Closed
 10
101.7304287824611
 20
224.000649176835
 30
0.0
 41
3.0
 42
3.0
 43
3.0
  0
MTEXT
  5
3676
330
361E
100
AcDbEntity
  8
寸法線
 62
     0
100
AcDbMText
 10
72.09466502497992
 20
227.500649176835
 30
0.0
 40
5.0
 41
0.0
 71
     5
 72
     1
  1
60
  7
OKANO
 73
     1
 44
1.0
  0
POINT
  5
3677
330
361E
100
AcDbEntity
  8
Defpoints
 62
     0
100
AcDbPoint
 10
42.45890126749872
 20
181.2805837673586
 30
0.0
  0
POINT
  5
3678
330
361E
100
AcDbEntity
  8
Defpoints
 62
     0
100
AcDbPoint
 10
101.7304287824611
 20
209.8727539027738
 30
0.0
  0
POINT
  5
3679
330
361E
100
AcDbEntity
  8
Defpoints
 62
     0
100
AcDbPoint
 10
101.7304287824611
 20
224.000649176835
 30
0.0
  0
ENDBLK
  5
3629
330
361E
100
AcDbEntity
  8
0
100
AcDbBlockEnd
  0
BLOCK
  5
3635
330
362B
100
AcDbEntity
  8
0
100
AcDbBlockBegin
  2
*D20
 70
     1
 10
0.0
 20
0.0
 30
0.0
  3
*D20
  1

  0
LINE
  5
367A
330
362B
100
AcDbEntity
  8
寸法線
 62
     0
370
    -2
100
AcDbLine
 10
101.7304287824611
 20
211.8727539027738
 30
0.0
 11
101.7304287824611
 21
227.000649176835
 31
0.0
  0
LINE
  5
367B
330
362B
100
AcDbEntity
  8
寸法線
 62
     0
370
    -2
100
AcDbLine
 10
156.2871747718272
 20
184.2897195202061
 30
0.0
 11
156.2871747718272
 21
227.000649176835
 31
0.0
  0
LINE
  5
367C
330
362B
100
AcDbEntity
  8
寸法線
 62
     0
370
    -2
100
AcDbLine
 10
104.7304287824611
 20
224.000649176835
 30
0.0
 11
153.2871747718272
 21
224.000649176835
 31
0.0
  0
INSERT
  5
367D
330
362B
100
AcDbEntity
  8
寸法線
 62
     0
370
    -2
100
AcDbBlockReference
  2
_Closed
 10
101.7304287824611
 20
224.000649176835
 30
0.0
 41
3.0
 42
3.0
 43
3.0
 50
180.0
  0
INSERT
  5
367E
330
362B
100
AcDbEntity
  8
寸法線
 62
     0
370
    -2
100
AcDbBlockReference
  2
_Closed
 10
156.2871747718272
 20
224.000649176835
 30
0.0
 41
3.0
 42
3.0
 43
3.0
  0
MTEXT
  5
367F
330
362B
100
AcDbEntity
  8
寸法線
 62
     0
100
AcDbMText
 10
129.0088017771441
 20
227.500649176835
 30
0.0
 40
5.0
 41
0.0
 71
     5
 72
     1
  1
55
  7
OKANO
 73
     1
 44
1.0
  0
POINT
  5
3680
330
362B
100
AcDbEntity
  8
Defpoints
 62
     0
100
AcDbPoint
 10
101.7304287824611
 20
209.8727539027738
 30
0.0
  0
POINT
  5
3681
330
362B
100
AcDbEntity
  8
Defpoints
 62
     0
100
AcDbPoint
 10
156.2871747718272
 20
182.2897195202061
 30
0.0
  0
POINT
  5
3682
330
362B
100
AcDbEntity
  8
Defpoints
 62
     0
100
AcDbPoint
 10
156.2871747718272
 20
224.000649176835
 30
0.0
  0
ENDBLK
  5
3636
330
362B
100
AcDbEntity
  8
0
100
AcDbBlockEnd
  0
BLOCK
  5
38C7
330
38BB
100
AcDbEntity
  8
0
100
AcDbBlockBegin
  2
*D21
 70
     1
 10
0.0
 20
0.0
 30
0.0
  3
*D21
  1

  0
LINE
  5
38BC
330
38BB
100
AcDbEntity
  8
寸法線
 62
     0
370
    -2
100
AcDbLine
 10
231.8479894305562
 20
194.7961488256961
 30
0.0
 11
231.8479894305563
 21
209.5130296454962
 31
0.0
  0
LINE
  5
38BD
330
38BB
100
AcDbEntity
  8
寸法線
 62
     0
370
    -2
100
AcDbLine
 10
219.4421755213441
 20
187.6336488256961
 30
0.0
 11
206.6969828669292
 21
194.9920892355962
 31
0.0
  0
ARC
  5
38BE
330
38BB
100
AcDbEntity
  8
寸法線
 62
     0
370
    -2
100
AcDbCircle
 10
231.8479894305561
 20
180.4711488256961
 30
0.0
 40
26.04188081980014
100
AcDbArc
 50
96.60407468911856
 51
143.395925310881
  0
INSERT
  5
38BF
330
38BB
100
AcDbEntity
  8
寸法線
 62
     0
370
    -2
100
AcDbBlockReference
  2
_Closed
 10
231.8479894305563
 20
206.5130296454963
 30
0.0
 41
3.0
 42
3.0
 43
3.0
 50
3.302037344559118
  0
INSERT
  5
38C0
330
38BB
100
AcDbEntity
  8
寸法線
 62
     0
370
    -2
100
AcDbBlockReference
  2
_Closed
 10
209.2950590782825
 20
193.4920892355962
 30
0.0
 41
3.0
 42
3.0
 43
3.0
 50
236.6979626554404
  0
MTEXT
  5
38C1
330
38BB
100
AcDbEntity
  8
寸法線
 62
     0
100
AcDbMText
 10
217.0770490206562
 20
206.0551680912153
 30
0.0
 40
5.0
 41
0.0
 71
     5
 72
     1
  1
60°
  7
OKANO
 11
0.8660254037844383
 21
0.5000000000000009
 31
0.0
 73
     1
 44
1.0
  0
POINT
  5
38C2
330
38BB
100
AcDbEntity
  8
Defpoints
 62
     0
100
AcDbPoint
 10
222.9411416200982
 20
204.9425120634484
 30
0.0
  0
POINT
  5
38C3
330
38BB
100
AcDbEntity
  8
Defpoints
 62
     0
100
AcDbPoint
 10
231.8479894305561
 20
180.4711488256961
 30
0.0
  0
POINT
  5
38C4
330
38BB
100
AcDbEntity
  8
Defpoints
 62
     0
100
AcDbPoint
 10
231.8479894305562
 20
192.7961488256961
 30
0.0
  0
POINT
  5
38C5
330
38BB
100
AcDbEntity
  8
Defpoints
 62
     0
100
AcDbPoint
 10
231.8479894305561
 20
180.4711488256961
 30
0.0
  0
POINT
  5
38C6
330
38BB
100
AcDbEntity
  8
Defpoints
 62
     0
100
AcDbPoint
 10
221.174226328913
 20
186.6336488256961
 30
0.0
  0
ENDBLK
  5
38C8
330
38BB
100
AcDbEntity
  8
0
100
AcDbBlockEnd
  0
BLOCK
  5
38D9
330
38CD
100
AcDbEntity
  8
0
100
AcDbBlockBegin
  2
*D22
 70
     1
 10
0.0
 20
0.0
 30
0.0
  3
*D22
  1

  0
LINE
  5
38CE
330
38CD
100
AcDbEntity
  8
寸法線
 62
     0
370
    -2
100
AcDbLine
 10
334.831513413272
 20
194.7961488256962
 30
0.0
 11
334.831513413272
 21
211.7669130257995
 31
0.0
  0
LINE
  5
38CF
330
38CD
100
AcDbEntity
  8
寸法線
 62
     0
370
    -2
100
AcDbLine
 10
322.42569950406
 20
173.3086488256959
 30
0.0
 11
307.7285865851351
 21
164.8232667256441
 31
0.0
  0
ARC
  5
38D0
330
38CD
100
AcDbEntity
  8
寸法線
 62
     0
370
    -2
100
AcDbCircle
 10
334.831513413272
 20
180.4711488256961
 30
0.0
 40
28.2957642001034
100
AcDbArc
 50
96.07751556216006
 51
203.9224844378405
  0
INSERT
  5
38D1
330
38CD
100
AcDbEntity
  8
寸法線
 62
     0
370
    -2
100
AcDbBlockReference
  2
_Closed
 10
334.831513413272
 20
208.7669130257995
 30
0.0
 41
3.0
 42
3.0
 43
3.0
 50
3.038757781079993
  0
INSERT
  5
38D2
330
38CD
100
AcDbEntity
  8
寸法線
 62
     0
370
    -2
100
AcDbBlockReference
  2
_Closed
 10
310.3266627964884
 20
166.3232667256441
 30
0.0
 41
3.0
 42
3.0
 43
3.0
 50
296.9612422189206
  0
MTEXT
  5
38D3
330
38CD
100
AcDbEntity
  8
寸法線
 62
     0
100
AcDbMText
 10
307.2951476896384
 20
196.3692769887398
 30
0.0
 40
5.0
 41
0.0
 71
     5
 72
     1
  1
120°
  7
OKANO
 11
0.4999999999999961
 21
0.8660254037844408
 31
0.0
 73
     1
 44
1.0
  0
POINT
  5
38D4
330
38CD
100
AcDbEntity
  8
Defpoints
 62
     0
100
AcDbPoint
 10
316.6433467788335
 20
202.1469617549902
 30
0.0
  0
POINT
  5
38D5
330
38CD
100
AcDbEntity
  8
Defpoints
 62
     0
100
AcDbPoint
 10
324.1577503116289
 20
174.3086488256959
 30
0.0
  0
POINT
  5
38D6
330
38CD
100
AcDbEntity
  8
Defpoints
 62
     0
100
AcDbPoint
 10
334.831513413272
 20
180.4711488256961
 30
0.0
  0
POINT
  5
38D7
330
38CD
100
AcDbEntity
  8
Defpoints
 62
     0
100
AcDbPoint
 10
334.831513413272
 20
192.7961488256961
 30
0.0
  0
POINT
  5
38D8
330
38CD
100
AcDbEntity
  8
Defpoints
 62
     0
100
AcDbPoint
 10
334.831513413272
 20
180.4711488256961
 30
0.0
  0
ENDBLK
  5
38DA
330
38CD
100
AcDbEntity
  8
0
100
AcDbBlockEnd
  0
ENDSEC
  0
SECTION
  2
ENTITIES
  0
XLINE
  5
22CA
330
1F
100
AcDbEntity
  8
構築線
370
     5
100
AcDbXline
 10
72.20151402540432
 20
178.0193172078315
 30
0.0
 11
0.0
 21
-1.0
 31
0.0
  0
TEXT
  5
29C2
330
1F
100
AcDbEntity
  8
文字
100
AcDbText
 10
286.9529300103223
 20
-27.5357956164375
 30
0.0
 40
4.799999999999999
  1
joint kogyo T.okano
 51
15.0
  7
OKANO
100
AcDbText
  0
TEXT
  5
29C3
330
1F
100
AcDbEntity
  8
文字
100
AcDbText
 10
279.4646169985255
 20
-12.78342410914972
 30
0.0
 40
4.799999999999999
  1
F-999-20120223 Auto CAD
 51
15.0
  7
OKANO
100
AcDbText
  0
LINE
  5
29C4
330
1F
100
AcDbEntity
  8
太線
100
AcDbLine
 10
252.0423888169116
 20
-13.70423175958007
 30
0.0
 11
360.0423888169116
 21
-13.70423175958007
 31
0.0
  0
LWPOLYLINE
  5
29C5
330
1F
100
AcDbEntity
  8
太線
100
AcDbPolyline
 90
        4
 70
     1
 43
0.0
 10
252.0423888169116
 20
-5.30423175958008
 10
360.0423888169116
 20
-5.30423175958008
 10
360.0423888169116
 20
-30.50423175958008
 10
252.0423888169116
 20
-30.50423175958008
  0
TEXT
  5
29C6
330
1F
100
AcDbEntity
  8
文字
100
AcDbText
 10
255.9147723829691
 20
-21.89774355843076
 30
0.0
 40
2.399999999999999
  1
CHECK
 51
15.0
  7
OKANO
100
AcDbText
  0
LINE
  5
29C7
330
1F
100
AcDbEntity
  8
太線
100
AcDbLine
 10
276.0423888169116
 20
-5.30423175958008
 30
0.0
 11
276.0423888169116
 21
-30.50423175958008
 31
0.0
  0
TEXT
  5
29C8
330
1F
100
AcDbEntity
  8
文字
100
AcDbText
 10
255.9147723829691
 20
-28.81717116464658
 30
0.0
 40
2.399999999999999
  1
ISSUED
 51
15.0
  7
OKANO
100
AcDbText
  0
TEXT
  5
29C9
330
1F
100
AcDbEntity
  8
文字
100
AcDbText
 10
256.1712868158698
 20
-25.48559497537844
 30
0.0
 40
2.399999999999999
  1
APPR
 51
15.0
  7
OKANO
100
AcDbText
  0
TEXT
  5
29CA
330
1F
100
AcDbEntity
  8
文字
100
AcDbText
 10
254.1191768312834
 20
-11.90301558081491
 30
0.0
 40
2.399999999999999
  1
FILM NAME
 51
15.0
  7
OKANO
100
AcDbText
  0
TEXT
  5
29CB
330
1F
100
AcDbEntity
  8
文字
100
AcDbText
 10
255.4017457086154
 20
-18.30989273167172
 30
0.0
 40
2.399999999999999
  1
DRAWN
 51
15.0
  7
OKANO
100
AcDbText
  0
XLINE
  5
2DB6
330
1F
100
AcDbEntity
  8
構築線
100
AcDbXline
 10
72.20151402540432
 20
180.4711488256961
 30
0.0
 11
1.0
 21
0.0
 31
0.0
  0
XLINE
  5
2DB7
330
1F
100
AcDbEntity
  8
構築線
370
     5
100
AcDbXline
 10
4921.501514025404
 20
178.0193172078315
 30
0.0
 11
0.0
 21
-1.0
 31
0.0
  0
XLINE
  5
2DB8
330
1F
100
AcDbEntity
  8
構築線
370
     5
100
AcDbXline
 10
-4777.098485974596
 20
178.0193172078315
 30
0.0
 11
0.0
 21
-1.0
 31
0.0
  0
LINE
  5
2DFC
330
1F
100
AcDbEntity
  8
破線
100
AcDbLine
 10
101.8515140254043
 20
205.1211488256961
 30
0.0
 11
101.8515140254043
 21
203.1211488256961
 31
0.0
  0
LINE
  5
2E01
330
1F
100
AcDbEntity
  8
破線
100
AcDbLine
 10
101.8515140254043
 20
155.8211488256961
 30
0.0
 11
101.8515140254043
 21
157.8211488256961
 31
0.0
  0
LINE
  5
2E05
330
1F
100
AcDbEntity
  8
破線
100
AcDbLine
 10
101.8515140254043
 20
203.1211488256961
 30
0.0
 11
101.8515140254043
 21
157.8211488256961
 31
0.0
  0
LINE
  5
2E4D
330
1F
100
AcDbEntity
  8
太線
100
AcDbLine
 10
132.1939867106935
 20
-6.116090207259446
 30
0.0
 11
132.1939867106935
 21
21.53390979274055
 31
0.0
  0
LINE
  5
2E4F
330
1F
100
AcDbEntity
  8
太線
100
AcDbLine
 10
191.4939867106934
 20
21.53390979274058
 30
0.0
 11
191.4939867106935
 21
-6.116090207259446
 31
0.0
  0
LINE
  5
2E50
330
1F
100
AcDbEntity
  8
太線
100
AcDbLine
 10
132.1939867106935
 20
-6.116090207259446
 30
0.0
 11
132.1939867106935
 21
-33.76609020725942
 31
0.0
  0
LINE
  5
2E52
330
1F
100
AcDbEntity
  8
太線
100
AcDbLine
 10
191.4939867106935
 20
-33.76609020725948
 30
0.0
 11
191.4939867106935
 21
-6.116090207259446
 31
0.0
  0
LINE
  5
2E53
330
1F
100
AcDbEntity
  8
太線
100
AcDbLine
 10
134.1939867106935
 20
23.53390979274056
 30
0.0
 11
189.4939867106934
 21
23.53390979274058
 31
0.0
  0
LINE
  5
2E8F
330
1F
100
AcDbEntity
  8
細線
100
AcDbLine
 10
127.5304964794307
 20
-1.298737391756333
 30
0.0
 11
137.622695740008
 21
-1.538802395313297
 31
0.0
  0
LINE
  5
2E90
330
1F
100
AcDbEntity
  8
細線
100
AcDbLine
 10
127.6852333960065
 20
-0.3021352722464599
 30
0.0
 11
137.8321405412877
 21
-0.5435016223381695
 31
0.0
  0
LINE
  5
2E91
330
1F
100
AcDbEntity
  8
細線
100
AcDbLine
 10
127.3402528204126
 20
-9.296475031251844
 30
0.0
 11
137.4324520809899
 21
-9.536540034808808
 31
0.0
  0
LINE
  5
2E92
330
1F
100
AcDbEntity
  8
細線
100
AcDbLine
 10
127.4474288222338
 20
-10.29930732161585
 30
0.0
 11
137.5943359675151
 21
-10.54067367170756
 31
0.0
  0
ARC
  5
2E93
330
1F
100
AcDbEntity
  8
太線
100
AcDbCircle
 10
161.8439867106935
 20
-6.116090207259446
 30
0.0
 40
34.65
100
AcDbArc
 50
166.1367294756544
 51
191.137973934145
  0
LINE
  5
2E94
330
1F
100
AcDbEntity
  8
太線
100
AcDbLine
 10
132.1939867106935
 20
-14.76980717771158
 30
0.0
 11
127.8466246353378
 21
-12.809510253631
 31
0.0
  0
LINE
  5
2E95
330
1F
100
AcDbEntity
  8
太線
100
AcDbLine
 10
132.1939867106935
 20
3.761918846286022
 30
0.0
 11
128.2033314959968
 21
2.186247820423091
 31
0.0
  0
LINE
  5
2EA0
330
1F
100
AcDbEntity
  8
破線
100
AcDbLine
 10
137.1939867106935
 20
-6.116090207259446
 30
0.0
 11
137.1939867106935
 21
-33.76609020725945
 31
0.0
  0
LINE
  5
2EA2
330
1F
100
AcDbEntity
  8
破線
100
AcDbLine
 10
186.4939867106935
 20
-33.76609020725945
 30
0.0
 11
186.4939867106935
 21
-6.116090207259446
 31
0.0
  0
XLINE
  5
2EA8
330
1F
100
AcDbEntity
  8
構築線
100
AcDbXline
 10
32.65221632861516
 20
50.49019332955459
 30
0.0
 11
1.0
 21
0.0
 31
0.0
  0
ARC
  5
2F18
330
1F
100
AcDbEntity
  8
太線
100
AcDbCircle
 10
134.1939867106935
 20
21.53390979274055
 30
0.0
 40
2.0
100
AcDbArc
 50
90.0
 51
180.0
  0
ARC
  5
2F19
330
1F
100
AcDbEntity
  8
太線
100
AcDbCircle
 10
189.4939867106934
 20
21.53390979274058
 30
0.0
 40
2.0
100
AcDbArc
 50
0.0000000000001018
 51
90.0
  0
CIRCLE
  5
309E
330
1F
100
AcDbEntity
  8
太線
100
AcDbCircle
 10
72.20151402540432
 20
180.4711488256961
 30
0.0
 40
3.999999999999994
  0
CIRCLE
  5
309F
330
1F
100
AcDbEntity
  8
太線
100
AcDbCircle
 10
72.20151402540432
 20
180.4711488256961
 30
0.0
 40
4.999999999999998
  0
CIRCLE
  5
30A0
330
1F
100
AcDbEntity
  8
太線
100
AcDbCircle
 10
72.20151402540432
 20
180.4711488256961
 30
0.0
 40
10.0
  0
CIRCLE
  5
30A1
330
1F
100
AcDbEntity
  8
太線
100
AcDbCircle
 10
72.20151402540432
 20
180.4711488256961
 30
0.0
 40
7.513741701180227
  0
LINE
  5
30A9
330
1F
100
AcDbEntity
  8
構築線
100
AcDbLine
 10
217.2344772961612
 20
150.8211488256961
 30
0.0
 11
276.5344772961613
 21
150.8211488256961
 31
0.0
  0
LINE
  5
30AA
330
1F
100
AcDbEntity
  8
文字
100
AcDbLine
 10
134.1939867106935
 20
-35.76609020725942
 30
0.0
 11
189.4939867106935
 21
-35.76609020725948
 31
0.0
  0
LINE
  5
30AB
330
1F
100
AcDbEntity
  8
文字
100
AcDbLine
 10
134.1939867106935
 20
23.53390979274056
 30
0.0
 11
189.4939867106934
 21
23.53390979274056
 31
0.0
  0
LINE
  5
30AC
330
1F
100
AcDbEntity
  8
破線
100
AcDbLine
 10
186.4939867106935
 20
23.53390979274056
 30
0.0
 11
186.4939867106935
 21
-6.116090207259446
 31
0.0
  0
LINE
  5
30AD
330
1F
100
AcDbEntity
  8
破線
100
AcDbLine
 10
137.1939867106935
 20
23.53390979274056
 30
0.0
 11
137.1939867106935
 21
-6.116090207259446
 31
0.0
  0
LINE
  5
30AE
330
1F
100
AcDbEntity
  8
破線
100
AcDbLine
 10
137.1939867106935
 20
-33.76609020725945
 30
0.0
 11
137.1939867106935
 21
-35.76609020725945
 31
0.0
  0
LINE
  5
30AF
330
1F
100
AcDbEntity
  8
破線
100
AcDbLine
 10
186.4939867106935
 20
-33.76609020725945
 30
0.0
 11
186.4939867106935
 21
-35.76609020725945
 31
0.0
  0
ARC
  5
30B0
330
1F
100
AcDbEntity
  8
太線
100
AcDbCircle
 10
134.1939867106935
 20
-33.76609020725942
 30
0.0
 40
2.0
100
AcDbArc
 50
180.0
 51
270.0
  0
ARC
  5
30B1
330
1F
100
AcDbEntity
  8
太線
100
AcDbCircle
 10
189.4939867106935
 20
-33.76609020725948
 30
0.0
 40
2.0
100
AcDbArc
 50
270.0
 51
0.0
  0
LINE
  5
30B2
330
1F
100
AcDbEntity
  8
破線
100
AcDbLine
 10
96.85151402540434
 20
210.1211488256961
 30
0.0
 11
96.85151402540434
 21
150.8211488256961
 31
0.0
  0
LINE
  5
30B3
330
1F
100
AcDbEntity
  8
破線
100
AcDbLine
 10
47.55151402540432
 20
210.1211488256961
 30
0.0
 11
47.55151402540432
 21
150.8211488256961
 31
0.0
  0
DIMENSION
  5
3236
330
1F
100
AcDbEntity
  8
寸法線
100
AcDbDimension
  2
*D2
 10
191.6706139841875
 20
33.45901819164828
 30
0.0
 11
161.8757651122599
 21
36.95901819164828
 31
0.0
 70
    32
  1
60
 71
     5
 42
59.58969774385517
  3
sunpo
100
AcDbAlignedDimension
 13
132.0809162403323
 23
20.61646229550581
 33
0.0
 14
191.6706139841875
 24
20.61646229550581
 34
0.0
100
AcDbRotatedDimension
1001
ACAD
1000
DSTYLE
1002
{
1070
    40
1040
1.0
1002
}
  0
ARC
  5
32DC
330
1F
100
AcDbEntity
  8
太線
100
AcDbCircle
 10
17.20355569207098
 20
180.4711488256961
 30
0.0
 40
29.6520416666667
100
AcDbArc
 50
90.67236522039566
 51
270.6723652203957
  0
LINE
  5
32DE
330
1F
100
AcDbEntity
  8
太線
100
AcDbLine
 10
42.55151402540432
 20
210.1211488256961
 30
0.0
 11
42.55151402540432
 21
150.8211488256961
 31
0.0
  0
LINE
  5
32DF
330
1F
100
AcDbEntity
  8
太線
100
AcDbLine
 10
42.55151402540432
 20
150.8211488256961
 30
0.0
 11
17.55151402540432
 21
150.8211488256961
 31
0.0
  0
LINE
  5
32E1
330
1F
100
AcDbEntity
  8
太線
100
AcDbLine
 10
101.8515140254043
 20
150.8211488256961
 30
0.0
 11
101.8515140254043
 21
210.1211488256961
 31
0.0
  0
LINE
  5
32E2
330
1F
100
AcDbEntity
  8
太線
100
AcDbLine
 10
16.85559735873771
 20
210.1211488256962
 30
0.0
 11
101.8515140254043
 21
210.1211488256961
 31
0.0
  0
LINE
  5
32E3
330
1F
100
AcDbEntity
  8
太線
100
AcDbLine
 10
42.55151402540432
 20
150.8211488256961
 30
0.0
 11
101.8515140254043
 21
150.8211488256961
 31
0.0
  0
ARC
  5
32E4
330
1F
100
AcDbEntity
  8
太線
100
AcDbCircle
 10
3.551514025404306
 20
180.4711488256961
 30
0.0
 40
5.999999999999971
100
AcDbArc
 50
89.99999999999984
 51
270.0000000000001
  0
ARC
  5
32E5
330
1F
100
AcDbEntity
  8
太線
100
AcDbCircle
 10
21.55151402540432
 20
180.4711488256961
 30
0.0
 40
6.000000000000056
100
AcDbArc
 50
270.0
 51
90.0
  0
LINE
  5
32E6
330
1F
100
AcDbEntity
  8
太線
100
AcDbLine
 10
21.55151402540432
 20
186.4711488256961
 30
0.0
 11
3.551514025404323
 21
186.4711488256961
 31
0.0
  0
LINE
  5
32E7
330
1F
100
AcDbEntity
  8
太線
100
AcDbLine
 10
3.551514025404323
 20
174.4711488256961
 30
0.0
 11
21.55151402540432
 21
174.471148825696
 31
0.0
  0
LINE
  5
32EA
330
1F
100
AcDbEntity
  8
想像線
100
AcDbLine
 10
164.3439867106935
 20
23.53390979274056
 30
0.0
 11
164.3439867106935
 21
-35.76609020725945
 31
0.0
  0
LINE
  5
32EB
330
1F
100
AcDbEntity
  8
想像線
100
AcDbLine
 10
159.3439867106935
 20
23.53390979274056
 30
0.0
 11
159.3439867106935
 21
-35.76609020725945
 31
0.0
  0
LINE
  5
32EC
330
1F
100
AcDbEntity
  8
想像線
100
AcDbLine
 10
164.3439867106935
 20
-0.1160902072594467
 30
0.0
 11
159.3439867106935
 21
-0.1160902072594467
 31
0.0
  0
LINE
  5
32ED
330
1F
100
AcDbEntity
  8
想像線
100
AcDbLine
 10
164.3439867106935
 20
-12.11609020725944
 30
0.0
 11
159.3439867106935
 21
-12.11609020725944
 31
0.0
  0
DIMENSION
  5
3319
330
1F
100
AcDbEntity
  8
寸法線
100
AcDbDimension
  2
*D3
 10
79.73585347775861
 20
196.2120456900526
 30
0.0
 11
72.27494509096164
 21
199.7125378160368
 31
0.0
 70
    32
  1
20
 71
     5
 42
14.92181677359394
  3
sunpo
100
AcDbAlignedDimension
 13
64.81403670416466
 23
181.105798027382
 33
0.0
 14
79.73585347775861
 24
180.5172428108736
 34
0.0
100
AcDbRotatedDimension
1001
ACAD
1000
DSTYLE
1002
{
1070
    40
1040
1.0
1002
}
  0
DIMENSION
  5
3330
330
1F
100
AcDbEntity
  8
寸法線
100
AcDbDimension
  2
*D4
 10
82.6809483387276
 20
203.8632617680347
 30
0.0
 11
72.4712847103683
 21
207.3637538940189
 31
0.0
 70
    32
  1
24
 71
     5
 42
20.41932725671859
  3
sunpo
100
AcDbAlignedDimension
 13
62.26162108200901
 23
181.105798027382
 33
0.0
 14
82.6809483387276
 24
180.7134278830431
 34
0.0
100
AcDbRotatedDimension
1001
ACAD
1000
DSTYLE
1002
{
1070
    40
1040
1.0
1002
}
  0
DIMENSION
  5
3353
330
1F
100
AcDbEntity
  8
寸法線
100
AcDbDimension
  2
*D5
 10
92.49303938094659
 20
210.1211488256961
 30
0.0
 11
88.99303938094655
 21
195.2961488256962
 31
0.0
 70
    32
  1
30
 71
     5
 42
29.65
  3
sunpo
100
AcDbAlignedDimension
 13
72.20151402540432
 23
180.4711488256961
 33
0.0
 14
101.8515140254043
 24
210.1211488256961
 34
0.0
 50
90.0
100
AcDbRotatedDimension
1001
ACAD
1000
DSTYLE
1002
{
1070
    40
1040
1.0
1002
}
  0
DIMENSION
  5
3385
330
1F
100
AcDbEntity
  8
寸法線
100
AcDbDimension
  2
*D6
 10
211.9767567838279
 20
-35.76609020725948
 30
0.0
 11
208.4767567838279
 21
-6.116090207259416
 31
0.0
 70
    32
  1
60
 71
     5
 42
59.30000000000006
  3
sunpo
100
AcDbAlignedDimension
 13
186.4939867106935
 23
23.53390979274058
 33
0.0
 14
186.4939867106935
 24
-35.76609020725948
 34
0.0
 50
90.0
100
AcDbRotatedDimension
1001
ACAD
1000
DSTYLE
1002
{
1070
    40
1040
1.0
1002
}
  0
DIMENSION
  5
33D3
330
1F
100
AcDbEntity
  8
寸法線
100
AcDbDimension
  2
*D7
 10
-12.89865092847935
 20
138.7135194612908
 30
0.0
 11
-7.597737075423198
 21
142.2135194612908
 31
0.0
 70
    32
  1
10
 71
     5
 42
10.60182770611231
  3
sunpo
100
AcDbAlignedDimension
 13
-2.296823222367038
 23
179.8036643073074
 33
0.0
 14
-12.89865092847935
 24
180.4657564364732
 34
0.0
100
AcDbRotatedDimension
1001
ACAD
1000
DSTYLE
1002
{
1070
    40
1040
1.0
1002
}
  0
DIMENSION
  5
33EF
330
1F
100
AcDbEntity
  8
太線
100
AcDbDimension
  2
*D8
 10
-38.09347334612426
 20
174.616522362319
 30
0.0
 11
-41.59396547210853
 21
180.7232968476938
 31
0.0
 70
    32
  1
12
 71
     5
 42
12.21354897074957
  3
sunpo
100
AcDbAlignedDimension
 13
3.541723882739916
 23
186.8300713330686
 33
0.0
 14
3.159749052508914
 24
174.616522362319
 34
0.0
 50
90.0
100
AcDbRotatedDimension
1001
ACAD
1000
DSTYLE
1002
{
1070
    40
1040
1.0
1002
}
  0
DIMENSION
  5
33FD
330
1F
100
AcDbEntity
  8
寸法線
100
AcDbDimension
  2
*D9
 10
27.15489129049274
 20
192.9788319720991
 30
0.0
 11
12.11313544824884
 21
196.4788319720991
 31
0.0
 70
    32
  1
30
 71
     5
 42
30.0835116844878
  3
sunpo
100
AcDbAlignedDimension
 13
-2.928620393995061
 23
180.871406571313
 33
0.0
 14
27.15489129049274
 24
180.4539091636609
 34
0.0
100
AcDbRotatedDimension
1001
ACAD
1000
DSTYLE
1002
{
1070
    40
1040
1.0
1002
}
  0
DIMENSION
  5
343A
330
1F
100
AcDbEntity
  8
寸法線
100
AcDbDimension
  2
*D10
 10
17.203555692071
 20
180.4711488256961
 30
0.0
 11
-36.3959219142221
 21
150.9696616343876
 31
0.0
 70
   164
  1
30
 71
     5
 42
29.65204166666669
  3
sunpo
100
AcDbRadialDimension
 15
-8.773577484939245
 25
166.1731725036563
 35
0.0
 40
0.0
1001
ACAD
1000
DSTYLE
1002
{
1070
    40
1040
1.0
1070
   288
1070
     1
1002
}
  0
LEADER
  5
3451
330
1F
100
AcDbEntity
  8
寸法線
100
AcDbLeader
  3
sunpo
 76
     2
 10
3.852424401215415
 20
-2.560262476235834
 30
0.0
 10
23.20289605932234
 20
5.020426077954539
 30
0.0
1001
ACAD
1000
DSTYLE
1002
{
1070
   147
1040
1.0
1070
    77
1070
     0
1002
}
  0
TEXT
  5
3452
330
1F
100
AcDbEntity
  8
文字
100
AcDbText
 10
5.466831980877117
 20
7.294632644211674
 30
0.0
 40
4.799999999999999
  1
8mm六角レンチ仕様
 51
15.0
  7
OKANO
100
AcDbText
  0
DIMENSION
  5
3453
330
1F
100
AcDbEntity
  8
寸法線
100
AcDbDimension
  2
*D11
 10
17.14318719200673
 20
-23.66189826623704
 30
0.0
 11
13.74642577562866
 21
-18.59119694588648
 31
0.0
 70
    33
  1
13
 71
     5
 42
9.999999999999946
  3
sunpo
100
AcDbAlignedDimension
 13
7.699809557563725
 23
-13.46616057969419
 33
0.0
 14
7.494803506735081
 24
-23.46405898481526
 34
0.0
1001
ACAD
1000
DSTYLE
1002
{
1070
    40
1040
1.0
1002
}
  0
LINE
  5
3454
330
1F
100
AcDbEntity
  8
破線
100
AcDbLine
 10
7.699809557563725
 20
-13.46616057969419
 30
0.0
 11
7.515304111817982
 21
-22.46426914430315
 31
0.0
  0
LINE
  5
3455
330
1F
100
AcDbEntity
  8
太線
100
AcDbLine
 10
8.515093952330062
 20
-22.48476974938609
 30
0.0
 11
8.699599398075861
 21
-13.486661184777
 31
0.0
  0
LINE
  5
3456
330
1F
100
AcDbEntity
  8
太線
100
AcDbLine
 10
-1.298299007045244
 20
-13.28165513394833
 30
0.0
 11
-1.482804452791071
 21
-22.27976369855747
 31
0.0
  0
LINE
  5
3457
330
1F
100
AcDbEntity
  8
破線
100
AcDbLine
 10
-0.2985091665331367
 20
-13.30215573903126
 30
0.0
 11
-0.4830146122789643
 21
-22.30026430364023
 31
0.0
  0
LINE
  5
3458
330
1F
100
AcDbEntity
  8
破線
100
AcDbLine
 10
0.5167752282331719
 20
-22.3207649087231
 30
0.0
 11
0.7012806739789994
 21
-13.32265634411413
 31
0.0
  0
LINE
  5
3459
330
1F
100
AcDbEntity
  8
破線
100
AcDbLine
 10
6.515514271305818
 20
-22.44376853922034
 30
0.0
 11
6.700019717051617
 21
-13.44565997461131
 31
0.0
  0
LINE
  5
345A
330
1F
100
AcDbEntity
  8
破線
100
AcDbLine
 10
-1.482804452791071
 20
-22.27976369855747
 30
0.0
 11
8.515093952330062
 21
-22.48476974938609
 31
0.0
  0
LINE
  5
345C
330
1F
100
AcDbEntity
  8
破線
100
AcDbLine
 10
-0.5035152173618087
 20
-23.30005414415239
 30
0.0
 11
0.5167752282331719
 21
-22.3207649087231
 31
0.0
  0
LINE
  5
345D
330
1F
100
AcDbEntity
  8
太線
100
AcDbLine
 10
-1.482804452791071
 20
-22.27976369855747
 30
0.0
 11
-0.5035152173618087
 21
-23.30005414415239
 31
0.0
  0
LINE
  5
345E
330
1F
100
AcDbEntity
  8
太線
100
AcDbLine
 10
7.494803506735081
 20
-23.46405898481526
 30
0.0
 11
8.515093952330062
 21
-22.48476974938609
 31
0.0
  0
LINE
  5
345F
330
1F
100
AcDbEntity
  8
破線
100
AcDbLine
 10
7.494803506735081
 20
-23.46405898481526
 30
0.0
 11
6.515514271305818
 21
-22.44376853922034
 31
0.0
  0
LINE
  5
3461
330
1F
100
AcDbEntity
  8
太線
100
AcDbLine
 10
8.699599398075861
 20
-13.486661184777
 30
0.0
 11
-1.298299007045244
 21
-13.28165513394833
 31
0.0
  0
LWPOLYLINE
  5
3462
330
1F
100
AcDbEntity
  8
太線
100
AcDbPolyline
 90
        6
 70
     1
 43
0.0
 10
6.905025767880289
 20
-3.447761569490126
 10
5.458603141496269
 20
-0.8194804608786512
 10
2.459233619959974
 20
-0.7579786456299758
 10
0.9062867248076145
 20
-3.324757938993002
 10
2.352709351191634
 20
-5.953039047604477
 10
5.352078872727986
 20
-6.014540862853095
  0
CIRCLE
  5
3463
330
1F
100
AcDbEntity
  8
太線
100
AcDbCircle
 10
3.905656246343937
 20
-3.386259754241621
 30
0.0
 40
3.999999999999994
  0
CIRCLE
  5
3464
330
1F
100
AcDbEntity
  8
太線
100
AcDbCircle
 10
3.905656246343937
 20
-3.386259754241621
 30
0.0
 40
4.999999999999998
  0
XLINE
  5
3488
330
1F
100
AcDbEntity
  8
構築線
100
AcDbXline
 10
128.2415242377076
 20
92.95999247616203
 30
0.0
 11
1.0
 21
0.0
 31
0.0
  0
ARC
  5
348D
330
1F
100
AcDbEntity
  8
太線
100
AcDbCircle
 10
158.2214947171331
 20
95.70999247616205
 30
0.0
 40
1.5
100
AcDbArc
 50
270.0
 51
350.3020976189441
  0
ARC
  5
348E
330
1F
100
AcDbEntity
  8
太線
100
AcDbCircle
 10
158.2214947171331
 20
90.20999247616204
 30
0.0
 40
1.5
100
AcDbArc
 50
9.697902381056037
 51
90.0
  0
ARC
  5
3490
330
1F
100
AcDbEntity
  8
太線
100
AcDbCircle
 10
174.3132045392744
 20
92.95999247616203
 30
0.0
 40
14.825
100
AcDbArc
 50
189.6979023810559
 51
80.30209761894411
  0
LINE
  5
3491
330
1F
100
AcDbEntity
  8
太線
100
AcDbLine
 10
132.9882045392744
 20
94.20999247616204
 30
0.0
 11
158.2214947171331
 21
94.20999247616203
 31
0.0
  0
LINE
  5
3492
330
1F
100
AcDbEntity
  8
太線
100
AcDbLine
 10
158.2214947171331
 20
91.70999247616204
 30
0.0
 11
132.4882045392744
 21
91.70999247616204
 31
0.0
  0
ARC
  5
3493
330
1F
100
AcDbEntity
  8
太線
100
AcDbCircle
 10
132.4882045392744
 20
93.70999247616204
 30
0.0
 40
0.5
100
AcDbArc
 50
90.0
 51
180.0
  0
ARC
  5
3494
330
1F
100
AcDbEntity
  8
太線
100
AcDbCircle
 10
132.4882045392744
 20
92.20999247616203
 30
0.0
 40
0.5
100
AcDbArc
 50
180.0000000000001
 51
270.0
  0
LINE
  5
3495
330
1F
100
AcDbEntity
  8
太線
100
AcDbLine
 10
131.9882045392744
 20
92.20999247616203
 30
0.0
 11
131.9882045392744
 21
93.20999247616205
 31
0.0
  0
LINE
  5
3496
330
1F
100
AcDbEntity
  8
太線
100
AcDbLine
 10
131.9882045392744
 20
92.95999247616204
 30
0.0
 11
131.9882045392744
 21
93.70999247616204
 31
0.0
  0
LINE
  5
3497
330
1F
100
AcDbEntity
  8
想像線
100
AcDbLine
 10
136.9882045392744
 20
94.20999247616204
 30
0.0
 11
136.9882045392744
 21
91.70999247616204
 31
0.0
  0
LINE
  5
3498
330
1F
100
AcDbEntity
  8
太線
100
AcDbLine
 10
132.4882045392744
 20
94.20999247616204
 30
0.0
 11
132.9882045392744
 21
94.20999247616204
 31
0.0
  0
LINE
  5
349A
330
1F
100
AcDbEntity
  8
想像線
100
AcDbLine
 10
151.9882045392744
 20
92.95999247616204
 30
0.0
 11
151.9882045392744
 21
91.70999247616204
 31
0.0
  0
LINE
  5
349B
330
1F
100
AcDbEntity
  8
想像線
100
AcDbLine
 10
151.9882045392744
 20
94.20999247616204
 30
0.0
 11
151.9882045392744
 21
92.95999247616204
 31
0.0
  0
CIRCLE
  5
349D
330
1F
100
AcDbEntity
  8
太線
100
AcDbCircle
 10
174.3132045392744
 20
92.95999247616203
 30
0.0
 40
12.325
  0
LINE
  5
34F3
330
1F
100
AcDbEntity
  8
太線
100
AcDbLine
 10
175.5632045392744
 20
109.0517022983033
 30
0.0
 11
175.5632045392744
 21
134.784992476162
 31
0.0
  0
LINE
  5
34F4
330
1F
100
AcDbEntity
  8
太線
100
AcDbLine
 10
173.0632045392744
 20
134.284992476162
 30
0.0
 11
173.0632045392744
 21
109.0517022983033
 31
0.0
  0
LINE
  5
34F5
330
1F
100
AcDbEntity
  8
太線
100
AcDbLine
 10
175.0632045392744
 20
135.284992476162
 30
0.0
 11
174.0632045392744
 21
135.284992476162
 31
0.0
  0
ARC
  5
34F6
330
1F
100
AcDbEntity
  8
太線
100
AcDbCircle
 10
175.0632045392744
 20
134.784992476162
 30
0.0
 40
0.5
100
AcDbArc
 50
0.0
 51
89.99999999999992
  0
LINE
  5
34F7
330
1F
100
AcDbEntity
  8
太線
100
AcDbLine
 10
173.0632045392744
 20
134.784992476162
 30
0.0
 11
173.0632045392744
 21
134.284992476162
 31
0.0
  0
LINE
  5
34F8
330
1F
100
AcDbEntity
  8
太線
100
AcDbLine
 10
174.3132045392744
 20
135.284992476162
 30
0.0
 11
173.5632045392744
 21
135.284992476162
 31
0.0
  0
ARC
  5
34F9
330
1F
100
AcDbEntity
  8
太線
100
AcDbCircle
 10
173.5632045392744
 20
134.784992476162
 30
0.0
 40
0.5
100
AcDbArc
 50
90.00000000000003
 51
180.0
  0
LINE
  5
34FA
330
1F
100
AcDbEntity
  8
想像線
100
AcDbLine
 10
173.0632045392744
 20
130.284992476162
 30
0.0
 11
175.5632045392744
 21
130.284992476162
 31
0.0
  0
LINE
  5
34FB
330
1F
100
AcDbEntity
  8
想像線
100
AcDbLine
 10
174.3132045392744
 20
115.284992476162
 30
0.0
 11
175.5632045392744
 21
115.284992476162
 31
0.0
  0
LINE
  5
34FC
330
1F
100
AcDbEntity
  8
想像線
100
AcDbLine
 10
173.0632045392744
 20
115.284992476162
 30
0.0
 11
174.3132045392744
 21
115.284992476162
 31
0.0
  0
ARC
  5
34FD
330
1F
100
AcDbEntity
  8
太線
100
AcDbCircle
 10
177.0632045392744
 20
109.0517022983033
 30
0.0
 40
1.5
100
AcDbArc
 50
180.0
 51
260.302097618944
  0
ARC
  5
34FE
330
1F
100
AcDbEntity
  8
太線
100
AcDbCircle
 10
171.5632045392744
 20
109.0517022983033
 30
0.0
 40
1.5
100
AcDbArc
 50
279.6979023810558
 51
0.0
  0
XLINE
  5
34FF
330
1F
100
AcDbEntity
  8
構築線
100
AcDbXline
 10
71.49890190262727
 20
-98.3201866155041
 30
0.0
 11
1.0
 21
0.0
 31
0.0
  0
ARC
  5
3500
330
1F
100
AcDbEntity
  8
太線
100
AcDbCircle
 10
40.01809438112181
 20
55.99019332955458
 30
0.0
 40
3.0
100
AcDbArc
 50
270.0
 51
350.3020976189441
  0
ARC
  5
3501
330
1F
100
AcDbEntity
  8
太線
100
AcDbCircle
 10
40.01809438112181
 20
44.99019332955458
 30
0.0
 40
3.0
100
AcDbArc
 50
9.697902381056037
 51
90.0
  0
DIMENSION
  5
3502
330
1F
100
AcDbEntity
  8
寸法線
100
AcDbDimension
  2
*D13
 10
55.61846306424826
 20
47.99019332955458
 30
0.0
 11
52.11846306424824
 21
50.4901933295546
 31
0.0
 70
    32
 71
     5
 42
5.0
  3
sunpo
100
AcDbAlignedDimension
 13
40.87305252471793
 23
52.99019332955459
 33
0.0
 14
40.87305252471793
 24
47.99019332955459
 34
0.0
 50
90.0
100
AcDbRotatedDimension
1001
ACAD
1000
DSTYLE
1002
{
1070
    40
1040
1.0
1002
}
  0
ARC
  5
3503
330
1F
100
AcDbEntity
  8
太線
100
AcDbCircle
 10
72.20151402540449
 20
50.49019332955456
 30
0.0
 40
29.65
100
AcDbArc
 50
189.6979023810559
 51
350.302097618944
  0
LINE
  5
3504
330
1F
100
AcDbEntity
  8
太線
100
AcDbLine
 10
-10.4484859745955
 20
52.99019332955459
 30
0.0
 11
40.01809438112181
 21
52.99019332955457
 31
0.0
  0
LINE
  5
3505
330
1F
100
AcDbEntity
  8
太線
100
AcDbLine
 10
40.01809438112181
 20
47.99019332955459
 30
0.0
 11
-11.44848597459549
 21
47.99019332955459
 31
0.0
  0
DIMENSION
  5
3506
330
1F
100
AcDbEntity
  8
寸法線
100
AcDbDimension
  2
*D16
 10
-11.4484859745955
 20
48.99019332955458
 30
0.0
 11
-22.02951998832181
 21
44.13573252638934
 31
0.0
 70
    36
 71
     5
 42
1.000000000000003
  3
sunpo
100
AcDbRadialDimension
 15
-12.18997343057495
 25
48.31922659966022
 35
0.0
 40
0.0
1001
ACAD
1000
DSTYLE
1002
{
1070
    40
1040
1.0
1070
   288
1070
     1
1002
}
  0
ARC
  5
3507
330
1F
100
AcDbEntity
  8
太線
100
AcDbCircle
 10
-11.44848597459551
 20
51.99019332955458
 30
0.0
 40
1.0
100
AcDbArc
 50
90.0
 51
180.0
  0
ARC
  5
3508
330
1F
100
AcDbEntity
  8
太線
100
AcDbCircle
 10
-11.44848597459549
 20
48.99019332955458
 30
0.0
 40
1.0
100
AcDbArc
 50
180.0000000000001
 51
270.0
  0
LINE
  5
3509
330
1F
100
AcDbEntity
  8
太線
100
AcDbLine
 10
-12.4484859745955
 20
48.99019332955458
 30
0.0
 11
-12.4484859745955
 21
50.99019332955458
 31
0.0
  0
LINE
  5
350A
330
1F
100
AcDbEntity
  8
太線
100
AcDbLine
 10
-12.44848597459551
 20
50.49019332955459
 30
0.0
 11
-12.44848597459551
 21
51.99019332955458
 31
0.0
  0
LINE
  5
350B
330
1F
100
AcDbEntity
  8
想像線
100
AcDbLine
 10
-2.448485974595513
 20
52.99019332955459
 30
0.0
 11
-2.448485974595513
 21
47.99019332955459
 31
0.0
  0
LINE
  5
350C
330
1F
100
AcDbEntity
  8
太線
100
AcDbLine
 10
-11.44848597459551
 20
52.99019332955459
 30
0.0
 11
-10.4484859745955
 21
52.99019332955459
 31
0.0
  0
DIMENSION
  5
350D
330
1F
100
AcDbEntity
  8
寸法線
100
AcDbDimension
  2
*D15
 10
40.01809438112183
 20
44.99019332955458
 30
0.0
 11
27.29721593079603
 21
30.52887666122039
 31
0.0
 70
   164
 71
     5
 42
2.999999999999957
  3
sunpo
100
AcDbRadialDimension
 15
41.99953206877778
 25
47.24272627935496
 35
0.0
 40
0.0
1001
ACAD
1000
DSTYLE
1002
{
1070
    40
1040
1.0
1070
   279
1070
     1
1070
   288
1070
     1
1002
}
  0
LINE
  5
350E
330
1F
100
AcDbEntity
  8
想像線
100
AcDbLine
 10
27.55151402540449
 20
50.49019332955459
 30
0.0
 11
27.55151402540449
 21
47.99019332955459
 31
0.0
  0
LINE
  5
350F
330
1F
100
AcDbEntity
  8
想像線
100
AcDbLine
 10
27.55151402540449
 20
52.99019332955459
 30
0.0
 11
27.55151402540449
 21
50.49019332955459
 31
0.0
  0
DIMENSION
  5
3516
330
1F
100
AcDbEntity
  8
寸法線
100
AcDbDimension
  2
*D12
 10
47.55262496473377
 20
50.7242191288744
 30
0.0
 11
77.40483395182057
 21
50.44079105824332
 31
0.0
 70
   163
  1
49.3～50
 71
     5
 42
49.30000000000002
  3
sunpo
100
AcDbDiametricDimension
 15
96.85040308607522
 25
50.25616753023474
 35
0.0
 40
0.0
1001
ACAD
1000
DSTYLE
1002
{
1070
    40
1040
1.0
1070
   288
1070
     1
1002
}
  0
CIRCLE
  5
3517
330
1F
100
AcDbEntity
  8
太線
100
AcDbCircle
 10
72.20151402540449
 20
50.49019332955456
 30
0.0
 40
24.65
  0
DIMENSION
  5
3518
330
1F
100
AcDbEntity
  8
寸法線
100
AcDbDimension
  2
*D14
 10
99.72825012356878
 20
16.07627475042636
 30
0.0
 11
96.22825012356878
 21
18.69875738699648
 31
0.0
 70
    32
  1
5
 71
     5
 42
5.244965273140223
  3
sunpo
100
AcDbAlignedDimension
 13
72.08299003925271
 23
21.32124002356658
 33
0.0
 14
72.08299003925271
 24
16.07627475042636
 34
0.0
 50
90.0
100
AcDbRotatedDimension
1001
ACAD
1000
DSTYLE
1002
{
1070
    40
1040
1.0
1002
}
  0
LINE
  5
3519
330
1F
100
AcDbEntity
  8
太線
100
AcDbLine
 10
81.5349077350875
 20
22.3475164515451
 30
0.0
 11
78.89493407177607
 21
16.4928312541989
 31
0.0
  0
LINE
  5
351A
330
1F
100
AcDbEntity
  8
太線
100
AcDbLine
 10
61.54056363634869
 20
22.82312559909043
 30
0.0
 11
63.89917599772196
 21
16.84953811485792
 31
0.0
  0
LINE
  5
351B
330
1F
100
AcDbEntity
  8
細線
100
AcDbLine
 10
67.38416120990139
 20
16.17670309829179
 30
0.0
 11
67.62422621345836
 21
26.26890235886914
 31
0.0
  0
LINE
  5
351C
330
1F
100
AcDbEntity
  8
細線
100
AcDbLine
 10
66.38755909039152
 20
16.33144001486761
 30
0.0
 11
66.62892544048323
 21
26.47834716014882
 31
0.0
  0
LINE
  5
351D
330
1F
100
AcDbEntity
  8
細線
100
AcDbLine
 10
75.3818988493969
 20
15.98645943927368
 30
0.0
 11
75.62196385295386
 21
26.078658699851
 31
0.0
  0
LINE
  5
351E
330
1F
100
AcDbEntity
  8
細線
100
AcDbLine
 10
76.38473113976091
 20
16.09363544109493
 30
0.0
 11
76.62609748985262
 21
26.2405425863762
 31
0.0
  0
ARC
  5
351F
330
1F
100
AcDbEntity
  8
太線
100
AcDbCircle
 10
72.20151402540452
 20
50.49019332955456
 30
0.0
 40
34.65
100
AcDbArc
 50
256.1367294756545
 51
281.137973934145
  0
LINE
  5
3590
330
1F
100
AcDbEntity
  8
太線
100
AcDbLine
 10
154.8515140254043
 20
52.9901933295546
 30
0.0
 11
104.3849336696869
 21
52.9901933295546
 31
0.0
  0
LINE
  5
3591
330
1F
100
AcDbEntity
  8
太線
100
AcDbLine
 10
104.384933669687
 20
47.9901933295546
 30
0.0
 11
155.8515140254042
 21
47.9901933295546
 31
0.0
  0
ARC
  5
3592
330
1F
100
AcDbEntity
  8
太線
100
AcDbCircle
 10
104.384933669687
 20
44.9901933295546
 30
0.0
 40
3.0
100
AcDbArc
 50
90.0
 51
170.3020976189439
  0
ARC
  5
3593
330
1F
100
AcDbEntity
  8
太線
100
AcDbCircle
 10
104.3849336696869
 20
55.9901933295546
 30
0.0
 40
3.0
100
AcDbArc
 50
189.6979023810559
 51
270.0
  0
LINE
  5
3594
330
1F
100
AcDbEntity
  8
想像線
100
AcDbLine
 10
116.8515140254043
 20
50.4901933295546
 30
0.0
 11
116.8515140254043
 21
47.9901933295546
 31
0.0
  0
LINE
  5
3595
330
1F
100
AcDbEntity
  8
想像線
100
AcDbLine
 10
116.8515140254043
 20
52.9901933295546
 30
0.0
 11
116.8515140254043
 21
50.4901933295546
 31
0.0
  0
LINE
  5
3596
330
1F
100
AcDbEntity
  8
想像線
100
AcDbLine
 10
146.8515140254043
 20
52.9901933295546
 30
0.0
 11
146.8515140254043
 21
47.9901933295546
 31
0.0
  0
LINE
  5
3597
330
1F
100
AcDbEntity
  8
太線
100
AcDbLine
 10
156.8515140254042
 20
48.99019332955461
 30
0.0
 11
156.8515140254042
 21
50.9901933295546
 31
0.0
  0
ARC
  5
3598
330
1F
100
AcDbEntity
  8
太線
100
AcDbCircle
 10
155.8515140254042
 20
48.99019332955461
 30
0.0
 40
1.0
100
AcDbArc
 50
270.0
 51
359.9999999999998
  0
ARC
  5
3599
330
1F
100
AcDbEntity
  8
太線
100
AcDbCircle
 10
155.8515140254042
 20
51.99019332955461
 30
0.0
 40
1.0
100
AcDbArc
 50
0.000000000000007
 51
90.0
  0
LINE
  5
359A
330
1F
100
AcDbEntity
  8
太線
100
AcDbLine
 10
156.8515140254042
 20
50.4901933295546
 30
0.0
 11
156.8515140254042
 21
51.99019332955461
 31
0.0
  0
LINE
  5
359B
330
1F
100
AcDbEntity
  8
太線
100
AcDbLine
 10
155.8515140254042
 20
52.9901933295546
 30
0.0
 11
154.8515140254043
 21
52.9901933295546
 31
0.0
  0
ARC
  5
35AE
330
1F
100
AcDbEntity
  8
太線
100
AcDbCircle
 10
127.1994723587376
 20
180.4711488256961
 30
0.0
 40
29.6520416666667
100
AcDbArc
 50
269.3276347796042
 51
89.32763477960435
  0
DIMENSION
  5
35B0
330
1F
100
AcDbEntity
  8
寸法線
100
AcDbDimension
  2
*D17
 10
117.2481367603159
 20
192.9788319720991
 30
0.0
 11
132.2898926025598
 21
196.4788319720991
 31
0.0
 70
    32
  1
30
 71
     5
 42
30.0835116844878
  3
sunpo
100
AcDbAlignedDimension
 13
147.3316484448037
 23
180.871406571313
 33
0.0
 14
117.2481367603159
 24
180.4539091636609
 34
0.0
 50
180.0
100
AcDbRotatedDimension
1001
ACAD
1000
DSTYLE
1002
{
1070
    40
1040
1.0
1002
}
  0
LINE
  5
35B1
330
1F
100
AcDbEntity
  8
太線
100
AcDbLine
 10
101.8515140254043
 20
210.1211488256961
 30
0.0
 11
101.8515140254043
 21
150.8211488256961
 31
0.0
  0
LINE
  5
35B2
330
1F
100
AcDbEntity
  8
太線
100
AcDbLine
 10
140.8515140254043
 20
174.4711488256961
 30
0.0
 11
122.8515140254043
 21
174.471148825696
 31
0.0
  0
LINE
  5
35B3
330
1F
100
AcDbEntity
  8
太線
100
AcDbLine
 10
122.8515140254043
 20
186.4711488256961
 30
0.0
 11
140.8515140254043
 21
186.4711488256961
 31
0.0
  0
ARC
  5
35B4
330
1F
100
AcDbEntity
  8
太線
100
AcDbCircle
 10
140.8515140254043
 20
180.4711488256961
 30
0.0
 40
5.999999999999971
100
AcDbArc
 50
269.9999999999998
 51
90.00000000000017
  0
LINE
  5
35B5
330
1F
100
AcDbEntity
  8
太線
100
AcDbLine
 10
101.8515140254043
 20
150.8211488256961
 30
0.0
 11
126.8515140254043
 21
150.8211488256961
 31
0.0
  0
ARC
  5
35B6
330
1F
100
AcDbEntity
  8
太線
100
AcDbCircle
 10
122.8515140254043
 20
180.4711488256961
 30
0.0
 40
6.000000000000056
100
AcDbArc
 50
90.0
 51
270.0
  0
LINE
  5
35B7
330
1F
100
AcDbEntity
  8
破線
100
AcDbLine
 10
96.85151402540434
 20
210.1211488256961
 30
0.0
 11
96.85151402540434
 21
150.8211488256961
 31
0.0
  0
LINE
  5
35CD
330
1F
100
AcDbEntity
  8
太線
100
AcDbLine
 10
101.8515140254043
 20
210.1211488256961
 30
0.0
 11
127.5474306920709
 21
210.1211488256962
 31
0.0
  0
LINE
  5
35CE
330
1F
100
AcDbEntity
  8
太線
100
AcDbLine
 10
7.494803506735081
 20
-23.46405898481526
 30
0.0
 11
-0.5035152173618087
 21
-23.30005414415239
 31
0.0
  0
DIMENSION
  5
3610
330
1F
100
AcDbEntity
  8
寸法線
100
AcDbDimension
  2
*D18
 10
42.45890126749872
 20
224.000649176835
 30
0.0
 11
15.01214316225332
 21
227.500649176835
 31
0.0
 70
    32
  1
55
 71
     5
 42
54.89351621049081
  3
sunpo
100
AcDbAlignedDimension
 13
-12.43461494299208
 23
181.2805837673586
 33
0.0
 14
42.45890126749872
 24
181.2805837673586
 34
0.0
100
AcDbRotatedDimension
1001
ACAD
1000
DSTYLE
1002
{
1070
    40
1040
1.0
1002
}
  0
DIMENSION
  5
361D
330
1F
100
AcDbEntity
  8
寸法線
100
AcDbDimension
  2
*D19
 10
101.7304287824611
 20
224.000649176835
 30
0.0
 11
72.09466502497992
 21
227.500649176835
 31
0.0
 70
    32
  1
60
 71
     5
 42
59.27152751496237
  3
sunpo
100
AcDbAlignedDimension
 13
42.45890126749872
 23
181.2805837673586
 33
0.0
 14
101.7304287824611
 24
209.8727539027738
 34
0.0
100
AcDbRotatedDimension
1001
ACAD
1000
DSTYLE
1002
{
1070
    40
1040
1.0
1070
   279
1070
     1
1002
}
  0
DIMENSION
  5
362A
330
1F
100
AcDbEntity
  8
寸法線
100
AcDbDimension
  2
*D20
 10
156.2871747718272
 20
224.000649176835
 30
0.0
 11
129.0088017771441
 21
227.500649176835
 31
0.0
 70
    32
  1
55
 71
     5
 42
54.55674598936616
  3
sunpo
100
AcDbAlignedDimension
 13
101.7304287824611
 23
209.8727539027738
 33
0.0
 14
156.2871747718272
 24
182.2897195202061
 34
0.0
100
AcDbRotatedDimension
1001
ACAD
1000
DSTYLE
1002
{
1070
    40
1040
1.0
1070
   279
1070
     1
1002
}
  0
XLINE
  5
3683
330
1F
100
AcDbEntity
  8
構築線
100
AcDbXline
 10
606.3972008252935
 20
50.06187743036401
 30
0.0
 11
0.0
 21
1.0
 31
0.0
  0
XLINE
  5
36B0
330
1F
100
AcDbEntity
  8
構築線
100
AcDbXline
 10
231.8479894305562
 20
179.7861401939363
 30
0.0
 11
0.0
 21
-1.0
 31
0.0
  0
ARC
  5
36B1
330
1F
100
AcDbEntity
  8
太線
100
AcDbCircle
 10
334.831513413272
 20
92.95999247616203
 30
0.0
 40
14.825
100
AcDbArc
 50
279.6979023810558
 51
350.3020976189439
  0
CIRCLE
  5
36B2
330
1F
100
AcDbEntity
  8
太線
100
AcDbCircle
 10
334.831513413272
 20
92.95999247616203
 30
0.0
 40
12.325
  0
LINE
  5
36B3
330
1F
100
AcDbEntity
  8
太線
100
AcDbLine
 10
333.5815134132721
 20
51.63499247616205
 30
0.0
 11
333.5815134132721
 21
76.86828265402073
 31
0.0
  0
LINE
  5
36B4
330
1F
100
AcDbEntity
  8
太線
100
AcDbLine
 10
336.0815134132721
 20
76.86828265402067
 30
0.0
 11
336.0815134132721
 21
51.13499247616205
 31
0.0
  0
LINE
  5
36B5
330
1F
100
AcDbEntity
  8
太線
100
AcDbLine
 10
333.5815134132721
 20
51.13499247616205
 30
0.0
 11
333.5815134132721
 21
51.63499247616205
 31
0.0
  0
LINE
  5
36B6
330
1F
100
AcDbEntity
  8
太線
100
AcDbLine
 10
335.5815134132721
 20
50.63499247616205
 30
0.0
 11
334.581513413272
 21
50.63499247616205
 31
0.0
  0
ARC
  5
36B7
330
1F
100
AcDbEntity
  8
太線
100
AcDbCircle
 10
335.5815134132721
 20
51.13499247616204
 30
0.0
 40
0.5
100
AcDbArc
 50
270.0000000000001
 51
0.0
  0
ARC
  5
36B8
330
1F
100
AcDbEntity
  8
太線
100
AcDbCircle
 10
334.0815134132721
 20
51.13499247616204
 30
0.0
 40
0.5
100
AcDbArc
 50
180.0
 51
270.0
  0
LINE
  5
36B9
330
1F
100
AcDbEntity
  8
太線
100
AcDbLine
 10
334.831513413272
 20
50.63499247616205
 30
0.0
 11
334.0815134132721
 21
50.63499247616205
 31
0.0
  0
LINE
  5
36BA
330
1F
100
AcDbEntity
  8
想像線
100
AcDbLine
 10
333.5815134132721
 20
55.63499247616205
 30
0.0
 11
336.0815134132721
 21
55.63499247616205
 31
0.0
  0
LINE
  5
36BB
330
1F
100
AcDbEntity
  8
想像線
100
AcDbLine
 10
334.831513413272
 20
70.63499247616205
 30
0.0
 11
336.0815134132721
 21
70.63499247616205
 31
0.0
  0
LINE
  5
36BC
330
1F
100
AcDbEntity
  8
想像線
100
AcDbLine
 10
333.5815134132721
 20
70.63499247616205
 30
0.0
 11
334.831513413272
 21
70.63499247616205
 31
0.0
  0
ARC
  5
36BD
330
1F
100
AcDbEntity
  8
太線
100
AcDbCircle
 10
337.5815134132721
 20
76.86828265402067
 30
0.0
 40
1.5
100
AcDbArc
 50
99.69790238105604
 51
180.0
  0
ARC
  5
36BE
330
1F
100
AcDbEntity
  8
太線
100
AcDbCircle
 10
332.0815134132721
 20
76.86828265402073
 30
0.0
 40
1.5
100
AcDbArc
 50
0.0
 51
80.30209761894406
  0
ARC
  5
36BF
330
1F
100
AcDbEntity
  8
太線
100
AcDbCircle
 10
334.831513413272
 20
92.95999247616203
 30
0.0
 40
17.325
100
AcDbArc
 50
31.1367294756545
 51
56.137973934145
  0
LINE
  5
36C0
330
1F
100
AcDbEntity
  8
細線
100
AcDbLine
 10
348.6663556492294
 20
103.3884518689089
 30
0.0
 11
345.0133485861389
 21
99.90519639775925
 31
0.0
  0
LINE
  5
36C1
330
1F
100
AcDbEntity
  8
細線
100
AcDbLine
 10
348.9639999461492
 20
102.9813920489784
 30
0.0
 11
345.2911906294499
 21
99.47925451517921
 31
0.0
  0
LINE
  5
36C2
330
1F
100
AcDbEntity
  8
太線
100
AcDbLine
 10
348.3825141741488
 20
98.97256292304398
 30
0.0
 11
349.660600885746
 21
101.9184404295587
 31
0.0
  0
LINE
  5
36C3
330
1F
100
AcDbEntity
  8
太線
100
AcDbLine
 10
341.4815992520629
 20
106.2097842985535
 30
0.0
 11
344.4849146941816
 21
107.3463564611908
 31
0.0
  0
LINE
  5
36C4
330
1F
100
AcDbEntity
  8
細線
100
AcDbLine
 10
345.905989680395
 20
106.2833404191127
 30
0.0
 11
342.2529826173046
 21
102.800084947963
 31
0.0
  0
LINE
  5
36C5
330
1F
100
AcDbEntity
  8
細線
100
AcDbLine
 10
345.5135424851063
 20
106.6000027367332
 30
0.0
 11
341.8407331684069
 21
103.0978652029339
 31
0.0
  0
LINE
  5
36C6
330
1F
100
AcDbEntity
  8
太線
100
AcDbLine
 10
336.0815134132721
 20
109.0517022983033
 30
0.0
 11
336.0815134132721
 21
134.784992476162
 31
0.0
  0
LINE
  5
36C7
330
1F
100
AcDbEntity
  8
太線
100
AcDbLine
 10
333.5815134132721
 20
134.284992476162
 30
0.0
 11
333.5815134132721
 21
109.0517022983033
 31
0.0
  0
ARC
  5
36C8
330
1F
100
AcDbEntity
  8
太線
100
AcDbCircle
 10
337.5815134132721
 20
109.0517022983033
 30
0.0
 40
1.5
100
AcDbArc
 50
180.0
 51
260.302097618944
  0
ARC
  5
36C9
330
1F
100
AcDbEntity
  8
太線
100
AcDbCircle
 10
332.0815134132721
 20
109.0517022983033
 30
0.0
 40
1.5
100
AcDbArc
 50
279.6979023810558
 51
0.0
  0
LINE
  5
36CA
330
1F
100
AcDbEntity
  8
想像線
100
AcDbLine
 10
334.831513413272
 20
115.284992476162
 30
0.0
 11
336.0815134132721
 21
115.284992476162
 31
0.0
  0
LINE
  5
36CB
330
1F
100
AcDbEntity
  8
想像線
100
AcDbLine
 10
333.5815134132721
 20
115.284992476162
 30
0.0
 11
334.831513413272
 21
115.284992476162
 31
0.0
  0
LINE
  5
36CC
330
1F
100
AcDbEntity
  8
想像線
100
AcDbLine
 10
333.5815134132721
 20
130.284992476162
 30
0.0
 11
336.0815134132721
 21
130.284992476162
 31
0.0
  0
LINE
  5
36CD
330
1F
100
AcDbEntity
  8
太線
100
AcDbLine
 10
335.5815134132721
 20
135.284992476162
 30
0.0
 11
334.581513413272
 21
135.284992476162
 31
0.0
  0
ARC
  5
36CE
330
1F
100
AcDbEntity
  8
太線
100
AcDbCircle
 10
335.5815134132721
 20
134.784992476162
 30
0.0
 40
0.5
100
AcDbArc
 50
0.0
 51
89.99999999999992
  0
ARC
  5
36CF
330
1F
100
AcDbEntity
  8
太線
100
AcDbCircle
 10
334.0815134132721
 20
134.784992476162
 30
0.0
 40
0.5
100
AcDbArc
 50
90.00000000000003
 51
180.0
  0
LINE
  5
36D0
330
1F
100
AcDbEntity
  8
太線
100
AcDbLine
 10
333.5815134132721
 20
134.784992476162
 30
0.0
 11
333.5815134132721
 21
134.284992476162
 31
0.0
  0
LINE
  5
36D1
330
1F
100
AcDbEntity
  8
太線
100
AcDbLine
 10
334.831513413272
 20
135.284992476162
 30
0.0
 11
334.0815134132721
 21
135.284992476162
 31
0.0
  0
LINE
  5
36D2
330
1F
100
AcDbEntity
  8
太線
100
AcDbLine
 10
350.9232232354134
 20
94.20999247616203
 30
0.0
 11
376.656513413272
 21
94.20999247616203
 31
0.0
  0
LINE
  5
36D3
330
1F
100
AcDbEntity
  8
太線
100
AcDbLine
 10
376.156513413272
 20
91.70999247616203
 30
0.0
 11
350.9232232354134
 21
91.70999247616203
 31
0.0
  0
LINE
  5
36D4
330
1F
100
AcDbEntity
  8
想像線
100
AcDbLine
 10
372.156513413272
 20
91.70999247616203
 30
0.0
 11
372.156513413272
 21
94.20999247616203
 31
0.0
  0
LINE
  5
36D5
330
1F
100
AcDbEntity
  8
太線
100
AcDbLine
 10
377.156513413272
 20
92.95999247616203
 30
0.0
 11
377.156513413272
 21
92.20999247616203
 31
0.0
  0
ARC
  5
36D6
330
1F
100
AcDbEntity
  8
太線
100
AcDbCircle
 10
376.656513413272
 20
92.20999247616203
 30
0.0
 40
0.5
100
AcDbArc
 50
270.0
 51
0.0
  0
LINE
  5
36D7
330
1F
100
AcDbEntity
  8
太線
100
AcDbLine
 10
376.656513413272
 20
91.70999247616203
 30
0.0
 11
376.156513413272
 21
91.70999247616203
 31
0.0
  0
ARC
  5
36D8
330
1F
100
AcDbEntity
  8
太線
100
AcDbCircle
 10
376.656513413272
 20
93.70999247616202
 30
0.0
 40
0.5
100
AcDbArc
 50
0.0000000000000799
 51
90.0
  0
LINE
  5
36D9
330
1F
100
AcDbEntity
  8
太線
100
AcDbLine
 10
377.156513413272
 20
93.70999247616202
 30
0.0
 11
377.156513413272
 21
92.70999247616202
 31
0.0
  0
LINE
  5
36DA
330
1F
100
AcDbEntity
  8
想像線
100
AcDbLine
 10
357.156513413272
 20
91.70999247616203
 30
0.0
 11
357.156513413272
 21
92.95999247616203
 31
0.0
  0
LINE
  5
36DB
330
1F
100
AcDbEntity
  8
想像線
100
AcDbLine
 10
357.156513413272
 20
92.95999247616203
 30
0.0
 11
357.156513413272
 21
94.20999247616203
 31
0.0
  0
ARC
  5
36DC
330
1F
100
AcDbEntity
  8
太線
100
AcDbCircle
 10
350.9232232354134
 20
90.20999247616202
 30
0.0
 40
1.5
100
AcDbArc
 50
90.0
 51
170.302097618944
  0
ARC
  5
36DD
330
1F
100
AcDbEntity
  8
太線
100
AcDbCircle
 10
350.9232232354134
 20
95.70999247616203
 30
0.0
 40
1.5
100
AcDbArc
 50
189.697902381056
 51
270.0
  0
CIRCLE
  5
36DE
330
1F
100
AcDbEntity
  8
太線
100
AcDbCircle
 10
231.8479894305562
 20
92.95999247616203
 30
0.0
 40
12.325
  0
ARC
  5
36DF
330
1F
100
AcDbEntity
  8
太線
100
AcDbCircle
 10
231.8479894305562
 20
92.95999247616203
 30
0.0
 40
14.825
100
AcDbArc
 50
279.6979023810558
 51
350.302097618944
  0
LINE
  5
36E0
330
1F
100
AcDbEntity
  8
太線
100
AcDbLine
 10
273.1729894305562
 20
91.70999247616203
 30
0.0
 11
247.9396992526975
 21
91.70999247616203
 31
0.0
  0
LINE
  5
36E1
330
1F
100
AcDbEntity
  8
太線
100
AcDbLine
 10
247.9396992526975
 20
94.20999247616203
 30
0.0
 11
273.6729894305562
 21
94.20999247616203
 31
0.0
  0
LINE
  5
36E2
330
1F
100
AcDbEntity
  8
太線
100
AcDbLine
 10
233.0979894305562
 20
76.86828265402067
 30
0.0
 11
233.0979894305562
 21
51.13499247616205
 31
0.0
  0
LINE
  5
36E3
330
1F
100
AcDbEntity
  8
太線
100
AcDbLine
 10
230.5979894305562
 20
51.63499247616205
 30
0.0
 11
230.5979894305562
 21
76.86828265402073
 31
0.0
  0
ARC
  5
36E4
330
1F
100
AcDbEntity
  8
太線
100
AcDbCircle
 10
232.5979894305562
 20
51.13499247616204
 30
0.0
 40
0.5
100
AcDbArc
 50
270.0000000000001
 51
0.0
  0
LINE
  5
36E5
330
1F
100
AcDbEntity
  8
太線
100
AcDbLine
 10
231.8479894305562
 20
50.63499247616205
 30
0.0
 11
231.0979894305562
 21
50.63499247616205
 31
0.0
  0
ARC
  5
36E6
330
1F
100
AcDbEntity
  8
太線
100
AcDbCircle
 10
231.0979894305562
 20
51.13499247616204
 30
0.0
 40
0.5
100
AcDbArc
 50
180.0
 51
270.0
  0
LINE
  5
36E7
330
1F
100
AcDbEntity
  8
太線
100
AcDbLine
 10
230.5979894305562
 20
51.13499247616205
 30
0.0
 11
230.5979894305562
 21
51.63499247616205
 31
0.0
  0
LINE
  5
36E8
330
1F
100
AcDbEntity
  8
太線
100
AcDbLine
 10
232.5979894305562
 20
50.63499247616205
 30
0.0
 11
231.5979894305562
 21
50.63499247616205
 31
0.0
  0
LINE
  5
36E9
330
1F
100
AcDbEntity
  8
想像線
100
AcDbLine
 10
230.5979894305562
 20
55.63499247616205
 30
0.0
 11
233.0979894305562
 21
55.63499247616205
 31
0.0
  0
LINE
  5
36EA
330
1F
100
AcDbEntity
  8
想像線
100
AcDbLine
 10
231.8479894305562
 20
70.63499247616205
 30
0.0
 11
233.0979894305562
 21
70.63499247616205
 31
0.0
  0
LINE
  5
36EB
330
1F
100
AcDbEntity
  8
想像線
100
AcDbLine
 10
230.5979894305562
 20
70.63499247616205
 30
0.0
 11
231.8479894305562
 21
70.63499247616205
 31
0.0
  0
ARC
  5
36EC
330
1F
100
AcDbEntity
  8
太線
100
AcDbCircle
 10
234.5979894305562
 20
76.86828265402067
 30
0.0
 40
1.5
100
AcDbArc
 50
99.69790238105604
 51
180.0
  0
ARC
  5
36ED
330
1F
100
AcDbEntity
  8
太線
100
AcDbCircle
 10
229.0979894305562
 20
76.86828265402073
 30
0.0
 40
1.5
100
AcDbArc
 50
0.0
 51
80.30209761894406
  0
ARC
  5
36EE
330
1F
100
AcDbEntity
  8
太線
100
AcDbCircle
 10
247.9396992526975
 20
90.20999247616202
 30
0.0
 40
1.5
100
AcDbArc
 50
90.0
 51
170.302097618944
  0
ARC
  5
36EF
330
1F
100
AcDbEntity
  8
太線
100
AcDbCircle
 10
247.9396992526976
 20
95.70999247616203
 30
0.0
 40
1.5
100
AcDbArc
 50
189.697902381056
 51
270.0
  0
LINE
  5
36F0
330
1F
100
AcDbEntity
  8
想像線
100
AcDbLine
 10
254.1729894305561
 20
91.70999247616203
 30
0.0
 11
254.1729894305561
 21
92.95999247616203
 31
0.0
  0
LINE
  5
36F1
330
1F
100
AcDbEntity
  8
想像線
100
AcDbLine
 10
254.1729894305561
 20
92.95999247616203
 30
0.0
 11
254.1729894305561
 21
94.20999247616203
 31
0.0
  0
LINE
  5
36F2
330
1F
100
AcDbEntity
  8
太線
100
AcDbLine
 10
274.1729894305561
 20
92.95999247616203
 30
0.0
 11
274.1729894305561
 21
92.20999247616203
 31
0.0
  0
LINE
  5
36F3
330
1F
100
AcDbEntity
  8
想像線
100
AcDbLine
 10
269.1729894305562
 20
91.70999247616203
 30
0.0
 11
269.1729894305562
 21
94.20999247616203
 31
0.0
  0
LINE
  5
36F4
330
1F
100
AcDbEntity
  8
太線
100
AcDbLine
 10
273.6729894305562
 20
91.70999247616203
 30
0.0
 11
273.1729894305562
 21
91.70999247616203
 31
0.0
  0
ARC
  5
36F5
330
1F
100
AcDbEntity
  8
太線
100
AcDbCircle
 10
273.6729894305562
 20
92.20999247616203
 30
0.0
 40
0.5
100
AcDbArc
 50
270.0
 51
0.0
  0
LINE
  5
36F6
330
1F
100
AcDbEntity
  8
太線
100
AcDbLine
 10
274.1729894305561
 20
93.70999247616202
 30
0.0
 11
274.1729894305561
 21
92.70999247616202
 31
0.0
  0
ARC
  5
36F7
330
1F
100
AcDbEntity
  8
太線
100
AcDbCircle
 10
273.6729894305562
 20
93.70999247616202
 30
0.0
 40
0.5
100
AcDbArc
 50
0.0000000000000799
 51
90.0
  0
LINE
  5
36F8
330
1F
100
AcDbEntity
  8
太線
100
AcDbLine
 10
230.5979894305562
 20
134.284992476162
 30
0.0
 11
230.5979894305562
 21
109.0517022983033
 31
0.0
  0
LINE
  5
36F9
330
1F
100
AcDbEntity
  8
太線
100
AcDbLine
 10
233.0979894305562
 20
109.0517022983033
 30
0.0
 11
233.0979894305562
 21
134.784992476162
 31
0.0
  0
ARC
  5
36FD
330
1F
100
AcDbEntity
  8
太線
100
AcDbCircle
 10
234.5979894305562
 20
109.0517022983033
 30
0.0
 40
1.5
100
AcDbArc
 50
180.0
 51
260.302097618944
  0
ARC
  5
36FE
330
1F
100
AcDbEntity
  8
太線
100
AcDbCircle
 10
229.0979894305562
 20
109.0517022983033
 30
0.0
 40
1.5
100
AcDbArc
 50
279.6979023810558
 51
0.0
  0
LINE
  5
3700
330
1F
100
AcDbEntity
  8
想像線
100
AcDbLine
 10
231.8479894305562
 20
115.284992476162
 30
0.0
 11
233.0979894305562
 21
115.284992476162
 31
0.0
  0
LINE
  5
3701
330
1F
100
AcDbEntity
  8
想像線
100
AcDbLine
 10
230.5979894305562
 20
115.284992476162
 30
0.0
 11
231.8479894305562
 21
115.284992476162
 31
0.0
  0
LINE
  5
3705
330
1F
100
AcDbEntity
  8
想像線
100
AcDbLine
 10
230.5979894305562
 20
130.284992476162
 30
0.0
 11
233.0979894305562
 21
130.284992476162
 31
0.0
  0
ARC
  5
3706
330
1F
100
AcDbEntity
  8
太線
100
AcDbCircle
 10
232.5979894305562
 20
134.784992476162
 30
0.0
 40
0.5
100
AcDbArc
 50
0.0
 51
89.99999999999992
  0
LINE
  5
3707
330
1F
100
AcDbEntity
  8
太線
100
AcDbLine
 10
231.8479894305562
 20
135.284992476162
 30
0.0
 11
231.0979894305562
 21
135.284992476162
 31
0.0
  0
LINE
  5
3708
330
1F
100
AcDbEntity
  8
太線
100
AcDbLine
 10
230.5979894305562
 20
134.784992476162
 30
0.0
 11
230.5979894305562
 21
134.284992476162
 31
0.0
  0
ARC
  5
3709
330
1F
100
AcDbEntity
  8
太線
100
AcDbCircle
 10
231.0979894305562
 20
134.784992476162
 30
0.0
 40
0.5
100
AcDbArc
 50
90.00000000000003
 51
180.0
  0
LINE
  5
370A
330
1F
100
AcDbEntity
  8
太線
100
AcDbLine
 10
232.5979894305562
 20
135.284992476162
 30
0.0
 11
231.5979894305562
 21
135.284992476162
 31
0.0
  0
LINE
  5
370C
330
1F
100
AcDbEntity
  8
太線
100
AcDbLine
 10
293.5065134132721
 20
91.70999247616203
 30
0.0
 11
318.7398035911308
 21
91.70999247616203
 31
0.0
  0
LINE
  5
370D
330
1F
100
AcDbEntity
  8
太線
100
AcDbLine
 10
318.7398035911308
 20
94.20999247616203
 30
0.0
 11
293.0065134132721
 21
94.20999247616203
 31
0.0
  0
ARC
  5
370E
330
1F
100
AcDbEntity
  8
太線
100
AcDbCircle
 10
318.7398035911308
 20
90.20999247616202
 30
0.0
 40
1.5
100
AcDbArc
 50
9.697902381055961
 51
90.0
  0
ARC
  5
370F
330
1F
100
AcDbEntity
  8
太線
100
AcDbCircle
 10
318.7398035911307
 20
95.70999247616203
 30
0.0
 40
1.5
100
AcDbArc
 50
270.0
 51
350.3020976189439
  0
LINE
  5
3710
330
1F
100
AcDbEntity
  8
想像線
100
AcDbLine
 10
312.5065134132721
 20
91.70999247616203
 30
0.0
 11
312.5065134132721
 21
92.95999247616203
 31
0.0
  0
LINE
  5
3711
330
1F
100
AcDbEntity
  8
想像線
100
AcDbLine
 10
312.5065134132721
 20
92.95999247616203
 30
0.0
 11
312.5065134132721
 21
94.20999247616203
 31
0.0
  0
LINE
  5
3712
330
1F
100
AcDbEntity
  8
太線
100
AcDbLine
 10
292.5065134132721
 20
92.95999247616203
 30
0.0
 11
292.5065134132721
 21
92.20999247616203
 31
0.0
  0
LINE
  5
3713
330
1F
100
AcDbEntity
  8
想像線
100
AcDbLine
 10
297.5065134132721
 20
91.70999247616203
 30
0.0
 11
297.5065134132721
 21
94.20999247616203
 31
0.0
  0
LINE
  5
3714
330
1F
100
AcDbEntity
  8
太線
100
AcDbLine
 10
293.0065134132721
 20
91.70999247616203
 30
0.0
 11
293.5065134132721
 21
91.70999247616203
 31
0.0
  0
ARC
  5
3715
330
1F
100
AcDbEntity
  8
太線
100
AcDbCircle
 10
293.0065134132721
 20
92.20999247616203
 30
0.0
 40
0.5
100
AcDbArc
 50
180.0
 51
270.0
  0
LINE
  5
3716
330
1F
100
AcDbEntity
  8
太線
100
AcDbLine
 10
292.5065134132721
 20
93.70999247616202
 30
0.0
 11
292.5065134132721
 21
92.70999247616202
 31
0.0
  0
ARC
  5
3717
330
1F
100
AcDbEntity
  8
太線
100
AcDbCircle
 10
293.0065134132721
 20
93.70999247616202
 30
0.0
 40
0.5
100
AcDbArc
 50
90.0
 51
179.9999999999999
  0
ARC
  5
378A
330
1F
100
AcDbEntity
  8
太線
100
AcDbCircle
 10
72.20151402540449
 20
50.49019332955456
 30
0.0
 40
29.65
100
AcDbArc
 50
9.697902381056119
 51
170.3020976189439
  0
ARC
  5
378B
330
1F
100
AcDbEntity
  8
太線
100
AcDbCircle
 10
231.8479894305562
 20
92.95999247616203
 30
0.0
 40
14.825
100
AcDbArc
 50
9.697902381056001
 51
80.30209761894411
  0
ARC
  5
378C
330
1F
100
AcDbEntity
  8
太線
100
AcDbCircle
 10
174.3132045392744
 20
92.95999247616203
 30
0.0
 40
14.825
100
AcDbArc
 50
99.6979023810559
 51
170.3020976189439
  0
ARC
  5
378D
330
1F
100
AcDbEntity
  8
太線
100
AcDbCircle
 10
231.8479894305562
 20
92.95999247616203
 30
0.0
 40
14.825
100
AcDbArc
 50
99.697902381056
 51
260.302097618944
  0
ARC
  5
378E
330
1F
100
AcDbEntity
  8
太線
100
AcDbCircle
 10
334.831513413272
 20
92.95999247616203
 30
0.0
 40
14.825
100
AcDbArc
 50
99.69790238105609
 51
170.302097618944
  0
ARC
  5
378F
330
1F
100
AcDbEntity
  8
太線
100
AcDbCircle
 10
334.831513413272
 20
92.95999247616203
 30
0.0
 40
14.825
100
AcDbArc
 50
189.6979023810559
 51
260.302097618944
  0
ARC
  5
3790
330
1F
100
AcDbEntity
  8
太線
100
AcDbCircle
 10
334.831513413272
 20
92.95999247616203
 30
0.0
 40
14.825
100
AcDbArc
 50
9.697902381056001
 51
80.30209761894411
  0
XLINE
  5
3791
330
1F
100
AcDbEntity
  8
構築線
100
AcDbXline
 10
174.3132045392745
 20
92.95999247616206
 30
0.0
 11
0.0
 21
-1.0
 31
0.0
  0
XLINE
  5
3792
330
1F
100
AcDbEntity
  8
構築線
100
AcDbXline
 10
334.831513413272
 20
92.95999247616203
 30
0.0
 11
0.0
 21
1.0
 31
0.0
  0
XLINE
  5
3793
330
1F
100
AcDbEntity
  8
構築線
100
AcDbXline
 10
246.8844772961612
 20
180.4711488256961
 30
0.0
 11
0.0
 21
-1.0
 31
0.0
  0
TEXT
  5
3796
330
1F
100
AcDbEntity
  8
文字
100
AcDbText
 10
61.44391060066016
 20
2.440494678420577
 30
0.0
 40
4.799999999999999
  1
S-8-1W
 51
15.0
  7
OKANO
100
AcDbText
  0
TEXT
  5
3797
330
1F
100
AcDbEntity
  8
文字
100
AcDbText
 10
162.8063661227669
 20
68.66816388418328
 30
0.0
 40
4.799999999999999
  1
S-8-1L
 51
15.0
  7
OKANO
100
AcDbText
  0
TEXT
  5
3798
330
1F
100
AcDbEntity
  8
文字
100
AcDbText
 10
222.928557325873
 20
42.49452846633881
 30
0.0
 40
4.799999999999999
  1
S-8-1E
 51
15.0
  7
OKANO
100
AcDbText
  0
TEXT
  5
37A4
330
1F
100
AcDbEntity
  8
文字
100
AcDbText
 10
323.766444779507
 20
43.04814632874865
 30
0.0
 40
4.799999999999999
  1
S-8-1X
 51
15.0
  7
OKANO
100
AcDbText
  0
TEXT
  5
37B2
330
1F
100
AcDbEntity
  8
寸法線
100
AcDbText
 10
13.56190736398843
 20
234.4152499270371
 30
0.0
 40
4.799999999999999
  1
PF3/8 inch19yama クボミ先ホーローセット使用
 51
15.0
  7
OKANO
100
AcDbText
  0
LINE
  5
3813
330
1F
100
AcDbEntity
  8
太線
100
AcDbLine
 10
241.2329014599914
 20
191.9473873732238
 30
0.0
 11
244.4120057404773
 21
192.4001521019146
 31
0.0
  0
LINE
  5
3814
330
1F
100
AcDbEntity
  8
細線
100
AcDbLine
 10
245.2526644929374
 20
191.4470456670467
 30
0.0
 11
240.9032857358797
 21
188.8322034136527
 31
0.0
  0
ARC
  5
3815
330
1F
100
AcDbEntity
  8
太線
100
AcDbCircle
 10
231.8479894305562
 20
180.471148825696
 30
0.0
 40
17.325
100
AcDbArc
 50
18.51362146416734
 51
43.51486592265783
  0
ARC
  5
3816
330
1F
100
AcDbEntity
  8
太線
100
AcDbCircle
 10
231.8479894305562
 20
180.4711488256961
 30
0.0
 40
14.825
100
AcDbArc
 50
189.6979023810559
 51
80.30209761894411
  0
LINE
  5
3817
330
1F
100
AcDbEntity
  8
太線
100
AcDbLine
 10
230.5979894305561
 20
221.7961488256961
 30
0.0
 11
230.5979894305561
 21
196.5628586478374
 31
0.0
  0
LINE
  5
3818
330
1F
100
AcDbEntity
  8
太線
100
AcDbLine
 10
233.0979894305562
 20
196.5628586478375
 30
0.0
 11
233.0979894305562
 21
222.2961488256961
 31
0.0
  0
LINE
  5
3819
330
1F
100
AcDbEntity
  8
細線
100
AcDbLine
 10
245.5664233541419
 20
191.0522733256823
 30
0.0
 11
241.2404946304952
 21
188.4515292094318
 31
0.0
  0
LINE
  5
381A
330
1F
100
AcDbEntity
  8
細線
100
AcDbLine
 10
247.8289202440603
 20
187.1618494866127
 30
0.0
 11
243.4795414870027
 21
184.5470072332187
 31
0.0
  0
LINE
  5
381B
330
1F
100
AcDbEntity
  8
細線
100
AcDbLine
 10
247.6274279550403
 20
187.6241163813351
 30
0.0
 11
243.3014992313935
 21
185.0233722650847
 31
0.0
  0
CIRCLE
  5
381C
330
1F
100
AcDbEntity
  8
太線
100
AcDbCircle
 10
231.8479894305562
 20
180.4711488256961
 30
0.0
 40
12.325
  0
TEXT
  5
381D
330
1F
100
AcDbEntity
  8
文字
100
AcDbText
 10
220.3411510140486
 20
156.1793202337174
 30
0.0
 40
4.799999999999999
  1
S-8-1V-60
 51
15.0
  7
OKANO
100
AcDbText
  0
LINE
  5
381E
330
1F
100
AcDbEntity
  8
太線
100
AcDbLine
 10
246.3854129622371
 20
183.3769950123557
 30
0.0
 11
248.2763893671617
 21
185.9723578312637
 31
0.0
  0
LINE
  5
381F
330
1F
100
AcDbEntity
  8
太線
100
AcDbLine
 10
217.2871599342542
 20
187.4344719820363
 30
0.0
 11
195.001476917272
 21
200.3011170709656
 31
0.0
  0
LINE
  5
3820
330
1F
100
AcDbEntity
  8
太線
100
AcDbLine
 10
196.6844896191642
 20
202.2161805804266
 30
0.0
 11
218.5371599342542
 21
189.5995354914973
 31
0.0
  0
LINE
  5
3821
330
1F
100
AcDbEntity
  8
太線
100
AcDbLine
 10
196.251476917272
 20
202.4661805804266
 30
0.0
 11
196.6844896191642
 21
202.2161805804266
 31
0.0
  0
LINE
  5
3822
330
1F
100
AcDbEntity
  8
太線
100
AcDbLine
 10
195.1934642153798
 20
201.6336488256961
 30
0.0
 11
195.5684642153798
 21
202.2831678785344
 31
0.0
  0
LINE
  5
3823
330
1F
100
AcDbEntity
  8
太線
100
AcDbLine
 10
194.8184642153798
 20
200.9841297728578
 30
0.0
 11
195.3184642153798
 21
201.8501551766422
 31
0.0
  0
ARC
  5
3824
330
1F
100
AcDbEntity
  8
太線
100
AcDbCircle
 10
195.2514769172721
 20
200.7341297728578
 30
0.0
 40
0.5
100
AcDbArc
 50
150.0000000000001
 51
240.0
  0
ARC
  5
3825
330
1F
100
AcDbEntity
  8
太線
100
AcDbCircle
 10
196.0014769172721
 20
202.0331678785344
 30
0.0
 40
0.5
100
AcDbArc
 50
60.00000000000002
 51
150.0
  0
LINE
  5
3826
330
1F
100
AcDbEntity
  8
寸法線
100
AcDbLine
 10
200.148591234302
 20
200.2161805804267
 30
0.0
 11
198.898591234302
 21
198.0511170709656
 31
0.0
  0
ARC
  5
3827
330
1F
100
AcDbEntity
  8
太線
100
AcDbCircle
 10
231.8479894305562
 20
180.4711488256961
 30
0.0
 40
14.825
100
AcDbArc
 50
99.6979023810559
 51
170.3020976189439
  0
ARC
  5
3828
330
1F
100
AcDbEntity
  8
太線
100
AcDbCircle
 10
229.0979894305562
 20
196.5628586478374
 30
0.0
 40
1.5
100
AcDbArc
 50
279.6979023810558
 51
0.0
  0
ARC
  5
3829
330
1F
100
AcDbEntity
  8
太線
100
AcDbCircle
 10
234.5979894305561
 20
196.5628586478375
 30
0.0
 40
1.5
100
AcDbArc
 50
180.0
 51
260.302097618944
  0
ARC
  5
382A
330
1F
100
AcDbEntity
  8
太線
100
AcDbCircle
 10
219.4906833415941
 20
192.0617761103091
 30
0.0
 40
2.640423404166753
100
AcDbArc
 50
248.8306860317532
 51
282.9054167679247
  0
LINE
  5
382B
330
1F
100
AcDbEntity
  8
寸法線
100
AcDbLine
 10
213.1389722910686
 20
192.7161805804267
 30
0.0
 11
212.5139722910686
 21
191.6336488256961
 31
0.0
  0
LINE
  5
382C
330
1F
100
AcDbEntity
  8
寸法線
100
AcDbLine
 10
212.5139722910686
 20
191.6336488256961
 30
0.0
 11
211.8889722910686
 21
190.5511170709656
 31
0.0
  0
ARC
  5
382D
330
1F
100
AcDbEntity
  8
太線
100
AcDbCircle
 10
215.4465203309417
 20
185.2227257238372
 30
0.0
 40
2.877459931943444
100
AcDbArc
 50
19.26162790396093
 51
50.23239974918649
  0
LINE
  5
382E
330
1F
100
AcDbEntity
  8
想像線
100
AcDbLine
 10
231.8479894305562
 20
202.7961488256961
 30
0.0
 11
233.0979894305562
 21
202.7961488256961
 31
0.0
  0
LINE
  5
382F
330
1F
100
AcDbEntity
  8
想像線
100
AcDbLine
 10
230.5979894305561
 20
202.7961488256961
 30
0.0
 11
231.8479894305562
 21
202.7961488256961
 31
0.0
  0
LINE
  5
3830
330
1F
100
AcDbEntity
  8
想像線
100
AcDbLine
 10
230.5979894305561
 20
217.7961488256961
 30
0.0
 11
233.0979894305562
 21
217.7961488256961
 31
0.0
  0
LINE
  5
3831
330
1F
100
AcDbEntity
  8
太線
100
AcDbLine
 10
232.5979894305561
 20
222.7961488256961
 30
0.0
 11
231.5979894305562
 21
222.7961488256961
 31
0.0
  0
ARC
  5
3832
330
1F
100
AcDbEntity
  8
太線
100
AcDbCircle
 10
231.0979894305562
 20
222.2961488256961
 30
0.0
 40
0.5
100
AcDbArc
 50
90.00000000000003
 51
180.0
  0
LINE
  5
3833
330
1F
100
AcDbEntity
  8
太線
100
AcDbLine
 10
231.8479894305562
 20
222.7961488256961
 30
0.0
 11
231.0979894305562
 21
222.7961488256961
 31
0.0
  0
LINE
  5
3834
330
1F
100
AcDbEntity
  8
太線
100
AcDbLine
 10
230.5979894305561
 20
222.2961488256961
 30
0.0
 11
230.5979894305561
 21
221.7961488256961
 31
0.0
  0
ARC
  5
3835
330
1F
100
AcDbEntity
  8
太線
100
AcDbCircle
 10
232.5979894305561
 20
222.2961488256961
 30
0.0
 40
0.5
100
AcDbArc
 50
0.0
 51
89.99999999999992
  0
LINE
  5
3836
330
1F
100
AcDbEntity
  8
構築線
100
AcDbLine
 10
320.2180012788771
 20
150.8211488256961
 30
0.0
 11
379.5180012788771
 21
150.8211488256961
 31
0.0
  0
ARC
  5
3837
330
1F
100
AcDbEntity
  8
太線
100
AcDbCircle
 10
334.831513413272
 20
180.4711488256961
 30
0.0
 40
14.825
100
AcDbArc
 50
99.6979023810559
 51
170.3020976189439
  0
CIRCLE
  5
3838
330
1F
100
AcDbEntity
  8
太線
100
AcDbCircle
 10
334.831513413272
 20
180.4711488256961
 30
0.0
 40
12.325
  0
ARC
  5
3839
330
1F
100
AcDbEntity
  8
太線
100
AcDbCircle
 10
334.831513413272
 20
180.4711488256961
 30
0.0
 40
14.825
100
AcDbArc
 50
189.6979023810559
 51
80.30209761894411
  0
TEXT
  5
383A
330
1F
100
AcDbEntity
  8
文字
100
AcDbText
 10
319.8740197482154
 20
155.1896678330737
 30
0.0
 40
4.799999999999999
  1
S-8-1Y-120
 51
15.0
  7
OKANO
100
AcDbText
  0
LINE
  5
383B
330
1F
100
AcDbEntity
  8
太線
100
AcDbLine
 10
298.4180136018802
 20
160.8911805804265
 30
0.0
 11
320.2706839169701
 21
173.5078256693559
 31
0.0
  0
LINE
  5
383C
330
1F
100
AcDbEntity
  8
太線
100
AcDbLine
 10
321.5206839169701
 20
171.3427621598948
 30
0.0
 11
299.235000899988
 21
158.4761170709654
 31
0.0
  0
ARC
  5
383D
330
1F
100
AcDbEntity
  8
太線
100
AcDbCircle
 10
298.235000899988
 20
160.2081678785342
 30
0.0
 40
0.5
100
AcDbArc
 50
120.0000000000003
 51
210.0000000000003
  0
ARC
  5
383E
330
1F
100
AcDbEntity
  8
太線
100
AcDbCircle
 10
298.985000899988
 20
158.9091297728576
 30
0.0
 40
0.5
100
AcDbArc
 50
210.0000000000004
 51
300.0000000000003
  0
LINE
  5
383F
330
1F
100
AcDbEntity
  8
太線
100
AcDbLine
 10
298.5519881980958
 20
158.6591297728576
 30
0.0
 11
298.0519881980957
 21
159.5251551766421
 31
0.0
  0
LINE
  5
3840
330
1F
100
AcDbEntity
  8
太線
100
AcDbLine
 10
298.1769881980958
 20
159.3086488256959
 30
0.0
 11
297.8019881980957
 21
159.9581678785342
 31
0.0
  0
LINE
  5
3841
330
1F
100
AcDbEntity
  8
太線
100
AcDbLine
 10
297.9850008999879
 20
160.6411805804265
 30
0.0
 11
298.4180136018802
 21
160.8911805804265
 31
0.0
  0
LINE
  5
3842
330
1F
100
AcDbEntity
  8
想像線
100
AcDbLine
 10
301.8821152170179
 20
162.8911805804265
 30
0.0
 11
303.132115217018
 21
160.7261170709654
 31
0.0
  0
LINE
  5
3843
330
1F
100
AcDbEntity
  8
想像線
100
AcDbLine
 10
315.4974962737845
 20
169.308648825696
 30
0.0
 11
316.1224962737845
 21
168.2261170709655
 31
0.0
  0
LINE
  5
3844
330
1F
100
AcDbEntity
  8
想像線
100
AcDbLine
 10
314.8724962737845
 20
170.3911805804266
 30
0.0
 11
315.4974962737845
 21
169.308648825696
 31
0.0
  0
ARC
  5
3845
330
1F
100
AcDbEntity
  8
太線
100
AcDbCircle
 10
322.2706839169701
 20
170.0437240542182
 30
0.0
 40
1.5
100
AcDbArc
 50
39.6979023810564
 51
120.0000000000003
  0
ARC
  5
3846
330
1F
100
AcDbEntity
  8
太線
100
AcDbCircle
 10
319.5206839169701
 20
174.8068637750326
 30
0.0
 40
1.5
100
AcDbArc
 50
300.0000000000003
 51
20.30209761894443
  0
LINE
  5
3847
330
1F
100
AcDbEntity
  8
細線
100
AcDbLine
 10
336.5009702389238
 20
163.2267718028147
 30
0.0
 11
336.5978120490653
 21
168.2733697602601
 31
0.0
  0
ARC
  5
3848
330
1F
100
AcDbEntity
  8
太線
100
AcDbCircle
 10
334.831513413272
 20
180.4711488256961
 30
0.0
 40
17.325
100
AcDbArc
 50
256.400033989595
 51
281.4012784480854
  0
LINE
  5
3849
330
1F
100
AcDbEntity
  8
細線
100
AcDbLine
 10
337.0021348249991
 20
163.2826635030463
 30
0.0
 11
337.0995015960977
 21
168.3566181041799
 31
0.0
  0
LINE
  5
384A
330
1F
100
AcDbEntity
  8
太線
100
AcDbLine
 10
329.5646667113921
 20
166.6132647585345
 30
0.0
 11
330.7576862933093
 21
163.631922073952
 31
0.0
  0
LINE
  5
384B
330
1F
100
AcDbEntity
  8
細線
100
AcDbLine
 10
332.5017065112125
 20
163.3035157681336
 30
0.0
 11
332.598548321354
 21
168.3501137255789
 31
0.0
  0
LINE
  5
384C
330
1F
100
AcDbEntity
  8
細線
100
AcDbLine
 10
332.0030551653599
 20
163.378593459695
 30
0.0
 11
332.1004219364586
 21
168.4525480608285
 31
0.0
  0
LINE
  5
384D
330
1F
100
AcDbEntity
  8
太線
100
AcDbLine
 10
339.5628260306703
 20
166.421404845237
 30
0.0
 11
338.2563057827679
 21
163.488027138979
 31
0.0
  0
LINE
  5
384E
330
1F
100
AcDbEntity
  8
太線
100
AcDbLine
 10
336.081513413272
 20
196.5628586478375
 30
0.0
 11
336.081513413272
 21
222.2961488256961
 31
0.0
  0
LINE
  5
384F
330
1F
100
AcDbEntity
  8
太線
100
AcDbLine
 10
333.581513413272
 20
221.7961488256961
 30
0.0
 11
333.581513413272
 21
196.5628586478374
 31
0.0
  0
ARC
  5
3850
330
1F
100
AcDbEntity
  8
太線
100
AcDbCircle
 10
337.581513413272
 20
196.5628586478375
 30
0.0
 40
1.5
100
AcDbArc
 50
180.0
 51
260.302097618944
  0
ARC
  5
3851
330
1F
100
AcDbEntity
  8
太線
100
AcDbCircle
 10
332.081513413272
 20
196.5628586478374
 30
0.0
 40
1.5
100
AcDbArc
 50
279.6979023810558
 51
0.0
  0
LINE
  5
3852
330
1F
100
AcDbEntity
  8
想像線
100
AcDbLine
 10
333.581513413272
 20
202.7961488256961
 30
0.0
 11
334.831513413272
 21
202.7961488256961
 31
0.0
  0
LINE
  5
3853
330
1F
100
AcDbEntity
  8
想像線
100
AcDbLine
 10
334.831513413272
 20
202.7961488256961
 30
0.0
 11
336.081513413272
 21
202.7961488256961
 31
0.0
  0
ARC
  5
3854
330
1F
100
AcDbEntity
  8
太線
100
AcDbCircle
 10
335.581513413272
 20
222.2961488256961
 30
0.0
 40
0.5
100
AcDbArc
 50
0.0
 51
89.99999999999992
  0
ARC
  5
3855
330
1F
100
AcDbEntity
  8
太線
100
AcDbCircle
 10
334.081513413272
 20
222.2961488256961
 30
0.0
 40
0.5
100
AcDbArc
 50
90.00000000000003
 51
180.0
  0
LINE
  5
3856
330
1F
100
AcDbEntity
  8
太線
100
AcDbLine
 10
333.581513413272
 20
222.2961488256961
 30
0.0
 11
333.581513413272
 21
221.7961488256961
 31
0.0
  0
LINE
  5
3857
330
1F
100
AcDbEntity
  8
太線
100
AcDbLine
 10
334.831513413272
 20
222.7961488256961
 30
0.0
 11
334.081513413272
 21
222.7961488256961
 31
0.0
  0
LINE
  5
3858
330
1F
100
AcDbEntity
  8
太線
100
AcDbLine
 10
335.581513413272
 20
222.7961488256961
 30
0.0
 11
334.581513413272
 21
222.7961488256961
 31
0.0
  0
LINE
  5
3859
330
1F
100
AcDbEntity
  8
想像線
100
AcDbLine
 10
333.581513413272
 20
217.7961488256961
 30
0.0
 11
336.081513413272
 21
217.7961488256961
 31
0.0
  0
XLINE
  5
3875
330
1F
100
AcDbEntity
  8
構築線
100
AcDbXline
 10
16.72429989445572
 20
93.71018724968337
 30
0.0
 11
0.0
 21
1.0
 31
0.0
  0
XLINE
  5
3876
330
1F
100
AcDbEntity
  8
構築線
100
AcDbXline
 10
16.72429989445572
 20
93.71018724968337
 30
0.0
 11
0.0
 21
-1.0
 31
0.0
  0
LINE
  5
3877
330
1F
100
AcDbEntity
  8
太線
100
AcDbLine
 10
118.344511075432
 20
97.9704601167994
 30
0.0
 11
121.3033525521157
 21
96.72267927001321
 31
0.0
  0
LINE
  5
3878
330
1F
100
AcDbEntity
  8
細線
100
AcDbLine
 10
121.5336784933918
 20
95.47285169188509
 30
0.0
 11
116.4587911950665
 21
95.46904488530636
 31
0.0
  0
ARC
  5
3879
330
1F
100
AcDbEntity
  8
太線
100
AcDbCircle
 10
104.3918826842604
 20
92.95999247616203
 30
0.0
 40
17.325
100
AcDbArc
 50
347.5423568354416
 51
12.54360129393208
  0
ARC
  5
387A
330
1F
100
AcDbEntity
  8
太線
100
AcDbCircle
 10
104.3918826842605
 20
92.95999247616203
 30
0.0
 40
14.825
100
AcDbArc
 50
189.6979023810559
 51
80.30209761894411
  0
LINE
  5
387B
330
1F
100
AcDbEntity
  8
太線
100
AcDbLine
 10
103.1418826842604
 20
134.284992476162
 30
0.0
 11
103.1418826842604
 21
109.0517022983033
 31
0.0
  0
LINE
  5
387C
330
1F
100
AcDbEntity
  8
太線
100
AcDbLine
 10
105.6418826842605
 20
109.0517022983033
 30
0.0
 11
105.6418826842605
 21
134.784992476162
 31
0.0
  0
LINE
  5
387D
330
1F
100
AcDbEntity
  8
細線
100
AcDbLine
 10
121.5995502897809
 20
94.97290096338156
 30
0.0
 11
116.5520246638575
 21
94.96911468151369
 31
0.0
  0
LINE
  5
387E
330
1F
100
AcDbEntity
  8
細線
100
AcDbLine
 10
121.5374291239811
 20
90.47285309860825
 30
0.0
 11
116.4625418256559
 21
90.46904629202954
 31
0.0
  0
LINE
  5
387F
330
1F
100
AcDbEntity
  8
細線
100
AcDbLine
 10
121.6025507942524
 20
90.97290208876001
 30
0.0
 11
116.5550251683291
 21
90.96911580689228
 31
0.0
  0
CIRCLE
  5
3880
330
1F
100
AcDbEntity
  8
太線
100
AcDbCircle
 10
104.3918826842605
 20
92.95999247616203
 30
0.0
 40
12.325
  0
TEXT
  5
3881
330
1F
100
AcDbEntity
  8
文字
100
AcDbText
 10
104.9776191992909
 20
68.66816388418328
 30
0.0
 40
4.799999999999999
  1
S-7-1S
 51
15.0
  7
OKANO
100
AcDbText
  0
LINE
  5
3882
330
1F
100
AcDbEntity
  8
太線
100
AcDbLine
 10
118.3520123366105
 20
87.97046293024575
 30
0.0
 11
121.3089784979997
 21
89.22268138009805
 31
0.0
  0
ARC
  5
388B
330
1F
100
AcDbEntity
  8
太線
100
AcDbCircle
 10
104.3918826842605
 20
92.95999247616203
 30
0.0
 40
14.825
100
AcDbArc
 50
99.6979023810559
 51
170.3020976189439
  0
ARC
  5
388C
330
1F
100
AcDbEntity
  8
太線
100
AcDbCircle
 10
101.6418826842605
 20
109.0517022983033
 30
0.0
 40
1.5
100
AcDbArc
 50
279.6979023810558
 51
0.0
  0
ARC
  5
388D
330
1F
100
AcDbEntity
  8
太線
100
AcDbCircle
 10
107.1418826842605
 20
109.0517022983033
 30
0.0
 40
1.5
100
AcDbArc
 50
180.0
 51
260.302097618944
  0
LINE
  5
3892
330
1F
100
AcDbEntity
  8
想像線
100
AcDbLine
 10
104.3918826842605
 20
115.284992476162
 30
0.0
 11
105.6418826842605
 21
115.284992476162
 31
0.0
  0
LINE
  5
3893
330
1F
100
AcDbEntity
  8
想像線
100
AcDbLine
 10
103.1418826842604
 20
115.284992476162
 30
0.0
 11
104.3918826842605
 21
115.284992476162
 31
0.0
  0
LINE
  5
3894
330
1F
100
AcDbEntity
  8
想像線
100
AcDbLine
 10
103.1418826842604
 20
130.284992476162
 30
0.0
 11
105.6418826842605
 21
130.284992476162
 31
0.0
  0
LINE
  5
3895
330
1F
100
AcDbEntity
  8
太線
100
AcDbLine
 10
105.1418826842605
 20
135.284992476162
 30
0.0
 11
104.1418826842605
 21
135.284992476162
 31
0.0
  0
ARC
  5
3896
330
1F
100
AcDbEntity
  8
太線
100
AcDbCircle
 10
103.6418826842605
 20
134.784992476162
 30
0.0
 40
0.5
100
AcDbArc
 50
90.00000000000003
 51
180.0
  0
LINE
  5
3897
330
1F
100
AcDbEntity
  8
太線
100
AcDbLine
 10
104.3918826842605
 20
135.284992476162
 30
0.0
 11
103.6418826842605
 21
135.284992476162
 31
0.0
  0
LINE
  5
3898
330
1F
100
AcDbEntity
  8
太線
100
AcDbLine
 10
103.1418826842604
 20
134.784992476162
 30
0.0
 11
103.1418826842604
 21
134.284992476162
 31
0.0
  0
ARC
  5
3899
330
1F
100
AcDbEntity
  8
太線
100
AcDbCircle
 10
105.1418826842605
 20
134.784992476162
 30
0.0
 40
0.5
100
AcDbArc
 50
0.0
 51
89.99999999999992
  0
LINE
  5
389A
330
1F
100
AcDbEntity
  8
太線
100
AcDbLine
 10
89.77873731744608
 20
90.4626724149063
 30
0.0
 11
89.77873731744608
 21
95.45731253741779
 31
0.0
  0
XLINE
  5
389C
330
1F
100
AcDbEntity
  8
構築線
100
AcDbXline
 10
231.8479894305562
 20
180.4711488256961
 30
0.0
 11
-0.8660254037844387
 21
0.5
 31
0.0
  0
XLINE
  5
389E
330
1F
100
AcDbEntity
  8
構築線
100
AcDbXline
 10
199.523591234302
 20
199.1336488256962
 30
0.0
 11
0.8660254037844394
 21
0.499999999999999
 31
0.0
  0
LINE
  5
38A0
330
1F
100
AcDbEntity
  8
太線
100
AcDbLine
 10
217.2348440637417
 20
182.9684688869519
 30
0.0
 11
217.2348440637417
 21
177.9738287644404
 31
0.0
  0
XLINE
  5
38A6
330
1F
100
AcDbEntity
  8
構築線
100
AcDbXline
 10
216.2534340766844
 20
171.4676280942458
 30
0.0
 11
0.8660254037844394
 21
0.499999999999999
 31
0.0
  0
XLINE
  5
38AA
330
1F
100
AcDbEntity
  8
構築線
100
AcDbXline
 10
334.831513413272
 20
180.4711488256961
 30
0.0
 11
0.8660254037844383
 21
-0.5000000000000005
 31
0.0
  0
LINE
  5
38AB
330
1F
100
AcDbEntity
  8
太線
100
AcDbLine
 10
369.9950132246637
 20
158.7261170709653
 30
0.0
 11
348.1423429095739
 21
171.3427621598948
 31
0.0
  0
LINE
  5
38AC
330
1F
100
AcDbEntity
  8
太線
100
AcDbLine
 10
349.3923429095739
 20
173.5078256693559
 30
0.0
 11
371.678025926556
 21
160.6411805804264
 31
0.0
  0
ARC
  5
38AD
330
1F
100
AcDbEntity
  8
太線
100
AcDbCircle
 10
350.142342909574
 20
174.8068637750326
 30
0.0
 40
1.5
100
AcDbArc
 50
159.6979023810555
 51
239.9999999999995
  0
ARC
  5
38AE
330
1F
100
AcDbEntity
  8
太線
100
AcDbCircle
 10
347.3923429095739
 20
170.0437240542182
 30
0.0
 40
1.5
100
AcDbArc
 50
59.99999999999951
 51
140.3020976189435
  0
LINE
  5
38AF
330
1F
100
AcDbEntity
  8
想像線
100
AcDbLine
 10
354.1655305527595
 20
169.308648825696
 30
0.0
 11
354.7905305527595
 21
170.3911805804265
 31
0.0
  0
LINE
  5
38B0
330
1F
100
AcDbEntity
  8
想像線
100
AcDbLine
 10
353.5405305527595
 20
168.2261170709655
 30
0.0
 11
354.1655305527595
 21
169.308648825696
 31
0.0
  0
LINE
  5
38B1
330
1F
100
AcDbEntity
  8
想像線
100
AcDbLine
 10
366.530911609526
 20
160.7261170709653
 30
0.0
 11
367.780911609526
 21
162.8911805804264
 31
0.0
  0
LINE
  5
38B2
330
1F
100
AcDbEntity
  8
太線
100
AcDbLine
 10
371.8610386284482
 20
159.9581678785342
 30
0.0
 11
371.3610386284482
 21
159.0921424747497
 31
0.0
  0
ARC
  5
38B3
330
1F
100
AcDbEntity
  8
太線
100
AcDbCircle
 10
371.428025926556
 20
160.2081678785341
 30
0.0
 40
0.5
100
AcDbArc
 50
329.9999999999996
 51
59.99999999999951
  0
LINE
  5
38B4
330
1F
100
AcDbEntity
  8
太線
100
AcDbLine
 10
370.428025926556
 20
158.4761170709653
 30
0.0
 11
369.9950132246637
 21
158.7261170709653
 31
0.0
  0
ARC
  5
38B5
330
1F
100
AcDbEntity
  8
太線
100
AcDbCircle
 10
370.678025926556
 20
158.9091297728575
 30
0.0
 40
0.5
100
AcDbArc
 50
239.9999999999995
 51
329.9999999999995
  0
LINE
  5
38B6
330
1F
100
AcDbEntity
  8
太線
100
AcDbLine
 10
371.4860386284482
 20
159.3086488256958
 30
0.0
 11
371.1110386284482
 21
158.6591297728575
 31
0.0
  0
LINE
  5
38B7
330
1F
100
AcDbEntity
  8
太線
100
AcDbLine
 10
320.2183680464576
 20
182.9684688869519
 30
0.0
 11
320.2183680464576
 21
177.9738287644404
 31
0.0
  0
LINE
  5
38B8
330
1F
100
AcDbEntity
  8
太線
100
AcDbLine
 10
231.8479894305562
 20
180.4711488256961
 30
0.0
 11
221.1742263289129
 21
186.6336488256961
 31
0.0
  0
LINE
  5
38B9
330
1F
100
AcDbEntity
  8
太線
100
AcDbLine
 10
231.8479894305562
 20
192.7961488256961
 30
0.0
 11
231.8479894305562
 21
180.4711488256961
 31
0.0
  0
DIMENSION
  5
38BA
330
1F
100
AcDbEntity
  8
寸法線
100
AcDbDimension
  2
*D21
 10
221.1742263289129
 20
186.6336488256961
 30
0.0
 11
217.0770490206561
 21
206.0551680912154
 31
0.0
 70
    34
 71
     5
 42
1.047197551196602
  3
sunpo
100
AcDb2LineAngularDimension
 13
231.8479894305562
 23
192.7961488256961
 33
0.0
 14
231.8479894305562
 24
180.4711488256961
 34
0.0
 15
231.8479894305562
 25
180.4711488256961
 35
0.0
 16
222.9411416200982
 26
204.9425120634484
 36
0.0
1001
ACAD
1000
DSTYLE
1002
{
1070
    40
1040
1.0
1002
}
  0
LINE
  5
38C9
330
1F
100
AcDbEntity
  8
太線
100
AcDbLine
 10
334.831513413272
 20
180.4711488256961
 30
0.0
 11
324.1577503116289
 21
174.308648825696
 31
0.0
  0
LINE
  5
38CA
330
1F
100
AcDbEntity
  8
太線
100
AcDbLine
 10
324.1577503116289
 20
174.308648825696
 30
0.0
 11
334.831513413272
 21
180.4711488256961
 31
0.0
  0
LINE
  5
38CB
330
1F
100
AcDbEntity
  8
太線
100
AcDbLine
 10
334.831513413272
 20
180.4711488256961
 30
0.0
 11
334.831513413272
 21
192.7961488256961
 31
0.0
  0
DIMENSION
  5
38CC
330
1F
100
AcDbEntity
  8
寸法線
100
AcDbDimension
  2
*D22
 10
334.831513413272
 20
180.4711488256961
 30
0.0
 11
307.2951476896383
 21
196.3692769887397
 31
0.0
 70
    34
 71
     5
 42
2.094395102393208
  3
sunpo
100
AcDb2LineAngularDimension
 13
334.831513413272
 23
180.4711488256961
 33
0.0
 14
334.831513413272
 24
192.7961488256961
 34
0.0
 15
324.1577503116289
 25
174.308648825696
 35
0.0
 16
316.6433467788335
 26
202.1469617549902
 36
0.0
1001
ACAD
1000
DSTYLE
1002
{
1070
    40
1040
1.0
1002
}
  0
ARC
  5
3948
330
1F
100
AcDbEntity
  8
太線
100
AcDbCircle
 10
6.224299894455739
 20
93.3505092129126
 30
0.0
 40
3.000000000000014
100
AcDbArc
 50
270.0
 51
90.0
  0
ARC
  5
3949
330
1F
100
AcDbEntity
  8
太線
100
AcDbCircle
 10
4.224299894455725
 20
93.35050921291262
 30
0.0
 40
14.82603284766359
100
AcDbArc
 50
89.32369000118638
 51
270.676309998812
  0
LINE
  5
394A
330
1F
100
AcDbEntity
  8
太線
100
AcDbLine
 10
4.049299894456325
 20
78.52550921291262
 30
0.0
 11
19.22429989445572
 21
78.52550921291262
 31
0.0
  0
LINE
  5
394B
330
1F
100
AcDbEntity
  8
太線
100
AcDbLine
 10
4.399299894455722
 20
108.1755092129126
 30
0.0
 11
35.72429989445572
 21
108.1755092129126
 31
0.0
  0
LINE
  5
394D
330
1F
100
AcDbEntity
  8
太線
100
AcDbLine
 10
-2.775700105544274
 20
90.35050921291263
 30
0.0
 11
6.224299894455725
 21
90.35050921291263
 31
0.0
  0
LINE
  5
394E
330
1F
100
AcDbEntity
  8
太線
100
AcDbLine
 10
-2.775700105544274
 20
96.35050921291259
 30
0.0
 11
6.224299894455725
 21
96.35050921291263
 31
0.0
  0
ARC
  5
394F
330
1F
100
AcDbEntity
  8
太線
100
AcDbCircle
 10
-2.775700105544274
 20
93.3505092129126
 30
0.0
 40
2.999999999999985
100
AcDbArc
 50
90.0
 51
270.0
  0
LINE
  5
3952
330
1F
100
AcDbEntity
  8
太線
100
AcDbLine
 10
16.72429989445572
 20
108.1755092129126
 30
0.0
 11
16.72429989445572
 21
78.52550921291262
 31
0.0
  0
LINE
  5
3954
330
1F
100
AcDbEntity
  8
破線
100
AcDbLine
 10
19.22429989445572
 20
104.6755092129126
 30
0.0
 11
19.22429989445572
 21
82.02550921291262
 31
0.0
  0
LINE
  5
3955
330
1F
100
AcDbEntity
  8
太線
100
AcDbLine
 10
36.72429989445572
 20
107.1755092129126
 30
0.0
 11
36.72429989445571
 21
79.52550921291262
 31
0.0
  0
LINE
  5
3956
330
1F
100
AcDbEntity
  8
破線
100
AcDbLine
 10
36.72429989445572
 20
81.02550921291262
 30
0.0
 11
19.22429989445572
 21
81.02550921291262
 31
0.0
  0
LINE
  5
3957
330
1F
100
AcDbEntity
  8
太線
100
AcDbLine
 10
35.72429989445571
 20
78.52550921291262
 30
0.0
 11
19.22429989445572
 21
78.52550921291262
 31
0.0
  0
LINE
  5
3958
330
1F
100
AcDbEntity
  8
破線
100
AcDbLine
 10
19.22429989445572
 20
81.02550921291262
 30
0.0
 11
19.22429989445572
 21
82.02550921291262
 31
0.0
  0
LINE
  5
3959
330
1F
100
AcDbEntity
  8
想像線
100
AcDbLine
 10
19.22429989445572
 20
90.85050921291262
 30
0.0
 11
16.72429989445572
 21
90.85050921291262
 31
0.0
  0
LINE
  5
395A
330
1F
100
AcDbEntity
  8
想像線
100
AcDbLine
 10
19.22429989445571
 20
95.85050921291262
 30
0.0
 11
16.72429989445572
 21
95.85050921291262
 31
0.0
  0
ARC
  5
395B
330
1F
100
AcDbEntity
  8
太線
100
AcDbCircle
 10
35.72429989445571
 20
79.52550921291262
 30
0.0
 40
1.0
100
AcDbArc
 50
270.0
 51
0.0
  0
CIRCLE
  5
395C
330
1F
100
AcDbEntity
  8
太線
100
AcDbCircle
 10
30.72429989445572
 20
93.35050921291262
 30
0.0
 40
3.750000000000008
  0
CIRCLE
  5
395D
330
1F
100
AcDbEntity
  8
太線
100
AcDbCircle
 10
30.72429989445572
 20
93.35050921291262
 30
0.0
 40
2.499999999999999
  0
CIRCLE
  5
395E
330
1F
100
AcDbEntity
  8
太線
100
AcDbCircle
 10
30.72429989445572
 20
93.35050921291262
 30
0.0
 40
1.999999999999997
  0
CIRCLE
  5
395F
330
1F
100
AcDbEntity
  8
太線
100
AcDbCircle
 10
30.72429989445572
 20
93.35050921291262
 30
0.0
 40
5.000000000000001
  0
LINE
  5
3960
330
1F
100
AcDbEntity
  8
破線
100
AcDbLine
 10
36.72429989445572
 20
105.6755092129126
 30
0.0
 11
19.22429989445572
 21
105.6755092129126
 31
0.0
  0
LINE
  5
3961
330
1F
100
AcDbEntity
  8
破線
100
AcDbLine
 10
19.22429989445572
 20
105.6755092129126
 30
0.0
 11
19.22429989445572
 21
104.6755092129126
 31
0.0
  0
ARC
  5
3962
330
1F
100
AcDbEntity
  8
太線
100
AcDbCircle
 10
35.72429989445572
 20
107.1755092129126
 30
0.0
 40
1.0
100
AcDbArc
 50
0.0
 51
90.0
  0
XLINE
  5
39F9
330
1F
100
AcDbEntity
  8
構築線
100
AcDbXline
 10
109.680947493093
 20
77.81822094974177
 30
0.0
 11
-1.0
 21
0.0
 31
0.0
  0
XLINE
  5
39FA
330
1F
100
AcDbEntity
  8
構築線
100
AcDbXline
 10
107.7539436282079
 20
108.1755092129126
 30
0.0
 11
-1.0
 21
0.0
 31
0.0
  0
TEXT
  5
39FB
330
1F
100
AcDbEntity
  8
寸法線
100
AcDbText
 10
7.773026607176916
 20
112.8996540351349
 30
0.0
 40
4.799999999999999
  1
S-6-1E
 51
15.0
  7
OKANO
100
AcDbText
  0
TEXT
  5
39FE
330
1F
100
AcDbEntity
  8
文字
100
AcDbText
 10
249.9631806075585
 20
-15.38186110601982
 30
0.0
 40
4.799999999999999
  1
S-8-1E
 51
15.0
  7
OKANO
100
AcDbText
  0
TEXT
  5
39FF
330
1F
100
AcDbEntity
  8
太線
100
AcDbText
 10
284.3343274026078
 20
-20.67966718167554
 30
0.0
 40
4.799999999999999
  1
ボルト接続金具類　　　　　　
 51
15.0
  7
OKANO
100
AcDbText
  0
XLINE
  5
3A10
330
1F
100
AcDbEntity
  8
構築線
100
AcDbXline
 10
231.8479894305562
 20
92.95999247616203
 30
0.0
 11
-0.7071067811865475
 21
0.7071067811865476
 31
0.0
  0
XLINE
  5
3A11
330
1F
100
AcDbEntity
  8
構築線
100
AcDbXline
 10
174.3132045392745
 20
92.95999247616203
 30
0.0
 11
-0.7071067811865475
 21
0.7071067811865476
 31
0.0
  0
LINE
  5
3A12
330
1F
100
AcDbEntity
  8
細線
100
AcDbLine
 10
245.4879996911273
 20
82.27796340432789
 30
0.0
 11
241.9858621573279
 21
85.95077272102727
 31
0.0
  0
LINE
  5
3A13
330
1F
100
AcDbEntity
  8
太線
100
AcDbLine
 10
245.0977812529476
 20
86.30990663737126
 30
0.0
 11
246.2343534155849
 21
83.30659119525259
 31
0.0
  0
ARC
  5
3A14
330
1F
100
AcDbEntity
  8
太線
100
AcDbCircle
 10
231.847989430556
 20
92.95999247616203
 30
0.0
 40
17.325
100
AcDbArc
 50
301.1367294756545
 51
326.1379739341449
  0
LINE
  5
3A15
330
1F
100
AcDbEntity
  8
太線
100
AcDbLine
 10
237.860559877438
 20
79.40899171528545
 30
0.0
 11
240.8064373839528
 21
78.13090500368819
 31
0.0
  0
LINE
  5
3A16
330
1F
100
AcDbEntity
  8
細線
100
AcDbLine
 10
245.1713373735068
 20
81.8855162090392
 30
0.0
 11
241.688081902357
 21
85.53852327212959
 31
0.0
  0
LINE
  5
3A17
330
1F
100
AcDbEntity
  8
細線
100
AcDbLine
 10
241.8693890033724
 20
78.82750594328499
 30
0.0
 11
238.3672514695732
 21
82.50031525998426
 31
0.0
  0
LINE
  5
3A18
330
1F
100
AcDbEntity
  8
細線
100
AcDbLine
 10
242.2764488233029
 20
79.12515024020476
 30
0.0
 11
238.7931933521532
 21
82.77815730329521
 31
0.0
  0
XLINE
  5
3A19
330
1F
100
AcDbEntity
  8
構築線
100
AcDbXline
 10
174.3132045392745
 20
92.95999247616203
 30
0.0
 11
0.7071067811865476
 21
0.7071067811865475
 31
0.0
  0
LINE
  5
3A1A
330
1F
100
AcDbEntity
  8
細線
100
AcDbLine
 10
163.6311754674403
 20
106.6000027367331
 30
0.0
 11
167.3039847841397
 21
103.0978652029338
 31
0.0
  0
LINE
  5
3A1B
330
1F
100
AcDbEntity
  8
太線
100
AcDbLine
 10
167.6631187004837
 20
106.2097842985535
 30
0.0
 11
164.659803258365
 21
107.3463564611907
 31
0.0
  0
ARC
  5
3A1C
330
1F
100
AcDbEntity
  8
太線
100
AcDbCircle
 10
174.3132045392745
 20
92.95999247616197
 30
0.0
 40
17.325
100
AcDbArc
 50
123.862026065855
 51
148.8632705243454
  0
LINE
  5
3A1D
330
1F
100
AcDbEntity
  8
太線
100
AcDbLine
 10
160.7622037783979
 20
98.97256292304389
 30
0.0
 11
159.4841170668006
 21
101.9184404295587
 31
0.0
  0
LINE
  5
3A1E
330
1F
100
AcDbEntity
  8
細線
100
AcDbLine
 10
163.2387282721516
 20
106.2833404191127
 30
0.0
 11
166.891735335242
 21
102.8000849479629
 31
0.0
  0
LINE
  5
3A1F
330
1F
100
AcDbEntity
  8
細線
100
AcDbLine
 10
160.1807180063974
 20
102.9813920489783
 30
0.0
 11
163.8535273230967
 21
99.47925451517916
 31
0.0
  0
LINE
  5
3A20
330
1F
100
AcDbEntity
  8
細線
100
AcDbLine
 10
160.4783623033172
 20
103.3884518689088
 30
0.0
 11
164.1313693664077
 21
99.9051963977592
 31
0.0
  0
VIEWPORT
  5
2E
330
1B
100
AcDbEntity
 67
     1
  8
0
100
AcDbViewport
 10
313.3896788881605
 20
130.6386343142036
 30
0.0
 40
933.9271955189747
 41
474.3444765438838
 68
     2
 69
     1
 12
313.3896788881605
 22
130.6386343142036
 13
0.0
 23
0.0
 14
10.0
 24
10.0
 15
10.0
 25
10.0
 16
0.0
 26
0.0
 36
1.0
 17
0.0
 27
0.0
 37
0.0
 42
50.0
 43
0.0
 44
0.0
 45
474.3444765438838
 50
0.0
 51
0.0
 72
   100
 90
    32800
  1

281
     0
 71
     1
 74
     0
110
0.0
120
0.0
130
0.0
111
1.0
121
0.0
131
0.0
112
0.0
122
1.0
132
0.0
 79
     0
146
0.0
  0
VIEWPORT
  5
30
330
1B
100
AcDbEntity
 67
     1
  8
70-0-CON
100
AcDbViewport
 10
141.8594093064315
 20
100.3480256368386
 30
0.0
 40
261.6199023344245
 41
192.6196987113174
 68
     1
 69
     2
 12
167.7158376797074
 22
107.1139618619752
 13
0.0
 23
0.0
 14
5.0
 24
5.0
 15
10.0
 25
10.0
 16
0.0
 26
0.0
 36
1.0
 17
0.0
 27
0.0
 37
0.0
 42
50.0
 43
0.0
 44
0.0
 45
339.6187152129936
 50
0.0
 51
0.0
 72
   100
 90
    32864
  1

281
     0
 71
     1
 74
     0
110
0.0
120
0.0
130
0.0
111
1.0
121
0.0
131
0.0
112
0.0
122
1.0
132
0.0
 79
     0
146
0.0
  0
LWPOLYLINE
  5
45
330
1B
100
AcDbEntity
 67
     1
  8
50-0-CON
100
AcDbPolyline
 90
        4
 70
     1
 43
0.0
 10
11.04945813921926
 20
4.038176281179858
 10
272.2125713060605
 20
4.033520706629644
 10
273.4987754093466
 20
195.9297862125246
 10
11.04945813921926
 20
196.6578749924973
  0
LINE
  5
4A
330
1B
100
AcDbEntity
 67
     1
  8
50-0-CON
100
AcDbLine
 10
10.38768783662635
 20
100.3480256368386
 30
0.0
 11
-4.391850629656119
 21
100.3480256368386
 31
0.0
  0
LINE
  5
4B
330
1B
100
AcDbEntity
 67
     1
  8
50-0-CON
100
AcDbLine
 10
141.8594093064315
 20
197.098652626247
 30
0.0
 11
141.8594093064315
 21
202.387980773708
 31
0.0
  0
LINE
  5
4C
330
1B
100
AcDbEntity
 67
     1
  8
50-0-CON
100
AcDbLine
 10
272.4487699456857
 20
100.7888032705883
 30
0.0
 11
278.8458837249377
 21
100.7888032705883
 31
0.0
  0
LINE
  5
4D
330
1B
100
AcDbEntity
 67
     1
  8
50-0-CON
100
AcDbLine
 10
140.9770484758805
 20
4.038176281179858
 30
0.0
 11
140.9770484758805
 21
-3.455038652015446
 31
0.0
  0
ENDSEC
  0
SECTION
  2
OBJECTS
  0
DICTIONARY
  5
C
330
0
100
AcDbDictionary
281
     1
  3
ACAD_GROUP
350
D
  3
ACAD_LAYOUT
350
1A
  3
ACAD_MLINESTYLE
350
17
  3
ACAD_PLOTSETTINGS
350
19
  3
ACAD_PLOTSTYLENAME
350
E
  3
AcadDim
350
13D0
  3
AcDbVariableDictionary
350
6AD
  3
DWGPROPS
350
30F
  0
DICTIONARY
  5
D
102
{ACAD_REACTORS
330
C
102
}
330
C
100
AcDbDictionary
281
     1
  0
DICTIONARY
  5
1A
102
{ACAD_REACTORS
330
C
102
}
330
C
100
AcDbDictionary
281
     1
  3
A4
350
1E
  3
Model
350
22
  0
DICTIONARY
  5
17
102
{ACAD_REACTORS
330
C
102
}
330
C
100
AcDbDictionary
281
     1
  3
Standard
350
18
  0
DICTIONARY
  5
19
102
{ACAD_REACTORS
330
C
102
}
330
C
100
AcDbDictionary
281
     1
  0
ACDBDICTIONARYWDFLT
  5
E
102
{ACAD_REACTORS
330
C
102
}
330
C
100
AcDbDictionary
281
     1
  3
Normal
350
F
100
AcDbDictionaryWithDefault
340
F
  0
XRECORD
  5
13D0
102
{ACAD_REACTORS
330
C
102
}
330
C
100
AcDbXrecord
280
     1
 90
   990106
  3

 60
     0
 61
     0
 62
     1
 63
     3
 64
     0
 65
     0
 66
     0
 67
     3
 68
     1
 69
     0
 70
     0
 71
     0
 72
     0
 40
9.044121132502835
170
     0
  0
DICTIONARY
  5
6AD
102
{ACAD_REACTORS
330
C
102
}
330
C
100
AcDbDictionary
281
     1
  3
SORTENTS
350
6AE
  0
XRECORD
  5
30F
102
{ACAD_REACTORS
330
C
102
}
330
C
100
AcDbXrecord
280
     1
  1
DWGPROPS COOKIE
  2

  3

  4

  6

  7

  8

  9

300
=
301
=
302
=
303
=
304
=
305
=
306
=
307
=
308
=
309
=
 40
0.3303803125
 41
2452362.482225463
 42
2452370.969861285
  1

 90
        0
  0
LAYOUT
  5
1E
102
{ACAD_REACTORS
330
1A
102
}
330
1A
100
AcDbPlotSettings
  1

  2
EPSON PM-920C
  4
A4
  6

 40
3.757083177566528
 41
14.7637300491333
 42
3.757080078125
 43
3.757080078125
 44
209.9733276367187
 45
296.9683227539062
 46
0.0
 47
0.0
 48
0.0
 49
0.0
140
0.0
141
0.0
142
1.0
143
1.0
 70
   688
 72
     1
 73
     1
 74
     5
  7
joint.ctb
 75
    16
147
1.0
148
0.0
149
0.0
100
AcDbLayout
  1
A4
 70
     1
 71
     1
 10
-3.757080078125
 20
-3.757083177566528
 11
293.2112426757812
 21
206.2162444591522
 12
0.0
 22
0.0
 32
0.0
 14
-4.391850629656119
 24
-3.455038652015446
 34
0.0
 15
278.8458837249377
 25
202.387980773708
 35
0.0
146
0.0
 13
0.0
 23
0.0
 33
0.0
 16
1.0
 26
0.0
 36
0.0
 17
0.0
 27
1.0
 37
0.0
 76
     0
330
1B
331
30
  0
LAYOUT
  5
22
102
{ACAD_REACTORS
330
1A
102
}
330
1A
100
AcDbPlotSettings
  1

  2
EPSON PM-920C
  4
A4
  6

 40
3.757083177566528
 41
14.7637300491333
 42
3.757080078125
 43
3.757080078125
 44
209.9733276367187
 45
296.9683227539062
 46
0.0
 47
0.0
 48
0.0
 49
0.0
140
0.0
141
0.0
142
1.0
143
1.0
 70
 11952
 72
     1
 73
     1
 74
     0
  7

 75
     0
147
1.0
148
-45.64199848979289
149
-84.48806419330498
100
AcDbLayout
  1
Model
 70
     1
 71
     0
 10
0.0
 20
0.0
 11
12.0
 21
9.0
 12
0.0
 22
0.0
 32
0.0
 14
0.0
 24
0.0
 34
0.0
 15
0.0
 25
0.0
 35
0.0
146
0.0
 13
0.0
 23
0.0
 33
0.0
 16
1.0
 26
0.0
 36
0.0
 17
0.0
 27
1.0
 37
0.0
 76
     0
330
1F
  0
MLINESTYLE
  5
18
102
{ACAD_REACTORS
330
17
102
}
330
17
100
AcDbMlineStyle
  2
STANDARD
 70
     0
  3

 62
   256
 51
90.0
 52
90.0
 71
     2
 49
0.5
 62
   256
  6
BYLAYER
 49
-0.5
 62
   256
  6
BYLAYER
  0
ACDBPLACEHOLDER
  5
F
102
{ACAD_REACTORS
330
E
102
}
330
E
  0
DICTIONARYVAR
  5
6AE
102
{ACAD_REACTORS
330
6AD
102
}
330
6AD
100
DictionaryVariables
280
     0
  1
96
  0
ENDSEC
  0
EOF
