  0
SECTION
  2
HEADER
  9
$ACADVER
  1
AC1015
  9
$ACADMAINTVER
 70
     6
  9
$DWGCODEPAGE
  3
ANSI_932
  9
$INSBASE
 10
0.0
 20
0.0
 30
0.0
  9
$EXTMIN
 10
-25.75713634563596
 20
-30.50423175958008
 30
0.0
  9
$EXTMAX
 10
418.0345833865089
 20
229.9750586256539
 30
0.0
  9
$LIMMIN
 10
0.0
 20
0.0
  9
$LIMMAX
 10
420.0
 20
297.0
  9
$ORTHOMODE
 70
     1
  9
$REGENMODE
 70
     1
  9
$FILLMODE
 70
     1
  9
$QTEXTMODE
 70
     0
  9
$MIRRTEXT
 70
     1
  9
$LTSCALE
 40
1.0
  9
$ATTMODE
 70
     1
  9
$TEXTSIZE
 40
5.0
  9
$TRACEWID
 40
1.0
  9
$TEXTSTYLE
  7
OKANO
  9
$CLAYER
  8
太線
  9
$CELTYPE
  6
ByLayer
  9
$CECOLOR
 62
   256
  9
$CELTSCALE
 40
1.0
  9
$DISPSILH
 70
     0
  9
$DIMSCALE
 40
0.0
  9
$DIMASZ
 40
3.0
  9
$DIMEXO
 40
2.0
  9
$DIMDLI
 40
8.0
  9
$DIMRND
 40
0.0
  9
$DIMDLE
 40
0.0
  9
$DIMEXE
 40
3.0
  9
$DIMTP
 40
0.0
  9
$DIMTM
 40
0.0
  9
$DIMTXT
 40
5.0
  9
$DIMCEN
 40
2.5
  9
$DIMTSZ
 40
0.0
  9
$DIMTOL
 70
     0
  9
$DIMLIM
 70
     0
  9
$DIMTIH
 70
     0
  9
$DIMTOH
 70
     0
  9
$DIMSE1
 70
     0
  9
$DIMSE2
 70
     0
  9
$DIMTAD
 70
     1
  9
$DIMZIN
 70
     8
  9
$DIMBLK
  1
Closed
  9
$DIMASO
 70
     1
  9
$DIMSHO
 70
     1
  9
$DIMPOST
  1

  9
$DIMAPOST
  1

  9
$DIMALT
 70
     0
  9
$DIMALTD
 70
     3
  9
$DIMALTF
 40
0.03937007874016
  9
$DIMLFAC
 40
1.0
  9
$DIMTOFL
 70
     1
  9
$DIMTVP
 40
0.0
  9
$DIMTIX
 70
     0
  9
$DIMSOXD
 70
     0
  9
$DIMSAH
 70
     0
  9
$DIMBLK1
  1

  9
$DIMBLK2
  1

  9
$DIMSTYLE
  2
sunpo
  9
$DIMCLRD
 70
     0
  9
$DIMCLRE
 70
     0
  9
$DIMCLRT
 70
     0
  9
$DIMTFAC
 40
1.0
  9
$DIMGAP
 40
1.0
  9
$DIMJUST
 70
     0
  9
$DIMSD1
 70
     0
  9
$DIMSD2
 70
     0
  9
$DIMTOLJ
 70
     0
  9
$DIMTZIN
 70
     8
  9
$DIMALTZ
 70
     0
  9
$DIMALTTZ
 70
     0
  9
$DIMUPT
 70
     0
  9
$DIMDEC
 70
     2
  9
$DIMTDEC
 70
     2
  9
$DIMALTU
 70
     2
  9
$DIMALTTD
 70
     3
  9
$DIMTXSTY
  7
OKANO
  9
$DIMAUNIT
 70
     0
  9
$DIMADEC
 70
     0
  9
$DIMALTRND
 40
0.0
  9
$DIMAZIN
 70
     0
  9
$DIMDSEP
 70
    46
  9
$DIMATFIT
 70
     3
  9
$DIMFRAC
 70
     0
  9
$DIMLDRBLK
  1
Closed
  9
$DIMLUNIT
 70
     2
  9
$DIMLWD
 70
    -2
  9
$DIMLWE
 70
    -2
  9
$DIMTMOVE
 70
     0
  9
$LUNITS
 70
     2
  9
$LUPREC
 70
     2
  9
$SKETCHINC
 40
1.0
  9
$FILLETRAD
 40
3.0
  9
$AUNITS
 70
     0
  9
$AUPREC
 70
     0
  9
$MENU
  1
.
  9
$ELEVATION
 40
0.0
  9
$PELEVATION
 40
0.0
  9
$THICKNESS
 40
0.0
  9
$LIMCHECK
 70
     0
  9
$CHAMFERA
 40
10.0
  9
$CHAMFERB
 40
10.0
  9
$CHAMFERC
 40
20.0
  9
$CHAMFERD
 40
0.0
  9
$SKPOLY
 70
     0
  9
$TDCREATE
 40
2452362.482225463
  9
$TDUCREATE
 40
2452362.107225463
  9
$TDUPDATE
 40
2456647.538749027
  9
$TDUUPDATE
 40
2456647.163749028
  9
$TDINDWG
 40
2.5292810185
  9
$TDUSRTIMER
 40
2.5292810185
  9
$USRTIMER
 70
     1
  9
$ANGBASE
 50
0.0
  9
$ANGDIR
 70
     0
  9
$PDMODE
 70
     0
  9
$PDSIZE
 40
0.0
  9
$PLINEWID
 40
0.0
  9
$SPLFRAME
 70
     0
  9
$SPLINETYPE
 70
     6
  9
$SPLINESEGS
 70
     8
  9
$HANDSEED
  5
3BD4
  9
$SURFTAB1
 70
     6
  9
$SURFTAB2
 70
     6
  9
$SURFTYPE
 70
     6
  9
$SURFU
 70
     6
  9
$SURFV
 70
     6
  9
$UCSBASE
  2

  9
$UCSNAME
  2

  9
$UCSORG
 10
0.0
 20
0.0
 30
0.0
  9
$UCSXDIR
 10
1.0
 20
0.0
 30
0.0
  9
$UCSYDIR
 10
0.0
 20
1.0
 30
0.0
  9
$UCSORTHOREF
  2

  9
$UCSORTHOVIEW
 70
     0
  9
$UCSORGTOP
 10
0.0
 20
0.0
 30
0.0
  9
$UCSORGBOTTOM
 10
0.0
 20
0.0
 30
0.0
  9
$UCSORGLEFT
 10
0.0
 20
0.0
 30
0.0
  9
$UCSORGRIGHT
 10
0.0
 20
0.0
 30
0.0
  9
$UCSORGFRONT
 10
0.0
 20
0.0
 30
0.0
  9
$UCSORGBACK
 10
0.0
 20
0.0
 30
0.0
  9
$PUCSBASE
  2

  9
$PUCSNAME
  2

  9
$PUCSORG
 10
0.0
 20
0.0
 30
0.0
  9
$PUCSXDIR
 10
1.0
 20
0.0
 30
0.0
  9
$PUCSYDIR
 10
0.0
 20
1.0
 30
0.0
  9
$PUCSORTHOREF
  2

  9
$PUCSORTHOVIEW
 70
     0
  9
$PUCSORGTOP
 10
0.0
 20
0.0
 30
0.0
  9
$PUCSORGBOTTOM
 10
0.0
 20
0.0
 30
0.0
  9
$PUCSORGLEFT
 10
0.0
 20
0.0
 30
0.0
  9
$PUCSORGRIGHT
 10
0.0
 20
0.0
 30
0.0
  9
$PUCSORGFRONT
 10
0.0
 20
0.0
 30
0.0
  9
$PUCSORGBACK
 10
0.0
 20
0.0
 30
0.0
  9
$USERI1
 70
     0
  9
$USERI2
 70
     0
  9
$USERI3
 70
     0
  9
$USERI4
 70
     0
  9
$USERI5
 70
     0
  9
$USERR1
 40
0.0
  9
$USERR2
 40
0.0
  9
$USERR3
 40
0.0
  9
$USERR4
 40
0.0
  9
$USERR5
 40
0.0
  9
$WORLDVIEW
 70
     1
  9
$SHADEDGE
 70
     3
  9
$SHADEDIF
 70
    70
  9
$TILEMODE
 70
     0
  9
$MAXACTVP
 70
    64
  9
$PINSBASE
 10
0.0
 20
0.0
 30
0.0
  9
$PLIMCHECK
 70
     0
  9
$PEXTMIN
 10
-4.391850629656119
 20
-3.455038652015446
 30
0.0
  9
$PEXTMAX
 10
278.8458837249377
 20
202.387980773708
 30
0.0
  9
$PLIMMIN
 10
-3.757080078125
 20
-3.757083177566528
  9
$PLIMMAX
 10
293.2112426757812
 20
206.2162444591522
  9
$UNITMODE
 70
     0
  9
$VISRETAIN
 70
     1
  9
$PLINEGEN
 70
     0
  9
$PSLTSCALE
 70
     1
  9
$TREEDEPTH
 70
  3020
  9
$CMLSTYLE
  2
Standard
  9
$CMLJUST
 70
     0
  9
$CMLSCALE
 40
20.0
  9
$PROXYGRAPHICS
 70
     1
  9
$MEASUREMENT
 70
     1
  9
$CELWEIGHT
370
    -1
  9
$ENDCAPS
280
     0
  9
$JOINSTYLE
280
     0
  9
$LWDISPLAY
290
     0
  9
$INSUNITS
 70
     4
  9
$HYPERLINKBASE
  1

  9
$STYLESHEET
  1

  9
$XEDIT
290
     1
  9
$CEPSNTYPE
380
     0
  9
$PSTYLEMODE
290
     1
  9
$FINGERPRINTGUID
  2
{FF7F33C3-4233-11D6-AEE0-0000F45FD7F4}
  9
$VERSIONGUID
  2
{D3E47644-3765-4AFE-80BD-84BFB1FA3A3A}
  9
$EXTNAMES
290
     1
  9
$PSVPSCALE
 40
0.0
  9
$OLESTARTUP
290
     0
  0
ENDSEC
  0
SECTION
  2
CLASSES
  0
CLASS
  1
ACDBDICTIONARYWDFLT
  2
AcDbDictionaryWithDefault
  3
AutoCAD 2000
 90
        0
280
     0
281
     0
  0
CLASS
  1
ACDBPLACEHOLDER
  2
AcDbPlaceHolder
  3
AutoCAD 2000
 90
        0
280
     0
281
     0
  0
CLASS
  1
LAYOUT
  2
AcDbLayout
  3
AutoCAD 2000
 90
        0
280
     0
281
     0
  0
CLASS
  1
DICTIONARYVAR
  2
AcDbDictionaryVar
  3
AutoCAD 2000
 90
        0
280
     0
281
     0
  0
ENDSEC
  0
SECTION
  2
TABLES
  0
TABLE
  2
VPORT
  5
8
330
0
100
AcDbSymbolTable
 70
     2
  0
VPORT
  5
3BD3
330
8
100
AcDbSymbolTableRecord
100
AcDbViewportTableRecord
  2
*Active
 70
     0
 10
0.0
 20
0.0
 11
1.0
 21
1.0
 12
157.8726236319892
 22
118.6485664370984
 13
0.0
 23
0.0
 14
5.0
 24
5.0
 15
10.0
 25
10.0
 16
0.0
 26
0.0
 36
1.0
 17
0.0
 27
0.0
 37
0.0
 40
293.1497153445986
 41
2.08724832214765
 42
50.0
 43
0.0
 44
0.0
 50
0.0
 51
0.0
 71
     0
 72
   100
 73
     1
 74
     3
 75
     0
 76
     0
 77
     0
 78
     0
281
     0
 65
     1
110
0.0
120
0.0
130
0.0
111
1.0
121
0.0
131
0.0
112
0.0
122
1.0
132
0.0
 79
     0
146
0.0
  0
ENDTAB
  0
TABLE
  2
LTYPE
  5
5
330
0
100
AcDbSymbolTable
 70
     5
  0
LTYPE
  5
14
330
5
100
AcDbSymbolTableRecord
100
AcDbLinetypeTableRecord
  2
ByBlock
 70
     0
  3

 72
    65
 73
     0
 40
0.0
  0
LTYPE
  5
15
330
5
100
AcDbSymbolTableRecord
100
AcDbLinetypeTableRecord
  2
ByLayer
 70
     0
  3

 72
    65
 73
     0
 40
0.0
  0
LTYPE
  5
16
330
5
100
AcDbSymbolTableRecord
100
AcDbLinetypeTableRecord
  2
Continuous
 70
     0
  3
Solid line
 72
    65
 73
     0
 40
0.0
  0
LTYPE
  5
33
330
5
100
AcDbSymbolTableRecord
100
AcDbLinetypeTableRecord
  2
DASHED2
 70
     0
  3
Dashed (.5x) _ _ _ _ _ _ _ _ _ _ _ _ _ _ _ _ _
 72
    65
 73
     2
 40
9.524999999999998
 49
6.349999999999999
 74
     0
 49
-3.174999999999999
 74
     0
  0
LTYPE
  5
34
330
5
100
AcDbSymbolTableRecord
100
AcDbLinetypeTableRecord
  2
CENTER2
 70
     0
  3
Center (.5x) ___ _ ___ _ ___ _ ___ _ ___ _ ___
 72
    65
 73
     4
 40
28.57499999999999
 49
19.05
 74
     0
 49
-3.174999999999999
 74
     0
 49
3.174999999999999
 74
     0
 49
-3.174999999999999
 74
     0
  0
LTYPE
  5
35
330
5
100
AcDbSymbolTableRecord
100
AcDbLinetypeTableRecord
  2
PHANTOM2
 70
     0
  3
Phantom (.5x) ___ _ _ ___ _ _ ___ _ _ ___ _ _
 72
    65
 73
     6
 40
31.75
 49
15.875
 74
     0
 49
-3.174999999999999
 74
     0
 49
3.174999999999999
 74
     0
 49
-3.174999999999999
 74
     0
 49
3.174999999999999
 74
     0
 49
-3.174999999999999
 74
     0
  0
LTYPE
  5
36
330
5
100
AcDbSymbolTableRecord
100
AcDbLinetypeTableRecord
  2
HIDDEN2
 70
     0
  3
Hidden (.5x) _ _ _ _ _ _ _ _ _ _ _ _ _ _ _ _ _
 72
    65
 73
     2
 40
4.762499999999999
 49
3.174999999999999
 74
     0
 49
-1.587499999999999
 74
     0
  0
ENDTAB
  0
TABLE
  2
LAYER
  5
2
330
0
100
AcDbSymbolTable
 70
    13
  0
LAYER
  5
10
330
2
100
AcDbSymbolTableRecord
100
AcDbLayerTableRecord
  2
0
 70
     0
 62
     7
  6
Continuous
370
    -3
390
F
  0
LAYER
  5
40
330
2
100
AcDbSymbolTableRecord
100
AcDbLayerTableRecord
  2
50-0-CON
 70
     0
 62
     4
  6
Continuous
370
    50
390
F
  0
LAYER
  5
41
330
2
100
AcDbSymbolTableRecord
100
AcDbLayerTableRecord
  2
70-0-CON
 70
     0
 62
   202
  6
Continuous
370
    70
390
F
  0
LAYER
  5
4E
330
2
100
AcDbSymbolTableRecord
100
AcDbLayerTableRecord
  2
極太線
 70
     0
 62
     7
  6
Continuous
370
    70
390
F
  0
LAYER
  5
4F
330
2
100
AcDbSymbolTableRecord
100
AcDbLayerTableRecord
  2
細線
 70
     0
 62
     8
  6
Continuous
370
    18
390
F
  0
LAYER
  5
AB
330
2
100
AcDbSymbolTableRecord
100
AcDbLayerTableRecord
  2
構築線
 70
     0
 62
    -2
  6
Continuous
370
    18
390
F
  0
LAYER
  5
B8
330
2
100
AcDbSymbolTableRecord
100
AcDbLayerTableRecord
  2
太線
 70
     0
 62
     7
  6
Continuous
370
    35
390
F
  0
LAYER
  5
B9
330
2
100
AcDbSymbolTableRecord
100
AcDbLayerTableRecord
  2
寸法線
 70
     0
 62
     5
  6
Continuous
370
    18
390
F
  0
LAYER
  5
BA
330
2
100
AcDbSymbolTableRecord
100
AcDbLayerTableRecord
  2
破線
 70
     0
 62
     8
  6
HIDDEN2
370
    18
390
F
  0
LAYER
  5
BB
330
2
100
AcDbSymbolTableRecord
100
AcDbLayerTableRecord
  2
中心線
 70
     0
 62
     1
  6
CENTER2
370
    18
390
F
  0
LAYER
  5
BC
330
2
100
AcDbSymbolTableRecord
100
AcDbLayerTableRecord
  2
想像線
 70
     0
 62
     8
  6
PHANTOM2
370
    18
390
F
  0
LAYER
  5
BD
330
2
100
AcDbSymbolTableRecord
100
AcDbLayerTableRecord
  2
文字
 70
     0
 62
     7
  6
Continuous
370
    18
390
F
  0
LAYER
  5
180
330
2
100
AcDbSymbolTableRecord
100
AcDbLayerTableRecord
  2
Defpoints
 70
     0
 62
     7
  6
Continuous
290
     0
370
    -3
390
F
  0
ENDTAB
  0
TABLE
  2
STYLE
  5
3
330
0
100
AcDbSymbolTable
 70
     3
  0
STYLE
  5
11
330
3
100
AcDbSymbolTableRecord
100
AcDbTextStyleTableRecord
  2
Standard
 70
     0
 40
0.0
 41
1.0
 50
0.0
 71
     0
 42
3.0
  3
txt
  4

  0
STYLE
  5
32
330
3
100
AcDbSymbolTableRecord
100
AcDbTextStyleTableRecord
  2

 70
     1
 40
0.0
 41
1.0
 50
0.0
 71
     0
 42
2.5
  3
ltypeshp.shx
  4

  0
STYLE
  5
50
330
3
100
AcDbSymbolTableRecord
100
AcDbTextStyleTableRecord
  2
OKANO
 70
     0
 40
0.0
 41
1.0
 50
15.0
 71
     0
 42
5.0
  3
isocp.shx
  4
bigfont.shx
  0
ENDTAB
  0
TABLE
  2
VIEW
  5
6
330
0
100
AcDbSymbolTable
 70
     0
  0
ENDTAB
  0
TABLE
  2
UCS
  5
7
330
0
100
AcDbSymbolTable
 70
     0
  0
ENDTAB
  0
TABLE
  2
APPID
  5
9
330
0
100
AcDbSymbolTable
 70
     1
  0
APPID
  5
12
330
9
100
AcDbSymbolTableRecord
100
AcDbRegAppTableRecord
  2
ACAD
 70
     0
  0
ENDTAB
  0
TABLE
  2
DIMSTYLE
  5
A
330
0
100
AcDbSymbolTable
 70
     2
100
AcDbDimStyleTable
 71
     2
340
A2
340
27
  0
DIMSTYLE
105
27
330
A
100
AcDbSymbolTableRecord
100
AcDbDimStyleTableRecord
  2
ISO-25
 70
     0
 41
2.5
 42
0.625
 43
3.75
 44
1.25
 73
     0
 74
     0
 77
     1
 78
     8
140
2.5
141
2.5
143
0.03937007874016
147
0.625
171
     3
172
     1
271
     2
272
     2
274
     3
283
     0
284
     8
340
11
  0
DIMSTYLE
105
A2
102
{ACAD_REACTORS
330
3319
330
3330
330
3353
330
33D3
330
33EF
330
3453
330
3518
330
3610
330
361D
330
362A
330
380E
330
39E9
330
3A87
330
3AA4
330
390F
330
3236
330
3AD7
330
3AED
330
3B03
330
3B10
330
3B1D
330
3B41
330
3BBD
330
3516
102
}
330
A
100
AcDbSymbolTableRecord
100
AcDbDimStyleTableRecord
  2
sunpo
 70
     0
 40
0.0
 41
3.0
 42
2.0
 43
8.0
 44
3.0
 73
     0
 74
     0
 77
     1
 78
     8
140
5.0
141
2.5
143
0.03937007874016
147
1.0
171
     3
172
     1
271
     2
272
     2
274
     3
283
     0
284
     8
340
50
341
9B
342
9B
  0
ENDTAB
  0
TABLE
  2
BLOCK_RECORD
  5
1
330
0
100
AcDbSymbolTable
 70
    29
  0
BLOCK_RECORD
  5
1F
330
1
100
AcDbSymbolTableRecord
100
AcDbBlockTableRecord
  2
*Model_Space
340
22
  0
BLOCK_RECORD
  5
1B
330
1
100
AcDbSymbolTableRecord
100
AcDbBlockTableRecord
  2
*Paper_Space
340
1E
  0
BLOCK_RECORD
  5
9B
330
1
100
AcDbSymbolTableRecord
100
AcDbBlockTableRecord
  2
_Closed
340
0
102
{BLKREFS
331
332A
331
332B
331
3340
331
3341
331
3416
331
3417
331
35A8
331
35A9
331
366B
331
366C
331
3674
331
3675
331
367D
331
367E
331
376E
331
376F
331
3777
331
377C
331
3784
331
3785
331
3839
331
383A
331
3985
331
3986
331
398E
331
398F
331
39A3
331
3A71
331
3A72
331
3A8E
331
3A8F
331
3ABD
331
3ABE
331
3AC8
331
3AC9
331
3AD1
331
3AD2
331
3AE7
331
3AE8
331
3AFD
331
3AFE
331
3B08
331
3B09
331
3B15
331
3B16
331
3B23
331
3B24
331
3B89
331
3B8A
331
3BC2
331
3BC3
331
3BCD
331
3BCE
102
}
  0
BLOCK_RECORD
  5
1510
330
1
100
AcDbSymbolTableRecord
100
AcDbBlockTableRecord
  2
A$C10A573AC
340
0
  0
BLOCK_RECORD
  5
3237
330
1
100
AcDbSymbolTableRecord
100
AcDbBlockTableRecord
  2
*D2
340
0
  0
BLOCK_RECORD
  5
331A
330
1
100
AcDbSymbolTableRecord
100
AcDbBlockTableRecord
  2
*D3
340
0
  0
BLOCK_RECORD
  5
3331
330
1
100
AcDbSymbolTableRecord
100
AcDbBlockTableRecord
  2
*D4
340
0
  0
BLOCK_RECORD
  5
3354
330
1
100
AcDbSymbolTableRecord
100
AcDbBlockTableRecord
  2
*D5
340
0
  0
BLOCK_RECORD
  5
33D4
330
1
100
AcDbSymbolTableRecord
100
AcDbBlockTableRecord
  2
*D6
340
0
  0
BLOCK_RECORD
  5
33F0
330
1
100
AcDbSymbolTableRecord
100
AcDbBlockTableRecord
  2
*D7
340
0
  0
BLOCK_RECORD
  5
346E
330
1
100
AcDbSymbolTableRecord
100
AcDbBlockTableRecord
  2
*D8
340
0
  0
BLOCK_RECORD
  5
3520
330
1
100
AcDbSymbolTableRecord
100
AcDbBlockTableRecord
  2
*D9
340
0
  0
BLOCK_RECORD
  5
3536
330
1
100
AcDbSymbolTableRecord
100
AcDbBlockTableRecord
  2
*D11
340
0
  0
BLOCK_RECORD
  5
3611
330
1
100
AcDbSymbolTableRecord
100
AcDbBlockTableRecord
  2
*D14
340
0
  0
BLOCK_RECORD
  5
361E
330
1
100
AcDbSymbolTableRecord
100
AcDbBlockTableRecord
  2
*D15
340
0
  0
BLOCK_RECORD
  5
362B
330
1
100
AcDbSymbolTableRecord
100
AcDbBlockTableRecord
  2
*D16
340
0
  0
BLOCK_RECORD
  5
380F
330
1
100
AcDbSymbolTableRecord
100
AcDbBlockTableRecord
  2
*D17
340
0
  0
BLOCK_RECORD
  5
3910
330
1
100
AcDbSymbolTableRecord
100
AcDbBlockTableRecord
  2
*D18
340
0
  0
BLOCK_RECORD
  5
3A29
330
1
100
AcDbSymbolTableRecord
100
AcDbBlockTableRecord
  2
*D19
340
0
  0
BLOCK_RECORD
  5
3A88
330
1
100
AcDbSymbolTableRecord
100
AcDbBlockTableRecord
  2
*D20
340
0
  0
BLOCK_RECORD
  5
3AA5
330
1
100
AcDbSymbolTableRecord
100
AcDbBlockTableRecord
  2
*D21
340
0
  0
BLOCK_RECORD
  5
3AD8
330
1
100
AcDbSymbolTableRecord
100
AcDbBlockTableRecord
  2
*D22
340
0
  0
BLOCK_RECORD
  5
3AEE
330
1
100
AcDbSymbolTableRecord
100
AcDbBlockTableRecord
  2
*D23
340
0
  0
BLOCK_RECORD
  5
3B04
330
1
100
AcDbSymbolTableRecord
100
AcDbBlockTableRecord
  2
*D24
340
0
  0
BLOCK_RECORD
  5
3B11
330
1
100
AcDbSymbolTableRecord
100
AcDbBlockTableRecord
  2
*D25
340
0
  0
BLOCK_RECORD
  5
3B1E
330
1
100
AcDbSymbolTableRecord
100
AcDbBlockTableRecord
  2
*D26
340
0
  0
BLOCK_RECORD
  5
3B6F
330
1
100
AcDbSymbolTableRecord
100
AcDbBlockTableRecord
  2
*D27
340
0
  0
BLOCK_RECORD
  5
3BBE
330
1
100
AcDbSymbolTableRecord
100
AcDbBlockTableRecord
  2
*D28
340
0
  0
ENDTAB
  0
ENDSEC
  0
SECTION
  2
BLOCKS
  0
BLOCK
  5
20
330
1F
100
AcDbEntity
  8
0
100
AcDbBlockBegin
  2
*Model_Space
 70
     0
 10
0.0
 20
0.0
 30
0.0
  3
*Model_Space
  1

  0
ENDBLK
  5
21
330
1F
100
AcDbEntity
  8
0
100
AcDbBlockEnd
  0
BLOCK
  5
1C
330
1B
100
AcDbEntity
 67
     1
  8
0
100
AcDbBlockBegin
  2
*Paper_Space
 70
     0
 10
0.0
 20
0.0
 30
0.0
  3
*Paper_Space
  1

  0
ENDBLK
  5
1D
330
1B
100
AcDbEntity
 67
     1
  8
0
100
AcDbBlockEnd
  0
BLOCK
  5
A0
330
9B
100
AcDbEntity
  8
0
100
AcDbBlockBegin
  2
_Closed
 70
     0
 10
0.0
 20
0.0
 30
0.0
  3
_Closed
  1

  0
LINE
  5
9C
330
9B
100
AcDbEntity
  8
0
 62
     0
370
    -2
100
AcDbLine
 10
-1.0
 20
0.1666666666666666
 30
0.0
 11
0.0
 21
0.0
 31
0.0
  0
LINE
  5
9D
330
9B
100
AcDbEntity
  8
0
 62
     0
370
    -2
100
AcDbLine
 10
0.0
 20
0.0
 30
0.0
 11
-1.0
 21
-0.1666666666666666
 31
0.0
  0
LINE
  5
9E
330
9B
100
AcDbEntity
  8
0
 62
     0
370
    -2
100
AcDbLine
 10
-1.0
 20
0.1666666666666666
 30
0.0
 11
-1.0
 21
-0.1666666666666666
 31
0.0
  0
LINE
  5
9F
330
9B
100
AcDbEntity
  8
0
 62
     0
370
    -2
100
AcDbLine
 10
0.0
 20
0.0
 30
0.0
 11
-1.0
 21
0.0
 31
0.0
  0
ENDBLK
  5
A1
330
9B
100
AcDbEntity
  8
0
100
AcDbBlockEnd
  0
BLOCK
  5
155B
330
1510
100
AcDbEntity
  8
0
100
AcDbBlockBegin
  2
A$C10A573AC
 70
     0
 10
0.0
 20
0.0
 30
0.0
  3
A$C10A573AC
  1

  0
TEXT
  5
1511
330
1510
100
AcDbEntity
  8
文字
100
AcDbText
 10
0.9844302777919438
 20
5.224957122252135
 30
0.0
 40
3.0
  1
Materal : Steel.
 51
15.0
  7
OKANO
100
AcDbText
  0
TEXT
  5
1512
330
1510
100
AcDbEntity
  8
文字
100
AcDbText
 10
-0.1141909619694843
 20
0.7500001922403499
 30
0.0
 40
3.0
  1
Surface treatment : Electro galvanized.
 51
15.0
  7
OKANO
100
AcDbText
  0
TEXT
  5
1513
330
1510
100
AcDbEntity
  8
文字
100
AcDbText
 10
-0.4901926332574931
 20
9.159967445193728
 30
0.0
 40
3.0
  1
5 TORGUE SCREW  M5-6
 51
15.0
  7
OKANO
100
AcDbText
  0
TEXT
  5
1514
330
1510
100
AcDbEntity
  8
文字
100
AcDbText
 10
1.364713526390005
 20
78.88822913323082
 30
0.0
 40
3.0
  1
Special standard,
 51
15.0
  7
OKANO
100
AcDbText
  0
TEXT
  5
1515
330
1510
100
AcDbEntity
  8
文字
100
AcDbText
 10
92.88160823408942
 20
89.92753849837379
 30
0.0
 40
3.0
  1
Screw Type
 51
15.0
  7
OKANO
100
AcDbText
  0
LINE
  5
1516
330
1510
100
AcDbEntity
  8
太線
100
AcDbLine
 10
113.9464587597784
 20
81.93930390144641
 30
0.0
 11
112.4464587597784
 21
81.93930390144641
 31
0.0
  0
LINE
  5
1517
330
1510
100
AcDbEntity
  8
太線
100
AcDbLine
 10
112.4464587597784
 20
76.9393039014464
 30
0.0
 11
121.4644995438761
 21
76.9393039014464
 31
0.0
  0
TEXT
  5
1518
330
1510
100
AcDbEntity
  8
文字
100
AcDbText
 10
93.46068240437217
 20
77.96976862235396
 30
0.0
 40
2.0
  1
17-30
 51
15.0
  7
OKANO
100
AcDbText
  0
LINE
  5
1519
330
1510
100
AcDbEntity
  8
太線
100
AcDbLine
 10
111.9464587597784
 20
81.43930390144641
 30
0.0
 11
111.9464587597784
 21
77.4393039014464
 31
0.0
  0
LINE
  5
151A
330
1510
100
AcDbEntity
  8
太線
100
AcDbLine
 10
91.94645875977846
 20
81.43930390144641
 30
0.0
 11
91.94645875977846
 21
77.43930390144639
 31
0.0
  0
LINE
  5
151B
330
1510
100
AcDbEntity
  8
太線
100
AcDbLine
 10
101.9644995438761
 20
77.4393039014464
 30
0.0
 11
101.9644995438761
 21
81.43930390144641
 31
0.0
  0
LINE
  5
151C
330
1510
100
AcDbEntity
  8
太線
100
AcDbLine
 10
92.44645875977846
 20
76.9393039014464
 30
0.0
 11
101.4644995438761
 21
76.9393039014464
 31
0.0
  0
ARC
  5
151D
330
1510
100
AcDbEntity
  8
太線
100
AcDbCircle
 10
92.44645875977846
 20
77.43930390144639
 30
0.0
 40
0.5
100
AcDbArc
 50
180.0
 51
270.0
  0
ARC
  5
151E
330
1510
100
AcDbEntity
  8
太線
100
AcDbCircle
 10
101.4644995438761
 20
77.4393039014464
 30
0.0
 40
0.5
100
AcDbArc
 50
270.0
 51
0.0
  0
ARC
  5
151F
330
1510
100
AcDbEntity
  8
太線
100
AcDbCircle
 10
112.4464587597784
 20
77.4393039014464
 30
0.0
 40
0.5
100
AcDbArc
 50
180.0
 51
270.0
  0
LINE
  5
1520
330
1510
100
AcDbEntity
  8
想像線
100
AcDbLine
 10
93.94645875977847
 20
81.93930390144641
 30
0.0
 11
99.96449954387617
 21
81.93930390144641
 31
0.0
  0
LINE
  5
1521
330
1510
100
AcDbEntity
  8
極太線
100
AcDbLine
 10
96.38762957111168
 20
85.43930390144641
 30
0.0
 11
97.50528794844525
 21
85.43930390144641
 31
0.0
  0
CIRCLE
  5
1522
330
1510
100
AcDbEntity
  8
太線
100
AcDbCircle
 10
96.94645875977847
 20
85.43930390144641
 30
0.0
 40
0.5588291886667776
  0
LINE
  5
1523
330
1510
100
AcDbEntity
  8
太線
100
AcDbLine
 10
99.46449954387617
 20
86.93930390144641
 30
0.0
 11
94.44645875977846
 21
86.93930390144641
 31
0.0
  0
LINE
  5
1524
330
1510
100
AcDbEntity
  8
太線
100
AcDbLine
 10
93.94645875977847
 20
86.43930390144641
 30
0.0
 11
93.94645875977847
 21
81.93930390144641
 31
0.0
  0
ARC
  5
1525
330
1510
100
AcDbEntity
  8
太線
100
AcDbCircle
 10
92.44645875977846
 20
81.43930390144641
 30
0.0
 40
0.5
100
AcDbArc
 50
90.0
 51
180.0
  0
LINE
  5
1526
330
1510
100
AcDbEntity
  8
太線
100
AcDbLine
 10
93.94645875977847
 20
81.93930390144641
 30
0.0
 11
92.44645875977846
 21
81.93930390144641
 31
0.0
  0
ARC
  5
1527
330
1510
100
AcDbEntity
  8
太線
100
AcDbCircle
 10
94.44645875977846
 20
86.43930390144641
 30
0.0
 40
0.5
100
AcDbArc
 50
90.0
 51
180.0
  0
LINE
  5
1528
330
1510
100
AcDbEntity
  8
太線
100
AcDbLine
 10
99.96449954387617
 20
81.93930390144641
 30
0.0
 11
99.96449954387617
 21
86.43930390144641
 31
0.0
  0
LINE
  5
1529
330
1510
100
AcDbEntity
  8
太線
100
AcDbLine
 10
101.4644995438761
 20
81.93930390144641
 30
0.0
 11
99.96449954387617
 21
81.93930390144641
 31
0.0
  0
ARC
  5
152A
330
1510
100
AcDbEntity
  8
太線
100
AcDbCircle
 10
101.4644995438761
 20
81.43930390144641
 30
0.0
 40
0.5
100
AcDbArc
 50
0.0
 51
90.0
  0
ARC
  5
152B
330
1510
100
AcDbEntity
  8
太線
100
AcDbCircle
 10
99.46449954387617
 20
86.43930390144641
 30
0.0
 40
0.5
100
AcDbArc
 50
0.0
 51
90.0
  0
LINE
  5
152C
330
1510
100
AcDbEntity
  8
極太線
100
AcDbLine
 10
96.94645875977847
 20
85.99813309011318
 30
0.0
 11
96.94645875977847
 21
84.88047471277964
 31
0.0
  0
ARC
  5
152D
330
1510
100
AcDbEntity
  8
太線
100
AcDbCircle
 10
112.4464587597784
 20
81.43930390144641
 30
0.0
 40
0.5
100
AcDbArc
 50
90.0
 51
180.0
  0
TEXT
  5
152E
330
1510
100
AcDbEntity
  8
文字
100
AcDbText
 10
134.3819212586066
 20
78.16263579228063
 30
0.0
 40
2.0
  1
101
 51
15.0
  7
OKANO
100
AcDbText
  0
TEXT
  5
152F
330
1510
100
AcDbEntity
  8
文字
100
AcDbText
 10
113.3422276612066
 20
77.96976862235396
 30
0.0
 40
2.0
  1
38-83
 51
15.0
  7
OKANO
100
AcDbText
  0
LINE
  5
1530
330
1510
100
AcDbEntity
  8
太線
100
AcDbLine
 10
141.9825403279738
 20
77.4393039014464
 30
0.0
 11
141.9825403279738
 21
81.43930390144641
 31
0.0
  0
LINE
  5
1531
330
1510
100
AcDbEntity
  8
太線
100
AcDbLine
 10
131.9644995438761
 20
81.43930390144641
 30
0.0
 11
131.9644995438761
 21
77.4393039014464
 31
0.0
  0
LINE
  5
1532
330
1510
100
AcDbEntity
  8
太線
100
AcDbLine
 10
121.9644995438761
 20
77.4393039014464
 30
0.0
 11
121.9644995438761
 21
81.43930390144641
 31
0.0
  0
ARC
  5
1533
330
1510
100
AcDbEntity
  8
太線
100
AcDbCircle
 10
121.4644995438761
 20
77.4393039014464
 30
0.0
 40
0.5
100
AcDbArc
 50
270.0
 51
0.0
  0
LINE
  5
1534
330
1510
100
AcDbEntity
  8
太線
100
AcDbLine
 10
132.4644995438761
 20
76.9393039014464
 30
0.0
 11
141.4825403279738
 21
76.9393039014464
 31
0.0
  0
ARC
  5
1535
330
1510
100
AcDbEntity
  8
太線
100
AcDbCircle
 10
132.4644995438761
 20
77.4393039014464
 30
0.0
 40
0.5
100
AcDbArc
 50
180.0
 51
270.0
  0
ARC
  5
1536
330
1510
100
AcDbEntity
  8
太線
100
AcDbCircle
 10
141.4825403279738
 20
77.4393039014464
 30
0.0
 40
0.5
100
AcDbArc
 50
270.0
 51
0.0
  0
ARC
  5
1537
330
1510
100
AcDbEntity
  8
太線
100
AcDbCircle
 10
121.4644995438761
 20
81.43930390144641
 30
0.0
 40
0.5
100
AcDbArc
 50
0.0
 51
90.0
  0
LINE
  5
1538
330
1510
100
AcDbEntity
  8
太線
100
AcDbLine
 10
119.9644995438761
 20
81.93930390144641
 30
0.0
 11
119.9644995438761
 21
86.43930390144641
 31
0.0
  0
LINE
  5
1539
330
1510
100
AcDbEntity
  8
太線
100
AcDbLine
 10
113.9464587597784
 20
86.43930390144641
 30
0.0
 11
113.9464587597784
 21
81.93930390144641
 31
0.0
  0
LINE
  5
153A
330
1510
100
AcDbEntity
  8
想像線
100
AcDbLine
 10
113.9464587597784
 20
81.93930390144641
 30
0.0
 11
119.9644995438761
 21
81.93930390144641
 31
0.0
  0
LINE
  5
153B
330
1510
100
AcDbEntity
  8
太線
100
AcDbLine
 10
121.4644995438761
 20
81.93930390144641
 30
0.0
 11
119.9644995438761
 21
81.93930390144641
 31
0.0
  0
LINE
  5
153C
330
1510
100
AcDbEntity
  8
太線
100
AcDbLine
 10
119.4644995438761
 20
86.93930390144641
 30
0.0
 11
114.4464587597784
 21
86.93930390144641
 31
0.0
  0
ARC
  5
153D
330
1510
100
AcDbEntity
  8
太線
100
AcDbCircle
 10
114.4464587597784
 20
86.43930390144641
 30
0.0
 40
0.5
100
AcDbArc
 50
90.0
 51
180.0
  0
CIRCLE
  5
153E
330
1510
100
AcDbEntity
  8
太線
100
AcDbCircle
 10
115.4464587597784
 20
85.43930390144641
 30
0.0
 40
0.5588291886667776
  0
LINE
  5
153F
330
1510
100
AcDbEntity
  8
極太線
100
AcDbLine
 10
115.4464587597784
 20
85.99813309011318
 30
0.0
 11
115.4464587597784
 21
84.88047471277964
 31
0.0
  0
LINE
  5
1540
330
1510
100
AcDbEntity
  8
極太線
100
AcDbLine
 10
114.8876295711116
 20
85.43930390144641
 30
0.0
 11
116.0052879484452
 21
85.43930390144641
 31
0.0
  0
ARC
  5
1541
330
1510
100
AcDbEntity
  8
太線
100
AcDbCircle
 10
119.4644995438761
 20
86.43930390144641
 30
0.0
 40
0.5
100
AcDbArc
 50
0.0
 51
90.0
  0
LINE
  5
1542
330
1510
100
AcDbEntity
  8
極太線
100
AcDbLine
 10
117.9056703552094
 20
85.43930390144641
 30
0.0
 11
119.0233287325429
 21
85.43930390144641
 31
0.0
  0
LINE
  5
1543
330
1510
100
AcDbEntity
  8
極太線
100
AcDbLine
 10
118.4644995438761
 20
85.99813309011318
 30
0.0
 11
118.4644995438761
 21
84.88047471277964
 31
0.0
  0
CIRCLE
  5
1544
330
1510
100
AcDbEntity
  8
太線
100
AcDbCircle
 10
118.4644995438761
 20
85.43930390144641
 30
0.0
 40
0.5588291886667776
  0
LINE
  5
1545
330
1510
100
AcDbEntity
  8
想像線
100
AcDbLine
 10
133.9644995438761
 20
81.93930390144641
 30
0.0
 11
139.9825403279738
 21
81.93930390144641
 31
0.0
  0
LINE
  5
1546
330
1510
100
AcDbEntity
  8
極太線
100
AcDbLine
 10
137.9237111393071
 20
85.43930390144641
 30
0.0
 11
139.0413695166406
 21
85.43930390144641
 31
0.0
  0
CIRCLE
  5
1547
330
1510
100
AcDbEntity
  8
太線
100
AcDbCircle
 10
138.4825403279738
 20
85.43930390144641
 30
0.0
 40
0.5588291886667776
  0
CIRCLE
  5
1548
330
1510
100
AcDbEntity
  8
太線
100
AcDbCircle
 10
138.4825403279738
 20
83.26342923362075
 30
0.0
 40
0.5588291886667776
  0
LINE
  5
1549
330
1510
100
AcDbEntity
  8
極太線
100
AcDbLine
 10
137.9237111393071
 20
83.26342923362075
 30
0.0
 11
139.0413695166406
 21
83.26342923362075
 31
0.0
  0
LINE
  5
154A
330
1510
100
AcDbEntity
  8
太線
100
AcDbLine
 10
139.4825403279738
 20
86.93930390144641
 30
0.0
 11
134.4644995438761
 21
86.93930390144641
 31
0.0
  0
LINE
  5
154B
330
1510
100
AcDbEntity
  8
太線
100
AcDbLine
 10
133.9644995438761
 20
86.43930390144641
 30
0.0
 11
133.9644995438761
 21
81.93930390144641
 31
0.0
  0
ARC
  5
154C
330
1510
100
AcDbEntity
  8
太線
100
AcDbCircle
 10
132.4644995438761
 20
81.43930390144641
 30
0.0
 40
0.5
100
AcDbArc
 50
90.0
 51
180.0
  0
LINE
  5
154D
330
1510
100
AcDbEntity
  8
太線
100
AcDbLine
 10
133.9644995438761
 20
81.93930390144641
 30
0.0
 11
132.4644995438761
 21
81.93930390144641
 31
0.0
  0
LINE
  5
154E
330
1510
100
AcDbEntity
  8
極太線
100
AcDbLine
 10
134.9056703552093
 20
83.26342923362075
 30
0.0
 11
136.0233287325429
 21
83.26342923362075
 31
0.0
  0
LINE
  5
154F
330
1510
100
AcDbEntity
  8
極太線
100
AcDbLine
 10
135.4644995438761
 20
83.82225842228752
 30
0.0
 11
135.4644995438761
 21
82.70460004495395
 31
0.0
  0
CIRCLE
  5
1550
330
1510
100
AcDbEntity
  8
太線
100
AcDbCircle
 10
135.4644995438761
 20
83.26342923362075
 30
0.0
 40
0.5588291886667776
  0
ARC
  5
1551
330
1510
100
AcDbEntity
  8
太線
100
AcDbCircle
 10
134.4644995438761
 20
86.43930390144641
 30
0.0
 40
0.5
100
AcDbArc
 50
90.0
 51
180.0
  0
CIRCLE
  5
1552
330
1510
100
AcDbEntity
  8
太線
100
AcDbCircle
 10
135.4644995438761
 20
85.43930390144641
 30
0.0
 40
0.5588291886667776
  0
LINE
  5
1553
330
1510
100
AcDbEntity
  8
極太線
100
AcDbLine
 10
135.4644995438761
 20
85.99813309011318
 30
0.0
 11
135.4644995438761
 21
84.88047471277964
 31
0.0
  0
LINE
  5
1554
330
1510
100
AcDbEntity
  8
極太線
100
AcDbLine
 10
134.9056703552093
 20
85.43930390144641
 30
0.0
 11
136.0233287325429
 21
85.43930390144641
 31
0.0
  0
LINE
  5
1555
330
1510
100
AcDbEntity
  8
太線
100
AcDbLine
 10
139.9825403279738
 20
81.93930390144641
 30
0.0
 11
139.9825403279738
 21
86.43930390144641
 31
0.0
  0
ARC
  5
1556
330
1510
100
AcDbEntity
  8
太線
100
AcDbCircle
 10
141.4825403279738
 20
81.43930390144641
 30
0.0
 40
0.5
100
AcDbArc
 50
0.0
 51
90.0
  0
LINE
  5
1557
330
1510
100
AcDbEntity
  8
極太線
100
AcDbLine
 10
138.4825403279738
 20
83.82225842228752
 30
0.0
 11
138.4825403279738
 21
82.70460004495395
 31
0.0
  0
LINE
  5
1558
330
1510
100
AcDbEntity
  8
太線
100
AcDbLine
 10
141.4825403279738
 20
81.93930390144641
 30
0.0
 11
139.9825403279738
 21
81.93930390144641
 31
0.0
  0
ARC
  5
1559
330
1510
100
AcDbEntity
  8
太線
100
AcDbCircle
 10
139.4825403279738
 20
86.43930390144641
 30
0.0
 40
0.5
100
AcDbArc
 50
0.0
 51
90.0
  0
LINE
  5
155A
330
1510
100
AcDbEntity
  8
極太線
100
AcDbLine
 10
138.4825403279738
 20
85.99813309011318
 30
0.0
 11
138.4825403279738
 21
84.88047471277964
 31
0.0
  0
ENDBLK
  5
155C
330
1510
100
AcDbEntity
  8
0
100
AcDbBlockEnd
  0
BLOCK
  5
3241
330
3237
100
AcDbEntity
  8
0
100
AcDbBlockBegin
  2
*D2
 70
     1
 10
0.0
 20
0.0
 30
0.0
  3
*D2
  1

  0
LINE
  5
3AC5
330
3237
100
AcDbEntity
  8
寸法線
 62
     0
370
    -2
100
AcDbLine
 10
202.0816644132071
 20
210.1211488256961
 30
0.0
 11
202.0816644132071
 21
223.9637047218386
 31
0.0
  0
LINE
  5
3AC6
330
3237
100
AcDbEntity
  8
寸法線
 62
     0
370
    -2
100
AcDbLine
 10
261.6713621570622
 20
210.1211488256961
 30
0.0
 11
261.6713621570622
 21
223.9637047218386
 31
0.0
  0
LINE
  5
3AC7
330
3237
100
AcDbEntity
  8
寸法線
 62
     0
370
    -2
100
AcDbLine
 10
205.081664413207
 20
220.9637047218386
 30
0.0
 11
258.6713621570623
 21
220.9637047218386
 31
0.0
  0
INSERT
  5
3AC8
330
3237
100
AcDbEntity
  8
寸法線
 62
     0
370
    -2
100
AcDbBlockReference
  2
_Closed
 10
202.0816644132071
 20
220.9637047218386
 30
0.0
 41
3.0
 42
3.0
 43
3.0
 50
180.0
  0
INSERT
  5
3AC9
330
3237
100
AcDbEntity
  8
寸法線
 62
     0
370
    -2
100
AcDbBlockReference
  2
_Closed
 10
261.6713621570622
 20
220.9637047218386
 30
0.0
 41
3.0
 42
3.0
 43
3.0
  0
MTEXT
  5
3ACA
330
3237
100
AcDbEntity
  8
寸法線
 62
     0
100
AcDbMText
 10
231.8765132851347
 20
224.4637047218386
 30
0.0
 40
5.0
 41
0.0
 71
     5
 72
     1
  1
60
  7
OKANO
 73
     1
 44
1.0
  0
POINT
  5
3ACB
330
3237
100
AcDbEntity
  8
Defpoints
 62
     0
100
AcDbPoint
 10
202.0816644132071
 20
208.1211488256961
 30
0.0
  0
POINT
  5
3ACC
330
3237
100
AcDbEntity
  8
Defpoints
 62
     0
100
AcDbPoint
 10
261.6713621570622
 20
208.1211488256961
 30
0.0
  0
POINT
  5
3ACD
330
3237
100
AcDbEntity
  8
Defpoints
 62
     0
100
AcDbPoint
 10
261.6713621570622
 20
220.9637047218386
 30
0.0
  0
ENDBLK
  5
3242
330
3237
100
AcDbEntity
  8
0
100
AcDbBlockEnd
  0
BLOCK
  5
3325
330
331A
100
AcDbEntity
  8
0
100
AcDbBlockBegin
  2
*D3
 70
     1
 10
0.0
 20
0.0
 30
0.0
  3
*D3
  1

  0
LINE
  5
3327
330
331A
100
AcDbEntity
  8
寸法線
 62
     0
370
    -2
100
AcDbLine
 10
64.81403670416466
 20
183.105798027382
 30
0.0
 11
64.81403670416466
 21
199.2120456900526
 31
0.0
  0
LINE
  5
3328
330
331A
100
AcDbEntity
  8
寸法線
 62
     0
370
    -2
100
AcDbLine
 10
79.73585347775861
 20
182.5172428108736
 30
0.0
 11
79.73585347775861
 21
199.2120456900526
 31
0.0
  0
LINE
  5
3329
330
331A
100
AcDbEntity
  8
寸法線
 62
     0
370
    -2
100
AcDbLine
 10
67.81403670416466
 20
196.2120456900526
 30
0.0
 11
76.73585347775861
 21
196.2120456900526
 31
0.0
  0
INSERT
  5
332A
330
331A
100
AcDbEntity
  8
寸法線
 62
     0
370
    -2
100
AcDbBlockReference
  2
_Closed
 10
64.81403670416466
 20
196.2120456900526
 30
0.0
 41
3.0
 42
3.0
 43
3.0
 50
180.0
  0
INSERT
  5
332B
330
331A
100
AcDbEntity
  8
寸法線
 62
     0
370
    -2
100
AcDbBlockReference
  2
_Closed
 10
79.73585347775861
 20
196.2120456900526
 30
0.0
 41
3.0
 42
3.0
 43
3.0
  0
MTEXT
  5
332C
330
331A
100
AcDbEntity
  8
寸法線
 62
     0
100
AcDbMText
 10
72.27494509096164
 20
199.7125378160368
 30
0.0
 40
5.0
 41
0.0
 71
     5
 72
     1
  1
20
  7
OKANO
 73
     1
 44
1.0
  0
POINT
  5
332D
330
331A
100
AcDbEntity
  8
Defpoints
 62
     0
100
AcDbPoint
 10
64.81403670416466
 20
181.105798027382
 30
0.0
  0
POINT
  5
332E
330
331A
100
AcDbEntity
  8
Defpoints
 62
     0
100
AcDbPoint
 10
79.73585347775861
 20
180.5172428108736
 30
0.0
  0
POINT
  5
332F
330
331A
100
AcDbEntity
  8
Defpoints
 62
     0
100
AcDbPoint
 10
79.73585347775861
 20
196.2120456900526
 30
0.0
  0
ENDBLK
  5
3326
330
331A
100
AcDbEntity
  8
0
100
AcDbBlockEnd
  0
BLOCK
  5
333B
330
3331
100
AcDbEntity
  8
0
100
AcDbBlockBegin
  2
*D4
 70
     1
 10
0.0
 20
0.0
 30
0.0
  3
*D4
  1

  0
LINE
  5
333D
330
3331
100
AcDbEntity
  8
寸法線
 62
     0
370
    -2
100
AcDbLine
 10
62.26162108200901
 20
183.105798027382
 30
0.0
 11
62.26162108200901
 21
206.8632617680346
 31
0.0
  0
LINE
  5
333E
330
3331
100
AcDbEntity
  8
寸法線
 62
     0
370
    -2
100
AcDbLine
 10
82.6809483387276
 20
182.713427883043
 30
0.0
 11
82.6809483387276
 21
206.8632617680346
 31
0.0
  0
LINE
  5
333F
330
3331
100
AcDbEntity
  8
寸法線
 62
     0
370
    -2
100
AcDbLine
 10
65.26162108200901
 20
203.8632617680347
 30
0.0
 11
79.6809483387276
 21
203.8632617680347
 31
0.0
  0
INSERT
  5
3340
330
3331
100
AcDbEntity
  8
寸法線
 62
     0
370
    -2
100
AcDbBlockReference
  2
_Closed
 10
62.26162108200901
 20
203.8632617680347
 30
0.0
 41
3.0
 42
3.0
 43
3.0
 50
180.0
  0
INSERT
  5
3341
330
3331
100
AcDbEntity
  8
寸法線
 62
     0
370
    -2
100
AcDbBlockReference
  2
_Closed
 10
82.6809483387276
 20
203.8632617680347
 30
0.0
 41
3.0
 42
3.0
 43
3.0
  0
MTEXT
  5
3342
330
3331
100
AcDbEntity
  8
寸法線
 62
     0
100
AcDbMText
 10
72.4712847103683
 20
207.3637538940189
 30
0.0
 40
5.0
 41
0.0
 71
     5
 72
     1
  1
24
  7
OKANO
 73
     1
 44
1.0
  0
POINT
  5
3343
330
3331
100
AcDbEntity
  8
Defpoints
 62
     0
100
AcDbPoint
 10
62.26162108200901
 20
181.105798027382
 30
0.0
  0
POINT
  5
3344
330
3331
100
AcDbEntity
  8
Defpoints
 62
     0
100
AcDbPoint
 10
82.6809483387276
 20
180.7134278830431
 30
0.0
  0
POINT
  5
3345
330
3331
100
AcDbEntity
  8
Defpoints
 62
     0
100
AcDbPoint
 10
82.6809483387276
 20
203.8632617680347
 30
0.0
  0
ENDBLK
  5
333C
330
3331
100
AcDbEntity
  8
0
100
AcDbBlockEnd
  0
BLOCK
  5
335E
330
3354
100
AcDbEntity
  8
0
100
AcDbBlockBegin
  2
*D5
 70
     1
 10
0.0
 20
0.0
 30
0.0
  3
*D5
  1

  0
LINE
  5
35A5
330
3354
100
AcDbEntity
  8
寸法線
 62
     0
370
    -2
100
AcDbLine
 10
74.20151402540432
 20
180.4711488256961
 30
0.0
 11
95.49303938094658
 21
180.4711488256961
 31
0.0
  0
LINE
  5
35A6
330
3354
100
AcDbEntity
  8
寸法線
 62
     0
370
    -2
100
AcDbLine
 10
99.85151402540433
 20
210.1211488256961
 30
0.0
 11
89.49303938094658
 21
210.1211488256961
 31
0.0
  0
LINE
  5
35A7
330
3354
100
AcDbEntity
  8
寸法線
 62
     0
370
    -2
100
AcDbLine
 10
92.49303938094659
 20
183.4711488256961
 30
0.0
 11
92.49303938094659
 21
207.1211488256961
 31
0.0
  0
INSERT
  5
35A8
330
3354
100
AcDbEntity
  8
寸法線
 62
     0
370
    -2
100
AcDbBlockReference
  2
_Closed
 10
92.49303938094659
 20
180.4711488256961
 30
0.0
 41
3.0
 42
3.0
 43
3.0
 50
270.0
  0
INSERT
  5
35A9
330
3354
100
AcDbEntity
  8
寸法線
 62
     0
370
    -2
100
AcDbBlockReference
  2
_Closed
 10
92.49303938094659
 20
210.1211488256961
 30
0.0
 41
3.0
 42
3.0
 43
3.0
 50
90.0
  0
MTEXT
  5
35AA
330
3354
100
AcDbEntity
  8
寸法線
 62
     0
100
AcDbMText
 10
88.99303938094655
 20
195.2961488256962
 30
0.0
 40
5.0
 41
0.0
 71
     5
 72
     1
  1
30
  7
OKANO
 11
0.0000000000000001
 21
1.0
 31
0.0
 73
     1
 44
1.0
  0
POINT
  5
35AB
330
3354
100
AcDbEntity
  8
Defpoints
 62
     0
100
AcDbPoint
 10
72.20151402540432
 20
180.4711488256961
 30
0.0
  0
POINT
  5
35AC
330
3354
100
AcDbEntity
  8
Defpoints
 62
     0
100
AcDbPoint
 10
101.8515140254043
 20
210.1211488256961
 30
0.0
  0
POINT
  5
35AD
330
3354
100
AcDbEntity
  8
Defpoints
 62
     0
100
AcDbPoint
 10
92.49303938094659
 20
210.1211488256961
 30
0.0
  0
ENDBLK
  5
335F
330
3354
100
AcDbEntity
  8
0
100
AcDbBlockEnd
  0
BLOCK
  5
33DF
330
33D4
100
AcDbEntity
  8
0
100
AcDbBlockBegin
  2
*D6
 70
     1
 10
0.0
 20
0.0
 30
0.0
  3
*D6
  1

  0
LINE
  5
3413
330
33D4
100
AcDbEntity
  8
寸法線
 62
     0
370
    -2
100
AcDbLine
 10
-2.296823222367038
 20
177.8036643073074
 30
0.0
 11
-2.296823222367041
 21
119.2016328613581
 31
0.0
  0
LINE
  5
3414
330
33D4
100
AcDbEntity
  8
寸法線
 62
     0
370
    -2
100
AcDbLine
 10
-12.89865092847935
 20
178.4657564364732
 30
0.0
 11
-12.89865092847936
 21
119.2016328613581
 31
0.0
  0
LINE
  5
3415
330
33D4
100
AcDbEntity
  8
寸法線
 62
     0
370
    -2
100
AcDbLine
 10
-5.296823222367041
 20
122.2016328613581
 30
0.0
 11
-9.898650928479359
 21
122.2016328613581
 31
0.0
  0
INSERT
  5
3416
330
33D4
100
AcDbEntity
  8
寸法線
 62
     0
370
    -2
100
AcDbBlockReference
  2
_Closed
 10
-2.296823222367041
 20
122.2016328613581
 30
0.0
 41
3.0
 42
3.0
 43
3.0
  0
INSERT
  5
3417
330
33D4
100
AcDbEntity
  8
寸法線
 62
     0
370
    -2
100
AcDbBlockReference
  2
_Closed
 10
-12.89865092847936
 20
122.2016328613581
 30
0.0
 41
3.0
 42
3.0
 43
3.0
 50
180.0
  0
MTEXT
  5
3418
330
33D4
100
AcDbEntity
  8
寸法線
 62
     0
100
AcDbMText
 10
-7.5977370754232
 20
125.7016328613581
 30
0.0
 40
5.0
 41
0.0
 71
     5
 72
     1
  1
10
  7
OKANO
 73
     1
 44
1.0
  0
POINT
  5
3419
330
33D4
100
AcDbEntity
  8
Defpoints
 62
     0
100
AcDbPoint
 10
-2.296823222367038
 20
179.8036643073074
 30
0.0
  0
POINT
  5
341A
330
33D4
100
AcDbEntity
  8
Defpoints
 62
     0
100
AcDbPoint
 10
-12.89865092847935
 20
180.4657564364732
 30
0.0
  0
POINT
  5
341B
330
33D4
100
AcDbEntity
  8
Defpoints
 62
     0
100
AcDbPoint
 10
-12.89865092847936
 20
122.2016328613581
 30
0.0
  0
ENDBLK
  5
33E0
330
33D4
100
AcDbEntity
  8
0
100
AcDbBlockEnd
  0
BLOCK
  5
33FB
330
33F0
100
AcDbEntity
  8
0
100
AcDbBlockBegin
  2
*D7
 70
     1
 10
0.0
 20
0.0
 30
0.0
  3
*D7
  1

  0
LINE
  5
3836
330
33F0
100
AcDbEntity
  8
寸法線
 62
     0
370
    -2
100
AcDbLine
 10
1.541723882739916
 20
186.8300713330686
 30
0.0
 11
-22.75615209366742
 21
186.8300713330686
 31
0.0
  0
LINE
  5
3837
330
33F0
100
AcDbEntity
  8
寸法線
 62
     0
370
    -2
100
AcDbLine
 10
1.159749052508914
 20
174.616522362319
 30
0.0
 11
-22.75615209366742
 21
174.616522362319
 31
0.0
  0
LINE
  5
3838
330
33F0
100
AcDbEntity
  8
寸法線
 62
     0
370
    -2
100
AcDbLine
 10
-19.75615209366742
 20
183.8300713330686
 30
0.0
 11
-19.75615209366742
 21
177.616522362319
 31
0.0
  0
INSERT
  5
3839
330
33F0
100
AcDbEntity
  8
寸法線
 62
     0
370
    -2
100
AcDbBlockReference
  2
_Closed
 10
-19.75615209366742
 20
186.8300713330686
 30
0.0
 41
3.0
 42
3.0
 43
3.0
 50
90.0
  0
INSERT
  5
383A
330
33F0
100
AcDbEntity
  8
寸法線
 62
     0
370
    -2
100
AcDbBlockReference
  2
_Closed
 10
-19.75615209366742
 20
174.616522362319
 30
0.0
 41
3.0
 42
3.0
 43
3.0
 50
270.0
  0
MTEXT
  5
383B
330
33F0
100
AcDbEntity
  8
寸法線
 62
     0
100
AcDbMText
 10
-23.2566442196517
 20
180.7232968476938
 30
0.0
 40
5.0
 41
0.0
 71
     5
 72
     1
  1
12
  7
OKANO
 11
0.0000000000000001
 21
1.0
 31
0.0
 73
     1
 44
1.0
  0
POINT
  5
383C
330
33F0
100
AcDbEntity
  8
Defpoints
 62
     0
100
AcDbPoint
 10
3.541723882739916
 20
186.8300713330686
 30
0.0
  0
POINT
  5
383D
330
33F0
100
AcDbEntity
  8
Defpoints
 62
     0
100
AcDbPoint
 10
3.159749052508914
 20
174.616522362319
 30
0.0
  0
POINT
  5
383E
330
33F0
100
AcDbEntity
  8
Defpoints
 62
     0
100
AcDbPoint
 10
-19.75615209366742
 20
174.616522362319
 30
0.0
  0
ENDBLK
  5
33FC
330
33F0
100
AcDbEntity
  8
0
100
AcDbBlockEnd
  0
BLOCK
  5
3478
330
346E
100
AcDbEntity
  8
0
100
AcDbBlockBegin
  2
*D8
 70
     1
 10
0.0
 20
0.0
 30
0.0
  3
*D8
  1

  0
LINE
  5
398B
330
346E
100
AcDbEntity
  8
寸法線
 62
     0
370
    -2
100
AcDbLine
 10
174.0088875014596
 20
122.9724401014445
 30
0.0
 11
184.6570610272434
 21
122.7541002149399
 31
0.0
  0
LINE
  5
398C
330
346E
100
AcDbEntity
  8
寸法線
 62
     0
370
    -2
100
AcDbLine
 10
173.8038814506309
 20
112.9745416963235
 30
0.0
 11
184.4520549764147
 21
112.7562018098188
 31
0.0
  0
LINE
  5
398D
330
346E
100
AcDbEntity
  8
寸法線
 62
     0
370
    -2
100
AcDbLine
 10
181.5961896904584
 20
119.8162325086522
 30
0.0
 11
181.514187270127
 21
115.8170731466038
 31
0.0
  0
INSERT
  5
398E
330
346E
100
AcDbEntity
  8
寸法線
 62
     0
370
    -2
100
AcDbBlockReference
  2
_Closed
 10
181.657691505707
 20
122.8156020301885
 30
0.0
 41
3.0
 42
3.0
 43
3.0
 50
88.82531956005456
  0
INSERT
  5
398F
330
346E
100
AcDbEntity
  8
寸法線
 62
     0
370
    -2
100
AcDbBlockReference
  2
_Closed
 10
181.4526854548784
 20
112.8177036250674
 30
0.0
 41
3.0
 42
3.0
 43
3.0
 50
268.8253195600545
  0
MTEXT
  5
3990
330
346E
100
AcDbEntity
  8
寸法線
 62
     0
100
AcDbMText
 10
178.0559240385003
 20
117.888404945418
 30
0.0
 40
5.0
 41
0.0
 71
     5
 72
     1
  1
13
  7
OKANO
 11
0.0205006050828647
 21
0.999789840512113
 31
0.0
 73
     1
 44
1.0
  0
POINT
  5
3991
330
346E
100
AcDbEntity
  8
Defpoints
 62
     0
100
AcDbPoint
 10
172.0093078204353
 20
123.0134413116103
 30
0.0
  0
POINT
  5
3992
330
346E
100
AcDbEntity
  8
Defpoints
 62
     0
100
AcDbPoint
 10
171.8043017696067
 20
113.0155429064892
 30
0.0
  0
POINT
  5
3993
330
346E
100
AcDbEntity
  8
Defpoints
 62
     0
100
AcDbPoint
 10
181.4526854548784
 20
112.8177036250674
 30
0.0
  0
ENDBLK
  5
3479
330
346E
100
AcDbEntity
  8
0
100
AcDbBlockEnd
  0
BLOCK
  5
3526
330
3520
100
AcDbEntity
  8
0
100
AcDbBlockBegin
  2
*D9
 70
     1
 10
0.0
 20
0.0
 30
0.0
  3
*D9
  1

  0
LINE
  5
39A1
330
3520
100
AcDbEntity
  8
寸法線
 62
     0
370
    -2
100
AcDbLine
 10
63.96010534569944
 20
50.80247670216731
 30
0.0
 11
93.85164923100235
 21
50.5186751712568
 31
0.0
  0
MTEXT
  5
39A2
330
3520
100
AcDbEntity
  8
寸法線
 62
     0
100
AcDbMText
 10
77.43917370646908
 20
54.17465911769896
 30
0.0
 40
5.0
 41
0.0
 71
     5
 72
     1
  1
49.3～50
  7
OKANO
 11
0.9999549314673719
 21
-0.0094939472340701
 31
0.0
 73
     1
 44
1.0
  0
INSERT
  5
39A3
330
3520
100
AcDbEntity
  8
寸法線
 62
     0
370
    -2
100
AcDbBlockReference
  2
_Closed
 10
96.85151402540448
 20
50.4901933295546
 30
0.0
 41
3.0
 42
3.0
 43
3.0
 50
359.4560287205475
  0
POINT
  5
39A4
330
3520
100
AcDbEntity
  8
Defpoints
 62
     0
100
AcDbPoint
 10
96.85151402540448
 20
50.4901933295546
 30
0.0
  0
POINT
  5
39A5
330
3520
100
AcDbEntity
  8
Defpoints
 62
     0
100
AcDbPoint
 10
47.55373590406305
 20
50.95824492819424
 30
0.0
  0
ENDBLK
  5
3527
330
3520
100
AcDbEntity
  8
0
100
AcDbBlockEnd
  0
BLOCK
  5
3542
330
3536
100
AcDbEntity
  8
0
100
AcDbBlockBegin
  2
*D11
 70
     1
 10
0.0
 20
0.0
 30
0.0
  3
*D11
  1

  0
LINE
  5
3769
330
3536
100
AcDbEntity
  8
寸法線
 62
     0
370
    -2
100
AcDbLine
 10
74.08299003925271
 20
21.32124002356658
 30
0.0
 11
102.7282501235687
 21
21.32124002356658
 31
0.0
  0
LINE
  5
376A
330
3536
100
AcDbEntity
  8
寸法線
 62
     0
370
    -2
100
AcDbLine
 10
74.08299003925271
 20
16.07627475042636
 30
0.0
 11
102.7282501235687
 21
16.07627475042635
 31
0.0
  0
LINE
  5
376B
330
3536
100
AcDbEntity
  8
寸法線
 62
     0
370
    -2
100
AcDbLine
 10
99.72825012356878
 20
24.32124002356658
 30
0.0
 11
99.72825012356878
 21
27.32124002356658
 31
0.0
  0
LINE
  5
376C
330
3536
100
AcDbEntity
  8
寸法線
 62
     0
370
    -2
100
AcDbLine
 10
99.72825012356878
 20
13.07627475042636
 30
0.0
 11
99.72825012356878
 21
10.07627475042636
 31
0.0
  0
LINE
  5
376D
330
3536
100
AcDbEntity
  8
寸法線
 62
     0
370
    -2
100
AcDbLine
 10
99.72825012356878
 20
21.32124002356658
 30
0.0
 11
99.72825012356878
 21
16.07627475042636
 31
0.0
  0
INSERT
  5
376E
330
3536
100
AcDbEntity
  8
寸法線
 62
     0
370
    -2
100
AcDbBlockReference
  2
_Closed
 10
99.72825012356878
 20
21.32124002356658
 30
0.0
 41
3.0
 42
3.0
 43
3.0
 50
270.0
  0
INSERT
  5
376F
330
3536
100
AcDbEntity
  8
寸法線
 62
     0
370
    -2
100
AcDbBlockReference
  2
_Closed
 10
99.72825012356878
 20
16.07627475042636
 30
0.0
 41
3.0
 42
3.0
 43
3.0
 50
90.0
  0
MTEXT
  5
3770
330
3536
100
AcDbEntity
  8
寸法線
 62
     0
100
AcDbMText
 10
96.22825012356878
 20
18.69875738699648
 30
0.0
 40
5.0
 41
0.0
 71
     5
 72
     1
  1
5
  7
OKANO
 11
0.0000000000000001
 21
1.0
 31
0.0
 73
     1
 44
1.0
  0
POINT
  5
3771
330
3536
100
AcDbEntity
  8
Defpoints
 62
     0
100
AcDbPoint
 10
72.08299003925271
 20
21.32124002356658
 30
0.0
  0
POINT
  5
3772
330
3536
100
AcDbEntity
  8
Defpoints
 62
     0
100
AcDbPoint
 10
72.08299003925271
 20
16.07627475042636
 30
0.0
  0
POINT
  5
3773
330
3536
100
AcDbEntity
  8
Defpoints
 62
     0
100
AcDbPoint
 10
99.72825012356878
 20
16.07627475042636
 30
0.0
  0
ENDBLK
  5
3543
330
3536
100
AcDbEntity
  8
0
100
AcDbBlockEnd
  0
BLOCK
  5
361B
330
3611
100
AcDbEntity
  8
0
100
AcDbBlockBegin
  2
*D14
 70
     1
 10
0.0
 20
0.0
 30
0.0
  3
*D14
  1

  0
LINE
  5
3668
330
3611
100
AcDbEntity
  8
寸法線
 62
     0
370
    -2
100
AcDbLine
 10
-12.43461494299208
 20
183.2805837673586
 30
0.0
 11
-12.43461494299208
 21
227.000649176835
 31
0.0
  0
LINE
  5
3669
330
3611
100
AcDbEntity
  8
寸法線
 62
     0
370
    -2
100
AcDbLine
 10
42.45890126749872
 20
183.2805837673586
 30
0.0
 11
42.45890126749872
 21
227.000649176835
 31
0.0
  0
LINE
  5
366A
330
3611
100
AcDbEntity
  8
寸法線
 62
     0
370
    -2
100
AcDbLine
 10
-9.434614942992082
 20
224.000649176835
 30
0.0
 11
39.45890126749873
 21
224.000649176835
 31
0.0
  0
INSERT
  5
366B
330
3611
100
AcDbEntity
  8
寸法線
 62
     0
370
    -2
100
AcDbBlockReference
  2
_Closed
 10
-12.43461494299208
 20
224.000649176835
 30
0.0
 41
3.0
 42
3.0
 43
3.0
 50
180.0
  0
INSERT
  5
366C
330
3611
100
AcDbEntity
  8
寸法線
 62
     0
370
    -2
100
AcDbBlockReference
  2
_Closed
 10
42.45890126749872
 20
224.000649176835
 30
0.0
 41
3.0
 42
3.0
 43
3.0
  0
MTEXT
  5
366D
330
3611
100
AcDbEntity
  8
寸法線
 62
     0
100
AcDbMText
 10
15.01214316225332
 20
227.500649176835
 30
0.0
 40
5.0
 41
0.0
 71
     5
 72
     1
  1
55
  7
OKANO
 73
     1
 44
1.0
  0
POINT
  5
366E
330
3611
100
AcDbEntity
  8
Defpoints
 62
     0
100
AcDbPoint
 10
-12.43461494299208
 20
181.2805837673586
 30
0.0
  0
POINT
  5
366F
330
3611
100
AcDbEntity
  8
Defpoints
 62
     0
100
AcDbPoint
 10
42.45890126749872
 20
181.2805837673586
 30
0.0
  0
POINT
  5
3670
330
3611
100
AcDbEntity
  8
Defpoints
 62
     0
100
AcDbPoint
 10
42.45890126749872
 20
224.000649176835
 30
0.0
  0
ENDBLK
  5
361C
330
3611
100
AcDbEntity
  8
0
100
AcDbBlockEnd
  0
BLOCK
  5
3628
330
361E
100
AcDbEntity
  8
0
100
AcDbBlockBegin
  2
*D15
 70
     1
 10
0.0
 20
0.0
 30
0.0
  3
*D15
  1

  0
LINE
  5
3671
330
361E
100
AcDbEntity
  8
寸法線
 62
     0
370
    -2
100
AcDbLine
 10
42.45890126749872
 20
183.2805837673586
 30
0.0
 11
42.45890126749872
 21
227.000649176835
 31
0.0
  0
LINE
  5
3672
330
361E
100
AcDbEntity
  8
寸法線
 62
     0
370
    -2
100
AcDbLine
 10
101.7304287824611
 20
211.8727539027738
 30
0.0
 11
101.7304287824611
 21
227.000649176835
 31
0.0
  0
LINE
  5
3673
330
361E
100
AcDbEntity
  8
寸法線
 62
     0
370
    -2
100
AcDbLine
 10
45.45890126749873
 20
224.000649176835
 30
0.0
 11
98.7304287824611
 21
224.000649176835
 31
0.0
  0
INSERT
  5
3674
330
361E
100
AcDbEntity
  8
寸法線
 62
     0
370
    -2
100
AcDbBlockReference
  2
_Closed
 10
42.45890126749872
 20
224.000649176835
 30
0.0
 41
3.0
 42
3.0
 43
3.0
 50
180.0
  0
INSERT
  5
3675
330
361E
100
AcDbEntity
  8
寸法線
 62
     0
370
    -2
100
AcDbBlockReference
  2
_Closed
 10
101.7304287824611
 20
224.000649176835
 30
0.0
 41
3.0
 42
3.0
 43
3.0
  0
MTEXT
  5
3676
330
361E
100
AcDbEntity
  8
寸法線
 62
     0
100
AcDbMText
 10
72.09466502497992
 20
227.500649176835
 30
0.0
 40
5.0
 41
0.0
 71
     5
 72
     1
  1
60
  7
OKANO
 73
     1
 44
1.0
  0
POINT
  5
3677
330
361E
100
AcDbEntity
  8
Defpoints
 62
     0
100
AcDbPoint
 10
42.45890126749872
 20
181.2805837673586
 30
0.0
  0
POINT
  5
3678
330
361E
100
AcDbEntity
  8
Defpoints
 62
     0
100
AcDbPoint
 10
101.7304287824611
 20
209.8727539027738
 30
0.0
  0
POINT
  5
3679
330
361E
100
AcDbEntity
  8
Defpoints
 62
     0
100
AcDbPoint
 10
101.7304287824611
 20
224.000649176835
 30
0.0
  0
ENDBLK
  5
3629
330
361E
100
AcDbEntity
  8
0
100
AcDbBlockEnd
  0
BLOCK
  5
3635
330
362B
100
AcDbEntity
  8
0
100
AcDbBlockBegin
  2
*D16
 70
     1
 10
0.0
 20
0.0
 30
0.0
  3
*D16
  1

  0
LINE
  5
367A
330
362B
100
AcDbEntity
  8
寸法線
 62
     0
370
    -2
100
AcDbLine
 10
101.7304287824611
 20
211.8727539027738
 30
0.0
 11
101.7304287824611
 21
227.000649176835
 31
0.0
  0
LINE
  5
367B
330
362B
100
AcDbEntity
  8
寸法線
 62
     0
370
    -2
100
AcDbLine
 10
156.2871747718272
 20
184.2897195202061
 30
0.0
 11
156.2871747718272
 21
227.000649176835
 31
0.0
  0
LINE
  5
367C
330
362B
100
AcDbEntity
  8
寸法線
 62
     0
370
    -2
100
AcDbLine
 10
104.7304287824611
 20
224.000649176835
 30
0.0
 11
153.2871747718272
 21
224.000649176835
 31
0.0
  0
INSERT
  5
367D
330
362B
100
AcDbEntity
  8
寸法線
 62
     0
370
    -2
100
AcDbBlockReference
  2
_Closed
 10
101.7304287824611
 20
224.000649176835
 30
0.0
 41
3.0
 42
3.0
 43
3.0
 50
180.0
  0
INSERT
  5
367E
330
362B
100
AcDbEntity
  8
寸法線
 62
     0
370
    -2
100
AcDbBlockReference
  2
_Closed
 10
156.2871747718272
 20
224.000649176835
 30
0.0
 41
3.0
 42
3.0
 43
3.0
  0
MTEXT
  5
367F
330
362B
100
AcDbEntity
  8
寸法線
 62
     0
100
AcDbMText
 10
129.0088017771441
 20
227.500649176835
 30
0.0
 40
5.0
 41
0.0
 71
     5
 72
     1
  1
55
  7
OKANO
 73
     1
 44
1.0
  0
POINT
  5
3680
330
362B
100
AcDbEntity
  8
Defpoints
 62
     0
100
AcDbPoint
 10
101.7304287824611
 20
209.8727539027738
 30
0.0
  0
POINT
  5
3681
330
362B
100
AcDbEntity
  8
Defpoints
 62
     0
100
AcDbPoint
 10
156.2871747718272
 20
182.2897195202061
 30
0.0
  0
POINT
  5
3682
330
362B
100
AcDbEntity
  8
Defpoints
 62
     0
100
AcDbPoint
 10
156.2871747718272
 20
224.000649176835
 30
0.0
  0
ENDBLK
  5
3636
330
362B
100
AcDbEntity
  8
0
100
AcDbBlockEnd
  0
BLOCK
  5
3819
330
380F
100
AcDbEntity
  8
0
100
AcDbBlockBegin
  2
*D17
 70
     1
 10
0.0
 20
0.0
 30
0.0
  3
*D17
  1

  0
LINE
  5
3981
330
380F
100
AcDbEntity
  8
寸法線
 62
     0
370
    -2
100
AcDbLine
 10
162.8266938100806
 20
112.199838192747
 30
0.0
 11
162.8266938100806
 21
99.98922868237514
 31
0.0
  0
LINE
  5
3982
330
380F
100
AcDbEntity
  8
寸法線
 62
     0
370
    -2
100
AcDbLine
 10
172.8245922152017
 20
111.9948321419184
 30
0.0
 11
172.8245922152017
 21
99.98922868237514
 31
0.0
  0
LINE
  5
3983
330
380F
100
AcDbEntity
  8
寸法線
 62
     0
370
    -2
100
AcDbLine
 10
165.8266938100806
 20
102.9892286823751
 30
0.0
 11
169.8245922152017
 21
102.9892286823751
 31
0.0
  0
LINE
  5
3984
330
380F
100
AcDbEntity
  8
寸法線
 62
     0
370
    -2
100
AcDbLine
 10
172.8245922152017
 20
102.9892286823751
 30
0.0
 11
194.5514651923939
 21
102.9892286823751
 31
0.0
  0
INSERT
  5
3985
330
380F
100
AcDbEntity
  8
寸法線
 62
     0
370
    -2
100
AcDbBlockReference
  2
_Closed
 10
162.8266938100806
 20
102.9892286823751
 30
0.0
 41
3.0
 42
3.0
 43
3.0
 50
180.0
  0
INSERT
  5
3986
330
380F
100
AcDbEntity
  8
寸法線
 62
     0
370
    -2
100
AcDbBlockReference
  2
_Closed
 10
172.8245922152017
 20
102.9892286823751
 30
0.0
 41
3.0
 42
3.0
 43
3.0
  0
MTEXT
  5
3987
330
380F
100
AcDbEntity
  8
寸法線
 62
     0
100
AcDbMText
 10
185.1880287037978
 20
106.4897208083593
 30
0.0
 40
5.0
 41
0.0
 71
     5
 72
     1
  1
16.662
  7
OKANO
 73
     1
 44
1.0
  0
POINT
  5
3988
330
380F
100
AcDbEntity
  8
Defpoints
 62
     0
100
AcDbPoint
 10
162.8266938100806
 20
114.199838192747
 30
0.0
  0
POINT
  5
3989
330
380F
100
AcDbEntity
  8
Defpoints
 62
     0
100
AcDbPoint
 10
172.8245922152017
 20
113.9948321419184
 30
0.0
  0
POINT
  5
398A
330
380F
100
AcDbEntity
  8
Defpoints
 62
     0
100
AcDbPoint
 10
172.8245922152017
 20
102.9892286823751
 30
0.0
  0
ENDBLK
  5
381A
330
380F
100
AcDbEntity
  8
0
100
AcDbBlockEnd
  0
BLOCK
  5
391A
330
3910
100
AcDbEntity
  8
0
100
AcDbBlockBegin
  2
*D18
 70
     1
 10
0.0
 20
0.0
 30
0.0
  3
*D18
  1

  0
LINE
  5
3ACE
330
3910
100
AcDbEntity
  8
寸法線
 62
     0
370
    -2
100
AcDbLine
 10
258.4947348835683
 20
151.7385963229308
 30
0.0
 11
279.8829946350172
 21
151.7385963229308
 31
0.0
  0
LINE
  5
3ACF
330
3910
100
AcDbEntity
  8
寸法線
 62
     0
370
    -2
100
AcDbLine
 10
258.4947348835683
 20
211.0385963229309
 30
0.0
 11
279.8829946350172
 21
211.0385963229309
 31
0.0
  0
LINE
  5
3AD0
330
3910
100
AcDbEntity
  8
寸法線
 62
     0
370
    -2
100
AcDbLine
 10
276.8829946350172
 20
154.7385963229308
 30
0.0
 11
276.8829946350172
 21
208.0385963229309
 31
0.0
  0
INSERT
  5
3AD1
330
3910
100
AcDbEntity
  8
寸法線
 62
     0
370
    -2
100
AcDbBlockReference
  2
_Closed
 10
276.8829946350172
 20
151.7385963229308
 30
0.0
 41
3.0
 42
3.0
 43
3.0
 50
270.0
  0
INSERT
  5
3AD2
330
3910
100
AcDbEntity
  8
寸法線
 62
     0
370
    -2
100
AcDbBlockReference
  2
_Closed
 10
276.8829946350172
 20
211.0385963229309
 30
0.0
 41
3.0
 42
3.0
 43
3.0
 50
90.0
  0
MTEXT
  5
3AD3
330
3910
100
AcDbEntity
  8
寸法線
 62
     0
100
AcDbMText
 10
273.3829946350171
 20
181.3885963229309
 30
0.0
 40
5.0
 41
0.0
 71
     5
 72
     1
  1
60
  7
OKANO
 11
0.0000000000000001
 21
1.0
 31
0.0
 73
     1
 44
1.0
  0
POINT
  5
3AD4
330
3910
100
AcDbEntity
  8
Defpoints
 62
     0
100
AcDbPoint
 10
256.4947348835683
 20
151.7385963229308
 30
0.0
  0
POINT
  5
3AD5
330
3910
100
AcDbEntity
  8
Defpoints
 62
     0
100
AcDbPoint
 10
256.4947348835683
 20
211.0385963229309
 30
0.0
  0
POINT
  5
3AD6
330
3910
100
AcDbEntity
  8
Defpoints
 62
     0
100
AcDbPoint
 10
276.8829946350172
 20
211.0385963229309
 30
0.0
  0
ENDBLK
  5
391B
330
3910
100
AcDbEntity
  8
0
100
AcDbBlockEnd
  0
BLOCK
  5
3A35
330
3A29
100
AcDbEntity
  8
0
 62
     3
100
AcDbBlockBegin
  2
*D19
 70
     1
 10
0.0
 20
0.0
 30
0.0
  3
*D19
  1

  0
LINE
  5
3A6C
330
3A29
100
AcDbEntity
  8
寸法線
 62
     0
370
    -2
100
AcDbLine
 10
233.7049143111971
 20
21.32124002356658
 30
0.0
 11
262.3501743955131
 21
21.32124002356657
 31
0.0
  0
LINE
  5
3A6D
330
3A29
100
AcDbEntity
  8
寸法線
 62
     0
370
    -2
100
AcDbLine
 10
233.7049143111971
 20
16.07627475042636
 30
0.0
 11
262.3501743955131
 21
16.07627475042635
 31
0.0
  0
LINE
  5
3A6E
330
3A29
100
AcDbEntity
  8
寸法線
 62
     0
370
    -2
100
AcDbLine
 10
259.3501743955131
 20
24.32124002356658
 30
0.0
 11
259.3501743955131
 21
27.32124002356658
 31
0.0
  0
LINE
  5
3A6F
330
3A29
100
AcDbEntity
  8
寸法線
 62
     0
370
    -2
100
AcDbLine
 10
259.3501743955131
 20
13.07627475042635
 30
0.0
 11
259.3501743955131
 21
10.07627475042635
 31
0.0
  0
LINE
  5
3A70
330
3A29
100
AcDbEntity
  8
寸法線
 62
     0
370
    -2
100
AcDbLine
 10
259.3501743955131
 20
21.32124002356658
 30
0.0
 11
259.3501743955131
 21
16.07627475042635
 31
0.0
  0
INSERT
  5
3A71
330
3A29
100
AcDbEntity
  8
寸法線
 62
     0
370
    -2
100
AcDbBlockReference
  2
_Closed
 10
259.3501743955131
 20
21.32124002356658
 30
0.0
 41
3.0
 42
3.0
 43
3.0
 50
270.0
  0
INSERT
  5
3A72
330
3A29
100
AcDbEntity
  8
寸法線
 62
     0
370
    -2
100
AcDbBlockReference
  2
_Closed
 10
259.3501743955131
 20
16.07627475042635
 30
0.0
 41
3.0
 42
3.0
 43
3.0
 50
90.0
  0
MTEXT
  5
3A73
330
3A29
100
AcDbEntity
  8
寸法線
 62
     0
100
AcDbMText
 10
255.8501743955131
 20
18.69875738699651
 30
0.0
 40
5.0
 41
0.0
 71
     5
 72
     1
  1
5
  7
OKANO
 11
0.0000000000000001
 21
1.0
 31
0.0
 73
     1
 44
1.0
  0
POINT
  5
3A74
330
3A29
100
AcDbEntity
  8
Defpoints
 62
     0
100
AcDbPoint
 10
231.7049143111971
 20
21.32124002356658
 30
0.0
  0
POINT
  5
3A75
330
3A29
100
AcDbEntity
  8
Defpoints
 62
     0
100
AcDbPoint
 10
231.7049143111971
 20
16.07627475042636
 30
0.0
  0
POINT
  5
3A76
330
3A29
100
AcDbEntity
  8
Defpoints
 62
     0
100
AcDbPoint
 10
259.3501743955131
 20
16.07627475042635
 30
0.0
  0
ENDBLK
  5
3A36
330
3A29
100
AcDbEntity
  8
0
 62
     3
100
AcDbBlockEnd
  0
BLOCK
  5
3A94
330
3A88
100
AcDbEntity
  8
0
100
AcDbBlockBegin
  2
*D20
 70
     1
 10
0.0
 20
0.0
 30
0.0
  3
*D20
  1

  0
LINE
  5
3A89
330
3A88
100
AcDbEntity
  8
寸法線
 62
     0
370
    -2
100
AcDbLine
 10
157.8515140254042
 20
75.14019332955456
 30
0.0
 11
180.4179813827004
 21
75.14019332955455
 31
0.0
  0
LINE
  5
3A8A
330
3A88
100
AcDbEntity
  8
寸法線
 62
     0
370
    -2
100
AcDbLine
 10
156.8515140254042
 20
80.14019332955456
 30
0.0
 11
180.4179813827004
 21
80.14019332955454
 31
0.0
  0
LINE
  5
3A8B
330
3A88
100
AcDbEntity
  8
寸法線
 62
     0
370
    -2
100
AcDbLine
 10
177.4179813827004
 20
72.14019332955455
 30
0.0
 11
177.4179813827004
 21
69.14019332955454
 31
0.0
  0
LINE
  5
3A8C
330
3A88
100
AcDbEntity
  8
寸法線
 62
     0
370
    -2
100
AcDbLine
 10
177.4179813827004
 20
83.14019332955455
 30
0.0
 11
177.4179813827004
 21
86.14019332955455
 31
0.0
  0
LINE
  5
3A8D
330
3A88
100
AcDbEntity
  8
寸法線
 62
     0
370
    -2
100
AcDbLine
 10
177.4179813827004
 20
75.14019332955455
 30
0.0
 11
177.4179813827004
 21
80.14019332955454
 31
0.0
  0
INSERT
  5
3A8E
330
3A88
100
AcDbEntity
  8
寸法線
 62
     0
370
    -2
100
AcDbBlockReference
  2
_Closed
 10
177.4179813827004
 20
75.14019332955455
 30
0.0
 41
3.0
 42
3.0
 43
3.0
 50
90.0
  0
INSERT
  5
3A8F
330
3A88
100
AcDbEntity
  8
寸法線
 62
     0
370
    -2
100
AcDbBlockReference
  2
_Closed
 10
177.4179813827004
 20
80.14019332955454
 30
0.0
 41
3.0
 42
3.0
 43
3.0
 50
270.0
  0
MTEXT
  5
3A90
330
3A88
100
AcDbEntity
  8
寸法線
 62
     0
100
AcDbMText
 10
173.9179813827004
 20
77.64019332955458
 30
0.0
 40
5.0
 41
0.0
 71
     5
 72
     1
  1
5
  7
OKANO
 11
0.0000000000000001
 21
1.0
 31
0.0
 73
     1
 44
1.0
  0
POINT
  5
3A91
330
3A88
100
AcDbEntity
  8
Defpoints
 62
     0
100
AcDbPoint
 10
155.8515140254042
 20
75.14019332955456
 30
0.0
  0
POINT
  5
3A92
330
3A88
100
AcDbEntity
  8
Defpoints
 62
     0
100
AcDbPoint
 10
154.8515140254043
 20
80.14019332955456
 30
0.0
  0
POINT
  5
3A93
330
3A88
100
AcDbEntity
  8
Defpoints
 62
     0
100
AcDbPoint
 10
177.4179813827004
 20
80.14019332955454
 30
0.0
  0
ENDBLK
  5
3A95
330
3A88
100
AcDbEntity
  8
0
100
AcDbBlockEnd
  0
BLOCK
  5
3AAF
330
3AA5
100
AcDbEntity
  8
0
 62
     3
100
AcDbBlockBegin
  2
*D21
 70
     1
 10
0.0
 20
0.0
 30
0.0
  3
*D21
  1

  0
LINE
  5
3ABA
330
3AA5
100
AcDbEntity
  8
寸法線
 62
     0
370
    -2
100
AcDbLine
 10
233.2895638621498
 20
94.34630526849126
 30
0.0
 11
246.6570770446654
 21
107.2013851869564
 31
0.0
  0
LINE
  5
3ABB
330
3AA5
100
AcDbEntity
  8
寸法線
 62
     0
370
    -2
100
AcDbLine
 10
312.7519127717339
 20
11.71640305864571
 30
0.0
 11
326.1194259542496
 21
24.57148297711089
 31
0.0
  0
LINE
  5
3ABC
330
3AA5
100
AcDbEntity
  8
寸法線
 62
     0
370
    -2
100
AcDbLine
 10
246.5741845857689
 20
102.9595543510722
 30
0.0
 11
321.8775951183654
 21
24.65437543600734
 31
0.0
  0
INSERT
  5
3ABD
330
3AA5
100
AcDbEntity
  8
寸法線
 62
     0
370
    -2
100
AcDbBlockReference
  2
_Closed
 10
244.494715397275
 20
105.1219159984625
 30
0.0
 41
3.0
 42
3.0
 43
3.0
 50
133.8804872683612
  0
INSERT
  5
3ABE
330
3AA5
100
AcDbEntity
  8
寸法線
 62
     0
370
    -2
100
AcDbBlockReference
  2
_Closed
 10
323.9570643068592
 20
22.49201378861701
 30
0.0
 41
3.0
 42
3.0
 43
3.0
 50
313.8804872683611
  0
MTEXT
  5
3ABF
330
3AA5
100
AcDbEntity
  8
寸法線
 62
     0
100
AcDbMText
 10
286.7486451073559
 20
66.23301228011593
 30
0.0
 40
5.0
 41
0.0
 71
     5
 72
     1
  1
115
  7
OKANO
 11
0.6931563961646207
 21
-0.7207872157967811
 31
0.0
 73
     1
 44
1.0
  0
POINT
  5
3AC0
330
3AA5
100
AcDbEntity
  8
Defpoints
 62
     0
100
AcDbPoint
 10
231.8479894305562
 20
92.95999247616201
 30
0.0
  0
POINT
  5
3AC1
330
3AA5
100
AcDbEntity
  8
Defpoints
 62
     0
100
AcDbPoint
 10
311.3103383401404
 20
10.33009026631648
 30
0.0
  0
POINT
  5
3AC2
330
3AA5
100
AcDbEntity
  8
Defpoints
 62
     0
100
AcDbPoint
 10
323.9570643068592
 20
22.49201378861701
 30
0.0
  0
ENDBLK
  5
3AB0
330
3AA5
100
AcDbEntity
  8
0
 62
     3
100
AcDbBlockEnd
  0
BLOCK
  5
3AE2
330
3AD8
100
AcDbEntity
  8
0
 62
     3
100
AcDbBlockBegin
  2
*D22
 70
     1
 10
0.0
 20
0.0
 30
0.0
  3
*D22
  1

  0
LINE
  5
3AE4
330
3AD8
100
AcDbEntity
  8
寸法線
 62
     0
370
    -2
100
AcDbLine
 10
-2.448485974595664
 20
178.4711488256961
 30
0.0
 11
-2.448485974595668
 21
119.056633333468
 31
0.0
  0
LINE
  5
3AE5
330
3AD8
100
AcDbEntity
  8
寸法線
 62
     0
370
    -2
100
AcDbLine
 10
27.55151402540437
 20
178.4711488256961
 30
0.0
 11
27.55151402540437
 21
119.056633333468
 31
0.0
  0
LINE
  5
3AE6
330
3AD8
100
AcDbEntity
  8
寸法線
 62
     0
370
    -2
100
AcDbLine
 10
0.5515140254043316
 20
122.056633333468
 30
0.0
 11
24.55151402540437
 21
122.056633333468
 31
0.0
  0
INSERT
  5
3AE7
330
3AD8
100
AcDbEntity
  8
寸法線
 62
     0
370
    -2
100
AcDbBlockReference
  2
_Closed
 10
-2.448485974595668
 20
122.056633333468
 30
0.0
 41
3.0
 42
3.0
 43
3.0
 50
180.0
  0
INSERT
  5
3AE8
330
3AD8
100
AcDbEntity
  8
寸法線
 62
     0
370
    -2
100
AcDbBlockReference
  2
_Closed
 10
27.55151402540437
 20
122.056633333468
 30
0.0
 41
3.0
 42
3.0
 43
3.0
  0
MTEXT
  5
3AE9
330
3AD8
100
AcDbEntity
  8
寸法線
 62
     0
100
AcDbMText
 10
12.55151402540435
 20
125.556633333468
 30
0.0
 40
5.0
 41
0.0
 71
     5
 72
     1
  1
30
  7
OKANO
 73
     1
 44
1.0
  0
POINT
  5
3AEA
330
3AD8
100
AcDbEntity
  8
Defpoints
 62
     0
100
AcDbPoint
 10
-2.448485974595664
 20
180.4711488256961
 30
0.0
  0
POINT
  5
3AEB
330
3AD8
100
AcDbEntity
  8
Defpoints
 62
     0
100
AcDbPoint
 10
27.55151402540437
 20
180.4711488256961
 30
0.0
  0
POINT
  5
3AEC
330
3AD8
100
AcDbEntity
  8
Defpoints
 62
     0
100
AcDbPoint
 10
27.55151402540437
 20
122.056633333468
 30
0.0
  0
ENDBLK
  5
3AE3
330
3AD8
100
AcDbEntity
  8
0
 62
     3
100
AcDbBlockEnd
  0
BLOCK
  5
3AF8
330
3AEE
100
AcDbEntity
  8
0
 62
     3
100
AcDbBlockBegin
  2
*D23
 70
     1
 10
0.0
 20
0.0
 30
0.0
  3
*D23
  1

  0
LINE
  5
3AFA
330
3AEE
100
AcDbEntity
  8
寸法線
 62
     0
370
    -2
100
AcDbLine
 10
101.8515140254043
 20
163.4711488256961
 30
0.0
 11
101.8515140254043
 21
134.25253327012
 31
0.0
  0
LINE
  5
3AFB
330
3AEE
100
AcDbEntity
  8
寸法線
 62
     0
370
    -2
100
AcDbLine
 10
116.8515140254043
 20
163.4711488256961
 30
0.0
 11
116.8515140254043
 21
134.25253327012
 31
0.0
  0
LINE
  5
3AFC
330
3AEE
100
AcDbEntity
  8
寸法線
 62
     0
370
    -2
100
AcDbLine
 10
104.8515140254043
 20
137.25253327012
 30
0.0
 11
113.8515140254043
 21
137.25253327012
 31
0.0
  0
INSERT
  5
3AFD
330
3AEE
100
AcDbEntity
  8
寸法線
 62
     0
370
    -2
100
AcDbBlockReference
  2
_Closed
 10
101.8515140254043
 20
137.25253327012
 30
0.0
 41
3.0
 42
3.0
 43
3.0
 50
180.0
  0
INSERT
  5
3AFE
330
3AEE
100
AcDbEntity
  8
寸法線
 62
     0
370
    -2
100
AcDbBlockReference
  2
_Closed
 10
116.8515140254043
 20
137.25253327012
 30
0.0
 41
3.0
 42
3.0
 43
3.0
  0
MTEXT
  5
3AFF
330
3AEE
100
AcDbEntity
  8
寸法線
 62
     0
100
AcDbMText
 10
109.3515140254043
 20
140.75253327012
 30
0.0
 40
5.0
 41
0.0
 71
     5
 72
     1
  1
15
  7
OKANO
 73
     1
 44
1.0
  0
POINT
  5
3B00
330
3AEE
100
AcDbEntity
  8
Defpoints
 62
     0
100
AcDbPoint
 10
101.8515140254043
 20
165.4711488256961
 30
0.0
  0
POINT
  5
3B01
330
3AEE
100
AcDbEntity
  8
Defpoints
 62
     0
100
AcDbPoint
 10
116.8515140254043
 20
165.4711488256961
 30
0.0
  0
POINT
  5
3B02
330
3AEE
100
AcDbEntity
  8
Defpoints
 62
     0
100
AcDbPoint
 10
116.8515140254043
 20
137.25253327012
 30
0.0
  0
ENDBLK
  5
3AF9
330
3AEE
100
AcDbEntity
  8
0
 62
     3
100
AcDbBlockEnd
  0
BLOCK
  5
3B0E
330
3B04
100
AcDbEntity
  8
0
 62
     5
100
AcDbBlockBegin
  2
*D24
 70
     1
 10
0.0
 20
0.0
 30
0.0
  3
*D24
  1

  0
LINE
  5
3B05
330
3B04
100
AcDbEntity
  8
寸法線
 62
     0
370
    -2
100
AcDbLine
 10
116.8515140254043
 20
163.4711488256961
 30
0.0
 11
116.8515140254043
 21
134.25253327012
 31
0.0
  0
LINE
  5
3B06
330
3B04
100
AcDbEntity
  8
寸法線
 62
     0
370
    -2
100
AcDbLine
 10
136.8515140254043
 20
163.4711488256961
 30
0.0
 11
136.8515140254043
 21
134.25253327012
 31
0.0
  0
LINE
  5
3B07
330
3B04
100
AcDbEntity
  8
寸法線
 62
     0
370
    -2
100
AcDbLine
 10
119.8515140254043
 20
137.25253327012
 30
0.0
 11
133.8515140254043
 21
137.25253327012
 31
0.0
  0
INSERT
  5
3B08
330
3B04
100
AcDbEntity
  8
寸法線
 62
     0
370
    -2
100
AcDbBlockReference
  2
_Closed
 10
116.8515140254043
 20
137.25253327012
 30
0.0
 41
3.0
 42
3.0
 43
3.0
 50
180.0
  0
INSERT
  5
3B09
330
3B04
100
AcDbEntity
  8
寸法線
 62
     0
370
    -2
100
AcDbBlockReference
  2
_Closed
 10
136.8515140254043
 20
137.25253327012
 30
0.0
 41
3.0
 42
3.0
 43
3.0
  0
MTEXT
  5
3B0A
330
3B04
100
AcDbEntity
  8
寸法線
 62
     0
100
AcDbMText
 10
126.8515140254043
 20
140.7530253961042
 30
0.0
 40
5.0
 41
0.0
 71
     5
 72
     1
  1
20
  7
OKANO
 73
     1
 44
1.0
  0
POINT
  5
3B0B
330
3B04
100
AcDbEntity
  8
Defpoints
 62
     0
100
AcDbPoint
 10
116.8515140254043
 20
165.4711488256961
 30
0.0
  0
POINT
  5
3B0C
330
3B04
100
AcDbEntity
  8
Defpoints
 62
     0
100
AcDbPoint
 10
136.8515140254043
 20
165.4711488256961
 30
0.0
  0
POINT
  5
3B0D
330
3B04
100
AcDbEntity
  8
Defpoints
 62
     0
100
AcDbPoint
 10
136.8515140254043
 20
137.25253327012
 30
0.0
  0
ENDBLK
  5
3B0F
330
3B04
100
AcDbEntity
  8
0
 62
     5
100
AcDbBlockEnd
  0
BLOCK
  5
3B1B
330
3B11
100
AcDbEntity
  8
0
 62
     5
100
AcDbBlockBegin
  2
*D25
 70
     1
 10
0.0
 20
0.0
 30
0.0
  3
*D25
  1

  0
LINE
  5
3B12
330
3B11
100
AcDbEntity
  8
寸法線
 62
     0
370
    -2
100
AcDbLine
 10
138.8515140254043
 20
165.4711488256961
 30
0.0
 11
177.3132045392745
 21
165.4711488256961
 31
0.0
  0
LINE
  5
3B13
330
3B11
100
AcDbEntity
  8
寸法線
 62
     0
370
    -2
100
AcDbLine
 10
138.8515140254043
 20
195.4711488256961
 30
0.0
 11
177.3132045392745
 21
195.4711488256961
 31
0.0
  0
LINE
  5
3B14
330
3B11
100
AcDbEntity
  8
寸法線
 62
     0
370
    -2
100
AcDbLine
 10
174.3132045392744
 20
168.4711488256961
 30
0.0
 11
174.3132045392745
 21
192.4711488256961
 31
0.0
  0
INSERT
  5
3B15
330
3B11
100
AcDbEntity
  8
寸法線
 62
     0
370
    -2
100
AcDbBlockReference
  2
_Closed
 10
174.3132045392744
 20
165.4711488256961
 30
0.0
 41
3.0
 42
3.0
 43
3.0
 50
270.0
  0
INSERT
  5
3B16
330
3B11
100
AcDbEntity
  8
寸法線
 62
     0
370
    -2
100
AcDbBlockReference
  2
_Closed
 10
174.3132045392745
 20
195.4711488256961
 30
0.0
 41
3.0
 42
3.0
 43
3.0
 50
90.0
  0
MTEXT
  5
3B17
330
3B11
100
AcDbEntity
  8
寸法線
 62
     0
100
AcDbMText
 10
170.8132045392744
 20
180.4711488256961
 30
0.0
 40
5.0
 41
0.0
 71
     5
 72
     1
  1
30
  7
OKANO
 11
0.0000000000000001
 21
1.0
 31
0.0
 73
     1
 44
1.0
  0
POINT
  5
3B18
330
3B11
100
AcDbEntity
  8
Defpoints
 62
     0
100
AcDbPoint
 10
136.8515140254043
 20
165.4711488256961
 30
0.0
  0
POINT
  5
3B19
330
3B11
100
AcDbEntity
  8
Defpoints
 62
     0
100
AcDbPoint
 10
136.8515140254043
 20
195.4711488256961
 30
0.0
  0
POINT
  5
3B1A
330
3B11
100
AcDbEntity
  8
Defpoints
 62
     0
100
AcDbPoint
 10
174.3132045392745
 20
195.4711488256961
 30
0.0
  0
ENDBLK
  5
3B1C
330
3B11
100
AcDbEntity
  8
0
 62
     5
100
AcDbBlockEnd
  0
BLOCK
  5
3B27
330
3B1E
100
AcDbEntity
  8
0
 62
     5
100
AcDbBlockBegin
  2
*D26
 70
     1
 10
0.0
 20
0.0
 30
0.0
  3
*D26
  1

  0
LINE
  5
3B1F
330
3B1E
100
AcDbEntity
  8
寸法線
 62
     0
370
    -2
100
AcDbLine
 10
172.1092298728373
 20
221.0120076512757
 30
0.0
 11
141.305630949409
 21
198.6977325340935
 31
0.0
  0
LINE
  5
3B20
330
3B1E
100
AcDbEntity
  8
寸法線
 62
     0
370
    -2
100
AcDbLine
 10
132.3973971013996
 20
192.2445651172989
 30
0.0
 11
129.9678787792152
 21
190.484610367264
 31
0.0
  0
MTEXT
  5
3B21
330
3B1E
100
AcDbEntity
  8
寸法線
 62
     0
100
AcDbMText
 10
166.3084944678602
 20
221.1317713787841
 30
0.0
 40
5.0
 41
0.0
 71
     5
 72
     1
  1
\U+22055
  7
OKANO
 11
0.8098394407281276
 21
0.5866515833449642
 31
0.0
 73
     1
 44
1.0
  0
LINE
  5
3B22
330
3B1E
100
AcDbEntity
  8
寸法線
 62
     0
370
    -2
100
AcDbLine
 10
134.826915423584
 20
194.0045198673337
 30
0.0
 11
138.8761126272246
 21
196.9377777840586
 31
0.0
  0
INSERT
  5
3B23
330
3B1E
100
AcDbEntity
  8
寸法線
 62
     0
370
    -2
100
AcDbBlockReference
  2
_Closed
 10
134.826915423584
 20
194.0045198673337
 30
0.0
 41
3.0
 42
3.0
 43
3.0
 50
35.91975269204755
  0
INSERT
  5
3B24
330
3B1E
100
AcDbEntity
  8
寸法線
 62
     0
370
    -2
100
AcDbBlockReference
  2
_Closed
 10
138.8761126272246
 20
196.9377777840586
 30
0.0
 41
3.0
 42
3.0
 43
3.0
 50
215.9197526920475
  0
POINT
  5
3B25
330
3B1E
100
AcDbEntity
  8
Defpoints
 62
     0
100
AcDbPoint
 10
138.8761126272246
 20
196.9377777840586
 30
0.0
  0
POINT
  5
3B26
330
3B1E
100
AcDbEntity
  8
Defpoints
 62
     0
100
AcDbPoint
 10
134.826915423584
 20
194.0045198673337
 30
0.0
  0
ENDBLK
  5
3B28
330
3B1E
100
AcDbEntity
  8
0
 62
     5
100
AcDbBlockEnd
  0
BLOCK
  5
3B79
330
3B6F
100
AcDbEntity
  8
0
 62
     3
100
AcDbBlockBegin
  2
*D27
 70
     1
 10
0.0
 20
0.0
 30
0.0
  3
*D27
  1

  0
LINE
  5
3B86
330
3B6F
100
AcDbEntity
  8
寸法線
 62
     0
370
    -2
100
AcDbLine
 10
325.2047212944091
 20
155.6292596782807
 30
0.0
 11
338.5722344769248
 21
168.4843395967458
 31
0.0
  0
LINE
  5
3B87
330
3B6F
100
AcDbEntity
  8
寸法線
 62
     0
370
    -2
100
AcDbLine
 10
404.6670702039933
 20
72.99935746843519
 30
0.0
 11
418.0345833865089
 21
85.85443738690035
 31
0.0
  0
LINE
  5
3B88
330
3B6F
100
AcDbEntity
  8
寸法線
 62
     0
370
    -2
100
AcDbLine
 10
338.4893420180283
 20
164.2425087608617
 30
0.0
 11
413.7927525506247
 21
85.93732984579682
 31
0.0
  0
INSERT
  5
3B89
330
3B6F
100
AcDbEntity
  8
寸法線
 62
     0
370
    -2
100
AcDbBlockReference
  2
_Closed
 10
336.4098728295344
 20
166.404870408252
 30
0.0
 41
3.0
 42
3.0
 43
3.0
 50
133.8804872683612
  0
INSERT
  5
3B8A
330
3B6F
100
AcDbEntity
  8
寸法線
 62
     0
370
    -2
100
AcDbBlockReference
  2
_Closed
 10
415.8722217391185
 20
83.77496819840649
 30
0.0
 41
3.0
 42
3.0
 43
3.0
 50
313.8804872683611
  0
MTEXT
  5
3B8B
330
3B6F
100
AcDbEntity
  8
寸法線
 62
     0
100
AcDbMText
 10
378.6638025396153
 20
127.5159666899054
 30
0.0
 40
5.0
 41
0.0
 71
     5
 72
     1
  1
115
  7
OKANO
 11
0.6931563961646207
 21
-0.7207872157967811
 31
0.0
 73
     1
 44
1.0
  0
POINT
  5
3B8C
330
3B6F
100
AcDbEntity
  8
Defpoints
 62
     0
100
AcDbPoint
 10
323.7631468628155
 20
154.2429468859515
 30
0.0
  0
POINT
  5
3B8D
330
3B6F
100
AcDbEntity
  8
Defpoints
 62
     0
100
AcDbPoint
 10
403.2254957723997
 20
71.61304467610595
 30
0.0
  0
POINT
  5
3B8E
330
3B6F
100
AcDbEntity
  8
Defpoints
 62
     0
100
AcDbPoint
 10
415.8722217391185
 20
83.77496819840649
 30
0.0
  0
ENDBLK
  5
3B7A
330
3B6F
100
AcDbEntity
  8
0
 62
     3
100
AcDbBlockEnd
  0
BLOCK
  5
3BC8
330
3BBE
100
AcDbEntity
  8
0
100
AcDbBlockBegin
  2
*D28
 70
     1
 10
0.0
 20
0.0
 30
0.0
  3
*D28
  1

  0
LINE
  5
3BCA
330
3BBE
100
AcDbEntity
  8
寸法線
 62
     0
370
    -2
100
AcDbLine
 10
47.55151402540432
 20
148.8211488256961
 30
0.0
 11
47.55151402540432
 21
134.3970403356679
 31
0.0
  0
LINE
  5
3BCB
330
3BBE
100
AcDbEntity
  8
寸法線
 62
     0
370
    -2
100
AcDbLine
 10
96.85151402540434
 20
148.8211488256961
 30
0.0
 11
96.85151402540434
 21
134.3970403356679
 31
0.0
  0
LINE
  5
3BCC
330
3BBE
100
AcDbEntity
  8
寸法線
 62
     0
370
    -2
100
AcDbLine
 10
50.55151402540432
 20
137.3970403356679
 30
0.0
 11
93.85151402540433
 21
137.3970403356679
 31
0.0
  0
INSERT
  5
3BCD
330
3BBE
100
AcDbEntity
  8
寸法線
 62
     0
370
    -2
100
AcDbBlockReference
  2
_Closed
 10
47.55151402540432
 20
137.3970403356679
 30
0.0
 41
3.0
 42
3.0
 43
3.0
 50
180.0
  0
INSERT
  5
3BCE
330
3BBE
100
AcDbEntity
  8
寸法線
 62
     0
370
    -2
100
AcDbBlockReference
  2
_Closed
 10
96.85151402540434
 20
137.3970403356679
 30
0.0
 41
3.0
 42
3.0
 43
3.0
  0
MTEXT
  5
3BCF
330
3BBE
100
AcDbEntity
  8
寸法線
 62
     0
100
AcDbMText
 10
72.20151402540432
 20
140.8970403356679
 30
0.0
 40
5.0
 41
0.0
 71
     5
 72
     1
  1
49.3～50
  7
OKANO
 73
     1
 44
1.0
  0
POINT
  5
3BD0
330
3BBE
100
AcDbEntity
  8
Defpoints
 62
     0
100
AcDbPoint
 10
47.55151402540432
 20
150.8211488256961
 30
0.0
  0
POINT
  5
3BD1
330
3BBE
100
AcDbEntity
  8
Defpoints
 62
     0
100
AcDbPoint
 10
96.85151402540434
 20
150.8211488256961
 30
0.0
  0
POINT
  5
3BD2
330
3BBE
100
AcDbEntity
  8
Defpoints
 62
     0
100
AcDbPoint
 10
96.85151402540434
 20
137.3970403356679
 30
0.0
  0
ENDBLK
  5
3BC9
330
3BBE
100
AcDbEntity
  8
0
100
AcDbBlockEnd
  0
ENDSEC
  0
SECTION
  2
ENTITIES
  0
XLINE
  5
22CA
330
1F
100
AcDbEntity
  8
構築線
 62
     3
370
     5
100
AcDbXline
 10
72.20151402540432
 20
178.0193172078315
 30
0.0
 11
0.0
 21
-1.0
 31
0.0
  0
TEXT
  5
29C2
330
1F
100
AcDbEntity
  8
文字
100
AcDbText
 10
286.9529300103223
 20
-27.5357956164375
 30
0.0
 40
4.799999999999999
  1
joint kogyo T.okano
 51
15.0
  7
OKANO
100
AcDbText
  0
TEXT
  5
29C3
330
1F
100
AcDbEntity
  8
文字
100
AcDbText
 10
279.4646169985255
 20
-12.78342410914972
 30
0.0
 40
4.799999999999999
  1
F-999-20131220 Auto CAD
 51
15.0
  7
OKANO
100
AcDbText
  0
LINE
  5
29C4
330
1F
100
AcDbEntity
  8
太線
100
AcDbLine
 10
252.0423888169116
 20
-13.70423175958007
 30
0.0
 11
360.0423888169116
 21
-13.70423175958007
 31
0.0
  0
LWPOLYLINE
  5
29C5
330
1F
100
AcDbEntity
  8
太線
100
AcDbPolyline
 90
        4
 70
     1
 43
0.0
 10
252.0423888169116
 20
-5.30423175958008
 10
360.0423888169116
 20
-5.30423175958008
 10
360.0423888169116
 20
-30.50423175958008
 10
252.0423888169116
 20
-30.50423175958008
  0
TEXT
  5
29C6
330
1F
100
AcDbEntity
  8
文字
100
AcDbText
 10
255.9147723829691
 20
-21.89774355843076
 30
0.0
 40
2.399999999999999
  1
CHECK
 51
15.0
  7
OKANO
100
AcDbText
  0
LINE
  5
29C7
330
1F
100
AcDbEntity
  8
太線
100
AcDbLine
 10
276.0423888169116
 20
-5.30423175958008
 30
0.0
 11
276.0423888169116
 21
-30.50423175958008
 31
0.0
  0
TEXT
  5
29C8
330
1F
100
AcDbEntity
  8
文字
100
AcDbText
 10
255.9147723829691
 20
-28.81717116464658
 30
0.0
 40
2.399999999999999
  1
ISSUED
 51
15.0
  7
OKANO
100
AcDbText
  0
TEXT
  5
29C9
330
1F
100
AcDbEntity
  8
文字
100
AcDbText
 10
256.1712868158698
 20
-25.48559497537844
 30
0.0
 40
2.399999999999999
  1
APPR
 51
15.0
  7
OKANO
100
AcDbText
  0
TEXT
  5
29CA
330
1F
100
AcDbEntity
  8
文字
100
AcDbText
 10
254.1191768312834
 20
-11.90301558081491
 30
0.0
 40
2.399999999999999
  1
FILM NAME
 51
15.0
  7
OKANO
100
AcDbText
  0
TEXT
  5
29CB
330
1F
100
AcDbEntity
  8
文字
100
AcDbText
 10
255.4017457086154
 20
-18.30989273167172
 30
0.0
 40
2.399999999999999
  1
DRAWN
 51
15.0
  7
OKANO
100
AcDbText
  0
TEXT
  5
29CC
330
1F
100
AcDbEntity
  8
文字
100
AcDbText
 10
283.3884570412535
 20
-21.22897004611979
 30
0.0
 40
4.799999999999999
  1
S-8-1WB / 1LB /  1SB
 51
15.0
  7
OKANO
100
AcDbText
  0
XLINE
  5
2DB6
330
1F
100
AcDbEntity
  8
構築線
100
AcDbXline
 10
72.20151402540432
 20
180.4711488256961
 30
0.0
 11
1.0
 21
0.0
 31
0.0
  0
XLINE
  5
2DB7
330
1F
100
AcDbEntity
  8
構築線
370
     5
100
AcDbXline
 10
4921.501514025404
 20
178.0193172078315
 30
0.0
 11
0.0
 21
-1.0
 31
0.0
  0
XLINE
  5
2DB8
330
1F
100
AcDbEntity
  8
構築線
370
     5
100
AcDbXline
 10
-4777.098485974596
 20
178.0193172078315
 30
0.0
 11
0.0
 21
-1.0
 31
0.0
  0
LINE
  5
2DFC
330
1F
100
AcDbEntity
  8
破線
100
AcDbLine
 10
101.8515140254043
 20
205.1211488256961
 30
0.0
 11
101.8515140254043
 21
203.1211488256961
 31
0.0
  0
LINE
  5
2E01
330
1F
100
AcDbEntity
  8
破線
100
AcDbLine
 10
101.8515140254043
 20
155.8211488256961
 30
0.0
 11
101.8515140254043
 21
157.8211488256961
 31
0.0
  0
LINE
  5
2E05
330
1F
100
AcDbEntity
  8
破線
100
AcDbLine
 10
101.8515140254043
 20
203.1211488256961
 30
0.0
 11
101.8515140254043
 21
157.8211488256961
 31
0.0
  0
LINE
  5
2E4D
330
1F
100
AcDbEntity
  8
太線
100
AcDbLine
 10
202.1947348835682
 20
181.3885963229309
 30
0.0
 11
202.1947348835682
 21
209.0385963229309
 31
0.0
  0
LINE
  5
2E4F
330
1F
100
AcDbEntity
  8
太線
100
AcDbLine
 10
261.4947348835682
 20
209.0385963229309
 30
0.0
 11
261.4947348835682
 21
181.3885963229309
 31
0.0
  0
LINE
  5
2E50
330
1F
100
AcDbEntity
  8
太線
100
AcDbLine
 10
202.1947348835682
 20
181.3885963229309
 30
0.0
 11
202.1947348835683
 21
153.7385963229309
 31
0.0
  0
LINE
  5
2E52
330
1F
100
AcDbEntity
  8
太線
100
AcDbLine
 10
261.4947348835682
 20
153.7385963229308
 30
0.0
 11
261.4947348835682
 21
181.3885963229309
 31
0.0
  0
LINE
  5
2E53
330
1F
100
AcDbEntity
  8
太線
100
AcDbLine
 10
204.1947348835682
 20
211.0385963229309
 30
0.0
 11
259.4947348835682
 21
211.0385963229309
 31
0.0
  0
LINE
  5
2E8F
330
1F
100
AcDbEntity
  8
細線
100
AcDbLine
 10
197.5312446523055
 20
186.205949138434
 30
0.0
 11
207.6234439128828
 21
185.965884134877
 31
0.0
  0
LINE
  5
2E90
330
1F
100
AcDbEntity
  8
細線
100
AcDbLine
 10
197.6859815688813
 20
187.2025512579438
 30
0.0
 11
207.8328887141625
 21
186.9611849078521
 31
0.0
  0
LINE
  5
2E91
330
1F
100
AcDbEntity
  8
細線
100
AcDbLine
 10
197.3410009932873
 20
178.2082114989385
 30
0.0
 11
207.4332002538647
 21
177.9681464953815
 31
0.0
  0
LINE
  5
2E92
330
1F
100
AcDbEntity
  8
細線
100
AcDbLine
 10
197.4481769951086
 20
177.2053792085745
 30
0.0
 11
207.5950841403899
 21
176.9640128584827
 31
0.0
  0
ARC
  5
2E93
330
1F
100
AcDbEntity
  8
太線
100
AcDbCircle
 10
231.8447348835682
 20
181.3885963229309
 30
0.0
 40
34.65
100
AcDbArc
 50
166.1367294756544
 51
191.137973934145
  0
LINE
  5
2E94
330
1F
100
AcDbEntity
  8
太線
100
AcDbLine
 10
202.1947348835683
 20
172.7348793524787
 30
0.0
 11
197.8473728082126
 21
174.6951762765593
 31
0.0
  0
LINE
  5
2E95
330
1F
100
AcDbEntity
  8
太線
100
AcDbLine
 10
202.1947348835683
 20
191.2666053764763
 30
0.0
 11
198.2040796688716
 21
189.6909343506134
 31
0.0
  0
LINE
  5
2EA0
330
1F
100
AcDbEntity
  8
破線
100
AcDbLine
 10
207.1947348835682
 20
181.3885963229309
 30
0.0
 11
207.1947348835682
 21
153.7385963229309
 31
0.0
  0
LINE
  5
2EA2
330
1F
100
AcDbEntity
  8
破線
100
AcDbLine
 10
256.4947348835683
 20
153.7385963229309
 30
0.0
 11
256.4947348835683
 21
181.3885963229309
 31
0.0
  0
ARC
  5
2F18
330
1F
100
AcDbEntity
  8
太線
100
AcDbCircle
 10
204.1947348835682
 20
209.0385963229309
 30
0.0
 40
2.0
100
AcDbArc
 50
90.0
 51
180.0
  0
ARC
  5
2F19
330
1F
100
AcDbEntity
  8
太線
100
AcDbCircle
 10
259.4947348835682
 20
209.0385963229309
 30
0.0
 40
2.0
100
AcDbArc
 50
0.0000000000001018
 51
90.0
  0
CIRCLE
  5
309E
330
1F
100
AcDbEntity
  8
太線
100
AcDbCircle
 10
72.20151402540432
 20
180.4711488256961
 30
0.0
 40
3.999999999999994
  0
CIRCLE
  5
309F
330
1F
100
AcDbEntity
  8
太線
100
AcDbCircle
 10
72.20151402540432
 20
180.4711488256961
 30
0.0
 40
4.999999999999998
  0
CIRCLE
  5
30A0
330
1F
100
AcDbEntity
  8
太線
100
AcDbCircle
 10
72.20151402540432
 20
180.4711488256961
 30
0.0
 40
10.0
  0
CIRCLE
  5
30A1
330
1F
100
AcDbEntity
  8
太線
100
AcDbCircle
 10
72.20151402540432
 20
180.4711488256961
 30
0.0
 40
7.513741701180227
  0
LINE
  5
30AA
330
1F
100
AcDbEntity
  8
文字
100
AcDbLine
 10
204.1947348835683
 20
151.7385963229309
 30
0.0
 11
259.4947348835682
 21
151.7385963229308
 31
0.0
  0
LINE
  5
30AB
330
1F
100
AcDbEntity
  8
文字
100
AcDbLine
 10
204.1947348835682
 20
211.0385963229309
 30
0.0
 11
259.4947348835682
 21
211.0385963229309
 31
0.0
  0
LINE
  5
30AC
330
1F
100
AcDbEntity
  8
破線
100
AcDbLine
 10
256.4947348835683
 20
211.0385963229309
 30
0.0
 11
256.4947348835683
 21
181.3885963229309
 31
0.0
  0
LINE
  5
30AD
330
1F
100
AcDbEntity
  8
破線
100
AcDbLine
 10
207.1947348835682
 20
211.0385963229309
 30
0.0
 11
207.1947348835683
 21
181.3885963229309
 31
0.0
  0
LINE
  5
30AE
330
1F
100
AcDbEntity
  8
破線
100
AcDbLine
 10
207.1947348835682
 20
153.7385963229309
 30
0.0
 11
207.1947348835682
 21
151.7385963229308
 31
0.0
  0
LINE
  5
30AF
330
1F
100
AcDbEntity
  8
破線
100
AcDbLine
 10
256.4947348835683
 20
153.7385963229309
 30
0.0
 11
256.4947348835683
 21
151.7385963229308
 31
0.0
  0
ARC
  5
30B0
330
1F
100
AcDbEntity
  8
太線
100
AcDbCircle
 10
204.1947348835683
 20
153.7385963229309
 30
0.0
 40
2.0
100
AcDbArc
 50
180.0
 51
270.0
  0
ARC
  5
30B1
330
1F
100
AcDbEntity
  8
太線
100
AcDbCircle
 10
259.4947348835682
 20
153.7385963229308
 30
0.0
 40
2.0
100
AcDbArc
 50
270.0
 51
0.0
  0
LINE
  5
30B2
330
1F
100
AcDbEntity
  8
破線
100
AcDbLine
 10
96.85151402540434
 20
210.1211488256961
 30
0.0
 11
96.85151402540434
 21
150.8211488256961
 31
0.0
  0
LINE
  5
30B3
330
1F
100
AcDbEntity
  8
破線
100
AcDbLine
 10
47.55151402540432
 20
210.1211488256961
 30
0.0
 11
47.55151402540432
 21
150.8211488256961
 31
0.0
  0
DIMENSION
  5
3236
330
1F
100
AcDbEntity
  8
寸法線
100
AcDbDimension
  2
*D2
 10
261.6713621570622
 20
220.9637047218386
 30
0.0
 11
231.8765132851347
 21
224.4637047218386
 31
0.0
 70
    32
  1
60
 71
     5
 42
59.58969774385517
  3
sunpo
100
AcDbAlignedDimension
 13
202.0816644132071
 23
208.1211488256961
 33
0.0
 14
261.6713621570622
 24
208.1211488256961
 34
0.0
100
AcDbRotatedDimension
1001
ACAD
1000
DSTYLE
1002
{
1070
    40
1040
1.0
1002
}
  0
ARC
  5
32DC
330
1F
100
AcDbEntity
  8
太線
100
AcDbCircle
 10
17.20355569207098
 20
180.4711488256961
 30
0.0
 40
29.6520416666667
100
AcDbArc
 50
90.67236522039566
 51
270.6723652203957
  0
LINE
  5
32DE
330
1F
100
AcDbEntity
  8
太線
100
AcDbLine
 10
42.55151402540432
 20
210.1211488256961
 30
0.0
 11
42.55151402540432
 21
150.8211488256961
 31
0.0
  0
LINE
  5
32DF
330
1F
100
AcDbEntity
  8
太線
100
AcDbLine
 10
42.55151402540432
 20
150.8211488256961
 30
0.0
 11
17.55151402540432
 21
150.8211488256961
 31
0.0
  0
LINE
  5
32E1
330
1F
100
AcDbEntity
  8
太線
100
AcDbLine
 10
101.8515140254043
 20
150.8211488256961
 30
0.0
 11
101.8515140254043
 21
210.1211488256961
 31
0.0
  0
LINE
  5
32E2
330
1F
100
AcDbEntity
  8
太線
100
AcDbLine
 10
16.85559735873771
 20
210.1211488256962
 30
0.0
 11
101.8515140254043
 21
210.1211488256961
 31
0.0
  0
LINE
  5
32E3
330
1F
100
AcDbEntity
  8
太線
100
AcDbLine
 10
42.55151402540432
 20
150.8211488256961
 30
0.0
 11
101.8515140254043
 21
150.8211488256961
 31
0.0
  0
ARC
  5
32E4
330
1F
100
AcDbEntity
  8
太線
100
AcDbCircle
 10
3.551514025404306
 20
180.4711488256961
 30
0.0
 40
5.999999999999971
100
AcDbArc
 50
89.99999999999984
 51
270.0000000000001
  0
ARC
  5
32E5
330
1F
100
AcDbEntity
  8
太線
100
AcDbCircle
 10
21.55151402540432
 20
180.4711488256961
 30
0.0
 40
6.000000000000056
100
AcDbArc
 50
270.0
 51
90.0
  0
LINE
  5
32E6
330
1F
100
AcDbEntity
  8
太線
100
AcDbLine
 10
21.55151402540432
 20
186.4711488256961
 30
0.0
 11
3.551514025404323
 21
186.4711488256961
 31
0.0
  0
LINE
  5
32E7
330
1F
100
AcDbEntity
  8
太線
100
AcDbLine
 10
3.551514025404323
 20
174.4711488256961
 30
0.0
 11
21.55151402540432
 21
174.471148825696
 31
0.0
  0
LINE
  5
32EA
330
1F
100
AcDbEntity
  8
想像線
100
AcDbLine
 10
234.3447348835682
 20
211.0385963229309
 30
0.0
 11
234.3447348835682
 21
151.7385963229308
 31
0.0
  0
LINE
  5
32EB
330
1F
100
AcDbEntity
  8
想像線
100
AcDbLine
 10
229.3447348835683
 20
211.0385963229309
 30
0.0
 11
229.3447348835683
 21
151.7385963229308
 31
0.0
  0
LINE
  5
32EC
330
1F
100
AcDbEntity
  8
想像線
100
AcDbLine
 10
234.3447348835682
 20
187.3885963229309
 30
0.0
 11
229.3447348835683
 21
187.3885963229309
 31
0.0
  0
LINE
  5
32ED
330
1F
100
AcDbEntity
  8
想像線
100
AcDbLine
 10
234.3447348835682
 20
175.3885963229309
 30
0.0
 11
229.3447348835683
 21
175.3885963229309
 31
0.0
  0
DIMENSION
  5
3319
330
1F
100
AcDbEntity
  8
寸法線
100
AcDbDimension
  2
*D3
 10
79.73585347775861
 20
196.2120456900526
 30
0.0
 11
72.27494509096164
 21
199.7125378160368
 31
0.0
 70
    32
  1
20
 71
     5
 42
14.92181677359394
  3
sunpo
100
AcDbAlignedDimension
 13
64.81403670416466
 23
181.105798027382
 33
0.0
 14
79.73585347775861
 24
180.5172428108736
 34
0.0
100
AcDbRotatedDimension
1001
ACAD
1000
DSTYLE
1002
{
1070
    40
1040
1.0
1002
}
  0
DIMENSION
  5
3330
330
1F
100
AcDbEntity
  8
寸法線
100
AcDbDimension
  2
*D4
 10
82.6809483387276
 20
203.8632617680347
 30
0.0
 11
72.4712847103683
 21
207.3637538940189
 31
0.0
 70
    32
  1
24
 71
     5
 42
20.41932725671859
  3
sunpo
100
AcDbAlignedDimension
 13
62.26162108200901
 23
181.105798027382
 33
0.0
 14
82.6809483387276
 24
180.7134278830431
 34
0.0
100
AcDbRotatedDimension
1001
ACAD
1000
DSTYLE
1002
{
1070
    40
1040
1.0
1002
}
  0
DIMENSION
  5
3353
330
1F
100
AcDbEntity
  8
寸法線
100
AcDbDimension
  2
*D5
 10
92.49303938094659
 20
210.1211488256961
 30
0.0
 11
88.99303938094655
 21
195.2961488256962
 31
0.0
 70
    32
  1
30
 71
     5
 42
29.65
  3
sunpo
100
AcDbAlignedDimension
 13
72.20151402540432
 23
180.4711488256961
 33
0.0
 14
101.8515140254043
 24
210.1211488256961
 34
0.0
 50
90.0
100
AcDbRotatedDimension
1001
ACAD
1000
DSTYLE
1002
{
1070
    40
1040
1.0
1002
}
  0
DIMENSION
  5
33D3
330
1F
100
AcDbEntity
  8
寸法線
100
AcDbDimension
  2
*D6
 10
-12.89865092847936
 20
122.2016328613581
 30
0.0
 11
-7.5977370754232
 21
125.7016328613581
 31
0.0
 70
    32
  1
10
 71
     5
 42
10.60182770611231
  3
sunpo
100
AcDbAlignedDimension
 13
-2.296823222367038
 23
179.8036643073074
 33
0.0
 14
-12.89865092847935
 24
180.4657564364732
 34
0.0
100
AcDbRotatedDimension
1001
ACAD
1000
DSTYLE
1002
{
1070
    40
1040
1.0
1002
}
  0
DIMENSION
  5
33EF
330
1F
100
AcDbEntity
  8
寸法線
100
AcDbDimension
  2
*D7
 10
-19.75615209366742
 20
174.616522362319
 30
0.0
 11
-23.2566442196517
 21
180.7232968476938
 31
0.0
 70
    32
  1
12
 71
     5
 42
12.21354897074957
  3
sunpo
100
AcDbAlignedDimension
 13
3.541723882739916
 23
186.8300713330686
 33
0.0
 14
3.159749052508914
 24
174.616522362319
 34
0.0
 50
90.0
100
AcDbRotatedDimension
1001
ACAD
1000
DSTYLE
1002
{
1070
    40
1040
1.0
1002
}
  0
LEADER
  5
3451
330
1F
100
AcDbEntity
  8
寸法線
100
AcDbLeader
  3
sunpo
 76
     2
 10
143.9274557004037
 20
118.8343833580228
 30
0.0
 10
163.2779273585106
 20
126.4150719122132
 30
0.0
1001
ACAD
1000
DSTYLE
1002
{
1070
   147
1040
1.0
1070
    77
1070
     0
1002
}
  0
TEXT
  5
3452
330
1F
100
AcDbEntity
  8
文字
100
AcDbText
 10
136.0884502631886
 20
128.4231555156982
 30
0.0
 40
4.799999999999999
  1
8mm六角レンチ仕様
 51
15.0
  7
OKANO
100
AcDbText
  0
DIMENSION
  5
3453
330
1F
100
AcDbEntity
  8
寸法線
100
AcDbDimension
  2
*D8
 10
181.4526854548784
 20
112.8177036250674
 30
0.0
 11
178.0559240385003
 21
117.888404945418
 31
0.0
 70
    33
  1
13
 71
     5
 42
9.999999999999943
  3
sunpo
100
AcDbAlignedDimension
 13
172.0093078204354
 23
123.0134413116103
 33
0.0
 14
171.8043017696068
 24
113.0155429064892
 34
0.0
1001
ACAD
1000
DSTYLE
1002
{
1070
    40
1040
1.0
1002
}
  0
LINE
  5
3454
330
1F
100
AcDbEntity
  8
破線
100
AcDbLine
 10
172.0093078204354
 20
123.0134413116103
 30
0.0
 11
171.8248023746897
 21
114.0153327470013
 31
0.0
  0
LINE
  5
3455
330
1F
100
AcDbEntity
  8
太線
100
AcDbLine
 10
172.8245922152017
 20
113.9948321419184
 30
0.0
 11
173.0090976609475
 21
122.9929407065275
 31
0.0
  0
LINE
  5
3456
330
1F
100
AcDbEntity
  8
太線
100
AcDbLine
 10
163.0111992558264
 20
123.1979467573562
 30
0.0
 11
162.8266938100806
 21
114.199838192747
 31
0.0
  0
LINE
  5
3457
330
1F
100
AcDbEntity
  8
破線
100
AcDbLine
 10
164.0109890963385
 20
123.1774461522732
 30
0.0
 11
163.8264836505927
 21
114.1793375876642
 31
0.0
  0
LINE
  5
3458
330
1F
100
AcDbEntity
  8
破線
100
AcDbLine
 10
164.8262734911049
 20
114.1588369825814
 30
0.0
 11
165.0107789368507
 21
123.1569455471903
 31
0.0
  0
LINE
  5
3459
330
1F
100
AcDbEntity
  8
破線
100
AcDbLine
 10
170.8250125341775
 20
114.0358333520841
 30
0.0
 11
171.0095179799233
 21
123.0339419166932
 31
0.0
  0
LINE
  5
345A
330
1F
100
AcDbEntity
  8
破線
100
AcDbLine
 10
162.8266938100806
 20
114.199838192747
 30
0.0
 11
172.8245922152017
 21
113.9948321419184
 31
0.0
  0
LINE
  5
345C
330
1F
100
AcDbEntity
  8
破線
100
AcDbLine
 10
163.8059830455099
 20
113.1795477471521
 30
0.0
 11
164.8262734911049
 21
114.1588369825814
 31
0.0
  0
LINE
  5
345D
330
1F
100
AcDbEntity
  8
太線
100
AcDbLine
 10
162.8266938100806
 20
114.199838192747
 30
0.0
 11
163.8059830455099
 21
113.1795477471521
 31
0.0
  0
LINE
  5
345E
330
1F
100
AcDbEntity
  8
太線
100
AcDbLine
 10
171.8043017696068
 20
113.0155429064892
 30
0.0
 11
172.8245922152017
 21
113.9948321419184
 31
0.0
  0
LINE
  5
345F
330
1F
100
AcDbEntity
  8
破線
100
AcDbLine
 10
171.8043017696068
 20
113.0155429064892
 30
0.0
 11
170.8250125341775
 21
114.0358333520841
 31
0.0
  0
LINE
  5
3461
330
1F
100
AcDbEntity
  8
太線
100
AcDbLine
 10
173.0090976609475
 20
122.9929407065275
 30
0.0
 11
163.0111992558264
 21
123.1979467573562
 31
0.0
  0
LWPOLYLINE
  5
3462
330
1F
100
AcDbEntity
  8
太線
100
AcDbPolyline
 90
        6
 70
     1
 43
0.0
 10
146.9800570670686
 20
117.9468842647685
 10
145.5336344406845
 20
120.57516537338
 10
142.5342649191482
 20
120.6366671886287
 10
140.9813180239959
 20
118.0698878952657
 10
142.4277406503799
 20
115.4416067866542
 10
145.4271101719163
 20
115.3801049714056
  0
CIRCLE
  5
3463
330
1F
100
AcDbEntity
  8
太線
100
AcDbCircle
 10
143.9806875455322
 20
118.008386080017
 30
0.0
 40
3.999999999999994
  0
CIRCLE
  5
3464
330
1F
100
AcDbEntity
  8
太線
100
AcDbCircle
 10
143.9806875455322
 20
118.008386080017
 30
0.0
 40
4.999999999999998
  0
XLINE
  5
34FF
330
1F
100
AcDbEntity
  8
構築線
100
AcDbXline
 10
71.49890190262727
 20
-98.3201866155041
 30
0.0
 11
1.0
 21
0.0
 31
0.0
  0
LINE
  5
3504
330
1F
100
AcDbEntity
  8
太線
100
AcDbLine
 10
-10.44848597459548
 20
80.14019332955454
 30
0.0
 11
40.01809438112181
 21
80.14019332955454
 31
0.0
  0
LINE
  5
3505
330
1F
100
AcDbEntity
  8
太線
100
AcDbLine
 10
40.01655630279485
 20
75.14019332955453
 30
0.0
 11
-11.44848597459548
 21
75.14019332955453
 31
0.0
  0
ARC
  5
3507
330
1F
100
AcDbEntity
  8
太線
100
AcDbCircle
 10
-11.44848597459551
 20
79.14019332955454
 30
0.0
 40
1.0
100
AcDbArc
 50
90.0
 51
180.0
  0
ARC
  5
3508
330
1F
100
AcDbEntity
  8
太線
100
AcDbCircle
 10
-11.44848597459548
 20
76.14019332955454
 30
0.0
 40
1.0
100
AcDbArc
 50
180.0000000000001
 51
270.0
  0
LINE
  5
3509
330
1F
100
AcDbEntity
  8
太線
100
AcDbLine
 10
-12.44848597459548
 20
76.14019332955454
 30
0.0
 11
-12.44848597459548
 21
78.14019332955453
 31
0.0
  0
LINE
  5
350A
330
1F
100
AcDbEntity
  8
太線
100
AcDbLine
 10
-12.44848597459551
 20
77.64019332955453
 30
0.0
 11
-12.44848597459551
 21
79.14019332955454
 31
0.0
  0
LINE
  5
350B
330
1F
100
AcDbEntity
  8
想像線
100
AcDbLine
 10
-2.448485974595513
 20
80.14019332955454
 30
0.0
 11
-2.448485974595513
 21
75.14019332955453
 31
0.0
  0
LINE
  5
350C
330
1F
100
AcDbEntity
  8
太線
100
AcDbLine
 10
-11.44848597459551
 20
80.14019332955454
 30
0.0
 11
-10.44848597459548
 21
80.14019332955454
 31
0.0
  0
LINE
  5
350E
330
1F
100
AcDbEntity
  8
想像線
100
AcDbLine
 10
27.55151402540448
 20
77.64019332955453
 30
0.0
 11
27.55151402540448
 21
75.14019332955453
 31
0.0
  0
LINE
  5
350F
330
1F
100
AcDbEntity
  8
想像線
100
AcDbLine
 10
27.55151402540448
 20
80.14019332955454
 30
0.0
 11
27.55151402540448
 21
77.64019332955453
 31
0.0
  0
CIRCLE
  5
3517
330
1F
100
AcDbEntity
  8
太線
100
AcDbCircle
 10
72.20151402540449
 20
50.49019332955456
 30
0.0
 40
24.65
  0
DIMENSION
  5
3518
330
1F
100
AcDbEntity
  8
寸法線
100
AcDbDimension
  2
*D11
 10
99.72825012356878
 20
16.07627475042636
 30
0.0
 11
96.22825012356878
 21
18.69875738699648
 31
0.0
 70
    32
  1
5
 71
     5
 42
5.244965273140223
  3
sunpo
100
AcDbAlignedDimension
 13
72.08299003925271
 23
21.32124002356658
 33
0.0
 14
72.08299003925271
 24
16.07627475042636
 34
0.0
 50
90.0
100
AcDbRotatedDimension
1001
ACAD
1000
DSTYLE
1002
{
1070
    40
1040
1.0
1002
}
  0
LINE
  5
3519
330
1F
100
AcDbEntity
  8
太線
100
AcDbLine
 10
81.5349077350875
 20
22.3475164515451
 30
0.0
 11
78.89493407177607
 21
16.4928312541989
 31
0.0
  0
LINE
  5
351A
330
1F
100
AcDbEntity
  8
太線
100
AcDbLine
 10
61.54056363634869
 20
22.82312559909043
 30
0.0
 11
63.89917599772196
 21
16.84953811485792
 31
0.0
  0
LINE
  5
351B
330
1F
100
AcDbEntity
  8
細線
100
AcDbLine
 10
67.38416120990139
 20
16.17670309829179
 30
0.0
 11
67.62422621345836
 21
26.26890235886914
 31
0.0
  0
LINE
  5
351C
330
1F
100
AcDbEntity
  8
細線
100
AcDbLine
 10
66.38755909039152
 20
16.33144001486761
 30
0.0
 11
66.62892544048323
 21
26.47834716014882
 31
0.0
  0
LINE
  5
351D
330
1F
100
AcDbEntity
  8
細線
100
AcDbLine
 10
75.3818988493969
 20
15.98645943927368
 30
0.0
 11
75.62196385295386
 21
26.078658699851
 31
0.0
  0
LINE
  5
351E
330
1F
100
AcDbEntity
  8
細線
100
AcDbLine
 10
76.38473113976091
 20
16.09363544109493
 30
0.0
 11
76.62609748985262
 21
26.2405425863762
 31
0.0
  0
ARC
  5
351F
330
1F
100
AcDbEntity
  8
太線
100
AcDbCircle
 10
72.20151402540452
 20
50.49019332955456
 30
0.0
 40
34.65
100
AcDbArc
 50
256.1367294756545
 51
281.137973934145
  0
LINE
  5
3590
330
1F
100
AcDbEntity
  8
太線
100
AcDbLine
 10
154.8515140254043
 20
80.14019332955456
 30
0.0
 11
104.3849336696869
 21
80.14019332955454
 31
0.0
  0
LINE
  5
3591
330
1F
100
AcDbEntity
  8
太線
100
AcDbLine
 10
104.384933669687
 20
75.14019332955456
 30
0.0
 11
155.8515140254042
 21
75.14019332955456
 31
0.0
  0
LINE
  5
3594
330
1F
100
AcDbEntity
  8
想像線
100
AcDbLine
 10
116.8515140254043
 20
77.64019332955456
 30
0.0
 11
116.8515140254043
 21
75.14019332955456
 31
0.0
  0
LINE
  5
3595
330
1F
100
AcDbEntity
  8
想像線
100
AcDbLine
 10
116.8515140254043
 20
80.14019332955456
 30
0.0
 11
116.8515140254043
 21
77.64019332955456
 31
0.0
  0
LINE
  5
3596
330
1F
100
AcDbEntity
  8
想像線
100
AcDbLine
 10
146.8515140254043
 20
80.14019332955456
 30
0.0
 11
146.8515140254043
 21
75.14019332955456
 31
0.0
  0
LINE
  5
3597
330
1F
100
AcDbEntity
  8
太線
100
AcDbLine
 10
156.8515140254042
 20
76.14019332955456
 30
0.0
 11
156.8515140254042
 21
78.14019332955457
 31
0.0
  0
ARC
  5
3598
330
1F
100
AcDbEntity
  8
太線
100
AcDbCircle
 10
155.8515140254042
 20
76.14019332955456
 30
0.0
 40
1.0
100
AcDbArc
 50
270.0
 51
359.9999999999998
  0
ARC
  5
3599
330
1F
100
AcDbEntity
  8
太線
100
AcDbCircle
 10
155.8515140254042
 20
79.14019332955456
 30
0.0
 40
1.0
100
AcDbArc
 50
0.000000000000007
 51
90.0
  0
LINE
  5
359A
330
1F
100
AcDbEntity
  8
太線
100
AcDbLine
 10
156.8515140254042
 20
77.64019332955456
 30
0.0
 11
156.8515140254042
 21
79.14019332955456
 31
0.0
  0
LINE
  5
359B
330
1F
100
AcDbEntity
  8
太線
100
AcDbLine
 10
155.8515140254042
 20
80.14019332955456
 30
0.0
 11
154.8515140254043
 21
80.14019332955456
 31
0.0
  0
ARC
  5
35AE
330
1F
100
AcDbEntity
  8
太線
100
AcDbCircle
 10
127.1994723587376
 20
180.4711488256961
 30
0.0
 40
29.6520416666667
100
AcDbArc
 50
269.3276347796042
 51
89.32763477960435
  0
LINE
  5
35B1
330
1F
100
AcDbEntity
  8
太線
100
AcDbLine
 10
101.8515140254043
 20
210.1211488256961
 30
0.0
 11
101.8515140254043
 21
150.8211488256961
 31
0.0
  0
LINE
  5
35B2
330
1F
100
AcDbEntity
  8
太線
100
AcDbLine
 10
140.8515140254043
 20
174.4711488256961
 30
0.0
 11
122.8515140254043
 21
174.471148825696
 31
0.0
  0
LINE
  5
35B3
330
1F
100
AcDbEntity
  8
太線
100
AcDbLine
 10
122.8515140254043
 20
186.4711488256961
 30
0.0
 11
140.8515140254043
 21
186.4711488256961
 31
0.0
  0
ARC
  5
35B4
330
1F
100
AcDbEntity
  8
太線
100
AcDbCircle
 10
140.8515140254043
 20
180.4711488256961
 30
0.0
 40
5.999999999999971
100
AcDbArc
 50
269.9999999999998
 51
90.00000000000017
  0
LINE
  5
35B5
330
1F
100
AcDbEntity
  8
太線
100
AcDbLine
 10
101.8515140254043
 20
150.8211488256961
 30
0.0
 11
126.8515140254043
 21
150.8211488256961
 31
0.0
  0
ARC
  5
35B6
330
1F
100
AcDbEntity
  8
太線
100
AcDbCircle
 10
122.8515140254043
 20
180.4711488256961
 30
0.0
 40
6.000000000000056
100
AcDbArc
 50
90.0
 51
270.0
  0
LINE
  5
35B7
330
1F
100
AcDbEntity
  8
破線
100
AcDbLine
 10
96.85151402540434
 20
210.1211488256961
 30
0.0
 11
96.85151402540434
 21
150.8211488256961
 31
0.0
  0
LINE
  5
35CD
330
1F
100
AcDbEntity
  8
太線
100
AcDbLine
 10
101.8515140254043
 20
210.1211488256961
 30
0.0
 11
127.5474306920709
 21
210.1211488256962
 31
0.0
  0
LINE
  5
35CE
330
1F
100
AcDbEntity
  8
太線
100
AcDbLine
 10
171.8043017696068
 20
113.0155429064892
 30
0.0
 11
163.8059830455099
 21
113.1795477471521
 31
0.0
  0
DIMENSION
  5
3610
330
1F
100
AcDbEntity
  8
寸法線
100
AcDbDimension
  2
*D14
 10
42.45890126749872
 20
224.000649176835
 30
0.0
 11
15.01214316225332
 21
227.500649176835
 31
0.0
 70
    32
  1
55
 71
     5
 42
54.89351621049081
  3
sunpo
100
AcDbAlignedDimension
 13
-12.43461494299208
 23
181.2805837673586
 33
0.0
 14
42.45890126749872
 24
181.2805837673586
 34
0.0
100
AcDbRotatedDimension
1001
ACAD
1000
DSTYLE
1002
{
1070
    40
1040
1.0
1002
}
  0
DIMENSION
  5
361D
330
1F
100
AcDbEntity
  8
寸法線
100
AcDbDimension
  2
*D15
 10
101.7304287824611
 20
224.000649176835
 30
0.0
 11
72.09466502497992
 21
227.500649176835
 31
0.0
 70
    32
  1
60
 71
     5
 42
59.27152751496237
  3
sunpo
100
AcDbAlignedDimension
 13
42.45890126749872
 23
181.2805837673586
 33
0.0
 14
101.7304287824611
 24
209.8727539027738
 34
0.0
100
AcDbRotatedDimension
1001
ACAD
1000
DSTYLE
1002
{
1070
    40
1040
1.0
1070
   279
1070
     1
1002
}
  0
DIMENSION
  5
362A
330
1F
100
AcDbEntity
  8
寸法線
100
AcDbDimension
  2
*D16
 10
156.2871747718272
 20
224.000649176835
 30
0.0
 11
129.0088017771441
 21
227.500649176835
 31
0.0
 70
    32
  1
55
 71
     5
 42
54.55674598936616
  3
sunpo
100
AcDbAlignedDimension
 13
101.7304287824611
 23
209.8727539027738
 33
0.0
 14
156.2871747718272
 24
182.2897195202061
 34
0.0
100
AcDbRotatedDimension
1001
ACAD
1000
DSTYLE
1002
{
1070
    40
1040
1.0
1070
   279
1070
     1
1002
}
  0
XLINE
  5
36B0
330
1F
100
AcDbEntity
  8
構築線
 62
     3
100
AcDbXline
 10
231.8479894305562
 20
179.7861401939363
 30
0.0
 11
0.0
 21
-1.0
 31
0.0
  0
XLINE
  5
3791
330
1F
100
AcDbEntity
  8
構築線
100
AcDbXline
 10
174.3132045392745
 20
92.95999247616206
 30
0.0
 11
0.0
 21
-1.0
 31
0.0
  0
TEXT
  5
3796
330
1F
100
AcDbEntity
  8
文字
100
AcDbText
 10
61.44391060066016
 20
48.07402502637433
 30
0.0
 40
4.799999999999999
  1
S-8-1WB
 51
15.0
  7
OKANO
100
AcDbText
  0
TEXT
  5
37B2
330
1F
100
AcDbEntity
  8
寸法線
100
AcDbText
 10
8.891769890851946
 20
104.249306424827
 30
0.0
 40
4.799999999999999
  1
PF3/8 inch19yama クボミ先ホーローセット使用
 51
15.0
  7
OKANO
100
AcDbText
  0
DIMENSION
  5
380E
330
1F
100
AcDbEntity
  8
寸法線
100
AcDbDimension
  2
*D17
 10
172.8245922152017
 20
102.9892286823751
 30
0.0
 11
185.1880287037978
 21
106.4897208083593
 31
0.0
 70
    32
  1
16.662
 71
     5
 42
9.997898405121134
  3
sunpo
100
AcDbAlignedDimension
 13
162.8266938100806
 23
114.199838192747
 33
0.0
 14
172.8245922152017
 24
113.9948321419184
 34
0.0
100
AcDbRotatedDimension
1001
ACAD
1000
DSTYLE
1002
{
1070
    40
1040
1.0
1002
}
  0
XLINE
  5
384C
330
1F
100
AcDbEntity
  8
構築線
 62
     3
100
AcDbXline
 10
74.20151402540432
 20
180.4711488256961
 30
0.0
 11
1.0
 21
0.0
 31
0.0
  0
XLINE
  5
38AF
330
1F
100
AcDbEntity
  8
構築線
 62
     3
100
AcDbXline
 10
334.831513413272
 20
180.4711488256961
 30
0.0
 11
1.0
 21
0.0
 31
0.0
  0
DIMENSION
  5
390F
330
1F
100
AcDbEntity
  8
寸法線
100
AcDbDimension
  2
*D18
 10
276.8829946350172
 20
211.0385963229309
 30
0.0
 11
273.3829946350171
 21
181.3885963229309
 31
0.0
 70
    32
  1
60
 71
     5
 42
59.30000000000004
  3
sunpo
100
AcDbAlignedDimension
 13
256.4947348835683
 23
151.7385963229308
 33
0.0
 14
256.4947348835683
 24
211.0385963229309
 34
0.0
 50
90.0
100
AcDbRotatedDimension
1001
ACAD
1000
DSTYLE
1002
{
1070
    40
1040
1.0
1002
}
  0
LINE
  5
39A6
330
1F
100
AcDbEntity
  8
太線
100
AcDbLine
 10
40.01809438112181
 20
80.14019332955456
 30
0.0
 11
104.3849336696869
 21
80.14019332955454
 31
0.0
  0
LINE
  5
39A7
330
1F
100
AcDbEntity
  8
太線
100
AcDbLine
 10
104.2372943662071
 20
75.14019332955456
 30
0.0
 11
104.384933669687
 21
75.14019332955456
 31
0.0
  0
ARC
  5
39AA
330
1F
100
AcDbEntity
  8
太線
100
AcDbCircle
 10
72.20151402540432
 20
50.72422967654914
 30
0.0
 40
29.49533229089382
100
AcDbArc
 50
177.9059867637475
 51
10.1273025579957
  0
CIRCLE
  5
39B5
330
1F
100
AcDbEntity
  8
太線
100
AcDbCircle
 10
136.8515140254043
 20
165.4711488256961
 30
0.0
 40
2.5
  0
CIRCLE
  5
39B6
330
1F
100
AcDbEntity
  8
太線
100
AcDbCircle
 10
116.8515140254043
 20
165.4711488256961
 30
0.0
 40
2.5
  0
CIRCLE
  5
39B7
330
1F
100
AcDbEntity
  8
太線
100
AcDbCircle
 10
116.8515140254043
 20
195.4711488256961
 30
0.0
 40
2.5
  0
CIRCLE
  5
39B8
330
1F
100
AcDbEntity
  8
太線
100
AcDbCircle
 10
136.8515140254043
 20
195.4711488256961
 30
0.0
 40
2.5
  0
CIRCLE
  5
39B9
330
1F
100
AcDbEntity
  8
太線
100
AcDbCircle
 10
7.551514025404316
 20
165.4711488256961
 30
0.0
 40
2.5
  0
CIRCLE
  5
39BA
330
1F
100
AcDbEntity
  8
太線
100
AcDbCircle
 10
27.55151402540431
 20
165.4711488256961
 30
0.0
 40
2.5
  0
CIRCLE
  5
39BB
330
1F
100
AcDbEntity
  8
太線
100
AcDbCircle
 10
27.55151402540431
 20
195.4711488256961
 30
0.0
 40
2.5
  0
CIRCLE
  5
39BC
330
1F
100
AcDbEntity
  8
太線
100
AcDbCircle
 10
7.551514025404316
 20
195.4711488256961
 30
0.0
 40
2.5
  0
LINE
  5
39CA
330
1F
100
AcDbEntity
  8
想像線
100
AcDbLine
 10
139.3515140254043
 20
80.14019332955456
 30
0.0
 11
139.3515140254043
 21
75.14019332955456
 31
0.0
  0
LINE
  5
39CB
330
1F
100
AcDbEntity
  8
想像線
100
AcDbLine
 10
134.3515140254043
 20
80.14019332955456
 30
0.0
 11
134.3515140254043
 21
75.14019332955455
 31
0.0
  0
LINE
  5
39CC
330
1F
100
AcDbEntity
  8
想像線
100
AcDbLine
 10
119.3515140254043
 20
80.14019332955454
 30
0.0
 11
119.3515140254043
 21
75.14019332955456
 31
0.0
  0
LINE
  5
39CD
330
1F
100
AcDbEntity
  8
想像線
100
AcDbLine
 10
114.3515140254043
 20
80.14019332955454
 30
0.0
 11
114.3515140254043
 21
75.14019332955456
 31
0.0
  0
LINE
  5
39CE
330
1F
100
AcDbEntity
  8
想像線
100
AcDbLine
 10
5.051514025404316
 20
80.14019332955456
 30
0.0
 11
5.051514025404316
 21
75.14019332955456
 31
0.0
  0
LINE
  5
39CF
330
1F
100
AcDbEntity
  8
想像線
100
AcDbLine
 10
10.05151402540431
 20
80.14019332955456
 30
0.0
 11
10.05151402540431
 21
75.14019332955455
 31
0.0
  0
LINE
  5
39D0
330
1F
100
AcDbEntity
  8
想像線
100
AcDbLine
 10
25.05151402540431
 20
80.14019332955454
 30
0.0
 11
25.05151402540431
 21
75.14019332955456
 31
0.0
  0
LINE
  5
39D1
330
1F
100
AcDbEntity
  8
想像線
100
AcDbLine
 10
30.05151402540431
 20
80.14019332955454
 30
0.0
 11
30.05151402540431
 21
75.14019332955456
 31
0.0
  0
CIRCLE
  5
39D5
330
1F
100
AcDbEntity
  8
太線
100
AcDbCircle
 10
231.8234382973489
 20
50.49019332955456
 30
0.0
 40
24.65
  0
ARC
  5
39D8
330
1F
100
AcDbEntity
  8
太線
100
AcDbCircle
 10
152.4718888320129
 20
11.48137815767762
 30
0.0
 40
1.0
100
AcDbArc
 50
135.0725801410202
 51
225.0725801410202
  0
ARC
  5
39D9
330
1F
100
AcDbEntity
  8
太線
100
AcDbCircle
 10
154.5958946817446
 20
9.362746724344944
 30
0.0
 40
1.0
100
AcDbArc
 50
225.0725801410203
 51
315.0725801410202
  0
LINE
  5
39DB
330
1F
100
AcDbEntity
  8
太線
100
AcDbLine
 10
152.8276812791012
 20
9.714060491100724
 30
0.0
 11
151.7656783542353
 21
10.77337620776705
 31
0.0
  0
LINE
  5
39DC
330
1F
100
AcDbEntity
  8
太線
100
AcDbLine
 10
153.889684203967
 20
8.654744774434419
 30
0.0
 11
152.4736803041459
 21
10.06716572998951
 31
0.0
  0
LINE
  5
39DD
330
1F
100
AcDbEntity
  8
太線
100
AcDbLine
 10
152.4700973598798
 20
12.89559058536579
 30
0.0
 11
188.1101251846905
 21
48.62602788253301
 31
0.0
  0
LINE
  5
39DE
330
1F
100
AcDbEntity
  8
太線
100
AcDbLine
 10
191.6501349342434
 20
45.09497549364519
 30
0.0
 11
155.3038966316552
 21
8.656536246567412
 31
0.0
  0
LINE
  5
39DF
330
1F
100
AcDbEntity
  8
太線
100
AcDbLine
 10
151.7638868821022
 20
12.18758863545519
 30
0.0
 11
152.4700973598798
 21
12.89559058536579
 31
0.0
  0
LINE
  5
39E0
330
1F
100
AcDbEntity
  8
想像線
100
AcDbLine
 10
163.4163597654318
 20
23.86962080897979
 30
0.0
 11
166.9563695149847
 21
20.338568420092
 31
0.0
  0
LINE
  5
39E1
330
1F
100
AcDbEntity
  8
想像線
100
AcDbLine
 10
158.1197811821002
 20
18.55960618465045
 30
0.0
 11
161.6597909316532
 21
15.02855379576266
 31
0.0
  0
LINE
  5
39E2
330
1F
100
AcDbEntity
  8
想像線
100
AcDbLine
 10
166.9474121543196
 20
27.40963055853274
 30
0.0
 11
170.4874219038725
 21
23.87857816964495
 31
0.0
  0
LINE
  5
39E3
330
1F
100
AcDbEntity
  8
太線
100
AcDbLine
 10
191.6501349342434
 20
45.09497549364519
 30
0.0
 11
197.1187704131057
 21
50.57748347705725
 31
0.0
  0
LINE
  5
39E4
330
1F
100
AcDbEntity
  8
想像線
100
AcDbLine
 10
181.0716217098708
 20
41.56966955674445
 30
0.0
 11
184.6116314594237
 21
38.0386171678567
 31
0.0
  0
LINE
  5
39E5
330
1F
100
AcDbEntity
  8
想像線
100
AcDbLine
 10
177.540569320983
 20
38.0296598071915
 30
0.0
 11
181.0805790705359
 21
34.49860741830375
 31
0.0
  0
LINE
  5
39E6
330
1F
100
AcDbEntity
  8
想像線
100
AcDbLine
 10
181.0761003902034
 20
38.03413848752418
 30
0.0
 11
182.8461052649799
 21
36.26861229308028
 31
0.0
  0
LINE
  5
39E7
330
1F
100
AcDbEntity
  8
想像線
100
AcDbLine
 10
179.306095515427
 20
39.79966468196809
 30
0.0
 11
181.0761003902034
 21
38.03413848752418
 31
0.0
  0
DIMENSION
  5
39E9
330
1F
100
AcDbEntity
  8
寸法線
100
AcDbDimension
  2
*D19
 10
259.3501743955131
 20
16.07627475042635
 30
0.0
 11
255.8501743955131
 21
18.69875738699651
 31
0.0
 70
    32
  1
5
 71
     5
 42
5.244965273140223
  3
sunpo
100
AcDbAlignedDimension
 13
231.7049143111971
 23
21.32124002356658
 33
0.0
 14
231.7049143111971
 24
16.07627475042636
 34
0.0
 50
90.0
100
AcDbRotatedDimension
1001
ACAD
1000
DSTYLE
1002
{
1070
    40
1040
1.0
1002
}
  0
TEXT
  5
39EA
330
1F
100
AcDbEntity
  8
文字
100
AcDbText
 10
221.0658348726045
 20
46.5935329254753
 30
0.0
 40
4.799999999999999
  1
S-8-1LB
 51
15.0
  7
OKANO
100
AcDbText
  0
ARC
  5
39EB
330
1F
100
AcDbEntity
  8
太線
100
AcDbCircle
 10
231.8234382973489
 20
50.49019332955456
 30
0.0
 40
34.65
100
AcDbArc
 50
256.1367294756545
 51
281.137973934145
  0
LINE
  5
39EC
330
1F
100
AcDbEntity
  8
細線
100
AcDbLine
 10
226.0094833623359
 20
16.33144001486761
 30
0.0
 11
226.2508497124276
 21
26.47834716014882
 31
0.0
  0
LINE
  5
39ED
330
1F
100
AcDbEntity
  8
細線
100
AcDbLine
 10
227.0060854818457
 20
16.17670309829179
 30
0.0
 11
227.2461504854027
 21
26.26890235886914
 31
0.0
  0
LINE
  5
39EE
330
1F
100
AcDbEntity
  8
太線
100
AcDbLine
 10
221.162487908293
 20
22.82312559909043
 30
0.0
 11
223.5211002696663
 21
16.84953811485792
 31
0.0
  0
LINE
  5
39EF
330
1F
100
AcDbEntity
  8
細線
100
AcDbLine
 10
236.0066554117053
 20
16.09363544109493
 30
0.0
 11
236.248021761797
 21
26.2405425863762
 31
0.0
  0
LINE
  5
39F0
330
1F
100
AcDbEntity
  8
太線
100
AcDbLine
 10
241.1568320070319
 20
22.3475164515451
 30
0.0
 11
238.5168583437204
 21
16.4928312541989
 31
0.0
  0
LINE
  5
39F1
330
1F
100
AcDbEntity
  8
細線
100
AcDbLine
 10
235.0038231213413
 20
15.98645943927368
 30
0.0
 11
235.2438881248982
 21
26.078658699851
 31
0.0
  0
LINE
  5
39F2
330
1F
100
AcDbEntity
  8
太線
100
AcDbLine
 10
311.3030960242364
 20
13.15850811890831
 30
0.0
 11
275.5265780855109
 21
48.75227859886908
 31
0.0
  0
LINE
  5
39F3
330
1F
100
AcDbEntity
  8
太線
100
AcDbLine
 10
272.000108664651
 20
45.20770338824928
 30
0.0
 11
308.4855416455004
 21
8.908639024116553
 31
0.0
  0
LINE
  5
39F5
330
1F
100
AcDbEntity
  8
太線
100
AcDbLine
 10
266.5104847570805
 20
50.66928614267013
 30
0.0
 11
272.000108664651
 21
45.20770338824928
 31
0.0
  0
LINE
  5
39F6
330
1F
100
AcDbEntity
  8
想像線
100
AcDbLine
 10
282.592036818216
 20
41.72291042787318
 30
0.0
 11
279.0655673973561
 21
38.17833521725339
 31
0.0
  0
LINE
  5
39F7
330
1F
100
AcDbEntity
  8
想像線
100
AcDbLine
 10
282.601089713096
 20
38.18738811213333
 30
0.0
 11
280.8378550026661
 21
36.41510050682342
 31
0.0
  0
LINE
  5
39F8
330
1F
100
AcDbEntity
  8
想像線
100
AcDbLine
 10
284.364324423526
 20
39.95967571744321
 30
0.0
 11
282.601089713096
 21
38.18738811213333
 31
0.0
  0
LINE
  5
39F9
330
1F
100
AcDbEntity
  8
想像線
100
AcDbLine
 10
286.1366120288358
 20
38.1964410070133
 30
0.0
 11
282.6101426079759
 21
34.6518657963935
 31
0.0
  0
LINE
  5
39FA
330
1F
100
AcDbEntity
  8
想像線
100
AcDbLine
 10
296.7703376606952
 20
27.61703274443371
 30
0.0
 11
293.2438682398353
 21
24.07245753381392
 31
0.0
  0
LINE
  5
39FB
330
1F
100
AcDbEntity
  8
想像線
100
AcDbLine
 10
300.314912871315
 20
24.09056332357389
 30
0.0
 11
296.7884434504552
 21
20.54598811295409
 31
0.0
  0
LINE
  5
39FC
330
1F
100
AcDbEntity
  8
想像線
100
AcDbLine
 10
305.6317756872447
 20
18.80085919228409
 30
0.0
 11
302.1053062663848
 21
15.25628398166429
 31
0.0
  0
ARC
  5
39FD
330
1F
100
AcDbEntity
  8
太線
100
AcDbCircle
 10
309.1908355296724
 20
9.617554066240529
 30
0.0
 40
1.0
100
AcDbArc
 50
225.1467086017535
 51
315.1467086017534
  0
ARC
  5
39FE
330
1F
100
AcDbEntity
  8
太線
100
AcDbCircle
 10
311.3067171821883
 20
11.7442991926124
 30
0.0
 40
1.0
100
AcDbArc
 50
315.1467086017535
 51
45.14670860175349
  0
LINE
  5
39FF
330
1F
100
AcDbEntity
  8
太線
100
AcDbLine
 10
310.9576913980544
 20
9.9756327452545
 30
0.0
 11
312.0156322243123
 21
11.03900530844043
 31
0.0
  0
LINE
  5
3A00
330
1F
100
AcDbEntity
  8
太線
100
AcDbLine
 10
312.0120110663603
 20
12.45321423473635
 30
0.0
 11
311.3030960242364
 21
13.15850811890831
 31
0.0
  0
LINE
  5
3A01
330
1F
100
AcDbEntity
  8
太線
100
AcDbLine
 10
309.8997505717964
 20
8.912260182068536
 30
0.0
 11
311.3103383401404
 21
10.33009026631646
 31
0.0
  0
XLINE
  5
3A5F
330
1F
100
AcDbEntity
  8
構築線
 62
     3
100
AcDbXline
 10
334.8315134132722
 20
50.49019332955456
 30
0.0
 11
1.0
 21
0.0
 31
0.0
  0
LINE
  5
3A64
330
1F
100
AcDbEntity
  8
太線
100
AcDbLine
 10
266.6904970781897
 20
50.49019332955456
 30
0.0
 11
266.4815982253303
 21
50.69901099277008
 31
0.0
  0
LINE
  5
3A65
330
1F
100
AcDbEntity
  8
太線
100
AcDbLine
 10
275.5265780855109
 20
48.75227859886908
 30
0.0
 11
252.7247719890401
 21
71.47443810855313
 31
0.0
  0
LINE
  5
3A66
330
1F
100
AcDbEntity
  8
太線
100
AcDbLine
 10
197.0317011376878
 20
50.49019332955456
 30
0.0
 11
197.0089741940442
 21
50.46737662513205
 31
0.0
  0
LINE
  5
3A68
330
1F
100
AcDbEntity
  8
太線
100
AcDbLine
 10
188.1101251846905
 20
48.62602788253301
 30
0.0
 11
210.8100823318845
 21
71.52810042822614
 31
0.0
  0
LINE
  5
3A69
330
1F
100
AcDbEntity
  8
太線
100
AcDbLine
 10
249.2882658639309
 20
67.88566107461839
 30
0.0
 11
249.2121156114189
 21
67.96178173093202
 31
0.0
  0
ARC
  5
3A6A
330
1F
100
AcDbEntity
  8
太線
100
AcDbCircle
 10
231.740527210041
 20
50.49019332955456
 30
0.0
 40
29.67620356261698
100
AcDbArc
 50
183.7549660753956
 51
356.6438985841334
  0
LINE
  5
3A6B
330
1F
100
AcDbEntity
  8
太線
100
AcDbLine
 10
214.3124636967122
 20
67.83920680398181
 30
0.0
 11
214.4055360303656
 21
67.93264672974514
 31
0.0
  0
DIMENSION
  5
3A87
330
1F
100
AcDbEntity
  8
寸法線
100
AcDbDimension
  2
*D20
 10
177.4179813827004
 20
80.14019332955454
 30
0.0
 11
173.9179813827004
 21
77.64019332955458
 31
0.0
 70
    32
 71
     5
 42
5.0
  3
sunpo
100
AcDbAlignedDimension
 13
155.8515140254042
 23
75.14019332955456
 33
0.0
 14
154.8515140254043
 24
80.14019332955456
 34
0.0
 50
90.0
100
AcDbRotatedDimension
1001
ACAD
1000
DSTYLE
1002
{
1070
    40
1040
1.0
1002
}
  0
DIMENSION
  5
3AA4
330
1F
100
AcDbEntity
  8
寸法線
 62
     5
100
AcDbDimension
  2
*D21
 10
323.9570643068592
 20
22.49201378861701
 30
0.0
 11
286.7486451073559
 21
66.23301228011593
 31
0.0
 70
    33
  1
115
 71
     5
 42
114.6384125563378
  3
sunpo
100
AcDbAlignedDimension
 13
231.8479894305562
 23
92.95999247616203
 33
0.0
 14
311.3103383401404
 24
10.33009026631646
 34
0.0
1001
ACAD
1000
DSTYLE
1002
{
1070
    40
1040
1.0
1002
}
  0
DIMENSION
  5
3AD7
330
1F
100
AcDbEntity
  8
寸法線
 62
     5
100
AcDbDimension
  2
*D22
 10
27.55151402540437
 20
122.056633333468
 30
0.0
 11
12.55151402540435
 21
125.556633333468
 31
0.0
 70
    32
 71
     5
 42
30.00000000000004
  3
sunpo
100
AcDbAlignedDimension
 13
-2.448485974595664
 23
180.4711488256961
 33
0.0
 14
27.55151402540437
 24
180.4711488256961
 34
0.0
100
AcDbRotatedDimension
1001
ACAD
1000
DSTYLE
1002
{
1070
    40
1040
1.0
1002
}
  0
DIMENSION
  5
3AED
330
1F
100
AcDbEntity
  8
寸法線
 62
     5
100
AcDbDimension
  2
*D23
 10
116.8515140254043
 20
137.25253327012
 30
0.0
 11
109.3515140254043
 21
140.75253327012
 31
0.0
 70
    32
 71
     5
 42
15.0
  3
sunpo
100
AcDbAlignedDimension
 13
101.8515140254043
 23
165.4711488256961
 33
0.0
 14
116.8515140254043
 24
165.4711488256961
 34
0.0
100
AcDbRotatedDimension
1001
ACAD
1000
DSTYLE
1002
{
1070
    40
1040
1.0
1002
}
  0
DIMENSION
  5
3B03
330
1F
100
AcDbEntity
  8
寸法線
 62
     5
100
AcDbDimension
  2
*D24
 10
136.8515140254043
 20
137.25253327012
 30
0.0
 11
126.8515140254043
 21
140.7530253961042
 31
0.0
 70
    32
 71
     5
 42
20.0
  3
sunpo
100
AcDbAlignedDimension
 13
116.8515140254043
 23
165.4711488256961
 33
0.0
 14
136.8515140254043
 24
165.4711488256961
 34
0.0
100
AcDbRotatedDimension
1001
ACAD
1000
DSTYLE
1002
{
1070
    40
1040
1.0
1070
   279
1070
     1
1002
}
  0
DIMENSION
  5
3B10
330
1F
100
AcDbEntity
  8
寸法線
 62
     5
100
AcDbDimension
  2
*D25
 10
174.3132045392745
 20
195.4711488256961
 30
0.0
 11
170.8132045392744
 21
180.4711488256961
 31
0.0
 70
    32
 71
     5
 42
30.0
  3
sunpo
100
AcDbAlignedDimension
 13
136.8515140254043
 23
165.4711488256961
 33
0.0
 14
136.8515140254043
 24
195.4711488256961
 34
0.0
 50
90.0
100
AcDbRotatedDimension
1001
ACAD
1000
DSTYLE
1002
{
1070
    40
1040
1.0
1002
}
  0
DIMENSION
  5
3B1D
330
1F
100
AcDbEntity
  8
寸法線
 62
     5
100
AcDbDimension
  2
*D26
 10
134.826915423584
 20
194.0045198673337
 30
0.0
 11
168.3617750095676
 21
218.2973333362357
 31
0.0
 70
   163
 71
     5
 42
5.0
  3
sunpo
100
AcDbDiametricDimension
 15
138.8761126272246
 25
196.9377777840586
 35
0.0
 40
0.0
1001
ACAD
1000
DSTYLE
1002
{
1070
    40
1040
1.0
1070
   288
1070
     1
1002
}
  0
XLINE
  5
3B36
330
1F
100
AcDbEntity
  8
構築線
 62
     3
100
AcDbXline
 10
323.7631468628155
 20
101.8039406708655
 30
0.0
 11
0.0
 21
1.0
 31
0.0
  0
XLINE
  5
3B37
330
1F
100
AcDbEntity
  8
構築線
 62
     3
100
AcDbXline
 10
321.8917435541397
 20
111.773147739344
 30
0.0
 11
1.0
 21
0.0
 31
0.0
  0
XLINE
  5
3B38
330
1F
100
AcDbEntity
  8
構築線
 62
     3
100
AcDbXline
 10
452.0437246516612
 20
110.7284914190417
 30
0.0
 11
0.0
 21
1.0
 31
0.0
  0
LINE
  5
3B3B
330
1F
100
AcDbEntity
  8
想像線
100
AcDbLine
 10
258.8625695865789
 20
88.69258496832221
 30
0.0
 11
262.4025793361318
 21
85.16153257943443
 31
0.0
  0
DIMENSION
  5
3B41
330
1F
100
AcDbEntity
  8
寸法線
 62
     5
100
AcDbDimension
  2
*D27
 10
415.8722217391185
 20
83.77496819840649
 30
0.0
 11
378.6638025396153
 21
127.5159666899054
 31
0.0
 70
    33
  1
115
 71
     5
 42
114.6384125563379
  3
sunpo
100
AcDbAlignedDimension
 13
323.7631468628155
 23
154.2429468859515
 33
0.0
 14
403.2254957723997
 24
71.61304467610595
 34
0.0
1001
ACAD
1000
DSTYLE
1002
{
1070
    40
1040
1.0
1002
}
  0
LINE
  5
3B43
330
1F
100
AcDbEntity
  8
太線
100
AcDbLine
 10
363.9152660969104
 20
106.4906577980387
 30
0.0
 11
400.4006990777598
 21
70.19159343390604
 31
0.0
  0
LINE
  5
3B44
330
1F
100
AcDbEntity
  8
太線
100
AcDbLine
 10
403.2182534564957
 20
74.4414625286978
 30
0.0
 11
367.4417355177702
 21
110.0352330086585
 31
0.0
  0
CIRCLE
  5
3B45
330
1F
100
AcDbEntity
  8
太線
100
AcDbCircle
 10
323.7385957296082
 20
111.773147739344
 30
0.0
 40
24.65
  0
ARC
  5
3B46
330
1F
100
AcDbEntity
  8
太線
100
AcDbCircle
 10
323.7385957296083
 20
111.773147739344
 30
0.0
 40
34.65
100
AcDbArc
 50
256.1367294756545
 51
281.137973934145
  0
TEXT
  5
3B47
330
1F
100
AcDbEntity
  8
文字
100
AcDbText
 10
312.9809923048639
 20
109.7611901031568
 30
0.0
 40
4.799999999999999
  1
S-8-1SB
 51
15.0
  7
OKANO
100
AcDbText
  0
LINE
  5
3B49
330
1F
100
AcDbEntity
  8
太線
100
AcDbLine
 10
313.0776453405524
 20
84.10608000887991
 30
0.0
 11
315.4362577019256
 21
78.1324925246474
 31
0.0
  0
LINE
  5
3B4A
330
1F
100
AcDbEntity
  8
細線
100
AcDbLine
 10
318.9212429141051
 20
77.45965750808128
 30
0.0
 11
319.1613079176621
 21
87.55185676865862
 31
0.0
  0
LINE
  5
3B4B
330
1F
100
AcDbEntity
  8
細線
100
AcDbLine
 10
317.9246407945952
 20
77.61439442465709
 30
0.0
 11
318.1660071446869
 21
87.76130156993831
 31
0.0
  0
LINE
  5
3B4C
330
1F
100
AcDbEntity
  8
細線
100
AcDbLine
 10
326.9189805536006
 20
77.26941384906317
 30
0.0
 11
327.1590455571575
 21
87.36161310964048
 31
0.0
  0
LINE
  5
3B4D
330
1F
100
AcDbEntity
  8
太線
100
AcDbLine
 10
333.0719894392911
 20
83.63047086133459
 30
0.0
 11
330.4320157759797
 21
77.77578566398839
 31
0.0
  0
LINE
  5
3B4E
330
1F
100
AcDbEntity
  8
細線
100
AcDbLine
 10
327.9218128439646
 20
77.37658985088441
 30
0.0
 11
328.1631791940563
 21
87.52349699616569
 31
0.0
  0
LINE
  5
3B4F
330
1F
100
AcDbEntity
  8
想像線
100
AcDbLine
 10
388.6854950929545
 20
88.8999871542232
 30
0.0
 11
385.1590256720946
 21
85.35541194360339
 31
0.0
  0
LINE
  5
3B50
330
1F
100
AcDbEntity
  8
想像線
100
AcDbLine
 10
392.2300703035744
 20
85.37351773336338
 30
0.0
 11
388.7036008827145
 21
81.82894252274357
 31
0.0
  0
LINE
  5
3B51
330
1F
100
AcDbEntity
  8
想像線
100
AcDbLine
 10
397.546933119504
 20
80.08381360207357
 30
0.0
 11
394.0204636986441
 21
76.53923839145377
 31
0.0
  0
LINE
  5
3B52
330
1F
100
AcDbEntity
  8
太線
100
AcDbLine
 10
401.8149080040557
 20
70.19521459185802
 30
0.0
 11
403.2254957723997
 21
71.61304467610595
 31
0.0
  0
ARC
  5
3B53
330
1F
100
AcDbEntity
  8
太線
100
AcDbCircle
 10
401.1059929619317
 20
70.90050847603001
 30
0.0
 40
1.0
100
AcDbArc
 50
225.1467086017535
 51
315.1467086017534
  0
ARC
  5
3B54
330
1F
100
AcDbEntity
  8
太線
100
AcDbCircle
 10
403.2218746144477
 20
73.02725360240188
 30
0.0
 40
1.0
100
AcDbArc
 50
315.1467086017535
 51
45.14670860175349
  0
LINE
  5
3B55
330
1F
100
AcDbEntity
  8
太線
100
AcDbLine
 10
402.8728488303137
 20
71.25858715504398
 30
0.0
 11
403.9307896565716
 21
72.32195971822992
 31
0.0
  0
LINE
  5
3B56
330
1F
100
AcDbEntity
  8
太線
100
AcDbLine
 10
403.9271684986196
 20
73.73616864452583
 30
0.0
 11
403.2182534564957
 21
74.4414625286978
 31
0.0
  0
LINE
  5
3B57
330
1F
100
AcDbEntity
  8
太線
100
AcDbLine
 10
367.4417355177702
 20
110.0352330086585
 30
0.0
 11
344.6399294212994
 21
132.7573925183426
 31
0.0
  0
LINE
  5
3B58
330
1F
100
AcDbEntity
  8
太線
100
AcDbLine
 10
358.4256421893399
 20
111.9522405524596
 30
0.0
 11
363.9152660969104
 21
106.4906577980387
 31
0.0
  0
LINE
  5
3B5A
330
1F
100
AcDbEntity
  8
太線
100
AcDbLine
 10
306.2276211289715
 20
129.1221612137712
 30
0.0
 11
306.3206934626249
 21
129.2156011395346
 31
0.0
  0
LINE
  5
3B5B
330
1F
100
AcDbEntity
  8
太線
100
AcDbLine
 10
358.6056545104491
 20
111.773147739344
 30
0.0
 11
358.4196447496841
 21
111.9590852064317
 31
0.0
  0
LINE
  5
3B5C
330
1F
100
AcDbEntity
  8
太線
100
AcDbLine
 10
341.2034232961902
 20
129.1686154844079
 30
0.0
 11
341.1272730436782
 21
129.2447361407214
 31
0.0
  0
LINE
  5
3B5D
330
1F
100
AcDbEntity
  8
想像線
100
AcDbLine
 10
378.0517694610951
 20
99.47939541680279
 30
0.0
 11
374.5253000402353
 21
95.93482020618299
 31
0.0
  0
LINE
  5
3B5E
330
1F
100
AcDbEntity
  8
想像線
100
AcDbLine
 10
376.2794818557853
 20
101.2426301272327
 30
0.0
 11
374.5162471453554
 21
99.47034252192281
 31
0.0
  0
LINE
  5
3B5F
330
1F
100
AcDbEntity
  8
想像線
100
AcDbLine
 10
374.5162471453554
 20
99.47034252192281
 30
0.0
 11
372.7530124349254
 21
97.69805491661291
 31
0.0
  0
LINE
  5
3B60
330
1F
100
AcDbEntity
  8
想像線
100
AcDbLine
 10
374.5071942504754
 20
103.0058648376626
 30
0.0
 11
370.9807248296154
 21
99.46128962704287
 31
0.0
  0
ARC
  5
3B90
330
1F
100
AcDbEntity
  8
太線
100
AcDbCircle
 10
323.7385957296082
 20
111.773147739344
 30
0.0
 40
29.61763459556409
100
AcDbArc
 50
140.4033999592755
 51
356.5976041396293
  0
ARC
  5
3B91
330
1F
100
AcDbEntity
  8
太線
100
AcDbCircle
 10
356.2987367574949
 20
109.8373525916406
 30
0.0
 40
3.0
100
AcDbArc
 50
45.01113631781579
 51
176.5976041396293
  0
ARC
  5
3B92
330
1F
100
AcDbEntity
  8
太線
100
AcDbCircle
 10
199.1344712640378
 20
48.35024124791862
 30
0.0
 40
3.0
100
AcDbArc
 50
3.754966075395653
 51
135.1129225997158
  0
ARC
  5
3B94
330
1F
100
AcDbEntity
  8
太線
100
AcDbCircle
 10
264.360690233141
 20
48.57727837797909
 30
0.0
 40
3.0
100
AcDbArc
 50
45.01113631781541
 51
176.6438985841336
  0
LINE
  5
3B9F
330
1F
100
AcDbEntity
  8
太線
100
AcDbLine
 10
304.8609591481298
 20
134.5950476631888
 30
0.0
 11
321.6471572813943
 21
151.3812457964533
 31
0.0
  0
LINE
  5
3BA0
330
1F
100
AcDbEntity
  8
太線
100
AcDbLine
 10
325.8844537936297
 20
151.3865765417177
 30
0.0
 11
343.7890610796898
 21
133.5718430737335
 31
0.0
  0
LINE
  5
3BA1
330
1F
100
AcDbEntity
  8
太線
100
AcDbLine
 10
304.8609591481298
 20
134.5950476631887
 30
0.0
 11
300.9166958057635
 21
130.6507843208223
 31
0.0
  0
ARC
  5
3BA2
330
1F
100
AcDbEntity
  8
太線
100
AcDbCircle
 10
323.768477624954
 20
149.2599254528936
 30
0.0
 40
3.0
100
AcDbArc
 50
45.14416222385983
 51
135.0
  0
XLINE
  5
3BAA
330
1F
100
AcDbEntity
  8
構築線
100
AcDbXline
 10
158.1197811821002
 20
18.55960618465045
 30
0.0
 11
0.7062104777775581
 21
0.7080019499105869
 31
0.0
  0
XLINE
  5
3BAB
330
1F
100
AcDbEntity
  8
構築線
100
AcDbXline
 10
311.3030960242364
 20
13.15850811890831
 30
0.0
 11
-0.7089150421239588
 21
0.7052938841719713
 31
0.0
  0
LINE
  5
3BAC
330
1F
100
AcDbEntity
  8
太線
100
AcDbLine
 10
252.724771989049
 20
71.47443810854425
 30
0.0
 11
233.9572686677769
 21
90.1129714872856
 31
0.0
  0
LINE
  5
3BAD
330
1F
100
AcDbEntity
  8
太線
100
AcDbLine
 10
229.7340386554528
 20
90.11768586390587
 30
0.0
 11
212.5406940846682
 21
73.11857077575512
 31
0.0
  0
ARC
  5
3BAE
330
1F
100
AcDbEntity
  8
太線
100
AcDbCircle
 10
231.843274857517
 20
87.98434982757646
 30
0.0
 40
3.0
100
AcDbArc
 50
45.19754576432925
 51
134.6745361396209
  0
LINE
  5
3BAF
330
1F
100
AcDbEntity
  8
太線
100
AcDbLine
 10
212.5406940846682
 20
73.11857077575512
 30
0.0
 11
210.8100823318845
 21
71.52810042822614
 31
0.0
  0
XLINE
  5
3BB0
330
1F
100
AcDbEntity
  8
構築線
100
AcDbXline
 10
101.2372943662071
 20
50.51195941423554
 30
0.0
 11
0.0
 21
1.0
 31
0.0
  0
XLINE
  5
3BB1
330
1F
100
AcDbEntity
  8
構築線
100
AcDbXline
 10
43.05978524070769
 20
50.75688012960154
 30
0.0
 11
0.0
 21
1.0
 31
0.0
  0
LINE
  5
3BB2
330
1F
100
AcDbEntity
  8
太線
100
AcDbLine
 10
43.0162493016004
 20
72.09727581661467
 30
0.0
 11
42.70711025217084
 21
50.49019332955456
 31
0.0
  0
LINE
  5
3BB3
330
1F
100
AcDbEntity
  8
太線
100
AcDbLine
 10
101.2372943662071
 20
72.14019332955456
 30
0.0
 11
101.2372943662071
 21
50.49019332955456
 31
0.0
  0
ARC
  5
3BB4
330
1F
100
AcDbEntity
  8
太線
100
AcDbCircle
 10
104.2372943662071
 20
72.14019332955456
 30
0.0
 40
3.0
100
AcDbArc
 50
90.0
 51
180.0
  0
ARC
  5
3BB5
330
1F
100
AcDbEntity
  8
太線
100
AcDbCircle
 10
40.01655630279485
 20
72.14019332955453
 30
0.0
 40
3.0
100
AcDbArc
 50
359.1803079195418
 51
90.0
  0
DIMENSION
  5
3BBD
330
1F
100
AcDbEntity
  8
寸法線
100
AcDbDimension
  2
*D28
 10
96.85151402540434
 20
137.3970403356679
 30
0.0
 11
72.20151402540432
 21
140.8970403356679
 31
0.0
 70
    32
  1
49.3～50
 71
     5
 42
49.3
  3
sunpo
100
AcDbAlignedDimension
 13
47.55151402540432
 23
150.8211488256961
 33
0.0
 14
96.85151402540434
 24
150.8211488256961
 34
0.0
100
AcDbRotatedDimension
1001
ACAD
1000
DSTYLE
1002
{
1070
    40
1040
1.0
1002
}
  0
VIEWPORT
  5
2E
330
1B
100
AcDbEntity
 67
     1
  8
0
100
AcDbViewport
 10
218.8181671634462
 20
101.1151207076119
 30
0.0
 40
532.6618446005563
 41
255.1981184742214
 68
     1
 69
     1
 12
218.8181671634462
 22
101.1151207076119
 13
0.0
 23
0.0
 14
10.0
 24
10.0
 15
10.0
 25
10.0
 16
0.0
 26
0.0
 36
1.0
 17
0.0
 27
0.0
 37
0.0
 42
50.0
 43
0.0
 44
0.0
 45
255.1981184742214
 50
0.0
 51
0.0
 72
   100
 90
    32800
  1

281
     0
 71
     1
 74
     0
110
0.0
120
0.0
130
0.0
111
1.0
121
0.0
131
0.0
112
0.0
122
1.0
132
0.0
 79
     0
146
0.0
  0
VIEWPORT
  5
30
330
1B
100
AcDbEntity
 67
     1
  8
70-0-CON
100
AcDbViewport
 10
141.8594093064315
 20
100.3480256368386
 30
0.0
 40
261.6199023344245
 41
192.6196987113174
 68
     2
 69
     2
 12
182.461204478478
 22
115.9983863734945
 13
0.0
 23
0.0
 14
5.0
 24
5.0
 15
10.0
 25
10.0
 16
0.0
 26
0.0
 36
1.0
 17
0.0
 27
0.0
 37
0.0
 42
50.0
 43
0.0
 44
0.0
 45
357.3628691956848
 50
0.0
 51
0.0
 72
   100
 90
    32864
  1

281
     0
 71
     1
 74
     0
110
0.0
120
0.0
130
0.0
111
1.0
121
0.0
131
0.0
112
0.0
122
1.0
132
0.0
 79
     0
146
0.0
  0
LWPOLYLINE
  5
45
330
1B
100
AcDbEntity
 67
     1
  8
50-0-CON
100
AcDbPolyline
 90
        4
 70
     1
 43
0.0
 10
11.04945813921926
 20
4.038176281179858
 10
272.2125713060605
 20
4.033520706629644
 10
273.4987754093466
 20
195.9297862125246
 10
11.04945813921926
 20
196.6578749924973
  0
LINE
  5
4A
330
1B
100
AcDbEntity
 67
     1
  8
50-0-CON
100
AcDbLine
 10
10.38768783662635
 20
100.3480256368386
 30
0.0
 11
-4.391850629656119
 21
100.3480256368386
 31
0.0
  0
LINE
  5
4B
330
1B
100
AcDbEntity
 67
     1
  8
50-0-CON
100
AcDbLine
 10
141.8594093064315
 20
197.098652626247
 30
0.0
 11
141.8594093064315
 21
202.387980773708
 31
0.0
  0
LINE
  5
4C
330
1B
100
AcDbEntity
 67
     1
  8
50-0-CON
100
AcDbLine
 10
272.4487699456857
 20
100.7888032705883
 30
0.0
 11
278.8458837249377
 21
100.7888032705883
 31
0.0
  0
LINE
  5
4D
330
1B
100
AcDbEntity
 67
     1
  8
50-0-CON
100
AcDbLine
 10
140.9770484758805
 20
4.038176281179858
 30
0.0
 11
140.9770484758805
 21
-3.455038652015446
 31
0.0
  0
ENDSEC
  0
SECTION
  2
OBJECTS
  0
DICTIONARY
  5
C
330
0
100
AcDbDictionary
281
     1
  3
ACAD_GROUP
350
D
  3
ACAD_LAYOUT
350
1A
  3
ACAD_MLINESTYLE
350
17
  3
ACAD_PLOTSETTINGS
350
19
  3
ACAD_PLOTSTYLENAME
350
E
  3
AcadDim
350
13D0
  3
AcDbVariableDictionary
350
6AD
  3
DWGPROPS
350
30F
  0
DICTIONARY
  5
D
102
{ACAD_REACTORS
330
C
102
}
330
C
100
AcDbDictionary
281
     1
  0
DICTIONARY
  5
1A
102
{ACAD_REACTORS
330
C
102
}
330
C
100
AcDbDictionary
281
     1
  3
A4
350
1E
  3
Model
350
22
  0
DICTIONARY
  5
17
102
{ACAD_REACTORS
330
C
102
}
330
C
100
AcDbDictionary
281
     1
  3
Standard
350
18
  0
DICTIONARY
  5
19
102
{ACAD_REACTORS
330
C
102
}
330
C
100
AcDbDictionary
281
     1
  0
ACDBDICTIONARYWDFLT
  5
E
102
{ACAD_REACTORS
330
C
102
}
330
C
100
AcDbDictionary
281
     1
  3
Normal
350
F
100
AcDbDictionaryWithDefault
340
F
  0
XRECORD
  5
13D0
102
{ACAD_REACTORS
330
C
102
}
330
C
100
AcDbXrecord
280
     1
 90
   990106
  3

 60
     0
 61
     0
 62
     1
 63
     3
 64
     0
 65
     0
 66
     0
 67
     3
 68
     1
 69
     0
 70
     0
 71
     0
 72
     0
 40
9.044121132502835
170
     0
  0
DICTIONARY
  5
6AD
102
{ACAD_REACTORS
330
C
102
}
330
C
100
AcDbDictionary
281
     1
  3
SORTENTS
350
6AE
  0
XRECORD
  5
30F
102
{ACAD_REACTORS
330
C
102
}
330
C
100
AcDbXrecord
280
     1
  1
DWGPROPS COOKIE
  2

  3

  4

  6

  7

  8

  9

300
=
301
=
302
=
303
=
304
=
305
=
306
=
307
=
308
=
309
=
 40
0.3303803125
 41
2452362.482225463
 42
2452370.969861285
  1

 90
        0
  0
LAYOUT
  5
1E
102
{ACAD_REACTORS
330
1A
102
}
330
1A
100
AcDbPlotSettings
  1

  2
EPSON PM-920C
  4
A4
  6

 40
3.757083177566528
 41
14.7637300491333
 42
3.757080078125
 43
3.757080078125
 44
209.9733276367187
 45
296.9683227539062
 46
0.0
 47
0.0
 48
0.0
 49
0.0
140
0.0
141
0.0
142
1.0
143
1.0
 70
   688
 72
     1
 73
     1
 74
     5
  7
joint.ctb
 75
    16
147
1.0
148
0.0
149
0.0
100
AcDbLayout
  1
A4
 70
     1
 71
     1
 10
-3.757080078125
 20
-3.757083177566528
 11
293.2112426757812
 21
206.2162444591522
 12
0.0
 22
0.0
 32
0.0
 14
-4.391850629656119
 24
-3.455038652015446
 34
0.0
 15
278.8458837249377
 25
202.387980773708
 35
0.0
146
0.0
 13
0.0
 23
0.0
 33
0.0
 16
1.0
 26
0.0
 36
0.0
 17
0.0
 27
1.0
 37
0.0
 76
     0
330
1B
331
2E
  0
LAYOUT
  5
22
102
{ACAD_REACTORS
330
1A
102
}
330
1A
100
AcDbPlotSettings
  1

  2
EPSON PM-920C
  4
A4
  6

 40
3.757083177566528
 41
14.7637300491333
 42
3.757080078125
 43
3.757080078125
 44
209.9733276367187
 45
296.9683227539062
 46
0.0
 47
0.0
 48
0.0
 49
0.0
140
0.0
141
0.0
142
1.0
143
1.0
 70
 11952
 72
     1
 73
     1
 74
     0
  7

 75
     0
147
1.0
148
-45.64199848979289
149
-84.48806419330498
100
AcDbLayout
  1
Model
 70
     1
 71
     0
 10
0.0
 20
0.0
 11
12.0
 21
9.0
 12
0.0
 22
0.0
 32
0.0
 14
0.0
 24
0.0
 34
0.0
 15
0.0
 25
0.0
 35
0.0
146
0.0
 13
0.0
 23
0.0
 33
0.0
 16
1.0
 26
0.0
 36
0.0
 17
0.0
 27
1.0
 37
0.0
 76
     0
330
1F
  0
MLINESTYLE
  5
18
102
{ACAD_REACTORS
330
17
102
}
330
17
100
AcDbMlineStyle
  2
STANDARD
 70
     0
  3

 62
   256
 51
90.0
 52
90.0
 71
     2
 49
0.5
 62
   256
  6
BYLAYER
 49
-0.5
 62
   256
  6
BYLAYER
  0
ACDBPLACEHOLDER
  5
F
102
{ACAD_REACTORS
330
E
102
}
330
E
  0
DICTIONARYVAR
  5
6AE
102
{ACAD_REACTORS
330
6AD
102
}
330
6AD
100
DictionaryVariables
280
     0
  1
96
  0
ENDSEC
  0
EOF
