  0
SECTION
  2
HEADER
  9
$ACADVER
  1
AC1015
  9
$ACADMAINTVER
 70
     6
  9
$DWGCODEPAGE
  3
ANSI_932
  9
$INSBASE
 10
0.0
 20
0.0
 30
0.0
  9
$EXTMIN
 10
35.33405157757304
 20
-38.49340787712424
 30
0.0
  9
$EXTMAX
 10
348.196544768897
 20
201.6178103029991
 30
0.0
  9
$LIMMIN
 10
0.0
 20
0.0
  9
$LIMMAX
 10
420.0
 20
297.0
  9
$ORTHOMODE
 70
     1
  9
$REGENMODE
 70
     1
  9
$FILLMODE
 70
     1
  9
$QTEXTMODE
 70
     0
  9
$MIRRTEXT
 70
     1
  9
$LTSCALE
 40
1.0
  9
$ATTMODE
 70
     1
  9
$TEXTSIZE
 40
5.0
  9
$TRACEWID
 40
1.0
  9
$TEXTSTYLE
  7
OKANO
  9
$CLAYER
  8
太線
  9
$CELTYPE
  6
ByLayer
  9
$CECOLOR
 62
   256
  9
$CELTSCALE
 40
1.0
  9
$DISPSILH
 70
     0
  9
$DIMSCALE
 40
0.0
  9
$DIMASZ
 40
3.0
  9
$DIMEXO
 40
2.0
  9
$DIMDLI
 40
8.0
  9
$DIMRND
 40
0.0
  9
$DIMDLE
 40
0.0
  9
$DIMEXE
 40
3.0
  9
$DIMTP
 40
0.0
  9
$DIMTM
 40
0.0
  9
$DIMTXT
 40
5.0
  9
$DIMCEN
 40
2.5
  9
$DIMTSZ
 40
0.0
  9
$DIMTOL
 70
     0
  9
$DIMLIM
 70
     0
  9
$DIMTIH
 70
     0
  9
$DIMTOH
 70
     0
  9
$DIMSE1
 70
     0
  9
$DIMSE2
 70
     0
  9
$DIMTAD
 70
     1
  9
$DIMZIN
 70
     8
  9
$DIMBLK
  1
Closed
  9
$DIMASO
 70
     1
  9
$DIMSHO
 70
     1
  9
$DIMPOST
  1

  9
$DIMAPOST
  1

  9
$DIMALT
 70
     0
  9
$DIMALTD
 70
     3
  9
$DIMALTF
 40
0.03937007874016
  9
$DIMLFAC
 40
1.0
  9
$DIMTOFL
 70
     1
  9
$DIMTVP
 40
0.0
  9
$DIMTIX
 70
     0
  9
$DIMSOXD
 70
     0
  9
$DIMSAH
 70
     0
  9
$DIMBLK1
  1

  9
$DIMBLK2
  1

  9
$DIMSTYLE
  2
sunpo
  9
$DIMCLRD
 70
     0
  9
$DIMCLRE
 70
     0
  9
$DIMCLRT
 70
     0
  9
$DIMTFAC
 40
1.0
  9
$DIMGAP
 40
1.0
  9
$DIMJUST
 70
     0
  9
$DIMSD1
 70
     0
  9
$DIMSD2
 70
     0
  9
$DIMTOLJ
 70
     0
  9
$DIMTZIN
 70
     8
  9
$DIMALTZ
 70
     0
  9
$DIMALTTZ
 70
     0
  9
$DIMUPT
 70
     0
  9
$DIMDEC
 70
     2
  9
$DIMTDEC
 70
     2
  9
$DIMALTU
 70
     2
  9
$DIMALTTD
 70
     3
  9
$DIMTXSTY
  7
OKANO
  9
$DIMAUNIT
 70
     0
  9
$DIMADEC
 70
     0
  9
$DIMALTRND
 40
0.0
  9
$DIMAZIN
 70
     0
  9
$DIMDSEP
 70
    46
  9
$DIMATFIT
 70
     3
  9
$DIMFRAC
 70
     0
  9
$DIMLDRBLK
  1
Closed
  9
$DIMLUNIT
 70
     2
  9
$DIMLWD
 70
    -2
  9
$DIMLWE
 70
    -2
  9
$DIMTMOVE
 70
     0
  9
$LUNITS
 70
     2
  9
$LUPREC
 70
     2
  9
$SKETCHINC
 40
1.0
  9
$FILLETRAD
 40
1.0
  9
$AUNITS
 70
     0
  9
$AUPREC
 70
     0
  9
$MENU
  1
.
  9
$ELEVATION
 40
0.0
  9
$PELEVATION
 40
0.0
  9
$THICKNESS
 40
0.0
  9
$LIMCHECK
 70
     0
  9
$CHAMFERA
 40
10.0
  9
$CHAMFERB
 40
10.0
  9
$CHAMFERC
 40
20.0
  9
$CHAMFERD
 40
0.0
  9
$SKPOLY
 70
     0
  9
$TDCREATE
 40
2452362.482225463
  9
$TDUCREATE
 40
2452362.107225463
  9
$TDUPDATE
 40
2455957.573623102
  9
$TDUUPDATE
 40
2455957.198623101
  9
$TDINDWG
 40
2.2337595949
  9
$TDUSRTIMER
 40
2.2337595949
  9
$USRTIMER
 70
     1
  9
$ANGBASE
 50
0.0
  9
$ANGDIR
 70
     0
  9
$PDMODE
 70
     0
  9
$PDSIZE
 40
0.0
  9
$PLINEWID
 40
0.0
  9
$SPLFRAME
 70
     0
  9
$SPLINETYPE
 70
     6
  9
$SPLINESEGS
 70
     8
  9
$HANDSEED
  5
3255
  9
$SURFTAB1
 70
     6
  9
$SURFTAB2
 70
     6
  9
$SURFTYPE
 70
     6
  9
$SURFU
 70
     6
  9
$SURFV
 70
     6
  9
$UCSBASE
  2

  9
$UCSNAME
  2

  9
$UCSORG
 10
0.0
 20
0.0
 30
0.0
  9
$UCSXDIR
 10
1.0
 20
0.0
 30
0.0
  9
$UCSYDIR
 10
0.0
 20
1.0
 30
0.0
  9
$UCSORTHOREF
  2

  9
$UCSORTHOVIEW
 70
     0
  9
$UCSORGTOP
 10
0.0
 20
0.0
 30
0.0
  9
$UCSORGBOTTOM
 10
0.0
 20
0.0
 30
0.0
  9
$UCSORGLEFT
 10
0.0
 20
0.0
 30
0.0
  9
$UCSORGRIGHT
 10
0.0
 20
0.0
 30
0.0
  9
$UCSORGFRONT
 10
0.0
 20
0.0
 30
0.0
  9
$UCSORGBACK
 10
0.0
 20
0.0
 30
0.0
  9
$PUCSBASE
  2

  9
$PUCSNAME
  2

  9
$PUCSORG
 10
0.0
 20
0.0
 30
0.0
  9
$PUCSXDIR
 10
1.0
 20
0.0
 30
0.0
  9
$PUCSYDIR
 10
0.0
 20
1.0
 30
0.0
  9
$PUCSORTHOREF
  2

  9
$PUCSORTHOVIEW
 70
     0
  9
$PUCSORGTOP
 10
0.0
 20
0.0
 30
0.0
  9
$PUCSORGBOTTOM
 10
0.0
 20
0.0
 30
0.0
  9
$PUCSORGLEFT
 10
0.0
 20
0.0
 30
0.0
  9
$PUCSORGRIGHT
 10
0.0
 20
0.0
 30
0.0
  9
$PUCSORGFRONT
 10
0.0
 20
0.0
 30
0.0
  9
$PUCSORGBACK
 10
0.0
 20
0.0
 30
0.0
  9
$USERI1
 70
     0
  9
$USERI2
 70
     0
  9
$USERI3
 70
     0
  9
$USERI4
 70
     0
  9
$USERI5
 70
     0
  9
$USERR1
 40
0.0
  9
$USERR2
 40
0.0
  9
$USERR3
 40
0.0
  9
$USERR4
 40
0.0
  9
$USERR5
 40
0.0
  9
$WORLDVIEW
 70
     1
  9
$SHADEDGE
 70
     3
  9
$SHADEDIF
 70
    70
  9
$TILEMODE
 70
     0
  9
$MAXACTVP
 70
    64
  9
$PINSBASE
 10
0.0
 20
0.0
 30
0.0
  9
$PLIMCHECK
 70
     0
  9
$PEXTMIN
 10
-4.391850629656119
 20
-3.455038652015446
 30
0.0
  9
$PEXTMAX
 10
278.8458837249377
 20
202.387980773708
 30
0.0
  9
$PLIMMIN
 10
-3.17498779296875
 20
-3.174999952316284
  9
$PLIMMAX
 10
293.8250122070312
 20
206.8250000476837
  9
$UNITMODE
 70
     0
  9
$VISRETAIN
 70
     1
  9
$PLINEGEN
 70
     0
  9
$PSLTSCALE
 70
     1
  9
$TREEDEPTH
 70
  3020
  9
$CMLSTYLE
  2
Standard
  9
$CMLJUST
 70
     0
  9
$CMLSCALE
 40
20.0
  9
$PROXYGRAPHICS
 70
     1
  9
$MEASUREMENT
 70
     1
  9
$CELWEIGHT
370
    -1
  9
$ENDCAPS
280
     0
  9
$JOINSTYLE
280
     0
  9
$LWDISPLAY
290
     0
  9
$INSUNITS
 70
     4
  9
$HYPERLINKBASE
  1

  9
$STYLESHEET
  1

  9
$XEDIT
290
     1
  9
$CEPSNTYPE
380
     0
  9
$PSTYLEMODE
290
     1
  9
$FINGERPRINTGUID
  2
{FF7F33C3-4233-11D6-AEE0-0000F45FD7F4}
  9
$VERSIONGUID
  2
{85169990-EDB3-4FBD-87D1-32CC91E72E52}
  9
$EXTNAMES
290
     1
  9
$PSVPSCALE
 40
0.0
  9
$OLESTARTUP
290
     0
  0
ENDSEC
  0
SECTION
  2
CLASSES
  0
CLASS
  1
ACDBDICTIONARYWDFLT
  2
AcDbDictionaryWithDefault
  3
AutoCAD 2000
 90
        0
280
     0
281
     0
  0
CLASS
  1
ACDBPLACEHOLDER
  2
AcDbPlaceHolder
  3
AutoCAD 2000
 90
        0
280
     0
281
     0
  0
CLASS
  1
LAYOUT
  2
AcDbLayout
  3
AutoCAD 2000
 90
        0
280
     0
281
     0
  0
CLASS
  1
DICTIONARYVAR
  2
AcDbDictionaryVar
  3
AutoCAD 2000
 90
        0
280
     0
281
     0
  0
ENDSEC
  0
SECTION
  2
TABLES
  0
TABLE
  2
VPORT
  5
8
330
0
100
AcDbSymbolTable
 70
     4
  0
VPORT
  5
3254
330
8
100
AcDbSymbolTableRecord
100
AcDbViewportTableRecord
  2
*Active
 70
     0
 10
0.0
 20
0.0
 11
1.0
 21
1.0
 12
194.9157841790742
 22
125.7125390406095
 13
0.0
 23
0.0
 14
5.0
 24
5.0
 15
10.0
 25
10.0
 16
0.0
 26
0.0
 36
1.0
 17
0.0
 27
0.0
 37
0.0
 40
309.4106822228812
 41
2.08724832214765
 42
50.0
 43
0.0
 44
0.0
 50
0.0
 51
0.0
 71
     0
 72
   100
 73
     1
 74
     3
 75
     0
 76
     0
 77
     0
 78
     0
281
     0
 65
     1
110
0.0
120
0.0
130
0.0
111
1.0
121
0.0
131
0.0
112
0.0
122
1.0
132
0.0
 79
     0
146
0.0
  0
ENDTAB
  0
TABLE
  2
LTYPE
  5
5
330
0
100
AcDbSymbolTable
 70
     5
  0
LTYPE
  5
14
330
5
100
AcDbSymbolTableRecord
100
AcDbLinetypeTableRecord
  2
ByBlock
 70
     0
  3

 72
    65
 73
     0
 40
0.0
  0
LTYPE
  5
15
330
5
100
AcDbSymbolTableRecord
100
AcDbLinetypeTableRecord
  2
ByLayer
 70
     0
  3

 72
    65
 73
     0
 40
0.0
  0
LTYPE
  5
16
330
5
100
AcDbSymbolTableRecord
100
AcDbLinetypeTableRecord
  2
Continuous
 70
     0
  3
Solid line
 72
    65
 73
     0
 40
0.0
  0
LTYPE
  5
33
330
5
100
AcDbSymbolTableRecord
100
AcDbLinetypeTableRecord
  2
DASHED2
 70
     0
  3
Dashed (.5x) _ _ _ _ _ _ _ _ _ _ _ _ _ _ _ _ _
 72
    65
 73
     2
 40
9.524999999999998
 49
6.349999999999999
 74
     0
 49
-3.174999999999999
 74
     0
  0
LTYPE
  5
34
330
5
100
AcDbSymbolTableRecord
100
AcDbLinetypeTableRecord
  2
CENTER2
 70
     0
  3
Center (.5x) ___ _ ___ _ ___ _ ___ _ ___ _ ___
 72
    65
 73
     4
 40
28.57499999999999
 49
19.05
 74
     0
 49
-3.174999999999999
 74
     0
 49
3.174999999999999
 74
     0
 49
-3.174999999999999
 74
     0
  0
LTYPE
  5
35
330
5
100
AcDbSymbolTableRecord
100
AcDbLinetypeTableRecord
  2
PHANTOM2
 70
     0
  3
Phantom (.5x) ___ _ _ ___ _ _ ___ _ _ ___ _ _
 72
    65
 73
     6
 40
31.75
 49
15.875
 74
     0
 49
-3.174999999999999
 74
     0
 49
3.174999999999999
 74
     0
 49
-3.174999999999999
 74
     0
 49
3.174999999999999
 74
     0
 49
-3.174999999999999
 74
     0
  0
LTYPE
  5
36
330
5
100
AcDbSymbolTableRecord
100
AcDbLinetypeTableRecord
  2
HIDDEN2
 70
     0
  3
Hidden (.5x) _ _ _ _ _ _ _ _ _ _ _ _ _ _ _ _ _
 72
    65
 73
     2
 40
4.762499999999999
 49
3.174999999999999
 74
     0
 49
-1.587499999999999
 74
     0
  0
ENDTAB
  0
TABLE
  2
LAYER
  5
2
330
0
100
AcDbSymbolTable
 70
    13
  0
LAYER
  5
10
330
2
100
AcDbSymbolTableRecord
100
AcDbLayerTableRecord
  2
0
 70
     0
 62
     7
  6
Continuous
370
    -3
390
F
  0
LAYER
  5
40
330
2
100
AcDbSymbolTableRecord
100
AcDbLayerTableRecord
  2
50-0-CON
 70
     0
 62
     4
  6
Continuous
370
    50
390
F
  0
LAYER
  5
41
330
2
100
AcDbSymbolTableRecord
100
AcDbLayerTableRecord
  2
70-0-CON
 70
     0
 62
   202
  6
Continuous
370
    70
390
F
  0
LAYER
  5
4E
330
2
100
AcDbSymbolTableRecord
100
AcDbLayerTableRecord
  2
極太線
 70
     0
 62
     7
  6
Continuous
370
    70
390
F
  0
LAYER
  5
4F
330
2
100
AcDbSymbolTableRecord
100
AcDbLayerTableRecord
  2
細線
 70
     0
 62
     8
  6
Continuous
370
    18
390
F
  0
LAYER
  5
AB
330
2
100
AcDbSymbolTableRecord
100
AcDbLayerTableRecord
  2
構築線
 70
     0
 62
    -2
  6
Continuous
370
    18
390
F
  0
LAYER
  5
B8
330
2
100
AcDbSymbolTableRecord
100
AcDbLayerTableRecord
  2
太線
 70
     0
 62
     7
  6
Continuous
370
    35
390
F
  0
LAYER
  5
B9
330
2
100
AcDbSymbolTableRecord
100
AcDbLayerTableRecord
  2
寸法線
 70
     0
 62
     5
  6
Continuous
370
    18
390
F
  0
LAYER
  5
BA
330
2
100
AcDbSymbolTableRecord
100
AcDbLayerTableRecord
  2
破線
 70
     0
 62
     8
  6
HIDDEN2
370
    18
390
F
  0
LAYER
  5
BB
330
2
100
AcDbSymbolTableRecord
100
AcDbLayerTableRecord
  2
中心線
 70
     0
 62
     1
  6
CENTER2
370
    18
390
F
  0
LAYER
  5
BC
330
2
100
AcDbSymbolTableRecord
100
AcDbLayerTableRecord
  2
想像線
 70
     0
 62
     8
  6
PHANTOM2
370
    18
390
F
  0
LAYER
  5
BD
330
2
100
AcDbSymbolTableRecord
100
AcDbLayerTableRecord
  2
文字
 70
     0
 62
     7
  6
Continuous
370
    18
390
F
  0
LAYER
  5
180
330
2
100
AcDbSymbolTableRecord
100
AcDbLayerTableRecord
  2
Defpoints
 70
     0
 62
     7
  6
Continuous
290
     0
370
    -3
390
F
  0
ENDTAB
  0
TABLE
  2
STYLE
  5
3
330
0
100
AcDbSymbolTable
 70
     3
  0
STYLE
  5
11
330
3
100
AcDbSymbolTableRecord
100
AcDbTextStyleTableRecord
  2
Standard
 70
     0
 40
0.0
 41
1.0
 50
0.0
 71
     0
 42
3.0
  3
txt
  4

  0
STYLE
  5
32
330
3
100
AcDbSymbolTableRecord
100
AcDbTextStyleTableRecord
  2

 70
     1
 40
0.0
 41
1.0
 50
0.0
 71
     0
 42
2.5
  3
ltypeshp.shx
  4

  0
STYLE
  5
50
330
3
100
AcDbSymbolTableRecord
100
AcDbTextStyleTableRecord
  2
OKANO
 70
     0
 40
0.0
 41
1.0
 50
15.0
 71
     0
 42
5.0
  3
isocp.shx
  4
bigfont.shx
  0
ENDTAB
  0
TABLE
  2
VIEW
  5
6
330
0
100
AcDbSymbolTable
 70
     0
  0
ENDTAB
  0
TABLE
  2
UCS
  5
7
330
0
100
AcDbSymbolTable
 70
     0
  0
ENDTAB
  0
TABLE
  2
APPID
  5
9
330
0
100
AcDbSymbolTable
 70
     1
  0
APPID
  5
12
330
9
100
AcDbSymbolTableRecord
100
AcDbRegAppTableRecord
  2
ACAD
 70
     0
  0
ENDTAB
  0
TABLE
  2
DIMSTYLE
  5
A
330
0
100
AcDbSymbolTable
 70
     2
100
AcDbDimStyleTable
 71
     2
340
A2
340
27
  0
DIMSTYLE
105
27
330
A
100
AcDbSymbolTableRecord
100
AcDbDimStyleTableRecord
  2
ISO-25
 70
     0
 41
2.5
 42
0.625
 43
3.75
 44
1.25
 73
     0
 74
     0
 77
     1
 78
     8
140
2.5
141
2.5
143
0.03937007874016
147
0.625
171
     3
172
     1
271
     2
272
     2
274
     3
283
     0
284
     8
340
11
  0
DIMSTYLE
105
A2
102
{ACAD_REACTORS
330
2EAC
330
2EB8
330
2EE0
330
2EED
330
2EFA
330
2F36
330
2F45
330
2F52
330
2F83
330
2FB4
330
3003
330
3012
330
3051
330
3076
330
30A2
330
318D
330
319B
330
31A8
330
31F4
330
320E
102
}
330
A
100
AcDbSymbolTableRecord
100
AcDbDimStyleTableRecord
  2
sunpo
 70
     0
 40
0.0
 41
3.0
 42
2.0
 43
8.0
 44
3.0
 73
     0
 74
     0
 77
     1
 78
     8
140
5.0
141
2.5
143
0.03937007874016
147
1.0
171
     3
172
     1
271
     2
272
     2
274
     3
283
     0
284
     8
340
50
341
9B
342
9B
  0
ENDTAB
  0
TABLE
  2
BLOCK_RECORD
  5
1
330
0
100
AcDbSymbolTable
 70
    22
  0
BLOCK_RECORD
  5
1F
330
1
100
AcDbSymbolTableRecord
100
AcDbBlockTableRecord
  2
*Model_Space
340
22
  0
BLOCK_RECORD
  5
1B
330
1
100
AcDbSymbolTableRecord
100
AcDbBlockTableRecord
  2
*Paper_Space
340
1E
  0
BLOCK_RECORD
  5
9B
330
1
100
AcDbSymbolTableRecord
100
AcDbBlockTableRecord
  2
_Closed
340
0
102
{BLKREFS
331
2EB2
331
2EB3
331
2F69
331
2F6A
331
2F7D
331
2F7E
331
2F88
331
2F89
331
2F93
331
2F94
331
2F9C
331
2F9D
331
2FA5
331
2FA6
331
2FAE
331
2FAF
331
2FC8
331
2FC9
331
3024
331
3025
331
302D
331
302E
331
3057
331
3058
331
309B
331
309C
331
30B2
331
30B3
331
31CC
331
31CD
331
31D5
331
31D6
331
31E7
331
31E8
331
321E
331
321F
331
3227
331
3228
331
3230
331
3231
102
}
  0
BLOCK_RECORD
  5
1510
330
1
100
AcDbSymbolTableRecord
100
AcDbBlockTableRecord
  2
A$C10A573AC
340
0
  0
BLOCK_RECORD
  5
2EAD
330
1
100
AcDbSymbolTableRecord
100
AcDbBlockTableRecord
  2
*D2
340
0
  0
BLOCK_RECORD
  5
2EB9
330
1
100
AcDbSymbolTableRecord
100
AcDbBlockTableRecord
  2
*D3
340
0
  0
BLOCK_RECORD
  5
2EE1
330
1
100
AcDbSymbolTableRecord
100
AcDbBlockTableRecord
  2
*D4
340
0
  0
BLOCK_RECORD
  5
2EEE
330
1
100
AcDbSymbolTableRecord
100
AcDbBlockTableRecord
  2
*D5
340
0
  0
BLOCK_RECORD
  5
2EFB
330
1
100
AcDbSymbolTableRecord
100
AcDbBlockTableRecord
  2
*D6
340
0
  0
BLOCK_RECORD
  5
2F37
330
1
100
AcDbSymbolTableRecord
100
AcDbBlockTableRecord
  2
*D7
340
0
  0
BLOCK_RECORD
  5
2F46
330
1
100
AcDbSymbolTableRecord
100
AcDbBlockTableRecord
  2
*D8
340
0
  0
BLOCK_RECORD
  5
2F53
330
1
100
AcDbSymbolTableRecord
100
AcDbBlockTableRecord
  2
*D9
340
0
  0
BLOCK_RECORD
  5
2F84
330
1
100
AcDbSymbolTableRecord
100
AcDbBlockTableRecord
  2
*D10
340
0
  0
BLOCK_RECORD
  5
2FB5
330
1
100
AcDbSymbolTableRecord
100
AcDbBlockTableRecord
  2
*D11
340
0
  0
BLOCK_RECORD
  5
3004
330
1
100
AcDbSymbolTableRecord
100
AcDbBlockTableRecord
  2
*D12
340
0
  0
BLOCK_RECORD
  5
3013
330
1
100
AcDbSymbolTableRecord
100
AcDbBlockTableRecord
  2
*D13
340
0
  0
BLOCK_RECORD
  5
3052
330
1
100
AcDbSymbolTableRecord
100
AcDbBlockTableRecord
  2
*D14
340
0
  0
BLOCK_RECORD
  5
3077
330
1
100
AcDbSymbolTableRecord
100
AcDbBlockTableRecord
  2
*D15
340
0
  0
BLOCK_RECORD
  5
30A3
330
1
100
AcDbSymbolTableRecord
100
AcDbBlockTableRecord
  2
*D16
340
0
  0
BLOCK_RECORD
  5
318E
330
1
100
AcDbSymbolTableRecord
100
AcDbBlockTableRecord
  2
*D17
340
0
  0
BLOCK_RECORD
  5
319C
330
1
100
AcDbSymbolTableRecord
100
AcDbBlockTableRecord
  2
*D18
340
0
  0
BLOCK_RECORD
  5
31A9
330
1
100
AcDbSymbolTableRecord
100
AcDbBlockTableRecord
  2
*D19
340
0
  0
BLOCK_RECORD
  5
31F5
330
1
100
AcDbSymbolTableRecord
100
AcDbBlockTableRecord
  2
*D20
340
0
  0
BLOCK_RECORD
  5
320F
330
1
100
AcDbSymbolTableRecord
100
AcDbBlockTableRecord
  2
*D21
340
0
  0
ENDTAB
  0
ENDSEC
  0
SECTION
  2
BLOCKS
  0
BLOCK
  5
20
330
1F
100
AcDbEntity
  8
0
100
AcDbBlockBegin
  2
*Model_Space
 70
     0
 10
0.0
 20
0.0
 30
0.0
  3
*Model_Space
  1

  0
ENDBLK
  5
21
330
1F
100
AcDbEntity
  8
0
100
AcDbBlockEnd
  0
BLOCK
  5
1C
330
1B
100
AcDbEntity
 67
     1
  8
0
100
AcDbBlockBegin
  2
*Paper_Space
 70
     0
 10
0.0
 20
0.0
 30
0.0
  3
*Paper_Space
  1

  0
ENDBLK
  5
1D
330
1B
100
AcDbEntity
 67
     1
  8
0
100
AcDbBlockEnd
  0
BLOCK
  5
A0
330
9B
100
AcDbEntity
  8
0
100
AcDbBlockBegin
  2
_Closed
 70
     0
 10
0.0
 20
0.0
 30
0.0
  3
_Closed
  1

  0
LINE
  5
9C
330
9B
100
AcDbEntity
  8
0
 62
     0
370
    -2
100
AcDbLine
 10
-1.0
 20
0.1666666666666666
 30
0.0
 11
0.0
 21
0.0
 31
0.0
  0
LINE
  5
9D
330
9B
100
AcDbEntity
  8
0
 62
     0
370
    -2
100
AcDbLine
 10
0.0
 20
0.0
 30
0.0
 11
-1.0
 21
-0.1666666666666666
 31
0.0
  0
LINE
  5
9E
330
9B
100
AcDbEntity
  8
0
 62
     0
370
    -2
100
AcDbLine
 10
-1.0
 20
0.1666666666666666
 30
0.0
 11
-1.0
 21
-0.1666666666666666
 31
0.0
  0
LINE
  5
9F
330
9B
100
AcDbEntity
  8
0
 62
     0
370
    -2
100
AcDbLine
 10
0.0
 20
0.0
 30
0.0
 11
-1.0
 21
0.0
 31
0.0
  0
ENDBLK
  5
A1
330
9B
100
AcDbEntity
  8
0
100
AcDbBlockEnd
  0
BLOCK
  5
155B
330
1510
100
AcDbEntity
  8
0
100
AcDbBlockBegin
  2
A$C10A573AC
 70
     0
 10
0.0
 20
0.0
 30
0.0
  3
A$C10A573AC
  1

  0
TEXT
  5
1511
330
1510
100
AcDbEntity
  8
文字
100
AcDbText
 10
0.9844302777919438
 20
5.224957122252135
 30
0.0
 40
3.0
  1
Materal : Steel.
 51
15.0
  7
OKANO
100
AcDbText
  0
TEXT
  5
1512
330
1510
100
AcDbEntity
  8
文字
100
AcDbText
 10
-0.1141909619694843
 20
0.7500001922403499
 30
0.0
 40
3.0
  1
Surface treatment : Electro galvanized.
 51
15.0
  7
OKANO
100
AcDbText
  0
TEXT
  5
1513
330
1510
100
AcDbEntity
  8
文字
100
AcDbText
 10
-0.4901926332574931
 20
9.159967445193728
 30
0.0
 40
3.0
  1
5 TORGUE SCREW  M5-6
 51
15.0
  7
OKANO
100
AcDbText
  0
TEXT
  5
1514
330
1510
100
AcDbEntity
  8
文字
100
AcDbText
 10
1.364713526390005
 20
78.88822913323082
 30
0.0
 40
3.0
  1
Special standard,
 51
15.0
  7
OKANO
100
AcDbText
  0
TEXT
  5
1515
330
1510
100
AcDbEntity
  8
文字
100
AcDbText
 10
92.88160823408942
 20
89.92753849837379
 30
0.0
 40
3.0
  1
Screw Type
 51
15.0
  7
OKANO
100
AcDbText
  0
LINE
  5
1516
330
1510
100
AcDbEntity
  8
太線
100
AcDbLine
 10
113.9464587597784
 20
81.93930390144641
 30
0.0
 11
112.4464587597784
 21
81.93930390144641
 31
0.0
  0
LINE
  5
1517
330
1510
100
AcDbEntity
  8
太線
100
AcDbLine
 10
112.4464587597784
 20
76.9393039014464
 30
0.0
 11
121.4644995438761
 21
76.9393039014464
 31
0.0
  0
TEXT
  5
1518
330
1510
100
AcDbEntity
  8
文字
100
AcDbText
 10
93.46068240437217
 20
77.96976862235396
 30
0.0
 40
2.0
  1
17-30
 51
15.0
  7
OKANO
100
AcDbText
  0
LINE
  5
1519
330
1510
100
AcDbEntity
  8
太線
100
AcDbLine
 10
111.9464587597784
 20
81.43930390144641
 30
0.0
 11
111.9464587597784
 21
77.4393039014464
 31
0.0
  0
LINE
  5
151A
330
1510
100
AcDbEntity
  8
太線
100
AcDbLine
 10
91.94645875977846
 20
81.43930390144641
 30
0.0
 11
91.94645875977846
 21
77.43930390144639
 31
0.0
  0
LINE
  5
151B
330
1510
100
AcDbEntity
  8
太線
100
AcDbLine
 10
101.9644995438761
 20
77.4393039014464
 30
0.0
 11
101.9644995438761
 21
81.43930390144641
 31
0.0
  0
LINE
  5
151C
330
1510
100
AcDbEntity
  8
太線
100
AcDbLine
 10
92.44645875977846
 20
76.9393039014464
 30
0.0
 11
101.4644995438761
 21
76.9393039014464
 31
0.0
  0
ARC
  5
151D
330
1510
100
AcDbEntity
  8
太線
100
AcDbCircle
 10
92.44645875977846
 20
77.43930390144639
 30
0.0
 40
0.5
100
AcDbArc
 50
180.0
 51
270.0
  0
ARC
  5
151E
330
1510
100
AcDbEntity
  8
太線
100
AcDbCircle
 10
101.4644995438761
 20
77.4393039014464
 30
0.0
 40
0.5
100
AcDbArc
 50
270.0
 51
0.0
  0
ARC
  5
151F
330
1510
100
AcDbEntity
  8
太線
100
AcDbCircle
 10
112.4464587597784
 20
77.4393039014464
 30
0.0
 40
0.5
100
AcDbArc
 50
180.0
 51
270.0
  0
LINE
  5
1520
330
1510
100
AcDbEntity
  8
想像線
100
AcDbLine
 10
93.94645875977847
 20
81.93930390144641
 30
0.0
 11
99.96449954387617
 21
81.93930390144641
 31
0.0
  0
LINE
  5
1521
330
1510
100
AcDbEntity
  8
極太線
100
AcDbLine
 10
96.38762957111168
 20
85.43930390144641
 30
0.0
 11
97.50528794844525
 21
85.43930390144641
 31
0.0
  0
CIRCLE
  5
1522
330
1510
100
AcDbEntity
  8
太線
100
AcDbCircle
 10
96.94645875977847
 20
85.43930390144641
 30
0.0
 40
0.5588291886667776
  0
LINE
  5
1523
330
1510
100
AcDbEntity
  8
太線
100
AcDbLine
 10
99.46449954387617
 20
86.93930390144641
 30
0.0
 11
94.44645875977846
 21
86.93930390144641
 31
0.0
  0
LINE
  5
1524
330
1510
100
AcDbEntity
  8
太線
100
AcDbLine
 10
93.94645875977847
 20
86.43930390144641
 30
0.0
 11
93.94645875977847
 21
81.93930390144641
 31
0.0
  0
ARC
  5
1525
330
1510
100
AcDbEntity
  8
太線
100
AcDbCircle
 10
92.44645875977846
 20
81.43930390144641
 30
0.0
 40
0.5
100
AcDbArc
 50
90.0
 51
180.0
  0
LINE
  5
1526
330
1510
100
AcDbEntity
  8
太線
100
AcDbLine
 10
93.94645875977847
 20
81.93930390144641
 30
0.0
 11
92.44645875977846
 21
81.93930390144641
 31
0.0
  0
ARC
  5
1527
330
1510
100
AcDbEntity
  8
太線
100
AcDbCircle
 10
94.44645875977846
 20
86.43930390144641
 30
0.0
 40
0.5
100
AcDbArc
 50
90.0
 51
180.0
  0
LINE
  5
1528
330
1510
100
AcDbEntity
  8
太線
100
AcDbLine
 10
99.96449954387617
 20
81.93930390144641
 30
0.0
 11
99.96449954387617
 21
86.43930390144641
 31
0.0
  0
LINE
  5
1529
330
1510
100
AcDbEntity
  8
太線
100
AcDbLine
 10
101.4644995438761
 20
81.93930390144641
 30
0.0
 11
99.96449954387617
 21
81.93930390144641
 31
0.0
  0
ARC
  5
152A
330
1510
100
AcDbEntity
  8
太線
100
AcDbCircle
 10
101.4644995438761
 20
81.43930390144641
 30
0.0
 40
0.5
100
AcDbArc
 50
0.0
 51
90.0
  0
ARC
  5
152B
330
1510
100
AcDbEntity
  8
太線
100
AcDbCircle
 10
99.46449954387617
 20
86.43930390144641
 30
0.0
 40
0.5
100
AcDbArc
 50
0.0
 51
90.0
  0
LINE
  5
152C
330
1510
100
AcDbEntity
  8
極太線
100
AcDbLine
 10
96.94645875977847
 20
85.99813309011318
 30
0.0
 11
96.94645875977847
 21
84.88047471277964
 31
0.0
  0
ARC
  5
152D
330
1510
100
AcDbEntity
  8
太線
100
AcDbCircle
 10
112.4464587597784
 20
81.43930390144641
 30
0.0
 40
0.5
100
AcDbArc
 50
90.0
 51
180.0
  0
TEXT
  5
152E
330
1510
100
AcDbEntity
  8
文字
100
AcDbText
 10
134.3819212586066
 20
78.16263579228063
 30
0.0
 40
2.0
  1
101
 51
15.0
  7
OKANO
100
AcDbText
  0
TEXT
  5
152F
330
1510
100
AcDbEntity
  8
文字
100
AcDbText
 10
113.3422276612066
 20
77.96976862235396
 30
0.0
 40
2.0
  1
38-83
 51
15.0
  7
OKANO
100
AcDbText
  0
LINE
  5
1530
330
1510
100
AcDbEntity
  8
太線
100
AcDbLine
 10
141.9825403279738
 20
77.4393039014464
 30
0.0
 11
141.9825403279738
 21
81.43930390144641
 31
0.0
  0
LINE
  5
1531
330
1510
100
AcDbEntity
  8
太線
100
AcDbLine
 10
131.9644995438761
 20
81.43930390144641
 30
0.0
 11
131.9644995438761
 21
77.4393039014464
 31
0.0
  0
LINE
  5
1532
330
1510
100
AcDbEntity
  8
太線
100
AcDbLine
 10
121.9644995438761
 20
77.4393039014464
 30
0.0
 11
121.9644995438761
 21
81.43930390144641
 31
0.0
  0
ARC
  5
1533
330
1510
100
AcDbEntity
  8
太線
100
AcDbCircle
 10
121.4644995438761
 20
77.4393039014464
 30
0.0
 40
0.5
100
AcDbArc
 50
270.0
 51
0.0
  0
LINE
  5
1534
330
1510
100
AcDbEntity
  8
太線
100
AcDbLine
 10
132.4644995438761
 20
76.9393039014464
 30
0.0
 11
141.4825403279738
 21
76.9393039014464
 31
0.0
  0
ARC
  5
1535
330
1510
100
AcDbEntity
  8
太線
100
AcDbCircle
 10
132.4644995438761
 20
77.4393039014464
 30
0.0
 40
0.5
100
AcDbArc
 50
180.0
 51
270.0
  0
ARC
  5
1536
330
1510
100
AcDbEntity
  8
太線
100
AcDbCircle
 10
141.4825403279738
 20
77.4393039014464
 30
0.0
 40
0.5
100
AcDbArc
 50
270.0
 51
0.0
  0
ARC
  5
1537
330
1510
100
AcDbEntity
  8
太線
100
AcDbCircle
 10
121.4644995438761
 20
81.43930390144641
 30
0.0
 40
0.5
100
AcDbArc
 50
0.0
 51
90.0
  0
LINE
  5
1538
330
1510
100
AcDbEntity
  8
太線
100
AcDbLine
 10
119.9644995438761
 20
81.93930390144641
 30
0.0
 11
119.9644995438761
 21
86.43930390144641
 31
0.0
  0
LINE
  5
1539
330
1510
100
AcDbEntity
  8
太線
100
AcDbLine
 10
113.9464587597784
 20
86.43930390144641
 30
0.0
 11
113.9464587597784
 21
81.93930390144641
 31
0.0
  0
LINE
  5
153A
330
1510
100
AcDbEntity
  8
想像線
100
AcDbLine
 10
113.9464587597784
 20
81.93930390144641
 30
0.0
 11
119.9644995438761
 21
81.93930390144641
 31
0.0
  0
LINE
  5
153B
330
1510
100
AcDbEntity
  8
太線
100
AcDbLine
 10
121.4644995438761
 20
81.93930390144641
 30
0.0
 11
119.9644995438761
 21
81.93930390144641
 31
0.0
  0
LINE
  5
153C
330
1510
100
AcDbEntity
  8
太線
100
AcDbLine
 10
119.4644995438761
 20
86.93930390144641
 30
0.0
 11
114.4464587597784
 21
86.93930390144641
 31
0.0
  0
ARC
  5
153D
330
1510
100
AcDbEntity
  8
太線
100
AcDbCircle
 10
114.4464587597784
 20
86.43930390144641
 30
0.0
 40
0.5
100
AcDbArc
 50
90.0
 51
180.0
  0
CIRCLE
  5
153E
330
1510
100
AcDbEntity
  8
太線
100
AcDbCircle
 10
115.4464587597784
 20
85.43930390144641
 30
0.0
 40
0.5588291886667776
  0
LINE
  5
153F
330
1510
100
AcDbEntity
  8
極太線
100
AcDbLine
 10
115.4464587597784
 20
85.99813309011318
 30
0.0
 11
115.4464587597784
 21
84.88047471277964
 31
0.0
  0
LINE
  5
1540
330
1510
100
AcDbEntity
  8
極太線
100
AcDbLine
 10
114.8876295711116
 20
85.43930390144641
 30
0.0
 11
116.0052879484452
 21
85.43930390144641
 31
0.0
  0
ARC
  5
1541
330
1510
100
AcDbEntity
  8
太線
100
AcDbCircle
 10
119.4644995438761
 20
86.43930390144641
 30
0.0
 40
0.5
100
AcDbArc
 50
0.0
 51
90.0
  0
LINE
  5
1542
330
1510
100
AcDbEntity
  8
極太線
100
AcDbLine
 10
117.9056703552094
 20
85.43930390144641
 30
0.0
 11
119.0233287325429
 21
85.43930390144641
 31
0.0
  0
LINE
  5
1543
330
1510
100
AcDbEntity
  8
極太線
100
AcDbLine
 10
118.4644995438761
 20
85.99813309011318
 30
0.0
 11
118.4644995438761
 21
84.88047471277964
 31
0.0
  0
CIRCLE
  5
1544
330
1510
100
AcDbEntity
  8
太線
100
AcDbCircle
 10
118.4644995438761
 20
85.43930390144641
 30
0.0
 40
0.5588291886667776
  0
LINE
  5
1545
330
1510
100
AcDbEntity
  8
想像線
100
AcDbLine
 10
133.9644995438761
 20
81.93930390144641
 30
0.0
 11
139.9825403279738
 21
81.93930390144641
 31
0.0
  0
LINE
  5
1546
330
1510
100
AcDbEntity
  8
極太線
100
AcDbLine
 10
137.9237111393071
 20
85.43930390144641
 30
0.0
 11
139.0413695166406
 21
85.43930390144641
 31
0.0
  0
CIRCLE
  5
1547
330
1510
100
AcDbEntity
  8
太線
100
AcDbCircle
 10
138.4825403279738
 20
85.43930390144641
 30
0.0
 40
0.5588291886667776
  0
CIRCLE
  5
1548
330
1510
100
AcDbEntity
  8
太線
100
AcDbCircle
 10
138.4825403279738
 20
83.26342923362075
 30
0.0
 40
0.5588291886667776
  0
LINE
  5
1549
330
1510
100
AcDbEntity
  8
極太線
100
AcDbLine
 10
137.9237111393071
 20
83.26342923362075
 30
0.0
 11
139.0413695166406
 21
83.26342923362075
 31
0.0
  0
LINE
  5
154A
330
1510
100
AcDbEntity
  8
太線
100
AcDbLine
 10
139.4825403279738
 20
86.93930390144641
 30
0.0
 11
134.4644995438761
 21
86.93930390144641
 31
0.0
  0
LINE
  5
154B
330
1510
100
AcDbEntity
  8
太線
100
AcDbLine
 10
133.9644995438761
 20
86.43930390144641
 30
0.0
 11
133.9644995438761
 21
81.93930390144641
 31
0.0
  0
ARC
  5
154C
330
1510
100
AcDbEntity
  8
太線
100
AcDbCircle
 10
132.4644995438761
 20
81.43930390144641
 30
0.0
 40
0.5
100
AcDbArc
 50
90.0
 51
180.0
  0
LINE
  5
154D
330
1510
100
AcDbEntity
  8
太線
100
AcDbLine
 10
133.9644995438761
 20
81.93930390144641
 30
0.0
 11
132.4644995438761
 21
81.93930390144641
 31
0.0
  0
LINE
  5
154E
330
1510
100
AcDbEntity
  8
極太線
100
AcDbLine
 10
134.9056703552093
 20
83.26342923362075
 30
0.0
 11
136.0233287325429
 21
83.26342923362075
 31
0.0
  0
LINE
  5
154F
330
1510
100
AcDbEntity
  8
極太線
100
AcDbLine
 10
135.4644995438761
 20
83.82225842228752
 30
0.0
 11
135.4644995438761
 21
82.70460004495395
 31
0.0
  0
CIRCLE
  5
1550
330
1510
100
AcDbEntity
  8
太線
100
AcDbCircle
 10
135.4644995438761
 20
83.26342923362075
 30
0.0
 40
0.5588291886667776
  0
ARC
  5
1551
330
1510
100
AcDbEntity
  8
太線
100
AcDbCircle
 10
134.4644995438761
 20
86.43930390144641
 30
0.0
 40
0.5
100
AcDbArc
 50
90.0
 51
180.0
  0
CIRCLE
  5
1552
330
1510
100
AcDbEntity
  8
太線
100
AcDbCircle
 10
135.4644995438761
 20
85.43930390144641
 30
0.0
 40
0.5588291886667776
  0
LINE
  5
1553
330
1510
100
AcDbEntity
  8
極太線
100
AcDbLine
 10
135.4644995438761
 20
85.99813309011318
 30
0.0
 11
135.4644995438761
 21
84.88047471277964
 31
0.0
  0
LINE
  5
1554
330
1510
100
AcDbEntity
  8
極太線
100
AcDbLine
 10
134.9056703552093
 20
85.43930390144641
 30
0.0
 11
136.0233287325429
 21
85.43930390144641
 31
0.0
  0
LINE
  5
1555
330
1510
100
AcDbEntity
  8
太線
100
AcDbLine
 10
139.9825403279738
 20
81.93930390144641
 30
0.0
 11
139.9825403279738
 21
86.43930390144641
 31
0.0
  0
ARC
  5
1556
330
1510
100
AcDbEntity
  8
太線
100
AcDbCircle
 10
141.4825403279738
 20
81.43930390144641
 30
0.0
 40
0.5
100
AcDbArc
 50
0.0
 51
90.0
  0
LINE
  5
1557
330
1510
100
AcDbEntity
  8
極太線
100
AcDbLine
 10
138.4825403279738
 20
83.82225842228752
 30
0.0
 11
138.4825403279738
 21
82.70460004495395
 31
0.0
  0
LINE
  5
1558
330
1510
100
AcDbEntity
  8
太線
100
AcDbLine
 10
141.4825403279738
 20
81.93930390144641
 30
0.0
 11
139.9825403279738
 21
81.93930390144641
 31
0.0
  0
ARC
  5
1559
330
1510
100
AcDbEntity
  8
太線
100
AcDbCircle
 10
139.4825403279738
 20
86.43930390144641
 30
0.0
 40
0.5
100
AcDbArc
 50
0.0
 51
90.0
  0
LINE
  5
155A
330
1510
100
AcDbEntity
  8
極太線
100
AcDbLine
 10
138.4825403279738
 20
85.99813309011318
 30
0.0
 11
138.4825403279738
 21
84.88047471277964
 31
0.0
  0
ENDBLK
  5
155C
330
1510
100
AcDbEntity
  8
0
100
AcDbBlockEnd
  0
BLOCK
  5
2EB6
330
2EAD
100
AcDbEntity
  8
0
100
AcDbBlockBegin
  2
*D2
 70
     1
 10
0.0
 20
0.0
 30
0.0
  3
*D2
  1

  0
LINE
  5
2EAE
330
2EAD
100
AcDbEntity
  8
寸法線
 62
     0
370
    -2
100
AcDbLine
 10
239.3167995761326
 20
180.3738858101094
 30
0.0
 11
230.1708071205515
 21
164.7999632299883
 31
0.0
  0
LINE
  5
2EAF
330
2EAD
100
AcDbEntity
  8
寸法線
 62
     0
370
    -2
100
AcDbLine
 10
224.0940397960321
 20
154.452359696626
 30
0.0
 11
222.5748479649023
 21
151.8654588132854
 31
0.0
  0
MTEXT
  5
2EB0
330
2EAD
100
AcDbEntity
  8
寸法線
 62
     0
100
AcDbMText
 10
234.0160480622153
 20
178.2592622925958
 30
0.0
 40
5.0
 41
0.0
 71
     5
 72
     1
  1
\U+22056
  7
OKANO
 11
0.5063972770432876
 21
0.8623002944468613
 31
0.0
 73
     1
 44
1.0
  0
LINE
  5
2EB1
330
2EAD
100
AcDbEntity
  8
寸法線
 62
     0
370
    -2
100
AcDbLine
 10
225.613231627162
 20
157.0392605799665
 30
0.0
 11
228.6516152894217
 21
162.2130623466477
 31
0.0
  0
INSERT
  5
2EB2
330
2EAD
100
AcDbEntity
  8
寸法線
 62
     0
370
    -2
100
AcDbBlockReference
  2
_Closed
 10
225.613231627162
 20
157.0392605799665
 30
0.0
 41
3.0
 42
3.0
 43
3.0
 50
59.57584927259787
  0
INSERT
  5
2EB3
330
2EAD
100
AcDbEntity
  8
寸法線
 62
     0
370
    -2
100
AcDbBlockReference
  2
_Closed
 10
228.6516152894217
 20
162.2130623466477
 30
0.0
 41
3.0
 42
3.0
 43
3.0
 50
239.5758492725978
  0
POINT
  5
2EB4
330
2EAD
100
AcDbEntity
  8
Defpoints
 62
     0
100
AcDbPoint
 10
228.6516152894217
 20
162.2130623466477
 30
0.0
  0
POINT
  5
2EB5
330
2EAD
100
AcDbEntity
  8
Defpoints
 62
     0
100
AcDbPoint
 10
225.613231627162
 20
157.0392605799665
 30
0.0
  0
ENDBLK
  5
2EB7
330
2EAD
100
AcDbEntity
  8
0
100
AcDbBlockEnd
  0
BLOCK
  5
2EC3
330
2EB9
100
AcDbEntity
  8
0
100
AcDbBlockBegin
  2
*D3
 70
     1
 10
0.0
 20
0.0
 30
0.0
  3
*D3
  1

  0
LINE
  5
2F90
330
2EB9
100
AcDbEntity
  8
寸法線
 62
     0
370
    -2
100
AcDbLine
 10
247.6414745488584
 20
93.47114882569616
 30
0.0
 11
247.6414745488584
 21
70.09158372141621
 31
0.0
  0
LINE
  5
2F91
330
2EB9
100
AcDbEntity
  8
寸法線
 62
     0
370
    -2
100
AcDbLine
 10
222.6414745488584
 20
78.47114882569616
 30
0.0
 11
222.6414745488584
 21
70.09158372141621
 31
0.0
  0
LINE
  5
2F92
330
2EB9
100
AcDbEntity
  8
寸法線
 62
     0
370
    -2
100
AcDbLine
 10
244.6414745488584
 20
73.09158372141621
 30
0.0
 11
225.6414745488584
 21
73.09158372141621
 31
0.0
  0
INSERT
  5
2F93
330
2EB9
100
AcDbEntity
  8
寸法線
 62
     0
370
    -2
100
AcDbBlockReference
  2
_Closed
 10
247.6414745488584
 20
73.09158372141621
 30
0.0
 41
3.0
 42
3.0
 43
3.0
  0
INSERT
  5
2F94
330
2EB9
100
AcDbEntity
  8
寸法線
 62
     0
370
    -2
100
AcDbBlockReference
  2
_Closed
 10
222.6414745488584
 20
73.09158372141621
 30
0.0
 41
3.0
 42
3.0
 43
3.0
 50
180.0
  0
MTEXT
  5
2F95
330
2EB9
100
AcDbEntity
  8
寸法線
 62
     0
100
AcDbMText
 10
235.1414745488584
 20
76.59207584740046
 30
0.0
 40
5.0
 41
0.0
 71
     5
 72
     1
  1
25
  7
OKANO
 73
     1
 44
1.0
  0
POINT
  5
2F96
330
2EB9
100
AcDbEntity
  8
Defpoints
 62
     0
100
AcDbPoint
 10
247.6414745488584
 20
95.47114882569616
 30
0.0
  0
POINT
  5
2F97
330
2EB9
100
AcDbEntity
  8
Defpoints
 62
     0
100
AcDbPoint
 10
222.6414745488584
 20
80.47114882569616
 30
0.0
  0
POINT
  5
2F98
330
2EB9
100
AcDbEntity
  8
Defpoints
 62
     0
100
AcDbPoint
 10
222.6414745488584
 20
73.09158372141621
 30
0.0
  0
ENDBLK
  5
2EC4
330
2EB9
100
AcDbEntity
  8
0
100
AcDbBlockEnd
  0
BLOCK
  5
2EEB
330
2EE1
100
AcDbEntity
  8
0
100
AcDbBlockBegin
  2
*D4
 70
     1
 10
0.0
 20
0.0
 30
0.0
  3
*D4
  1

  0
LINE
  5
2FA2
330
2EE1
100
AcDbEntity
  8
寸法線
 62
     0
370
    -2
100
AcDbLine
 10
215.6414745488584
 20
191.1735365266071
 30
0.0
 11
204.235708759272
 21
191.1735365266071
 31
0.0
  0
LINE
  5
2FA3
330
2EE1
100
AcDbEntity
  8
寸法線
 62
     0
370
    -2
100
AcDbLine
 10
220.6414745488585
 20
155.4711488256961
 30
0.0
 11
204.235708759272
 21
155.4711488256961
 31
0.0
  0
LINE
  5
2FA4
330
2EE1
100
AcDbEntity
  8
寸法線
 62
     0
370
    -2
100
AcDbLine
 10
207.235708759272
 20
188.1735365266071
 30
0.0
 11
207.235708759272
 21
158.4711488256961
 31
0.0
  0
INSERT
  5
2FA5
330
2EE1
100
AcDbEntity
  8
寸法線
 62
     0
370
    -2
100
AcDbBlockReference
  2
_Closed
 10
207.235708759272
 20
191.1735365266071
 30
0.0
 41
3.0
 42
3.0
 43
3.0
 50
90.0
  0
INSERT
  5
2FA6
330
2EE1
100
AcDbEntity
  8
寸法線
 62
     0
370
    -2
100
AcDbBlockReference
  2
_Closed
 10
207.235708759272
 20
155.4711488256961
 30
0.0
 41
3.0
 42
3.0
 43
3.0
 50
270.0
  0
MTEXT
  5
2FA7
330
2EE1
100
AcDbEntity
  8
寸法線
 62
     0
100
AcDbMText
 10
203.7357087592719
 20
173.3223426761516
 30
0.0
 40
5.0
 41
0.0
 71
     5
 72
     1
  1
36.0
  7
OKANO
 11
0.0000000000000001
 21
1.0
 31
0.0
 73
     1
 44
1.0
  0
POINT
  5
2FA8
330
2EE1
100
AcDbEntity
  8
Defpoints
 62
     0
100
AcDbPoint
 10
217.6414745488584
 20
191.1735365266071
 30
0.0
  0
POINT
  5
2FA9
330
2EE1
100
AcDbEntity
  8
Defpoints
 62
     0
100
AcDbPoint
 10
222.6414745488585
 20
155.4711488256961
 30
0.0
  0
POINT
  5
2FAA
330
2EE1
100
AcDbEntity
  8
Defpoints
 62
     0
100
AcDbPoint
 10
207.235708759272
 20
155.4711488256961
 30
0.0
  0
ENDBLK
  5
2EEC
330
2EE1
100
AcDbEntity
  8
0
100
AcDbBlockEnd
  0
BLOCK
  5
2EF8
330
2EEE
100
AcDbEntity
  8
0
100
AcDbBlockBegin
  2
*D5
 70
     1
 10
0.0
 20
0.0
 30
0.0
  3
*D5
  1

  0
LINE
  5
2FAB
330
2EEE
100
AcDbEntity
  8
寸法線
 62
     0
370
    -2
100
AcDbLine
 10
220.6414745488585
 20
155.4711488256961
 30
0.0
 11
204.235708759272
 21
155.4711488256961
 31
0.0
  0
LINE
  5
2FAC
330
2EEE
100
AcDbEntity
  8
寸法線
 62
     0
370
    -2
100
AcDbLine
 10
220.6414745488585
 20
95.47114882569619
 30
0.0
 11
204.235708759272
 21
95.47114882569619
 31
0.0
  0
LINE
  5
2FAD
330
2EEE
100
AcDbEntity
  8
寸法線
 62
     0
370
    -2
100
AcDbLine
 10
207.235708759272
 20
152.4711488256961
 30
0.0
 11
207.235708759272
 21
98.4711488256962
 31
0.0
  0
INSERT
  5
2FAE
330
2EEE
100
AcDbEntity
  8
寸法線
 62
     0
370
    -2
100
AcDbBlockReference
  2
_Closed
 10
207.235708759272
 20
155.4711488256961
 30
0.0
 41
3.0
 42
3.0
 43
3.0
 50
90.0
  0
INSERT
  5
2FAF
330
2EEE
100
AcDbEntity
  8
寸法線
 62
     0
370
    -2
100
AcDbBlockReference
  2
_Closed
 10
207.235708759272
 20
95.47114882569619
 30
0.0
 41
3.0
 42
3.0
 43
3.0
 50
270.0
  0
MTEXT
  5
2FB0
330
2EEE
100
AcDbEntity
  8
寸法線
 62
     0
100
AcDbMText
 10
203.7357087592719
 20
125.4711488256962
 30
0.0
 40
5.0
 41
0.0
 71
     5
 72
     1
  1
57.3
  7
OKANO
 11
0.0000000000000001
 21
1.0
 31
0.0
 73
     1
 44
1.0
  0
POINT
  5
2FB1
330
2EEE
100
AcDbEntity
  8
Defpoints
 62
     0
100
AcDbPoint
 10
222.6414745488585
 20
155.4711488256961
 30
0.0
  0
POINT
  5
2FB2
330
2EEE
100
AcDbEntity
  8
Defpoints
 62
     0
100
AcDbPoint
 10
222.6414745488585
 20
95.47114882569619
 30
0.0
  0
POINT
  5
2FB3
330
2EEE
100
AcDbEntity
  8
Defpoints
 62
     0
100
AcDbPoint
 10
207.235708759272
 20
95.47114882569619
 30
0.0
  0
ENDBLK
  5
2EF9
330
2EEE
100
AcDbEntity
  8
0
100
AcDbBlockEnd
  0
BLOCK
  5
2F05
330
2EFB
100
AcDbEntity
  8
0
100
AcDbBlockBegin
  2
*D6
 70
     1
 10
0.0
 20
0.0
 30
0.0
  3
*D6
  1

  0
LINE
  5
2F99
330
2EFB
100
AcDbEntity
  8
寸法線
 62
     0
370
    -2
100
AcDbLine
 10
220.6414745488585
 20
95.47114882569619
 30
0.0
 11
204.235708759272
 21
95.47114882569619
 31
0.0
  0
LINE
  5
2F9A
330
2EFB
100
AcDbEntity
  8
寸法線
 62
     0
370
    -2
100
AcDbLine
 10
220.6414745488584
 20
59.76876112478522
 30
0.0
 11
204.235708759272
 21
59.76876112478523
 31
0.0
  0
LINE
  5
2F9B
330
2EFB
100
AcDbEntity
  8
寸法線
 62
     0
370
    -2
100
AcDbLine
 10
207.235708759272
 20
92.47114882569618
 30
0.0
 11
207.2357087592719
 21
62.76876112478523
 31
0.0
  0
INSERT
  5
2F9C
330
2EFB
100
AcDbEntity
  8
寸法線
 62
     0
370
    -2
100
AcDbBlockReference
  2
_Closed
 10
207.235708759272
 20
95.47114882569619
 30
0.0
 41
3.0
 42
3.0
 43
3.0
 50
90.0
  0
INSERT
  5
2F9D
330
2EFB
100
AcDbEntity
  8
寸法線
 62
     0
370
    -2
100
AcDbBlockReference
  2
_Closed
 10
207.2357087592719
 20
59.76876112478523
 30
0.0
 41
3.0
 42
3.0
 43
3.0
 50
270.0
  0
MTEXT
  5
2F9E
330
2EFB
100
AcDbEntity
  8
寸法線
 62
     0
100
AcDbMText
 10
203.7357087592719
 20
77.61995497524073
 30
0.0
 40
5.0
 41
0.0
 71
     5
 72
     1
  1
36.0
  7
OKANO
 11
0.0000000000000001
 21
1.0
 31
0.0
 73
     1
 44
1.0
  0
POINT
  5
2F9F
330
2EFB
100
AcDbEntity
  8
Defpoints
 62
     0
100
AcDbPoint
 10
222.6414745488585
 20
95.47114882569619
 30
0.0
  0
POINT
  5
2FA0
330
2EFB
100
AcDbEntity
  8
Defpoints
 62
     0
100
AcDbPoint
 10
222.6414745488584
 20
59.76876112478522
 30
0.0
  0
POINT
  5
2FA1
330
2EFB
100
AcDbEntity
  8
Defpoints
 62
     0
100
AcDbPoint
 10
207.2357087592719
 20
59.76876112478523
 30
0.0
  0
ENDBLK
  5
2F06
330
2EFB
100
AcDbEntity
  8
0
100
AcDbBlockEnd
  0
BLOCK
  5
2F43
330
2F37
100
AcDbEntity
  8
0
100
AcDbBlockBegin
  2
*D7
 70
     1
 10
0.0
 20
0.0
 30
0.0
  3
*D7
  1

  0
LINE
  5
2F78
330
2F37
100
AcDbEntity
  8
寸法線
 62
     0
370
    -2
100
AcDbLine
 10
254.6414745488584
 20
155.4711488256961
 30
0.0
 11
276.1957244030247
 21
155.4711488256961
 31
0.0
  0
LINE
  5
2F79
330
2F37
100
AcDbEntity
  8
寸法線
 62
     0
370
    -2
100
AcDbLine
 10
259.6414745488583
 20
150.4711488256961
 30
0.0
 11
276.1957244030247
 21
150.4711488256961
 31
0.0
  0
LINE
  5
2F7A
330
2F37
100
AcDbEntity
  8
寸法線
 62
     0
370
    -2
100
AcDbLine
 10
273.1957244030247
 20
158.4711488256961
 30
0.0
 11
273.1957244030247
 21
161.4711488256961
 31
0.0
  0
LINE
  5
2F7B
330
2F37
100
AcDbEntity
  8
寸法線
 62
     0
370
    -2
100
AcDbLine
 10
273.1957244030247
 20
147.4711488256961
 30
0.0
 11
273.1957244030247
 21
144.4711488256961
 31
0.0
  0
LINE
  5
2F7C
330
2F37
100
AcDbEntity
  8
寸法線
 62
     0
370
    -2
100
AcDbLine
 10
273.1957244030247
 20
155.4711488256961
 30
0.0
 11
273.1957244030247
 21
150.4711488256961
 31
0.0
  0
INSERT
  5
2F7D
330
2F37
100
AcDbEntity
  8
寸法線
 62
     0
370
    -2
100
AcDbBlockReference
  2
_Closed
 10
273.1957244030247
 20
155.4711488256961
 30
0.0
 41
3.0
 42
3.0
 43
3.0
 50
270.0
  0
INSERT
  5
2F7E
330
2F37
100
AcDbEntity
  8
寸法線
 62
     0
370
    -2
100
AcDbBlockReference
  2
_Closed
 10
273.1957244030247
 20
150.4711488256961
 30
0.0
 41
3.0
 42
3.0
 43
3.0
 50
90.0
  0
MTEXT
  5
2F7F
330
2F37
100
AcDbEntity
  8
寸法線
 62
     0
100
AcDbMText
 10
269.6957244030247
 20
152.9711488256961
 30
0.0
 40
5.0
 41
0.0
 71
     5
 72
     1
  1
4
  7
OKANO
 11
0.0000000000000001
 21
1.0
 31
0.0
 73
     1
 44
1.0
  0
POINT
  5
2F80
330
2F37
100
AcDbEntity
  8
Defpoints
 62
     0
100
AcDbPoint
 10
252.6414745488584
 20
155.4711488256961
 30
0.0
  0
POINT
  5
2F81
330
2F37
100
AcDbEntity
  8
Defpoints
 62
     0
100
AcDbPoint
 10
257.6414745488583
 20
150.4711488256961
 30
0.0
  0
POINT
  5
2F82
330
2F37
100
AcDbEntity
  8
Defpoints
 62
     0
100
AcDbPoint
 10
273.1957244030247
 20
150.4711488256961
 30
0.0
  0
ENDBLK
  5
2F44
330
2F37
100
AcDbEntity
  8
0
100
AcDbBlockEnd
  0
BLOCK
  5
2F50
330
2F46
100
AcDbEntity
  8
0
100
AcDbBlockBegin
  2
*D8
 70
     1
 10
0.0
 20
0.0
 30
0.0
  3
*D8
  1

  0
LINE
  5
321B
330
2F46
100
AcDbEntity
  8
寸法線
 62
     0
370
    -2
100
AcDbLine
 10
259.6414745488583
 20
150.4711488256961
 30
0.0
 11
276.1957244030247
 21
150.4711488256961
 31
0.0
  0
LINE
  5
321C
330
2F46
100
AcDbEntity
  8
寸法線
 62
     0
370
    -2
100
AcDbLine
 10
259.6414745488584
 20
100.5256942802416
 30
0.0
 11
276.1957244030247
 21
100.5256942802416
 31
0.0
  0
LINE
  5
321D
330
2F46
100
AcDbEntity
  8
寸法線
 62
     0
370
    -2
100
AcDbLine
 10
273.1957244030247
 20
147.4711488256961
 30
0.0
 11
273.1957244030247
 21
103.5256942802416
 31
0.0
  0
INSERT
  5
321E
330
2F46
100
AcDbEntity
  8
寸法線
 62
     0
370
    -2
100
AcDbBlockReference
  2
_Closed
 10
273.1957244030247
 20
150.4711488256961
 30
0.0
 41
3.0
 42
3.0
 43
3.0
 50
90.0
  0
INSERT
  5
321F
330
2F46
100
AcDbEntity
  8
寸法線
 62
     0
370
    -2
100
AcDbBlockReference
  2
_Closed
 10
273.1957244030247
 20
100.5256942802416
 30
0.0
 41
3.0
 42
3.0
 43
3.0
 50
270.0
  0
MTEXT
  5
3220
330
2F46
100
AcDbEntity
  8
寸法線
 62
     0
100
AcDbMText
 10
269.6957244030247
 20
125.4984215529689
 30
0.0
 40
5.0
 41
0.0
 71
     5
 72
     1
  1
49.6
  7
OKANO
 11
0.0000000000000001
 21
1.0
 31
0.0
 73
     1
 44
1.0
  0
POINT
  5
3221
330
2F46
100
AcDbEntity
  8
Defpoints
 62
     0
100
AcDbPoint
 10
257.6414745488583
 20
150.4711488256961
 30
0.0
  0
POINT
  5
3222
330
2F46
100
AcDbEntity
  8
Defpoints
 62
     0
100
AcDbPoint
 10
257.6414745488584
 20
100.5256942802416
 30
0.0
  0
POINT
  5
3223
330
2F46
100
AcDbEntity
  8
Defpoints
 62
     0
100
AcDbPoint
 10
273.1957244030247
 20
100.5256942802416
 30
0.0
  0
ENDBLK
  5
2F51
330
2F46
100
AcDbEntity
  8
0
100
AcDbBlockEnd
  0
BLOCK
  5
2F62
330
2F53
100
AcDbEntity
  8
0
100
AcDbBlockBegin
  2
*D9
 70
     1
 10
0.0
 20
0.0
 30
0.0
  3
*D9
  1

  0
LINE
  5
2F64
330
2F53
100
AcDbEntity
  8
寸法線
 62
     0
370
    -2
100
AcDbLine
 10
259.6414745488584
 20
100.5256942802416
 30
0.0
 11
276.1957244030247
 21
100.5256942802416
 31
0.0
  0
LINE
  5
2F65
330
2F53
100
AcDbEntity
  8
寸法線
 62
     0
370
    -2
100
AcDbLine
 10
258.6414745488584
 20
95.47114882569616
 30
0.0
 11
276.1957244030247
 21
95.47114882569616
 31
0.0
  0
LINE
  5
2F66
330
2F53
100
AcDbEntity
  8
寸法線
 62
     0
370
    -2
100
AcDbLine
 10
273.1957244030247
 20
103.5256942802416
 30
0.0
 11
273.1957244030247
 21
106.5256942802416
 31
0.0
  0
LINE
  5
2F67
330
2F53
100
AcDbEntity
  8
寸法線
 62
     0
370
    -2
100
AcDbLine
 10
273.1957244030247
 20
92.47114882569617
 30
0.0
 11
273.1957244030247
 21
89.47114882569616
 31
0.0
  0
LINE
  5
2F68
330
2F53
100
AcDbEntity
  8
寸法線
 62
     0
370
    -2
100
AcDbLine
 10
273.1957244030247
 20
100.5256942802416
 30
0.0
 11
273.1957244030247
 21
95.47114882569616
 31
0.0
  0
INSERT
  5
2F69
330
2F53
100
AcDbEntity
  8
寸法線
 62
     0
370
    -2
100
AcDbBlockReference
  2
_Closed
 10
273.1957244030247
 20
100.5256942802416
 30
0.0
 41
3.0
 42
3.0
 43
3.0
 50
270.0
  0
INSERT
  5
2F6A
330
2F53
100
AcDbEntity
  8
寸法線
 62
     0
370
    -2
100
AcDbBlockReference
  2
_Closed
 10
273.1957244030247
 20
95.47114882569616
 30
0.0
 41
3.0
 42
3.0
 43
3.0
 50
90.0
  0
MTEXT
  5
2F6B
330
2F53
100
AcDbEntity
  8
寸法線
 62
     0
100
AcDbMText
 10
269.6957244030247
 20
97.99842155296893
 30
0.0
 40
5.0
 41
0.0
 71
     5
 72
     1
  1
4
  7
OKANO
 11
0.0000000000000001
 21
1.0
 31
0.0
 73
     1
 44
1.0
  0
POINT
  5
2F6C
330
2F53
100
AcDbEntity
  8
Defpoints
 62
     0
100
AcDbPoint
 10
257.6414745488584
 20
100.5256942802416
 30
0.0
  0
POINT
  5
2F6D
330
2F53
100
AcDbEntity
  8
Defpoints
 62
     0
100
AcDbPoint
 10
256.6414745488584
 20
95.47114882569616
 30
0.0
  0
POINT
  5
2F6E
330
2F53
100
AcDbEntity
  8
Defpoints
 62
     0
100
AcDbPoint
 10
273.1957244030247
 20
95.47114882569616
 30
0.0
  0
ENDBLK
  5
2F63
330
2F53
100
AcDbEntity
  8
0
100
AcDbBlockEnd
  0
BLOCK
  5
2F8E
330
2F84
100
AcDbEntity
  8
0
100
AcDbBlockBegin
  2
*D10
 70
     1
 10
0.0
 20
0.0
 30
0.0
  3
*D10
  1

  0
LINE
  5
2F85
330
2F84
100
AcDbEntity
  8
寸法線
 62
     0
370
    -2
100
AcDbLine
 10
258.6414745488584
 20
95.47114882569616
 30
0.0
 11
276.1957244030247
 21
95.47114882569616
 31
0.0
  0
LINE
  5
2F86
330
2F84
100
AcDbEntity
  8
寸法線
 62
     0
370
    -2
100
AcDbLine
 10
224.6414745488584
 20
80.47114882569614
 30
0.0
 11
276.1957244030247
 21
80.47114882569614
 31
0.0
  0
LINE
  5
2F87
330
2F84
100
AcDbEntity
  8
寸法線
 62
     0
370
    -2
100
AcDbLine
 10
273.1957244030247
 20
92.47114882569617
 30
0.0
 11
273.1957244030247
 21
83.47114882569615
 31
0.0
  0
INSERT
  5
2F88
330
2F84
100
AcDbEntity
  8
寸法線
 62
     0
370
    -2
100
AcDbBlockReference
  2
_Closed
 10
273.1957244030247
 20
95.47114882569616
 30
0.0
 41
3.0
 42
3.0
 43
3.0
 50
90.0
  0
INSERT
  5
2F89
330
2F84
100
AcDbEntity
  8
寸法線
 62
     0
370
    -2
100
AcDbBlockReference
  2
_Closed
 10
273.1957244030247
 20
80.47114882569614
 30
0.0
 41
3.0
 42
3.0
 43
3.0
 50
270.0
  0
MTEXT
  5
2F8A
330
2F84
100
AcDbEntity
  8
寸法線
 62
     0
100
AcDbMText
 10
269.6957244030247
 20
87.97114882569621
 30
0.0
 40
5.0
 41
0.0
 71
     5
 72
     1
  1
15
  7
OKANO
 11
0.0000000000000001
 21
1.0
 31
0.0
 73
     1
 44
1.0
  0
POINT
  5
2F8B
330
2F84
100
AcDbEntity
  8
Defpoints
 62
     0
100
AcDbPoint
 10
256.6414745488584
 20
95.47114882569616
 30
0.0
  0
POINT
  5
2F8C
330
2F84
100
AcDbEntity
  8
Defpoints
 62
     0
100
AcDbPoint
 10
222.6414745488584
 20
80.47114882569616
 30
0.0
  0
POINT
  5
2F8D
330
2F84
100
AcDbEntity
  8
Defpoints
 62
     0
100
AcDbPoint
 10
273.1957244030247
 20
80.47114882569614
 30
0.0
  0
ENDBLK
  5
2F8F
330
2F84
100
AcDbEntity
  8
0
100
AcDbBlockEnd
  0
BLOCK
  5
2FC1
330
2FB5
100
AcDbEntity
  8
0
100
AcDbBlockBegin
  2
*D11
 70
     1
 10
0.0
 20
0.0
 30
0.0
  3
*D11
  1

  0
LINE
  5
2FC3
330
2FB5
100
AcDbEntity
  8
寸法線
 62
     0
370
    -2
100
AcDbLine
 10
149.7015140254043
 20
29.50022385680918
 30
0.0
 11
149.7015140254043
 21
60.85134556243679
 31
0.0
  0
LINE
  5
2FC4
330
2FB5
100
AcDbEntity
  8
寸法線
 62
     0
370
    -2
100
AcDbLine
 10
154.7015140254043
 20
29.50022385680918
 30
0.0
 11
154.7015140254043
 21
60.85134556243679
 31
0.0
  0
LINE
  5
2FC5
330
2FB5
100
AcDbEntity
  8
寸法線
 62
     0
370
    -2
100
AcDbLine
 10
146.7015140254043
 20
57.85134556243679
 30
0.0
 11
143.7015140254043
 21
57.85134556243679
 31
0.0
  0
LINE
  5
2FC6
330
2FB5
100
AcDbEntity
  8
寸法線
 62
     0
370
    -2
100
AcDbLine
 10
157.7015140254043
 20
57.85134556243679
 30
0.0
 11
160.7015140254043
 21
57.85134556243679
 31
0.0
  0
LINE
  5
2FC7
330
2FB5
100
AcDbEntity
  8
寸法線
 62
     0
370
    -2
100
AcDbLine
 10
149.7015140254043
 20
57.85134556243679
 30
0.0
 11
154.7015140254043
 21
57.85134556243679
 31
0.0
  0
INSERT
  5
2FC8
330
2FB5
100
AcDbEntity
  8
寸法線
 62
     0
370
    -2
100
AcDbBlockReference
  2
_Closed
 10
149.7015140254043
 20
57.85134556243679
 30
0.0
 41
3.0
 42
3.0
 43
3.0
  0
INSERT
  5
2FC9
330
2FB5
100
AcDbEntity
  8
寸法線
 62
     0
370
    -2
100
AcDbBlockReference
  2
_Closed
 10
154.7015140254043
 20
57.85134556243679
 30
0.0
 41
3.0
 42
3.0
 43
3.0
 50
180.0
  0
MTEXT
  5
2FCA
330
2FB5
100
AcDbEntity
  8
寸法線
 62
     0
100
AcDbMText
 10
152.2015140254043
 20
61.35134556243679
 30
0.0
 40
5.0
 41
0.0
 71
     5
 72
     1
  1
4
  7
OKANO
 73
     1
 44
1.0
  0
POINT
  5
2FCB
330
2FB5
100
AcDbEntity
  8
Defpoints
 62
     0
100
AcDbPoint
 10
149.7015140254043
 20
27.50022385680917
 30
0.0
  0
POINT
  5
2FCC
330
2FB5
100
AcDbEntity
  8
Defpoints
 62
     0
100
AcDbPoint
 10
154.7015140254043
 20
27.50022385680917
 30
0.0
  0
POINT
  5
2FCD
330
2FB5
100
AcDbEntity
  8
Defpoints
 62
     0
100
AcDbPoint
 10
154.7015140254043
 20
57.85134556243679
 30
0.0
  0
ENDBLK
  5
2FC2
330
2FB5
100
AcDbEntity
  8
0
100
AcDbBlockEnd
  0
BLOCK
  5
3010
330
3004
100
AcDbEntity
  8
0
100
AcDbBlockBegin
  2
*D12
 70
     1
 10
0.0
 20
0.0
 30
0.0
  3
*D12
  1

  0
LINE
  5
301F
330
3004
100
AcDbEntity
  8
寸法線
 62
     0
370
    -2
100
AcDbLine
 10
188.8387382680546
 20
-2.631566829691337
 30
0.0
 11
196.5250110276126
 21
-2.631566829691339
 31
0.0
  0
LINE
  5
3020
330
3004
100
AcDbEntity
  8
寸法線
 62
     0
370
    -2
100
AcDbLine
 10
188.8387382680546
 20
2.716382420576678
 30
0.0
 11
196.5250110276126
 21
2.716382420576676
 31
0.0
  0
LINE
  5
3021
330
3004
100
AcDbEntity
  8
寸法線
 62
     0
370
    -2
100
AcDbLine
 10
193.5250110276126
 20
-5.631566829691339
 30
0.0
 11
193.5250110276126
 21
-8.631566829691339
 31
0.0
  0
LINE
  5
3022
330
3004
100
AcDbEntity
  8
寸法線
 62
     0
370
    -2
100
AcDbLine
 10
193.5250110276126
 20
5.716382420576676
 30
0.0
 11
193.5250110276126
 21
8.716382420576676
 31
0.0
  0
LINE
  5
3023
330
3004
100
AcDbEntity
  8
寸法線
 62
     0
370
    -2
100
AcDbLine
 10
193.5250110276126
 20
-2.631566829691339
 30
0.0
 11
193.5250110276126
 21
2.716382420576676
 31
0.0
  0
INSERT
  5
3024
330
3004
100
AcDbEntity
  8
寸法線
 62
     0
370
    -2
100
AcDbBlockReference
  2
_Closed
 10
193.5250110276126
 20
-2.631566829691339
 30
0.0
 41
3.0
 42
3.0
 43
3.0
 50
90.0
  0
INSERT
  5
3025
330
3004
100
AcDbEntity
  8
寸法線
 62
     0
370
    -2
100
AcDbBlockReference
  2
_Closed
 10
193.5250110276126
 20
2.716382420576676
 30
0.0
 41
3.0
 42
3.0
 43
3.0
 50
270.0
  0
MTEXT
  5
3026
330
3004
100
AcDbEntity
  8
寸法線
 62
     0
100
AcDbMText
 10
190.0250110276126
 20
0.0424077954427002
 30
0.0
 40
5.0
 41
0.0
 71
     5
 72
     1
  1
4
  7
OKANO
 11
0.0000000000000001
 21
1.0
 31
0.0
 73
     1
 44
1.0
  0
POINT
  5
3027
330
3004
100
AcDbEntity
  8
Defpoints
 62
     0
100
AcDbPoint
 10
186.8387382680546
 20
-2.631566829691337
 30
0.0
  0
POINT
  5
3028
330
3004
100
AcDbEntity
  8
Defpoints
 62
     0
100
AcDbPoint
 10
186.8387382680546
 20
2.716382420576678
 30
0.0
  0
POINT
  5
3029
330
3004
100
AcDbEntity
  8
Defpoints
 62
     0
100
AcDbPoint
 10
193.5250110276126
 20
2.716382420576676
 30
0.0
  0
ENDBLK
  5
3011
330
3004
100
AcDbEntity
  8
0
100
AcDbBlockEnd
  0
BLOCK
  5
301D
330
3013
100
AcDbEntity
  8
0
100
AcDbBlockBegin
  2
*D13
 70
     1
 10
0.0
 20
0.0
 30
0.0
  3
*D13
  1

  0
LINE
  5
302A
330
3013
100
AcDbEntity
  8
寸法線
 62
     0
370
    -2
100
AcDbLine
 10
188.8387382680546
 20
2.716382420576678
 30
0.0
 11
196.5250110276126
 21
2.716382420576676
 31
0.0
  0
LINE
  5
302B
330
3013
100
AcDbEntity
  8
寸法線
 62
     0
370
    -2
100
AcDbLine
 10
193.7420052484817
 20
37.47805316860058
 30
0.0
 11
196.5250110276126
 21
37.47805316860058
 31
0.0
  0
LINE
  5
302C
330
3013
100
AcDbEntity
  8
寸法線
 62
     0
370
    -2
100
AcDbLine
 10
193.5250110276126
 20
5.716382420576676
 30
0.0
 11
193.5250110276126
 21
34.47805316860058
 31
0.0
  0
INSERT
  5
302D
330
3013
100
AcDbEntity
  8
寸法線
 62
     0
370
    -2
100
AcDbBlockReference
  2
_Closed
 10
193.5250110276126
 20
2.716382420576676
 30
0.0
 41
3.0
 42
3.0
 43
3.0
 50
270.0
  0
INSERT
  5
302E
330
3013
100
AcDbEntity
  8
寸法線
 62
     0
370
    -2
100
AcDbBlockReference
  2
_Closed
 10
193.5250110276126
 20
37.47805316860058
 30
0.0
 41
3.0
 42
3.0
 43
3.0
 50
90.0
  0
MTEXT
  5
302F
330
3013
100
AcDbEntity
  8
寸法線
 62
     0
100
AcDbMText
 10
190.0250110276126
 20
20.09721779458866
 30
0.0
 40
5.0
 41
0.0
 71
     5
 72
     1
  1
35
  7
OKANO
 11
0.0000000000000001
 21
1.0
 31
0.0
 73
     1
 44
1.0
  0
POINT
  5
3030
330
3013
100
AcDbEntity
  8
Defpoints
 62
     0
100
AcDbPoint
 10
186.8387382680546
 20
2.716382420576678
 30
0.0
  0
POINT
  5
3031
330
3013
100
AcDbEntity
  8
Defpoints
 62
     0
100
AcDbPoint
 10
191.7420052484817
 20
37.47805316860058
 30
0.0
  0
POINT
  5
3032
330
3013
100
AcDbEntity
  8
Defpoints
 62
     0
100
AcDbPoint
 10
193.5250110276126
 20
37.47805316860058
 30
0.0
  0
ENDBLK
  5
301E
330
3013
100
AcDbEntity
  8
0
100
AcDbBlockEnd
  0
BLOCK
  5
305B
330
3052
100
AcDbEntity
  8
0
100
AcDbBlockBegin
  2
*D14
 70
     1
 10
0.0
 20
0.0
 30
0.0
  3
*D14
  1

  0
LINE
  5
3053
330
3052
100
AcDbEntity
  8
寸法線
 62
     0
370
    -2
100
AcDbLine
 10
114.5214895515963
 20
171.1654768136124
 30
0.0
 11
89.71262740532804
 21
166.4354196917404
 31
0.0
  0
LINE
  5
3054
330
3052
100
AcDbEntity
  8
寸法線
 62
     0
370
    -2
100
AcDbLine
 10
79.88957373400397
 20
164.5625564905731
 30
0.0
 11
76.94265763260673
 21
164.0006975302229
 31
0.0
  0
MTEXT
  5
3055
330
3052
100
AcDbEntity
  8
寸法線
 62
     0
100
AcDbMText
 10
109.4127122878614
 20
173.7544842557719
 30
0.0
 40
5.0
 41
0.0
 71
     5
 72
     1
  1
\U+22054
  7
OKANO
 11
0.982305367132408
 21
0.1872863201167267
 31
0.0
 73
     1
 44
1.0
  0
LINE
  5
3056
330
3052
100
AcDbEntity
  8
寸法線
 62
     0
370
    -2
100
AcDbLine
 10
82.83648983540119
 20
165.1244154509233
 30
0.0
 11
86.76571130393082
 21
165.8735607313902
 31
0.0
  0
INSERT
  5
3057
330
3052
100
AcDbEntity
  8
寸法線
 62
     0
370
    -2
100
AcDbBlockReference
  2
_Closed
 10
82.83648983540119
 20
165.1244154509233
 30
0.0
 41
3.0
 42
3.0
 43
3.0
 50
10.79445912389479
  0
INSERT
  5
3058
330
3052
100
AcDbEntity
  8
寸法線
 62
     0
370
    -2
100
AcDbBlockReference
  2
_Closed
 10
86.76571130393082
 20
165.8735607313902
 30
0.0
 41
3.0
 42
3.0
 43
3.0
 50
190.7944591238947
  0
POINT
  5
3059
330
3052
100
AcDbEntity
  8
Defpoints
 62
     0
100
AcDbPoint
 10
86.76571130393082
 20
165.8735607313902
 30
0.0
  0
POINT
  5
305A
330
3052
100
AcDbEntity
  8
Defpoints
 62
     0
100
AcDbPoint
 10
82.83648983540119
 20
165.1244154509233
 30
0.0
  0
ENDBLK
  5
305C
330
3052
100
AcDbEntity
  8
0
100
AcDbBlockEnd
  0
BLOCK
  5
3082
330
3077
100
AcDbEntity
  8
0
100
AcDbBlockBegin
  2
*D15
 70
     1
 10
0.0
 20
0.0
 30
0.0
  3
*D15
  1

  0
LINE
  5
3098
330
3077
100
AcDbEntity
  8
寸法線
 62
     0
370
    -2
100
AcDbLine
 10
67.31714660813281
 20
180.3822303826462
 30
0.0
 11
67.31714660813281
 21
198.6168260510305
 31
0.0
  0
LINE
  5
3099
330
3077
100
AcDbEntity
  8
寸法線
 62
     0
370
    -2
100
AcDbLine
 10
78.16144759594909
 20
180.1360215387644
 30
0.0
 11
78.16144759594909
 21
198.6168260510305
 31
0.0
  0
LINE
  5
309A
330
3077
100
AcDbEntity
  8
寸法線
 62
     0
370
    -2
100
AcDbLine
 10
70.31714660813282
 20
195.6168260510305
 30
0.0
 11
75.16144759594908
 21
195.6168260510305
 31
0.0
  0
INSERT
  5
309B
330
3077
100
AcDbEntity
  8
寸法線
 62
     0
370
    -2
100
AcDbBlockReference
  2
_Closed
 10
67.31714660813281
 20
195.6168260510305
 30
0.0
 41
3.0
 42
3.0
 43
3.0
 50
180.0
  0
INSERT
  5
309C
330
3077
100
AcDbEntity
  8
寸法線
 62
     0
370
    -2
100
AcDbBlockReference
  2
_Closed
 10
78.16144759594909
 20
195.6168260510305
 30
0.0
 41
3.0
 42
3.0
 43
3.0
  0
MTEXT
  5
309D
330
3077
100
AcDbEntity
  8
寸法線
 62
     0
100
AcDbMText
 10
72.73929710204095
 20
199.1173181770147
 30
0.0
 40
5.0
 41
0.0
 71
     5
 72
     1
  1
12
  7
OKANO
 73
     1
 44
1.0
  0
POINT
  5
309E
330
3077
100
AcDbEntity
  8
Defpoints
 62
     0
100
AcDbPoint
 10
67.31714660813281
 20
178.3822303826463
 30
0.0
  0
POINT
  5
309F
330
3077
100
AcDbEntity
  8
Defpoints
 62
     0
100
AcDbPoint
 10
78.16144759594909
 20
178.1360215387644
 30
0.0
  0
POINT
  5
30A0
330
3077
100
AcDbEntity
  8
Defpoints
 62
     0
100
AcDbPoint
 10
78.16144759594909
 20
195.6168260510305
 30
0.0
  0
ENDBLK
  5
3083
330
3077
100
AcDbEntity
  8
0
100
AcDbBlockEnd
  0
BLOCK
  5
30AD
330
30A3
100
AcDbEntity
  8
0
100
AcDbBlockBegin
  2
*D16
 70
     1
 10
0.0
 20
0.0
 30
0.0
  3
*D16
  1

  0
LINE
  5
30AF
330
30A3
100
AcDbEntity
  8
寸法線
 62
     0
370
    -2
100
AcDbLine
 10
65.9788388471436
 20
186.3972861228141
 30
0.0
 11
38.08405157757307
 21
186.3972861228142
 31
0.0
  0
LINE
  5
30B0
330
30A3
100
AcDbEntity
  8
寸法線
 62
     0
370
    -2
100
AcDbLine
 10
66.64565208627164
 20
170.630230851239
 30
0.0
 11
38.08405157757306
 21
170.630230851239
 31
0.0
  0
LINE
  5
30B1
330
30A3
100
AcDbEntity
  8
寸法線
 62
     0
370
    -2
100
AcDbLine
 10
41.08405157757307
 20
183.3972861228142
 30
0.0
 11
41.08405157757306
 21
173.630230851239
 31
0.0
  0
INSERT
  5
30B2
330
30A3
100
AcDbEntity
  8
寸法線
 62
     0
370
    -2
100
AcDbBlockReference
  2
_Closed
 10
41.08405157757307
 20
186.3972861228142
 30
0.0
 41
3.0
 42
3.0
 43
3.0
 50
90.0
  0
INSERT
  5
30B3
330
30A3
100
AcDbEntity
  8
寸法線
 62
     0
370
    -2
100
AcDbBlockReference
  2
_Closed
 10
41.08405157757306
 20
170.630230851239
 30
0.0
 41
3.0
 42
3.0
 43
3.0
 50
270.0
  0
MTEXT
  5
30B4
330
30A3
100
AcDbEntity
  8
寸法線
 62
     0
100
AcDbMText
 10
37.58405157757304
 20
178.5137584870266
 30
0.0
 40
5.0
 41
0.0
 71
     5
 72
     1
  1
15
  7
OKANO
 11
0.0000000000000001
 21
1.0
 31
0.0
 73
     1
 44
1.0
  0
POINT
  5
30B5
330
30A3
100
AcDbEntity
  8
Defpoints
 62
     0
100
AcDbPoint
 10
67.97883884714361
 20
186.3972861228141
 30
0.0
  0
POINT
  5
30B6
330
30A3
100
AcDbEntity
  8
Defpoints
 62
     0
100
AcDbPoint
 10
68.64565208627164
 20
170.630230851239
 30
0.0
  0
POINT
  5
30B7
330
30A3
100
AcDbEntity
  8
Defpoints
 62
     0
100
AcDbPoint
 10
41.08405157757306
 20
170.630230851239
 30
0.0
  0
ENDBLK
  5
30AE
330
30A3
100
AcDbEntity
  8
0
100
AcDbBlockEnd
  0
BLOCK
  5
3199
330
318E
100
AcDbEntity
  8
0
100
AcDbBlockBegin
  2
*D17
 70
     1
 10
0.0
 20
0.0
 30
0.0
  3
*D17
  1

  0
LINE
  5
31C9
330
318E
100
AcDbEntity
  8
寸法線
 62
     0
370
    -2
100
AcDbLine
 10
82.11182323377306
 20
191.1207516731286
 30
0.0
 11
136.0392240228064
 21
191.1207516731286
 31
0.0
  0
LINE
  5
31CA
330
318E
100
AcDbEntity
  8
寸法線
 62
     0
370
    -2
100
AcDbLine
 10
82.11182323377306
 20
178.8902898239705
 30
0.0
 11
136.0392240228064
 21
178.8902898239705
 31
0.0
  0
LINE
  5
31CB
330
318E
100
AcDbEntity
  8
寸法線
 62
     0
370
    -2
100
AcDbLine
 10
133.0392240228064
 20
188.1207516731286
 30
0.0
 11
133.0392240228064
 21
181.8902898239705
 31
0.0
  0
INSERT
  5
31CC
330
318E
100
AcDbEntity
  8
寸法線
 62
     0
370
    -2
100
AcDbBlockReference
  2
_Closed
 10
133.0392240228064
 20
191.1207516731286
 30
0.0
 41
3.0
 42
3.0
 43
3.0
 50
90.0
  0
INSERT
  5
31CD
330
318E
100
AcDbEntity
  8
寸法線
 62
     0
370
    -2
100
AcDbBlockReference
  2
_Closed
 10
133.0392240228064
 20
178.8902898239705
 30
0.0
 41
3.0
 42
3.0
 43
3.0
 50
270.0
  0
MTEXT
  5
31CE
330
318E
100
AcDbEntity
  8
寸法線
 62
     0
100
AcDbMText
 10
129.5392240228064
 20
185.0055207485496
 30
0.0
 40
5.0
 41
0.0
 71
     5
 72
     1
  1
11
  7
OKANO
 11
0.0000000000000001
 21
1.0
 31
0.0
 73
     1
 44
1.0
  0
POINT
  5
31CF
330
318E
100
AcDbEntity
  8
Defpoints
 62
     0
100
AcDbPoint
 10
80.11182323377306
 20
191.1207516731286
 30
0.0
  0
POINT
  5
31D0
330
318E
100
AcDbEntity
  8
Defpoints
 62
     0
100
AcDbPoint
 10
80.11182323377306
 20
178.8902898239705
 30
0.0
  0
POINT
  5
31D1
330
318E
100
AcDbEntity
  8
Defpoints
 62
     0
100
AcDbPoint
 10
133.0392240228064
 20
178.8902898239705
 30
0.0
  0
ENDBLK
  5
319A
330
318E
100
AcDbEntity
  8
0
100
AcDbBlockEnd
  0
BLOCK
  5
31A6
330
319C
100
AcDbEntity
  8
0
100
AcDbBlockBegin
  2
*D18
 70
     1
 10
0.0
 20
0.0
 30
0.0
  3
*D18
  1

  0
LINE
  5
31E4
330
319C
100
AcDbEntity
  8
寸法線
 62
     0
370
    -2
100
AcDbLine
 10
82.11182323377306
 20
178.8902898239705
 30
0.0
 11
136.0392240228064
 21
178.8902898239705
 31
0.0
  0
LINE
  5
31E5
330
319C
100
AcDbEntity
  8
寸法線
 62
     0
370
    -2
100
AcDbLine
 10
74.55076655539745
 20
70.97445267730188
 30
0.0
 11
136.0392240228064
 21
70.97445267730186
 31
0.0
  0
LINE
  5
31E6
330
319C
100
AcDbEntity
  8
寸法線
 62
     0
370
    -2
100
AcDbLine
 10
133.0392240228064
 20
175.8902898239705
 30
0.0
 11
133.0392240228064
 21
73.97445267730187
 31
0.0
  0
INSERT
  5
31E7
330
319C
100
AcDbEntity
  8
寸法線
 62
     0
370
    -2
100
AcDbBlockReference
  2
_Closed
 10
133.0392240228064
 20
178.8902898239705
 30
0.0
 41
3.0
 42
3.0
 43
3.0
 50
90.0
  0
INSERT
  5
31E8
330
319C
100
AcDbEntity
  8
寸法線
 62
     0
370
    -2
100
AcDbBlockReference
  2
_Closed
 10
133.0392240228064
 20
70.97445267730186
 30
0.0
 41
3.0
 42
3.0
 43
3.0
 50
270.0
  0
MTEXT
  5
31E9
330
319C
100
AcDbEntity
  8
寸法線
 62
     0
100
AcDbMText
 10
129.5392240228064
 20
124.9323712506362
 30
0.0
 40
5.0
 41
0.0
 71
     5
 72
     1
  1
107.3
  7
OKANO
 11
0.0000000000000001
 21
1.0
 31
0.0
 73
     1
 44
1.0
  0
POINT
  5
31EA
330
319C
100
AcDbEntity
  8
Defpoints
 62
     0
100
AcDbPoint
 10
80.11182323377306
 20
178.8902898239705
 30
0.0
  0
POINT
  5
31EB
330
319C
100
AcDbEntity
  8
Defpoints
 62
     0
100
AcDbPoint
 10
72.55076655539745
 20
70.97445267730188
 30
0.0
  0
POINT
  5
31EC
330
319C
100
AcDbEntity
  8
Defpoints
 62
     0
100
AcDbPoint
 10
133.0392240228064
 20
70.97445267730186
 30
0.0
  0
ENDBLK
  5
31A7
330
319C
100
AcDbEntity
  8
0
100
AcDbBlockEnd
  0
BLOCK
  5
31B5
330
31A9
100
AcDbEntity
  8
0
100
AcDbBlockBegin
  2
*D19
 70
     1
 10
0.0
 20
0.0
 30
0.0
  3
*D19
  1

  0
LINE
  5
31D2
330
31A9
100
AcDbEntity
  8
寸法線
 62
     0
370
    -2
100
AcDbLine
 10
74.55076655539745
 20
70.97445267730188
 30
0.0
 11
136.0392240228064
 21
70.97445267730186
 31
0.0
  0
LINE
  5
31D3
330
31A9
100
AcDbEntity
  8
寸法線
 62
     0
370
    -2
100
AcDbLine
 10
75.27086656613255
 20
59.82314971576442
 30
0.0
 11
136.0392240228064
 21
59.82314971576441
 31
0.0
  0
LINE
  5
31D4
330
31A9
100
AcDbEntity
  8
寸法線
 62
     0
370
    -2
100
AcDbLine
 10
133.0392240228064
 20
67.97445267730187
 30
0.0
 11
133.0392240228064
 21
62.82314971576441
 31
0.0
  0
INSERT
  5
31D5
330
31A9
100
AcDbEntity
  8
寸法線
 62
     0
370
    -2
100
AcDbBlockReference
  2
_Closed
 10
133.0392240228064
 20
70.97445267730186
 30
0.0
 41
3.0
 42
3.0
 43
3.0
 50
90.0
  0
INSERT
  5
31D6
330
31A9
100
AcDbEntity
  8
寸法線
 62
     0
370
    -2
100
AcDbBlockReference
  2
_Closed
 10
133.0392240228064
 20
59.82314971576441
 30
0.0
 41
3.0
 42
3.0
 43
3.0
 50
270.0
  0
MTEXT
  5
31D7
330
31A9
100
AcDbEntity
  8
寸法線
 62
     0
100
AcDbMText
 10
129.5392240228064
 20
65.39880119653315
 30
0.0
 40
5.0
 41
0.0
 71
     5
 72
     1
  1
11
  7
OKANO
 11
0.0000000000000001
 21
1.0
 31
0.0
 73
     1
 44
1.0
  0
POINT
  5
31D8
330
31A9
100
AcDbEntity
  8
Defpoints
 62
     0
100
AcDbPoint
 10
72.55076655539745
 20
70.97445267730188
 30
0.0
  0
POINT
  5
31D9
330
31A9
100
AcDbEntity
  8
Defpoints
 62
     0
100
AcDbPoint
 10
73.27086656613255
 20
59.82314971576442
 30
0.0
  0
POINT
  5
31DA
330
31A9
100
AcDbEntity
  8
Defpoints
 62
     0
100
AcDbPoint
 10
133.0392240228064
 20
59.82314971576441
 30
0.0
  0
ENDBLK
  5
31B6
330
31A9
100
AcDbEntity
  8
0
100
AcDbBlockEnd
  0
BLOCK
  5
31FF
330
31F5
100
AcDbEntity
  8
0
100
AcDbBlockBegin
  2
*D20
 70
     1
 10
0.0
 20
0.0
 30
0.0
  3
*D20
  1

  0
LINE
  5
3224
330
31F5
100
AcDbEntity
  8
寸法線
 62
     0
370
    -2
100
AcDbLine
 10
215.2706391756349
 20
150.4927594629151
 30
0.0
 11
212.0754232259126
 21
150.4927594629151
 31
0.0
  0
LINE
  5
3225
330
31F5
100
AcDbEntity
  8
寸法線
 62
     0
370
    -2
100
AcDbLine
 10
215.2706391756349
 20
100.4163300421906
 30
0.0
 11
212.0754232259126
 21
100.4163300421906
 31
0.0
  0
LINE
  5
3226
330
31F5
100
AcDbEntity
  8
寸法線
 62
     0
370
    -2
100
AcDbLine
 10
215.0754232259127
 20
147.4927594629151
 30
0.0
 11
215.0754232259127
 21
103.4163300421906
 31
0.0
  0
INSERT
  5
3227
330
31F5
100
AcDbEntity
  8
寸法線
 62
     0
370
    -2
100
AcDbBlockReference
  2
_Closed
 10
215.0754232259127
 20
150.4927594629151
 30
0.0
 41
3.0
 42
3.0
 43
3.0
 50
90.0
  0
INSERT
  5
3228
330
31F5
100
AcDbEntity
  8
寸法線
 62
     0
370
    -2
100
AcDbBlockReference
  2
_Closed
 10
215.0754232259127
 20
100.4163300421906
 30
0.0
 41
3.0
 42
3.0
 43
3.0
 50
270.0
  0
MTEXT
  5
3229
330
31F5
100
AcDbEntity
  8
寸法線
 62
     0
100
AcDbMText
 10
211.5754232259126
 20
125.4545447525529
 30
0.0
 40
5.0
 41
0.0
 71
     5
 72
     1
  1
49.6
  7
OKANO
 11
0.0000000000000001
 21
1.0
 31
0.0
 73
     1
 44
1.0
  0
POINT
  5
322A
330
31F5
100
AcDbEntity
  8
Defpoints
 62
     0
100
AcDbPoint
 10
217.2706391756349
 20
150.4927594629151
 30
0.0
  0
POINT
  5
322B
330
31F5
100
AcDbEntity
  8
Defpoints
 62
     0
100
AcDbPoint
 10
217.2706391756349
 20
100.4163300421906
 30
0.0
  0
POINT
  5
322C
330
31F5
100
AcDbEntity
  8
Defpoints
 62
     0
100
AcDbPoint
 10
215.0754232259127
 20
100.4163300421906
 30
0.0
  0
ENDBLK
  5
3200
330
31F5
100
AcDbEntity
  8
0
100
AcDbBlockEnd
  0
BLOCK
  5
3219
330
320F
100
AcDbEntity
  8
0
100
AcDbBlockBegin
  2
*D21
 70
     1
 10
0.0
 20
0.0
 30
0.0
  3
*D21
  1

  0
LINE
  5
322D
330
320F
100
AcDbEntity
  8
寸法線
 62
     0
370
    -2
100
AcDbLine
 10
235.0275838500611
 20
150.4927594629151
 30
0.0
 11
233.6617143372867
 21
150.4927594629151
 31
0.0
  0
LINE
  5
322E
330
320F
100
AcDbEntity
  8
寸法線
 62
     0
370
    -2
100
AcDbLine
 10
235.0275838500611
 20
100.7818511597481
 30
0.0
 11
233.6617143372867
 21
100.7818511597481
 31
0.0
  0
LINE
  5
322F
330
320F
100
AcDbEntity
  8
寸法線
 62
     0
370
    -2
100
AcDbLine
 10
236.6617143372867
 20
147.4927594629151
 30
0.0
 11
236.6617143372867
 21
103.7818511597481
 31
0.0
  0
INSERT
  5
3230
330
320F
100
AcDbEntity
  8
寸法線
 62
     0
370
    -2
100
AcDbBlockReference
  2
_Closed
 10
236.6617143372867
 20
150.4927594629151
 30
0.0
 41
3.0
 42
3.0
 43
3.0
 50
90.0
  0
INSERT
  5
3231
330
320F
100
AcDbEntity
  8
寸法線
 62
     0
370
    -2
100
AcDbBlockReference
  2
_Closed
 10
236.6617143372867
 20
100.7818511597481
 30
0.0
 41
3.0
 42
3.0
 43
3.0
 50
270.0
  0
MTEXT
  5
3232
330
320F
100
AcDbEntity
  8
寸法線
 62
     0
100
AcDbMText
 10
233.1617143372867
 20
125.6373053113317
 30
0.0
 40
5.0
 41
0.0
 71
     5
 72
     1
  1
49.3
  7
OKANO
 11
0.0000000000000001
 21
1.0
 31
0.0
 73
     1
 44
1.0
  0
POINT
  5
3233
330
320F
100
AcDbEntity
  8
Defpoints
 62
     0
100
AcDbPoint
 10
237.0275838500611
 20
150.4927594629151
 30
0.0
  0
POINT
  5
3234
330
320F
100
AcDbEntity
  8
Defpoints
 62
     0
100
AcDbPoint
 10
237.0275838500611
 20
100.7818511597481
 30
0.0
  0
POINT
  5
3235
330
320F
100
AcDbEntity
  8
Defpoints
 62
     0
100
AcDbPoint
 10
236.6617143372867
 20
100.7818511597481
 30
0.0
  0
ENDBLK
  5
321A
330
320F
100
AcDbEntity
  8
0
100
AcDbBlockEnd
  0
ENDSEC
  0
SECTION
  2
ENTITIES
  0
XLINE
  5
22CA
330
1F
100
AcDbEntity
  8
構築線
370
     5
100
AcDbXline
 10
72.20151402540432
 20
178.0193172078315
 30
0.0
 11
0.0
 21
-1.0
 31
0.0
  0
TEXT
  5
29C1
330
1F
100
AcDbEntity
  8
文字
100
AcDbText
 10
294.7560483342738
 20
-27.48762344208455
 30
0.0
 40
3.599999999999999
  1
SET SCREW COUP
 51
15.0
  7
OKANO
100
AcDbText
  0
TEXT
  5
29C2
330
1F
100
AcDbEntity
  8
文字
100
AcDbText
 10
275.1070859623077
 20
-35.52497173398167
 30
0.0
 40
4.799999999999999
  1
joint kogyo T.okano
 51
15.0
  7
OKANO
100
AcDbText
  0
TEXT
  5
29C3
330
1F
100
AcDbEntity
  8
文字
100
AcDbText
 10
267.6187729505109
 20
-20.77260022669388
 30
0.0
 40
4.799999999999999
  1
F-999-20040824 Auto CAD
 51
15.0
  7
OKANO
100
AcDbText
  0
LINE
  5
29C4
330
1F
100
AcDbEntity
  8
太線
100
AcDbLine
 10
240.196544768897
 20
-21.69340787712424
 30
0.0
 11
348.196544768897
 21
-21.69340787712424
 31
0.0
  0
LWPOLYLINE
  5
29C5
330
1F
100
AcDbEntity
  8
太線
100
AcDbPolyline
 90
        4
 70
     1
 43
0.0
 10
240.196544768897
 20
-13.29340787712424
 10
348.196544768897
 20
-13.29340787712424
 10
348.196544768897
 20
-38.49340787712424
 10
240.196544768897
 20
-38.49340787712424
  0
TEXT
  5
29C6
330
1F
100
AcDbEntity
  8
文字
100
AcDbText
 10
244.0689283349545
 20
-29.88691967597492
 30
0.0
 40
2.399999999999999
  1
CHECK
 51
15.0
  7
OKANO
100
AcDbText
  0
LINE
  5
29C7
330
1F
100
AcDbEntity
  8
太線
100
AcDbLine
 10
264.196544768897
 20
-13.29340787712424
 30
0.0
 11
264.196544768897
 21
-38.49340787712424
 31
0.0
  0
TEXT
  5
29C8
330
1F
100
AcDbEntity
  8
文字
100
AcDbText
 10
244.0689283349545
 20
-36.80634728219074
 30
0.0
 40
2.399999999999999
  1
ISSUED
 51
15.0
  7
OKANO
100
AcDbText
  0
TEXT
  5
29C9
330
1F
100
AcDbEntity
  8
文字
100
AcDbText
 10
244.3254427678553
 20
-33.47477109292261
 30
0.0
 40
2.399999999999999
  1
APPR
 51
15.0
  7
OKANO
100
AcDbText
  0
TEXT
  5
29CA
330
1F
100
AcDbEntity
  8
文字
100
AcDbText
 10
242.2733327832688
 20
-19.89219169835908
 30
0.0
 40
2.399999999999999
  1
FILM NAME
 51
15.0
  7
OKANO
100
AcDbText
  0
TEXT
  5
29CB
330
1F
100
AcDbEntity
  8
文字
100
AcDbText
 10
243.5559016606009
 20
-26.29906884921588
 30
0.0
 40
2.399999999999999
  1
DRAWN
 51
15.0
  7
OKANO
100
AcDbText
  0
TEXT
  5
29CC
330
1F
100
AcDbEntity
  8
文字
100
AcDbText
 10
274.5940581922302
 20
-28.0929942625954
 30
0.0
 40
4.799999999999999
  1
10-1B
 51
15.0
  7
OKANO
100
AcDbText
  0
XLINE
  5
29D1
330
1F
100
AcDbEntity
  8
構築線
370
     5
100
AcDbXline
 10
40.70151402540432
 20
260.4711488256961
 30
0.0
 11
1.0
 21
0.0
 31
0.0
  0
LINE
  5
2AA8
330
1F
100
AcDbEntity
  8
太線
 62
     0
100
AcDbLine
 10
217.6414745488584
 20
100.4711488256961
 30
0.0
 11
217.6414745488584
 21
154.4711488256961
 31
0.0
  0
LINE
  5
2AAB
330
1F
100
AcDbEntity
  8
太線
 62
     0
100
AcDbLine
 10
222.6414745488585
 20
155.4711488256961
 30
0.0
 11
237.4914745488585
 21
155.4711488256961
 31
0.0
  0
LINE
  5
2AAF
330
1F
100
AcDbEntity
  8
太線
 62
     0
100
AcDbLine
 10
252.6414745488584
 20
155.4711488256961
 30
0.0
 11
256.6414745488584
 21
155.4711488256961
 31
0.0
  0
LINE
  5
2B52
330
1F
100
AcDbEntity
  8
太線
100
AcDbLine
 10
217.6414745488584
 20
100.4711488256961
 30
0.0
 11
217.6414745488584
 21
95.47114882569616
 31
0.0
  0
LINE
  5
2B53
330
1F
100
AcDbEntity
  8
太線
100
AcDbLine
 10
222.6414745488585
 20
95.47114882569616
 30
0.0
 11
256.6414745488584
 21
95.47114882569619
 31
0.0
  0
LINE
  5
2B55
330
1F
100
AcDbEntity
  8
想像線
100
AcDbLine
 10
222.6414745488584
 20
150.4711488256961
 30
0.0
 11
257.6414745488584
 21
150.4711488256961
 31
0.0
  0
XLINE
  5
2B86
330
1F
100
AcDbEntity
  8
構築線
370
     5
100
AcDbXline
 10
40.70151402540432
 20
125.4711488256961
 30
0.0
 11
1.0
 21
0.0
 31
0.0
  0
LINE
  5
2B89
330
1F
100
AcDbEntity
  8
太線
 62
     0
100
AcDbLine
 10
252.6414745488584
 20
95.47114882569616
 30
0.0
 11
257.6414745488584
 21
95.47114882569616
 31
0.0
  0
LINE
  5
2B8F
330
1F
100
AcDbEntity
  8
太線
 62
     0
100
AcDbLine
 10
222.6414745488585
 20
95.47114882569619
 30
0.0
 11
237.4914745488585
 21
95.47114882569616
 31
0.0
  0
CIRCLE
  5
2BEA
330
1F
100
AcDbEntity
  8
太線
100
AcDbCircle
 10
72.20151402540432
 20
125.4711488256961
 30
0.0
 40
30.0
  0
CIRCLE
  5
2BEB
330
1F
100
AcDbEntity
  8
太線
100
AcDbCircle
 10
72.20151402540432
 20
125.4711488256961
 30
0.0
 40
25.0
  0
LINE
  5
2C21
330
1F
100
AcDbEntity
  8
太線
100
AcDbLine
 10
182.173488914702
 20
36.50022385680918
 30
0.0
 11
182.173488914702
 21
-2.64977614319082
 31
0.0
  0
LINE
  5
2C22
330
1F
100
AcDbEntity
  8
太線
100
AcDbLine
 10
182.173488914702
 20
-2.64977614319082
 30
0.0
 11
122.2892290350046
 21
-2.64977614319082
 31
0.0
  0
LINE
  5
2C23
330
1F
100
AcDbEntity
  8
太線
100
AcDbLine
 10
122.2892290350046
 20
-2.64977614319082
 30
0.0
 11
122.2892290350045
 21
36.50022385680918
 31
0.0
  0
ARC
  5
2D30
330
1F
100
AcDbEntity
  8
太線
100
AcDbCircle
 10
72.99217478514773
 20
176.4188253100892
 30
0.0
 40
14.77588060048662
100
AcDbArc
 50
15.91747833312921
 51
164.0825216668711
  0
LINE
  5
2D33
330
1F
100
AcDbEntity
  8
太線
100
AcDbLine
 10
42.57817836847564
 20
130.2101344299092
 30
0.0
 11
58.78283554489112
 21
180.4711488256961
 31
0.0
  0
LINE
  5
2D34
330
1F
100
AcDbEntity
  8
太線
100
AcDbLine
 10
87.42295226257061
 20
180.4711488256961
 30
0.0
 11
102.173488914702
 21
131.6496179750823
 31
0.0
  0
ARC
  5
2D39
330
1F
100
AcDbEntity
  8
太線
100
AcDbCircle
 10
72.99217478514773
 20
74.52347234130312
 30
0.0
 40
14.77588060048662
100
AcDbArc
 50
195.9174783331288
 51
344.0825216668708
  0
LINE
  5
2D3C
330
1F
100
AcDbEntity
  8
太線
100
AcDbLine
 10
42.57817836847564
 20
120.7321632214831
 30
0.0
 11
58.78283554489112
 21
70.47114882569616
 31
0.0
  0
LINE
  5
2D3D
330
1F
100
AcDbEntity
  8
太線
100
AcDbLine
 10
87.42295226257061
 20
70.47114882569616
 30
0.0
 11
102.173488914702
 21
119.29267967631
 31
0.0
  0
LINE
  5
2D49
330
1F
100
AcDbEntity
  8
太線
100
AcDbLine
 10
217.6414745488584
 20
154.4711488256961
 30
0.0
 11
217.6414745488584
 21
191.1735365266071
 31
0.0
  0
LINE
  5
2D4C
330
1F
100
AcDbEntity
  8
太線
100
AcDbLine
 10
217.6414745488584
 20
95.47114882569614
 30
0.0
 11
217.6414745488584
 21
59.76876112478522
 31
0.0
  0
LINE
  5
2D4F
330
1F
100
AcDbEntity
  8
太線
100
AcDbLine
 10
237.4914745488585
 20
155.4711488256961
 30
0.0
 11
252.6414745488584
 21
155.4711488256961
 31
0.0
  0
LINE
  5
2D56
330
1F
100
AcDbEntity
  8
太線
100
AcDbLine
 10
217.6414745488584
 20
191.1735365266071
 30
0.0
 11
222.6414745488584
 21
191.1735365266071
 31
0.0
  0
LINE
  5
2D57
330
1F
100
AcDbEntity
  8
太線
100
AcDbLine
 10
222.6414745488584
 20
191.1735365266071
 30
0.0
 11
222.6414745488584
 21
155.4711488256961
 31
0.0
  0
LINE
  5
2D58
330
1F
100
AcDbEntity
  8
太線
100
AcDbLine
 10
222.6414745488584
 20
95.47114882569616
 30
0.0
 11
222.6414745488584
 21
59.76876112478522
 31
0.0
  0
LINE
  5
2D59
330
1F
100
AcDbEntity
  8
太線
100
AcDbLine
 10
222.6414745488584
 20
59.76876112478522
 30
0.0
 11
217.6414745488584
 21
59.76876112478522
 31
0.0
  0
LINE
  5
2D5E
330
1F
100
AcDbEntity
  8
想像線
100
AcDbLine
 10
217.6414745488584
 20
170.4711488256961
 30
0.0
 11
222.6414745488584
 21
170.4711488256961
 31
0.0
  0
LINE
  5
2D61
330
1F
100
AcDbEntity
  8
想像線
100
AcDbLine
 10
222.6414745488584
 20
100.6211488256961
 30
0.0
 11
257.6414745488584
 21
100.5256942802416
 31
0.0
  0
LINE
  5
2D69
330
1F
100
AcDbEntity
  8
想像線
100
AcDbLine
 10
127.4392290350046
 20
37.50022385680917
 30
0.0
 11
127.4392290350046
 21
2.500223856809178
 31
0.0
  0
LINE
  5
2D6B
330
1F
100
AcDbEntity
  8
想像線
100
AcDbLine
 10
177.023488914702
 20
2.500223856809178
 30
0.0
 11
177.023488914702
 21
37.50022385680917
 31
0.0
  0
LINE
  5
2D6C
330
1F
100
AcDbEntity
  8
想像線
100
AcDbLine
 10
146.2015140254043
 20
2.500223856809185
 30
0.0
 11
146.2015140254043
 21
-2.64977614319082
 31
0.0
  0
LINE
  5
2D6D
330
1F
100
AcDbEntity
  8
想像線
100
AcDbLine
 10
158.2015140254043
 20
2.500223856809185
 30
0.0
 11
158.2015140254043
 21
-2.64977614319082
 31
0.0
  0
LINE
  5
2D76
330
1F
100
AcDbEntity
  8
太線
100
AcDbLine
 10
122.2892290350046
 20
2.50022385680918
 30
0.0
 11
182.173488914702
 21
2.50022385680918
 31
0.0
  0
LINE
  5
2D77
330
1F
100
AcDbEntity
  8
太線
100
AcDbLine
 10
149.7015140254043
 20
2.500223856809185
 30
0.0
 11
149.7015140254043
 21
12.50022385680918
 31
0.0
  0
LINE
  5
2D79
330
1F
100
AcDbEntity
  8
太線
100
AcDbLine
 10
154.7015140254043
 20
12.50022385680918
 30
0.0
 11
154.7015140254043
 21
2.500223856809185
 31
0.0
  0
LINE
  5
2D7C
330
1F
100
AcDbEntity
  8
太線
100
AcDbLine
 10
69.70151402540432
 20
155.3668006834496
 30
0.0
 11
69.70151402540432
 21
160.4711488256961
 31
0.0
  0
LINE
  5
2D7E
330
1F
100
AcDbEntity
  8
太線
100
AcDbLine
 10
74.70151402540432
 20
160.4711488256961
 30
0.0
 11
74.70151402540432
 21
155.4711488256961
 31
0.0
  0
LINE
  5
2D7F
330
1F
100
AcDbEntity
  8
太線
100
AcDbLine
 10
69.70151402540432
 20
95.47114882569616
 30
0.0
 11
69.70151402540432
 21
90.47114882569616
 31
0.0
  0
LINE
  5
2D81
330
1F
100
AcDbEntity
  8
太線
100
AcDbLine
 10
74.70151402540432
 20
90.47114882569616
 30
0.0
 11
74.70151402540432
 21
95.47114882569616
 31
0.0
  0
LINE
  5
2E03
330
1F
100
AcDbEntity
  8
想像線
100
AcDbLine
 10
167.2015140254043
 20
2.500223856809185
 30
0.0
 11
167.2015140254043
 21
-2.64977614319082
 31
0.0
  0
LINE
  5
2E04
330
1F
100
AcDbEntity
  8
想像線
100
AcDbLine
 10
137.2015140254043
 20
2.500223856809157
 30
0.0
 11
137.2015140254043
 21
-2.64977614319082
 31
0.0
  0
LINE
  5
2E66
330
1F
100
AcDbEntity
  8
太線
100
AcDbLine
 10
69.70151402540432
 20
160.4711488256961
 30
0.0
 11
69.70151402540432
 21
170.4711488256961
 31
0.0
  0
LINE
  5
2E67
330
1F
100
AcDbEntity
  8
太線
100
AcDbLine
 10
69.70151402540432
 20
170.4711488256961
 30
0.0
 11
74.70151402540432
 21
170.4711488256961
 31
0.0
  0
LINE
  5
2E68
330
1F
100
AcDbEntity
  8
太線
100
AcDbLine
 10
74.70151402540432
 20
170.4711488256961
 30
0.0
 11
74.70151402540432
 21
160.4711488256961
 31
0.0
  0
CIRCLE
  5
2E6D
330
1F
100
AcDbEntity
  8
太線
100
AcDbCircle
 10
227.1324234582919
 20
159.6261614633071
 30
0.0
 40
3.0
  0
LINE
  5
2E77
330
1F
100
AcDbEntity
  8
太線
100
AcDbLine
 10
69.70151402540432
 20
90.47114882569616
 30
0.0
 11
69.70151402540432
 21
80.47114882569616
 31
0.0
  0
LINE
  5
2E78
330
1F
100
AcDbEntity
  8
太線
100
AcDbLine
 10
69.70151402540432
 20
80.47114882569616
 30
0.0
 11
74.70151402540432
 21
80.47114882569616
 31
0.0
  0
LINE
  5
2E79
330
1F
100
AcDbEntity
  8
太線
100
AcDbLine
 10
74.70151402540432
 20
80.47114882569616
 30
0.0
 11
74.70151402540432
 21
90.47114882569616
 31
0.0
  0
CIRCLE
  5
2E7B
330
1F
100
AcDbEntity
  8
太線
100
AcDbCircle
 10
227.1324234582919
 20
91.63167256374412
 30
0.0
 40
3.0
  0
LINE
  5
2E84
330
1F
100
AcDbEntity
  8
想像線
100
AcDbLine
 10
217.6414745488584
 20
75.26876112478522
 30
0.0
 11
222.6414745488584
 21
75.26876112478522
 31
0.0
  0
LINE
  5
2E85
330
1F
100
AcDbEntity
  8
想像線
100
AcDbLine
 10
222.6414745488584
 20
64.26876112478521
 30
0.0
 11
217.6414745488584
 21
64.26876112478521
 31
0.0
  0
LINE
  5
2E86
330
1F
100
AcDbEntity
  8
想像線
100
AcDbLine
 10
217.6414745488584
 20
186.1735365266071
 30
0.0
 11
222.6414745488584
 21
186.1735365266071
 31
0.0
  0
LINE
  5
2E87
330
1F
100
AcDbEntity
  8
想像線
100
AcDbLine
 10
217.6414745488584
 20
175.6735365266071
 30
0.0
 11
222.6414745488584
 21
175.6735365266071
 31
0.0
  0
LINE
  5
2E88
330
1F
100
AcDbEntity
  8
想像線
100
AcDbLine
 10
69.70151402540432
 20
162.5503929183838
 30
0.0
 11
74.70151402540432
 21
162.5503929183838
 31
0.0
  0
LINE
  5
2E89
330
1F
100
AcDbEntity
  8
想像線
100
AcDbLine
 10
74.70151402540432
 20
156.7781547096376
 30
0.0
 11
69.70151402540432
 21
156.7781547096376
 31
0.0
  0
LINE
  5
2E8A
330
1F
100
AcDbEntity
  8
想像線
100
AcDbLine
 10
69.70151402540432
 20
94.30216366599768
 30
0.0
 11
74.70151402540432
 21
94.30216366599768
 31
0.0
  0
LINE
  5
2E8B
330
1F
100
AcDbEntity
  8
想像線
100
AcDbLine
 10
74.70151402540432
 20
88.47560580791219
 30
0.0
 11
69.70151402540432
 21
88.47560580791219
 31
0.0
  0
LINE
  5
2E92
330
1F
100
AcDbEntity
  8
太線
100
AcDbLine
 10
149.7015140254043
 20
12.50022385680918
 30
0.0
 11
149.7015140254043
 21
27.50022385680917
 31
0.0
  0
LINE
  5
2E93
330
1F
100
AcDbEntity
  8
太線
100
AcDbLine
 10
149.7015140254043
 20
27.50022385680917
 30
0.0
 11
154.7015140254043
 21
27.50022385680917
 31
0.0
  0
LINE
  5
2E94
330
1F
100
AcDbEntity
  8
太線
100
AcDbLine
 10
154.7015140254043
 20
27.50022385680917
 30
0.0
 11
154.7015140254043
 21
12.50022385680918
 31
0.0
  0
LINE
  5
2E97
330
1F
100
AcDbEntity
  8
太線
100
AcDbLine
 10
222.6414745488584
 20
80.47114882569616
 30
0.0
 11
247.6414745488584
 21
95.47114882569616
 31
0.0
  0
LINE
  5
2E99
330
1F
100
AcDbEntity
  8
太線
100
AcDbLine
 10
247.6414745488584
 20
155.4711488256961
 30
0.0
 11
222.6414745488584
 21
170.4711488256961
 31
0.0
  0
LINE
  5
2E9A
330
1F
100
AcDbEntity
  8
太線
100
AcDbLine
 10
122.2892290350046
 20
2.50022385680918
 30
0.0
 11
182.173488914702
 21
2.500223856809178
 31
0.0
  0
LINE
  5
2E9E
330
1F
100
AcDbEntity
  8
想像線
100
AcDbLine
 10
149.7015140254043
 20
10.50022385680917
 30
0.0
 11
154.7015140254043
 21
10.50022385680917
 31
0.0
  0
LINE
  5
2E9F
330
1F
100
AcDbEntity
  8
想像線
100
AcDbLine
 10
149.7015140254043
 20
4.500223856809178
 30
0.0
 11
154.7015140254043
 21
4.500223856809178
 31
0.0
  0
DIMENSION
  5
2EAC
330
1F
100
AcDbEntity
  8
寸法線
100
AcDbDimension
  2
*D2
 10
225.613231627162
 20
157.0392605799665
 30
0.0
 11
237.0340990927793
 21
176.4868718229443
 31
0.0
 70
   163
 71
     5
 42
5.999999999999971
  3
sunpo
100
AcDbDiametricDimension
 15
228.6516152894217
 25
162.2130623466477
 35
0.0
 40
0.0
1001
ACAD
1000
DSTYLE
1002
{
1070
    40
1040
1.0
1070
   288
1070
     1
1002
}
  0
DIMENSION
  5
2EB8
330
1F
100
AcDbEntity
  8
寸法線
100
AcDbDimension
  2
*D3
 10
222.6414745488584
 20
73.09158372141621
 30
0.0
 11
235.1414745488584
 21
76.59207584740046
 31
0.0
 70
    32
 71
     5
 42
25.0
  3
sunpo
100
AcDbAlignedDimension
 13
247.6414745488584
 23
95.47114882569616
 33
0.0
 14
222.6414745488584
 24
80.47114882569616
 34
0.0
100
AcDbRotatedDimension
1001
ACAD
1000
DSTYLE
1002
{
1070
    40
1040
1.0
1002
}
  0
LINE
  5
2EDE
330
1F
100
AcDbEntity
  8
太線
100
AcDbLine
 10
123.2892290350045
 20
37.50022385680917
 30
0.0
 11
181.173488914702
 21
37.50022385680917
 31
0.0
  0
LINE
  5
2EDF
330
1F
100
AcDbEntity
  8
太線
100
AcDbLine
 10
257.6414745488583
 20
154.4711488256961
 30
0.0
 11
257.6414745488584
 21
96.47114882569619
 31
0.0
  0
DIMENSION
  5
2EE0
330
1F
100
AcDbEntity
  8
寸法線
100
AcDbDimension
  2
*D4
 10
207.235708759272
 20
155.4711488256961
 30
0.0
 11
203.7357087592719
 21
173.3223426761516
 31
0.0
 70
    32
  1
36.0
 71
     5
 42
35.70238770091094
  3
sunpo
100
AcDbAlignedDimension
 13
217.6414745488584
 23
191.1735365266071
 33
0.0
 14
222.6414745488585
 24
155.4711488256961
 34
0.0
 50
90.0
100
AcDbRotatedDimension
1001
ACAD
1000
DSTYLE
1002
{
1070
    40
1040
1.0
1002
}
  0
DIMENSION
  5
2EED
330
1F
100
AcDbEntity
  8
寸法線
100
AcDbDimension
  2
*D5
 10
207.235708759272
 20
95.47114882569619
 30
0.0
 11
203.7357087592719
 21
125.4711488256962
 31
0.0
 70
    32
  1
57.3
 71
     5
 42
59.99999999999999
  3
sunpo
100
AcDbAlignedDimension
 13
222.6414745488585
 23
155.4711488256961
 33
0.0
 14
222.6414745488585
 24
95.47114882569619
 34
0.0
 50
90.0
100
AcDbRotatedDimension
1001
ACAD
1000
DSTYLE
1002
{
1070
    40
1040
1.0
1070
   279
1070
     1
1002
}
  0
DIMENSION
  5
2EFA
330
1F
100
AcDbEntity
  8
寸法線
100
AcDbDimension
  2
*D6
 10
207.2357087592719
 20
59.76876112478523
 30
0.0
 11
203.7357087592719
 21
77.61995497524073
 31
0.0
 70
    32
  1
36.0
 71
     5
 42
35.70238770091096
  3
sunpo
100
AcDbAlignedDimension
 13
222.6414745488585
 23
95.47114882569619
 33
0.0
 14
222.6414745488584
 24
59.76876112478522
 34
0.0
 50
90.0
100
AcDbRotatedDimension
1001
ACAD
1000
DSTYLE
1002
{
1070
    40
1040
1.0
1070
   279
1070
     1
1002
}
  0
ARC
  5
2F32
330
1F
100
AcDbEntity
  8
太線
100
AcDbCircle
 10
123.2892290350045
 20
36.50022385680918
 30
0.0
 40
1.0
100
AcDbArc
 50
90.0
 51
180.0
  0
ARC
  5
2F33
330
1F
100
AcDbEntity
  8
太線
100
AcDbCircle
 10
181.173488914702
 20
36.50022385680918
 30
0.0
 40
1.0
100
AcDbArc
 50
359.9999999999999
 51
90.0
  0
ARC
  5
2F34
330
1F
100
AcDbEntity
  8
太線
100
AcDbCircle
 10
256.6414745488584
 20
96.47114882569619
 30
0.0
 40
1.0
100
AcDbArc
 50
270.0
 51
0.0
  0
ARC
  5
2F35
330
1F
100
AcDbEntity
  8
太線
100
AcDbCircle
 10
256.6414745488584
 20
154.4711488256961
 30
0.0
 40
1.0
100
AcDbArc
 50
0.0
 51
90.0
  0
DIMENSION
  5
2F36
330
1F
100
AcDbEntity
  8
寸法線
100
AcDbDimension
  2
*D7
 10
273.1957244030247
 20
150.4711488256961
 30
0.0
 11
269.6957244030247
 21
152.9711488256961
 31
0.0
 70
    32
  1
4
 71
     5
 42
5.0
  3
sunpo
100
AcDbAlignedDimension
 13
252.6414745488584
 23
155.4711488256961
 33
0.0
 14
257.6414745488583
 24
150.4711488256961
 34
0.0
 50
90.0
100
AcDbRotatedDimension
1001
ACAD
1000
DSTYLE
1002
{
1070
    40
1040
1.0
1002
}
  0
DIMENSION
  5
2F45
330
1F
100
AcDbEntity
  8
寸法線
100
AcDbDimension
  2
*D8
 10
273.1957244030247
 20
100.5256942802416
 30
0.0
 11
269.6957244030247
 21
125.4984215529689
 31
0.0
 70
    32
  1
49.6
 71
     5
 42
49.94545454545455
  3
sunpo
100
AcDbAlignedDimension
 13
257.6414745488583
 23
150.4711488256961
 33
0.0
 14
257.6414745488584
 24
100.5256942802416
 34
0.0
 50
90.0
100
AcDbRotatedDimension
1001
ACAD
1000
DSTYLE
1002
{
1070
    40
1040
1.0
1070
   279
1070
     1
1002
}
  0
DIMENSION
  5
2F52
330
1F
100
AcDbEntity
  8
寸法線
100
AcDbDimension
  2
*D9
 10
273.1957244030247
 20
95.47114882569616
 30
0.0
 11
269.6957244030247
 21
97.99842155296893
 31
0.0
 70
    32
  1
4
 71
     5
 42
5.054545454545447
  3
sunpo
100
AcDbAlignedDimension
 13
257.6414745488584
 23
100.5256942802416
 33
0.0
 14
256.6414745488584
 24
95.47114882569616
 34
0.0
 50
90.0
100
AcDbRotatedDimension
1001
ACAD
1000
DSTYLE
1002
{
1070
    40
1040
1.0
1070
   279
1070
     1
1002
}
  0
DIMENSION
  5
2F83
330
1F
100
AcDbEntity
  8
寸法線
100
AcDbDimension
  2
*D10
 10
273.1957244030247
 20
80.47114882569614
 30
0.0
 11
269.6957244030247
 21
87.97114882569621
 31
0.0
 70
    32
 71
     5
 42
15.00000000000001
  3
sunpo
100
AcDbAlignedDimension
 13
256.6414745488584
 23
95.47114882569616
 33
0.0
 14
222.6414745488584
 24
80.47114882569616
 34
0.0
 50
90.0
100
AcDbRotatedDimension
1001
ACAD
1000
DSTYLE
1002
{
1070
    40
1040
1.0
1070
   279
1070
     1
1002
}
  0
DIMENSION
  5
2FB4
330
1F
100
AcDbEntity
  8
寸法線
100
AcDbDimension
  2
*D11
 10
154.7015140254043
 20
57.85134556243679
 30
0.0
 11
152.2015140254043
 21
61.35134556243679
 31
0.0
 70
    32
  1
4
 71
     5
 42
5.0
  3
sunpo
100
AcDbAlignedDimension
 13
149.7015140254043
 23
27.50022385680917
 33
0.0
 14
154.7015140254043
 24
27.50022385680917
 34
0.0
100
AcDbRotatedDimension
1001
ACAD
1000
DSTYLE
1002
{
1070
    40
1040
1.0
1002
}
  0
DIMENSION
  5
3003
330
1F
100
AcDbEntity
  8
寸法線
100
AcDbDimension
  2
*D12
 10
193.5250110276126
 20
2.716382420576676
 30
0.0
 11
190.0250110276126
 21
0.0424077954427002
 31
0.0
 70
    32
  1
4
 71
     5
 42
5.347949250268015
  3
sunpo
100
AcDbAlignedDimension
 13
186.8387382680546
 23
-2.631566829691337
 33
0.0
 14
186.8387382680546
 24
2.716382420576678
 34
0.0
 50
90.0
100
AcDbRotatedDimension
1001
ACAD
1000
DSTYLE
1002
{
1070
    40
1040
1.0
1002
}
  0
DIMENSION
  5
3012
330
1F
100
AcDbEntity
  8
寸法線
100
AcDbDimension
  2
*D13
 10
193.5250110276126
 20
37.47805316860058
 30
0.0
 11
190.0250110276126
 21
20.09721779458866
 31
0.0
 70
    32
  1
35
 71
     5
 42
34.7616707480239
  3
sunpo
100
AcDbAlignedDimension
 13
186.8387382680546
 23
2.716382420576678
 33
0.0
 14
191.7420052484817
 24
37.47805316860058
 34
0.0
 50
90.0
100
AcDbRotatedDimension
1001
ACAD
1000
DSTYLE
1002
{
1070
    40
1040
1.0
1070
   279
1070
     1
1002
}
  0
CIRCLE
  5
303C
330
1F
100
AcDbEntity
  8
太線
100
AcDbCircle
 10
84.801100569666
 20
165.4989880911567
 30
0.0
 40
2.0
  0
CIRCLE
  5
303D
330
1F
100
AcDbEntity
  8
太線
100
AcDbCircle
 10
59.7633197314035
 20
165.4989880911567
 30
0.0
 40
2.0
  0
CIRCLE
  5
303E
330
1F
100
AcDbEntity
  8
太線
100
AcDbCircle
 10
59.7633197314035
 20
86.22115021485024
 30
0.0
 40
2.0
  0
CIRCLE
  5
303F
330
1F
100
AcDbEntity
  8
太線
100
AcDbCircle
 10
84.801100569666
 20
86.22115021485024
 30
0.0
 40
2.0
  0
DIMENSION
  5
3051
330
1F
100
AcDbEntity
  8
寸法線
100
AcDbDimension
  2
*D14
 10
82.83648983540119
 20
165.1244154509233
 30
0.0
 11
110.06821440827
 21
170.3164154708085
 31
0.0
 70
   163
 71
     5
 42
3.999999999999985
  3
sunpo
100
AcDbDiametricDimension
 15
86.76571130393082
 25
165.8735607313902
 35
0.0
 40
0.0
1001
ACAD
1000
DSTYLE
1002
{
1070
    40
1040
1.0
1070
   288
1070
     1
1002
}
  0
ARC
  5
3072
330
1F
100
AcDbEntity
  8
太線
100
AcDbCircle
 10
72.48096205962965
 20
181.3909983675974
 30
0.0
 40
5.5
100
AcDbArc
 50
350.9961239264021
 51
188.2624186459485
  0
ARC
  5
3073
330
1F
100
AcDbEntity
  8
太線
100
AcDbCircle
 10
72.48096205962965
 20
176.1641958665932
 30
0.0
 40
5.5
100
AcDbArc
 50
168.2511872771202
 51
9.003876073597814
  0
LINE
  5
3074
330
1F
100
AcDbEntity
  8
太線
100
AcDbLine
 10
67.11828337069528
 20
176.0237244029864
 30
0.0
 11
67.01140318973955
 21
182.1207142184631
 31
0.0
  0
LINE
  5
3075
330
1F
100
AcDbEntity
  8
太線
100
AcDbLine
 10
77.91318971490682
 20
175.9702415500697
 30
0.0
 11
77.91318971490682
 21
181.8533021270965
 31
0.0
  0
DIMENSION
  5
3076
330
1F
100
AcDbEntity
  8
寸法線
100
AcDbDimension
  2
*D15
 10
78.16144759594909
 20
195.6168260510305
 30
0.0
 11
72.73929710204095
 21
199.1173181770147
 31
0.0
 70
    32
  1
12
 71
     5
 42
10.84430098781626
  3
sunpo
100
AcDbAlignedDimension
 13
67.31714660813281
 23
178.3822303826463
 33
0.0
 14
78.16144759594909
 24
178.1360215387644
 34
0.0
100
AcDbRotatedDimension
1001
ACAD
1000
DSTYLE
1002
{
1070
    40
1040
1.0
1002
}
  0
ARC
  5
308D
330
1F
100
AcDbEntity
  8
太線
100
AcDbCircle
 10
72.48096205962965
 20
74.29029737260242
 30
0.0
 40
5.5
100
AcDbArc
 50
350.9961239264021
 51
188.2624186459485
  0
ARC
  5
308E
330
1F
100
AcDbEntity
  8
太線
100
AcDbCircle
 10
72.48096205962965
 20
69.06349487159826
 30
0.0
 40
5.5
100
AcDbArc
 50
168.2511872771202
 51
9.003876073597814
  0
LINE
  5
308F
330
1F
100
AcDbEntity
  8
太線
100
AcDbLine
 10
67.11828337069528
 20
68.92302340799142
 30
0.0
 11
67.01140318973955
 21
75.02001322346814
 31
0.0
  0
LINE
  5
3090
330
1F
100
AcDbEntity
  8
太線
100
AcDbLine
 10
77.91318971490682
 20
68.86954055507477
 30
0.0
 11
77.91318971490682
 21
74.75260113210151
 31
0.0
  0
DIMENSION
  5
30A2
330
1F
100
AcDbEntity
  8
寸法線
100
AcDbDimension
  2
*D16
 10
41.08405157757306
 20
170.630230851239
 30
0.0
 11
37.58405157757304
 21
178.5137584870266
 31
0.0
 70
    32
  1
15
 71
     5
 42
15.76705527157514
  3
sunpo
100
AcDbAlignedDimension
 13
67.97883884714361
 23
186.3972861228141
 33
0.0
 14
68.64565208627164
 24
170.630230851239
 34
0.0
 50
90.0
100
AcDbRotatedDimension
1001
ACAD
1000
DSTYLE
1002
{
1070
    40
1040
1.0
1002
}
  0
LINE
  5
30C5
330
1F
100
AcDbEntity
  8
想像線
100
AcDbLine
 10
222.6414745488584
 20
150.4711488256961
 30
0.0
 11
217.6414745488584
 21
150.4711488256961
 31
0.0
  0
LINE
  5
30C6
330
1F
100
AcDbEntity
  8
想像線
100
AcDbLine
 10
217.6414745488584
 20
100.4711488256961
 30
0.0
 11
222.6414745488584
 21
100.6211488256961
 31
0.0
  0
LINE
  5
30CE
330
1F
100
AcDbEntity
  8
想像線
100
AcDbLine
 10
177.023488914702
 20
2.500223856809178
 30
0.0
 11
177.023488914702
 21
-2.64977614319082
 31
0.0
  0
LINE
  5
30CF
330
1F
100
AcDbEntity
  8
想像線
100
AcDbLine
 10
127.4392290350046
 20
2.500223856809178
 30
0.0
 11
127.4392290350046
 21
-2.64977614319082
 31
0.0
  0
DIMENSION
  5
318D
330
1F
100
AcDbEntity
  8
寸法線
100
AcDbDimension
  2
*D17
 10
133.0392240228064
 20
178.8902898239705
 30
0.0
 11
129.5392240228064
 21
185.0055207485496
 31
0.0
 70
    32
  1
11
 71
     5
 42
12.23046184915813
  3
sunpo
100
AcDbAlignedDimension
 13
80.11182323377306
 23
191.1207516731286
 33
0.0
 14
80.11182323377306
 24
178.8902898239705
 34
0.0
 50
90.0
100
AcDbRotatedDimension
1001
ACAD
1000
DSTYLE
1002
{
1070
    40
1040
1.0
1002
}
  0
DIMENSION
  5
319B
330
1F
100
AcDbEntity
  8
寸法線
100
AcDbDimension
  2
*D18
 10
133.0392240228064
 20
70.97445267730186
 30
0.0
 11
129.5392240228064
 21
124.9323712506362
 31
0.0
 70
    32
  1
107.3
 71
     5
 42
107.9158371466686
  3
sunpo
100
AcDbAlignedDimension
 13
80.11182323377306
 23
178.8902898239705
 33
0.0
 14
72.55076655539745
 24
70.97445267730188
 34
0.0
 50
90.0
100
AcDbRotatedDimension
1001
ACAD
1000
DSTYLE
1002
{
1070
    40
1040
1.0
1070
   279
1070
     1
1002
}
  0
DIMENSION
  5
31A8
330
1F
100
AcDbEntity
  8
寸法線
100
AcDbDimension
  2
*D19
 10
133.0392240228064
 20
59.82314971576441
 30
0.0
 11
129.5392240228064
 21
65.39880119653315
 31
0.0
 70
    32
  1
11
 71
     5
 42
11.15130296153745
  3
sunpo
100
AcDbAlignedDimension
 13
72.55076655539745
 23
70.97445267730188
 33
0.0
 14
73.27086656613255
 24
59.82314971576442
 34
0.0
 50
90.0
100
AcDbRotatedDimension
1001
ACAD
1000
DSTYLE
1002
{
1070
    40
1040
1.0
1070
   279
1070
     1
1002
}
  0
DIMENSION
  5
31F4
330
1F
100
AcDbEntity
  8
寸法線
100
AcDbDimension
  2
*D20
 10
215.0754232259127
 20
100.4163300421906
 30
0.0
 11
211.5754232259126
 21
125.4545447525529
 31
0.0
 70
    32
  1
49.6
 71
     5
 42
50.07642942072449
  3
sunpo
100
AcDbAlignedDimension
 13
217.2706391756349
 23
150.4927594629151
 33
0.0
 14
217.2706391756349
 24
100.4163300421906
 34
0.0
 50
90.0
100
AcDbRotatedDimension
1001
ACAD
1000
DSTYLE
1002
{
1070
    40
1040
1.0
1002
}
  0
DIMENSION
  5
320E
330
1F
100
AcDbEntity
  8
寸法線
100
AcDbDimension
  2
*D21
 10
236.6617143372867
 20
100.7818511597481
 30
0.0
 11
233.1617143372867
 21
125.6373053113317
 31
0.0
 70
    32
  1
49.3
 71
     5
 42
49.710908303167
  3
sunpo
100
AcDbAlignedDimension
 13
237.0275838500611
 23
150.4927594629151
 33
0.0
 14
237.0275838500611
 24
100.7818511597481
 34
0.0
 50
90.0
100
AcDbRotatedDimension
1001
ACAD
1000
DSTYLE
1002
{
1070
    40
1040
1.0
1002
}
  0
TEXT
  5
323B
330
1F
100
AcDbEntity
  8
文字
100
AcDbText
 10
222.0209131885835
 20
18.26690694831145
 30
0.0
 40
4.799999999999999
  1
注記　内面バリは最小限にする
 51
15.0
  7
OKANO
100
AcDbText
  0
TEXT
  5
3248
330
1F
100
AcDbEntity
  8
文字
100
AcDbText
 10
275.8656573067646
 20
-8.925243831278045
 30
0.0
 40
4.799999999999999
  1
JAN 4562182301109
 51
15.0
  7
OKANO
100
AcDbText
  0
XLINE
  5
3251
330
1F
100
AcDbEntity
  8
構築線
100
AcDbXline
 10
152.2909434421117
 20
27.62588572319112
 30
0.0
 11
0.0
 21
-1.0
 31
0.0
  0
VIEWPORT
  5
2E
330
1B
100
AcDbEntity
 67
     1
  8
0
100
AcDbViewport
 10
172.7655348232895
 20
101.8250000476837
 30
0.0
 40
463.744832214765
 41
222.1799999999999
 68
     2
 69
     1
 12
172.7655348232895
 22
101.8250000476837
 13
0.0
 23
0.0
 14
10.0
 24
10.0
 15
10.0
 25
10.0
 16
0.0
 26
0.0
 36
1.0
 17
0.0
 27
0.0
 37
0.0
 42
50.0
 43
0.0
 44
0.0
 45
222.1799999999999
 50
0.0
 51
0.0
 72
   100
 90
    32800
  1

281
     0
 71
     1
 74
     0
110
0.0
120
0.0
130
0.0
111
1.0
121
0.0
131
0.0
112
0.0
122
1.0
132
0.0
 79
     0
146
0.0
  0
VIEWPORT
  5
30
330
1B
100
AcDbEntity
 67
     1
  8
70-0-CON
100
AcDbViewport
 10
141.8594093064315
 20
100.3480256368386
 30
0.0
 40
261.6199023344245
 41
192.6196987113174
 68
     1
 69
     2
 12
176.8909556383847
 22
86.76935507865641
 13
0.0
 23
0.0
 14
5.0
 24
5.0
 15
10.0
 25
10.0
 16
0.0
 26
0.0
 36
1.0
 17
0.0
 27
0.0
 37
0.0
 42
50.0
 43
0.0
 44
0.0
 45
277.3988406415733
 50
0.0
 51
0.0
 72
   100
 90
    32864
  1

281
     0
 71
     1
 74
     0
110
0.0
120
0.0
130
0.0
111
1.0
121
0.0
131
0.0
112
0.0
122
1.0
132
0.0
 79
     0
146
0.0
  0
LWPOLYLINE
  5
45
330
1B
100
AcDbEntity
 67
     1
  8
50-0-CON
100
AcDbPolyline
 90
        4
 70
     1
 43
0.0
 10
11.04945813921926
 20
4.038176281179858
 10
272.2125713060605
 20
4.033520706629644
 10
273.4987754093466
 20
195.9297862125246
 10
11.04945813921926
 20
196.6578749924973
  0
LINE
  5
4A
330
1B
100
AcDbEntity
 67
     1
  8
50-0-CON
100
AcDbLine
 10
10.38768783662635
 20
100.3480256368386
 30
0.0
 11
-4.391850629656119
 21
100.3480256368386
 31
0.0
  0
LINE
  5
4B
330
1B
100
AcDbEntity
 67
     1
  8
50-0-CON
100
AcDbLine
 10
141.8594093064315
 20
197.098652626247
 30
0.0
 11
141.8594093064315
 21
202.387980773708
 31
0.0
  0
LINE
  5
4C
330
1B
100
AcDbEntity
 67
     1
  8
50-0-CON
100
AcDbLine
 10
272.4487699456857
 20
100.7888032705883
 30
0.0
 11
278.8458837249377
 21
100.7888032705883
 31
0.0
  0
LINE
  5
4D
330
1B
100
AcDbEntity
 67
     1
  8
50-0-CON
100
AcDbLine
 10
140.9770484758805
 20
4.038176281179858
 30
0.0
 11
140.9770484758805
 21
-3.455038652015446
 31
0.0
  0
ENDSEC
  0
SECTION
  2
OBJECTS
  0
DICTIONARY
  5
C
330
0
100
AcDbDictionary
281
     1
  3
ACAD_GROUP
350
D
  3
ACAD_LAYOUT
350
1A
  3
ACAD_MLINESTYLE
350
17
  3
ACAD_PLOTSETTINGS
350
19
  3
ACAD_PLOTSTYLENAME
350
E
  3
AcadDim
350
13D0
  3
AcDbVariableDictionary
350
6AD
  3
DWGPROPS
350
30F
  0
DICTIONARY
  5
D
102
{ACAD_REACTORS
330
C
102
}
330
C
100
AcDbDictionary
281
     1
  0
DICTIONARY
  5
1A
102
{ACAD_REACTORS
330
C
102
}
330
C
100
AcDbDictionary
281
     1
  3
A4
350
1E
  3
Model
350
22
  0
DICTIONARY
  5
17
102
{ACAD_REACTORS
330
C
102
}
330
C
100
AcDbDictionary
281
     1
  3
Standard
350
18
  0
DICTIONARY
  5
19
102
{ACAD_REACTORS
330
C
102
}
330
C
100
AcDbDictionary
281
     1
  0
ACDBDICTIONARYWDFLT
  5
E
102
{ACAD_REACTORS
330
C
102
}
330
C
100
AcDbDictionary
281
     1
  3
Normal
350
F
100
AcDbDictionaryWithDefault
340
F
  0
XRECORD
  5
13D0
102
{ACAD_REACTORS
330
C
102
}
330
C
100
AcDbXrecord
280
     1
 90
   990106
  3

 60
     0
 61
     0
 62
     1
 63
     3
 64
     0
 65
     0
 66
     0
 67
     3
 68
     1
 69
     0
 70
     0
 71
     0
 72
     0
 40
0.0
170
     0
340
0
  0
DICTIONARY
  5
6AD
102
{ACAD_REACTORS
330
C
102
}
330
C
100
AcDbDictionary
281
     1
  3
SORTENTS
350
6AE
  0
XRECORD
  5
30F
102
{ACAD_REACTORS
330
C
102
}
330
C
100
AcDbXrecord
280
     1
  1
DWGPROPS COOKIE
  2

  3

  4

  6

  7

  8

  9

300
=
301
=
302
=
303
=
304
=
305
=
306
=
307
=
308
=
309
=
 40
0.3303803125
 41
2452362.482225463
 42
2452370.969861285
  1

 90
        0
  0
LAYOUT
  5
1E
102
{ACAD_REACTORS
330
1A
102
}
330
1A
100
AcDbPlotSettings
  1

  2
EPSON PM-920C
  4
A4
  6

 40
3.174999952316284
 41
3.174999952316284
 42
3.175003051757812
 43
3.17498779296875
 44
210.0
 45
297.0
 46
0.0
 47
0.0
 48
0.0
 49
0.0
140
0.0
141
0.0
142
1.0
143
1.0
 70
   688
 72
     1
 73
     1
 74
     5
  7
joint.ctb
 75
    16
147
1.0
148
0.0
149
0.0
100
AcDbLayout
  1
A4
 70
     1
 71
     1
 10
-3.17498779296875
 20
-3.174999952316284
 11
293.8250122070312
 21
206.8250000476837
 12
0.0
 22
0.0
 32
0.0
 14
-4.391850629656119
 24
-3.455038652015446
 34
0.0
 15
278.8458837249377
 25
202.387980773708
 35
0.0
146
0.0
 13
0.0
 23
0.0
 33
0.0
 16
1.0
 26
0.0
 36
0.0
 17
0.0
 27
1.0
 37
0.0
 76
     0
330
1B
331
30
  0
LAYOUT
  5
22
102
{ACAD_REACTORS
330
1A
102
}
330
1A
100
AcDbPlotSettings
  1

  2
EPSON PM-920C
  4
A4
  6

 40
3.757083177566528
 41
14.7637300491333
 42
3.757080078125
 43
3.757080078125
 44
209.9733276367187
 45
296.9683227539062
 46
0.0
 47
0.0
 48
0.0
 49
0.0
140
0.0
141
0.0
142
1.0
143
1.0
 70
 11952
 72
     1
 73
     1
 74
     0
  7

 75
     0
147
1.0
148
-45.64199848979289
149
-84.48806419330498
100
AcDbLayout
  1
Model
 70
     1
 71
     0
 10
0.0
 20
0.0
 11
12.0
 21
9.0
 12
0.0
 22
0.0
 32
0.0
 14
0.0
 24
0.0
 34
0.0
 15
0.0
 25
0.0
 35
0.0
146
0.0
 13
0.0
 23
0.0
 33
0.0
 16
1.0
 26
0.0
 36
0.0
 17
0.0
 27
1.0
 37
0.0
 76
     0
330
1F
  0
MLINESTYLE
  5
18
102
{ACAD_REACTORS
330
17
102
}
330
17
100
AcDbMlineStyle
  2
STANDARD
 70
     0
  3

 62
   256
 51
90.0
 52
90.0
 71
     2
 49
0.5
 62
   256
  6
BYLAYER
 49
-0.5
 62
   256
  6
BYLAYER
  0
ACDBPLACEHOLDER
  5
F
102
{ACAD_REACTORS
330
E
102
}
330
E
  0
DICTIONARYVAR
  5
6AE
102
{ACAD_REACTORS
330
6AD
102
}
330
6AD
100
DictionaryVariables
280
     0
  1
96
  0
ENDSEC
  0
EOF
