  0
SECTION
  2
HEADER
  9
$ACADVER
  1
AC1015
  9
$ACADMAINTVER
 70
     6
  9
$DWGCODEPAGE
  3
ANSI_932
  9
$INSBASE
 10
0.0
 20
0.0
 30
0.0
  9
$EXTMIN
 10
27.85661639594512
 20
-6.750747223656389
 30
0.0
  9
$EXTMAX
 10
324.4769407644665
 20
236.2831088907051
 30
0.0
  9
$LIMMIN
 10
0.0
 20
0.0
  9
$LIMMAX
 10
420.0
 20
297.0
  9
$ORTHOMODE
 70
     1
  9
$REGENMODE
 70
     1
  9
$FILLMODE
 70
     1
  9
$QTEXTMODE
 70
     0
  9
$MIRRTEXT
 70
     1
  9
$LTSCALE
 40
1.0
  9
$ATTMODE
 70
     1
  9
$TEXTSIZE
 40
5.0
  9
$TRACEWID
 40
1.0
  9
$TEXTSTYLE
  7
OKANO
  9
$CLAYER
  8
太線
  9
$CELTYPE
  6
ByLayer
  9
$CECOLOR
 62
   256
  9
$CELTSCALE
 40
1.0
  9
$DISPSILH
 70
     0
  9
$DIMSCALE
 40
0.0
  9
$DIMASZ
 40
3.0
  9
$DIMEXO
 40
2.0
  9
$DIMDLI
 40
8.0
  9
$DIMRND
 40
0.0
  9
$DIMDLE
 40
0.0
  9
$DIMEXE
 40
3.0
  9
$DIMTP
 40
0.0
  9
$DIMTM
 40
0.0
  9
$DIMTXT
 40
5.0
  9
$DIMCEN
 40
2.5
  9
$DIMTSZ
 40
0.0
  9
$DIMTOL
 70
     0
  9
$DIMLIM
 70
     0
  9
$DIMTIH
 70
     0
  9
$DIMTOH
 70
     0
  9
$DIMSE1
 70
     0
  9
$DIMSE2
 70
     0
  9
$DIMTAD
 70
     1
  9
$DIMZIN
 70
     8
  9
$DIMBLK
  1
Closed
  9
$DIMASO
 70
     1
  9
$DIMSHO
 70
     1
  9
$DIMPOST
  1

  9
$DIMAPOST
  1

  9
$DIMALT
 70
     0
  9
$DIMALTD
 70
     3
  9
$DIMALTF
 40
0.03937007874016
  9
$DIMLFAC
 40
1.0
  9
$DIMTOFL
 70
     1
  9
$DIMTVP
 40
0.0
  9
$DIMTIX
 70
     0
  9
$DIMSOXD
 70
     0
  9
$DIMSAH
 70
     0
  9
$DIMBLK1
  1

  9
$DIMBLK2
  1

  9
$DIMSTYLE
  2
sunpo
  9
$DIMCLRD
 70
     0
  9
$DIMCLRE
 70
     0
  9
$DIMCLRT
 70
     0
  9
$DIMTFAC
 40
1.0
  9
$DIMGAP
 40
1.0
  9
$DIMJUST
 70
     0
  9
$DIMSD1
 70
     0
  9
$DIMSD2
 70
     0
  9
$DIMTOLJ
 70
     0
  9
$DIMTZIN
 70
     8
  9
$DIMALTZ
 70
     0
  9
$DIMALTTZ
 70
     0
  9
$DIMUPT
 70
     0
  9
$DIMDEC
 70
     2
  9
$DIMTDEC
 70
     2
  9
$DIMALTU
 70
     2
  9
$DIMALTTD
 70
     3
  9
$DIMTXSTY
  7
OKANO
  9
$DIMAUNIT
 70
     0
  9
$DIMADEC
 70
     0
  9
$DIMALTRND
 40
0.0
  9
$DIMAZIN
 70
     0
  9
$DIMDSEP
 70
    46
  9
$DIMATFIT
 70
     3
  9
$DIMFRAC
 70
     0
  9
$DIMLDRBLK
  1
Closed
  9
$DIMLUNIT
 70
     2
  9
$DIMLWD
 70
    -2
  9
$DIMLWE
 70
    -2
  9
$DIMTMOVE
 70
     0
  9
$LUNITS
 70
     2
  9
$LUPREC
 70
     2
  9
$SKETCHINC
 40
1.0
  9
$FILLETRAD
 40
0.5
  9
$AUNITS
 70
     0
  9
$AUPREC
 70
     0
  9
$MENU
  1
.
  9
$ELEVATION
 40
0.0
  9
$PELEVATION
 40
0.0
  9
$THICKNESS
 40
0.0
  9
$LIMCHECK
 70
     0
  9
$CHAMFERA
 40
10.0
  9
$CHAMFERB
 40
10.0
  9
$CHAMFERC
 40
20.0
  9
$CHAMFERD
 40
0.0
  9
$SKPOLY
 70
     0
  9
$TDCREATE
 40
2452362.482225463
  9
$TDUCREATE
 40
2452362.107225463
  9
$TDUPDATE
 40
2455957.577560243
  9
$TDUUPDATE
 40
2455957.202560243
  9
$TDINDWG
 40
2.2276383565
  9
$TDUSRTIMER
 40
2.2276383565
  9
$USRTIMER
 70
     1
  9
$ANGBASE
 50
0.0
  9
$ANGDIR
 70
     0
  9
$PDMODE
 70
     0
  9
$PDSIZE
 40
0.0
  9
$PLINEWID
 40
0.0
  9
$SPLFRAME
 70
     0
  9
$SPLINETYPE
 70
     6
  9
$SPLINESEGS
 70
     8
  9
$HANDSEED
  5
31E5
  9
$SURFTAB1
 70
     6
  9
$SURFTAB2
 70
     6
  9
$SURFTYPE
 70
     6
  9
$SURFU
 70
     6
  9
$SURFV
 70
     6
  9
$UCSBASE
  2

  9
$UCSNAME
  2

  9
$UCSORG
 10
0.0
 20
0.0
 30
0.0
  9
$UCSXDIR
 10
1.0
 20
0.0
 30
0.0
  9
$UCSYDIR
 10
0.0
 20
1.0
 30
0.0
  9
$UCSORTHOREF
  2

  9
$UCSORTHOVIEW
 70
     0
  9
$UCSORGTOP
 10
0.0
 20
0.0
 30
0.0
  9
$UCSORGBOTTOM
 10
0.0
 20
0.0
 30
0.0
  9
$UCSORGLEFT
 10
0.0
 20
0.0
 30
0.0
  9
$UCSORGRIGHT
 10
0.0
 20
0.0
 30
0.0
  9
$UCSORGFRONT
 10
0.0
 20
0.0
 30
0.0
  9
$UCSORGBACK
 10
0.0
 20
0.0
 30
0.0
  9
$PUCSBASE
  2

  9
$PUCSNAME
  2

  9
$PUCSORG
 10
0.0
 20
0.0
 30
0.0
  9
$PUCSXDIR
 10
1.0
 20
0.0
 30
0.0
  9
$PUCSYDIR
 10
0.0
 20
1.0
 30
0.0
  9
$PUCSORTHOREF
  2

  9
$PUCSORTHOVIEW
 70
     0
  9
$PUCSORGTOP
 10
0.0
 20
0.0
 30
0.0
  9
$PUCSORGBOTTOM
 10
0.0
 20
0.0
 30
0.0
  9
$PUCSORGLEFT
 10
0.0
 20
0.0
 30
0.0
  9
$PUCSORGRIGHT
 10
0.0
 20
0.0
 30
0.0
  9
$PUCSORGFRONT
 10
0.0
 20
0.0
 30
0.0
  9
$PUCSORGBACK
 10
0.0
 20
0.0
 30
0.0
  9
$USERI1
 70
     0
  9
$USERI2
 70
     0
  9
$USERI3
 70
     0
  9
$USERI4
 70
     0
  9
$USERI5
 70
     0
  9
$USERR1
 40
0.0
  9
$USERR2
 40
0.0
  9
$USERR3
 40
0.0
  9
$USERR4
 40
0.0
  9
$USERR5
 40
0.0
  9
$WORLDVIEW
 70
     1
  9
$SHADEDGE
 70
     3
  9
$SHADEDIF
 70
    70
  9
$TILEMODE
 70
     0
  9
$MAXACTVP
 70
    64
  9
$PINSBASE
 10
0.0
 20
0.0
 30
0.0
  9
$PLIMCHECK
 70
     0
  9
$PEXTMIN
 10
-4.391850629656119
 20
-3.455038652015446
 30
0.0
  9
$PEXTMAX
 10
278.8458837249377
 20
202.387980773708
 30
0.0
  9
$PLIMMIN
 10
-3.757080078125
 20
-3.757083177566528
  9
$PLIMMAX
 10
293.2112426757812
 20
206.2162444591522
  9
$UNITMODE
 70
     0
  9
$VISRETAIN
 70
     1
  9
$PLINEGEN
 70
     0
  9
$PSLTSCALE
 70
     1
  9
$TREEDEPTH
 70
  3020
  9
$CMLSTYLE
  2
Standard
  9
$CMLJUST
 70
     0
  9
$CMLSCALE
 40
20.0
  9
$PROXYGRAPHICS
 70
     1
  9
$MEASUREMENT
 70
     1
  9
$CELWEIGHT
370
    -1
  9
$ENDCAPS
280
     0
  9
$JOINSTYLE
280
     0
  9
$LWDISPLAY
290
     0
  9
$INSUNITS
 70
     4
  9
$HYPERLINKBASE
  1

  9
$STYLESHEET
  1

  9
$XEDIT
290
     1
  9
$CEPSNTYPE
380
     0
  9
$PSTYLEMODE
290
     1
  9
$FINGERPRINTGUID
  2
{FF7F33C3-4233-11D6-AEE0-0000F45FD7F4}
  9
$VERSIONGUID
  2
{187F43D8-E059-447E-B44F-77F37F5C5F9F}
  9
$EXTNAMES
290
     1
  9
$PSVPSCALE
 40
0.0
  9
$OLESTARTUP
290
     0
  0
ENDSEC
  0
SECTION
  2
CLASSES
  0
CLASS
  1
ACDBDICTIONARYWDFLT
  2
AcDbDictionaryWithDefault
  3
AutoCAD 2000
 90
        0
280
     0
281
     0
  0
CLASS
  1
ACDBPLACEHOLDER
  2
AcDbPlaceHolder
  3
AutoCAD 2000
 90
        0
280
     0
281
     0
  0
CLASS
  1
LAYOUT
  2
AcDbLayout
  3
AutoCAD 2000
 90
        0
280
     0
281
     0
  0
CLASS
  1
DICTIONARYVAR
  2
AcDbDictionaryVar
  3
AutoCAD 2000
 90
        0
280
     0
281
     0
  0
ENDSEC
  0
SECTION
  2
TABLES
  0
TABLE
  2
VPORT
  5
8
330
0
100
AcDbSymbolTable
 70
     2
  0
VPORT
  5
31E4
330
8
100
AcDbSymbolTableRecord
100
AcDbViewportTableRecord
  2
*Active
 70
     0
 10
0.0
 20
0.0
 11
1.0
 21
1.0
 12
166.052310589805
 22
158.3083208091651
 13
0.0
 23
0.0
 14
5.0
 24
5.0
 15
10.0
 25
10.0
 16
0.0
 26
0.0
 36
1.0
 17
0.0
 27
0.0
 37
0.0
 40
249.7499175214114
 41
2.08724832214765
 42
50.0
 43
0.0
 44
0.0
 50
0.0
 51
0.0
 71
     0
 72
   100
 73
     1
 74
     3
 75
     0
 76
     0
 77
     0
 78
     0
281
     0
 65
     1
110
0.0
120
0.0
130
0.0
111
1.0
121
0.0
131
0.0
112
0.0
122
1.0
132
0.0
 79
     0
146
0.0
  0
ENDTAB
  0
TABLE
  2
LTYPE
  5
5
330
0
100
AcDbSymbolTable
 70
     5
  0
LTYPE
  5
14
330
5
100
AcDbSymbolTableRecord
100
AcDbLinetypeTableRecord
  2
ByBlock
 70
     0
  3

 72
    65
 73
     0
 40
0.0
  0
LTYPE
  5
15
330
5
100
AcDbSymbolTableRecord
100
AcDbLinetypeTableRecord
  2
ByLayer
 70
     0
  3

 72
    65
 73
     0
 40
0.0
  0
LTYPE
  5
16
330
5
100
AcDbSymbolTableRecord
100
AcDbLinetypeTableRecord
  2
Continuous
 70
     0
  3
Solid line
 72
    65
 73
     0
 40
0.0
  0
LTYPE
  5
33
330
5
100
AcDbSymbolTableRecord
100
AcDbLinetypeTableRecord
  2
DASHED2
 70
     0
  3
Dashed (.5x) _ _ _ _ _ _ _ _ _ _ _ _ _ _ _ _ _
 72
    65
 73
     2
 40
9.524999999999998
 49
6.349999999999999
 74
     0
 49
-3.174999999999999
 74
     0
  0
LTYPE
  5
34
330
5
100
AcDbSymbolTableRecord
100
AcDbLinetypeTableRecord
  2
CENTER2
 70
     0
  3
Center (.5x) ___ _ ___ _ ___ _ ___ _ ___ _ ___
 72
    65
 73
     4
 40
28.57499999999999
 49
19.05
 74
     0
 49
-3.174999999999999
 74
     0
 49
3.174999999999999
 74
     0
 49
-3.174999999999999
 74
     0
  0
LTYPE
  5
35
330
5
100
AcDbSymbolTableRecord
100
AcDbLinetypeTableRecord
  2
PHANTOM2
 70
     0
  3
Phantom (.5x) ___ _ _ ___ _ _ ___ _ _ ___ _ _
 72
    65
 73
     6
 40
31.75
 49
15.875
 74
     0
 49
-3.174999999999999
 74
     0
 49
3.174999999999999
 74
     0
 49
-3.174999999999999
 74
     0
 49
3.174999999999999
 74
     0
 49
-3.174999999999999
 74
     0
  0
LTYPE
  5
36
330
5
100
AcDbSymbolTableRecord
100
AcDbLinetypeTableRecord
  2
HIDDEN2
 70
     0
  3
Hidden (.5x) _ _ _ _ _ _ _ _ _ _ _ _ _ _ _ _ _
 72
    65
 73
     2
 40
4.762499999999999
 49
3.174999999999999
 74
     0
 49
-1.587499999999999
 74
     0
  0
ENDTAB
  0
TABLE
  2
LAYER
  5
2
330
0
100
AcDbSymbolTable
 70
    13
  0
LAYER
  5
10
330
2
100
AcDbSymbolTableRecord
100
AcDbLayerTableRecord
  2
0
 70
     0
 62
     7
  6
Continuous
370
    -3
390
F
  0
LAYER
  5
40
330
2
100
AcDbSymbolTableRecord
100
AcDbLayerTableRecord
  2
50-0-CON
 70
     0
 62
     4
  6
Continuous
370
    50
390
F
  0
LAYER
  5
41
330
2
100
AcDbSymbolTableRecord
100
AcDbLayerTableRecord
  2
70-0-CON
 70
     0
 62
   202
  6
Continuous
370
    70
390
F
  0
LAYER
  5
4E
330
2
100
AcDbSymbolTableRecord
100
AcDbLayerTableRecord
  2
極太線
 70
     0
 62
     7
  6
Continuous
370
    70
390
F
  0
LAYER
  5
4F
330
2
100
AcDbSymbolTableRecord
100
AcDbLayerTableRecord
  2
細線
 70
     0
 62
     8
  6
Continuous
370
    18
390
F
  0
LAYER
  5
AB
330
2
100
AcDbSymbolTableRecord
100
AcDbLayerTableRecord
  2
構築線
 70
     0
 62
    -2
  6
Continuous
290
     0
370
    18
390
F
  0
LAYER
  5
B8
330
2
100
AcDbSymbolTableRecord
100
AcDbLayerTableRecord
  2
太線
 70
     0
 62
     7
  6
Continuous
370
    35
390
F
  0
LAYER
  5
B9
330
2
100
AcDbSymbolTableRecord
100
AcDbLayerTableRecord
  2
寸法線
 70
     0
 62
     5
  6
Continuous
370
    18
390
F
  0
LAYER
  5
BA
330
2
100
AcDbSymbolTableRecord
100
AcDbLayerTableRecord
  2
破線
 70
     0
 62
     8
  6
HIDDEN2
370
    18
390
F
  0
LAYER
  5
BB
330
2
100
AcDbSymbolTableRecord
100
AcDbLayerTableRecord
  2
中心線
 70
     0
 62
     1
  6
CENTER2
370
    18
390
F
  0
LAYER
  5
BC
330
2
100
AcDbSymbolTableRecord
100
AcDbLayerTableRecord
  2
想像線
 70
     0
 62
     8
  6
PHANTOM2
370
    18
390
F
  0
LAYER
  5
BD
330
2
100
AcDbSymbolTableRecord
100
AcDbLayerTableRecord
  2
文字
 70
     0
 62
     7
  6
Continuous
370
    18
390
F
  0
LAYER
  5
180
330
2
100
AcDbSymbolTableRecord
100
AcDbLayerTableRecord
  2
Defpoints
 70
     0
 62
     7
  6
Continuous
290
     0
370
    -3
390
F
  0
ENDTAB
  0
TABLE
  2
STYLE
  5
3
330
0
100
AcDbSymbolTable
 70
     3
  0
STYLE
  5
11
330
3
100
AcDbSymbolTableRecord
100
AcDbTextStyleTableRecord
  2
Standard
 70
     0
 40
0.0
 41
1.0
 50
0.0
 71
     0
 42
3.0
  3
txt
  4

  0
STYLE
  5
32
330
3
100
AcDbSymbolTableRecord
100
AcDbTextStyleTableRecord
  2

 70
     1
 40
0.0
 41
1.0
 50
0.0
 71
     0
 42
2.5
  3
ltypeshp.shx
  4

  0
STYLE
  5
50
330
3
100
AcDbSymbolTableRecord
100
AcDbTextStyleTableRecord
  2
OKANO
 70
     0
 40
0.0
 41
1.0
 50
15.0
 71
     0
 42
5.0
  3
isocp.shx
  4
bigfont.shx
  0
ENDTAB
  0
TABLE
  2
VIEW
  5
6
330
0
100
AcDbSymbolTable
 70
     0
  0
ENDTAB
  0
TABLE
  2
UCS
  5
7
330
0
100
AcDbSymbolTable
 70
     0
  0
ENDTAB
  0
TABLE
  2
APPID
  5
9
330
0
100
AcDbSymbolTable
 70
     1
  0
APPID
  5
12
330
9
100
AcDbSymbolTableRecord
100
AcDbRegAppTableRecord
  2
ACAD
 70
     0
  0
ENDTAB
  0
TABLE
  2
DIMSTYLE
  5
A
330
0
100
AcDbSymbolTable
 70
     2
100
AcDbDimStyleTable
 71
     2
340
A2
340
27
  0
DIMSTYLE
105
27
330
A
100
AcDbSymbolTableRecord
100
AcDbDimStyleTableRecord
  2
ISO-25
 70
     0
 41
2.5
 42
0.625
 43
3.75
 44
1.25
 73
     0
 74
     0
 77
     1
 78
     8
140
2.5
141
2.5
143
0.03937007874016
147
0.625
171
     3
172
     1
271
     2
272
     2
274
     3
283
     0
284
     8
340
11
  0
DIMSTYLE
105
A2
102
{ACAD_REACTORS
330
2E07
330
2E14
330
2E21
330
2E30
330
2E3D
102
}
330
A
100
AcDbSymbolTableRecord
100
AcDbDimStyleTableRecord
  2
sunpo
 70
     0
 40
0.0
 41
3.0
 42
2.0
 43
8.0
 44
3.0
 73
     0
 74
     0
 77
     1
 78
     8
140
5.0
141
2.5
143
0.03937007874016
147
1.0
171
     3
172
     1
271
     2
272
     2
274
     3
283
     0
284
     8
340
50
341
9B
342
9B
  0
ENDTAB
  0
TABLE
  2
BLOCK_RECORD
  5
1
330
0
100
AcDbSymbolTable
 70
     8
  0
BLOCK_RECORD
  5
1F
330
1
100
AcDbSymbolTableRecord
100
AcDbBlockTableRecord
  2
*Model_Space
340
22
  0
BLOCK_RECORD
  5
1B
330
1
100
AcDbSymbolTableRecord
100
AcDbBlockTableRecord
  2
*Paper_Space
340
1E
  0
BLOCK_RECORD
  5
9B
330
1
100
AcDbSymbolTableRecord
100
AcDbBlockTableRecord
  2
_Closed
340
0
102
{BLKREFS
331
30EC
331
30ED
331
30F7
331
30F8
331
316A
331
316B
331
319A
331
319B
331
31BE
331
31BF
102
}
  0
BLOCK_RECORD
  5
1510
330
1
100
AcDbSymbolTableRecord
100
AcDbBlockTableRecord
  2
A$C10A573AC
340
0
  0
BLOCK_RECORD
  5
2E08
330
1
100
AcDbSymbolTableRecord
100
AcDbBlockTableRecord
  2
*D2
340
0
  0
BLOCK_RECORD
  5
2E15
330
1
100
AcDbSymbolTableRecord
100
AcDbBlockTableRecord
  2
*D3
340
0
  0
BLOCK_RECORD
  5
2E22
330
1
100
AcDbSymbolTableRecord
100
AcDbBlockTableRecord
  2
*D4
340
0
  0
BLOCK_RECORD
  5
2E31
330
1
100
AcDbSymbolTableRecord
100
AcDbBlockTableRecord
  2
*D5
340
0
  0
BLOCK_RECORD
  5
2E3E
330
1
100
AcDbSymbolTableRecord
100
AcDbBlockTableRecord
  2
*D6
340
0
  0
BLOCK_RECORD
  5
3080
330
1
100
AcDbSymbolTableRecord
100
AcDbBlockTableRecord
  2
_Open30
340
0
  0
ENDTAB
  0
ENDSEC
  0
SECTION
  2
BLOCKS
  0
BLOCK
  5
20
330
1F
100
AcDbEntity
  8
0
100
AcDbBlockBegin
  2
*Model_Space
 70
     0
 10
0.0
 20
0.0
 30
0.0
  3
*Model_Space
  1

  0
ENDBLK
  5
21
330
1F
100
AcDbEntity
  8
0
100
AcDbBlockEnd
  0
BLOCK
  5
1C
330
1B
100
AcDbEntity
 67
     1
  8
0
100
AcDbBlockBegin
  2
*Paper_Space
 70
     0
 10
0.0
 20
0.0
 30
0.0
  3
*Paper_Space
  1

  0
ENDBLK
  5
1D
330
1B
100
AcDbEntity
 67
     1
  8
0
100
AcDbBlockEnd
  0
BLOCK
  5
A0
330
9B
100
AcDbEntity
  8
0
100
AcDbBlockBegin
  2
_Closed
 70
     0
 10
0.0
 20
0.0
 30
0.0
  3
_Closed
  1

  0
LINE
  5
9C
330
9B
100
AcDbEntity
  8
0
 62
     0
370
    -2
100
AcDbLine
 10
-1.0
 20
0.1666666666666666
 30
0.0
 11
0.0
 21
0.0
 31
0.0
  0
LINE
  5
9D
330
9B
100
AcDbEntity
  8
0
 62
     0
370
    -2
100
AcDbLine
 10
0.0
 20
0.0
 30
0.0
 11
-1.0
 21
-0.1666666666666666
 31
0.0
  0
LINE
  5
9E
330
9B
100
AcDbEntity
  8
0
 62
     0
370
    -2
100
AcDbLine
 10
-1.0
 20
0.1666666666666666
 30
0.0
 11
-1.0
 21
-0.1666666666666666
 31
0.0
  0
LINE
  5
9F
330
9B
100
AcDbEntity
  8
0
 62
     0
370
    -2
100
AcDbLine
 10
0.0
 20
0.0
 30
0.0
 11
-1.0
 21
0.0
 31
0.0
  0
ENDBLK
  5
A1
330
9B
100
AcDbEntity
  8
0
100
AcDbBlockEnd
  0
BLOCK
  5
155B
330
1510
100
AcDbEntity
  8
0
100
AcDbBlockBegin
  2
A$C10A573AC
 70
     0
 10
0.0
 20
0.0
 30
0.0
  3
A$C10A573AC
  1

  0
TEXT
  5
1511
330
1510
100
AcDbEntity
  8
文字
100
AcDbText
 10
0.9844302777919438
 20
5.224957122252135
 30
0.0
 40
3.0
  1
Materal : Steel.
 51
15.0
  7
OKANO
100
AcDbText
  0
TEXT
  5
1512
330
1510
100
AcDbEntity
  8
文字
100
AcDbText
 10
-0.1141909619694843
 20
0.7500001922403499
 30
0.0
 40
3.0
  1
Surface treatment : Electro galvanized.
 51
15.0
  7
OKANO
100
AcDbText
  0
TEXT
  5
1513
330
1510
100
AcDbEntity
  8
文字
100
AcDbText
 10
-0.4901926332574931
 20
9.159967445193728
 30
0.0
 40
3.0
  1
5 TORGUE SCREW  M5-6
 51
15.0
  7
OKANO
100
AcDbText
  0
TEXT
  5
1514
330
1510
100
AcDbEntity
  8
文字
100
AcDbText
 10
1.364713526390005
 20
78.88822913323082
 30
0.0
 40
3.0
  1
Special standard,
 51
15.0
  7
OKANO
100
AcDbText
  0
TEXT
  5
1515
330
1510
100
AcDbEntity
  8
文字
100
AcDbText
 10
92.88160823408942
 20
89.92753849837379
 30
0.0
 40
3.0
  1
Screw Type
 51
15.0
  7
OKANO
100
AcDbText
  0
LINE
  5
1516
330
1510
100
AcDbEntity
  8
太線
100
AcDbLine
 10
113.9464587597784
 20
81.93930390144641
 30
0.0
 11
112.4464587597784
 21
81.93930390144641
 31
0.0
  0
LINE
  5
1517
330
1510
100
AcDbEntity
  8
太線
100
AcDbLine
 10
112.4464587597784
 20
76.9393039014464
 30
0.0
 11
121.4644995438761
 21
76.9393039014464
 31
0.0
  0
TEXT
  5
1518
330
1510
100
AcDbEntity
  8
文字
100
AcDbText
 10
93.46068240437217
 20
77.96976862235396
 30
0.0
 40
2.0
  1
17-30
 51
15.0
  7
OKANO
100
AcDbText
  0
LINE
  5
1519
330
1510
100
AcDbEntity
  8
太線
100
AcDbLine
 10
111.9464587597784
 20
81.43930390144641
 30
0.0
 11
111.9464587597784
 21
77.4393039014464
 31
0.0
  0
LINE
  5
151A
330
1510
100
AcDbEntity
  8
太線
100
AcDbLine
 10
91.94645875977846
 20
81.43930390144641
 30
0.0
 11
91.94645875977846
 21
77.43930390144639
 31
0.0
  0
LINE
  5
151B
330
1510
100
AcDbEntity
  8
太線
100
AcDbLine
 10
101.9644995438761
 20
77.4393039014464
 30
0.0
 11
101.9644995438761
 21
81.43930390144641
 31
0.0
  0
LINE
  5
151C
330
1510
100
AcDbEntity
  8
太線
100
AcDbLine
 10
92.44645875977846
 20
76.9393039014464
 30
0.0
 11
101.4644995438761
 21
76.9393039014464
 31
0.0
  0
ARC
  5
151D
330
1510
100
AcDbEntity
  8
太線
100
AcDbCircle
 10
92.44645875977846
 20
77.43930390144639
 30
0.0
 40
0.5
100
AcDbArc
 50
180.0
 51
270.0
  0
ARC
  5
151E
330
1510
100
AcDbEntity
  8
太線
100
AcDbCircle
 10
101.4644995438761
 20
77.4393039014464
 30
0.0
 40
0.5
100
AcDbArc
 50
270.0
 51
0.0
  0
ARC
  5
151F
330
1510
100
AcDbEntity
  8
太線
100
AcDbCircle
 10
112.4464587597784
 20
77.4393039014464
 30
0.0
 40
0.5
100
AcDbArc
 50
180.0
 51
270.0
  0
LINE
  5
1520
330
1510
100
AcDbEntity
  8
想像線
100
AcDbLine
 10
93.94645875977847
 20
81.93930390144641
 30
0.0
 11
99.96449954387617
 21
81.93930390144641
 31
0.0
  0
LINE
  5
1521
330
1510
100
AcDbEntity
  8
極太線
100
AcDbLine
 10
96.38762957111168
 20
85.43930390144641
 30
0.0
 11
97.50528794844525
 21
85.43930390144641
 31
0.0
  0
CIRCLE
  5
1522
330
1510
100
AcDbEntity
  8
太線
100
AcDbCircle
 10
96.94645875977847
 20
85.43930390144641
 30
0.0
 40
0.5588291886667776
  0
LINE
  5
1523
330
1510
100
AcDbEntity
  8
太線
100
AcDbLine
 10
99.46449954387617
 20
86.93930390144641
 30
0.0
 11
94.44645875977846
 21
86.93930390144641
 31
0.0
  0
LINE
  5
1524
330
1510
100
AcDbEntity
  8
太線
100
AcDbLine
 10
93.94645875977847
 20
86.43930390144641
 30
0.0
 11
93.94645875977847
 21
81.93930390144641
 31
0.0
  0
ARC
  5
1525
330
1510
100
AcDbEntity
  8
太線
100
AcDbCircle
 10
92.44645875977846
 20
81.43930390144641
 30
0.0
 40
0.5
100
AcDbArc
 50
90.0
 51
180.0
  0
LINE
  5
1526
330
1510
100
AcDbEntity
  8
太線
100
AcDbLine
 10
93.94645875977847
 20
81.93930390144641
 30
0.0
 11
92.44645875977846
 21
81.93930390144641
 31
0.0
  0
ARC
  5
1527
330
1510
100
AcDbEntity
  8
太線
100
AcDbCircle
 10
94.44645875977846
 20
86.43930390144641
 30
0.0
 40
0.5
100
AcDbArc
 50
90.0
 51
180.0
  0
LINE
  5
1528
330
1510
100
AcDbEntity
  8
太線
100
AcDbLine
 10
99.96449954387617
 20
81.93930390144641
 30
0.0
 11
99.96449954387617
 21
86.43930390144641
 31
0.0
  0
LINE
  5
1529
330
1510
100
AcDbEntity
  8
太線
100
AcDbLine
 10
101.4644995438761
 20
81.93930390144641
 30
0.0
 11
99.96449954387617
 21
81.93930390144641
 31
0.0
  0
ARC
  5
152A
330
1510
100
AcDbEntity
  8
太線
100
AcDbCircle
 10
101.4644995438761
 20
81.43930390144641
 30
0.0
 40
0.5
100
AcDbArc
 50
0.0
 51
90.0
  0
ARC
  5
152B
330
1510
100
AcDbEntity
  8
太線
100
AcDbCircle
 10
99.46449954387617
 20
86.43930390144641
 30
0.0
 40
0.5
100
AcDbArc
 50
0.0
 51
90.0
  0
LINE
  5
152C
330
1510
100
AcDbEntity
  8
極太線
100
AcDbLine
 10
96.94645875977847
 20
85.99813309011318
 30
0.0
 11
96.94645875977847
 21
84.88047471277964
 31
0.0
  0
ARC
  5
152D
330
1510
100
AcDbEntity
  8
太線
100
AcDbCircle
 10
112.4464587597784
 20
81.43930390144641
 30
0.0
 40
0.5
100
AcDbArc
 50
90.0
 51
180.0
  0
TEXT
  5
152E
330
1510
100
AcDbEntity
  8
文字
100
AcDbText
 10
134.3819212586066
 20
78.16263579228063
 30
0.0
 40
2.0
  1
101
 51
15.0
  7
OKANO
100
AcDbText
  0
TEXT
  5
152F
330
1510
100
AcDbEntity
  8
文字
100
AcDbText
 10
113.3422276612066
 20
77.96976862235396
 30
0.0
 40
2.0
  1
38-83
 51
15.0
  7
OKANO
100
AcDbText
  0
LINE
  5
1530
330
1510
100
AcDbEntity
  8
太線
100
AcDbLine
 10
141.9825403279738
 20
77.4393039014464
 30
0.0
 11
141.9825403279738
 21
81.43930390144641
 31
0.0
  0
LINE
  5
1531
330
1510
100
AcDbEntity
  8
太線
100
AcDbLine
 10
131.9644995438761
 20
81.43930390144641
 30
0.0
 11
131.9644995438761
 21
77.4393039014464
 31
0.0
  0
LINE
  5
1532
330
1510
100
AcDbEntity
  8
太線
100
AcDbLine
 10
121.9644995438761
 20
77.4393039014464
 30
0.0
 11
121.9644995438761
 21
81.43930390144641
 31
0.0
  0
ARC
  5
1533
330
1510
100
AcDbEntity
  8
太線
100
AcDbCircle
 10
121.4644995438761
 20
77.4393039014464
 30
0.0
 40
0.5
100
AcDbArc
 50
270.0
 51
0.0
  0
LINE
  5
1534
330
1510
100
AcDbEntity
  8
太線
100
AcDbLine
 10
132.4644995438761
 20
76.9393039014464
 30
0.0
 11
141.4825403279738
 21
76.9393039014464
 31
0.0
  0
ARC
  5
1535
330
1510
100
AcDbEntity
  8
太線
100
AcDbCircle
 10
132.4644995438761
 20
77.4393039014464
 30
0.0
 40
0.5
100
AcDbArc
 50
180.0
 51
270.0
  0
ARC
  5
1536
330
1510
100
AcDbEntity
  8
太線
100
AcDbCircle
 10
141.4825403279738
 20
77.4393039014464
 30
0.0
 40
0.5
100
AcDbArc
 50
270.0
 51
0.0
  0
ARC
  5
1537
330
1510
100
AcDbEntity
  8
太線
100
AcDbCircle
 10
121.4644995438761
 20
81.43930390144641
 30
0.0
 40
0.5
100
AcDbArc
 50
0.0
 51
90.0
  0
LINE
  5
1538
330
1510
100
AcDbEntity
  8
太線
100
AcDbLine
 10
119.9644995438761
 20
81.93930390144641
 30
0.0
 11
119.9644995438761
 21
86.43930390144641
 31
0.0
  0
LINE
  5
1539
330
1510
100
AcDbEntity
  8
太線
100
AcDbLine
 10
113.9464587597784
 20
86.43930390144641
 30
0.0
 11
113.9464587597784
 21
81.93930390144641
 31
0.0
  0
LINE
  5
153A
330
1510
100
AcDbEntity
  8
想像線
100
AcDbLine
 10
113.9464587597784
 20
81.93930390144641
 30
0.0
 11
119.9644995438761
 21
81.93930390144641
 31
0.0
  0
LINE
  5
153B
330
1510
100
AcDbEntity
  8
太線
100
AcDbLine
 10
121.4644995438761
 20
81.93930390144641
 30
0.0
 11
119.9644995438761
 21
81.93930390144641
 31
0.0
  0
LINE
  5
153C
330
1510
100
AcDbEntity
  8
太線
100
AcDbLine
 10
119.4644995438761
 20
86.93930390144641
 30
0.0
 11
114.4464587597784
 21
86.93930390144641
 31
0.0
  0
ARC
  5
153D
330
1510
100
AcDbEntity
  8
太線
100
AcDbCircle
 10
114.4464587597784
 20
86.43930390144641
 30
0.0
 40
0.5
100
AcDbArc
 50
90.0
 51
180.0
  0
CIRCLE
  5
153E
330
1510
100
AcDbEntity
  8
太線
100
AcDbCircle
 10
115.4464587597784
 20
85.43930390144641
 30
0.0
 40
0.5588291886667776
  0
LINE
  5
153F
330
1510
100
AcDbEntity
  8
極太線
100
AcDbLine
 10
115.4464587597784
 20
85.99813309011318
 30
0.0
 11
115.4464587597784
 21
84.88047471277964
 31
0.0
  0
LINE
  5
1540
330
1510
100
AcDbEntity
  8
極太線
100
AcDbLine
 10
114.8876295711116
 20
85.43930390144641
 30
0.0
 11
116.0052879484452
 21
85.43930390144641
 31
0.0
  0
ARC
  5
1541
330
1510
100
AcDbEntity
  8
太線
100
AcDbCircle
 10
119.4644995438761
 20
86.43930390144641
 30
0.0
 40
0.5
100
AcDbArc
 50
0.0
 51
90.0
  0
LINE
  5
1542
330
1510
100
AcDbEntity
  8
極太線
100
AcDbLine
 10
117.9056703552094
 20
85.43930390144641
 30
0.0
 11
119.0233287325429
 21
85.43930390144641
 31
0.0
  0
LINE
  5
1543
330
1510
100
AcDbEntity
  8
極太線
100
AcDbLine
 10
118.4644995438761
 20
85.99813309011318
 30
0.0
 11
118.4644995438761
 21
84.88047471277964
 31
0.0
  0
CIRCLE
  5
1544
330
1510
100
AcDbEntity
  8
太線
100
AcDbCircle
 10
118.4644995438761
 20
85.43930390144641
 30
0.0
 40
0.5588291886667776
  0
LINE
  5
1545
330
1510
100
AcDbEntity
  8
想像線
100
AcDbLine
 10
133.9644995438761
 20
81.93930390144641
 30
0.0
 11
139.9825403279738
 21
81.93930390144641
 31
0.0
  0
LINE
  5
1546
330
1510
100
AcDbEntity
  8
極太線
100
AcDbLine
 10
137.9237111393071
 20
85.43930390144641
 30
0.0
 11
139.0413695166406
 21
85.43930390144641
 31
0.0
  0
CIRCLE
  5
1547
330
1510
100
AcDbEntity
  8
太線
100
AcDbCircle
 10
138.4825403279738
 20
85.43930390144641
 30
0.0
 40
0.5588291886667776
  0
CIRCLE
  5
1548
330
1510
100
AcDbEntity
  8
太線
100
AcDbCircle
 10
138.4825403279738
 20
83.26342923362075
 30
0.0
 40
0.5588291886667776
  0
LINE
  5
1549
330
1510
100
AcDbEntity
  8
極太線
100
AcDbLine
 10
137.9237111393071
 20
83.26342923362075
 30
0.0
 11
139.0413695166406
 21
83.26342923362075
 31
0.0
  0
LINE
  5
154A
330
1510
100
AcDbEntity
  8
太線
100
AcDbLine
 10
139.4825403279738
 20
86.93930390144641
 30
0.0
 11
134.4644995438761
 21
86.93930390144641
 31
0.0
  0
LINE
  5
154B
330
1510
100
AcDbEntity
  8
太線
100
AcDbLine
 10
133.9644995438761
 20
86.43930390144641
 30
0.0
 11
133.9644995438761
 21
81.93930390144641
 31
0.0
  0
ARC
  5
154C
330
1510
100
AcDbEntity
  8
太線
100
AcDbCircle
 10
132.4644995438761
 20
81.43930390144641
 30
0.0
 40
0.5
100
AcDbArc
 50
90.0
 51
180.0
  0
LINE
  5
154D
330
1510
100
AcDbEntity
  8
太線
100
AcDbLine
 10
133.9644995438761
 20
81.93930390144641
 30
0.0
 11
132.4644995438761
 21
81.93930390144641
 31
0.0
  0
LINE
  5
154E
330
1510
100
AcDbEntity
  8
極太線
100
AcDbLine
 10
134.9056703552093
 20
83.26342923362075
 30
0.0
 11
136.0233287325429
 21
83.26342923362075
 31
0.0
  0
LINE
  5
154F
330
1510
100
AcDbEntity
  8
極太線
100
AcDbLine
 10
135.4644995438761
 20
83.82225842228752
 30
0.0
 11
135.4644995438761
 21
82.70460004495395
 31
0.0
  0
CIRCLE
  5
1550
330
1510
100
AcDbEntity
  8
太線
100
AcDbCircle
 10
135.4644995438761
 20
83.26342923362075
 30
0.0
 40
0.5588291886667776
  0
ARC
  5
1551
330
1510
100
AcDbEntity
  8
太線
100
AcDbCircle
 10
134.4644995438761
 20
86.43930390144641
 30
0.0
 40
0.5
100
AcDbArc
 50
90.0
 51
180.0
  0
CIRCLE
  5
1552
330
1510
100
AcDbEntity
  8
太線
100
AcDbCircle
 10
135.4644995438761
 20
85.43930390144641
 30
0.0
 40
0.5588291886667776
  0
LINE
  5
1553
330
1510
100
AcDbEntity
  8
極太線
100
AcDbLine
 10
135.4644995438761
 20
85.99813309011318
 30
0.0
 11
135.4644995438761
 21
84.88047471277964
 31
0.0
  0
LINE
  5
1554
330
1510
100
AcDbEntity
  8
極太線
100
AcDbLine
 10
134.9056703552093
 20
85.43930390144641
 30
0.0
 11
136.0233287325429
 21
85.43930390144641
 31
0.0
  0
LINE
  5
1555
330
1510
100
AcDbEntity
  8
太線
100
AcDbLine
 10
139.9825403279738
 20
81.93930390144641
 30
0.0
 11
139.9825403279738
 21
86.43930390144641
 31
0.0
  0
ARC
  5
1556
330
1510
100
AcDbEntity
  8
太線
100
AcDbCircle
 10
141.4825403279738
 20
81.43930390144641
 30
0.0
 40
0.5
100
AcDbArc
 50
0.0
 51
90.0
  0
LINE
  5
1557
330
1510
100
AcDbEntity
  8
極太線
100
AcDbLine
 10
138.4825403279738
 20
83.82225842228752
 30
0.0
 11
138.4825403279738
 21
82.70460004495395
 31
0.0
  0
LINE
  5
1558
330
1510
100
AcDbEntity
  8
太線
100
AcDbLine
 10
141.4825403279738
 20
81.93930390144641
 30
0.0
 11
139.9825403279738
 21
81.93930390144641
 31
0.0
  0
ARC
  5
1559
330
1510
100
AcDbEntity
  8
太線
100
AcDbCircle
 10
139.4825403279738
 20
86.43930390144641
 30
0.0
 40
0.5
100
AcDbArc
 50
0.0
 51
90.0
  0
LINE
  5
155A
330
1510
100
AcDbEntity
  8
極太線
100
AcDbLine
 10
138.4825403279738
 20
85.99813309011318
 30
0.0
 11
138.4825403279738
 21
84.88047471277964
 31
0.0
  0
ENDBLK
  5
155C
330
1510
100
AcDbEntity
  8
0
100
AcDbBlockEnd
  0
BLOCK
  5
2E12
330
2E08
100
AcDbEntity
  8
0
100
AcDbBlockBegin
  2
*D2
 70
     1
 10
0.0
 20
0.0
 30
0.0
  3
*D2
  1

  0
LINE
  5
3197
330
2E08
100
AcDbEntity
  8
寸法線
 62
     0
370
    -2
100
AcDbLine
 10
51.96670811017657
 20
143.5536210066474
 30
0.0
 11
51.96670811017657
 21
123.7409606273646
 31
0.0
  0
LINE
  5
3198
330
2E08
100
AcDbEntity
  8
寸法線
 62
     0
370
    -2
100
AcDbLine
 10
142.9667081101765
 20
143.0536210066474
 30
0.0
 11
142.9667081101765
 21
123.7409606273646
 31
0.0
  0
LINE
  5
3199
330
2E08
100
AcDbEntity
  8
寸法線
 62
     0
370
    -2
100
AcDbLine
 10
54.96670811017657
 20
126.7409606273646
 30
0.0
 11
139.9667081101765
 21
126.7409606273646
 31
0.0
  0
INSERT
  5
319A
330
2E08
100
AcDbEntity
  8
寸法線
 62
     0
370
    -2
100
AcDbBlockReference
  2
_Closed
 10
51.96670811017657
 20
126.7409606273646
 30
0.0
 41
3.0
 42
3.0
 43
3.0
 50
180.0
  0
INSERT
  5
319B
330
2E08
100
AcDbEntity
  8
寸法線
 62
     0
370
    -2
100
AcDbBlockReference
  2
_Closed
 10
142.9667081101765
 20
126.7409606273646
 30
0.0
 41
3.0
 42
3.0
 43
3.0
  0
MTEXT
  5
319C
330
2E08
100
AcDbEntity
  8
寸法線
 62
     0
100
AcDbMText
 10
97.46670811017658
 20
130.2409606273646
 30
0.0
 40
5.0
 41
0.0
 71
     5
 72
     1
  1
87
  7
OKANO
 73
     1
 44
1.0
  0
POINT
  5
319D
330
2E08
100
AcDbEntity
  8
Defpoints
 62
     0
100
AcDbPoint
 10
51.96670811017657
 20
145.5536210066474
 30
0.0
  0
POINT
  5
319E
330
2E08
100
AcDbEntity
  8
Defpoints
 62
     0
100
AcDbPoint
 10
142.9667081101765
 20
145.0536210066474
 30
0.0
  0
POINT
  5
319F
330
2E08
100
AcDbEntity
  8
Defpoints
 62
     0
100
AcDbPoint
 10
142.9667081101765
 20
126.7409606273646
 30
0.0
  0
ENDBLK
  5
2E13
330
2E08
100
AcDbEntity
  8
0
100
AcDbBlockEnd
  0
BLOCK
  5
2E1F
330
2E15
100
AcDbEntity
  8
0
100
AcDbBlockBegin
  2
*D3
 70
     1
 10
0.0
 20
0.0
 30
0.0
  3
*D3
  1

  0
LINE
  5
31BB
330
2E15
100
AcDbEntity
  8
寸法線
 62
     0
370
    -2
100
AcDbLine
 10
202.5061868101841
 20
166.8783602746286
 30
0.0
 11
202.5061868101841
 21
124.3472537679565
 31
0.0
  0
LINE
  5
31BC
330
2E15
100
AcDbEntity
  8
寸法線
 62
     0
370
    -2
100
AcDbLine
 10
259.2467776980852
 20
166.8783602746286
 30
0.0
 11
259.2467776980852
 21
124.3472537679565
 31
0.0
  0
LINE
  5
31BD
330
2E15
100
AcDbEntity
  8
寸法線
 62
     0
370
    -2
100
AcDbLine
 10
205.506186810184
 20
127.3472537679565
 30
0.0
 11
256.2467776980852
 21
127.3472537679565
 31
0.0
  0
INSERT
  5
31BE
330
2E15
100
AcDbEntity
  8
寸法線
 62
     0
370
    -2
100
AcDbBlockReference
  2
_Closed
 10
202.5061868101841
 20
127.3472537679565
 30
0.0
 41
3.0
 42
3.0
 43
3.0
 50
180.0
  0
INSERT
  5
31BF
330
2E15
100
AcDbEntity
  8
寸法線
 62
     0
370
    -2
100
AcDbBlockReference
  2
_Closed
 10
259.2467776980852
 20
127.3472537679565
 30
0.0
 41
3.0
 42
3.0
 43
3.0
  0
MTEXT
  5
31C0
330
2E15
100
AcDbEntity
  8
寸法線
 62
     0
100
AcDbMText
 10
230.8764822541346
 20
130.8472537679565
 30
0.0
 40
5.0
 41
0.0
 71
     5
 72
     1
  1
約58
  7
OKANO
 73
     1
 44
1.0
  0
POINT
  5
31C1
330
2E15
100
AcDbEntity
  8
Defpoints
 62
     0
100
AcDbPoint
 10
202.5061868101841
 20
168.8783602746286
 30
0.0
  0
POINT
  5
31C2
330
2E15
100
AcDbEntity
  8
Defpoints
 62
     0
100
AcDbPoint
 10
259.2467776980852
 20
168.8783602746286
 30
0.0
  0
POINT
  5
31C3
330
2E15
100
AcDbEntity
  8
Defpoints
 62
     0
100
AcDbPoint
 10
259.2467776980852
 20
127.3472537679565
 30
0.0
  0
ENDBLK
  5
2E20
330
2E15
100
AcDbEntity
  8
0
100
AcDbBlockEnd
  0
BLOCK
  5
2E2E
330
2E22
100
AcDbEntity
  8
0
100
AcDbBlockBegin
  2
*D4
 70
     1
 10
0.0
 20
0.0
 30
0.0
  3
*D4
  1

  0
LINE
  5
30F2
330
2E22
100
AcDbEntity
  8
寸法線
 62
     0
370
    -2
100
AcDbLine
 10
149.5861511034843
 20
202.2245043932322
 30
0.0
 11
165.4540060224492
 21
202.2245043932322
 31
0.0
  0
LINE
  5
30F3
330
2E22
100
AcDbEntity
  8
寸法線
 62
     0
370
    -2
100
AcDbLine
 10
149.5861511034843
 20
197.980450270484
 30
0.0
 11
165.4540060224492
 21
197.980450270484
 31
0.0
  0
LINE
  5
30F4
330
2E22
100
AcDbEntity
  8
寸法線
 62
     0
370
    -2
100
AcDbLine
 10
162.4540060224492
 20
205.2245043932322
 30
0.0
 11
162.4540060224492
 21
208.2245043932322
 31
0.0
  0
LINE
  5
30F5
330
2E22
100
AcDbEntity
  8
寸法線
 62
     0
370
    -2
100
AcDbLine
 10
162.4540060224492
 20
194.980450270484
 30
0.0
 11
162.4540060224491
 21
187.480450270484
 31
0.0
  0
LINE
  5
30F6
330
2E22
100
AcDbEntity
  8
寸法線
 62
     0
370
    -2
100
AcDbLine
 10
162.4540060224492
 20
202.2245043932322
 30
0.0
 11
162.4540060224492
 21
197.980450270484
 31
0.0
  0
INSERT
  5
30F7
330
2E22
100
AcDbEntity
  8
寸法線
 62
     0
370
    -2
100
AcDbBlockReference
  2
_Closed
 10
162.4540060224492
 20
202.2245043932322
 30
0.0
 41
3.0
 42
3.0
 43
3.0
 50
270.0
  0
INSERT
  5
30F8
330
2E22
100
AcDbEntity
  8
寸法線
 62
     0
370
    -2
100
AcDbBlockReference
  2
_Closed
 10
162.4540060224492
 20
197.980450270484
 30
0.0
 41
3.0
 42
3.0
 43
3.0
 50
90.0
  0
MTEXT
  5
30F9
330
2E22
100
AcDbEntity
  8
寸法線
 62
     0
100
AcDbMText
 10
158.9540060224491
 20
189.7304502704841
 30
0.0
 40
5.0
 41
0.0
 71
     5
 72
     1
  1
4
  7
OKANO
 11
0.0000000000000001
 21
1.0
 31
0.0
 73
     1
 44
1.0
  0
POINT
  5
30FA
330
2E22
100
AcDbEntity
  8
Defpoints
 62
     0
100
AcDbPoint
 10
147.5861511034843
 20
202.2245043932322
 30
0.0
  0
POINT
  5
30FB
330
2E22
100
AcDbEntity
  8
Defpoints
 62
     0
100
AcDbPoint
 10
147.5861511034843
 20
197.980450270484
 30
0.0
  0
POINT
  5
30FC
330
2E22
100
AcDbEntity
  8
Defpoints
 62
     0
100
AcDbPoint
 10
162.4540060224492
 20
197.980450270484
 30
0.0
  0
ENDBLK
  5
2E2F
330
2E22
100
AcDbEntity
  8
0
100
AcDbBlockEnd
  0
BLOCK
  5
2E3B
330
2E31
100
AcDbEntity
  8
0
100
AcDbBlockBegin
  2
*D5
 70
     1
 10
0.0
 20
0.0
 30
0.0
  3
*D5
  1

  0
LINE
  5
3167
330
2E31
100
AcDbEntity
  8
寸法線
 62
     0
370
    -2
100
AcDbLine
 10
206.4507199375755
 20
174.5161219696533
 30
0.0
 11
206.4507199375755
 21
213.106320211005
 31
0.0
  0
LINE
  5
3168
330
2E31
100
AcDbEntity
  8
寸法線
 62
     0
370
    -2
100
AcDbLine
 10
254.9988191498095
 20
174.5161219696533
 30
0.0
 11
254.9988191498095
 21
213.106320211005
 31
0.0
  0
LINE
  5
3169
330
2E31
100
AcDbEntity
  8
寸法線
 62
     0
370
    -2
100
AcDbLine
 10
209.4507199375755
 20
210.106320211005
 30
0.0
 11
251.9988191498096
 21
210.106320211005
 31
0.0
  0
INSERT
  5
316A
330
2E31
100
AcDbEntity
  8
寸法線
 62
     0
370
    -2
100
AcDbBlockReference
  2
_Closed
 10
206.4507199375755
 20
210.106320211005
 30
0.0
 41
3.0
 42
3.0
 43
3.0
 50
180.0
  0
INSERT
  5
316B
330
2E31
100
AcDbEntity
  8
寸法線
 62
     0
370
    -2
100
AcDbBlockReference
  2
_Closed
 10
254.9988191498095
 20
210.106320211005
 30
0.0
 41
3.0
 42
3.0
 43
3.0
  0
MTEXT
  5
316C
330
2E31
100
AcDbEntity
  8
寸法線
 62
     0
100
AcDbMText
 10
230.7247695436925
 20
213.606320211005
 30
0.0
 40
5.0
 41
0.0
 71
     5
 72
     1
  1
49.3
  7
OKANO
 73
     1
 44
1.0
  0
POINT
  5
316D
330
2E31
100
AcDbEntity
  8
Defpoints
 62
     0
100
AcDbPoint
 10
206.4507199375755
 20
172.5161219696533
 30
0.0
  0
POINT
  5
316E
330
2E31
100
AcDbEntity
  8
Defpoints
 62
     0
100
AcDbPoint
 10
254.9988191498095
 20
172.5161219696533
 30
0.0
  0
POINT
  5
316F
330
2E31
100
AcDbEntity
  8
Defpoints
 62
     0
100
AcDbPoint
 10
254.9988191498095
 20
210.106320211005
 30
0.0
  0
ENDBLK
  5
2E3C
330
2E31
100
AcDbEntity
  8
0
100
AcDbBlockEnd
  0
BLOCK
  5
2E49
330
2E3E
100
AcDbEntity
  8
0
100
AcDbBlockBegin
  2
*D6
 70
     1
 10
0.0
 20
0.0
 30
0.0
  3
*D6
  1

  0
LINE
  5
30E9
330
2E3E
100
AcDbEntity
  8
寸法線
 62
     0
370
    -2
100
AcDbLine
 10
63.84068182150736
 20
207.2559722347966
 30
0.0
 11
63.84068182150736
 21
224.6258977238024
 31
0.0
  0
LINE
  5
30EA
330
2E3E
100
AcDbEntity
  8
寸法線
 62
     0
370
    -2
100
AcDbLine
 10
52.31050786021751
 20
207.2559722347966
 30
0.0
 11
52.31050786021751
 21
224.6258977238024
 31
0.0
  0
LINE
  5
30EB
330
2E3E
100
AcDbEntity
  8
寸法線
 62
     0
370
    -2
100
AcDbLine
 10
60.84068182150736
 20
221.6258977238025
 30
0.0
 11
55.31050786021751
 21
221.6258977238025
 31
0.0
  0
INSERT
  5
30EC
330
2E3E
100
AcDbEntity
  8
寸法線
 62
     0
370
    -2
100
AcDbBlockReference
  2
_Closed
 10
63.84068182150736
 20
221.6258977238025
 30
0.0
 41
3.0
 42
3.0
 43
3.0
  0
INSERT
  5
30ED
330
2E3E
100
AcDbEntity
  8
寸法線
 62
     0
370
    -2
100
AcDbBlockReference
  2
_Closed
 10
52.31050786021751
 20
221.6258977238025
 30
0.0
 41
3.0
 42
3.0
 43
3.0
 50
180.0
  0
MTEXT
  5
30EE
330
2E3E
100
AcDbEntity
  8
寸法線
 62
     0
100
AcDbMText
 10
58.07559484086244
 20
225.1263898497867
 30
0.0
 40
5.0
 41
0.0
 71
     5
 72
     1
  1
12
  7
OKANO
 73
     1
 44
1.0
  0
POINT
  5
30EF
330
2E3E
100
AcDbEntity
  8
Defpoints
 62
     0
100
AcDbPoint
 10
63.84068182150736
 20
205.2559722347966
 30
0.0
  0
POINT
  5
30F0
330
2E3E
100
AcDbEntity
  8
Defpoints
 62
     0
100
AcDbPoint
 10
52.31050786021751
 20
205.2559722347966
 30
0.0
  0
POINT
  5
30F1
330
2E3E
100
AcDbEntity
  8
Defpoints
 62
     0
100
AcDbPoint
 10
52.31050786021751
 20
221.6258977238025
 30
0.0
  0
ENDBLK
  5
2E4A
330
2E3E
100
AcDbEntity
  8
0
100
AcDbBlockEnd
  0
BLOCK
  5
3084
330
3080
100
AcDbEntity
  8
0
100
AcDbBlockBegin
  2
_Open30
 70
     0
 10
0.0
 20
0.0
 30
0.0
  3
_Open30
  1

  0
LINE
  5
3081
330
3080
100
AcDbEntity
  8
太線
 62
     0
370
    -2
100
AcDbLine
 10
-1.0
 20
0.26794919
 30
0.0
 11
0.0
 21
0.0
 31
0.0
  0
LINE
  5
3082
330
3080
100
AcDbEntity
  8
太線
 62
     0
370
    -2
100
AcDbLine
 10
0.0
 20
0.0
 30
0.0
 11
-1.0
 21
-0.26794919
 31
0.0
  0
LINE
  5
3083
330
3080
100
AcDbEntity
  8
太線
 62
     0
370
    -2
100
AcDbLine
 10
0.0
 20
0.0
 30
0.0
 11
-1.0
 21
0.0
 31
0.0
  0
ENDBLK
  5
3085
330
3080
100
AcDbEntity
  8
0
100
AcDbBlockEnd
  0
ENDSEC
  0
SECTION
  2
ENTITIES
  0
TEXT
  5
29C1
330
1F
100
AcDbEntity
  8
文字
100
AcDbText
 10
270.3814897060656
 20
3.65848005655755
 30
0.0
 40
3.599999999999999
  1
SET SCREW COUP
 51
15.0
  7
OKANO
100
AcDbText
  0
TEXT
  5
29C2
330
1F
100
AcDbEntity
  8
文字
100
AcDbText
 10
251.3874819578773
 20
-3.782311080513817
 30
0.0
 40
4.799999999999999
  1
joint kogyo T.okano
 51
15.0
  7
OKANO
100
AcDbText
  0
TEXT
  5
29C3
330
1F
100
AcDbEntity
  8
文字
100
AcDbText
 10
243.8991689460804
 20
10.97006042677396
 30
0.0
 40
4.799999999999999
  1
F-999-20040824 Auto CAD
 51
15.0
  7
OKANO
100
AcDbText
  0
LINE
  5
29C4
330
1F
100
AcDbEntity
  8
太線
100
AcDbLine
 10
216.4769407644665
 20
10.04925277634361
 30
0.0
 11
324.4769407644665
 21
10.04925277634361
 31
0.0
  0
LWPOLYLINE
  5
29C5
330
1F
100
AcDbEntity
  8
太線
100
AcDbPolyline
 90
        4
 70
     1
 43
0.0
 10
216.4769407644665
 20
18.4492527763436
 10
324.4769407644665
 20
18.4492527763436
 10
324.4769407644665
 20
-6.750747223656389
 10
216.4769407644665
 20
-6.750747223656389
  0
TEXT
  5
29C6
330
1F
100
AcDbEntity
  8
文字
100
AcDbText
 10
220.3493243305241
 20
1.855740977492928
 30
0.0
 40
2.399999999999999
  1
CHECK
 51
15.0
  7
OKANO
100
AcDbText
  0
LINE
  5
29C7
330
1F
100
AcDbEntity
  8
太線
100
AcDbLine
 10
240.4769407644665
 20
18.4492527763436
 30
0.0
 11
240.4769407644665
 21
-6.750747223656389
 31
0.0
  0
TEXT
  5
29C8
330
1F
100
AcDbEntity
  8
文字
100
AcDbText
 10
220.3493243305241
 20
-5.063686628722894
 30
0.0
 40
2.399999999999999
  1
ISSUED
 51
15.0
  7
OKANO
100
AcDbText
  0
TEXT
  5
29C9
330
1F
100
AcDbEntity
  8
文字
100
AcDbText
 10
220.6058387634247
 20
-1.732110439454753
 30
0.0
 40
2.399999999999999
  1
APPR
 51
15.0
  7
OKANO
100
AcDbText
  0
TEXT
  5
29CA
330
1F
100
AcDbEntity
  8
文字
100
AcDbText
 10
218.5537287788383
 20
11.85046895510877
 30
0.0
 40
2.399999999999999
  1
FILM NAME
 51
15.0
  7
OKANO
100
AcDbText
  0
TEXT
  5
29CB
330
1F
100
AcDbEntity
  8
文字
100
AcDbText
 10
219.8362976561704
 20
5.443591804251965
 30
0.0
 40
2.399999999999999
  1
DRAWN
 51
15.0
  7
OKANO
100
AcDbText
  0
TEXT
  5
29CC
330
1F
100
AcDbEntity
  8
文字
100
AcDbText
 10
250.8744541877997
 20
3.649666390872447
 30
0.0
 40
4.799999999999999
  1
12-2R
 51
15.0
  7
OKANO
100
AcDbText
  0
LINE
  5
2DAC
330
1F
100
AcDbEntity
  8
太線
100
AcDbLine
 10
51.96670811017657
 20
202.0536210066474
 30
0.0
 11
92.89799522501342
 21
202.0536210066474
 31
0.0
  0
LINE
  5
2DAD
330
1F
100
AcDbEntity
  8
太線
100
AcDbLine
 10
143.4667081101765
 20
201.5536210066474
 30
0.0
 11
143.4667081101765
 21
198.0536210066474
 31
0.0
  0
LINE
  5
2DAE
330
1F
100
AcDbEntity
  8
太線
100
AcDbLine
 10
143.4667081101765
 20
198.0536210066474
 30
0.0
 11
143.4667081101765
 21
145.5536210066474
 31
0.0
  0
LINE
  5
2DAF
330
1F
100
AcDbEntity
  8
太線
100
AcDbLine
 10
142.9667081101765
 20
145.0536210066474
 30
0.0
 11
102.5542897063198
 21
145.0536210066474
 31
0.0
  0
LINE
  5
2DB0
330
1F
100
AcDbEntity
  8
太線
100
AcDbLine
 10
51.46670811017656
 20
145.5536210066474
 30
0.0
 11
51.46670811017656
 21
201.5536210066474
 31
0.0
  0
LINE
  5
2DB1
330
1F
100
AcDbEntity
  8
太線
100
AcDbLine
 10
51.46670811017656
 20
198.0536210066474
 30
0.0
 11
143.4667081101765
 21
198.0536210066474
 31
0.0
  0
LINE
  5
2DB2
330
1F
100
AcDbEntity
  8
太線
100
AcDbLine
 10
51.46670811017656
 20
173.5536210066474
 30
0.0
 11
143.4667081101765
 21
173.5536210066474
 31
0.0
  0
LINE
  5
2DBA
330
1F
100
AcDbEntity
  8
太線
100
AcDbLine
 10
97.4925306095738
 20
198.0275359405611
 30
0.0
 11
97.4925306095738
 21
198.0275359405611
 31
0.0
  0
ARC
  5
2DC6
330
1F
100
AcDbEntity
  8
太線
100
AcDbCircle
 10
131.4667081101765
 20
207.273965670941
 30
0.0
 40
10.625
100
AcDbArc
 50
66.73017604155141
 51
113.2698239584485
  0
LINE
  5
2DC7
330
1F
100
AcDbEntity
  8
太線
100
AcDbLine
 10
135.9667081101765
 20
216.5753432570838
 30
0.0
 11
135.9667081101765
 21
214.898965670941
 31
0.0
  0
LINE
  5
2DC8
330
1F
100
AcDbEntity
  8
太線
100
AcDbLine
 10
135.9667081101765
 20
214.898965670941
 30
0.0
 11
133.9667081101765
 21
214.898965670941
 31
0.0
  0
LINE
  5
2DC9
330
1F
100
AcDbEntity
  8
太線
100
AcDbLine
 10
133.9667081101765
 20
214.898965670941
 30
0.0
 11
133.9667081101765
 21
209.398965670941
 31
0.0
  0
LINE
  5
2DCA
330
1F
100
AcDbEntity
  8
太線
100
AcDbLine
 10
133.4667081101765
 20
208.898965670941
 30
0.0
 11
129.4667081101765
 21
208.898965670941
 31
0.0
  0
LINE
  5
2DCB
330
1F
100
AcDbEntity
  8
太線
100
AcDbLine
 10
128.9667081101765
 20
209.398965670941
 30
0.0
 11
128.9667081101765
 21
214.898965670941
 31
0.0
  0
LINE
  5
2DCC
330
1F
100
AcDbEntity
  8
太線
100
AcDbLine
 10
128.9667081101765
 20
214.898965670941
 30
0.0
 11
126.9667081101765
 21
214.898965670941
 31
0.0
  0
LINE
  5
2DCD
330
1F
100
AcDbEntity
  8
太線
100
AcDbLine
 10
126.9667081101765
 20
214.898965670941
 30
0.0
 11
126.9667081101765
 21
216.5753432570838
 31
0.0
  0
ARC
  5
2DCE
330
1F
100
AcDbEntity
  8
太線
100
AcDbCircle
 10
127.4667081101765
 20
216.5753432570838
 30
0.0
 40
0.5
100
AcDbArc
 50
113.2698239584475
 51
180.0
  0
ARC
  5
2DCF
330
1F
100
AcDbEntity
  8
太線
100
AcDbCircle
 10
135.4667081101765
 20
216.5753432570838
 30
0.0
 40
0.5
100
AcDbArc
 50
0.0
 51
66.73017604155245
  0
ARC
  5
2DD0
330
1F
100
AcDbEntity
  8
太線
100
AcDbCircle
 10
129.4667081101765
 20
209.398965670941
 30
0.0
 40
0.5
100
AcDbArc
 50
180.0
 51
270.0
  0
ARC
  5
2DD1
330
1F
100
AcDbEntity
  8
太線
100
AcDbCircle
 10
133.4667081101765
 20
209.398965670941
 30
0.0
 40
0.5
100
AcDbArc
 50
270.0000000000003
 51
0.0
  0
CIRCLE
  5
2DD6
330
1F
100
AcDbEntity
  8
太線
100
AcDbCircle
 10
131.4667081101765
 20
231.7831088907051
 30
0.0
 40
4.5
  0
ARC
  5
2DD7
330
1F
100
AcDbEntity
  8
太線
100
AcDbCircle
 10
131.4667081101765
 20
231.7831088907051
 30
0.0
 40
2.5
100
AcDbArc
 50
78.46304096718454
 51
101.5369590328154
  0
LINE
  5
2DDC
330
1F
100
AcDbEntity
  8
太線
100
AcDbLine
 10
128.9667081101765
 20
232.2831088907051
 30
0.0
 11
130.9667081101765
 21
232.2831088907051
 31
0.0
  0
LINE
  5
2DDD
330
1F
100
AcDbEntity
  8
太線
100
AcDbLine
 10
130.9667081101765
 20
232.2831088907051
 30
0.0
 11
130.9667081101765
 21
234.2325986334883
 31
0.0
  0
LINE
  5
2DDE
330
1F
100
AcDbEntity
  8
太線
100
AcDbLine
 10
131.9667081101765
 20
234.2325986334883
 30
0.0
 11
131.9667081101765
 21
232.2831088907051
 31
0.0
  0
LINE
  5
2DDF
330
1F
100
AcDbEntity
  8
太線
100
AcDbLine
 10
131.9667081101765
 20
232.2831088907051
 30
0.0
 11
133.9161978529597
 21
232.2831088907051
 31
0.0
  0
LINE
  5
2DE0
330
1F
100
AcDbEntity
  8
太線
100
AcDbLine
 10
129.0172183673933
 20
231.2831088907052
 30
0.0
 11
130.9667081101765
 21
231.2831088907052
 31
0.0
  0
LINE
  5
2DE1
330
1F
100
AcDbEntity
  8
太線
100
AcDbLine
 10
130.9667081101765
 20
231.2831088907052
 30
0.0
 11
130.9667081101765
 21
229.333619147922
 31
0.0
  0
LINE
  5
2DE2
330
1F
100
AcDbEntity
  8
太線
100
AcDbLine
 10
133.9161978529597
 20
231.2831088907052
 30
0.0
 11
131.9667081101765
 21
231.2831088907052
 31
0.0
  0
LINE
  5
2DE3
330
1F
100
AcDbEntity
  8
太線
100
AcDbLine
 10
131.9667081101765
 20
231.2831088907052
 30
0.0
 11
131.9667081101765
 21
229.333619147922
 31
0.0
  0
ARC
  5
2DE4
330
1F
100
AcDbEntity
  8
太線
100
AcDbCircle
 10
131.4667081101765
 20
231.7831088907051
 30
0.0
 40
2.5
100
AcDbArc
 50
168.4630409671845
 51
191.5369590328161
  0
ARC
  5
2DE5
330
1F
100
AcDbEntity
  8
太線
100
AcDbCircle
 10
131.4667081101765
 20
231.7831088907051
 30
0.0
 40
2.5
100
AcDbArc
 50
258.4630409671845
 51
281.5369590328154
  0
ARC
  5
2DE6
330
1F
100
AcDbEntity
  8
太線
100
AcDbCircle
 10
131.4667081101765
 20
231.7831088907051
 30
0.0
 40
2.5
100
AcDbArc
 50
348.4630409671838
 51
11.53695903281545
  0
LINE
  5
2DE7
330
1F
100
AcDbEntity
  8
太線
100
AcDbLine
 10
133.9667081101765
 20
202.0536210066474
 30
0.0
 11
133.9667081101765
 21
198.0536210066474
 31
0.0
  0
LINE
  5
2DE8
330
1F
100
AcDbEntity
  8
太線
100
AcDbLine
 10
128.9667081101765
 20
202.0536210066474
 30
0.0
 11
128.9667081101765
 21
198.0536210066474
 31
0.0
  0
LINE
  5
2DEB
330
1F
100
AcDbEntity
  8
細線
100
AcDbLine
 10
133.4667081101765
 20
198.0536210066474
 30
0.0
 11
133.4667081101765
 21
202.0536210066474
 31
0.0
  0
LINE
  5
2DEC
330
1F
100
AcDbEntity
  8
細線
100
AcDbLine
 10
129.4667081101765
 20
202.0536210066474
 30
0.0
 11
129.4667081101765
 21
198.0536210066474
 31
0.0
  0
LINE
  5
2DED
330
1F
100
AcDbEntity
  8
細線
100
AcDbLine
 10
129.4667081101765
 20
214.898965670941
 30
0.0
 11
129.4667081101765
 21
208.898965670941
 31
0.0
  0
LINE
  5
2DEE
330
1F
100
AcDbEntity
  8
細線
100
AcDbLine
 10
133.4667081101765
 20
214.898965670941
 30
0.0
 11
133.4667081101765
 21
208.898965670941
 31
0.0
  0
LINE
  5
2DF1
330
1F
100
AcDbEntity
  8
細線
100
AcDbLine
 10
65.46670811017657
 20
202.0536210066474
 30
0.0
 11
65.46670811017657
 21
198.0536210066474
 31
0.0
  0
LINE
  5
2DF2
330
1F
100
AcDbEntity
  8
細線
100
AcDbLine
 10
61.46670811017656
 20
202.0536210066474
 30
0.0
 11
61.46670811017656
 21
198.0536210066474
 31
0.0
  0
LINE
  5
2DF3
330
1F
100
AcDbEntity
  8
太線
100
AcDbLine
 10
65.96670811017657
 20
202.0536210066474
 30
0.0
 11
65.96670811017657
 21
198.0536210066474
 31
0.0
  0
LINE
  5
2DF4
330
1F
100
AcDbEntity
  8
太線
100
AcDbLine
 10
60.96670811017657
 20
202.0536210066474
 30
0.0
 11
60.96670811017657
 21
198.0536210066474
 31
0.0
  0
ARC
  5
2DF5
330
1F
100
AcDbEntity
  8
太線
100
AcDbCircle
 10
51.96670811017657
 20
201.5536210066474
 30
0.0
 40
0.5
100
AcDbArc
 50
90.0
 51
180.0
  0
ARC
  5
2DF6
330
1F
100
AcDbEntity
  8
太線
100
AcDbCircle
 10
142.9667081101765
 20
201.5536210066474
 30
0.0
 40
0.5
100
AcDbArc
 50
0.0
 51
90.0
  0
ARC
  5
2DF7
330
1F
100
AcDbEntity
  8
太線
100
AcDbCircle
 10
142.9667081101765
 20
145.5536210066474
 30
0.0
 40
0.5
100
AcDbArc
 50
270.0
 51
0.0
  0
ARC
  5
2DF8
330
1F
100
AcDbEntity
  8
太線
100
AcDbCircle
 10
51.96670811017657
 20
145.5536210066474
 30
0.0
 40
0.5
100
AcDbArc
 50
180.0
 51
270.0
  0
CIRCLE
  5
2DFA
330
1F
100
AcDbEntity
  8
太線
100
AcDbCircle
 10
230.8033428798633
 20
173.5536210066474
 30
0.0
 40
28.5
  0
CIRCLE
  5
2DFB
330
1F
100
AcDbEntity
  8
太線
100
AcDbCircle
 10
230.8033428798633
 20
173.5536210066474
 30
0.0
 40
24.5
  0
LINE
  5
2E00
330
1F
100
AcDbEntity
  8
太線
100
AcDbLine
 10
233.3033428798632
 20
201.9437601398042
 30
0.0
 11
233.3033428798632
 21
198.0536210066474
 31
0.0
  0
LINE
  5
2E01
330
1F
100
AcDbEntity
  8
太線
100
AcDbLine
 10
228.3033428798633
 20
201.9437601398042
 30
0.0
 11
228.3033428798633
 21
198.0536210066474
 31
0.0
  0
LINE
  5
2E03
330
1F
100
AcDbEntity
  8
細線
100
AcDbLine
 10
228.8033428798633
 20
201.9833589583064
 30
0.0
 11
228.8033428798633
 21
198.0536210066474
 31
0.0
  0
LINE
  5
2E04
330
1F
100
AcDbEntity
  8
細線
100
AcDbLine
 10
232.8033428798633
 20
201.9833589583064
 30
0.0
 11
232.8033428798633
 21
197.971851900797
 31
0.0
  0
LINE
  5
2E05
330
1F
100
AcDbEntity
  8
太線
100
AcDbLine
 10
233.3033428798632
 20
198.0536210066474
 30
0.0
 11
233.3033428798632
 21
197.9257362205553
 31
0.0
  0
LINE
  5
2E06
330
1F
100
AcDbEntity
  8
太線
100
AcDbLine
 10
228.3033428798633
 20
198.0536210066474
 30
0.0
 11
228.3033428798633
 21
197.9257362205553
 31
0.0
  0
DIMENSION
  5
2E07
330
1F
100
AcDbEntity
  8
寸法線
100
AcDbDimension
  2
*D2
 10
142.9667081101765
 20
126.7409606273646
 30
0.0
 11
97.46670811017658
 21
130.2409606273646
 31
0.0
 70
    32
  1
87
 71
     5
 42
91.0
  3
sunpo
100
AcDbAlignedDimension
 13
51.96670811017657
 23
145.5536210066474
 33
0.0
 14
142.9667081101765
 24
145.0536210066474
 34
0.0
100
AcDbRotatedDimension
1001
ACAD
1000
DSTYLE
1002
{
1070
    40
1040
1.0
1002
}
  0
DIMENSION
  5
2E14
330
1F
100
AcDbEntity
  8
寸法線
100
AcDbDimension
  2
*D3
 10
259.2467776980852
 20
127.3472537679565
 30
0.0
 11
230.8764822541346
 21
130.8472537679565
 31
0.0
 70
    32
  1
約58
 71
     5
 42
56.74059088790113
  3
sunpo
100
AcDbAlignedDimension
 13
202.5061868101841
 23
168.8783602746286
 33
0.0
 14
259.2467776980852
 24
168.8783602746286
 34
0.0
100
AcDbRotatedDimension
1001
ACAD
1000
DSTYLE
1002
{
1070
    40
1040
1.0
1002
}
  0
DIMENSION
  5
2E21
330
1F
100
AcDbEntity
  8
寸法線
100
AcDbDimension
  2
*D4
 10
162.4540060224492
 20
197.980450270484
 30
0.0
 11
158.9540060224491
 21
189.7304502704841
 31
0.0
 70
    32
  1
4
 71
     5
 42
4.244054122748138
  3
sunpo
100
AcDbAlignedDimension
 13
147.5861511034843
 23
202.2245043932322
 33
0.0
 14
147.5861511034843
 24
197.980450270484
 34
0.0
 50
90.0
100
AcDbRotatedDimension
1001
ACAD
1000
DSTYLE
1002
{
1070
    40
1040
1.0
1002
}
  0
DIMENSION
  5
2E30
330
1F
100
AcDbEntity
  8
寸法線
100
AcDbDimension
  2
*D5
 10
254.9988191498095
 20
210.106320211005
 30
0.0
 11
230.7247695436925
 21
213.606320211005
 31
0.0
 70
    32
  1
49.3
 71
     5
 42
48.54809921223409
  3
sunpo
100
AcDbAlignedDimension
 13
206.4507199375755
 23
172.5161219696533
 33
0.0
 14
254.9988191498095
 24
172.5161219696533
 34
0.0
100
AcDbRotatedDimension
1001
ACAD
1000
DSTYLE
1002
{
1070
    40
1040
1.0
1002
}
  0
DIMENSION
  5
2E3D
330
1F
100
AcDbEntity
  8
寸法線
100
AcDbDimension
  2
*D6
 10
52.31050786021751
 20
221.6258977238025
 30
0.0
 11
58.07559484086244
 21
225.1263898497867
 31
0.0
 70
    32
  1
12
 71
     5
 42
11.53017396128984
  3
sunpo
100
AcDbAlignedDimension
 13
63.84068182150736
 23
205.2559722347966
 33
0.0
 14
52.31050786021751
 24
205.2559722347966
 34
0.0
100
AcDbRotatedDimension
1001
ACAD
1000
DSTYLE
1002
{
1070
    40
1040
1.0
1002
}
  0
TEXT
  5
2E89
330
1F
100
AcDbEntity
  8
文字
100
AcDbText
 10
141.4642436165527
 20
229.7609696768594
 30
0.0
 40
4.799999999999999
  1
ナベ　M5－8 ＋頭  3本
 51
15.0
  7
OKANO
100
AcDbText
  0
TEXT
  5
2E8A
330
1F
100
AcDbEntity
  8
文字
100
AcDbText
 10
72.10636260394449
 20
152.000365301301
 30
0.0
 40
4.799999999999999
  1
12-R2
 51
15.0
  7
OKANO
100
AcDbText
  0
TEXT
  5
2E8B
330
1F
100
AcDbEntity
  8
文字
100
AcDbText
 10
71.79670254948542
 20
159.5220093547286
 30
0.0
 40
4.799999999999999
  1
JOINT
 51
15.0
  7
OKANO
100
AcDbText
  0
LINE
  5
2ECD
330
1F
100
AcDbEntity
  8
太線
100
AcDbLine
 10
99.9925306095738
 20
202.0536210066474
 30
0.0
 11
99.9925306095738
 21
198.0536210066474
 31
0.0
  0
LINE
  5
2ECE
330
1F
100
AcDbEntity
  8
太線
100
AcDbLine
 10
94.9925306095738
 20
201.7536210066474
 30
0.0
 11
94.9925306095738
 21
198.0536210066474
 31
0.0
  0
LINE
  5
2ECF
330
1F
100
AcDbEntity
  8
細線
100
AcDbLine
 10
99.49253060957381
 20
202.0536210066474
 30
0.0
 11
99.49253060957381
 21
198.0536210066474
 31
0.0
  0
LINE
  5
2ED0
330
1F
100
AcDbEntity
  8
細線
100
AcDbLine
 10
95.49253060957381
 20
202.0536210066474
 30
0.0
 11
95.49253060957381
 21
198.0536210066474
 31
0.0
  0
LINE
  5
2ED1
330
1F
100
AcDbEntity
  8
細線
100
AcDbLine
 10
99.55428970631988
 20
202.109985673004
 30
0.0
 11
99.55428970631988
 21
196.109985673004
 31
0.0
  0
LINE
  5
2ED2
330
1F
100
AcDbEntity
  8
細線
100
AcDbLine
 10
95.55428970631988
 20
202.109985673004
 30
0.0
 11
95.55428970631988
 21
196.109985673004
 31
0.0
  0
LINE
  5
2ED3
330
1F
100
AcDbEntity
  8
太線
100
AcDbLine
 10
95.05428970631987
 20
196.609985673004
 30
0.0
 11
95.05428970631987
 21
202.109985673004
 31
0.0
  0
LINE
  5
2ED4
330
1F
100
AcDbEntity
  8
太線
100
AcDbLine
 10
100.0542897063198
 20
202.109985673004
 30
0.0
 11
100.0542897063198
 21
196.609985673004
 31
0.0
  0
LINE
  5
2ED5
330
1F
100
AcDbEntity
  8
太線
100
AcDbLine
 10
99.55428970631988
 20
196.109985673004
 30
0.0
 11
95.55428970631988
 21
196.109985673004
 31
0.0
  0
ARC
  5
2ED6
330
1F
100
AcDbEntity
  8
太線
100
AcDbCircle
 10
95.55428970631988
 20
196.609985673004
 30
0.0
 40
0.5
100
AcDbArc
 50
180.0
 51
270.0
  0
ARC
  5
2ED7
330
1F
100
AcDbEntity
  8
太線
100
AcDbCircle
 10
99.55428970631988
 20
196.609985673004
 30
0.0
 40
0.5
100
AcDbArc
 50
270.0000000000003
 51
0.0
  0
ARC
  5
2ED8
330
1F
100
AcDbEntity
  8
太線
100
AcDbCircle
 10
97.55428970631989
 20
194.484985673004
 30
0.0
 40
10.625
100
AcDbArc
 50
66.73017604155141
 51
113.2698239584485
  0
ARC
  5
2ED9
330
1F
100
AcDbEntity
  8
太線
100
AcDbCircle
 10
93.55428970631988
 20
203.7863632591469
 30
0.0
 40
0.5
100
AcDbArc
 50
113.2698239584475
 51
180.0
  0
LINE
  5
2EDA
330
1F
100
AcDbEntity
  8
太線
100
AcDbLine
 10
93.05428970631988
 20
202.109985673004
 30
0.0
 11
93.05428970631988
 21
203.7863632591469
 31
0.0
  0
LINE
  5
2EDB
330
1F
100
AcDbEntity
  8
太線
100
AcDbLine
 10
95.05428970631987
 20
202.109985673004
 30
0.0
 11
93.05428970631988
 21
202.109985673004
 31
0.0
  0
ARC
  5
2EDC
330
1F
100
AcDbEntity
  8
太線
100
AcDbCircle
 10
101.5542897063198
 20
203.7863632591469
 30
0.0
 40
0.5
100
AcDbArc
 50
0.0
 51
66.73017604155245
  0
LINE
  5
2EDD
330
1F
100
AcDbEntity
  8
太線
100
AcDbLine
 10
102.0542897063198
 20
202.109985673004
 30
0.0
 11
100.0542897063198
 21
202.109985673004
 31
0.0
  0
LINE
  5
2EDE
330
1F
100
AcDbEntity
  8
太線
100
AcDbLine
 10
102.0542897063198
 20
203.7863632591469
 30
0.0
 11
102.0542897063198
 21
202.109985673004
 31
0.0
  0
LINE
  5
2EE8
330
1F
100
AcDbEntity
  8
細線
100
AcDbLine
 10
65.95547552995651
 20
232.8256604065053
 30
0.0
 11
65.95547552995651
 21
226.8256604065053
 31
0.0
  0
LINE
  5
2EE9
330
1F
100
AcDbEntity
  8
細線
100
AcDbLine
 10
61.95547552995652
 20
232.8256604065053
 30
0.0
 11
61.95547552995652
 21
226.8256604065053
 31
0.0
  0
LINE
  5
2EEA
330
1F
100
AcDbEntity
  8
太線
100
AcDbLine
 10
61.45547552995651
 20
227.3256604065053
 30
0.0
 11
61.45547552995651
 21
232.8256604065053
 31
0.0
  0
LINE
  5
2EEB
330
1F
100
AcDbEntity
  8
太線
100
AcDbLine
 10
66.45547552995651
 20
232.8256604065053
 30
0.0
 11
66.45547552995651
 21
227.3256604065053
 31
0.0
  0
LINE
  5
2EEC
330
1F
100
AcDbEntity
  8
太線
100
AcDbLine
 10
65.95547552995651
 20
226.8256604065053
 30
0.0
 11
61.95547552995652
 21
226.8256604065053
 31
0.0
  0
ARC
  5
2EED
330
1F
100
AcDbEntity
  8
太線
100
AcDbCircle
 10
61.95547552995652
 20
227.3256604065053
 30
0.0
 40
0.5
100
AcDbArc
 50
180.0
 51
270.0
  0
ARC
  5
2EEE
330
1F
100
AcDbEntity
  8
太線
100
AcDbCircle
 10
65.95547552995651
 20
227.3256604065053
 30
0.0
 40
0.5
100
AcDbArc
 50
270.0000000000003
 51
0.0
  0
ARC
  5
2EEF
330
1F
100
AcDbEntity
  8
太線
100
AcDbCircle
 10
63.95547552995651
 20
225.2006604065053
 30
0.0
 40
10.625
100
AcDbArc
 50
66.73017604155141
 51
113.2698239584485
  0
ARC
  5
2EF0
330
1F
100
AcDbEntity
  8
太線
100
AcDbCircle
 10
59.95547552995652
 20
234.5020379926481
 30
0.0
 40
0.5
100
AcDbArc
 50
113.2698239584475
 51
180.0
  0
LINE
  5
2EF1
330
1F
100
AcDbEntity
  8
太線
100
AcDbLine
 10
59.45547552995652
 20
232.8256604065053
 30
0.0
 11
59.45547552995652
 21
234.5020379926481
 31
0.0
  0
LINE
  5
2EF2
330
1F
100
AcDbEntity
  8
太線
100
AcDbLine
 10
61.45547552995651
 20
232.8256604065053
 30
0.0
 11
59.45547552995652
 21
232.8256604065053
 31
0.0
  0
ARC
  5
2EF3
330
1F
100
AcDbEntity
  8
太線
100
AcDbCircle
 10
67.95547552995651
 20
234.5020379926481
 30
0.0
 40
0.5
100
AcDbArc
 50
0.0
 51
66.73017604155245
  0
LINE
  5
2EF4
330
1F
100
AcDbEntity
  8
太線
100
AcDbLine
 10
68.45547552995651
 20
232.8256604065053
 30
0.0
 11
66.45547552995651
 21
232.8256604065053
 31
0.0
  0
LINE
  5
2EF5
330
1F
100
AcDbEntity
  8
太線
100
AcDbLine
 10
68.45547552995651
 20
234.5020379926481
 30
0.0
 11
68.45547552995651
 21
232.8256604065053
 31
0.0
  0
LINE
  5
2EF6
330
1F
100
AcDbEntity
  8
細線
100
AcDbLine
 10
232.1458160052109
 20
224.3786219155861
 30
0.0
 11
232.1458160052109
 21
218.3786219155861
 31
0.0
  0
LINE
  5
2EF7
330
1F
100
AcDbEntity
  8
細線
100
AcDbLine
 10
228.1458160052109
 20
224.3786219155861
 30
0.0
 11
228.1458160052109
 21
218.3786219155861
 31
0.0
  0
LINE
  5
2EF8
330
1F
100
AcDbEntity
  8
太線
100
AcDbLine
 10
227.6458160052109
 20
218.878621915586
 30
0.0
 11
227.6458160052109
 21
224.3786219155861
 31
0.0
  0
LINE
  5
2EF9
330
1F
100
AcDbEntity
  8
太線
100
AcDbLine
 10
232.6458160052109
 20
224.3786219155861
 30
0.0
 11
232.6458160052109
 21
218.8786219155861
 31
0.0
  0
LINE
  5
2EFA
330
1F
100
AcDbEntity
  8
太線
100
AcDbLine
 10
232.1458160052109
 20
218.3786219155861
 30
0.0
 11
228.1458160052109
 21
218.3786219155861
 31
0.0
  0
ARC
  5
2EFB
330
1F
100
AcDbEntity
  8
太線
100
AcDbCircle
 10
228.1458160052109
 20
218.878621915586
 30
0.0
 40
0.5
100
AcDbArc
 50
180.0
 51
270.0
  0
ARC
  5
2EFC
330
1F
100
AcDbEntity
  8
太線
100
AcDbCircle
 10
232.1458160052109
 20
218.8786219155861
 30
0.0
 40
0.5
100
AcDbArc
 50
270.0000000000003
 51
0.0
  0
ARC
  5
2EFD
330
1F
100
AcDbEntity
  8
太線
100
AcDbCircle
 10
230.1458160052109
 20
216.7536219155861
 30
0.0
 40
10.625
100
AcDbArc
 50
66.73017604155141
 51
113.2698239584485
  0
ARC
  5
2EFE
330
1F
100
AcDbEntity
  8
太線
100
AcDbCircle
 10
226.1458160052109
 20
226.0549995017289
 30
0.0
 40
0.5
100
AcDbArc
 50
113.2698239584475
 51
180.0
  0
LINE
  5
2EFF
330
1F
100
AcDbEntity
  8
太線
100
AcDbLine
 10
225.6458160052109
 20
224.3786219155861
 30
0.0
 11
225.6458160052109
 21
226.0549995017289
 31
0.0
  0
LINE
  5
2F00
330
1F
100
AcDbEntity
  8
太線
100
AcDbLine
 10
227.6458160052109
 20
224.3786219155861
 30
0.0
 11
225.6458160052109
 21
224.3786219155861
 31
0.0
  0
ARC
  5
2F01
330
1F
100
AcDbEntity
  8
太線
100
AcDbCircle
 10
234.1458160052109
 20
226.0549995017289
 30
0.0
 40
0.5
100
AcDbArc
 50
0.0
 51
66.73017604155245
  0
LINE
  5
2F02
330
1F
100
AcDbEntity
  8
太線
100
AcDbLine
 10
234.6458160052109
 20
224.3786219155861
 30
0.0
 11
232.6458160052109
 21
224.3786219155861
 31
0.0
  0
LINE
  5
2F03
330
1F
100
AcDbEntity
  8
太線
100
AcDbLine
 10
234.6458160052109
 20
226.0549995017289
 30
0.0
 11
234.6458160052109
 21
224.3786219155861
 31
0.0
  0
LINE
  5
2F0B
330
1F
100
AcDbEntity
  8
太線
100
AcDbLine
 10
98.94957207553694
 20
84.93233542118941
 30
0.0
 11
98.94957207553694
 21
81.63233542118943
 31
0.0
  0
LINE
  5
2F0C
330
1F
100
AcDbEntity
  8
太線
100
AcDbLine
 10
95.94957207553694
 20
81.63233542118941
 30
0.0
 11
95.94957207553694
 21
84.93233542118941
 31
0.0
  0
LINE
  5
2F0D
330
1F
100
AcDbEntity
  8
細線
100
AcDbLine
 10
96.24957207553689
 20
84.93233542118941
 30
0.0
 11
96.24957207553689
 21
81.33233542118942
 31
0.0
  0
LINE
  5
2F0E
330
1F
100
AcDbEntity
  8
細線
100
AcDbLine
 10
98.64957207553686
 20
84.93233542118941
 30
0.0
 11
98.64957207553686
 21
81.33233542118942
 31
0.0
  0
LINE
  5
2F0F
330
1F
100
AcDbEntity
  8
細線
100
AcDbLine
 10
96.21251661748926
 20
84.89851662137546
 30
0.0
 11
96.21251661748926
 21
82.49851662137546
 31
0.0
  0
LINE
  5
2F10
330
1F
100
AcDbEntity
  8
細線
100
AcDbLine
 10
98.6125166174893
 20
84.89851662137546
 30
0.0
 11
98.6125166174893
 21
82.49851662137546
 31
0.0
  0
LINE
  5
2F11
330
1F
100
AcDbEntity
  8
太線
100
AcDbLine
 10
95.91251661748925
 20
84.89851662137546
 30
0.0
 11
95.91251661748925
 21
82.49851662137546
 31
0.0
  0
LINE
  5
2F12
330
1F
100
AcDbEntity
  8
太線
100
AcDbLine
 10
98.91251661748924
 20
84.89851662137546
 30
0.0
 11
98.91251661748924
 21
82.49851662137546
 31
0.0
  0
LINE
  5
2F14
330
1F
100
AcDbEntity
  8
太線
100
AcDbLine
 10
75.49702311785091
 20
84.89851662137546
 30
0.0
 11
75.49702311785091
 21
82.49851662137546
 31
0.0
  0
LINE
  5
2F15
330
1F
100
AcDbEntity
  8
太線
100
AcDbLine
 10
78.49702311785091
 20
84.89851662137546
 30
0.0
 11
78.49702311785091
 21
82.49851662137546
 31
0.0
  0
LINE
  5
2F16
330
1F
100
AcDbEntity
  8
細線
100
AcDbLine
 10
75.79702311785093
 20
84.89851662137546
 30
0.0
 11
75.79702311785093
 21
82.49851662137546
 31
0.0
  0
LINE
  5
2F17
330
1F
100
AcDbEntity
  8
細線
100
AcDbLine
 10
78.1970231178509
 20
84.89851662137546
 30
0.0
 11
78.1970231178509
 21
82.49851662137546
 31
0.0
  0
LINE
  5
2F18
330
1F
100
AcDbEntity
  8
細線
100
AcDbLine
 10
116.5970231178508
 20
84.89851662137546
 30
0.0
 11
116.5970231178508
 21
82.49851662137546
 31
0.0
  0
LINE
  5
2F19
330
1F
100
AcDbEntity
  8
細線
100
AcDbLine
 10
118.9970231178509
 20
82.49851662137546
 30
0.0
 11
118.9970231178509
 21
84.89851662137546
 31
0.0
  0
LINE
  5
2F1A
330
1F
100
AcDbEntity
  8
太線
100
AcDbLine
 10
116.2970231178509
 20
84.89851662137546
 30
0.0
 11
116.2970231178509
 21
82.49851662137546
 31
0.0
  0
LINE
  5
2F1B
330
1F
100
AcDbEntity
  8
太線
100
AcDbLine
 10
119.2970231178509
 20
84.89851662137546
 30
0.0
 11
119.2970231178509
 21
82.49851662137546
 31
0.0
  0
LINE
  5
2F1C
330
1F
100
AcDbEntity
  8
太線
100
AcDbLine
 10
69.79702311785093
 20
50.99851662137545
 30
0.0
 11
69.79702311785093
 21
84.59851662137545
 31
0.0
  0
LINE
  5
2F1D
330
1F
100
AcDbEntity
  8
太線
100
AcDbLine
 10
124.9970231178509
 20
84.59851662137545
 30
0.0
 11
124.9970231178509
 21
82.49851662137546
 31
0.0
  0
LINE
  5
2F20
330
1F
100
AcDbEntity
  8
太線
100
AcDbLine
 10
69.79702311785093
 20
82.49851662137546
 30
0.0
 11
124.9970231178509
 21
82.49851662137546
 31
0.0
  0
LINE
  5
2F21
330
1F
100
AcDbEntity
  8
太線
100
AcDbLine
 10
124.6970231178509
 20
50.69851662137546
 30
0.0
 11
70.0970231178509
 21
50.69851662137546
 31
0.0
  0
ARC
  5
2F22
330
1F
100
AcDbEntity
  8
太線
100
AcDbCircle
 10
70.0970231178509
 20
50.99851662137545
 30
0.0
 40
0.3
100
AcDbArc
 50
180.0
 51
270.0
  0
LINE
  5
2F25
330
1F
100
AcDbEntity
  8
太線
100
AcDbLine
 10
98.64957207553686
 20
81.33233542118942
 30
0.0
 11
96.24957207553689
 21
81.33233542118942
 31
0.0
  0
ARC
  5
2F26
330
1F
100
AcDbEntity
  8
太線
100
AcDbCircle
 10
96.24957207553689
 20
81.63233542118941
 30
0.0
 40
0.3
100
AcDbArc
 50
180.0
 51
270.0
  0
ARC
  5
2F27
330
1F
100
AcDbEntity
  8
太線
100
AcDbCircle
 10
98.64957207553686
 20
81.63233542118943
 30
0.0
 40
0.3
100
AcDbArc
 50
270.0000000000003
 51
0.0
  0
LINE
  5
2F28
330
1F
100
AcDbEntity
  8
太線
100
AcDbLine
 10
97.41251661748925
 20
82.48286558172368
 30
0.0
 11
97.41251661748925
 21
82.48286558172368
 31
0.0
  0
LINE
  5
2F29
330
1F
100
AcDbEntity
  8
太線
100
AcDbLine
 10
124.9970231178509
 20
82.49851662137546
 30
0.0
 11
124.9970231178509
 21
50.99851662137545
 31
0.0
  0
ARC
  5
2F2A
330
1F
100
AcDbEntity
  8
太線
100
AcDbCircle
 10
124.6970231178509
 20
50.99851662137545
 30
0.0
 40
0.3
100
AcDbArc
 50
270.0
 51
0.0
  0
LINE
  5
2F2D
330
1F
100
AcDbEntity
  8
太線
100
AcDbLine
 10
70.0970231178509
 20
84.89851662137546
 30
0.0
 11
124.6970231178509
 21
84.89851662137546
 31
0.0
  0
ARC
  5
2F2E
330
1F
100
AcDbEntity
  8
太線
100
AcDbCircle
 10
70.0970231178509
 20
84.59851662137545
 30
0.0
 40
0.3
100
AcDbArc
 50
90.0
 51
180.0
  0
LINE
  5
2F3C
330
1F
100
AcDbEntity
  8
太線
100
AcDbLine
 10
100.1495720755368
 20
84.93233542118941
 30
0.0
 11
98.94957207553694
 21
84.93233542118941
 31
0.0
  0
ARC
  5
2F3D
330
1F
100
AcDbEntity
  8
太線
100
AcDbCircle
 10
97.44957207553694
 20
80.35733542118943
 30
0.0
 40
6.375
100
AcDbArc
 50
66.73017604155141
 51
113.2698239584485
  0
LINE
  5
2F3E
330
1F
100
AcDbEntity
  8
太線
100
AcDbLine
 10
95.94957207553694
 20
84.93233542118941
 30
0.0
 11
94.74957207553689
 21
84.93233542118941
 31
0.0
  0
LINE
  5
2F3F
330
1F
100
AcDbEntity
  8
太線
100
AcDbLine
 10
94.74957207553689
 20
84.93233542118941
 30
0.0
 11
94.74957207553689
 21
85.93816197287511
 31
0.0
  0
ARC
  5
2F40
330
1F
100
AcDbEntity
  8
太線
100
AcDbCircle
 10
95.0495720755369
 20
85.93816197287511
 30
0.0
 40
0.3
100
AcDbArc
 50
113.2698239584475
 51
180.0
  0
LINE
  5
2F41
330
1F
100
AcDbEntity
  8
太線
100
AcDbLine
 10
100.1495720755368
 20
85.93816197287511
 30
0.0
 11
100.1495720755368
 21
84.93233542118941
 31
0.0
  0
ARC
  5
2F42
330
1F
100
AcDbEntity
  8
太線
100
AcDbCircle
 10
99.84957207553691
 20
85.93816197287511
 30
0.0
 40
0.3
100
AcDbArc
 50
0.0
 51
66.73017604155245
  0
LINE
  5
2F43
330
1F
100
AcDbEntity
  8
細線
100
AcDbLine
 10
118.9970231178509
 20
85.95538796991545
 30
0.0
 11
118.9970231178509
 21
82.35538796991546
 31
0.0
  0
LINE
  5
2F44
330
1F
100
AcDbEntity
  8
細線
100
AcDbLine
 10
116.5970231178508
 20
85.95538796991545
 30
0.0
 11
116.5970231178508
 21
82.35538796991546
 31
0.0
  0
LINE
  5
2F45
330
1F
100
AcDbEntity
  8
太線
100
AcDbLine
 10
116.2970231178509
 20
82.65538796991545
 30
0.0
 11
116.2970231178509
 21
85.95538796991545
 31
0.0
  0
LINE
  5
2F46
330
1F
100
AcDbEntity
  8
太線
100
AcDbLine
 10
119.2970231178509
 20
85.95538796991545
 30
0.0
 11
119.2970231178509
 21
82.65538796991547
 31
0.0
  0
LINE
  5
2F47
330
1F
100
AcDbEntity
  8
太線
100
AcDbLine
 10
118.9970231178509
 20
82.35538796991546
 30
0.0
 11
116.5970231178508
 21
82.35538796991546
 31
0.0
  0
ARC
  5
2F48
330
1F
100
AcDbEntity
  8
太線
100
AcDbCircle
 10
116.5970231178508
 20
82.65538796991545
 30
0.0
 40
0.3
100
AcDbArc
 50
180.0
 51
270.0
  0
ARC
  5
2F49
330
1F
100
AcDbEntity
  8
太線
100
AcDbCircle
 10
118.9970231178509
 20
82.65538796991547
 30
0.0
 40
0.3
100
AcDbArc
 50
270.0000000000003
 51
0.0
  0
ARC
  5
2F4A
330
1F
100
AcDbEntity
  8
太線
100
AcDbCircle
 10
117.7970231178509
 20
81.38038796991548
 30
0.0
 40
6.375
100
AcDbArc
 50
66.73017604155141
 51
113.2698239584485
  0
ARC
  5
2F4B
330
1F
100
AcDbEntity
  8
太線
100
AcDbCircle
 10
115.3970231178509
 20
86.96121452160117
 30
0.0
 40
0.3
100
AcDbArc
 50
113.2698239584475
 51
180.0
  0
LINE
  5
2F4C
330
1F
100
AcDbEntity
  8
太線
100
AcDbLine
 10
115.0970231178508
 20
85.95538796991545
 30
0.0
 11
115.0970231178508
 21
86.96121452160117
 31
0.0
  0
LINE
  5
2F4D
330
1F
100
AcDbEntity
  8
太線
100
AcDbLine
 10
116.2970231178509
 20
85.95538796991545
 30
0.0
 11
115.0970231178508
 21
85.95538796991545
 31
0.0
  0
ARC
  5
2F4E
330
1F
100
AcDbEntity
  8
太線
100
AcDbCircle
 10
120.1970231178508
 20
86.96121452160117
 30
0.0
 40
0.3
100
AcDbArc
 50
0.0
 51
66.73017604155245
  0
LINE
  5
2F4F
330
1F
100
AcDbEntity
  8
太線
100
AcDbLine
 10
120.4970231178509
 20
85.95538796991545
 30
0.0
 11
119.2970231178509
 21
85.95538796991545
 31
0.0
  0
LINE
  5
2F50
330
1F
100
AcDbEntity
  8
太線
100
AcDbLine
 10
120.4970231178509
 20
86.96121452160117
 30
0.0
 11
120.4970231178509
 21
85.95538796991545
 31
0.0
  0
ARC
  5
2F51
330
1F
100
AcDbEntity
  8
太線
100
AcDbCircle
 10
124.6970231178509
 20
84.59851662137545
 30
0.0
 40
0.3
100
AcDbArc
 50
0.0
 51
90.0
  0
XLINE
  5
2FA3
330
1F
100
AcDbEntity
  8
構築線
100
AcDbXline
 10
162.8191928992862
 20
-71.25591041962469
 30
0.0
 11
1.0
 21
0.0
 31
0.0
  0
XLINE
  5
2FA4
330
1F
100
AcDbEntity
  8
構築線
100
AcDbXline
 10
162.3191928992862
 20
-124.2559104196246
 30
0.0
 11
1.0
 21
0.0
 31
0.0
  0
XLINE
  5
2FA5
330
1F
100
AcDbEntity
  8
構築線
100
AcDbXline
 10
162.3191928992862
 20
-120.2559104196246
 30
0.0
 11
1.0
 21
0.0
 31
0.0
  0
LINE
  5
2FAA
330
1F
100
AcDbEntity
  8
太線
100
AcDbLine
 10
142.3379286097955
 20
84.89851662137546
 30
0.0
 11
196.9379286097955
 21
84.89851662137546
 31
0.0
  0
LINE
  5
2FAB
330
1F
100
AcDbEntity
  8
太線
100
AcDbLine
 10
196.9379286097955
 20
50.69851662137546
 30
0.0
 11
142.3379286097955
 21
50.69851662137546
 31
0.0
  0
LINE
  5
2FAC
330
1F
100
AcDbEntity
  8
太線
100
AcDbLine
 10
142.0379286097955
 20
82.49851662137546
 30
0.0
 11
197.2379286097955
 21
82.49851662137546
 31
0.0
  0
LINE
  5
2FAD
330
1F
100
AcDbEntity
  8
太線
100
AcDbLine
 10
142.0379286097955
 20
50.99851662137545
 30
0.0
 11
142.0379286097955
 21
84.59851662137545
 31
0.0
  0
ARC
  5
2FAE
330
1F
100
AcDbEntity
  8
太線
100
AcDbCircle
 10
142.3379286097955
 20
50.99851662137545
 30
0.0
 40
0.3
100
AcDbArc
 50
180.0
 51
270.0
  0
ARC
  5
2FAF
330
1F
100
AcDbEntity
  8
太線
100
AcDbCircle
 10
142.3379286097955
 20
84.59851662137545
 30
0.0
 40
0.3
100
AcDbArc
 50
90.0
 51
180.0
  0
LINE
  5
2FB0
330
1F
100
AcDbEntity
  8
細線
100
AcDbLine
 10
150.4379286097955
 20
84.89851662137546
 30
0.0
 11
150.4379286097955
 21
82.49851662137546
 31
0.0
  0
LINE
  5
2FB1
330
1F
100
AcDbEntity
  8
細線
100
AcDbLine
 10
148.0379286097955
 20
84.89851662137546
 30
0.0
 11
148.0379286097955
 21
82.49851662137546
 31
0.0
  0
LINE
  5
2FB2
330
1F
100
AcDbEntity
  8
太線
100
AcDbLine
 10
150.7379286097956
 20
84.89851662137546
 30
0.0
 11
150.7379286097956
 21
82.49851662137546
 31
0.0
  0
LINE
  5
2FB3
330
1F
100
AcDbEntity
  8
太線
100
AcDbLine
 10
147.7379286097956
 20
84.89851662137546
 30
0.0
 11
147.7379286097956
 21
82.49851662137546
 31
0.0
  0
LINE
  5
2FB4
330
1F
100
AcDbEntity
  8
太線
100
AcDbLine
 10
171.1534221094339
 20
86.83315969246981
 30
0.0
 11
171.1534221094339
 21
84.43315969246983
 31
0.0
  0
LINE
  5
2FB5
330
1F
100
AcDbEntity
  8
太線
100
AcDbLine
 10
168.1534221094339
 20
86.83315969246981
 30
0.0
 11
168.1534221094339
 21
84.43315969246983
 31
0.0
  0
LINE
  5
2FB6
330
1F
100
AcDbEntity
  8
細線
100
AcDbLine
 10
170.8534221094339
 20
86.83315969246981
 30
0.0
 11
170.8534221094339
 21
84.43315969246983
 31
0.0
  0
LINE
  5
2FB7
330
1F
100
AcDbEntity
  8
細線
100
AcDbLine
 10
168.4534221094339
 20
86.83315969246981
 30
0.0
 11
168.4534221094339
 21
84.43315969246983
 31
0.0
  0
LINE
  5
2FB8
330
1F
100
AcDbEntity
  8
細線
100
AcDbLine
 10
170.8904775674815
 20
86.86697849228378
 30
0.0
 11
170.8904775674815
 21
83.26697849228379
 31
0.0
  0
LINE
  5
2FB9
330
1F
100
AcDbEntity
  8
細線
100
AcDbLine
 10
168.4904775674815
 20
86.86697849228378
 30
0.0
 11
168.4904775674815
 21
83.26697849228379
 31
0.0
  0
LINE
  5
2FBA
330
1F
100
AcDbEntity
  8
太線
100
AcDbLine
 10
168.1904775674816
 20
83.56697849228378
 30
0.0
 11
168.1904775674816
 21
86.86697849228378
 31
0.0
  0
LINE
  5
2FBB
330
1F
100
AcDbEntity
  8
太線
100
AcDbLine
 10
171.1904775674816
 20
86.86697849228378
 30
0.0
 11
171.1904775674816
 21
83.5669784922838
 31
0.0
  0
LINE
  5
2FBC
330
1F
100
AcDbEntity
  8
太線
100
AcDbLine
 10
170.8904775674815
 20
83.26697849228379
 30
0.0
 11
168.4904775674815
 21
83.26697849228377
 31
0.0
  0
ARC
  5
2FBD
330
1F
100
AcDbEntity
  8
太線
100
AcDbCircle
 10
168.4904775674815
 20
83.56697849228378
 30
0.0
 40
0.3
100
AcDbArc
 50
180.0
 51
270.0
  0
LINE
  5
2FBE
330
1F
100
AcDbEntity
  8
太線
100
AcDbLine
 10
169.6534221094339
 20
84.41750865281804
 30
0.0
 11
169.6534221094339
 21
84.41750865281804
 31
0.0
  0
ARC
  5
2FBF
330
1F
100
AcDbEntity
  8
太線
100
AcDbCircle
 10
170.8904775674815
 20
83.5669784922838
 30
0.0
 40
0.3
100
AcDbArc
 50
270.0000000000003
 51
0.0
  0
ARC
  5
2FC0
330
1F
100
AcDbEntity
  8
太線
100
AcDbCircle
 10
169.6904775674815
 20
82.29197849228379
 30
0.0
 40
6.375
100
AcDbArc
 50
66.73017604155141
 51
113.2698239584485
  0
LINE
  5
2FC1
330
1F
100
AcDbEntity
  8
太線
100
AcDbLine
 10
172.3904775674815
 20
86.86697849228378
 30
0.0
 11
171.1904775674816
 21
86.86697849228378
 31
0.0
  0
ARC
  5
2FC2
330
1F
100
AcDbEntity
  8
太線
100
AcDbCircle
 10
167.2904775674816
 20
87.87280504396948
 30
0.0
 40
0.3
100
AcDbArc
 50
113.2698239584475
 51
180.0
  0
LINE
  5
2FC3
330
1F
100
AcDbEntity
  8
太線
100
AcDbLine
 10
166.9904775674815
 20
86.86697849228378
 30
0.0
 11
166.9904775674815
 21
87.87280504396948
 31
0.0
  0
LINE
  5
2FC4
330
1F
100
AcDbEntity
  8
太線
100
AcDbLine
 10
168.1904775674816
 20
86.86697849228378
 30
0.0
 11
166.9904775674815
 21
86.86697849228378
 31
0.0
  0
ARC
  5
2FC5
330
1F
100
AcDbEntity
  8
太線
100
AcDbCircle
 10
172.0904775674815
 20
87.87280504396948
 30
0.0
 40
0.3
100
AcDbArc
 50
0.0
 51
66.73017604155245
  0
LINE
  5
2FC6
330
1F
100
AcDbEntity
  8
太線
100
AcDbLine
 10
172.3904775674815
 20
87.87280504396948
 30
0.0
 11
172.3904775674815
 21
86.86697849228378
 31
0.0
  0
LINE
  5
2FC7
330
1F
100
AcDbEntity
  8
太線
100
AcDbLine
 10
197.2379286097955
 20
82.49851662137546
 30
0.0
 11
197.2379286097955
 21
50.99851662137545
 31
0.0
  0
ARC
  5
2FC8
330
1F
100
AcDbEntity
  8
太線
100
AcDbCircle
 10
196.9379286097955
 20
50.99851662137545
 30
0.0
 40
0.3
100
AcDbArc
 50
270.0
 51
0.0
  0
LINE
  5
2FC9
330
1F
100
AcDbEntity
  8
太線
100
AcDbLine
 10
197.2379286097955
 20
84.59851662137545
 30
0.0
 11
197.2379286097955
 21
82.49851662137546
 31
0.0
  0
LINE
  5
2FCA
330
1F
100
AcDbEntity
  8
太線
100
AcDbLine
 10
191.5379286097955
 20
84.89851662137546
 30
0.0
 11
191.5379286097955
 21
82.49851662137546
 31
0.0
  0
LINE
  5
2FCB
330
1F
100
AcDbEntity
  8
太線
100
AcDbLine
 10
188.5379286097955
 20
84.89851662137546
 30
0.0
 11
188.5379286097955
 21
82.49851662137546
 31
0.0
  0
LINE
  5
2FCC
330
1F
100
AcDbEntity
  8
細線
100
AcDbLine
 10
191.2379286097955
 20
82.49851662137546
 30
0.0
 11
191.2379286097955
 21
84.89851662137546
 31
0.0
  0
LINE
  5
2FCD
330
1F
100
AcDbEntity
  8
細線
100
AcDbLine
 10
188.8379286097956
 20
84.89851662137546
 30
0.0
 11
188.8379286097956
 21
82.49851662137546
 31
0.0
  0
LINE
  5
2FCE
330
1F
100
AcDbEntity
  8
太線
100
AcDbLine
 10
191.5379286097955
 20
86.68087907883551
 30
0.0
 11
191.5379286097955
 21
83.38087907883553
 31
0.0
  0
LINE
  5
2FCF
330
1F
100
AcDbEntity
  8
太線
100
AcDbLine
 10
188.5379286097955
 20
83.38087907883549
 30
0.0
 11
188.5379286097955
 21
86.68087907883551
 31
0.0
  0
LINE
  5
2FD0
330
1F
100
AcDbEntity
  8
細線
100
AcDbLine
 10
188.8379286097956
 20
86.68087907883551
 30
0.0
 11
188.8379286097956
 21
83.08087907883551
 31
0.0
  0
LINE
  5
2FD1
330
1F
100
AcDbEntity
  8
細線
100
AcDbLine
 10
191.2379286097955
 20
86.68087907883551
 30
0.0
 11
191.2379286097955
 21
83.08087907883551
 31
0.0
  0
LINE
  5
2FD2
330
1F
100
AcDbEntity
  8
太線
100
AcDbLine
 10
191.2379286097955
 20
83.08087907883551
 30
0.0
 11
188.8379286097956
 21
83.0808790788355
 31
0.0
  0
ARC
  5
2FD3
330
1F
100
AcDbEntity
  8
太線
100
AcDbCircle
 10
188.8379286097956
 20
83.38087907883549
 30
0.0
 40
0.3
100
AcDbArc
 50
180.0
 51
270.0
  0
ARC
  5
2FD4
330
1F
100
AcDbEntity
  8
太線
100
AcDbCircle
 10
191.2379286097955
 20
83.38087907883553
 30
0.0
 40
0.3
100
AcDbArc
 50
270.0000000000003
 51
0.0
  0
ARC
  5
2FD5
330
1F
100
AcDbEntity
  8
太線
100
AcDbCircle
 10
190.0379286097955
 20
82.10587907883551
 30
0.0
 40
6.375
100
AcDbArc
 50
66.73017604155141
 51
113.2698239584485
  0
LINE
  5
2FD6
330
1F
100
AcDbEntity
  8
太線
100
AcDbLine
 10
188.5379286097955
 20
86.68087907883551
 30
0.0
 11
187.3379286097955
 21
86.68087907883551
 31
0.0
  0
LINE
  5
2FD7
330
1F
100
AcDbEntity
  8
太線
100
AcDbLine
 10
187.3379286097955
 20
86.68087907883551
 30
0.0
 11
187.3379286097955
 21
87.6867056305212
 31
0.0
  0
ARC
  5
2FD8
330
1F
100
AcDbEntity
  8
太線
100
AcDbCircle
 10
187.6379286097956
 20
87.6867056305212
 30
0.0
 40
0.3
100
AcDbArc
 50
113.2698239584475
 51
180.0
  0
LINE
  5
2FD9
330
1F
100
AcDbEntity
  8
太線
100
AcDbLine
 10
192.7379286097955
 20
87.6867056305212
 30
0.0
 11
192.7379286097955
 21
86.68087907883551
 31
0.0
  0
LINE
  5
2FDA
330
1F
100
AcDbEntity
  8
太線
100
AcDbLine
 10
192.7379286097955
 20
86.68087907883551
 30
0.0
 11
191.5379286097955
 21
86.68087907883551
 31
0.0
  0
ARC
  5
2FDB
330
1F
100
AcDbEntity
  8
太線
100
AcDbCircle
 10
192.4379286097955
 20
87.6867056305212
 30
0.0
 40
0.3
100
AcDbArc
 50
0.0
 51
66.73017604155245
  0
ARC
  5
2FDC
330
1F
100
AcDbEntity
  8
太線
100
AcDbCircle
 10
196.9379286097955
 20
84.59851662137545
 30
0.0
 40
0.3
100
AcDbArc
 50
0.0
 51
90.0
  0
LINE
  5
2FF8
330
1F
100
AcDbEntity
  8
細線
100
AcDbLine
 10
168.5054911901926
 20
84.89851662137546
 30
0.0
 11
168.5054911901926
 21
82.49851662137546
 31
0.0
  0
LINE
  5
2FF9
330
1F
100
AcDbEntity
  8
細線
100
AcDbLine
 10
170.9054911901927
 20
82.49851662137546
 30
0.0
 11
170.9054911901927
 21
84.89851662137546
 31
0.0
  0
LINE
  5
2FFA
330
1F
100
AcDbEntity
  8
太線
100
AcDbLine
 10
168.2054911901926
 20
84.89851662137546
 30
0.0
 11
168.2054911901926
 21
82.49851662137546
 31
0.0
  0
LINE
  5
2FFB
330
1F
100
AcDbEntity
  8
太線
100
AcDbLine
 10
171.2054911901926
 20
84.89851662137546
 30
0.0
 11
171.2054911901926
 21
82.49851662137546
 31
0.0
  0
LINE
  5
2FFC
330
1F
100
AcDbEntity
  8
太線
100
AcDbLine
 10
151.9520272663863
 20
86.68087907883551
 30
0.0
 11
150.7520272663863
 21
86.68087907883551
 31
0.0
  0
ARC
  5
2FFD
330
1F
100
AcDbEntity
  8
太線
100
AcDbCircle
 10
151.6520272663863
 20
87.6867056305212
 30
0.0
 40
0.3
100
AcDbArc
 50
0.0
 51
66.73017604155245
  0
LINE
  5
2FFE
330
1F
100
AcDbEntity
  8
太線
100
AcDbLine
 10
150.7520272663863
 20
86.68087907883551
 30
0.0
 11
150.7520272663863
 21
83.38087907883553
 31
0.0
  0
LINE
  5
2FFF
330
1F
100
AcDbEntity
  8
太線
100
AcDbLine
 10
147.7520272663863
 20
83.38087907883549
 30
0.0
 11
147.7520272663863
 21
86.68087907883551
 31
0.0
  0
LINE
  5
3000
330
1F
100
AcDbEntity
  8
細線
100
AcDbLine
 10
148.0520272663863
 20
86.68087907883551
 30
0.0
 11
148.0520272663863
 21
83.08087907883551
 31
0.0
  0
LINE
  5
3001
330
1F
100
AcDbEntity
  8
細線
100
AcDbLine
 10
150.4520272663863
 20
86.68087907883551
 30
0.0
 11
150.4520272663863
 21
83.08087907883551
 31
0.0
  0
LINE
  5
3002
330
1F
100
AcDbEntity
  8
太線
100
AcDbLine
 10
150.4520272663863
 20
83.08087907883551
 30
0.0
 11
148.0520272663863
 21
83.0808790788355
 31
0.0
  0
ARC
  5
3003
330
1F
100
AcDbEntity
  8
太線
100
AcDbCircle
 10
148.0520272663863
 20
83.38087907883549
 30
0.0
 40
0.3
100
AcDbArc
 50
180.0
 51
270.0
  0
ARC
  5
3004
330
1F
100
AcDbEntity
  8
太線
100
AcDbCircle
 10
150.4520272663863
 20
83.38087907883553
 30
0.0
 40
0.3
100
AcDbArc
 50
270.0000000000003
 51
0.0
  0
ARC
  5
3005
330
1F
100
AcDbEntity
  8
太線
100
AcDbCircle
 10
149.2520272663863
 20
82.10587907883551
 30
0.0
 40
6.375
100
AcDbArc
 50
66.73017604155141
 51
113.2698239584485
  0
LINE
  5
3006
330
1F
100
AcDbEntity
  8
太線
100
AcDbLine
 10
147.7520272663863
 20
86.68087907883551
 30
0.0
 11
146.5520272663863
 21
86.68087907883551
 31
0.0
  0
ARC
  5
3007
330
1F
100
AcDbEntity
  8
太線
100
AcDbCircle
 10
146.8520272663863
 20
87.6867056305212
 30
0.0
 40
0.3
100
AcDbArc
 50
113.2698239584475
 51
180.0
  0
LINE
  5
3008
330
1F
100
AcDbEntity
  8
太線
100
AcDbLine
 10
146.5520272663863
 20
86.68087907883551
 30
0.0
 11
146.5520272663863
 21
87.6867056305212
 31
0.0
  0
LINE
  5
3009
330
1F
100
AcDbEntity
  8
太線
100
AcDbLine
 10
151.9520272663863
 20
87.6867056305212
 30
0.0
 11
151.9520272663863
 21
86.68087907883551
 31
0.0
  0
LINE
  5
300A
330
1F
100
AcDbEntity
  8
細線
100
AcDbLine
 10
78.21112177444167
 20
85.95538796991545
 30
0.0
 11
78.21112177444167
 21
82.35538796991546
 31
0.0
  0
LINE
  5
300B
330
1F
100
AcDbEntity
  8
細線
100
AcDbLine
 10
75.81112177444166
 20
85.95538796991545
 30
0.0
 11
75.81112177444166
 21
82.35538796991546
 31
0.0
  0
LINE
  5
300C
330
1F
100
AcDbEntity
  8
太線
100
AcDbLine
 10
75.51112177444167
 20
82.65538796991545
 30
0.0
 11
75.51112177444167
 21
85.95538796991545
 31
0.0
  0
LINE
  5
300D
330
1F
100
AcDbEntity
  8
太線
100
AcDbLine
 10
78.51112177444168
 20
85.95538796991545
 30
0.0
 11
78.51112177444168
 21
82.65538796991547
 31
0.0
  0
LINE
  5
300E
330
1F
100
AcDbEntity
  8
太線
100
AcDbLine
 10
78.51112177444168
 20
84.89851662137546
 30
0.0
 11
78.51112177444168
 21
82.49851662137546
 31
0.0
  0
LINE
  5
300F
330
1F
100
AcDbEntity
  8
太線
100
AcDbLine
 10
75.51112177444167
 20
84.89851662137546
 30
0.0
 11
75.51112177444167
 21
82.49851662137546
 31
0.0
  0
LINE
  5
3010
330
1F
100
AcDbEntity
  8
細線
100
AcDbLine
 10
78.21112177444167
 20
82.49851662137546
 30
0.0
 11
78.21112177444167
 21
84.89851662137546
 31
0.0
  0
LINE
  5
3011
330
1F
100
AcDbEntity
  8
細線
100
AcDbLine
 10
75.81112177444166
 20
84.89851662137546
 30
0.0
 11
75.81112177444166
 21
82.49851662137546
 31
0.0
  0
LINE
  5
3012
330
1F
100
AcDbEntity
  8
太線
100
AcDbLine
 10
78.21112177444167
 20
82.35538796991546
 30
0.0
 11
75.81112177444166
 21
82.35538796991546
 31
0.0
  0
ARC
  5
3013
330
1F
100
AcDbEntity
  8
太線
100
AcDbCircle
 10
75.81112177444166
 20
82.65538796991545
 30
0.0
 40
0.3
100
AcDbArc
 50
180.0
 51
270.0
  0
ARC
  5
3014
330
1F
100
AcDbEntity
  8
太線
100
AcDbCircle
 10
78.21112177444167
 20
82.65538796991547
 30
0.0
 40
0.3
100
AcDbArc
 50
270.0000000000003
 51
0.0
  0
ARC
  5
3015
330
1F
100
AcDbEntity
  8
太線
100
AcDbCircle
 10
77.01112177444167
 20
81.38038796991548
 30
0.0
 40
6.375
100
AcDbArc
 50
66.73017604155141
 51
113.2698239584485
  0
ARC
  5
3016
330
1F
100
AcDbEntity
  8
太線
100
AcDbCircle
 10
74.61112177444167
 20
86.96121452160117
 30
0.0
 40
0.3
100
AcDbArc
 50
113.2698239584475
 51
180.0
  0
LINE
  5
3017
330
1F
100
AcDbEntity
  8
太線
100
AcDbLine
 10
74.31112177444166
 20
85.95538796991545
 30
0.0
 11
74.31112177444166
 21
86.96121452160117
 31
0.0
  0
LINE
  5
3018
330
1F
100
AcDbEntity
  8
太線
100
AcDbLine
 10
75.51112177444167
 20
85.95538796991545
 30
0.0
 11
74.31112177444166
 21
85.95538796991545
 31
0.0
  0
ARC
  5
3019
330
1F
100
AcDbEntity
  8
太線
100
AcDbCircle
 10
79.41112177444165
 20
86.96121452160117
 30
0.0
 40
0.3
100
AcDbArc
 50
0.0
 51
66.73017604155245
  0
LINE
  5
301A
330
1F
100
AcDbEntity
  8
太線
100
AcDbLine
 10
79.71112177444166
 20
85.95538796991545
 30
0.0
 11
78.51112177444168
 21
85.95538796991545
 31
0.0
  0
LINE
  5
301B
330
1F
100
AcDbEntity
  8
太線
100
AcDbLine
 10
79.71112177444166
 20
86.96121452160117
 30
0.0
 11
79.71112177444166
 21
85.95538796991545
 31
0.0
  0
LINE
  5
301C
330
1F
100
AcDbEntity
  8
太線
100
AcDbLine
 10
37.20180541922394
 20
82.49851662137546
 30
0.0
 11
95.91251661748925
 21
82.49851662137546
 31
0.0
  0
LINE
  5
301D
330
1F
100
AcDbEntity
  8
太線
100
AcDbLine
 10
95.91251661748925
 20
82.49851662137546
 30
0.0
 11
95.91251661748925
 21
53.09851662137545
 31
0.0
  0
LINE
  5
301E
330
1F
100
AcDbEntity
  8
太線
100
AcDbLine
 10
95.91251661748925
 20
53.09851662137545
 30
0.0
 11
37.20180541922394
 21
53.09851662137545
 31
0.0
  0
LINE
  5
301F
330
1F
100
AcDbEntity
  8
太線
100
AcDbLine
 10
98.94957207553694
 20
82.49851662137546
 30
0.0
 11
226.3902358988985
 21
82.49851662137546
 31
0.0
  0
LINE
  5
3020
330
1F
100
AcDbEntity
  8
太線
100
AcDbLine
 10
98.94957207553694
 20
82.49851662137546
 30
0.0
 11
98.94957207553694
 21
53.09851662137545
 31
0.0
  0
LINE
  5
3021
330
1F
100
AcDbEntity
  8
太線
100
AcDbLine
 10
98.94957207553694
 20
53.09851662137545
 30
0.0
 11
228.5048086465897
 21
53.09851662137545
 31
0.0
  0
LINE
  5
3024
330
1F
100
AcDbEntity
  8
太線
  6
DASHED2
 62
     8
100
AcDbLine
 10
234.7483577184965
 20
85.95538796991545
 30
0.0
 11
233.5483577184965
 21
85.95538796991545
 31
0.0
  0
ARC
  5
3025
330
1F
100
AcDbEntity
  8
太線
  6
DASHED2
 62
     8
100
AcDbCircle
 10
236.2483577184965
 20
81.38038796991548
 30
0.0
 40
6.375
100
AcDbArc
 50
66.73017604155141
 51
113.2698239584485
  0
LINE
  5
3026
330
1F
100
AcDbEntity
  8
太線
  6
DASHED2
 62
     8
100
AcDbLine
 10
229.3342590619058
 20
84.89851662137546
 30
0.0
 11
283.9342590619057
 21
84.89851662137546
 31
0.0
  0
LINE
  5
3027
330
1F
100
AcDbEntity
  8
太線
  6
DASHED2
 62
     8
100
AcDbLine
 10
283.9342590619057
 20
50.69851662137546
 30
0.0
 11
229.3342590619058
 21
50.69851662137546
 31
0.0
  0
LINE
  5
3029
330
1F
100
AcDbEntity
  8
太線
  6
DASHED2
 62
     8
100
AcDbLine
 10
229.0342590619057
 20
50.99851662137545
 30
0.0
 11
229.0342590619057
 21
84.59851662137545
 31
0.0
  0
ARC
  5
302A
330
1F
100
AcDbEntity
  8
太線
  6
DASHED2
 62
     8
100
AcDbCircle
 10
229.3342590619058
 20
50.99851662137545
 30
0.0
 40
0.3
100
AcDbArc
 50
180.0
 51
270.0
  0
ARC
  5
302B
330
1F
100
AcDbEntity
  8
太線
  6
DASHED2
 62
     8
100
AcDbCircle
 10
229.3342590619058
 20
84.59851662137545
 30
0.0
 40
0.3
100
AcDbArc
 50
90.0
 51
180.0
  0
LINE
  5
302C
330
1F
100
AcDbEntity
  8
太線
  6
DASHED2
 62
     8
100
AcDbLine
 10
233.5483577184965
 20
85.95538796991545
 30
0.0
 11
233.5483577184965
 21
86.96121452160117
 31
0.0
  0
ARC
  5
302D
330
1F
100
AcDbEntity
  8
太線
  6
DASHED2
 62
     8
100
AcDbCircle
 10
233.8483577184965
 20
86.96121452160117
 30
0.0
 40
0.3
100
AcDbArc
 50
113.2698239584475
 51
180.0
  0
LINE
  5
3030
330
1F
100
AcDbEntity
  8
細線
  6
DASHED2
 62
     8
100
AcDbLine
 10
235.0483577184965
 20
84.89851662137546
 30
0.0
 11
235.0483577184965
 21
82.49851662137546
 31
0.0
  0
LINE
  5
3031
330
1F
100
AcDbEntity
  8
細線
  6
DASHED2
 62
     8
100
AcDbLine
 10
237.4483577184965
 20
82.49851662137546
 30
0.0
 11
237.4483577184965
 21
84.89851662137546
 31
0.0
  0
LINE
  5
3032
330
1F
100
AcDbEntity
  8
太線
  6
DASHED2
 62
     8
100
AcDbLine
 10
234.7483577184965
 20
84.89851662137546
 30
0.0
 11
234.7483577184965
 21
82.49851662137546
 31
0.0
  0
LINE
  5
3033
330
1F
100
AcDbEntity
  8
太線
  6
DASHED2
 62
     8
100
AcDbLine
 10
237.7483577184965
 20
84.89851662137546
 30
0.0
 11
237.7483577184965
 21
82.49851662137546
 31
0.0
  0
LINE
  5
3034
330
1F
100
AcDbEntity
  8
太線
  6
DASHED2
 62
     8
100
AcDbLine
 10
237.7483577184965
 20
85.95538796991545
 30
0.0
 11
237.7483577184965
 21
82.65538796991547
 31
0.0
  0
LINE
  5
3035
330
1F
100
AcDbEntity
  8
太線
  6
DASHED2
 62
     8
100
AcDbLine
 10
234.7483577184965
 20
82.65538796991545
 30
0.0
 11
234.7483577184965
 21
85.95538796991545
 31
0.0
  0
LINE
  5
3036
330
1F
100
AcDbEntity
  8
細線
  6
DASHED2
 62
     8
100
AcDbLine
 10
235.0483577184965
 20
85.95538796991545
 30
0.0
 11
235.0483577184965
 21
82.35538796991546
 31
0.0
  0
LINE
  5
3037
330
1F
100
AcDbEntity
  8
細線
  6
DASHED2
 62
     8
100
AcDbLine
 10
237.4483577184965
 20
85.95538796991545
 30
0.0
 11
237.4483577184965
 21
82.35538796991546
 31
0.0
  0
LINE
  5
3038
330
1F
100
AcDbEntity
  8
細線
  6
DASHED2
 62
     8
100
AcDbLine
 10
237.4342590619057
 20
84.89851662137546
 30
0.0
 11
237.4342590619057
 21
82.49851662137546
 31
0.0
  0
LINE
  5
3039
330
1F
100
AcDbEntity
  8
細線
  6
DASHED2
 62
     8
100
AcDbLine
 10
235.0342590619058
 20
84.89851662137546
 30
0.0
 11
235.0342590619058
 21
82.49851662137546
 31
0.0
  0
LINE
  5
303A
330
1F
100
AcDbEntity
  8
太線
  6
DASHED2
 62
     8
100
AcDbLine
 10
237.7342590619057
 20
84.89851662137546
 30
0.0
 11
237.7342590619057
 21
82.49851662137546
 31
0.0
  0
LINE
  5
303B
330
1F
100
AcDbEntity
  8
太線
  6
DASHED2
 62
     8
100
AcDbLine
 10
234.7342590619057
 20
84.89851662137546
 30
0.0
 11
234.7342590619057
 21
82.49851662137546
 31
0.0
  0
LINE
  5
303C
330
1F
100
AcDbEntity
  8
太線
  6
DASHED2
 62
     8
100
AcDbLine
 10
237.4483577184965
 20
82.35538796991546
 30
0.0
 11
235.0483577184965
 21
82.35538796991546
 31
0.0
  0
ARC
  5
303D
330
1F
100
AcDbEntity
  8
太線
  6
DASHED2
 62
     8
100
AcDbCircle
 10
235.0483577184965
 20
82.65538796991545
 30
0.0
 40
0.3
100
AcDbArc
 50
180.0
 51
270.0
  0
ARC
  5
303E
330
1F
100
AcDbEntity
  8
太線
  6
DASHED2
 62
     8
100
AcDbCircle
 10
237.4483577184965
 20
82.65538796991547
 30
0.0
 40
0.3
100
AcDbArc
 50
270.0000000000003
 51
0.0
  0
LINE
  5
303F
330
1F
100
AcDbEntity
  8
太線
  6
DASHED2
 62
     8
100
AcDbLine
 10
238.9483577184965
 20
85.95538796991545
 30
0.0
 11
237.7483577184965
 21
85.95538796991545
 31
0.0
  0
LINE
  5
3040
330
1F
100
AcDbEntity
  8
太線
  6
DASHED2
 62
     8
100
AcDbLine
 10
238.9483577184965
 20
86.96121452160117
 30
0.0
 11
238.9483577184965
 21
85.95538796991545
 31
0.0
  0
ARC
  5
3041
330
1F
100
AcDbEntity
  8
太線
  6
DASHED2
 62
     8
100
AcDbCircle
 10
238.6483577184965
 20
86.96121452160117
 30
0.0
 40
0.3
100
AcDbArc
 50
0.0
 51
66.73017604155245
  0
LINE
  5
3042
330
1F
100
AcDbEntity
  8
太線
  6
DASHED2
 62
     8
100
AcDbLine
 10
258.1497525615441
 20
86.08906901787369
 30
0.0
 11
258.1497525615441
 21
83.6890690178737
 31
0.0
  0
LINE
  5
3043
330
1F
100
AcDbEntity
  8
太線
  6
DASHED2
 62
     8
100
AcDbLine
 10
255.1497525615441
 20
86.08906901787369
 30
0.0
 11
255.1497525615441
 21
83.6890690178737
 31
0.0
  0
LINE
  5
3044
330
1F
100
AcDbEntity
  8
細線
  6
DASHED2
 62
     8
100
AcDbLine
 10
257.8497525615441
 20
86.08906901787369
 30
0.0
 11
257.8497525615441
 21
83.6890690178737
 31
0.0
  0
LINE
  5
3045
330
1F
100
AcDbEntity
  8
細線
  6
DASHED2
 62
     8
100
AcDbLine
 10
255.4497525615441
 20
86.08906901787369
 30
0.0
 11
255.4497525615441
 21
83.6890690178737
 31
0.0
  0
LINE
  5
3046
330
1F
100
AcDbEntity
  8
細線
  6
DASHED2
 62
     8
100
AcDbLine
 10
257.8868080195917
 20
86.12288781768766
 30
0.0
 11
257.8868080195917
 21
82.52288781768767
 31
0.0
  0
LINE
  5
3047
330
1F
100
AcDbEntity
  8
細線
  6
DASHED2
 62
     8
100
AcDbLine
 10
255.4868080195917
 20
86.12288781768766
 30
0.0
 11
255.4868080195917
 21
82.52288781768767
 31
0.0
  0
LINE
  5
3048
330
1F
100
AcDbEntity
  8
太線
  6
DASHED2
 62
     8
100
AcDbLine
 10
255.1868080195918
 20
82.82288781768766
 30
0.0
 11
255.1868080195918
 21
86.12288781768766
 31
0.0
  0
LINE
  5
3049
330
1F
100
AcDbEntity
  8
太線
  6
DASHED2
 62
     8
100
AcDbLine
 10
258.1868080195917
 20
86.12288781768766
 30
0.0
 11
258.1868080195917
 21
82.82288781768768
 31
0.0
  0
LINE
  5
304A
330
1F
100
AcDbEntity
  8
太線
  6
DASHED2
 62
     8
100
AcDbLine
 10
257.8868080195917
 20
82.52288781768767
 30
0.0
 11
255.4868080195917
 21
82.52288781768765
 31
0.0
  0
ARC
  5
304B
330
1F
100
AcDbEntity
  8
太線
  6
DASHED2
 62
     8
100
AcDbCircle
 10
255.4868080195917
 20
82.82288781768766
 30
0.0
 40
0.3
100
AcDbArc
 50
180.0
 51
270.0
  0
LINE
  5
304C
330
1F
100
AcDbEntity
  8
太線
  6
DASHED2
 62
     8
100
AcDbLine
 10
256.6497525615441
 20
83.67341797822192
 30
0.0
 11
256.6497525615441
 21
83.67341797822192
 31
0.0
  0
ARC
  5
304D
330
1F
100
AcDbEntity
  8
太線
  6
DASHED2
 62
     8
100
AcDbCircle
 10
257.8868080195917
 20
82.82288781768768
 30
0.0
 40
0.3
100
AcDbArc
 50
270.0000000000003
 51
0.0
  0
ARC
  5
304E
330
1F
100
AcDbEntity
  8
太線
  6
DASHED2
 62
     8
100
AcDbCircle
 10
256.6868080195918
 20
81.54788781768766
 30
0.0
 40
6.375
100
AcDbArc
 50
66.73017604155141
 51
113.2698239584485
  0
LINE
  5
304F
330
1F
100
AcDbEntity
  8
太線
  6
DASHED2
 62
     8
100
AcDbLine
 10
259.3868080195917
 20
86.12288781768766
 30
0.0
 11
258.1868080195917
 21
86.12288781768766
 31
0.0
  0
ARC
  5
3050
330
1F
100
AcDbEntity
  8
太線
  6
DASHED2
 62
     8
100
AcDbCircle
 10
254.2868080195917
 20
87.12871436937335
 30
0.0
 40
0.3
100
AcDbArc
 50
113.2698239584475
 51
180.0
  0
LINE
  5
3051
330
1F
100
AcDbEntity
  8
太線
  6
DASHED2
 62
     8
100
AcDbLine
 10
253.9868080195917
 20
86.12288781768766
 30
0.0
 11
253.9868080195917
 21
87.12871436937335
 31
0.0
  0
LINE
  5
3052
330
1F
100
AcDbEntity
  8
太線
  6
DASHED2
 62
     8
100
AcDbLine
 10
255.1868080195918
 20
86.12288781768766
 30
0.0
 11
253.9868080195917
 21
86.12288781768766
 31
0.0
  0
ARC
  5
3053
330
1F
100
AcDbEntity
  8
太線
  6
DASHED2
 62
     8
100
AcDbCircle
 10
259.0868080195917
 20
87.12871436937335
 30
0.0
 40
0.3
100
AcDbArc
 50
0.0
 51
66.73017604155245
  0
LINE
  5
3054
330
1F
100
AcDbEntity
  8
太線
  6
DASHED2
 62
     8
100
AcDbLine
 10
259.3868080195917
 20
87.12871436937335
 30
0.0
 11
259.3868080195917
 21
86.12288781768766
 31
0.0
  0
LINE
  5
3055
330
1F
100
AcDbEntity
  8
太線
  6
DASHED2
 62
     8
100
AcDbLine
 10
284.2342590619058
 20
82.49851662137546
 30
0.0
 11
284.2342590619058
 21
50.99851662137545
 31
0.0
  0
ARC
  5
3056
330
1F
100
AcDbEntity
  8
太線
  6
DASHED2
 62
     8
100
AcDbCircle
 10
283.9342590619057
 20
50.99851662137545
 30
0.0
 40
0.3
100
AcDbArc
 50
270.0
 51
0.0
  0
LINE
  5
3057
330
1F
100
AcDbEntity
  8
細線
  6
DASHED2
 62
     8
100
AcDbLine
 10
278.2342590619057
 20
85.95538796991545
 30
0.0
 11
278.2342590619057
 21
82.35538796991546
 31
0.0
  0
LINE
  5
3058
330
1F
100
AcDbEntity
  8
細線
  6
DASHED2
 62
     8
100
AcDbLine
 10
275.8342590619057
 20
85.95538796991545
 30
0.0
 11
275.8342590619057
 21
82.35538796991546
 31
0.0
  0
LINE
  5
3059
330
1F
100
AcDbEntity
  8
太線
  6
DASHED2
 62
     8
100
AcDbLine
 10
275.5342590619057
 20
82.65538796991545
 30
0.0
 11
275.5342590619057
 21
85.95538796991545
 31
0.0
  0
LINE
  5
305A
330
1F
100
AcDbEntity
  8
太線
  6
DASHED2
 62
     8
100
AcDbLine
 10
278.5342590619058
 20
85.95538796991545
 30
0.0
 11
278.5342590619058
 21
82.65538796991547
 31
0.0
  0
LINE
  5
305B
330
1F
100
AcDbEntity
  8
太線
  6
DASHED2
 62
     8
100
AcDbLine
 10
278.5342590619058
 20
84.89851662137546
 30
0.0
 11
278.5342590619058
 21
82.49851662137546
 31
0.0
  0
LINE
  5
305C
330
1F
100
AcDbEntity
  8
太線
  6
DASHED2
 62
     8
100
AcDbLine
 10
275.5342590619057
 20
84.89851662137546
 30
0.0
 11
275.5342590619057
 21
82.49851662137546
 31
0.0
  0
LINE
  5
305D
330
1F
100
AcDbEntity
  8
細線
  6
DASHED2
 62
     8
100
AcDbLine
 10
278.2342590619057
 20
82.49851662137546
 30
0.0
 11
278.2342590619057
 21
84.89851662137546
 31
0.0
  0
LINE
  5
305E
330
1F
100
AcDbEntity
  8
細線
  6
DASHED2
 62
     8
100
AcDbLine
 10
275.8342590619057
 20
84.89851662137546
 30
0.0
 11
275.8342590619057
 21
82.49851662137546
 31
0.0
  0
LINE
  5
305F
330
1F
100
AcDbEntity
  8
太線
  6
DASHED2
 62
     8
100
AcDbLine
 10
284.2342590619058
 20
84.59851662137545
 30
0.0
 11
284.2342590619058
 21
82.49851662137546
 31
0.0
  0
LINE
  5
3060
330
1F
100
AcDbEntity
  8
太線
  6
DASHED2
 62
     8
100
AcDbLine
 10
278.2342590619057
 20
82.35538796991546
 30
0.0
 11
275.8342590619057
 21
82.35538796991546
 31
0.0
  0
ARC
  5
3061
330
1F
100
AcDbEntity
  8
太線
  6
DASHED2
 62
     8
100
AcDbCircle
 10
275.8342590619057
 20
82.65538796991545
 30
0.0
 40
0.3
100
AcDbArc
 50
180.0
 51
270.0
  0
ARC
  5
3062
330
1F
100
AcDbEntity
  8
太線
  6
DASHED2
 62
     8
100
AcDbCircle
 10
278.2342590619057
 20
82.65538796991547
 30
0.0
 40
0.3
100
AcDbArc
 50
270.0000000000003
 51
0.0
  0
ARC
  5
3063
330
1F
100
AcDbEntity
  8
太線
  6
DASHED2
 62
     8
100
AcDbCircle
 10
277.0342590619057
 20
81.38038796991548
 30
0.0
 40
6.375
100
AcDbArc
 50
66.73017604155141
 51
113.2698239584485
  0
ARC
  5
3064
330
1F
100
AcDbEntity
  8
太線
  6
DASHED2
 62
     8
100
AcDbCircle
 10
274.6342590619058
 20
86.96121452160117
 30
0.0
 40
0.3
100
AcDbArc
 50
113.2698239584475
 51
180.0
  0
LINE
  5
3065
330
1F
100
AcDbEntity
  8
太線
  6
DASHED2
 62
     8
100
AcDbLine
 10
274.3342590619058
 20
85.95538796991545
 30
0.0
 11
274.3342590619058
 21
86.96121452160117
 31
0.0
  0
LINE
  5
3066
330
1F
100
AcDbEntity
  8
太線
  6
DASHED2
 62
     8
100
AcDbLine
 10
275.5342590619057
 20
85.95538796991545
 30
0.0
 11
274.3342590619058
 21
85.95538796991545
 31
0.0
  0
ARC
  5
3067
330
1F
100
AcDbEntity
  8
太線
  6
DASHED2
 62
     8
100
AcDbCircle
 10
279.4342590619057
 20
86.96121452160117
 30
0.0
 40
0.3
100
AcDbArc
 50
0.0
 51
66.73017604155245
  0
LINE
  5
3068
330
1F
100
AcDbEntity
  8
太線
  6
DASHED2
 62
     8
100
AcDbLine
 10
279.7342590619058
 20
85.95538796991545
 30
0.0
 11
278.5342590619058
 21
85.95538796991545
 31
0.0
  0
LINE
  5
3069
330
1F
100
AcDbEntity
  8
太線
  6
DASHED2
 62
     8
100
AcDbLine
 10
279.7342590619058
 20
86.96121452160117
 30
0.0
 11
279.7342590619058
 21
85.95538796991545
 31
0.0
  0
ARC
  5
306A
330
1F
100
AcDbEntity
  8
太線
  6
DASHED2
 62
     8
100
AcDbCircle
 10
283.9342590619057
 20
84.59851662137545
 30
0.0
 40
0.3
100
AcDbArc
 50
0.0
 51
90.0
  0
XLINE
  5
306B
330
1F
100
AcDbEntity
  8
構築線
100
AcDbXline
 10
469.6342190960887
 20
-71.56486707199673
 30
0.0
 11
0.0
 21
-1.0
 31
0.0
  0
LINE
  5
306D
330
1F
100
AcDbEntity
  8
太線
100
AcDbLine
 10
226.3902358988985
 20
82.49851662137546
 30
0.0
 11
309.0860388359324
 21
82.49851662137546
 31
0.0
  0
LINE
  5
306E
330
1F
100
AcDbEntity
  8
太線
100
AcDbLine
 10
229.0342590619057
 20
53.09851662137545
 30
0.0
 11
309.0860388359324
 21
53.09851662137545
 31
0.0
  0
XLINE
  5
306F
330
1F
100
AcDbEntity
  8
構築線
100
AcDbXline
 10
382.4811902381692
 20
-71.41802782573563
 30
0.0
 11
0.0
 21
-1.0
 31
0.0
  0
LINE
  5
3070
330
1F
100
AcDbEntity
  8
太線
100
AcDbLine
 10
256.7942215211806
 20
82.49851662137546
 30
0.0
 11
256.7942215211806
 21
72.57919053073084
 31
0.0
  0
LINE
  5
3071
330
1F
100
AcDbEntity
  8
太線
100
AcDbLine
 10
256.7942215211806
 20
72.57919053073084
 30
0.0
 11
256.7942215211806
 21
53.09851662137545
 31
0.0
  0
ARC
  5
30C5
330
1F
100
AcDbEntity
  8
太線
100
AcDbCircle
 10
34.74053550329324
 20
74.65435788858157
 30
0.0
 40
8.221233230138436
100
AcDbArc
 50
280.1448021728706
 51
72.57965279644804
  0
ARC
  5
30C6
330
1F
100
AcDbEntity
  8
太線
100
AcDbCircle
 10
35.05955816628602
 20
59.70699170463628
 30
0.0
 40
6.947025710244582
100
AcDbArc
 50
80.64675371488217
 51
287.9609652929861
  0
ARC
  5
30C7
330
1F
100
AcDbEntity
  8
太線
100
AcDbCircle
 10
40.54380857538217
 20
72.49164139447725
 30
0.0
 40
10.55019132065766
100
AcDbArc
 50
108.4678092780039
 51
214.19932211211
  0
ARC
  5
30C8
330
1F
100
AcDbEntity
  8
太線
100
AcDbCircle
 10
39.78239846027435
 20
72.24300955310642
 30
0.0
 40
7.428445446313414
100
AcDbArc
 50
87.07106476994365
 51
229.8901244433478
  0
ARC
  5
30C9
330
1F
100
AcDbEntity
  8
太線
100
AcDbCircle
 10
305.0960849091032
 20
74.19443489342007
 30
0.0
 40
9.212898875098026
100
AcDbArc
 50
298.9518266673453
 51
64.33659731926138
  0
ARC
  5
30CA
330
1F
100
AcDbEntity
  8
太線
100
AcDbCircle
 10
311.4837152282754
 20
59.45124949816866
 30
0.0
 40
6.95422626755432
100
AcDbArc
 50
106.0948196729296
 51
249.3197534673554
  0
ARC
  5
30CB
330
1F
100
AcDbEntity
  8
太線
100
AcDbCircle
 10
308.1925254695237
 20
61.1731267546569
 30
0.0
 40
8.270303391151436
100
AcDbArc
 50
275.7966742736152
 51
52.28469287248154
  0
ARC
  5
30CC
330
1F
100
AcDbEntity
  8
太線
100
AcDbCircle
 10
308.6429758531776
 20
60.8004687225515
 30
0.0
 40
5.684285477611182
100
AcDbArc
 50
246.6258785617838
 51
69.73495959102656
  0
LINE
  5
3118
330
1F
100
AcDbEntity
  8
太線
100
AcDbLine
 10
150.5340367788917
 20
67.36662223669263
 30
0.0
 11
188.824095896278
 21
67.36662223669263
 31
0.0
  0
LINE
  5
3119
330
1F
100
AcDbEntity
  8
太線
100
AcDbLine
 10
150.5340367788917
 20
67.36662223669263
 30
0.0
 11
156.1762354374902
 21
63.72119853612348
 31
0.0
  0
LINE
  5
311A
330
1F
100
AcDbEntity
  8
太線
100
AcDbLine
 10
150.5340367788917
 20
67.36662223669263
 30
0.0
 11
150.5340367788917
 21
67.36662223669263
 31
0.0
  0
LINE
  5
311B
330
1F
100
AcDbEntity
  8
太線
100
AcDbLine
 10
150.5340367788917
 20
67.36662223669263
 30
0.0
 11
156.4740681661865
 21
71.16016446798134
 31
0.0
  0
LINE
  5
311D
330
1F
100
AcDbEntity
  8
太線
100
AcDbLine
 10
188.824095896278
 20
67.36662223669263
 30
0.0
 11
183.5768102905099
 21
71.16016446798134
 31
0.0
  0
LINE
  5
311E
330
1F
100
AcDbEntity
  8
太線
100
AcDbLine
 10
183.5768102905099
 20
71.16016446798134
 30
0.0
 11
183.5768102905099
 21
71.16016446798134
 31
0.0
  0
LINE
  5
311F
330
1F
100
AcDbEntity
  8
太線
100
AcDbLine
 10
188.824095896278
 20
67.36662223669263
 30
0.0
 11
183.5768102905099
 21
63.42364051229928
 31
0.0
  0
LINE
  5
3120
330
1F
100
AcDbEntity
  8
太線
100
AcDbLine
 10
183.5768102905099
 20
63.42364051229928
 30
0.0
 11
183.5768102905099
 21
63.42364051229928
 31
0.0
  0
TEXT
  5
3121
330
1F
100
AcDbEntity
  8
文字
100
AcDbText
 10
159.4955227948221
 20
71.89102166969774
 30
0.0
 40
4.799999999999999
  1
スライド
 51
15.0
  7
OKANO
100
AcDbText
  0
TEXT
  5
3122
330
1F
100
AcDbEntity
  8
文字
100
AcDbText
 10
86.78010689859183
 20
91.54186975048792
 30
0.0
 40
4.799999999999999
  1
中間接続
 51
15.0
  7
OKANO
100
AcDbText
  0
TEXT
  5
3123
330
1F
100
AcDbEntity
  8
文字
100
AcDbText
 10
246.3148497735164
 20
91.54186975048792
 30
0.0
 40
4.799999999999999
  1
最後接続
 51
15.0
  7
OKANO
100
AcDbText
  0
LINE
  5
3137
330
1F
100
AcDbEntity
  8
太線
100
AcDbLine
 10
93.05428970631988
 20
201.7536210066474
 30
0.0
 11
94.9925306095738
 21
201.7536210066474
 31
0.0
  0
LINE
  5
3138
330
1F
100
AcDbEntity
  8
太線
100
AcDbLine
 10
100.0542897063198
 20
201.7536210066474
 30
0.0
 11
102.0542897063198
 21
201.7536210066474
 31
0.0
  0
LINE
  5
313B
330
1F
100
AcDbEntity
  8
太線
100
AcDbLine
 10
92.55428970631987
 20
145.0536210066474
 30
0.0
 11
51.96670811017657
 21
145.0536210066474
 31
0.0
  0
LINE
  5
3140
330
1F
100
AcDbEntity
  8
太線
100
AcDbLine
 10
95.05428970631987
 20
202.0536210066474
 30
0.0
 11
100.0542897063198
 21
202.0536210066474
 31
0.0
  0
ARC
  5
3141
330
1F
100
AcDbEntity
  8
太線
100
AcDbCircle
 10
92.76019924790572
 20
201.7911185626088
 30
0.0
 40
0.2964713551649123
100
AcDbArc
 50
352.7337955298547
 51
62.30357399974894
  0
LINE
  5
3142
330
1F
100
AcDbEntity
  8
太線
100
AcDbLine
 10
102.0542897063198
 20
202.0468361935923
 30
0.0
 11
102.0542897063198
 21
202.0536210066474
 31
0.0
  0
LINE
  5
3143
330
1F
100
AcDbEntity
  8
太線
100
AcDbLine
 10
102.1900002208552
 20
202.0536210066474
 30
0.0
 11
142.9667081101765
 21
202.0536210066474
 31
0.0
  0
ARC
  5
3146
330
1F
100
AcDbEntity
  8
太線
100
AcDbCircle
 10
102.9150639618159
 20
201.5449295225327
 30
0.0
 40
0.885711270373593
100
AcDbArc
 50
144.9472013157549
 51
166.3718145879032
  0
XLINE
  5
314E
330
1F
100
AcDbEntity
  8
構築線
100
AcDbXline
 10
97.4925306095738
 20
198.0275359405611
 30
0.0
 11
0.0
 21
-1.0
 31
0.0
  0
LINE
  5
3153
330
1F
100
AcDbEntity
  8
太線
100
AcDbLine
 10
96.49253060957381
 20
145.3536210066474
 30
0.0
 11
98.4925306095738
 21
145.3536210066474
 31
0.0
  0
LINE
  5
3156
330
1F
100
AcDbEntity
  8
太線
100
AcDbLine
 10
102.5542897063198
 20
145.0536210066474
 30
0.0
 11
98.99253060957381
 21
145.0536210066474
 31
0.0
  0
LINE
  5
315B
330
1F
100
AcDbEntity
  8
太線
100
AcDbLine
 10
95.9925306095738
 20
145.0536210066474
 30
0.0
 11
92.55428970631987
 21
145.0536210066474
 31
0.0
  0
LINE
  5
315C
330
1F
100
AcDbEntity
  8
太線
100
AcDbLine
 10
98.4925306095738
 20
173.5536210066474
 30
0.0
 11
98.4925306095738
 21
145.5536210066474
 31
0.0
  0
LINE
  5
315D
330
1F
100
AcDbEntity
  8
太線
100
AcDbLine
 10
96.49253060957381
 20
173.5536210066474
 30
0.0
 11
96.49253060957381
 21
145.5536210066474
 31
0.0
  0
ARC
  5
315E
330
1F
100
AcDbEntity
  8
太線
100
AcDbCircle
 10
98.99253060957381
 20
145.5536210066474
 30
0.0
 40
0.5
100
AcDbArc
 50
179.9999999999999
 51
270.0
  0
ARC
  5
315F
330
1F
100
AcDbEntity
  8
太線
100
AcDbCircle
 10
95.9925306095738
 20
145.5536210066474
 30
0.0
 40
0.5
100
AcDbArc
 50
270.0
 51
0.0
  0
TEXT
  5
317D
330
1F
100
AcDbEntity
  8
文字
100
AcDbText
 10
76.57894851918491
 20
17.00290812914468
 30
0.0
 40
4.799999999999999
  1
注記　内面バリは最小限にする
 51
15.0
  7
OKANO
100
AcDbText
  0
TEXT
  5
3189
330
1F
100
AcDbEntity
  8
文字
100
AcDbText
 10
249.782555252872
 20
22.61703930398086
 30
0.0
 40
4.799999999999999
  1
JAN 4562182301123
 51
15.0
  7
OKANO
100
AcDbText
  0
LINE
  5
31CE
330
1F
100
AcDbEntity
  8
想像線
100
AcDbLine
 10
118.4185985953149
 20
53.09851662137545
 30
0.0
 11
118.4185985953149
 21
50.69851662137546
 31
0.0
  0
LINE
  5
31CF
330
1F
100
AcDbEntity
  8
想像線
100
AcDbLine
 10
116.4185985953149
 20
53.09851662137545
 30
0.0
 11
116.4185985953149
 21
50.69851662137546
 31
0.0
  0
LINE
  5
31D0
330
1F
100
AcDbEntity
  8
想像線
100
AcDbLine
 10
77.95097167137782
 20
53.09851662137545
 30
0.0
 11
77.95097167137782
 21
50.69851662137546
 31
0.0
  0
LINE
  5
31D1
330
1F
100
AcDbEntity
  8
想像線
100
AcDbLine
 10
75.95097167137783
 20
53.09851662137545
 30
0.0
 11
75.95097167137783
 21
50.69851662137546
 31
0.0
  0
LEADER
  5
31D2
330
1F
100
AcDbEntity
  8
寸法線
100
AcDbLeader
  3
sunpo
 76
     2
 10
117.311541000417
 20
49.95105041261904
 30
0.0
 10
124.7561724768697
 20
41.63720799009381
 30
0.0
1001
ACAD
1000
DSTYLE
1002
{
1070
   147
1040
1.0
1070
    77
1070
     0
1002
}
  0
TEXT
  5
31D3
330
1F
100
AcDbEntity
  8
文字
100
AcDbText
 10
123.9112565080185
 20
37.93672021014929
 30
0.0
 40
4.799999999999999
  1
仮穴3.5ｍｍ
 51
15.0
  7
OKANO
100
AcDbText
  0
XLINE
  5
31E2
330
1F
100
AcDbEntity
  8
構築線
100
AcDbXline
 10
230.8033428798633
 20
173.5536210066474
 30
0.0
 11
0.0
 21
-1.0
 31
0.0
  0
XLINE
  5
31E3
330
1F
100
AcDbEntity
  8
構築線
100
AcDbXline
 10
230.8033428798633
 20
173.5536210066474
 30
0.0
 11
1.0
 21
0.0
 31
0.0
  0
VIEWPORT
  5
2E
330
1B
100
AcDbEntity
 67
     1
  8
0
100
AcDbViewport
 10
217.8402926725838
 20
125.638873302323
 30
0.0
 40
576.4413949574088
 41
276.1728869731637
 68
     1
 69
     1
 12
217.8402926725838
 22
125.638873302323
 13
0.0
 23
0.0
 14
10.0
 24
10.0
 15
10.0
 25
10.0
 16
0.0
 26
0.0
 36
1.0
 17
0.0
 27
0.0
 37
0.0
 42
50.0
 43
0.0
 44
0.0
 45
276.1728869731637
 50
0.0
 51
0.0
 72
   100
 90
    32800
  1

281
     0
 71
     1
 74
     0
110
0.0
120
0.0
130
0.0
111
1.0
121
0.0
131
0.0
112
0.0
122
1.0
132
0.0
 79
     0
146
0.0
  0
VIEWPORT
  5
30
330
1B
100
AcDbEntity
 67
     1
  8
70-0-CON
100
AcDbViewport
 10
141.8594093064315
 20
100.3480256368386
 30
0.0
 40
261.6199023344245
 41
192.6196987113174
 68
     2
 69
     2
 12
164.2330502994945
 22
116.7416920642267
 13
0.0
 23
0.0
 14
5.0
 24
5.0
 15
10.0
 25
10.0
 16
0.0
 26
0.0
 36
1.0
 17
0.0
 27
0.0
 37
0.0
 42
50.0
 43
0.0
 44
0.0
 45
266.4401959209494
 50
0.0
 51
0.0
 72
   100
 90
    32864
  1

281
     0
 71
     1
 74
     0
110
0.0
120
0.0
130
0.0
111
1.0
121
0.0
131
0.0
112
0.0
122
1.0
132
0.0
 79
     0
146
0.0
  0
LWPOLYLINE
  5
45
330
1B
100
AcDbEntity
 67
     1
  8
50-0-CON
100
AcDbPolyline
 90
        4
 70
     1
 43
0.0
 10
11.04945813921926
 20
4.038176281179858
 10
272.2125713060605
 20
4.033520706629644
 10
273.4987754093466
 20
195.9297862125246
 10
11.04945813921926
 20
196.6578749924973
  0
LINE
  5
4A
330
1B
100
AcDbEntity
 67
     1
  8
50-0-CON
100
AcDbLine
 10
10.38768783662635
 20
100.3480256368386
 30
0.0
 11
-4.391850629656119
 21
100.3480256368386
 31
0.0
  0
LINE
  5
4B
330
1B
100
AcDbEntity
 67
     1
  8
50-0-CON
100
AcDbLine
 10
141.8594093064315
 20
197.098652626247
 30
0.0
 11
141.8594093064315
 21
202.387980773708
 31
0.0
  0
LINE
  5
4C
330
1B
100
AcDbEntity
 67
     1
  8
50-0-CON
100
AcDbLine
 10
272.4487699456857
 20
100.7888032705883
 30
0.0
 11
278.8458837249377
 21
100.7888032705883
 31
0.0
  0
LINE
  5
4D
330
1B
100
AcDbEntity
 67
     1
  8
50-0-CON
100
AcDbLine
 10
140.9770484758805
 20
4.038176281179858
 30
0.0
 11
140.9770484758805
 21
-3.455038652015446
 31
0.0
  0
ENDSEC
  0
SECTION
  2
OBJECTS
  0
DICTIONARY
  5
C
330
0
100
AcDbDictionary
281
     1
  3
ACAD_GROUP
350
D
  3
ACAD_LAYOUT
350
1A
  3
ACAD_MLINESTYLE
350
17
  3
ACAD_PLOTSETTINGS
350
19
  3
ACAD_PLOTSTYLENAME
350
E
  3
AcadDim
350
3113
  3
AcDbVariableDictionary
350
6AD
  3
DWGPROPS
350
30F
  0
DICTIONARY
  5
D
102
{ACAD_REACTORS
330
C
102
}
330
C
100
AcDbDictionary
281
     1
  0
DICTIONARY
  5
1A
102
{ACAD_REACTORS
330
C
102
}
330
C
100
AcDbDictionary
281
     1
  3
A4
350
1E
  3
Model
350
22
  0
DICTIONARY
  5
17
102
{ACAD_REACTORS
330
C
102
}
330
C
100
AcDbDictionary
281
     1
  3
Standard
350
18
  0
DICTIONARY
  5
19
102
{ACAD_REACTORS
330
C
102
}
330
C
100
AcDbDictionary
281
     1
  0
ACDBDICTIONARYWDFLT
  5
E
102
{ACAD_REACTORS
330
C
102
}
330
C
100
AcDbDictionary
281
     1
  3
Normal
350
F
100
AcDbDictionaryWithDefault
340
F
  0
XRECORD
  5
3113
102
{ACAD_REACTORS
330
C
102
}
330
C
100
AcDbXrecord
280
     1
 90
   990106
  3

 60
     0
 61
     0
 62
     1
 63
     3
 64
     0
 65
     0
 66
     0
 67
     3
 68
     1
 69
     0
 70
     0
 71
     0
 72
     0
 40
0.0
170
     0
  0
DICTIONARY
  5
6AD
102
{ACAD_REACTORS
330
C
102
}
330
C
100
AcDbDictionary
281
     1
  3
SORTENTS
350
6AE
  0
XRECORD
  5
30F
102
{ACAD_REACTORS
330
C
102
}
330
C
100
AcDbXrecord
280
     1
  1
DWGPROPS COOKIE
  2

  3

  4

  6

  7

  8

  9

300
=
301
=
302
=
303
=
304
=
305
=
306
=
307
=
308
=
309
=
 40
0.3303803125
 41
2452362.482225463
 42
2452370.969861285
  1

 90
        0
  0
LAYOUT
  5
1E
102
{ACAD_REACTORS
330
1A
102
}
330
1A
100
AcDbPlotSettings
  1

  2
EPSON PM-920C
  4
A4
  6

 40
3.757083177566528
 41
14.7637300491333
 42
3.757080078125
 43
3.757080078125
 44
209.9733276367187
 45
296.9683227539062
 46
0.0
 47
0.0
 48
0.0
 49
0.0
140
0.0
141
0.0
142
1.0
143
1.0
 70
   688
 72
     1
 73
     1
 74
     5
  7
joint.ctb
 75
    16
147
1.0
148
0.0
149
0.0
100
AcDbLayout
  1
A4
 70
     1
 71
     1
 10
-3.757080078125
 20
-3.757083177566528
 11
293.2112426757812
 21
206.2162444591522
 12
0.0
 22
0.0
 32
0.0
 14
-4.391850629656119
 24
-3.455038652015446
 34
0.0
 15
278.8458837249377
 25
202.387980773708
 35
0.0
146
0.0
 13
0.0
 23
0.0
 33
0.0
 16
1.0
 26
0.0
 36
0.0
 17
0.0
 27
1.0
 37
0.0
 76
     0
330
1B
331
2E
  0
LAYOUT
  5
22
102
{ACAD_REACTORS
330
1A
102
}
330
1A
100
AcDbPlotSettings
  1

  2
EPSON PM-920C
  4
A4
  6

 40
3.757083177566528
 41
14.7637300491333
 42
3.757080078125
 43
3.757080078125
 44
209.9733276367187
 45
296.9683227539062
 46
0.0
 47
0.0
 48
0.0
 49
0.0
140
0.0
141
0.0
142
1.0
143
1.0
 70
 11952
 72
     1
 73
     1
 74
     0
  7

 75
     0
147
1.0
148
-45.64199848979289
149
-84.48806419330498
100
AcDbLayout
  1
Model
 70
     1
 71
     0
 10
0.0
 20
0.0
 11
12.0
 21
9.0
 12
0.0
 22
0.0
 32
0.0
 14
0.0
 24
0.0
 34
0.0
 15
0.0
 25
0.0
 35
0.0
146
0.0
 13
0.0
 23
0.0
 33
0.0
 16
1.0
 26
0.0
 36
0.0
 17
0.0
 27
1.0
 37
0.0
 76
     0
330
1F
  0
MLINESTYLE
  5
18
102
{ACAD_REACTORS
330
17
102
}
330
17
100
AcDbMlineStyle
  2
STANDARD
 70
     0
  3

 62
   256
 51
90.0
 52
90.0
 71
     2
 49
0.5
 62
   256
  6
BYLAYER
 49
-0.5
 62
   256
  6
BYLAYER
  0
ACDBPLACEHOLDER
  5
F
102
{ACAD_REACTORS
330
E
102
}
330
E
  0
DICTIONARYVAR
  5
6AE
102
{ACAD_REACTORS
330
6AD
102
}
330
6AD
100
DictionaryVariables
280
     0
  1
96
  0
ENDSEC
  0
EOF
