  0
SECTION
  2
HEADER
  9
$ACADVER
  1
AC1015
  9
$ACADMAINTVER
 70
     6
  9
$DWGCODEPAGE
  3
ANSI_932
  9
$INSBASE
 10
0.0
 20
0.0
 30
0.0
  9
$EXTMIN
 10
60.46789258434173
 20
-70.40722615060542
 30
0.0
  9
$EXTMAX
 10
355.592413080446
 20
163.2843034566862
 30
0.0
  9
$LIMMIN
 10
0.0
 20
0.0
  9
$LIMMAX
 10
420.0
 20
297.0
  9
$ORTHOMODE
 70
     1
  9
$REGENMODE
 70
     1
  9
$FILLMODE
 70
     1
  9
$QTEXTMODE
 70
     0
  9
$MIRRTEXT
 70
     1
  9
$LTSCALE
 40
1.0
  9
$ATTMODE
 70
     2
  9
$TEXTSIZE
 40
5.0
  9
$TRACEWID
 40
1.0
  9
$TEXTSTYLE
  7
OKANO
  9
$CLAYER
  8
太線
  9
$CELTYPE
  6
ByLayer
  9
$CECOLOR
 62
   256
  9
$CELTSCALE
 40
1.0
  9
$DISPSILH
 70
     0
  9
$DIMSCALE
 40
1.0
  9
$DIMASZ
 40
2.5
  9
$DIMEXO
 40
0.625
  9
$DIMDLI
 40
3.75
  9
$DIMRND
 40
0.0
  9
$DIMDLE
 40
0.0
  9
$DIMEXE
 40
1.25
  9
$DIMTP
 40
0.0
  9
$DIMTM
 40
0.0
  9
$DIMTXT
 40
2.5
  9
$DIMCEN
 40
2.5
  9
$DIMTSZ
 40
0.0
  9
$DIMTOL
 70
     0
  9
$DIMLIM
 70
     0
  9
$DIMTIH
 70
     0
  9
$DIMTOH
 70
     0
  9
$DIMSE1
 70
     0
  9
$DIMSE2
 70
     0
  9
$DIMTAD
 70
     1
  9
$DIMZIN
 70
     8
  9
$DIMBLK
  1

  9
$DIMASO
 70
     1
  9
$DIMSHO
 70
     1
  9
$DIMPOST
  1

  9
$DIMAPOST
  1

  9
$DIMALT
 70
     0
  9
$DIMALTD
 70
     3
  9
$DIMALTF
 40
0.03937007874016
  9
$DIMLFAC
 40
1.0
  9
$DIMTOFL
 70
     1
  9
$DIMTVP
 40
0.0
  9
$DIMTIX
 70
     0
  9
$DIMSOXD
 70
     0
  9
$DIMSAH
 70
     0
  9
$DIMBLK1
  1

  9
$DIMBLK2
  1

  9
$DIMSTYLE
  2
ISO-25
  9
$DIMCLRD
 70
     0
  9
$DIMCLRE
 70
     0
  9
$DIMCLRT
 70
     0
  9
$DIMTFAC
 40
1.0
  9
$DIMGAP
 40
0.625
  9
$DIMJUST
 70
     0
  9
$DIMSD1
 70
     0
  9
$DIMSD2
 70
     0
  9
$DIMTOLJ
 70
     0
  9
$DIMTZIN
 70
     8
  9
$DIMALTZ
 70
     0
  9
$DIMALTTZ
 70
     0
  9
$DIMUPT
 70
     0
  9
$DIMDEC
 70
     2
  9
$DIMTDEC
 70
     2
  9
$DIMALTU
 70
     2
  9
$DIMALTTD
 70
     3
  9
$DIMTXSTY
  7
Standard
  9
$DIMAUNIT
 70
     0
  9
$DIMADEC
 70
     0
  9
$DIMALTRND
 40
0.0
  9
$DIMAZIN
 70
     0
  9
$DIMDSEP
 70
    46
  9
$DIMATFIT
 70
     3
  9
$DIMFRAC
 70
     0
  9
$DIMLDRBLK
  1

  9
$DIMLUNIT
 70
     2
  9
$DIMLWD
 70
    -2
  9
$DIMLWE
 70
    -2
  9
$DIMTMOVE
 70
     0
  9
$LUNITS
 70
     2
  9
$LUPREC
 70
     2
  9
$SKETCHINC
 40
1.0
  9
$FILLETRAD
 40
3.0
  9
$AUNITS
 70
     0
  9
$AUPREC
 70
     0
  9
$MENU
  1
.
  9
$ELEVATION
 40
0.0
  9
$PELEVATION
 40
0.0
  9
$THICKNESS
 40
0.0
  9
$LIMCHECK
 70
     0
  9
$CHAMFERA
 40
10.0
  9
$CHAMFERB
 40
10.0
  9
$CHAMFERC
 40
20.0
  9
$CHAMFERD
 40
0.0
  9
$SKPOLY
 70
     0
  9
$TDCREATE
 40
2452362.482225463
  9
$TDUCREATE
 40
2452362.107225463
  9
$TDUPDATE
 40
2455957.591761458
  9
$TDUUPDATE
 40
2455957.216761458
  9
$TDINDWG
 40
2.6430323727
  9
$TDUSRTIMER
 40
2.6430323727
  9
$USRTIMER
 70
     1
  9
$ANGBASE
 50
0.0
  9
$ANGDIR
 70
     0
  9
$PDMODE
 70
     0
  9
$PDSIZE
 40
0.0
  9
$PLINEWID
 40
0.0
  9
$SPLFRAME
 70
     0
  9
$SPLINETYPE
 70
     6
  9
$SPLINESEGS
 70
     8
  9
$HANDSEED
  5
3B60
  9
$SURFTAB1
 70
     6
  9
$SURFTAB2
 70
     6
  9
$SURFTYPE
 70
     6
  9
$SURFU
 70
     6
  9
$SURFV
 70
     6
  9
$UCSBASE
  2

  9
$UCSNAME
  2

  9
$UCSORG
 10
0.0
 20
0.0
 30
0.0
  9
$UCSXDIR
 10
1.0
 20
0.0
 30
0.0
  9
$UCSYDIR
 10
0.0
 20
1.0
 30
0.0
  9
$UCSORTHOREF
  2

  9
$UCSORTHOVIEW
 70
     0
  9
$UCSORGTOP
 10
0.0
 20
0.0
 30
0.0
  9
$UCSORGBOTTOM
 10
0.0
 20
0.0
 30
0.0
  9
$UCSORGLEFT
 10
0.0
 20
0.0
 30
0.0
  9
$UCSORGRIGHT
 10
0.0
 20
0.0
 30
0.0
  9
$UCSORGFRONT
 10
0.0
 20
0.0
 30
0.0
  9
$UCSORGBACK
 10
0.0
 20
0.0
 30
0.0
  9
$PUCSBASE
  2

  9
$PUCSNAME
  2

  9
$PUCSORG
 10
0.0
 20
0.0
 30
0.0
  9
$PUCSXDIR
 10
1.0
 20
0.0
 30
0.0
  9
$PUCSYDIR
 10
0.0
 20
1.0
 30
0.0
  9
$PUCSORTHOREF
  2

  9
$PUCSORTHOVIEW
 70
     0
  9
$PUCSORGTOP
 10
0.0
 20
0.0
 30
0.0
  9
$PUCSORGBOTTOM
 10
0.0
 20
0.0
 30
0.0
  9
$PUCSORGLEFT
 10
0.0
 20
0.0
 30
0.0
  9
$PUCSORGRIGHT
 10
0.0
 20
0.0
 30
0.0
  9
$PUCSORGFRONT
 10
0.0
 20
0.0
 30
0.0
  9
$PUCSORGBACK
 10
0.0
 20
0.0
 30
0.0
  9
$USERI1
 70
     0
  9
$USERI2
 70
     0
  9
$USERI3
 70
     0
  9
$USERI4
 70
     0
  9
$USERI5
 70
     0
  9
$USERR1
 40
0.0
  9
$USERR2
 40
0.0
  9
$USERR3
 40
0.0
  9
$USERR4
 40
0.0
  9
$USERR5
 40
0.0
  9
$WORLDVIEW
 70
     1
  9
$SHADEDGE
 70
     3
  9
$SHADEDIF
 70
    70
  9
$TILEMODE
 70
     0
  9
$MAXACTVP
 70
    64
  9
$PINSBASE
 10
0.0
 20
0.0
 30
0.0
  9
$PLIMCHECK
 70
     0
  9
$PEXTMIN
 10
-4.391850629656119
 20
-3.455038652015446
 30
0.0
  9
$PEXTMAX
 10
278.8458837249377
 20
202.387980773708
 30
0.0
  9
$PLIMMIN
 10
-3.757080078125
 20
-3.757083177566528
  9
$PLIMMAX
 10
293.2112426757812
 20
206.2162444591522
  9
$UNITMODE
 70
     0
  9
$VISRETAIN
 70
     1
  9
$PLINEGEN
 70
     0
  9
$PSLTSCALE
 70
     1
  9
$TREEDEPTH
 70
  3020
  9
$CMLSTYLE
  2
Standard
  9
$CMLJUST
 70
     0
  9
$CMLSCALE
 40
20.0
  9
$PROXYGRAPHICS
 70
     1
  9
$MEASUREMENT
 70
     1
  9
$CELWEIGHT
370
    -1
  9
$ENDCAPS
280
     0
  9
$JOINSTYLE
280
     0
  9
$LWDISPLAY
290
     0
  9
$INSUNITS
 70
     4
  9
$HYPERLINKBASE
  1

  9
$STYLESHEET
  1

  9
$XEDIT
290
     1
  9
$CEPSNTYPE
380
     0
  9
$PSTYLEMODE
290
     1
  9
$FINGERPRINTGUID
  2
{FF7F33C3-4233-11D6-AEE0-0000F45FD7F4}
  9
$VERSIONGUID
  2
{938164B8-1BB5-4561-850F-ECE19302F049}
  9
$EXTNAMES
290
     1
  9
$PSVPSCALE
 40
0.0
  9
$OLESTARTUP
290
     0
  0
ENDSEC
  0
SECTION
  2
CLASSES
  0
CLASS
  1
ACDBDICTIONARYWDFLT
  2
AcDbDictionaryWithDefault
  3
AutoCAD 2000
 90
        0
280
     0
281
     0
  0
CLASS
  1
ACDBPLACEHOLDER
  2
AcDbPlaceHolder
  3
AutoCAD 2000
 90
        0
280
     0
281
     0
  0
CLASS
  1
LAYOUT
  2
AcDbLayout
  3
AutoCAD 2000
 90
        0
280
     0
281
     0
  0
CLASS
  1
DICTIONARYVAR
  2
AcDbDictionaryVar
  3
AutoCAD 2000
 90
        0
280
     0
281
     0
  0
ENDSEC
  0
SECTION
  2
TABLES
  0
TABLE
  2
VPORT
  5
8
330
0
100
AcDbSymbolTable
 70
     2
  0
VPORT
  5
3B5F
330
8
100
AcDbSymbolTableRecord
100
AcDbViewportTableRecord
  2
*Active
 70
     0
 10
0.0
 20
0.0
 11
1.0
 21
1.0
 12
173.2278042351305
 22
65.99392042887135
 13
0.0
 23
0.0
 14
5.0
 24
5.0
 15
10.0
 25
10.0
 16
0.0
 26
0.0
 36
1.0
 17
0.0
 27
0.0
 37
0.0
 40
272.3503403024959
 41
2.08724832214765
 42
50.0
 43
0.0
 44
0.0
 50
0.0
 51
0.0
 71
     0
 72
   100
 73
     1
 74
     2
 75
     0
 76
     0
 77
     0
 78
     0
281
     0
 65
     1
110
0.0
120
0.0
130
0.0
111
1.0
121
0.0
131
0.0
112
0.0
122
1.0
132
0.0
 79
     0
146
0.0
  0
ENDTAB
  0
TABLE
  2
LTYPE
  5
5
330
0
100
AcDbSymbolTable
 70
     5
  0
LTYPE
  5
14
330
5
100
AcDbSymbolTableRecord
100
AcDbLinetypeTableRecord
  2
ByBlock
 70
     0
  3

 72
    65
 73
     0
 40
0.0
  0
LTYPE
  5
15
330
5
100
AcDbSymbolTableRecord
100
AcDbLinetypeTableRecord
  2
ByLayer
 70
     0
  3

 72
    65
 73
     0
 40
0.0
  0
LTYPE
  5
16
330
5
100
AcDbSymbolTableRecord
100
AcDbLinetypeTableRecord
  2
Continuous
 70
     0
  3
Solid line
 72
    65
 73
     0
 40
0.0
  0
LTYPE
  5
33
330
5
100
AcDbSymbolTableRecord
100
AcDbLinetypeTableRecord
  2
DASHED2
 70
     0
  3
Dashed (.5x) _ _ _ _ _ _ _ _ _ _ _ _ _ _ _ _ _
 72
    65
 73
     2
 40
9.524999999999998
 49
6.349999999999999
 74
     0
 49
-3.174999999999999
 74
     0
  0
LTYPE
  5
34
330
5
100
AcDbSymbolTableRecord
100
AcDbLinetypeTableRecord
  2
CENTER2
 70
     0
  3
Center (.5x) ___ _ ___ _ ___ _ ___ _ ___ _ ___
 72
    65
 73
     4
 40
28.57499999999999
 49
19.05
 74
     0
 49
-3.174999999999999
 74
     0
 49
3.174999999999999
 74
     0
 49
-3.174999999999999
 74
     0
  0
LTYPE
  5
35
330
5
100
AcDbSymbolTableRecord
100
AcDbLinetypeTableRecord
  2
PHANTOM2
 70
     0
  3
Phantom (.5x) ___ _ _ ___ _ _ ___ _ _ ___ _ _
 72
    65
 73
     6
 40
31.75
 49
15.875
 74
     0
 49
-3.174999999999999
 74
     0
 49
3.174999999999999
 74
     0
 49
-3.174999999999999
 74
     0
 49
3.174999999999999
 74
     0
 49
-3.174999999999999
 74
     0
  0
LTYPE
  5
36
330
5
100
AcDbSymbolTableRecord
100
AcDbLinetypeTableRecord
  2
HIDDEN2
 70
     0
  3
Hidden (.5x) _ _ _ _ _ _ _ _ _ _ _ _ _ _ _ _ _
 72
    65
 73
     2
 40
4.762499999999999
 49
3.174999999999999
 74
     0
 49
-1.587499999999999
 74
     0
  0
ENDTAB
  0
TABLE
  2
LAYER
  5
2
330
0
100
AcDbSymbolTable
 70
    13
  0
LAYER
  5
10
330
2
100
AcDbSymbolTableRecord
100
AcDbLayerTableRecord
  2
0
 70
     0
 62
     7
  6
Continuous
370
    -3
390
F
  0
LAYER
  5
40
330
2
100
AcDbSymbolTableRecord
100
AcDbLayerTableRecord
  2
50-0-CON
 70
     0
 62
     4
  6
Continuous
370
    50
390
F
  0
LAYER
  5
41
330
2
100
AcDbSymbolTableRecord
100
AcDbLayerTableRecord
  2
70-0-CON
 70
     0
 62
   202
  6
Continuous
370
    70
390
F
  0
LAYER
  5
4E
330
2
100
AcDbSymbolTableRecord
100
AcDbLayerTableRecord
  2
極太線
 70
     0
 62
     7
  6
Continuous
370
    70
390
F
  0
LAYER
  5
4F
330
2
100
AcDbSymbolTableRecord
100
AcDbLayerTableRecord
  2
細線
 70
     0
 62
     8
  6
Continuous
370
    18
390
F
  0
LAYER
  5
AB
330
2
100
AcDbSymbolTableRecord
100
AcDbLayerTableRecord
  2
構築線
 70
     0
 62
    -2
  6
Continuous
370
    18
390
F
  0
LAYER
  5
B8
330
2
100
AcDbSymbolTableRecord
100
AcDbLayerTableRecord
  2
太線
 70
     0
 62
     7
  6
Continuous
370
    35
390
F
  0
LAYER
  5
B9
330
2
100
AcDbSymbolTableRecord
100
AcDbLayerTableRecord
  2
寸法線
 70
     0
 62
     5
  6
Continuous
370
    18
390
F
  0
LAYER
  5
BA
330
2
100
AcDbSymbolTableRecord
100
AcDbLayerTableRecord
  2
破線
 70
     0
 62
     8
  6
HIDDEN2
370
    18
390
F
  0
LAYER
  5
BB
330
2
100
AcDbSymbolTableRecord
100
AcDbLayerTableRecord
  2
中心線
 70
     0
 62
     1
  6
CENTER2
370
    18
390
F
  0
LAYER
  5
BC
330
2
100
AcDbSymbolTableRecord
100
AcDbLayerTableRecord
  2
想像線
 70
     0
 62
     8
  6
PHANTOM2
370
    18
390
F
  0
LAYER
  5
BD
330
2
100
AcDbSymbolTableRecord
100
AcDbLayerTableRecord
  2
文字
 70
     0
 62
     7
  6
Continuous
370
    18
390
F
  0
LAYER
  5
180
330
2
100
AcDbSymbolTableRecord
100
AcDbLayerTableRecord
  2
Defpoints
 70
     0
 62
     7
  6
Continuous
290
     0
370
    -3
390
F
  0
ENDTAB
  0
TABLE
  2
STYLE
  5
3
330
0
100
AcDbSymbolTable
 70
     3
  0
STYLE
  5
11
330
3
100
AcDbSymbolTableRecord
100
AcDbTextStyleTableRecord
  2
Standard
 70
     0
 40
0.0
 41
1.0
 50
0.0
 71
     0
 42
3.0
  3
txt
  4

  0
STYLE
  5
32
330
3
100
AcDbSymbolTableRecord
100
AcDbTextStyleTableRecord
  2

 70
     1
 40
0.0
 41
1.0
 50
0.0
 71
     0
 42
2.5
  3
ltypeshp.shx
  4

  0
STYLE
  5
50
330
3
100
AcDbSymbolTableRecord
100
AcDbTextStyleTableRecord
  2
OKANO
 70
     0
 40
0.0
 41
1.0
 50
15.0
 71
     0
 42
5.0
  3
isocp.shx
  4
bigfont.shx
  0
ENDTAB
  0
TABLE
  2
VIEW
  5
6
330
0
100
AcDbSymbolTable
 70
     0
  0
ENDTAB
  0
TABLE
  2
UCS
  5
7
330
0
100
AcDbSymbolTable
 70
     0
  0
ENDTAB
  0
TABLE
  2
APPID
  5
9
330
0
100
AcDbSymbolTable
 70
     1
  0
APPID
  5
12
330
9
100
AcDbSymbolTableRecord
100
AcDbRegAppTableRecord
  2
ACAD
 70
     0
  0
ENDTAB
  0
TABLE
  2
DIMSTYLE
  5
A
330
0
100
AcDbSymbolTable
 70
     2
100
AcDbDimStyleTable
 71
     2
340
27
340
A2
  0
DIMSTYLE
105
27
102
{ACAD_REACTORS
330
3497
330
34FF
330
3516
330
3564
330
357E
330
35D0
330
35DD
330
35EA
330
372E
330
373B
330
3748
330
3754
330
37FA
330
3814
330
3830
330
3892
330
38A1
330
38AE
330
38BD
330
38CA
330
390B
330
3981
102
}
330
A
100
AcDbSymbolTableRecord
100
AcDbDimStyleTableRecord
  2
ISO-25
 70
     0
 41
2.5
 42
0.625
 43
3.75
 44
1.25
 73
     0
 74
     0
 77
     1
 78
     8
140
2.5
141
2.5
143
0.03937007874016
147
0.625
171
     3
172
     1
271
     2
272
     2
274
     3
283
     0
284
     8
340
11
  0
DIMSTYLE
105
A2
330
A
100
AcDbSymbolTableRecord
100
AcDbDimStyleTableRecord
  2
sunpo
 70
     0
 40
0.0
 41
3.0
 42
2.0
 43
8.0
 44
3.0
 73
     0
 74
     0
 77
     1
 78
     8
140
5.0
141
2.5
143
0.03937007874016
147
1.0
171
     3
172
     1
271
     2
272
     2
274
     3
283
     0
284
     8
340
50
341
9B
342
9B
  0
ENDTAB
  0
TABLE
  2
BLOCK_RECORD
  5
1
330
0
100
AcDbSymbolTable
 70
    31
  0
BLOCK_RECORD
  5
1F
330
1
100
AcDbSymbolTableRecord
100
AcDbBlockTableRecord
  2
*Model_Space
340
22
  0
BLOCK_RECORD
  5
1B
330
1
100
AcDbSymbolTableRecord
100
AcDbBlockTableRecord
  2
*Paper_Space
340
1E
  0
BLOCK_RECORD
  5
9B
330
1
100
AcDbSymbolTableRecord
100
AcDbBlockTableRecord
  2
_Closed
340
0
102
{BLKREFS
331
3999
331
399A
331
3A22
331
3A23
102
}
  0
BLOCK_RECORD
  5
1510
330
1
100
AcDbSymbolTableRecord
100
AcDbBlockTableRecord
  2
A$C10A573AC
340
0
  0
BLOCK_RECORD
  5
3498
330
1
100
AcDbSymbolTableRecord
100
AcDbBlockTableRecord
  2
*D2
340
0
  0
BLOCK_RECORD
  5
3500
330
1
100
AcDbSymbolTableRecord
100
AcDbBlockTableRecord
  2
*D3
340
0
  0
BLOCK_RECORD
  5
3517
330
1
100
AcDbSymbolTableRecord
100
AcDbBlockTableRecord
  2
*D4
340
0
  0
BLOCK_RECORD
  5
3565
330
1
100
AcDbSymbolTableRecord
100
AcDbBlockTableRecord
  2
*D5
340
0
  0
BLOCK_RECORD
  5
357F
330
1
100
AcDbSymbolTableRecord
100
AcDbBlockTableRecord
  2
*D7
340
0
  0
BLOCK_RECORD
  5
35D1
330
1
100
AcDbSymbolTableRecord
100
AcDbBlockTableRecord
  2
*D10
340
0
  0
BLOCK_RECORD
  5
35DE
330
1
100
AcDbSymbolTableRecord
100
AcDbBlockTableRecord
  2
*D11
340
0
  0
BLOCK_RECORD
  5
35EB
330
1
100
AcDbSymbolTableRecord
100
AcDbBlockTableRecord
  2
*D12
340
0
  0
BLOCK_RECORD
  5
372F
330
1
100
AcDbSymbolTableRecord
100
AcDbBlockTableRecord
  2
*D13
340
0
  0
BLOCK_RECORD
  5
373C
330
1
100
AcDbSymbolTableRecord
100
AcDbBlockTableRecord
  2
*D14
340
0
  0
BLOCK_RECORD
  5
3749
330
1
100
AcDbSymbolTableRecord
100
AcDbBlockTableRecord
  2
*D15
340
0
  0
BLOCK_RECORD
  5
3755
330
1
100
AcDbSymbolTableRecord
100
AcDbBlockTableRecord
  2
*D16
340
0
  0
BLOCK_RECORD
  5
37FB
330
1
100
AcDbSymbolTableRecord
100
AcDbBlockTableRecord
  2
*D17
340
0
  0
BLOCK_RECORD
  5
3815
330
1
100
AcDbSymbolTableRecord
100
AcDbBlockTableRecord
  2
*D18
340
0
  0
BLOCK_RECORD
  5
3831
330
1
100
AcDbSymbolTableRecord
100
AcDbBlockTableRecord
  2
*D20
340
0
  0
BLOCK_RECORD
  5
3893
330
1
100
AcDbSymbolTableRecord
100
AcDbBlockTableRecord
  2
*D21
340
0
  0
BLOCK_RECORD
  5
38A2
330
1
100
AcDbSymbolTableRecord
100
AcDbBlockTableRecord
  2
*D22
340
0
  0
BLOCK_RECORD
  5
38AF
330
1
100
AcDbSymbolTableRecord
100
AcDbBlockTableRecord
  2
*D23
340
0
  0
BLOCK_RECORD
  5
38BE
330
1
100
AcDbSymbolTableRecord
100
AcDbBlockTableRecord
  2
*D24
340
0
  0
BLOCK_RECORD
  5
38CB
330
1
100
AcDbSymbolTableRecord
100
AcDbBlockTableRecord
  2
*D25
340
0
  0
BLOCK_RECORD
  5
390C
330
1
100
AcDbSymbolTableRecord
100
AcDbBlockTableRecord
  2
*D27
340
0
  0
BLOCK_RECORD
  5
3982
330
1
100
AcDbSymbolTableRecord
100
AcDbBlockTableRecord
  2
*D28
340
0
  0
ENDTAB
  0
ENDSEC
  0
SECTION
  2
BLOCKS
  0
BLOCK
  5
20
330
1F
100
AcDbEntity
  8
0
100
AcDbBlockBegin
  2
*Model_Space
 70
     0
 10
0.0
 20
0.0
 30
0.0
  3
*Model_Space
  1

  0
ENDBLK
  5
21
330
1F
100
AcDbEntity
  8
0
100
AcDbBlockEnd
  0
BLOCK
  5
1C
330
1B
100
AcDbEntity
 67
     1
  8
0
100
AcDbBlockBegin
  2
*Paper_Space
 70
     0
 10
0.0
 20
0.0
 30
0.0
  3
*Paper_Space
  1

  0
ENDBLK
  5
1D
330
1B
100
AcDbEntity
 67
     1
  8
0
100
AcDbBlockEnd
  0
BLOCK
  5
A0
330
9B
100
AcDbEntity
  8
0
100
AcDbBlockBegin
  2
_Closed
 70
     0
 10
0.0
 20
0.0
 30
0.0
  3
_Closed
  1

  0
LINE
  5
9C
330
9B
100
AcDbEntity
  8
0
 62
     0
370
    -2
100
AcDbLine
 10
-1.0
 20
0.1666666666666666
 30
0.0
 11
0.0
 21
0.0
 31
0.0
  0
LINE
  5
9D
330
9B
100
AcDbEntity
  8
0
 62
     0
370
    -2
100
AcDbLine
 10
0.0
 20
0.0
 30
0.0
 11
-1.0
 21
-0.1666666666666666
 31
0.0
  0
LINE
  5
9E
330
9B
100
AcDbEntity
  8
0
 62
     0
370
    -2
100
AcDbLine
 10
-1.0
 20
0.1666666666666666
 30
0.0
 11
-1.0
 21
-0.1666666666666666
 31
0.0
  0
LINE
  5
9F
330
9B
100
AcDbEntity
  8
0
 62
     0
370
    -2
100
AcDbLine
 10
0.0
 20
0.0
 30
0.0
 11
-1.0
 21
0.0
 31
0.0
  0
ENDBLK
  5
A1
330
9B
100
AcDbEntity
  8
0
100
AcDbBlockEnd
  0
BLOCK
  5
155B
330
1510
100
AcDbEntity
  8
0
100
AcDbBlockBegin
  2
A$C10A573AC
 70
     0
 10
0.0
 20
0.0
 30
0.0
  3
A$C10A573AC
  1

  0
TEXT
  5
1511
330
1510
100
AcDbEntity
  8
文字
100
AcDbText
 10
0.9844302777919438
 20
5.224957122252135
 30
0.0
 40
3.0
  1
Materal : Steel.
 51
15.0
  7
OKANO
100
AcDbText
  0
TEXT
  5
1512
330
1510
100
AcDbEntity
  8
文字
100
AcDbText
 10
-0.1141909619694843
 20
0.7500001922403499
 30
0.0
 40
3.0
  1
Surface treatment : Electro galvanized.
 51
15.0
  7
OKANO
100
AcDbText
  0
TEXT
  5
1513
330
1510
100
AcDbEntity
  8
文字
100
AcDbText
 10
-0.4901926332574931
 20
9.159967445193728
 30
0.0
 40
3.0
  1
5 TORGUE SCREW  M5-6
 51
15.0
  7
OKANO
100
AcDbText
  0
TEXT
  5
1514
330
1510
100
AcDbEntity
  8
文字
100
AcDbText
 10
1.364713526390005
 20
78.88822913323082
 30
0.0
 40
3.0
  1
Special standard,
 51
15.0
  7
OKANO
100
AcDbText
  0
TEXT
  5
1515
330
1510
100
AcDbEntity
  8
文字
100
AcDbText
 10
92.88160823408942
 20
89.92753849837379
 30
0.0
 40
3.0
  1
Screw Type
 51
15.0
  7
OKANO
100
AcDbText
  0
LINE
  5
1516
330
1510
100
AcDbEntity
  8
太線
100
AcDbLine
 10
113.9464587597784
 20
81.93930390144641
 30
0.0
 11
112.4464587597784
 21
81.93930390144641
 31
0.0
  0
LINE
  5
1517
330
1510
100
AcDbEntity
  8
太線
100
AcDbLine
 10
112.4464587597784
 20
76.9393039014464
 30
0.0
 11
121.4644995438761
 21
76.9393039014464
 31
0.0
  0
TEXT
  5
1518
330
1510
100
AcDbEntity
  8
文字
100
AcDbText
 10
93.46068240437217
 20
77.96976862235396
 30
0.0
 40
2.0
  1
17-30
 51
15.0
  7
OKANO
100
AcDbText
  0
LINE
  5
1519
330
1510
100
AcDbEntity
  8
太線
100
AcDbLine
 10
111.9464587597784
 20
81.43930390144641
 30
0.0
 11
111.9464587597784
 21
77.4393039014464
 31
0.0
  0
LINE
  5
151A
330
1510
100
AcDbEntity
  8
太線
100
AcDbLine
 10
91.94645875977846
 20
81.43930390144641
 30
0.0
 11
91.94645875977846
 21
77.43930390144639
 31
0.0
  0
LINE
  5
151B
330
1510
100
AcDbEntity
  8
太線
100
AcDbLine
 10
101.9644995438761
 20
77.4393039014464
 30
0.0
 11
101.9644995438761
 21
81.43930390144641
 31
0.0
  0
LINE
  5
151C
330
1510
100
AcDbEntity
  8
太線
100
AcDbLine
 10
92.44645875977846
 20
76.9393039014464
 30
0.0
 11
101.4644995438761
 21
76.9393039014464
 31
0.0
  0
ARC
  5
151D
330
1510
100
AcDbEntity
  8
太線
100
AcDbCircle
 10
92.44645875977846
 20
77.43930390144639
 30
0.0
 40
0.5
100
AcDbArc
 50
180.0
 51
270.0
  0
ARC
  5
151E
330
1510
100
AcDbEntity
  8
太線
100
AcDbCircle
 10
101.4644995438761
 20
77.4393039014464
 30
0.0
 40
0.5
100
AcDbArc
 50
270.0
 51
0.0
  0
ARC
  5
151F
330
1510
100
AcDbEntity
  8
太線
100
AcDbCircle
 10
112.4464587597784
 20
77.4393039014464
 30
0.0
 40
0.5
100
AcDbArc
 50
180.0
 51
270.0
  0
LINE
  5
1520
330
1510
100
AcDbEntity
  8
想像線
100
AcDbLine
 10
93.94645875977847
 20
81.93930390144641
 30
0.0
 11
99.96449954387617
 21
81.93930390144641
 31
0.0
  0
LINE
  5
1521
330
1510
100
AcDbEntity
  8
極太線
100
AcDbLine
 10
96.38762957111168
 20
85.43930390144641
 30
0.0
 11
97.50528794844525
 21
85.43930390144641
 31
0.0
  0
CIRCLE
  5
1522
330
1510
100
AcDbEntity
  8
太線
100
AcDbCircle
 10
96.94645875977847
 20
85.43930390144641
 30
0.0
 40
0.5588291886667776
  0
LINE
  5
1523
330
1510
100
AcDbEntity
  8
太線
100
AcDbLine
 10
99.46449954387617
 20
86.93930390144641
 30
0.0
 11
94.44645875977846
 21
86.93930390144641
 31
0.0
  0
LINE
  5
1524
330
1510
100
AcDbEntity
  8
太線
100
AcDbLine
 10
93.94645875977847
 20
86.43930390144641
 30
0.0
 11
93.94645875977847
 21
81.93930390144641
 31
0.0
  0
ARC
  5
1525
330
1510
100
AcDbEntity
  8
太線
100
AcDbCircle
 10
92.44645875977846
 20
81.43930390144641
 30
0.0
 40
0.5
100
AcDbArc
 50
90.0
 51
180.0
  0
LINE
  5
1526
330
1510
100
AcDbEntity
  8
太線
100
AcDbLine
 10
93.94645875977847
 20
81.93930390144641
 30
0.0
 11
92.44645875977846
 21
81.93930390144641
 31
0.0
  0
ARC
  5
1527
330
1510
100
AcDbEntity
  8
太線
100
AcDbCircle
 10
94.44645875977846
 20
86.43930390144641
 30
0.0
 40
0.5
100
AcDbArc
 50
90.0
 51
180.0
  0
LINE
  5
1528
330
1510
100
AcDbEntity
  8
太線
100
AcDbLine
 10
99.96449954387617
 20
81.93930390144641
 30
0.0
 11
99.96449954387617
 21
86.43930390144641
 31
0.0
  0
LINE
  5
1529
330
1510
100
AcDbEntity
  8
太線
100
AcDbLine
 10
101.4644995438761
 20
81.93930390144641
 30
0.0
 11
99.96449954387617
 21
81.93930390144641
 31
0.0
  0
ARC
  5
152A
330
1510
100
AcDbEntity
  8
太線
100
AcDbCircle
 10
101.4644995438761
 20
81.43930390144641
 30
0.0
 40
0.5
100
AcDbArc
 50
0.0
 51
90.0
  0
ARC
  5
152B
330
1510
100
AcDbEntity
  8
太線
100
AcDbCircle
 10
99.46449954387617
 20
86.43930390144641
 30
0.0
 40
0.5
100
AcDbArc
 50
0.0
 51
90.0
  0
LINE
  5
152C
330
1510
100
AcDbEntity
  8
極太線
100
AcDbLine
 10
96.94645875977847
 20
85.99813309011318
 30
0.0
 11
96.94645875977847
 21
84.88047471277964
 31
0.0
  0
ARC
  5
152D
330
1510
100
AcDbEntity
  8
太線
100
AcDbCircle
 10
112.4464587597784
 20
81.43930390144641
 30
0.0
 40
0.5
100
AcDbArc
 50
90.0
 51
180.0
  0
TEXT
  5
152E
330
1510
100
AcDbEntity
  8
文字
100
AcDbText
 10
134.3819212586066
 20
78.16263579228063
 30
0.0
 40
2.0
  1
101
 51
15.0
  7
OKANO
100
AcDbText
  0
TEXT
  5
152F
330
1510
100
AcDbEntity
  8
文字
100
AcDbText
 10
113.3422276612066
 20
77.96976862235396
 30
0.0
 40
2.0
  1
38-83
 51
15.0
  7
OKANO
100
AcDbText
  0
LINE
  5
1530
330
1510
100
AcDbEntity
  8
太線
100
AcDbLine
 10
141.9825403279738
 20
77.4393039014464
 30
0.0
 11
141.9825403279738
 21
81.43930390144641
 31
0.0
  0
LINE
  5
1531
330
1510
100
AcDbEntity
  8
太線
100
AcDbLine
 10
131.9644995438761
 20
81.43930390144641
 30
0.0
 11
131.9644995438761
 21
77.4393039014464
 31
0.0
  0
LINE
  5
1532
330
1510
100
AcDbEntity
  8
太線
100
AcDbLine
 10
121.9644995438761
 20
77.4393039014464
 30
0.0
 11
121.9644995438761
 21
81.43930390144641
 31
0.0
  0
ARC
  5
1533
330
1510
100
AcDbEntity
  8
太線
100
AcDbCircle
 10
121.4644995438761
 20
77.4393039014464
 30
0.0
 40
0.5
100
AcDbArc
 50
270.0
 51
0.0
  0
LINE
  5
1534
330
1510
100
AcDbEntity
  8
太線
100
AcDbLine
 10
132.4644995438761
 20
76.9393039014464
 30
0.0
 11
141.4825403279738
 21
76.9393039014464
 31
0.0
  0
ARC
  5
1535
330
1510
100
AcDbEntity
  8
太線
100
AcDbCircle
 10
132.4644995438761
 20
77.4393039014464
 30
0.0
 40
0.5
100
AcDbArc
 50
180.0
 51
270.0
  0
ARC
  5
1536
330
1510
100
AcDbEntity
  8
太線
100
AcDbCircle
 10
141.4825403279738
 20
77.4393039014464
 30
0.0
 40
0.5
100
AcDbArc
 50
270.0
 51
0.0
  0
ARC
  5
1537
330
1510
100
AcDbEntity
  8
太線
100
AcDbCircle
 10
121.4644995438761
 20
81.43930390144641
 30
0.0
 40
0.5
100
AcDbArc
 50
0.0
 51
90.0
  0
LINE
  5
1538
330
1510
100
AcDbEntity
  8
太線
100
AcDbLine
 10
119.9644995438761
 20
81.93930390144641
 30
0.0
 11
119.9644995438761
 21
86.43930390144641
 31
0.0
  0
LINE
  5
1539
330
1510
100
AcDbEntity
  8
太線
100
AcDbLine
 10
113.9464587597784
 20
86.43930390144641
 30
0.0
 11
113.9464587597784
 21
81.93930390144641
 31
0.0
  0
LINE
  5
153A
330
1510
100
AcDbEntity
  8
想像線
100
AcDbLine
 10
113.9464587597784
 20
81.93930390144641
 30
0.0
 11
119.9644995438761
 21
81.93930390144641
 31
0.0
  0
LINE
  5
153B
330
1510
100
AcDbEntity
  8
太線
100
AcDbLine
 10
121.4644995438761
 20
81.93930390144641
 30
0.0
 11
119.9644995438761
 21
81.93930390144641
 31
0.0
  0
LINE
  5
153C
330
1510
100
AcDbEntity
  8
太線
100
AcDbLine
 10
119.4644995438761
 20
86.93930390144641
 30
0.0
 11
114.4464587597784
 21
86.93930390144641
 31
0.0
  0
ARC
  5
153D
330
1510
100
AcDbEntity
  8
太線
100
AcDbCircle
 10
114.4464587597784
 20
86.43930390144641
 30
0.0
 40
0.5
100
AcDbArc
 50
90.0
 51
180.0
  0
CIRCLE
  5
153E
330
1510
100
AcDbEntity
  8
太線
100
AcDbCircle
 10
115.4464587597784
 20
85.43930390144641
 30
0.0
 40
0.5588291886667776
  0
LINE
  5
153F
330
1510
100
AcDbEntity
  8
極太線
100
AcDbLine
 10
115.4464587597784
 20
85.99813309011318
 30
0.0
 11
115.4464587597784
 21
84.88047471277964
 31
0.0
  0
LINE
  5
1540
330
1510
100
AcDbEntity
  8
極太線
100
AcDbLine
 10
114.8876295711116
 20
85.43930390144641
 30
0.0
 11
116.0052879484452
 21
85.43930390144641
 31
0.0
  0
ARC
  5
1541
330
1510
100
AcDbEntity
  8
太線
100
AcDbCircle
 10
119.4644995438761
 20
86.43930390144641
 30
0.0
 40
0.5
100
AcDbArc
 50
0.0
 51
90.0
  0
LINE
  5
1542
330
1510
100
AcDbEntity
  8
極太線
100
AcDbLine
 10
117.9056703552094
 20
85.43930390144641
 30
0.0
 11
119.0233287325429
 21
85.43930390144641
 31
0.0
  0
LINE
  5
1543
330
1510
100
AcDbEntity
  8
極太線
100
AcDbLine
 10
118.4644995438761
 20
85.99813309011318
 30
0.0
 11
118.4644995438761
 21
84.88047471277964
 31
0.0
  0
CIRCLE
  5
1544
330
1510
100
AcDbEntity
  8
太線
100
AcDbCircle
 10
118.4644995438761
 20
85.43930390144641
 30
0.0
 40
0.5588291886667776
  0
LINE
  5
1545
330
1510
100
AcDbEntity
  8
想像線
100
AcDbLine
 10
133.9644995438761
 20
81.93930390144641
 30
0.0
 11
139.9825403279738
 21
81.93930390144641
 31
0.0
  0
LINE
  5
1546
330
1510
100
AcDbEntity
  8
極太線
100
AcDbLine
 10
137.9237111393071
 20
85.43930390144641
 30
0.0
 11
139.0413695166406
 21
85.43930390144641
 31
0.0
  0
CIRCLE
  5
1547
330
1510
100
AcDbEntity
  8
太線
100
AcDbCircle
 10
138.4825403279738
 20
85.43930390144641
 30
0.0
 40
0.5588291886667776
  0
CIRCLE
  5
1548
330
1510
100
AcDbEntity
  8
太線
100
AcDbCircle
 10
138.4825403279738
 20
83.26342923362075
 30
0.0
 40
0.5588291886667776
  0
LINE
  5
1549
330
1510
100
AcDbEntity
  8
極太線
100
AcDbLine
 10
137.9237111393071
 20
83.26342923362075
 30
0.0
 11
139.0413695166406
 21
83.26342923362075
 31
0.0
  0
LINE
  5
154A
330
1510
100
AcDbEntity
  8
太線
100
AcDbLine
 10
139.4825403279738
 20
86.93930390144641
 30
0.0
 11
134.4644995438761
 21
86.93930390144641
 31
0.0
  0
LINE
  5
154B
330
1510
100
AcDbEntity
  8
太線
100
AcDbLine
 10
133.9644995438761
 20
86.43930390144641
 30
0.0
 11
133.9644995438761
 21
81.93930390144641
 31
0.0
  0
ARC
  5
154C
330
1510
100
AcDbEntity
  8
太線
100
AcDbCircle
 10
132.4644995438761
 20
81.43930390144641
 30
0.0
 40
0.5
100
AcDbArc
 50
90.0
 51
180.0
  0
LINE
  5
154D
330
1510
100
AcDbEntity
  8
太線
100
AcDbLine
 10
133.9644995438761
 20
81.93930390144641
 30
0.0
 11
132.4644995438761
 21
81.93930390144641
 31
0.0
  0
LINE
  5
154E
330
1510
100
AcDbEntity
  8
極太線
100
AcDbLine
 10
134.9056703552093
 20
83.26342923362075
 30
0.0
 11
136.0233287325429
 21
83.26342923362075
 31
0.0
  0
LINE
  5
154F
330
1510
100
AcDbEntity
  8
極太線
100
AcDbLine
 10
135.4644995438761
 20
83.82225842228752
 30
0.0
 11
135.4644995438761
 21
82.70460004495395
 31
0.0
  0
CIRCLE
  5
1550
330
1510
100
AcDbEntity
  8
太線
100
AcDbCircle
 10
135.4644995438761
 20
83.26342923362075
 30
0.0
 40
0.5588291886667776
  0
ARC
  5
1551
330
1510
100
AcDbEntity
  8
太線
100
AcDbCircle
 10
134.4644995438761
 20
86.43930390144641
 30
0.0
 40
0.5
100
AcDbArc
 50
90.0
 51
180.0
  0
CIRCLE
  5
1552
330
1510
100
AcDbEntity
  8
太線
100
AcDbCircle
 10
135.4644995438761
 20
85.43930390144641
 30
0.0
 40
0.5588291886667776
  0
LINE
  5
1553
330
1510
100
AcDbEntity
  8
極太線
100
AcDbLine
 10
135.4644995438761
 20
85.99813309011318
 30
0.0
 11
135.4644995438761
 21
84.88047471277964
 31
0.0
  0
LINE
  5
1554
330
1510
100
AcDbEntity
  8
極太線
100
AcDbLine
 10
134.9056703552093
 20
85.43930390144641
 30
0.0
 11
136.0233287325429
 21
85.43930390144641
 31
0.0
  0
LINE
  5
1555
330
1510
100
AcDbEntity
  8
太線
100
AcDbLine
 10
139.9825403279738
 20
81.93930390144641
 30
0.0
 11
139.9825403279738
 21
86.43930390144641
 31
0.0
  0
ARC
  5
1556
330
1510
100
AcDbEntity
  8
太線
100
AcDbCircle
 10
141.4825403279738
 20
81.43930390144641
 30
0.0
 40
0.5
100
AcDbArc
 50
0.0
 51
90.0
  0
LINE
  5
1557
330
1510
100
AcDbEntity
  8
極太線
100
AcDbLine
 10
138.4825403279738
 20
83.82225842228752
 30
0.0
 11
138.4825403279738
 21
82.70460004495395
 31
0.0
  0
LINE
  5
1558
330
1510
100
AcDbEntity
  8
太線
100
AcDbLine
 10
141.4825403279738
 20
81.93930390144641
 30
0.0
 11
139.9825403279738
 21
81.93930390144641
 31
0.0
  0
ARC
  5
1559
330
1510
100
AcDbEntity
  8
太線
100
AcDbCircle
 10
139.4825403279738
 20
86.43930390144641
 30
0.0
 40
0.5
100
AcDbArc
 50
0.0
 51
90.0
  0
LINE
  5
155A
330
1510
100
AcDbEntity
  8
極太線
100
AcDbLine
 10
138.4825403279738
 20
85.99813309011318
 30
0.0
 11
138.4825403279738
 21
84.88047471277964
 31
0.0
  0
ENDBLK
  5
155C
330
1510
100
AcDbEntity
  8
0
100
AcDbBlockEnd
  0
BLOCK
  5
34A4
330
3498
100
AcDbEntity
  8
0
100
AcDbBlockBegin
  2
*D2
 70
     1
 10
0.0
 20
0.0
 30
0.0
  3
*D2
  1

  0
LINE
  5
37AF
330
3498
100
AcDbEntity
  8
寸法線
 62
     0
370
    -2
100
AcDbLine
 10
275.6464966507071
 20
128.460496474318
 30
0.0
 11
275.6464966507071
 21
161.4093034566863
 31
0.0
  0
LINE
  5
37B0
330
3498
100
AcDbEntity
  8
寸法線
 62
     0
370
    -2
100
AcDbLine
 10
279.5574897575006
 20
128.8157033942364
 30
0.0
 11
279.5574897575006
 21
161.4093034566863
 31
0.0
  0
LINE
  5
37B1
330
3498
100
AcDbEntity
  8
寸法線
 62
     0
370
    -2
100
AcDbLine
 10
273.1464966507071
 20
160.1593034566862
 30
0.0
 11
270.6464966507071
 21
160.1593034566862
 31
0.0
  0
LINE
  5
37B2
330
3498
100
AcDbEntity
  8
寸法線
 62
     0
370
    -2
100
AcDbLine
 10
282.0574897575006
 20
160.1593034566862
 30
0.0
 11
284.5574897575006
 21
160.1593034566862
 31
0.0
  0
LINE
  5
37B3
330
3498
100
AcDbEntity
  8
寸法線
 62
     0
370
    -2
100
AcDbLine
 10
275.6464966507071
 20
160.1593034566862
 30
0.0
 11
279.5574897575006
 21
160.1593034566862
 31
0.0
  0
SOLID
  5
37B4
330
3498
100
AcDbEntity
  8
寸法線
 62
     0
100
AcDbTrace
 10
273.1464966507071
 20
160.5759701233529
 30
0.0
 11
273.1464966507071
 21
159.7426367900196
 31
0.0
 12
275.6464966507071
 22
160.1593034566862
 32
0.0
 13
275.6464966507071
 23
160.1593034566862
 33
0.0
  0
SOLID
  5
37B5
330
3498
100
AcDbEntity
  8
寸法線
 62
     0
100
AcDbTrace
 10
282.0574897575006
 20
160.5759701233529
 30
0.0
 11
282.0574897575006
 21
159.7426367900196
 31
0.0
 12
279.5574897575006
 22
160.1593034566862
 32
0.0
 13
279.5574897575006
 23
160.1593034566862
 33
0.0
  0
MTEXT
  5
37B6
330
3498
100
AcDbEntity
  8
寸法線
 62
     0
100
AcDbMText
 10
277.6019932041039
 20
162.0343034566863
 30
0.0
 40
2.5
 41
0.0
 71
     5
 72
     1
  1
4
 73
     1
 44
1.0
  0
POINT
  5
37B7
330
3498
100
AcDbEntity
  8
Defpoints
 62
     0
100
AcDbPoint
 10
275.6464966507071
 20
127.835496474318
 30
0.0
  0
POINT
  5
37B8
330
3498
100
AcDbEntity
  8
Defpoints
 62
     0
100
AcDbPoint
 10
279.5574897575006
 20
128.1907033942365
 30
0.0
  0
POINT
  5
37B9
330
3498
100
AcDbEntity
  8
Defpoints
 62
     0
100
AcDbPoint
 10
279.5574897575006
 20
160.1593034566862
 30
0.0
  0
ENDBLK
  5
34A5
330
3498
100
AcDbEntity
  8
0
100
AcDbBlockEnd
  0
BLOCK
  5
350A
330
3500
100
AcDbEntity
  8
0
100
AcDbBlockBegin
  2
*D3
 70
     1
 10
0.0
 20
0.0
 30
0.0
  3
*D3
  1

  0
LINE
  5
3794
330
3500
100
AcDbEntity
  8
寸法線
 62
     0
370
    -2
100
AcDbLine
 10
147.8265140254043
 20
152.9441632184789
 30
0.0
 11
176.956946702621
 21
152.9441632184789
 31
0.0
  0
LINE
  5
3795
330
3500
100
AcDbEntity
  8
寸法線
 62
     0
370
    -2
100
AcDbLine
 10
147.8265140254043
 20
95.94416321847901
 30
0.0
 11
176.956946702621
 21
95.944163218479
 31
0.0
  0
LINE
  5
3796
330
3500
100
AcDbEntity
  8
寸法線
 62
     0
370
    -2
100
AcDbLine
 10
175.706946702621
 20
150.4441632184789
 30
0.0
 11
175.706946702621
 21
98.44416321847901
 31
0.0
  0
SOLID
  5
3797
330
3500
100
AcDbEntity
  8
寸法線
 62
     0
100
AcDbTrace
 10
175.2902800359543
 20
150.4441632184789
 30
0.0
 11
176.1236133692877
 21
150.4441632184789
 31
0.0
 12
175.706946702621
 22
152.9441632184789
 32
0.0
 13
175.706946702621
 23
152.9441632184789
 33
0.0
  0
SOLID
  5
3798
330
3500
100
AcDbEntity
  8
寸法線
 62
     0
100
AcDbTrace
 10
175.2902800359543
 20
98.44416321847901
 30
0.0
 11
176.1236133692877
 21
98.44416321847901
 31
0.0
 12
175.706946702621
 22
95.944163218479
 32
0.0
 13
175.706946702621
 23
95.944163218479
 33
0.0
  0
MTEXT
  5
3799
330
3500
100
AcDbEntity
  8
寸法線
 62
     0
100
AcDbMText
 10
173.831946702621
 20
124.444163218479
 30
0.0
 40
2.5
 41
0.0
 71
     5
 72
     1
  1
57.6
 11
0.0000000000000001
 21
1.0
 31
0.0
 73
     1
 44
1.0
  0
POINT
  5
379A
330
3500
100
AcDbEntity
  8
Defpoints
 62
     0
100
AcDbPoint
 10
147.2015140254043
 20
152.9441632184789
 30
0.0
  0
POINT
  5
379B
330
3500
100
AcDbEntity
  8
Defpoints
 62
     0
100
AcDbPoint
 10
147.2015140254043
 20
95.94416321847901
 30
0.0
  0
POINT
  5
379C
330
3500
100
AcDbEntity
  8
Defpoints
 62
     0
100
AcDbPoint
 10
175.706946702621
 20
95.944163218479
 30
0.0
  0
ENDBLK
  5
350B
330
3500
100
AcDbEntity
  8
0
100
AcDbBlockEnd
  0
BLOCK
  5
3521
330
3517
100
AcDbEntity
  8
0
100
AcDbBlockBegin
  2
*D4
 70
     1
 10
0.0
 20
0.0
 30
0.0
  3
*D4
  1

  0
LINE
  5
3A45
330
3517
100
AcDbEntity
  8
寸法線
 62
     0
370
    -2
100
AcDbLine
 10
87.20151402540432
 20
-57.04385597134319
 30
0.0
 11
87.20151402540432
 21
-70.40722615060542
 31
0.0
  0
LINE
  5
3A46
330
3517
100
AcDbEntity
  8
寸法線
 62
     0
370
    -2
100
AcDbLine
 10
147.2015140254043
 20
-57.04385597134319
 30
0.0
 11
147.2015140254043
 21
-70.40722615060542
 31
0.0
  0
LINE
  5
3A47
330
3517
100
AcDbEntity
  8
寸法線
 62
     0
370
    -2
100
AcDbLine
 10
89.70151402540432
 20
-69.15722615060542
 30
0.0
 11
144.7015140254043
 21
-69.15722615060542
 31
0.0
  0
SOLID
  5
3A48
330
3517
100
AcDbEntity
  8
寸法線
 62
     0
100
AcDbTrace
 10
89.70151402540432
 20
-68.74055948393875
 30
0.0
 11
89.70151402540432
 21
-69.57389281727209
 31
0.0
 12
87.20151402540432
 22
-69.15722615060542
 32
0.0
 13
87.20151402540432
 23
-69.15722615060542
 33
0.0
  0
SOLID
  5
3A49
330
3517
100
AcDbEntity
  8
寸法線
 62
     0
100
AcDbTrace
 10
144.7015140254043
 20
-68.74055948393875
 30
0.0
 11
144.7015140254043
 21
-69.57389281727209
 31
0.0
 12
147.2015140254043
 22
-69.15722615060542
 32
0.0
 13
147.2015140254043
 23
-69.15722615060542
 33
0.0
  0
MTEXT
  5
3A4A
330
3517
100
AcDbEntity
  8
寸法線
 62
     0
100
AcDbMText
 10
117.2015140254043
 20
-67.28222615060542
 30
0.0
 40
2.5
 41
0.0
 71
     5
 72
     1
  1
60
 73
     1
 44
1.0
  0
POINT
  5
3A4B
330
3517
100
AcDbEntity
  8
Defpoints
 62
     0
100
AcDbPoint
 10
87.20151402540432
 20
-56.41885597134319
 30
0.0
  0
POINT
  5
3A4C
330
3517
100
AcDbEntity
  8
Defpoints
 62
     0
100
AcDbPoint
 10
147.2015140254043
 20
-56.41885597134319
 30
0.0
  0
POINT
  5
3A4D
330
3517
100
AcDbEntity
  8
Defpoints
 62
     0
100
AcDbPoint
 10
147.2015140254043
 20
-69.15722615060542
 30
0.0
  0
ENDBLK
  5
3522
330
3517
100
AcDbEntity
  8
0
100
AcDbBlockEnd
  0
BLOCK
  5
356F
330
3565
100
AcDbEntity
  8
0
100
AcDbBlockBegin
  2
*D5
 70
     1
 10
0.0
 20
0.0
 30
0.0
  3
*D5
  1

  0
LINE
  5
3A3C
330
3565
100
AcDbEntity
  8
寸法線
 62
     0
370
    -2
100
AcDbLine
 10
107.7015140254043
 20
-0.0438559713431914
 30
0.0
 11
107.7015140254043
 21
-12.62987709578362
 31
0.0
  0
LINE
  5
3A3D
330
3565
100
AcDbEntity
  8
寸法線
 62
     0
370
    -2
100
AcDbLine
 10
126.7015140254043
 20
-0.0438559713431914
 30
0.0
 11
126.7015140254043
 21
-12.62987709578362
 31
0.0
  0
LINE
  5
3A3E
330
3565
100
AcDbEntity
  8
寸法線
 62
     0
370
    -2
100
AcDbLine
 10
110.2015140254043
 20
-11.37987709578362
 30
0.0
 11
124.2015140254043
 21
-11.37987709578362
 31
0.0
  0
SOLID
  5
3A3F
330
3565
100
AcDbEntity
  8
寸法線
 62
     0
100
AcDbTrace
 10
110.2015140254043
 20
-10.96321042911696
 30
0.0
 11
110.2015140254043
 21
-11.79654376245029
 31
0.0
 12
107.7015140254043
 22
-11.37987709578362
 32
0.0
 13
107.7015140254043
 23
-11.37987709578362
 33
0.0
  0
SOLID
  5
3A40
330
3565
100
AcDbEntity
  8
寸法線
 62
     0
100
AcDbTrace
 10
124.2015140254043
 20
-10.96321042911696
 30
0.0
 11
124.2015140254043
 21
-11.79654376245029
 31
0.0
 12
126.7015140254043
 22
-11.37987709578362
 32
0.0
 13
126.7015140254043
 23
-11.37987709578362
 33
0.0
  0
MTEXT
  5
3A41
330
3565
100
AcDbEntity
  8
寸法線
 62
     0
100
AcDbMText
 10
117.2015140254043
 20
-9.504877095783626
 30
0.0
 40
2.5
 41
0.0
 71
     5
 72
     1
  1
19
 73
     1
 44
1.0
  0
POINT
  5
3A42
330
3565
100
AcDbEntity
  8
Defpoints
 62
     0
100
AcDbPoint
 10
107.7015140254043
 20
0.5811440286568086
 30
0.0
  0
POINT
  5
3A43
330
3565
100
AcDbEntity
  8
Defpoints
 62
     0
100
AcDbPoint
 10
126.7015140254043
 20
0.5811440286568086
 30
0.0
  0
POINT
  5
3A44
330
3565
100
AcDbEntity
  8
Defpoints
 62
     0
100
AcDbPoint
 10
126.7015140254043
 20
-11.37987709578362
 30
0.0
  0
ENDBLK
  5
3570
330
3565
100
AcDbEntity
  8
0
100
AcDbBlockEnd
  0
BLOCK
  5
3589
330
357F
100
AcDbEntity
  8
0
100
AcDbBlockBegin
  2
*D7
 70
     1
 10
0.0
 20
0.0
 30
0.0
  3
*D7
  1

  0
LINE
  5
3A56
330
357F
100
AcDbEntity
  8
寸法線
 62
     0
370
    -2
100
AcDbLine
 10
133.2015140254043
 20
-24.54385597134319
 30
0.0
 11
133.2015140254043
 21
-31.43457951801986
 31
0.0
  0
LINE
  5
3A57
330
357F
100
AcDbEntity
  8
寸法線
 62
     0
370
    -2
100
AcDbLine
 10
141.2015140254043
 20
-24.54385597134319
 30
0.0
 11
141.2015140254043
 21
-31.43457951801986
 31
0.0
  0
LINE
  5
3A58
330
357F
100
AcDbEntity
  8
寸法線
 62
     0
370
    -2
100
AcDbLine
 10
135.7015140254043
 20
-30.18457951801986
 30
0.0
 11
138.7015140254043
 21
-30.18457951801986
 31
0.0
  0
SOLID
  5
3A59
330
357F
100
AcDbEntity
  8
寸法線
 62
     0
100
AcDbTrace
 10
135.7015140254043
 20
-29.76791285135319
 30
0.0
 11
135.7015140254043
 21
-30.60124618468652
 31
0.0
 12
133.2015140254043
 22
-30.18457951801986
 32
0.0
 13
133.2015140254043
 23
-30.18457951801986
 33
0.0
  0
SOLID
  5
3A5A
330
357F
100
AcDbEntity
  8
寸法線
 62
     0
100
AcDbTrace
 10
138.7015140254043
 20
-29.76791285135319
 30
0.0
 11
138.7015140254043
 21
-30.60124618468652
 31
0.0
 12
141.2015140254043
 22
-30.18457951801986
 32
0.0
 13
141.2015140254043
 23
-30.18457951801986
 33
0.0
  0
MTEXT
  5
3A5B
330
357F
100
AcDbEntity
  8
寸法線
 62
     0
100
AcDbMText
 10
137.2015140254043
 20
-28.30957951801986
 30
0.0
 40
2.5
 41
0.0
 71
     5
 72
     1
  1
8
 73
     1
 44
1.0
  0
POINT
  5
3A5C
330
357F
100
AcDbEntity
  8
Defpoints
 62
     0
100
AcDbPoint
 10
133.2015140254043
 20
-23.91885597134319
 30
0.0
  0
POINT
  5
3A5D
330
357F
100
AcDbEntity
  8
Defpoints
 62
     0
100
AcDbPoint
 10
141.2015140254043
 20
-23.91885597134319
 30
0.0
  0
POINT
  5
3A5E
330
357F
100
AcDbEntity
  8
Defpoints
 62
     0
100
AcDbPoint
 10
141.2015140254043
 20
-30.18457951801986
 30
0.0
  0
ENDBLK
  5
358A
330
357F
100
AcDbEntity
  8
0
100
AcDbBlockEnd
  0
BLOCK
  5
35DB
330
35D1
100
AcDbEntity
  8
0
100
AcDbBlockBegin
  2
*D10
 70
     1
 10
0.0
 20
0.0
 30
0.0
  3
*D10
  1

  0
LINE
  5
379D
330
35D1
100
AcDbEntity
  8
寸法線
 62
     0
370
    -2
100
AcDbLine
 10
251.3088366387273
 20
95.319163218479
 30
0.0
 11
251.3088366387273
 21
85.43523101653919
 31
0.0
  0
LINE
  5
379E
330
35D1
100
AcDbEntity
  8
寸法線
 62
     0
370
    -2
100
AcDbLine
 10
222.8088366387273
 20
95.319163218479
 30
0.0
 11
222.8088366387273
 21
85.43523101653919
 31
0.0
  0
LINE
  5
379F
330
35D1
100
AcDbEntity
  8
寸法線
 62
     0
370
    -2
100
AcDbLine
 10
248.8088366387273
 20
86.68523101653919
 30
0.0
 11
225.3088366387273
 21
86.68523101653919
 31
0.0
  0
SOLID
  5
37A0
330
35D1
100
AcDbEntity
  8
寸法線
 62
     0
100
AcDbTrace
 10
248.8088366387273
 20
87.10189768320587
 30
0.0
 11
248.8088366387273
 21
86.26856434987251
 31
0.0
 12
251.3088366387273
 22
86.68523101653919
 32
0.0
 13
251.3088366387273
 23
86.68523101653919
 33
0.0
  0
SOLID
  5
37A1
330
35D1
100
AcDbEntity
  8
寸法線
 62
     0
100
AcDbTrace
 10
225.3088366387273
 20
87.10189768320587
 30
0.0
 11
225.3088366387273
 21
86.26856434987251
 31
0.0
 12
222.8088366387273
 22
86.68523101653919
 32
0.0
 13
222.8088366387273
 23
86.68523101653919
 33
0.0
  0
MTEXT
  5
37A2
330
35D1
100
AcDbEntity
  8
寸法線
 62
     0
100
AcDbMText
 10
237.0588366387273
 20
88.56023101653919
 30
0.0
 40
2.5
 41
0.0
 71
     5
 72
     1
  1
28.5
 73
     1
 44
1.0
  0
POINT
  5
37A3
330
35D1
100
AcDbEntity
  8
Defpoints
 62
     0
100
AcDbPoint
 10
251.3088366387273
 20
95.944163218479
 30
0.0
  0
POINT
  5
37A4
330
35D1
100
AcDbEntity
  8
Defpoints
 62
     0
100
AcDbPoint
 10
222.8088366387273
 20
95.944163218479
 30
0.0
  0
POINT
  5
37A5
330
35D1
100
AcDbEntity
  8
Defpoints
 62
     0
100
AcDbPoint
 10
222.8088366387273
 20
86.68523101653919
 30
0.0
  0
ENDBLK
  5
35DC
330
35D1
100
AcDbEntity
  8
0
100
AcDbBlockEnd
  0
BLOCK
  5
35E8
330
35DE
100
AcDbEntity
  8
0
100
AcDbBlockBegin
  2
*D11
 70
     1
 10
0.0
 20
0.0
 30
0.0
  3
*D11
  1

  0
LINE
  5
37A6
330
35DE
100
AcDbEntity
  8
寸法線
 62
     0
370
    -2
100
AcDbLine
 10
222.8088366387273
 20
95.319163218479
 30
0.0
 11
222.8088366387273
 21
85.43523101653919
 31
0.0
  0
LINE
  5
37A7
330
35DE
100
AcDbEntity
  8
寸法線
 62
     0
370
    -2
100
AcDbLine
 10
212.8088366387273
 20
95.319163218479
 30
0.0
 11
212.8088366387273
 21
85.43523101653919
 31
0.0
  0
LINE
  5
37A8
330
35DE
100
AcDbEntity
  8
寸法線
 62
     0
370
    -2
100
AcDbLine
 10
220.3088366387273
 20
86.68523101653919
 30
0.0
 11
215.3088366387273
 21
86.68523101653919
 31
0.0
  0
SOLID
  5
37A9
330
35DE
100
AcDbEntity
  8
寸法線
 62
     0
100
AcDbTrace
 10
220.3088366387273
 20
87.10189768320587
 30
0.0
 11
220.3088366387273
 21
86.26856434987251
 31
0.0
 12
222.8088366387273
 22
86.68523101653919
 32
0.0
 13
222.8088366387273
 23
86.68523101653919
 33
0.0
  0
SOLID
  5
37AA
330
35DE
100
AcDbEntity
  8
寸法線
 62
     0
100
AcDbTrace
 10
215.3088366387273
 20
87.10189768320587
 30
0.0
 11
215.3088366387273
 21
86.26856434987251
 31
0.0
 12
212.8088366387273
 22
86.68523101653919
 32
0.0
 13
212.8088366387273
 23
86.68523101653919
 33
0.0
  0
MTEXT
  5
37AB
330
35DE
100
AcDbEntity
  8
寸法線
 62
     0
100
AcDbMText
 10
217.8088366387273
 20
88.56023101653919
 30
0.0
 40
2.5
 41
0.0
 71
     5
 72
     1
  1
10
 73
     1
 44
1.0
  0
POINT
  5
37AC
330
35DE
100
AcDbEntity
  8
Defpoints
 62
     0
100
AcDbPoint
 10
222.8088366387273
 20
95.944163218479
 30
0.0
  0
POINT
  5
37AD
330
35DE
100
AcDbEntity
  8
Defpoints
 62
     0
100
AcDbPoint
 10
212.8088366387273
 20
95.944163218479
 30
0.0
  0
POINT
  5
37AE
330
35DE
100
AcDbEntity
  8
Defpoints
 62
     0
100
AcDbPoint
 10
212.8088366387273
 20
86.68523101653919
 30
0.0
  0
ENDBLK
  5
35E9
330
35DE
100
AcDbEntity
  8
0
100
AcDbBlockEnd
  0
BLOCK
  5
35F7
330
35EB
100
AcDbEntity
  8
0
100
AcDbBlockBegin
  2
*D12
 70
     1
 10
0.0
 20
0.0
 30
0.0
  3
*D12
  1

  0
LINE
  5
3789
330
35EB
100
AcDbEntity
  8
寸法線
 62
     0
370
    -2
100
AcDbLine
 10
212.8088366387273
 20
95.319163218479
 30
0.0
 11
212.8088366387273
 21
85.43523101653919
 31
0.0
  0
LINE
  5
378A
330
35EB
100
AcDbEntity
  8
寸法線
 62
     0
370
    -2
100
AcDbLine
 10
208.8088366387273
 20
95.319163218479
 30
0.0
 11
208.8088366387273
 21
85.43523101653919
 31
0.0
  0
LINE
  5
378B
330
35EB
100
AcDbEntity
  8
寸法線
 62
     0
370
    -2
100
AcDbLine
 10
215.3088366387273
 20
86.68523101653919
 30
0.0
 11
217.8088366387273
 21
86.68523101653919
 31
0.0
  0
LINE
  5
378C
330
35EB
100
AcDbEntity
  8
寸法線
 62
     0
370
    -2
100
AcDbLine
 10
206.3088366387273
 20
86.68523101653919
 30
0.0
 11
203.8088366387273
 21
86.68523101653919
 31
0.0
  0
LINE
  5
378D
330
35EB
100
AcDbEntity
  8
寸法線
 62
     0
370
    -2
100
AcDbLine
 10
212.8088366387273
 20
86.68523101653919
 30
0.0
 11
208.8088366387273
 21
86.68523101653919
 31
0.0
  0
SOLID
  5
378E
330
35EB
100
AcDbEntity
  8
寸法線
 62
     0
100
AcDbTrace
 10
215.3088366387273
 20
87.10189768320587
 30
0.0
 11
215.3088366387273
 21
86.26856434987251
 31
0.0
 12
212.8088366387273
 22
86.68523101653919
 32
0.0
 13
212.8088366387273
 23
86.68523101653919
 33
0.0
  0
SOLID
  5
378F
330
35EB
100
AcDbEntity
  8
寸法線
 62
     0
100
AcDbTrace
 10
206.3088366387273
 20
87.10189768320587
 30
0.0
 11
206.3088366387273
 21
86.26856434987251
 31
0.0
 12
208.8088366387273
 22
86.68523101653919
 32
0.0
 13
208.8088366387273
 23
86.68523101653919
 33
0.0
  0
MTEXT
  5
3790
330
35EB
100
AcDbEntity
  8
寸法線
 62
     0
100
AcDbMText
 10
210.8088366387273
 20
88.56023101653919
 30
0.0
 40
2.5
 41
0.0
 71
     5
 72
     1
  1
4
 73
     1
 44
1.0
  0
POINT
  5
3791
330
35EB
100
AcDbEntity
  8
Defpoints
 62
     0
100
AcDbPoint
 10
212.8088366387273
 20
95.944163218479
 30
0.0
  0
POINT
  5
3792
330
35EB
100
AcDbEntity
  8
Defpoints
 62
     0
100
AcDbPoint
 10
208.8088366387273
 20
95.944163218479
 30
0.0
  0
POINT
  5
3793
330
35EB
100
AcDbEntity
  8
Defpoints
 62
     0
100
AcDbPoint
 10
208.8088366387273
 20
86.68523101653919
 30
0.0
  0
ENDBLK
  5
35F8
330
35EB
100
AcDbEntity
  8
0
100
AcDbBlockEnd
  0
BLOCK
  5
3739
330
372F
100
AcDbEntity
  8
0
100
AcDbBlockBegin
  2
*D13
 70
     1
 10
0.0
 20
0.0
 30
0.0
  3
*D13
  1

  0
LINE
  5
395D
330
372F
100
AcDbEntity
  8
寸法線
 62
     0
370
    -2
100
AcDbLine
 10
257.2543030798569
 20
5.670454154509542
 30
0.0
 11
293.5335881541961
 21
5.670454154509531
 31
0.0
  0
LINE
  5
395E
330
372F
100
AcDbEntity
  8
寸法線
 62
     0
370
    -2
100
AcDbLine
 10
257.2543030798569
 20
58.67045415450948
 30
0.0
 11
293.5335881541961
 21
58.67045415450947
 31
0.0
  0
LINE
  5
395F
330
372F
100
AcDbEntity
  8
寸法線
 62
     0
370
    -2
100
AcDbLine
 10
292.2835881541962
 20
8.170454154509531
 30
0.0
 11
292.2835881541962
 21
56.17045415450947
 31
0.0
  0
SOLID
  5
3960
330
372F
100
AcDbEntity
  8
寸法線
 62
     0
100
AcDbTrace
 10
291.8669214875295
 20
8.170454154509533
 30
0.0
 11
292.7002548208628
 21
8.170454154509531
 31
0.0
 12
292.2835881541962
 22
5.670454154509532
 32
0.0
 13
292.2835881541962
 23
5.670454154509532
 33
0.0
  0
SOLID
  5
3961
330
372F
100
AcDbEntity
  8
寸法線
 62
     0
100
AcDbTrace
 10
291.8669214875295
 20
56.17045415450947
 30
0.0
 11
292.7002548208628
 21
56.17045415450947
 31
0.0
 12
292.2835881541962
 22
58.67045415450947
 32
0.0
 13
292.2835881541962
 23
58.67045415450947
 33
0.0
  0
MTEXT
  5
3962
330
372F
100
AcDbEntity
  8
寸法線
 62
     0
100
AcDbMText
 10
290.4085881541961
 20
32.17045415450954
 30
0.0
 40
2.5
 41
0.0
 71
     5
 72
     1
  1
54
 11
0.0000000000000001
 21
1.0
 31
0.0
 73
     1
 44
1.0
  0
POINT
  5
3963
330
372F
100
AcDbEntity
  8
Defpoints
 62
     0
100
AcDbPoint
 10
256.6293030798569
 20
5.670454154509542
 30
0.0
  0
POINT
  5
3964
330
372F
100
AcDbEntity
  8
Defpoints
 62
     0
100
AcDbPoint
 10
256.6293030798569
 20
58.67045415450948
 30
0.0
  0
POINT
  5
3965
330
372F
100
AcDbEntity
  8
Defpoints
 62
     0
100
AcDbPoint
 10
292.2835881541962
 20
58.67045415450947
 30
0.0
  0
ENDBLK
  5
373A
330
372F
100
AcDbEntity
  8
0
100
AcDbBlockEnd
  0
BLOCK
  5
3746
330
373C
100
AcDbEntity
  8
0
100
AcDbBlockBegin
  2
*D14
 70
     1
 10
0.0
 20
0.0
 30
0.0
  3
*D14
  1

  0
LINE
  5
3966
330
373C
100
AcDbEntity
  8
寸法線
 62
     0
370
    -2
100
AcDbLine
 10
259.6293030798569
 20
8.045454154509542
 30
0.0
 11
259.6293030798569
 21
-4.57641573562762
 31
0.0
  0
LINE
  5
3967
330
373C
100
AcDbEntity
  8
寸法線
 62
     0
370
    -2
100
AcDbLine
 10
203.629303079857
 20
8.045454154509599
 30
0.0
 11
203.629303079857
 21
-4.57641573562762
 31
0.0
  0
LINE
  5
3968
330
373C
100
AcDbEntity
  8
寸法線
 62
     0
370
    -2
100
AcDbLine
 10
257.1293030798569
 20
-3.32641573562762
 30
0.0
 11
206.1293030798569
 21
-3.32641573562762
 31
0.0
  0
SOLID
  5
3969
330
373C
100
AcDbEntity
  8
寸法線
 62
     0
100
AcDbTrace
 10
257.1293030798569
 20
-2.909749068960953
 30
0.0
 11
257.1293030798569
 21
-3.743082402294286
 31
0.0
 12
259.6293030798569
 22
-3.32641573562762
 32
0.0
 13
259.6293030798569
 23
-3.32641573562762
 33
0.0
  0
SOLID
  5
396A
330
373C
100
AcDbEntity
  8
寸法線
 62
     0
100
AcDbTrace
 10
206.1293030798569
 20
-2.909749068960953
 30
0.0
 11
206.1293030798569
 21
-3.743082402294286
 31
0.0
 12
203.629303079857
 22
-3.32641573562762
 32
0.0
 13
203.629303079857
 23
-3.32641573562762
 33
0.0
  0
MTEXT
  5
396B
330
373C
100
AcDbEntity
  8
寸法線
 62
     0
100
AcDbMText
 10
231.6293030798569
 20
-1.45141573562762
 30
0.0
 40
2.5
 41
0.0
 71
     5
 72
     1
  1
56
 73
     1
 44
1.0
  0
POINT
  5
396C
330
373C
100
AcDbEntity
  8
Defpoints
 62
     0
100
AcDbPoint
 10
259.6293030798569
 20
8.670454154509542
 30
0.0
  0
POINT
  5
396D
330
373C
100
AcDbEntity
  8
Defpoints
 62
     0
100
AcDbPoint
 10
203.629303079857
 20
8.670454154509599
 30
0.0
  0
POINT
  5
396E
330
373C
100
AcDbEntity
  8
Defpoints
 62
     0
100
AcDbPoint
 10
203.629303079857
 20
-3.32641573562762
 30
0.0
  0
ENDBLK
  5
3747
330
373C
100
AcDbEntity
  8
0
100
AcDbBlockEnd
  0
BLOCK
  5
3752
330
3749
100
AcDbEntity
  8
0
100
AcDbBlockBegin
  2
*D15
 70
     1
 10
0.0
 20
0.0
 30
0.0
  3
*D15
  1

  0
LINE
  5
3955
330
3749
100
AcDbEntity
  8
寸法線
 62
     0
370
    -2
100
AcDbLine
 10
216.1605061782442
 20
42.46883267709437
 30
0.0
 11
224.1376884369234
 21
37.15800967217397
 31
0.0
  0
LINE
  5
3956
330
3749
100
AcDbEntity
  8
寸法線
 62
     0
370
    -2
100
AcDbLine
 10
239.1209177227905
 20
27.18289863684514
 30
0.0
 11
241.201921790272
 21
25.79746654860503
 31
0.0
  0
MTEXT
  5
3957
330
3749
100
AcDbEntity
  8
寸法線
 62
     0
100
AcDbMText
 10
220.1476693400232
 20
42.06689026936536
 30
0.0
 40
2.5
 41
0.0
 71
     5
 72
     1
  1
\U+220513
 11
0.8324016269926106
 21
-0.5541728352960426
 31
0.0
 73
     1
 44
1.0
  0
LINE
  5
3958
330
3749
100
AcDbEntity
  8
寸法線
 62
     0
370
    -2
100
AcDbLine
 10
237.0399136553089
 20
28.56833072508525
 30
0.0
 11
226.218692504405
 21
35.77257758393386
 31
0.0
  0
SOLID
  5
3959
330
3749
100
AcDbEntity
  8
寸法線
 62
     0
100
AcDbTrace
 10
239.3518230708305
 20
27.52973264809203
 30
0.0
 11
238.8900123747504
 21
26.83606462559821
 31
0.0
 12
237.0399136553089
 22
28.56833072508525
 32
0.0
 13
237.0399136553089
 23
28.56833072508525
 33
0.0
  0
SOLID
  5
395A
330
3749
100
AcDbEntity
  8
寸法線
 62
     0
100
AcDbTrace
 10
224.3685937849634
 20
37.50484368342087
 30
0.0
 11
223.9067830888834
 21
36.81117566092705
 31
0.0
 12
226.218692504405
 22
35.77257758393386
 32
0.0
 13
226.218692504405
 23
35.77257758393386
 33
0.0
  0
POINT
  5
395B
330
3749
100
AcDbEntity
  8
Defpoints
 62
     0
100
AcDbPoint
 10
226.218692504405
 20
35.77257758393386
 30
0.0
  0
POINT
  5
395C
330
3749
100
AcDbEntity
  8
Defpoints
 62
     0
100
AcDbPoint
 10
237.0399136553089
 20
28.56833072508525
 30
0.0
  0
ENDBLK
  5
3753
330
3749
100
AcDbEntity
  8
0
100
AcDbBlockEnd
  0
BLOCK
  5
3761
330
3755
100
AcDbEntity
  8
0
100
AcDbBlockBegin
  2
*D16
 70
     1
 10
0.0
 20
0.0
 30
0.0
  3
*D16
  1

  0
LINE
  5
396F
330
3755
100
AcDbEntity
  8
寸法線
 62
     0
370
    -2
100
AcDbLine
 10
260.2543030798569
 20
64.24214839837123
 30
0.0
 11
279.062200878696
 21
64.24214839837123
 31
0.0
  0
LINE
  5
3970
330
3755
100
AcDbEntity
  8
寸法線
 62
     0
370
    -2
100
AcDbLine
 10
260.2543030798569
 20
70.24214839837123
 30
0.0
 11
279.062200878696
 21
70.24214839837123
 31
0.0
  0
LINE
  5
3971
330
3755
100
AcDbEntity
  8
寸法線
 62
     0
370
    -2
100
AcDbLine
 10
277.8122008786961
 20
61.74214839837122
 30
0.0
 11
277.8122008786961
 21
59.24214839837122
 31
0.0
  0
LINE
  5
3972
330
3755
100
AcDbEntity
  8
寸法線
 62
     0
370
    -2
100
AcDbLine
 10
277.8122008786961
 20
72.74214839837123
 30
0.0
 11
277.8122008786961
 21
75.24214839837123
 31
0.0
  0
LINE
  5
3973
330
3755
100
AcDbEntity
  8
寸法線
 62
     0
370
    -2
100
AcDbLine
 10
277.8122008786961
 20
64.24214839837123
 30
0.0
 11
277.8122008786961
 21
70.24214839837123
 31
0.0
  0
SOLID
  5
3974
330
3755
100
AcDbEntity
  8
寸法線
 62
     0
100
AcDbTrace
 10
277.3955342120294
 20
61.74214839837122
 30
0.0
 11
278.2288675453628
 21
61.74214839837122
 31
0.0
 12
277.8122008786961
 22
64.24214839837123
 32
0.0
 13
277.8122008786961
 23
64.24214839837123
 33
0.0
  0
SOLID
  5
3975
330
3755
100
AcDbEntity
  8
寸法線
 62
     0
100
AcDbTrace
 10
277.3955342120294
 20
72.74214839837123
 30
0.0
 11
278.2288675453628
 21
72.74214839837123
 31
0.0
 12
277.8122008786961
 22
70.24214839837123
 32
0.0
 13
277.8122008786961
 23
70.24214839837123
 33
0.0
  0
MTEXT
  5
3976
330
3755
100
AcDbEntity
  8
寸法線
 62
     0
100
AcDbMText
 10
275.937200878696
 20
67.24214839837127
 30
0.0
 40
2.5
 41
0.0
 71
     5
 72
     1
  1
6
 11
0.0000000000000001
 21
1.0
 31
0.0
 73
     1
 44
1.0
  0
POINT
  5
3977
330
3755
100
AcDbEntity
  8
Defpoints
 62
     0
100
AcDbPoint
 10
259.6293030798569
 20
64.24214839837123
 30
0.0
  0
POINT
  5
3978
330
3755
100
AcDbEntity
  8
Defpoints
 62
     0
100
AcDbPoint
 10
259.6293030798569
 20
70.24214839837123
 30
0.0
  0
POINT
  5
3979
330
3755
100
AcDbEntity
  8
Defpoints
 62
     0
100
AcDbPoint
 10
277.8122008786961
 20
70.24214839837123
 30
0.0
  0
ENDBLK
  5
3762
330
3755
100
AcDbEntity
  8
0
100
AcDbBlockEnd
  0
BLOCK
  5
3805
330
37FB
100
AcDbEntity
  8
0
100
AcDbBlockBegin
  2
*D17
 70
     1
 10
0.0
 20
0.0
 30
0.0
  3
*D17
  1

  0
LINE
  5
37FC
330
37FB
100
AcDbEntity
  8
寸法線
 62
     0
370
    -2
100
AcDbLine
 10
92.57651402540432
 20
95.944163218479
 30
0.0
 11
71.63595989087387
 21
95.944163218479
 31
0.0
  0
LINE
  5
37FD
330
37FB
100
AcDbEntity
  8
寸法線
 62
     0
370
    -2
100
AcDbLine
 10
92.57651402540432
 20
105.9441632184789
 30
0.0
 11
71.63595989087389
 21
105.9441632184789
 31
0.0
  0
LINE
  5
37FE
330
37FB
100
AcDbEntity
  8
寸法線
 62
     0
370
    -2
100
AcDbLine
 10
72.88595989087389
 20
98.44416321847901
 30
0.0
 11
72.88595989087389
 21
103.444163218479
 31
0.0
  0
SOLID
  5
37FF
330
37FB
100
AcDbEntity
  8
寸法線
 62
     0
100
AcDbTrace
 10
72.46929322420722
 20
98.44416321847901
 30
0.0
 11
73.30262655754056
 21
98.44416321847901
 31
0.0
 12
72.88595989087387
 22
95.944163218479
 32
0.0
 13
72.88595989087387
 23
95.944163218479
 33
0.0
  0
SOLID
  5
3800
330
37FB
100
AcDbEntity
  8
寸法線
 62
     0
100
AcDbTrace
 10
72.46929322420722
 20
103.444163218479
 30
0.0
 11
73.30262655754056
 21
103.444163218479
 31
0.0
 12
72.88595989087389
 22
105.9441632184789
 32
0.0
 13
72.88595989087389
 23
105.9441632184789
 33
0.0
  0
MTEXT
  5
3801
330
37FB
100
AcDbEntity
  8
寸法線
 62
     0
100
AcDbMText
 10
71.01095989087387
 20
100.944163218479
 30
0.0
 40
2.5
 41
0.0
 71
     5
 72
     1
  1
10
 11
0.0000000000000001
 21
1.0
 31
0.0
 73
     1
 44
1.0
  0
POINT
  5
3802
330
37FB
100
AcDbEntity
  8
Defpoints
 62
     0
100
AcDbPoint
 10
93.20151402540432
 20
95.944163218479
 30
0.0
  0
POINT
  5
3803
330
37FB
100
AcDbEntity
  8
Defpoints
 62
     0
100
AcDbPoint
 10
93.20151402540432
 20
105.9441632184789
 30
0.0
  0
POINT
  5
3804
330
37FB
100
AcDbEntity
  8
Defpoints
 62
     0
100
AcDbPoint
 10
72.88595989087389
 20
105.9441632184789
 30
0.0
  0
ENDBLK
  5
3806
330
37FB
100
AcDbEntity
  8
0
100
AcDbBlockEnd
  0
BLOCK
  5
381F
330
3815
100
AcDbEntity
  8
0
100
AcDbBlockBegin
  2
*D18
 70
     1
 10
0.0
 20
0.0
 30
0.0
  3
*D18
  1

  0
LINE
  5
3920
330
3815
100
AcDbEntity
  8
寸法線
 62
     0
370
    -2
100
AcDbLine
 10
208.1838366387273
 20
132.9441632184789
 30
0.0
 11
197.0664889836075
 21
132.9441632184789
 31
0.0
  0
LINE
  5
3921
330
3815
100
AcDbEntity
  8
寸法線
 62
     0
370
    -2
100
AcDbLine
 10
207.1838366387273
 20
115.944163218479
 30
0.0
 11
197.0664889836075
 21
115.944163218479
 31
0.0
  0
LINE
  5
3922
330
3815
100
AcDbEntity
  8
寸法線
 62
     0
370
    -2
100
AcDbLine
 10
198.3164889836075
 20
130.444163218479
 30
0.0
 11
198.3164889836075
 21
118.4441632184789
 31
0.0
  0
SOLID
  5
3923
330
3815
100
AcDbEntity
  8
寸法線
 62
     0
100
AcDbTrace
 10
197.8998223169408
 20
130.444163218479
 30
0.0
 11
198.7331556502742
 21
130.444163218479
 31
0.0
 12
198.3164889836075
 22
132.9441632184789
 32
0.0
 13
198.3164889836075
 23
132.9441632184789
 33
0.0
  0
SOLID
  5
3924
330
3815
100
AcDbEntity
  8
寸法線
 62
     0
100
AcDbTrace
 10
197.8998223169408
 20
118.4441632184789
 30
0.0
 11
198.7331556502742
 21
118.4441632184789
 31
0.0
 12
198.3164889836075
 22
115.944163218479
 32
0.0
 13
198.3164889836075
 23
115.944163218479
 33
0.0
  0
MTEXT
  5
3925
330
3815
100
AcDbEntity
  8
寸法線
 62
     0
100
AcDbMText
 10
196.4414889836075
 20
124.444163218479
 30
0.0
 40
2.5
 41
0.0
 71
     5
 72
     1
  1
18
 11
0.0000000000000001
 21
1.0
 31
0.0
 73
     1
 44
1.0
  0
POINT
  5
3926
330
3815
100
AcDbEntity
  8
Defpoints
 62
     0
100
AcDbPoint
 10
208.8088366387273
 20
132.9441632184789
 30
0.0
  0
POINT
  5
3927
330
3815
100
AcDbEntity
  8
Defpoints
 62
     0
100
AcDbPoint
 10
207.8088366387273
 20
115.944163218479
 30
0.0
  0
POINT
  5
3928
330
3815
100
AcDbEntity
  8
Defpoints
 62
     0
100
AcDbPoint
 10
198.3164889836075
 20
115.944163218479
 30
0.0
  0
ENDBLK
  5
3820
330
3815
100
AcDbEntity
  8
0
100
AcDbBlockEnd
  0
BLOCK
  5
383D
330
3831
100
AcDbEntity
  8
0
100
AcDbBlockBegin
  2
*D20
 70
     1
 10
0.0
 20
0.0
 30
0.0
  3
*D20
  1

  0
LINE
  5
3A28
330
3831
100
AcDbEntity
  8
寸法線
 62
     0
370
    -2
100
AcDbLine
 10
87.57651402540432
 20
16.58114402865681
 30
0.0
 11
76.60967223948728
 21
16.58114402865681
 31
0.0
  0
LINE
  5
3A29
330
3831
100
AcDbEntity
  8
寸法線
 62
     0
370
    -2
100
AcDbLine
 10
87.57651402540432
 20
15.58114402865681
 30
0.0
 11
76.60967223948728
 21
15.58114402865681
 31
0.0
  0
LINE
  5
3A2A
330
3831
100
AcDbEntity
  8
寸法線
 62
     0
370
    -2
100
AcDbLine
 10
77.85967223948728
 20
19.08114402865681
 30
0.0
 11
77.85967223948728
 21
21.58114402865681
 31
0.0
  0
LINE
  5
3A2B
330
3831
100
AcDbEntity
  8
寸法線
 62
     0
370
    -2
100
AcDbLine
 10
77.85967223948728
 20
13.08114402865681
 30
0.0
 11
77.85967223948728
 21
8.497810695323476
 31
0.0
  0
LINE
  5
3A2C
330
3831
100
AcDbEntity
  8
寸法線
 62
     0
370
    -2
100
AcDbLine
 10
77.85967223948728
 20
16.58114402865681
 30
0.0
 11
77.85967223948728
 21
15.58114402865681
 31
0.0
  0
SOLID
  5
3A2D
330
3831
100
AcDbEntity
  8
寸法線
 62
     0
100
AcDbTrace
 10
77.44300557282061
 20
19.08114402865681
 30
0.0
 11
78.27633890615395
 21
19.08114402865681
 31
0.0
 12
77.85967223948728
 22
16.58114402865681
 32
0.0
 13
77.85967223948728
 23
16.58114402865681
 33
0.0
  0
SOLID
  5
3A2E
330
3831
100
AcDbEntity
  8
寸法線
 62
     0
100
AcDbTrace
 10
77.44300557282061
 20
13.08114402865681
 30
0.0
 11
78.27633890615395
 21
13.08114402865681
 31
0.0
 12
77.85967223948728
 22
15.58114402865681
 32
0.0
 13
77.85967223948728
 23
15.58114402865681
 33
0.0
  0
MTEXT
  5
3A2F
330
3831
100
AcDbEntity
  8
寸法線
 62
     0
100
AcDbMText
 10
75.98467223948728
 20
9.539477361990156
 30
0.0
 40
2.5
 41
0.0
 71
     5
 72
     1
  1
1
 11
0.0000000000000001
 21
1.0
 31
0.0
 73
     1
 44
1.0
  0
POINT
  5
3A30
330
3831
100
AcDbEntity
  8
Defpoints
 62
     0
100
AcDbPoint
 10
88.20151402540432
 20
16.5811440286568
 30
0.0
  0
POINT
  5
3A31
330
3831
100
AcDbEntity
  8
Defpoints
 62
     0
100
AcDbPoint
 10
88.20151402540432
 20
15.58114402865681
 30
0.0
  0
POINT
  5
3A32
330
3831
100
AcDbEntity
  8
Defpoints
 62
     0
100
AcDbPoint
 10
77.85967223948728
 20
15.58114402865681
 30
0.0
  0
ENDBLK
  5
383E
330
3831
100
AcDbEntity
  8
0
100
AcDbBlockEnd
  0
BLOCK
  5
389F
330
3893
100
AcDbEntity
  8
0
100
AcDbBlockBegin
  2
*D21
 70
     1
 10
0.0
 20
0.0
 30
0.0
  3
*D21
  1

  0
LINE
  5
3A5F
330
3893
100
AcDbEntity
  8
寸法線
 62
     0
370
    -2
100
AcDbLine
 10
147.8265140254043
 20
-56.41885597134319
 30
0.0
 11
158.2020274271039
 21
-56.41885597134319
 31
0.0
  0
LINE
  5
3A60
330
3893
100
AcDbEntity
  8
寸法線
 62
     0
370
    -2
100
AcDbLine
 10
147.8265140254043
 20
-52.41885597134319
 30
0.0
 11
158.2020274271039
 21
-52.41885597134319
 31
0.0
  0
LINE
  5
3A61
330
3893
100
AcDbEntity
  8
寸法線
 62
     0
370
    -2
100
AcDbLine
 10
156.9520274271039
 20
-58.91885597134319
 30
0.0
 11
156.9520274271039
 21
-61.41885597134319
 31
0.0
  0
LINE
  5
3A62
330
3893
100
AcDbEntity
  8
寸法線
 62
     0
370
    -2
100
AcDbLine
 10
156.9520274271039
 20
-49.91885597134319
 30
0.0
 11
156.9520274271039
 21
-47.41885597134319
 31
0.0
  0
LINE
  5
3A63
330
3893
100
AcDbEntity
  8
寸法線
 62
     0
370
    -2
100
AcDbLine
 10
156.9520274271039
 20
-56.41885597134319
 30
0.0
 11
156.9520274271039
 21
-52.41885597134319
 31
0.0
  0
SOLID
  5
3A64
330
3893
100
AcDbEntity
  8
寸法線
 62
     0
100
AcDbTrace
 10
156.5353607604373
 20
-58.91885597134319
 30
0.0
 11
157.3686940937706
 21
-58.91885597134319
 31
0.0
 12
156.9520274271039
 22
-56.41885597134319
 32
0.0
 13
156.9520274271039
 23
-56.41885597134319
 33
0.0
  0
SOLID
  5
3A65
330
3893
100
AcDbEntity
  8
寸法線
 62
     0
100
AcDbTrace
 10
156.5353607604373
 20
-49.91885597134319
 30
0.0
 11
157.3686940937706
 21
-49.91885597134319
 31
0.0
 12
156.9520274271039
 22
-52.41885597134319
 32
0.0
 13
156.9520274271039
 23
-52.41885597134319
 33
0.0
  0
MTEXT
  5
3A66
330
3893
100
AcDbEntity
  8
寸法線
 62
     0
100
AcDbMText
 10
155.0770274271039
 20
-54.41885597134316
 30
0.0
 40
2.5
 41
0.0
 71
     5
 72
     1
  1
4
 11
0.0000000000000001
 21
1.0
 31
0.0
 73
     1
 44
1.0
  0
POINT
  5
3A67
330
3893
100
AcDbEntity
  8
Defpoints
 62
     0
100
AcDbPoint
 10
147.2015140254043
 20
-56.41885597134319
 30
0.0
  0
POINT
  5
3A68
330
3893
100
AcDbEntity
  8
Defpoints
 62
     0
100
AcDbPoint
 10
147.2015140254043
 20
-52.41885597134319
 30
0.0
  0
POINT
  5
3A69
330
3893
100
AcDbEntity
  8
Defpoints
 62
     0
100
AcDbPoint
 10
156.9520274271039
 20
-52.41885597134319
 30
0.0
  0
ENDBLK
  5
38A0
330
3893
100
AcDbEntity
  8
0
100
AcDbBlockEnd
  0
BLOCK
  5
38AC
330
38A2
100
AcDbEntity
  8
0
100
AcDbBlockBegin
  2
*D22
 70
     1
 10
0.0
 20
0.0
 30
0.0
  3
*D22
  1

  0
LINE
  5
3A33
330
38A2
100
AcDbEntity
  8
寸法線
 62
     0
370
    -2
100
AcDbLine
 10
147.8265140254043
 20
-52.41885597134319
 30
0.0
 11
158.2020274271039
 21
-52.41885597134319
 31
0.0
  0
LINE
  5
3A34
330
38A2
100
AcDbEntity
  8
寸法線
 62
     0
370
    -2
100
AcDbLine
 10
147.8265140254043
 20
-3.418855971343191
 30
0.0
 11
158.2020274271039
 21
-3.418855971343194
 31
0.0
  0
LINE
  5
3A35
330
38A2
100
AcDbEntity
  8
寸法線
 62
     0
370
    -2
100
AcDbLine
 10
156.9520274271039
 20
-49.91885597134319
 30
0.0
 11
156.9520274271039
 21
-5.918855971343194
 31
0.0
  0
SOLID
  5
3A36
330
38A2
100
AcDbEntity
  8
寸法線
 62
     0
100
AcDbTrace
 10
156.5353607604373
 20
-49.91885597134319
 30
0.0
 11
157.3686940937706
 21
-49.91885597134319
 31
0.0
 12
156.9520274271039
 22
-52.41885597134319
 32
0.0
 13
156.9520274271039
 23
-52.41885597134319
 33
0.0
  0
SOLID
  5
3A37
330
38A2
100
AcDbEntity
  8
寸法線
 62
     0
100
AcDbTrace
 10
156.5353607604373
 20
-5.918855971343194
 30
0.0
 11
157.3686940937706
 21
-5.918855971343194
 31
0.0
 12
156.9520274271039
 22
-3.418855971343193
 32
0.0
 13
156.9520274271039
 23
-3.418855971343193
 33
0.0
  0
MTEXT
  5
3A38
330
38A2
100
AcDbEntity
  8
寸法線
 62
     0
100
AcDbMText
 10
155.0770274271039
 20
-27.91885597134316
 30
0.0
 40
2.5
 41
0.0
 71
     5
 72
     1
  1
49.3
 11
0.0000000000000001
 21
1.0
 31
0.0
 73
     1
 44
1.0
  0
POINT
  5
3A39
330
38A2
100
AcDbEntity
  8
Defpoints
 62
     0
100
AcDbPoint
 10
147.2015140254043
 20
-52.41885597134319
 30
0.0
  0
POINT
  5
3A3A
330
38A2
100
AcDbEntity
  8
Defpoints
 62
     0
100
AcDbPoint
 10
147.2015140254043
 20
-3.418855971343191
 30
0.0
  0
POINT
  5
3A3B
330
38A2
100
AcDbEntity
  8
Defpoints
 62
     0
100
AcDbPoint
 10
156.9520274271039
 20
-3.418855971343193
 30
0.0
  0
ENDBLK
  5
38AD
330
38A2
100
AcDbEntity
  8
0
100
AcDbBlockEnd
  0
BLOCK
  5
38BB
330
38AF
100
AcDbEntity
  8
0
100
AcDbBlockBegin
  2
*D23
 70
     1
 10
0.0
 20
0.0
 30
0.0
  3
*D23
  1

  0
LINE
  5
3A7E
330
38AF
100
AcDbEntity
  8
寸法線
 62
     0
370
    -2
100
AcDbLine
 10
147.8265140254043
 20
-3.418855971343191
 30
0.0
 11
158.2020274271039
 21
-3.418855971343194
 31
0.0
  0
LINE
  5
3A7F
330
38AF
100
AcDbEntity
  8
寸法線
 62
     0
370
    -2
100
AcDbLine
 10
127.3265140254043
 20
0.5811440286568084
 30
0.0
 11
158.2020274271039
 21
0.5811440286567997
 31
0.0
  0
LINE
  5
3A80
330
38AF
100
AcDbEntity
  8
寸法線
 62
     0
370
    -2
100
AcDbLine
 10
156.9520274271039
 20
-5.918855971343194
 30
0.0
 11
156.9520274271039
 21
-8.418855971343194
 31
0.0
  0
LINE
  5
3A81
330
38AF
100
AcDbEntity
  8
寸法線
 62
     0
370
    -2
100
AcDbLine
 10
156.9520274271039
 20
3.0811440286568
 30
0.0
 11
156.9520274271039
 21
5.5811440286568
 31
0.0
  0
LINE
  5
3A82
330
38AF
100
AcDbEntity
  8
寸法線
 62
     0
370
    -2
100
AcDbLine
 10
156.9520274271039
 20
-3.418855971343193
 30
0.0
 11
156.9520274271039
 21
0.5811440286567999
 31
0.0
  0
SOLID
  5
3A83
330
38AF
100
AcDbEntity
  8
寸法線
 62
     0
100
AcDbTrace
 10
156.5353607604373
 20
-5.918855971343194
 30
0.0
 11
157.3686940937706
 21
-5.918855971343194
 31
0.0
 12
156.9520274271039
 22
-3.418855971343193
 32
0.0
 13
156.9520274271039
 23
-3.418855971343193
 33
0.0
  0
SOLID
  5
3A84
330
38AF
100
AcDbEntity
  8
寸法線
 62
     0
100
AcDbTrace
 10
156.5353607604373
 20
3.0811440286568
 30
0.0
 11
157.3686940937706
 21
3.081144028656799
 31
0.0
 12
156.9520274271039
 22
0.5811440286567999
 32
0.0
 13
156.9520274271039
 23
0.5811440286567999
 33
0.0
  0
MTEXT
  5
3A85
330
38AF
100
AcDbEntity
  8
寸法線
 62
     0
100
AcDbMText
 10
155.0770274271039
 20
-1.418855971343171
 30
0.0
 40
2.5
 41
0.0
 71
     5
 72
     1
  1
4
 11
0.0000000000000001
 21
1.0
 31
0.0
 73
     1
 44
1.0
  0
POINT
  5
3A86
330
38AF
100
AcDbEntity
  8
Defpoints
 62
     0
100
AcDbPoint
 10
147.2015140254043
 20
-3.418855971343191
 30
0.0
  0
POINT
  5
3A87
330
38AF
100
AcDbEntity
  8
Defpoints
 62
     0
100
AcDbPoint
 10
126.7015140254043
 20
0.5811440286568086
 30
0.0
  0
POINT
  5
3A88
330
38AF
100
AcDbEntity
  8
Defpoints
 62
     0
100
AcDbPoint
 10
156.9520274271039
 20
0.5811440286567999
 30
0.0
  0
ENDBLK
  5
38BC
330
38AF
100
AcDbEntity
  8
0
100
AcDbBlockEnd
  0
BLOCK
  5
38C8
330
38BE
100
AcDbEntity
  8
0
100
AcDbBlockBegin
  2
*D24
 70
     1
 10
0.0
 20
0.0
 30
0.0
  3
*D24
  1

  0
LINE
  5
3A75
330
38BE
100
AcDbEntity
  8
寸法線
 62
     0
370
    -2
100
AcDbLine
 10
127.3265140254043
 20
0.5811440286568084
 30
0.0
 11
158.2020274271039
 21
0.5811440286567997
 31
0.0
  0
LINE
  5
3A76
330
38BE
100
AcDbEntity
  8
寸法線
 62
     0
370
    -2
100
AcDbLine
 10
127.3265140254043
 20
11.5811440286568
 30
0.0
 11
158.2020274271039
 21
11.5811440286568
 31
0.0
  0
LINE
  5
3A77
330
38BE
100
AcDbEntity
  8
寸法線
 62
     0
370
    -2
100
AcDbLine
 10
156.9520274271039
 20
3.0811440286568
 30
0.0
 11
156.9520274271039
 21
9.081144028656799
 31
0.0
  0
SOLID
  5
3A78
330
38BE
100
AcDbEntity
  8
寸法線
 62
     0
100
AcDbTrace
 10
156.5353607604373
 20
3.0811440286568
 30
0.0
 11
157.3686940937706
 21
3.081144028656799
 31
0.0
 12
156.9520274271039
 22
0.5811440286567999
 32
0.0
 13
156.9520274271039
 23
0.5811440286567999
 33
0.0
  0
SOLID
  5
3A79
330
38BE
100
AcDbEntity
  8
寸法線
 62
     0
100
AcDbTrace
 10
156.5353607604373
 20
9.081144028656799
 30
0.0
 11
157.3686940937706
 21
9.081144028656799
 31
0.0
 12
156.9520274271039
 22
11.5811440286568
 32
0.0
 13
156.9520274271039
 23
11.5811440286568
 33
0.0
  0
MTEXT
  5
3A7A
330
38BE
100
AcDbEntity
  8
寸法線
 62
     0
100
AcDbMText
 10
155.0770274271039
 20
6.081144028656825
 30
0.0
 40
2.5
 41
0.0
 71
     5
 72
     1
  1
10
 11
0.0000000000000001
 21
1.0
 31
0.0
 73
     1
 44
1.0
  0
POINT
  5
3A7B
330
38BE
100
AcDbEntity
  8
Defpoints
 62
     0
100
AcDbPoint
 10
126.7015140254043
 20
0.5811440286568086
 30
0.0
  0
POINT
  5
3A7C
330
38BE
100
AcDbEntity
  8
Defpoints
 62
     0
100
AcDbPoint
 10
126.7015140254043
 20
11.5811440286568
 30
0.0
  0
POINT
  5
3A7D
330
38BE
100
AcDbEntity
  8
Defpoints
 62
     0
100
AcDbPoint
 10
156.9520274271039
 20
11.5811440286568
 30
0.0
  0
ENDBLK
  5
38C9
330
38BE
100
AcDbEntity
  8
0
100
AcDbBlockEnd
  0
BLOCK
  5
38D7
330
38CB
100
AcDbEntity
  8
0
100
AcDbBlockBegin
  2
*D25
 70
     1
 10
0.0
 20
0.0
 30
0.0
  3
*D25
  1

  0
LINE
  5
3A6A
330
38CB
100
AcDbEntity
  8
寸法線
 62
     0
370
    -2
100
AcDbLine
 10
127.3265140254043
 20
11.5811440286568
 30
0.0
 11
158.2020274271039
 21
11.5811440286568
 31
0.0
  0
LINE
  5
3A6B
330
38CB
100
AcDbEntity
  8
寸法線
 62
     0
370
    -2
100
AcDbLine
 10
146.8265140254043
 20
15.58114402865681
 30
0.0
 11
158.2020274271039
 21
15.5811440286568
 31
0.0
  0
LINE
  5
3A6C
330
38CB
100
AcDbEntity
  8
寸法線
 62
     0
370
    -2
100
AcDbLine
 10
156.9520274271039
 20
9.081144028656799
 30
0.0
 11
156.9520274271039
 21
6.5811440286568
 31
0.0
  0
LINE
  5
3A6D
330
38CB
100
AcDbEntity
  8
寸法線
 62
     0
370
    -2
100
AcDbLine
 10
156.9520274271039
 20
18.0811440286568
 30
0.0
 11
156.9520274271039
 21
20.5811440286568
 31
0.0
  0
LINE
  5
3A6E
330
38CB
100
AcDbEntity
  8
寸法線
 62
     0
370
    -2
100
AcDbLine
 10
156.9520274271039
 20
11.5811440286568
 30
0.0
 11
156.9520274271039
 21
15.5811440286568
 31
0.0
  0
SOLID
  5
3A6F
330
38CB
100
AcDbEntity
  8
寸法線
 62
     0
100
AcDbTrace
 10
156.5353607604373
 20
9.081144028656799
 30
0.0
 11
157.3686940937706
 21
9.081144028656799
 31
0.0
 12
156.9520274271039
 22
11.5811440286568
 32
0.0
 13
156.9520274271039
 23
11.5811440286568
 33
0.0
  0
SOLID
  5
3A70
330
38CB
100
AcDbEntity
  8
寸法線
 62
     0
100
AcDbTrace
 10
156.5353607604373
 20
18.0811440286568
 30
0.0
 11
157.3686940937706
 21
18.0811440286568
 31
0.0
 12
156.9520274271039
 22
15.5811440286568
 32
0.0
 13
156.9520274271039
 23
15.5811440286568
 33
0.0
  0
MTEXT
  5
3A71
330
38CB
100
AcDbEntity
  8
寸法線
 62
     0
100
AcDbMText
 10
155.0770274271039
 20
13.58114402865682
 30
0.0
 40
2.5
 41
0.0
 71
     5
 72
     1
  1
4
 11
0.0000000000000001
 21
1.0
 31
0.0
 73
     1
 44
1.0
  0
POINT
  5
3A72
330
38CB
100
AcDbEntity
  8
Defpoints
 62
     0
100
AcDbPoint
 10
126.7015140254043
 20
11.5811440286568
 30
0.0
  0
POINT
  5
3A73
330
38CB
100
AcDbEntity
  8
Defpoints
 62
     0
100
AcDbPoint
 10
146.2015140254043
 20
15.58114402865681
 30
0.0
  0
POINT
  5
3A74
330
38CB
100
AcDbEntity
  8
Defpoints
 62
     0
100
AcDbPoint
 10
156.9520274271039
 20
15.5811440286568
 30
0.0
  0
ENDBLK
  5
38D8
330
38CB
100
AcDbEntity
  8
0
100
AcDbBlockEnd
  0
BLOCK
  5
3915
330
390C
100
AcDbEntity
  8
0
100
AcDbBlockBegin
  2
*D27
 70
     1
 10
0.0
 20
0.0
 30
0.0
  3
*D27
  1

  0
LINE
  5
3A4E
330
390C
100
AcDbEntity
  8
寸法線
 62
     0
370
    -2
100
AcDbLine
 10
120.6146647364505
 20
-39.19213008738276
 30
0.0
 11
118.1611218930467
 21
-28.21293942888786
 31
0.0
  0
LINE
  5
3A4F
330
390C
100
AcDbEntity
  8
寸法線
 62
     0
370
    -2
100
AcDbLine
 10
116.2419061577619
 20
-19.62477251379852
 30
0.0
 11
115.6966744147833
 21
-17.18495236746631
 31
0.0
  0
MTEXT
  5
3A50
330
390C
100
AcDbEntity
  8
寸法線
 62
     0
100
AcDbMText
 10
121.4903742959871
 20
-34.51352102406743
 30
0.0
 40
2.5
 41
0.0
 71
     5
 72
     1
  1
\U+22053.8
 11
0.2180926971914533
 21
-0.9759280585328802
 31
0.0
 73
     1
 44
1.0
  0
LINE
  5
3A51
330
390C
100
AcDbEntity
  8
寸法線
 62
     0
370
    -2
100
AcDbLine
 10
116.7871379007405
 20
-22.06459266013071
 30
0.0
 11
117.6158901500681
 21
-25.77311928255566
 31
0.0
  0
SOLID
  5
3A52
330
390C
100
AcDbEntity
  8
寸法線
 62
     0
100
AcDbTrace
 10
116.6485428488173
 20
-19.53390055663541
 30
0.0
 11
115.8352694667065
 21
-19.71564447096162
 31
0.0
 12
116.7871379007405
 22
-22.06459266013071
 32
0.0
 13
116.7871379007405
 23
-22.06459266013071
 33
0.0
  0
SOLID
  5
3A53
330
390C
100
AcDbEntity
  8
寸法線
 62
     0
100
AcDbTrace
 10
118.567758584102
 20
-28.12206747172475
 30
0.0
 11
117.7544852019913
 21
-28.30381138605096
 31
0.0
 12
117.6158901500681
 22
-25.77311928255566
 32
0.0
 13
117.6158901500681
 23
-25.77311928255566
 33
0.0
  0
POINT
  5
3A54
330
390C
100
AcDbEntity
  8
Defpoints
 62
     0
100
AcDbPoint
 10
117.6158901500681
 20
-25.77311928255566
 30
0.0
  0
POINT
  5
3A55
330
390C
100
AcDbEntity
  8
Defpoints
 62
     0
100
AcDbPoint
 10
116.7871379007405
 20
-22.06459266013071
 30
0.0
  0
ENDBLK
  5
3916
330
390C
100
AcDbEntity
  8
0
100
AcDbBlockEnd
  0
BLOCK
  5
398C
330
3982
100
AcDbEntity
  8
0
100
AcDbBlockBegin
  2
*D28
 70
     1
 10
0.0
 20
0.0
 30
0.0
  3
*D28
  1

  0
LINE
  5
3983
330
3982
100
AcDbEntity
  8
寸法線
 62
     0
370
    -2
100
AcDbLine
 10
123.7015140254043
 20
95.31916321847901
 30
0.0
 11
123.7015140254043
 21
86.27808124418914
 31
0.0
  0
LINE
  5
3984
330
3982
100
AcDbEntity
  8
寸法線
 62
     0
370
    -2
100
AcDbLine
 10
137.2015140254043
 20
95.31916321847901
 30
0.0
 11
137.2015140254043
 21
86.27808124418914
 31
0.0
  0
LINE
  5
3985
330
3982
100
AcDbEntity
  8
寸法線
 62
     0
370
    -2
100
AcDbLine
 10
126.2015140254043
 20
87.52808124418914
 30
0.0
 11
134.7015140254043
 21
87.52808124418914
 31
0.0
  0
SOLID
  5
3986
330
3982
100
AcDbEntity
  8
寸法線
 62
     0
100
AcDbTrace
 10
126.2015140254043
 20
87.94474791085582
 30
0.0
 11
126.2015140254043
 21
87.11141457752246
 31
0.0
 12
123.7015140254043
 22
87.52808124418914
 32
0.0
 13
123.7015140254043
 23
87.52808124418914
 33
0.0
  0
SOLID
  5
3987
330
3982
100
AcDbEntity
  8
寸法線
 62
     0
100
AcDbTrace
 10
134.7015140254043
 20
87.94474791085582
 30
0.0
 11
134.7015140254043
 21
87.11141457752246
 31
0.0
 12
137.2015140254043
 22
87.52808124418914
 32
0.0
 13
137.2015140254043
 23
87.52808124418914
 33
0.0
  0
MTEXT
  5
3988
330
3982
100
AcDbEntity
  8
寸法線
 62
     0
100
AcDbMText
 10
130.4515140254043
 20
89.40308124418914
 30
0.0
 40
2.5
 41
0.0
 71
     5
 72
     1
  1
13.5
 73
     1
 44
1.0
  0
POINT
  5
3989
330
3982
100
AcDbEntity
  8
Defpoints
 62
     0
100
AcDbPoint
 10
123.7015140254043
 20
95.94416321847901
 30
0.0
  0
POINT
  5
398A
330
3982
100
AcDbEntity
  8
Defpoints
 62
     0
100
AcDbPoint
 10
137.2015140254043
 20
95.94416321847901
 30
0.0
  0
POINT
  5
398B
330
3982
100
AcDbEntity
  8
Defpoints
 62
     0
100
AcDbPoint
 10
137.2015140254043
 20
87.52808124418914
 30
0.0
  0
ENDBLK
  5
398D
330
3982
100
AcDbEntity
  8
0
100
AcDbBlockEnd
  0
ENDSEC
  0
SECTION
  2
ENTITIES
  0
TEXT
  5
29C1
330
1F
100
AcDbEntity
  8
文字
100
AcDbText
 10
307.2304070437594
 20
-53.50312159950944
 30
0.0
 40
2.879999999999999
  1
SET SCREW COUP
 51
15.0
  7
OKANO
100
AcDbText
  0
TEXT
  5
29C2
330
1F
100
AcDbEntity
  8
文字
100
AcDbText
 10
297.1208460351745
 20
-59.50667035299799
 30
0.0
 40
3.839999999999999
  1
joint kogyo T.okano
 51
15.0
  7
OKANO
100
AcDbText
  0
TEXT
  5
29C3
330
1F
100
AcDbEntity
  8
文字
100
AcDbText
 10
291.130195625737
 20
-47.70477314716778
 30
0.0
 40
3.839999999999999
  1
F-999-20070613Auto CAD
 51
15.0
  7
OKANO
100
AcDbText
  0
LINE
  5
29C4
330
1F
100
AcDbEntity
  8
太線
100
AcDbLine
 10
269.1924130804459
 20
-48.44141926751205
 30
0.0
 11
355.592413080446
 21
-48.44141926751205
 31
0.0
  0
LWPOLYLINE
  5
29C5
330
1F
100
AcDbEntity
  8
太線
100
AcDbPolyline
 90
        4
 70
     1
 43
0.0
 10
269.1924130804459
 20
-41.72141926751206
 10
355.5924130804459
 20
-41.72141926751206
 10
355.5924130804459
 20
-61.88141926751206
 10
269.1924130804459
 20
-61.88141926751206
  0
TEXT
  5
29C6
330
1F
100
AcDbEntity
  8
文字
100
AcDbText
 10
272.290319933292
 20
-54.9962287065926
 30
0.0
 40
1.919999999999999
  1
CHECK
 51
15.0
  7
OKANO
100
AcDbText
  0
LINE
  5
29C7
330
1F
100
AcDbEntity
  8
太線
100
AcDbLine
 10
288.3924130804459
 20
-41.72141926751206
 30
0.0
 11
288.3924130804459
 21
-61.88141926751206
 31
0.0
  0
TEXT
  5
29C8
330
1F
100
AcDbEntity
  8
文字
100
AcDbText
 10
272.290319933292
 20
-60.53177079156527
 30
0.0
 40
1.919999999999999
  1
ISSUED
 51
15.0
  7
OKANO
100
AcDbText
  0
TEXT
  5
29C9
330
1F
100
AcDbEntity
  8
文字
100
AcDbText
 10
272.4955314796125
 20
-57.86650984015074
 30
0.0
 40
1.919999999999999
  1
APPR
 51
15.0
  7
OKANO
100
AcDbText
  0
TEXT
  5
29CA
330
1F
100
AcDbEntity
  8
文字
100
AcDbText
 10
270.8538434919434
 20
-47.00044632449993
 30
0.0
 40
1.919999999999999
  1
FILM NAME
 51
15.0
  7
OKANO
100
AcDbText
  0
TEXT
  5
29CB
330
1F
100
AcDbEntity
  8
文字
100
AcDbText
 10
271.879898593809
 20
-52.12594804518536
 30
0.0
 40
1.919999999999999
  1
DRAWN
 51
15.0
  7
OKANO
100
AcDbText
  0
TEXT
  5
29CC
330
1F
100
AcDbEntity
  8
文字
100
AcDbText
 10
290.8795498461086
 20
-54.4425661162849
 30
0.0
 40
3.839999999999999
  1
13-1B
 51
15.0
  7
OKANO
100
AcDbText
  0
XLINE
  5
325A
330
1F
100
AcDbEntity
  8
構築線
370
     5
100
AcDbXline
 10
117.2015140254043
 20
178.0193172078315
 30
0.0
 11
0.0
 21
-1.0
 31
0.0
  0
XLINE
  5
32ED
330
1F
100
AcDbEntity
  8
構築線
100
AcDbXline
 10
147.2015140254043
 20
-19.57566085784992
 30
0.0
 11
1.0
 21
0.0
 31
0.0
  0
ARC
  5
32F6
330
1F
100
AcDbEntity
  8
太線
100
AcDbCircle
 10
251.3088366387273
 20
124.4441632184789
 30
0.0
 40
28.5
100
AcDbArc
 50
270.0
 51
90.0
  0
LINE
  5
32F7
330
1F
100
AcDbEntity
  8
太線
100
AcDbLine
 10
251.3088366387273
 20
95.944163218479
 30
0.0
 11
222.8088366387273
 21
95.944163218479
 31
0.0
  0
LINE
  5
332B
330
1F
100
AcDbEntity
  8
太線
100
AcDbLine
 10
226.8088366387273
 20
152.9441632184789
 30
0.0
 11
251.3088366387273
 21
152.9441632184789
 31
0.0
  0
LINE
  5
3370
330
1F
100
AcDbEntity
  8
太線
100
AcDbLine
 10
147.2015140254043
 20
0.5811440286568086
 30
0.0
 11
147.2015140254043
 21
-56.41885597134319
 31
0.0
  0
LINE
  5
3371
330
1F
100
AcDbEntity
  8
太線
100
AcDbLine
 10
147.2015140254043
 20
-56.41885597134319
 30
0.0
 11
87.20151402540432
 21
-56.41885597134319
 31
0.0
  0
LINE
  5
3372
330
1F
100
AcDbEntity
  8
太線
100
AcDbLine
 10
87.20151402540432
 20
-56.41885597134319
 30
0.0
 11
87.20151402540432
 21
0.5811440286568086
 31
0.0
  0
LINE
  5
3380
330
1F
100
AcDbEntity
  8
想像線
100
AcDbLine
 10
87.20151402540432
 20
-52.41885597134319
 30
0.0
 11
147.2015140254043
 21
-52.41885597134319
 31
0.0
  0
LINE
  5
3385
330
1F
100
AcDbEntity
  8
想像線
100
AcDbLine
 10
87.20151402540432
 20
-3.418855971343191
 30
0.0
 11
147.2015140254043
 21
-3.418855971343191
 31
0.0
  0
CIRCLE
  5
338F
330
1F
100
AcDbEntity
  8
太線
100
AcDbCircle
 10
251.3088366387273
 20
124.444163218479
 30
0.0
 40
24.49999999999993
  0
LINE
  5
339F
330
1F
100
AcDbEntity
  8
想像線
100
AcDbLine
 10
275.7270675328768
 20
126.4441632184789
 30
0.0
 11
279.7385745903863
 21
126.4441632184789
 31
0.0
  0
LINE
  5
33A2
330
1F
100
AcDbEntity
  8
想像線
100
AcDbLine
 10
275.8305230493024
 20
122.8635884724871
 30
0.0
 11
279.7436285509025
 21
122.8635884724871
 31
0.0
  0
LINE
  5
33B1
330
1F
100
AcDbEntity
  8
想像線
100
AcDbLine
 10
119.2015140254043
 20
-52.41885597134317
 30
0.0
 11
119.2015140254043
 21
-56.41885597134319
 31
0.0
  0
LINE
  5
33B2
330
1F
100
AcDbEntity
  8
想像線
100
AcDbLine
 10
115.2015140254043
 20
-52.41885597134319
 30
0.0
 11
115.2015140254043
 21
-56.41885597134319
 31
0.0
  0
LINE
  5
33B3
330
1F
100
AcDbEntity
  8
想像線
100
AcDbLine
 10
118.400542035506
 20
-52.55827601310148
 30
0.0
 11
118.400542035506
 21
-56.21976071184303
 31
0.0
  0
LINE
  5
33B4
330
1F
100
AcDbEntity
  8
想像線
100
AcDbLine
 10
116.3392484812256
 20
-52.3294335239816
 30
0.0
 11
116.3392484812256
 21
-56.90628878830557
 31
0.0
  0
DIMENSION
  5
3497
330
1F
100
AcDbEntity
  8
寸法線
100
AcDbDimension
  2
*D2
 10
279.5574897575006
 20
160.1593034566862
 30
0.0
 11
277.6019932041039
 21
162.0343034566863
 31
0.0
 70
    32
  1
4
 71
     5
 42
3.910993106793512
  3
ISO-25
100
AcDbAlignedDimension
 13
275.6464966507071
 23
127.835496474318
 33
0.0
 14
279.5574897575006
 24
128.1907033942365
 34
0.0
100
AcDbRotatedDimension
  0
LINE
  5
34CD
330
1F
100
AcDbEntity
  8
太線
100
AcDbLine
 10
147.2015140254043
 20
99.944163218479
 30
0.0
 11
147.2015140254043
 21
148.9441632184789
 31
0.0
  0
LINE
  5
34CE
330
1F
100
AcDbEntity
  8
太線
100
AcDbLine
 10
87.20151402540432
 20
99.944163218479
 30
0.0
 11
87.20151402540432
 21
148.9441632184789
 31
0.0
  0
LINE
  5
34D2
330
1F
100
AcDbEntity
  8
太線
100
AcDbLine
 10
147.2015140254043
 20
148.9441632184789
 30
0.0
 11
147.2015140254043
 21
152.9441632184789
 31
0.0
  0
LINE
  5
34D3
330
1F
100
AcDbEntity
  8
太線
100
AcDbLine
 10
147.2015140254043
 20
152.9441632184789
 30
0.0
 11
87.20151402540432
 21
152.9441632184789
 31
0.0
  0
LINE
  5
34D4
330
1F
100
AcDbEntity
  8
太線
100
AcDbLine
 10
87.20151402540432
 20
152.9441632184789
 30
0.0
 11
87.20151402540432
 21
148.9441632184789
 31
0.0
  0
LINE
  5
34D5
330
1F
100
AcDbEntity
  8
太線
100
AcDbLine
 10
87.20151402540432
 20
99.944163218479
 30
0.0
 11
87.20151402540432
 21
95.944163218479
 31
0.0
  0
LINE
  5
34D6
330
1F
100
AcDbEntity
  8
太線
100
AcDbLine
 10
87.20151402540432
 20
95.944163218479
 30
0.0
 11
147.2015140254043
 21
95.94416321847901
 31
0.0
  0
LINE
  5
34D7
330
1F
100
AcDbEntity
  8
太線
100
AcDbLine
 10
147.2015140254043
 20
95.94416321847901
 30
0.0
 11
147.2015140254043
 21
99.944163218479
 31
0.0
  0
LINE
  5
34DE
330
1F
100
AcDbEntity
  8
太線
100
AcDbLine
 10
123.7015140254043
 20
152.9441632184789
 30
0.0
 11
123.7015140254043
 21
95.94416321847901
 31
0.0
  0
LINE
  5
34DF
330
1F
100
AcDbEntity
  8
破線
100
AcDbLine
 10
107.7015140254043
 20
152.9441632184789
 30
0.0
 11
107.7015140254043
 21
95.944163218479
 31
0.0
  0
LINE
  5
34E0
330
1F
100
AcDbEntity
  8
破線
100
AcDbLine
 10
126.7015140254043
 20
152.9441632184789
 30
0.0
 11
126.7015140254043
 21
95.944163218479
 31
0.0
  0
LINE
  5
34E1
330
1F
100
AcDbEntity
  8
太線
100
AcDbLine
 10
110.7015140254043
 20
152.9441632184789
 30
0.0
 11
110.7015140254043
 21
95.944163218479
 31
0.0
  0
LINE
  5
34E5
330
1F
100
AcDbEntity
  8
太線
100
AcDbLine
 10
147.2015140254043
 20
0.5811440286568086
 30
0.0
 11
147.2015140254043
 21
15.58114402865681
 31
0.0
  0
LINE
  5
34E6
330
1F
100
AcDbEntity
  8
太線
100
AcDbLine
 10
146.2015140254043
 20
15.58114402865681
 30
0.0
 11
137.2015140254043
 21
15.58114402865681
 31
0.0
  0
LINE
  5
34E7
330
1F
100
AcDbEntity
  8
太線
100
AcDbLine
 10
123.7015140254043
 20
15.58114402865681
 30
0.0
 11
123.7015140254043
 21
11.5811440286568
 31
0.0
  0
LINE
  5
34E8
330
1F
100
AcDbEntity
  8
太線
100
AcDbLine
 10
123.7015140254043
 20
11.5811440286568
 30
0.0
 11
126.7015140254043
 21
11.5811440286568
 31
0.0
  0
LINE
  5
34E9
330
1F
100
AcDbEntity
  8
太線
100
AcDbLine
 10
126.7015140254043
 20
11.5811440286568
 30
0.0
 11
126.7015140254043
 21
0.5811440286568086
 31
0.0
  0
LINE
  5
34EA
330
1F
100
AcDbEntity
  8
太線
100
AcDbLine
 10
107.7015140254043
 20
0.5811440286568086
 30
0.0
 11
107.7015140254043
 21
11.5811440286568
 31
0.0
  0
LINE
  5
34EB
330
1F
100
AcDbEntity
  8
太線
100
AcDbLine
 10
107.7015140254043
 20
11.5811440286568
 30
0.0
 11
110.7015140254043
 21
11.5811440286568
 31
0.0
  0
LINE
  5
34EC
330
1F
100
AcDbEntity
  8
太線
100
AcDbLine
 10
110.7015140254043
 20
11.5811440286568
 30
0.0
 11
110.7015140254043
 21
15.58114402865681
 31
0.0
  0
LINE
  5
34ED
330
1F
100
AcDbEntity
  8
太線
100
AcDbLine
 10
97.20151402540432
 20
15.58114402865681
 30
0.0
 11
88.20151402540432
 21
15.58114402865681
 31
0.0
  0
LINE
  5
34EE
330
1F
100
AcDbEntity
  8
太線
100
AcDbLine
 10
87.20151402540432
 20
15.58114402865681
 30
0.0
 11
87.20151402540432
 21
0.5811440286568086
 31
0.0
  0
LINE
  5
34F6
330
1F
100
AcDbEntity
  8
太線
100
AcDbLine
 10
226.8088366387273
 20
152.9441632184789
 30
0.0
 11
212.8088366387273
 21
152.9441632184789
 31
0.0
  0
LINE
  5
34F8
330
1F
100
AcDbEntity
  8
太線
100
AcDbLine
 10
212.8088366387273
 20
95.944163218479
 30
0.0
 11
222.8088366387273
 21
95.944163218479
 31
0.0
  0
LINE
  5
34F9
330
1F
100
AcDbEntity
  8
破線
100
AcDbLine
 10
222.8088366387273
 20
152.9441632184789
 30
0.0
 11
222.8088366387273
 21
95.944163218479
 31
0.0
  0
LINE
  5
34FB
330
1F
100
AcDbEntity
  8
太線
100
AcDbLine
 10
212.8088366387273
 20
152.9441632184789
 30
0.0
 11
208.8088366387273
 21
152.9441632184789
 31
0.0
  0
LINE
  5
34FC
330
1F
100
AcDbEntity
  8
太線
100
AcDbLine
 10
208.8088366387273
 20
151.9441632184789
 30
0.0
 11
208.8088366387273
 21
132.9441632184789
 31
0.0
  0
LINE
  5
34FD
330
1F
100
AcDbEntity
  8
太線
100
AcDbLine
 10
208.8088366387273
 20
95.944163218479
 30
0.0
 11
212.8088366387273
 21
95.944163218479
 31
0.0
  0
LINE
  5
34FE
330
1F
100
AcDbEntity
  8
破線
100
AcDbLine
 10
212.8088366387273
 20
152.9441632184789
 30
0.0
 11
212.8088366387273
 21
95.944163218479
 31
0.0
  0
DIMENSION
  5
34FF
330
1F
100
AcDbEntity
  8
寸法線
100
AcDbDimension
  2
*D3
 10
175.706946702621
 20
95.944163218479
 30
0.0
 11
173.831946702621
 21
124.444163218479
 31
0.0
 70
    32
  1
57.6
 71
     5
 42
56.99999999999997
  3
ISO-25
100
AcDbAlignedDimension
 13
147.2015140254043
 23
152.9441632184789
 33
0.0
 14
147.2015140254043
 24
95.94416321847901
 34
0.0
 50
90.0
100
AcDbRotatedDimension
  0
DIMENSION
  5
3516
330
1F
100
AcDbEntity
  8
寸法線
100
AcDbDimension
  2
*D4
 10
147.2015140254043
 20
-69.15722615060542
 30
0.0
 11
117.2015140254043
 21
-67.28222615060542
 31
0.0
 70
    32
 71
     5
 42
60.0
  3
ISO-25
100
AcDbAlignedDimension
 13
87.20151402540432
 23
-56.41885597134319
 33
0.0
 14
147.2015140254043
 24
-56.41885597134319
 34
0.0
100
AcDbRotatedDimension
  0
LINE
  5
3523
330
1F
100
AcDbEntity
  8
太線
100
AcDbLine
 10
107.7015140254043
 20
0.5811440286568086
 30
0.0
 11
126.7015140254043
 21
0.5811440286568086
 31
0.0
  0
LINE
  5
3534
330
1F
100
AcDbEntity
  8
太線
100
AcDbLine
 10
141.2015140254043
 20
-23.91885597134319
 30
0.0
 11
133.2015140254043
 21
-23.91885597134319
 31
0.0
  0
LINE
  5
3535
330
1F
100
AcDbEntity
  8
太線
100
AcDbLine
 10
133.2015140254043
 20
-23.91885597134319
 30
0.0
 11
133.2015140254043
 21
11.5811440286568
 31
0.0
  0
LINE
  5
3536
330
1F
100
AcDbEntity
  8
太線
100
AcDbLine
 10
133.2015140254043
 20
11.5811440286568
 30
0.0
 11
141.2015140254043
 21
11.5811440286568
 31
0.0
  0
LINE
  5
3537
330
1F
100
AcDbEntity
  8
太線
100
AcDbLine
 10
141.2015140254043
 20
11.5811440286568
 30
0.0
 11
141.2015140254043
 21
-23.91885597134319
 31
0.0
  0
LINE
  5
3538
330
1F
100
AcDbEntity
  8
太線
100
AcDbLine
 10
93.20151402540432
 20
11.5811440286568
 30
0.0
 11
101.2015140254043
 21
11.5811440286568
 31
0.0
  0
LINE
  5
3539
330
1F
100
AcDbEntity
  8
太線
100
AcDbLine
 10
101.2015140254043
 20
11.5811440286568
 30
0.0
 11
101.2015140254043
 21
-23.91885597134319
 31
0.0
  0
LINE
  5
353A
330
1F
100
AcDbEntity
  8
太線
100
AcDbLine
 10
101.2015140254043
 20
-23.91885597134319
 30
0.0
 11
93.20151402540432
 21
-23.91885597134319
 31
0.0
  0
LINE
  5
353B
330
1F
100
AcDbEntity
  8
太線
100
AcDbLine
 10
93.20151402540432
 20
-23.91885597134319
 30
0.0
 11
93.20151402540432
 21
11.5811440286568
 31
0.0
  0
ARC
  5
353D
330
1F
100
AcDbEntity
  8
破線
100
AcDbCircle
 10
251.3088366387273
 20
124.4441632184789
 30
0.0
 40
28.5
100
AcDbArc
 50
90.0
 51
139.5245021126118
  0
LINE
  5
3540
330
1F
100
AcDbEntity
  8
破線
100
AcDbLine
 10
229.6293532500485
 20
105.9441632184789
 30
0.0
 11
212.8088366387273
 21
105.9441632184789
 31
0.0
  0
LINE
  5
3541
330
1F
100
AcDbEntity
  8
破線
100
AcDbLine
 10
229.6293532500485
 20
142.944163218479
 30
0.0
 11
212.8088366387273
 21
142.944163218479
 31
0.0
  0
ARC
  5
3543
330
1F
100
AcDbEntity
  8
破線
100
AcDbCircle
 10
251.3088366387273
 20
124.4441632184789
 30
0.0
 40
28.5
100
AcDbArc
 50
220.4754978873881
 51
270.0
  0
LINE
  5
3545
330
1F
100
AcDbEntity
  8
破線
100
AcDbLine
 10
141.2015140254043
 20
95.94416321847901
 30
0.0
 11
141.2015140254043
 21
105.9441632184789
 31
0.0
  0
LINE
  5
3546
330
1F
100
AcDbEntity
  8
破線
100
AcDbLine
 10
141.2015140254043
 20
105.9441632184789
 30
0.0
 11
133.2015140254043
 21
105.9441632184789
 31
0.0
  0
LINE
  5
3547
330
1F
100
AcDbEntity
  8
破線
100
AcDbLine
 10
133.2015140254043
 20
105.9441632184789
 30
0.0
 11
133.2015140254043
 21
95.94416321847901
 31
0.0
  0
LINE
  5
3548
330
1F
100
AcDbEntity
  8
破線
100
AcDbLine
 10
101.2015140254043
 20
95.944163218479
 30
0.0
 11
101.2015140254043
 21
105.9441632184789
 31
0.0
  0
LINE
  5
3549
330
1F
100
AcDbEntity
  8
破線
100
AcDbLine
 10
101.2015140254043
 20
105.9441632184789
 30
0.0
 11
93.20151402540432
 21
105.9441632184789
 31
0.0
  0
LINE
  5
354A
330
1F
100
AcDbEntity
  8
破線
100
AcDbLine
 10
93.20151402540432
 20
105.9441632184789
 30
0.0
 11
93.20151402540432
 21
95.944163218479
 31
0.0
  0
LINE
  5
354B
330
1F
100
AcDbEntity
  8
破線
100
AcDbLine
 10
101.2015140254043
 20
152.9441632184789
 30
0.0
 11
101.2015140254043
 21
142.944163218479
 31
0.0
  0
LINE
  5
354C
330
1F
100
AcDbEntity
  8
破線
100
AcDbLine
 10
101.2015140254043
 20
142.944163218479
 30
0.0
 11
93.20151402540432
 21
142.944163218479
 31
0.0
  0
LINE
  5
354D
330
1F
100
AcDbEntity
  8
破線
100
AcDbLine
 10
93.20151402540432
 20
142.944163218479
 30
0.0
 11
93.20151402540432
 21
152.9441632184789
 31
0.0
  0
LINE
  5
354E
330
1F
100
AcDbEntity
  8
破線
100
AcDbLine
 10
141.2015140254043
 20
152.9441632184789
 30
0.0
 11
141.2015140254043
 21
142.944163218479
 31
0.0
  0
LINE
  5
354F
330
1F
100
AcDbEntity
  8
破線
100
AcDbLine
 10
141.2015140254043
 20
142.944163218479
 30
0.0
 11
133.2015140254043
 21
142.944163218479
 31
0.0
  0
LINE
  5
3550
330
1F
100
AcDbEntity
  8
破線
100
AcDbLine
 10
133.2015140254043
 20
142.944163218479
 30
0.0
 11
133.2015140254043
 21
152.9441632184789
 31
0.0
  0
LINE
  5
3553
330
1F
100
AcDbEntity
  8
破線
100
AcDbLine
 10
147.2015140254043
 20
148.9441632184789
 30
0.0
 11
87.20151402540432
 21
148.9441632184789
 31
0.0
  0
LINE
  5
3554
330
1F
100
AcDbEntity
  8
破線
100
AcDbLine
 10
147.2015140254043
 20
99.944163218479
 30
0.0
 11
87.20151402540436
 21
99.94416321847916
 31
0.0
  0
DIMENSION
  5
3564
330
1F
100
AcDbEntity
  8
寸法線
100
AcDbDimension
  2
*D5
 10
126.7015140254043
 20
-11.37987709578362
 30
0.0
 11
117.2015140254043
 21
-9.504877095783626
 31
0.0
 70
    32
 71
     5
 42
19.0
  3
ISO-25
100
AcDbAlignedDimension
 13
107.7015140254043
 23
0.5811440286568086
 33
0.0
 14
126.7015140254043
 24
0.5811440286568086
 34
0.0
100
AcDbRotatedDimension
  0
DIMENSION
  5
357E
330
1F
100
AcDbEntity
  8
寸法線
100
AcDbDimension
  2
*D7
 10
141.2015140254043
 20
-30.18457951801986
 30
0.0
 11
137.2015140254043
 21
-28.30957951801986
 31
0.0
 70
    32
 71
     5
 42
8.0
  3
ISO-25
100
AcDbAlignedDimension
 13
133.2015140254043
 23
-23.91885597134319
 33
0.0
 14
141.2015140254043
 24
-23.91885597134319
 34
0.0
100
AcDbRotatedDimension
  0
DIMENSION
  5
35D0
330
1F
100
AcDbEntity
  8
寸法線
100
AcDbDimension
  2
*D10
 10
222.8088366387273
 20
86.68523101653919
 30
0.0
 11
237.0588366387273
 21
88.56023101653919
 31
0.0
 70
    32
 71
     5
 42
28.5
  3
ISO-25
100
AcDbAlignedDimension
 13
251.3088366387273
 23
95.944163218479
 33
0.0
 14
222.8088366387273
 24
95.944163218479
 34
0.0
100
AcDbRotatedDimension
  0
DIMENSION
  5
35DD
330
1F
100
AcDbEntity
  8
寸法線
100
AcDbDimension
  2
*D11
 10
212.8088366387273
 20
86.68523101653919
 30
0.0
 11
217.8088366387273
 21
88.56023101653919
 31
0.0
 70
    32
 71
     5
 42
10.0
  3
ISO-25
100
AcDbAlignedDimension
 13
222.8088366387273
 23
95.944163218479
 33
0.0
 14
212.8088366387273
 24
95.944163218479
 34
0.0
100
AcDbRotatedDimension
1001
ACAD
1000
DSTYLE
1002
{
1070
   279
1070
     1
1002
}
  0
DIMENSION
  5
35EA
330
1F
100
AcDbEntity
  8
寸法線
100
AcDbDimension
  2
*D12
 10
208.8088366387273
 20
86.68523101653919
 30
0.0
 11
210.8088366387273
 21
88.56023101653919
 31
0.0
 70
    32
 71
     5
 42
4.0
  3
ISO-25
100
AcDbAlignedDimension
 13
212.8088366387273
 23
95.944163218479
 33
0.0
 14
208.8088366387273
 24
95.944163218479
 34
0.0
100
AcDbRotatedDimension
1001
ACAD
1000
DSTYLE
1002
{
1070
   279
1070
     1
1002
}
  0
TEXT
  5
3669
330
1F
100
AcDbEntity
  8
文字
100
AcDbText
 10
259.1652875041563
 20
77.84282063990542
 30
0.0
 40
4.799999999999999
  1
ゴムパッキング
 51
15.0
  7
OKANO
100
AcDbText
  0
LINE
  5
3693
330
1F
100
AcDbEntity
  8
太線
100
AcDbLine
 10
147.2015140254043
 20
132.9441632184789
 30
0.0
 11
146.2015140254043
 21
132.9441632184789
 31
0.0
  0
LINE
  5
3694
330
1F
100
AcDbEntity
  8
太線
100
AcDbLine
 10
146.2015140254043
 20
132.9441632184789
 30
0.0
 11
146.2015140254043
 21
115.944163218479
 31
0.0
  0
LINE
  5
3695
330
1F
100
AcDbEntity
  8
太線
100
AcDbLine
 10
146.2015140254043
 20
115.944163218479
 30
0.0
 11
147.2015140254043
 21
115.944163218479
 31
0.0
  0
LINE
  5
3696
330
1F
100
AcDbEntity
  8
太線
100
AcDbLine
 10
137.2015140254043
 20
95.944163218479
 30
0.0
 11
137.2015140254043
 21
96.94416321847901
 31
0.0
  0
LINE
  5
3697
330
1F
100
AcDbEntity
  8
太線
100
AcDbLine
 10
137.2015140254043
 20
96.94416321847901
 30
0.0
 11
123.7015140254043
 21
96.94416321847901
 31
0.0
  0
LINE
  5
3698
330
1F
100
AcDbEntity
  8
太線
100
AcDbLine
 10
137.2015140254043
 20
152.9441632184789
 30
0.0
 11
137.2015140254043
 21
151.9441632184789
 31
0.0
  0
LINE
  5
3699
330
1F
100
AcDbEntity
  8
太線
100
AcDbLine
 10
137.2015140254043
 20
151.9441632184789
 30
0.0
 11
123.7015140254043
 21
151.9441632184789
 31
0.0
  0
LINE
  5
369B
330
1F
100
AcDbEntity
  8
太線
100
AcDbLine
 10
97.20151402540432
 20
152.9441632184789
 30
0.0
 11
97.20151402540432
 21
151.9441632184789
 31
0.0
  0
LINE
  5
369C
330
1F
100
AcDbEntity
  8
太線
100
AcDbLine
 10
97.20151402540432
 20
151.9441632184789
 30
0.0
 11
110.7015140254043
 21
151.9441632184789
 31
0.0
  0
LINE
  5
369D
330
1F
100
AcDbEntity
  8
太線
100
AcDbLine
 10
87.20151402540432
 20
132.9441632184789
 30
0.0
 11
88.20151402540432
 21
132.9441632184789
 31
0.0
  0
LINE
  5
369E
330
1F
100
AcDbEntity
  8
太線
100
AcDbLine
 10
88.20151402540432
 20
132.9441632184789
 30
0.0
 11
88.20151402540432
 21
115.944163218479
 31
0.0
  0
LINE
  5
369F
330
1F
100
AcDbEntity
  8
太線
100
AcDbLine
 10
88.20151402540432
 20
115.944163218479
 30
0.0
 11
87.20151402540432
 21
115.944163218479
 31
0.0
  0
LINE
  5
36A0
330
1F
100
AcDbEntity
  8
太線
100
AcDbLine
 10
97.20151402540432
 20
95.944163218479
 30
0.0
 11
97.20151402540432
 21
96.94416321847901
 31
0.0
  0
LINE
  5
36A1
330
1F
100
AcDbEntity
  8
太線
100
AcDbLine
 10
97.20151402540432
 20
96.94416321847901
 30
0.0
 11
110.7015140254043
 21
96.94416321847901
 31
0.0
  0
LINE
  5
36A2
330
1F
100
AcDbEntity
  8
太線
100
AcDbLine
 10
208.8088366387273
 20
152.9441632184789
 30
0.0
 11
207.8088366387273
 21
152.9441632184789
 31
0.0
  0
LINE
  5
36A3
330
1F
100
AcDbEntity
  8
太線
100
AcDbLine
 10
207.8088366387273
 20
152.9441632184789
 30
0.0
 11
207.8088366387273
 21
151.9441632184789
 31
0.0
  0
LINE
  5
36A4
330
1F
100
AcDbEntity
  8
太線
100
AcDbLine
 10
207.8088366387273
 20
151.9441632184789
 30
0.0
 11
208.8088366387273
 21
151.9441632184789
 31
0.0
  0
LINE
  5
36A5
330
1F
100
AcDbEntity
  8
太線
100
AcDbLine
 10
208.8088366387273
 20
132.9441632184789
 30
0.0
 11
207.8088366387273
 21
132.9441632184789
 31
0.0
  0
LINE
  5
36A6
330
1F
100
AcDbEntity
  8
太線
100
AcDbLine
 10
207.8088366387273
 20
132.9441632184789
 30
0.0
 11
207.8088366387273
 21
115.944163218479
 31
0.0
  0
LINE
  5
36A7
330
1F
100
AcDbEntity
  8
太線
100
AcDbLine
 10
207.8088366387273
 20
115.944163218479
 30
0.0
 11
208.8088366387273
 21
115.944163218479
 31
0.0
  0
LINE
  5
36A9
330
1F
100
AcDbEntity
  8
太線
100
AcDbLine
 10
207.8088366387273
 20
95.944163218479
 30
0.0
 11
207.8088366387273
 21
96.94416321847901
 31
0.0
  0
LINE
  5
36AA
330
1F
100
AcDbEntity
  8
太線
100
AcDbLine
 10
207.8088366387273
 20
96.94416321847901
 30
0.0
 11
208.8088366387273
 21
96.94416321847901
 31
0.0
  0
LINE
  5
36AB
330
1F
100
AcDbEntity
  8
太線
100
AcDbLine
 10
208.8088366387273
 20
95.944163218479
 30
0.0
 11
207.8088366387273
 21
95.944163218479
 31
0.0
  0
LINE
  5
36AD
330
1F
100
AcDbEntity
  8
太線
100
AcDbLine
 10
147.2015140254043
 20
15.58114402865681
 30
0.0
 11
147.2015140254043
 21
16.5811440286568
 31
0.0
  0
LINE
  5
36AE
330
1F
100
AcDbEntity
  8
太線
100
AcDbLine
 10
147.2015140254043
 20
16.5811440286568
 30
0.0
 11
146.2015140254043
 21
16.5811440286568
 31
0.0
  0
LINE
  5
36AF
330
1F
100
AcDbEntity
  8
太線
100
AcDbLine
 10
146.2015140254043
 20
16.5811440286568
 30
0.0
 11
146.2015140254043
 21
15.58114402865681
 31
0.0
  0
LINE
  5
36B3
330
1F
100
AcDbEntity
  8
太線
100
AcDbLine
 10
137.2015140254043
 20
15.58114402865681
 30
0.0
 11
137.2015140254043
 21
16.5811440286568
 31
0.0
  0
LINE
  5
36B5
330
1F
100
AcDbEntity
  8
太線
100
AcDbLine
 10
123.7015140254043
 20
16.20614402865681
 30
0.0
 11
123.7015140254043
 21
16.20614402865681
 31
0.0
  0
LINE
  5
36B6
330
1F
100
AcDbEntity
  8
太線
100
AcDbLine
 10
123.7015140254043
 20
15.58114402865681
 30
0.0
 11
123.7015140254043
 21
16.5811440286568
 31
0.0
  0
LINE
  5
36B7
330
1F
100
AcDbEntity
  8
太線
100
AcDbLine
 10
123.7015140254043
 20
16.5811440286568
 30
0.0
 11
137.2015140254043
 21
16.5811440286568
 31
0.0
  0
LINE
  5
36B8
330
1F
100
AcDbEntity
  8
太線
100
AcDbLine
 10
87.20151402540432
 20
15.58114402865681
 30
0.0
 11
87.20151402540432
 21
16.5811440286568
 31
0.0
  0
LINE
  5
36B9
330
1F
100
AcDbEntity
  8
太線
100
AcDbLine
 10
87.20151402540432
 20
16.5811440286568
 30
0.0
 11
88.20151402540432
 21
16.5811440286568
 31
0.0
  0
LINE
  5
36BA
330
1F
100
AcDbEntity
  8
太線
100
AcDbLine
 10
88.20151402540432
 20
16.5811440286568
 30
0.0
 11
88.20151402540432
 21
15.58114402865681
 31
0.0
  0
LINE
  5
36BB
330
1F
100
AcDbEntity
  8
太線
100
AcDbLine
 10
97.20151402540432
 20
15.58114402865681
 30
0.0
 11
97.20151402540432
 21
16.5811440286568
 31
0.0
  0
LINE
  5
36BC
330
1F
100
AcDbEntity
  8
太線
100
AcDbLine
 10
97.20151402540432
 20
16.5811440286568
 30
0.0
 11
110.7015140254043
 21
16.5811440286568
 31
0.0
  0
LINE
  5
36BD
330
1F
100
AcDbEntity
  8
太線
100
AcDbLine
 10
110.7015140254043
 20
16.5811440286568
 30
0.0
 11
110.7015140254043
 21
15.58114402865681
 31
0.0
  0
LINE
  5
36BE
330
1F
100
AcDbEntity
  8
太線
100
AcDbLine
 10
208.8088366387273
 20
115.944163218479
 30
0.0
 11
208.8088366387273
 21
96.94416321847901
 31
0.0
  0
XLINE
  5
3701
330
1F
100
AcDbEntity
  8
構築線
100
AcDbXline
 10
147.2015140254043
 20
227.3095360281969
 30
0.0
 11
1.0
 21
0.0
 31
0.0
  0
XLINE
  5
3702
330
1F
100
AcDbEntity
  8
構築線
100
AcDbXline
 10
137.2015140254043
 20
254.8095360281969
 30
0.0
 11
1.0
 21
0.0
 31
0.0
  0
CIRCLE
  5
3709
330
1F
100
AcDbEntity
  8
太線
100
AcDbCircle
 10
231.6293030798569
 20
32.17045415450957
 30
0.0
 40
6.5
  0
XLINE
  5
370A
330
1F
100
AcDbEntity
  8
構築線
100
AcDbXline
 10
137.2015140254043
 20
253.8095360281968
 30
0.0
 11
1.0
 21
0.0
 31
0.0
  0
LINE
  5
370E
330
1F
100
AcDbEntity
  8
太線
100
AcDbLine
 10
206.6293030798569
 20
58.67045415450957
 30
0.0
 11
256.6293030798569
 21
58.67045415450949
 31
0.0
  0
LINE
  5
370F
330
1F
100
AcDbEntity
  8
太線
100
AcDbLine
 10
259.6293030798569
 20
55.67045415450948
 30
0.0
 11
259.6293030798569
 21
8.670454154509542
 31
0.0
  0
LINE
  5
3710
330
1F
100
AcDbEntity
  8
太線
100
AcDbLine
 10
256.6293030798569
 20
5.670454154509542
 30
0.0
 11
206.6293030798569
 21
5.670454154509599
 31
0.0
  0
LINE
  5
3711
330
1F
100
AcDbEntity
  8
太線
100
AcDbLine
 10
203.629303079857
 20
8.670454154509599
 30
0.0
 11
203.629303079857
 21
55.67045415450957
 31
0.0
  0
ARC
  5
3712
330
1F
100
AcDbEntity
  8
太線
100
AcDbCircle
 10
206.6293030798569
 20
55.67045415450957
 30
0.0
 40
3.0
100
AcDbArc
 50
90.0
 51
180.0
  0
ARC
  5
3713
330
1F
100
AcDbEntity
  8
太線
100
AcDbCircle
 10
256.6293030798569
 20
55.67045415450948
 30
0.0
 40
3.0
100
AcDbArc
 50
0.0
 51
89.99999999999998
  0
ARC
  5
3714
330
1F
100
AcDbEntity
  8
太線
100
AcDbCircle
 10
206.6293030798569
 20
8.670454154509599
 30
0.0
 40
3.0
100
AcDbArc
 50
180.0
 51
270.0
  0
ARC
  5
3715
330
1F
100
AcDbEntity
  8
太線
100
AcDbCircle
 10
256.6293030798569
 20
8.670454154509542
 30
0.0
 40
3.0
100
AcDbArc
 50
270.0
 51
0.0
  0
LINE
  5
3728
330
1F
100
AcDbEntity
  8
太線
100
AcDbLine
 10
145.499922553599
 20
15.9951071017295
 30
0.0
 11
145.499922553599
 21
21.9951071017295
 31
0.0
  0
LINE
  5
3729
330
1F
100
AcDbEntity
  8
太線
100
AcDbLine
 10
145.499922553599
 20
21.9951071017295
 30
0.0
 11
89.49992255359905
 21
21.9951071017295
 31
0.0
  0
LINE
  5
372A
330
1F
100
AcDbEntity
  8
太線
100
AcDbLine
 10
89.49992255359905
 20
21.9951071017295
 30
0.0
 11
89.49992255359905
 21
15.9951071017295
 31
0.0
  0
LINE
  5
372B
330
1F
100
AcDbEntity
  8
太線
100
AcDbLine
 10
89.49992255359905
 20
15.9951071017295
 30
0.0
 11
145.499922553599
 21
15.9951071017295
 31
0.0
  0
LINE
  5
372C
330
1F
100
AcDbEntity
  8
破線
100
AcDbLine
 10
123.9218649730349
 20
21.9951071017295
 30
0.0
 11
123.9218649730349
 21
15.9951071017295
 31
0.0
  0
LINE
  5
372D
330
1F
100
AcDbEntity
  8
破線
100
AcDbLine
 10
111.2451361206409
 20
21.9951071017295
 30
0.0
 11
111.2451361206409
 21
15.9951071017295
 31
0.0
  0
DIMENSION
  5
372E
330
1F
100
AcDbEntity
  8
寸法線
100
AcDbDimension
  2
*D13
 10
292.2835881541962
 20
58.67045415450947
 30
0.0
 11
290.4085881541961
 21
32.17045415450954
 31
0.0
 70
    32
  1
54
 71
     5
 42
52.99999999999993
  3
ISO-25
100
AcDbAlignedDimension
 13
256.6293030798569
 23
5.670454154509542
 33
0.0
 14
256.6293030798569
 24
58.67045415450948
 34
0.0
 50
90.0
100
AcDbRotatedDimension
  0
DIMENSION
  5
373B
330
1F
100
AcDbEntity
  8
寸法線
100
AcDbDimension
  2
*D14
 10
203.629303079857
 20
-3.32641573562762
 30
0.0
 11
231.6293030798569
 21
-1.45141573562762
 31
0.0
 70
    32
  1
56
 71
     5
 42
56.0
  3
ISO-25
100
AcDbAlignedDimension
 13
259.6293030798569
 23
8.670454154509542
 33
0.0
 14
203.629303079857
 24
8.670454154509599
 34
0.0
100
AcDbRotatedDimension
  0
DIMENSION
  5
3748
330
1F
100
AcDbEntity
  8
寸法線
100
AcDbDimension
  2
*D15
 10
237.0399136553089
 20
28.56833072508525
 30
0.0
 11
220.1476693400232
 21
42.06689026936536
 31
0.0
 70
    35
 71
     5
 42
13.00000000000005
  3
ISO-25
100
AcDbDiametricDimension
 15
226.218692504405
 25
35.77257758393386
 35
0.0
 40
0.0
1001
ACAD
1000
DSTYLE
1002
{
1070
   288
1070
     1
1002
}
  0
DIMENSION
  5
3754
330
1F
100
AcDbEntity
  8
寸法線
100
AcDbDimension
  2
*D16
 10
277.8122008786961
 20
70.24214839837123
 30
0.0
 11
275.937200878696
 21
67.24214839837127
 31
0.0
 70
    32
 71
     5
 42
6.0
  3
ISO-25
100
AcDbAlignedDimension
 13
259.6293030798569
 23
64.24214839837123
 33
0.0
 14
259.6293030798569
 24
70.24214839837123
 34
0.0
 50
90.0
100
AcDbRotatedDimension
  0
DIMENSION
  5
37FA
330
1F
100
AcDbEntity
  8
寸法線
100
AcDbDimension
  2
*D17
 10
72.88595989087389
 20
105.9441632184789
 30
0.0
 11
71.01095989087387
 21
100.944163218479
 31
0.0
 70
    32
 71
     5
 42
9.999999999999985
  3
ISO-25
100
AcDbAlignedDimension
 13
93.20151402540432
 23
95.944163218479
 33
0.0
 14
93.20151402540432
 24
105.9441632184789
 34
0.0
 50
90.0
100
AcDbRotatedDimension
  0
DIMENSION
  5
3814
330
1F
100
AcDbEntity
  8
寸法線
100
AcDbDimension
  2
*D18
 10
198.3164889836075
 20
115.944163218479
 30
0.0
 11
196.4414889836075
 21
124.444163218479
 31
0.0
 70
    32
  1
18
 71
     5
 42
17.00000000000001
  3
ISO-25
100
AcDbAlignedDimension
 13
208.8088366387273
 23
132.9441632184789
 33
0.0
 14
207.8088366387273
 24
115.944163218479
 34
0.0
 50
90.0
100
AcDbRotatedDimension
  0
DIMENSION
  5
3830
330
1F
100
AcDbEntity
  8
寸法線
100
AcDbDimension
  2
*D20
 10
77.85967223948728
 20
15.58114402865681
 30
0.0
 11
75.98467223948728
 21
9.539477361990156
 31
0.0
 70
    32
 71
     5
 42
1.000000000000001
  3
ISO-25
100
AcDbAlignedDimension
 13
88.20151402540432
 23
16.5811440286568
 33
0.0
 14
88.20151402540432
 24
15.58114402865681
 34
0.0
 50
90.0
100
AcDbRotatedDimension
  0
DIMENSION
  5
3892
330
1F
100
AcDbEntity
  8
寸法線
100
AcDbDimension
  2
*D21
 10
156.9520274271039
 20
-52.41885597134319
 30
0.0
 11
155.0770274271039
 21
-54.41885597134316
 31
0.0
 70
    32
 71
     5
 42
4.0
  3
ISO-25
100
AcDbAlignedDimension
 13
147.2015140254043
 23
-56.41885597134319
 33
0.0
 14
147.2015140254043
 24
-52.41885597134319
 34
0.0
 50
90.0
100
AcDbRotatedDimension
  0
DIMENSION
  5
38A1
330
1F
100
AcDbEntity
  8
寸法線
100
AcDbDimension
  2
*D22
 10
156.9520274271039
 20
-3.418855971343193
 30
0.0
 11
155.0770274271039
 21
-27.91885597134316
 31
0.0
 70
    32
  1
49.3
 71
     5
 42
49.0
  3
ISO-25
100
AcDbAlignedDimension
 13
147.2015140254043
 23
-52.41885597134319
 33
0.0
 14
147.2015140254043
 24
-3.418855971343191
 34
0.0
 50
90.0
100
AcDbRotatedDimension
1001
ACAD
1000
DSTYLE
1002
{
1070
   279
1070
     1
1002
}
  0
DIMENSION
  5
38AE
330
1F
100
AcDbEntity
  8
寸法線
100
AcDbDimension
  2
*D23
 10
156.9520274271039
 20
0.5811440286567999
 30
0.0
 11
155.0770274271039
 21
-1.418855971343171
 31
0.0
 70
    32
 71
     5
 42
3.999999999999995
  3
ISO-25
100
AcDbAlignedDimension
 13
147.2015140254043
 23
-3.418855971343191
 33
0.0
 14
126.7015140254043
 24
0.5811440286568086
 34
0.0
 50
90.0
100
AcDbRotatedDimension
1001
ACAD
1000
DSTYLE
1002
{
1070
   279
1070
     1
1002
}
  0
DIMENSION
  5
38BD
330
1F
100
AcDbEntity
  8
寸法線
100
AcDbDimension
  2
*D24
 10
156.9520274271039
 20
11.5811440286568
 30
0.0
 11
155.0770274271039
 21
6.081144028656825
 31
0.0
 70
    32
  1
10
 71
     5
 42
11.0
  3
ISO-25
100
AcDbAlignedDimension
 13
126.7015140254043
 23
0.5811440286568086
 33
0.0
 14
126.7015140254043
 24
11.5811440286568
 34
0.0
 50
90.0
100
AcDbRotatedDimension
1001
ACAD
1000
DSTYLE
1002
{
1070
   279
1070
     1
1002
}
  0
DIMENSION
  5
38CA
330
1F
100
AcDbEntity
  8
寸法線
100
AcDbDimension
  2
*D25
 10
156.9520274271039
 20
15.5811440286568
 30
0.0
 11
155.0770274271039
 21
13.58114402865682
 31
0.0
 70
    32
 71
     5
 42
4.000000000000003
  3
ISO-25
100
AcDbAlignedDimension
 13
126.7015140254043
 23
11.5811440286568
 33
0.0
 14
146.2015140254043
 24
15.58114402865681
 34
0.0
 50
90.0
100
AcDbRotatedDimension
1001
ACAD
1000
DSTYLE
1002
{
1070
   279
1070
     1
1002
}
  0
CIRCLE
  5
38FE
330
1F
100
AcDbEntity
  8
太線
100
AcDbCircle
 10
117.2015140254043
 20
-23.91885597134319
 30
0.0
 40
1.9
  0
DIMENSION
  5
390B
330
1F
100
AcDbEntity
  8
寸法線
100
AcDbDimension
  2
*D27
 10
116.7871379007405
 20
-22.06459266013071
 30
0.0
 11
121.4903742959871
 21
-34.51352102406743
 31
0.0
 70
    35
 71
     5
 42
3.799999999999997
  3
ISO-25
100
AcDbDiametricDimension
 15
117.6158901500681
 25
-25.77311928255566
 35
0.0
 40
0.0
1001
ACAD
1000
DSTYLE
1002
{
1070
   288
1070
     1
1002
}
  0
LINE
  5
393C
330
1F
100
AcDbEntity
  8
太線
100
AcDbLine
 10
281.362626597695
 20
128.365229150321
 30
0.0
 11
282.7037286666093
 21
128.365229150321
 31
0.0
  0
LINE
  5
393D
330
1F
100
AcDbEntity
  8
太線
100
AcDbLine
 10
282.7037286666093
 20
121.1652291503209
 30
0.0
 11
281.362626597695
 21
121.1652291503209
 31
0.0
  0
LINE
  5
393E
330
1F
100
AcDbEntity
  8
太線
100
AcDbLine
 10
281.362626597695
 20
126.765229150321
 30
0.0
 11
281.362626597695
 21
128.365229150321
 31
0.0
  0
LINE
  5
393F
330
1F
100
AcDbEntity
  8
細線
100
AcDbLine
 10
281.362626597695
 20
123.1652291503209
 30
0.0
 11
276.562626597695
 21
123.1652291503209
 31
0.0
  0
LINE
  5
3940
330
1F
100
AcDbEntity
  8
細線
100
AcDbLine
 10
278.2984127569307
 20
126.5263573290787
 30
0.0
 11
273.4984127569307
 21
126.5263573290787
 31
0.0
  0
LINE
  5
3941
330
1F
100
AcDbEntity
  8
太線
100
AcDbLine
 10
276.962626597695
 20
126.765229150321
 30
0.0
 11
281.362626597695
 21
126.765229150321
 31
0.0
  0
LINE
  5
3942
330
1F
100
AcDbEntity
  8
太線
100
AcDbLine
 10
281.362626597695
 20
122.7652291503209
 30
0.0
 11
276.962626597695
 21
122.7652291503209
 31
0.0
  0
LINE
  5
3943
330
1F
100
AcDbEntity
  8
太線
100
AcDbLine
 10
273.4984127569307
 20
123.3263573290787
 30
0.0
 11
273.4984127569307
 21
126.5263573290787
 31
0.0
  0
LINE
  5
3946
330
1F
100
AcDbEntity
  8
太線
100
AcDbLine
 10
281.362626597695
 20
121.1652291503209
 30
0.0
 11
281.362626597695
 21
122.7652291503209
 31
0.0
  0
ARC
  5
3947
330
1F
100
AcDbEntity
  8
太線
100
AcDbCircle
 10
275.262626597695
 20
124.7652291503209
 30
0.0
 40
8.5
100
AcDbArc
 50
336.7301760415498
 51
23.2698239584472
  0
ARC
  5
3948
330
1F
100
AcDbEntity
  8
太線
100
AcDbCircle
 10
282.7037286666093
 20
127.965229150321
 30
0.0
 40
0.4
100
AcDbArc
 50
23.2698239584472
 51
89.99999999999998
  0
ARC
  5
3949
330
1F
100
AcDbEntity
  8
太線
100
AcDbCircle
 10
282.7037286666093
 20
121.5652291503209
 30
0.0
 40
0.4
100
AcDbArc
 50
270.0
 51
336.7301760415527
  0
LINE
  5
394B
330
1F
100
AcDbEntity
  8
太線
100
AcDbLine
 10
276.962626597695
 20
126.765229150321
 30
0.0
 11
273.7874273660946
 21
126.765229150321
 31
0.0
  0
LINE
  5
394D
330
1F
100
AcDbEntity
  8
太線
100
AcDbLine
 10
276.962626597695
 20
122.7652291503209
 30
0.0
 11
273.7265241754522
 21
122.7652291503209
 31
0.0
  0
LINE
  5
394E
330
1F
100
AcDbEntity
  8
細線
100
AcDbLine
 10
276.562626597695
 20
123.1652291503209
 30
0.0
 11
273.4829114128823
 21
123.1652291503209
 31
0.0
  0
LINE
  5
394F
330
1F
100
AcDbEntity
  8
細線
100
AcDbLine
 10
278.2984127569307
 20
126.5263573290787
 30
0.0
 11
281.3394112068209
 21
126.5263573290787
 31
0.0
  0
ARC
  5
3950
330
1F
100
AcDbEntity
  8
太線
100
AcDbCircle
 10
273.6047177941673
 20
126.5976191675157
 30
0.0
 40
0.1948773896634272
100
AcDbArc
 50
51.31479461514445
 51
231.3147946151444
  0
ARC
  5
3951
330
1F
100
AcDbEntity
  8
太線
100
AcDbCircle
 10
273.7202360838967
 20
123.0270298452863
 30
0.0
 40
0.2618761997199768
100
AcDbArc
 50
132.3519421204167
 51
271.3759010455869
  0
LEADER
  5
3952
330
1F
100
AcDbEntity
  8
太線
100
AcDbLeader
  3
ISO-25
 73
     0
 74
     0
 75
     1
 40
2.5
 41
11.66666666666666
 76
     3
 10
284.8496634147389
 20
124.0558417191182
 30
0.0
 10
299.3194971567621
 20
118.1352405131844
 30
0.0
 10
301.8194971567621
 20
118.1352405131844
 30
0.0
340
3953
213
0.0
223
-1.25
233
0.0
1001
ACAD
1000
DSTYLE
1002
{
1070
   147
1040
0.625
1070
    77
1070
     0
1002
}
  0
MTEXT
  5
3953
102
{ACAD_REACTORS
330
3952
102
}
330
1F
100
AcDbEntity
  8
太線
100
AcDbMText
 10
302.4444971567621
 20
119.3852405131845
 30
0.0
 40
2.5
 41
0.63
 71
     1
 72
     1
  1
M5-8
 73
     1
 44
1.0
  0
DIMENSION
  5
3981
330
1F
100
AcDbEntity
  8
寸法線
100
AcDbDimension
  2
*D28
 10
137.2015140254043
 20
87.52808124418914
 30
0.0
 11
130.4515140254043
 21
89.40308124418914
 31
0.0
 70
    32
 71
     5
 42
13.5
  3
ISO-25
100
AcDbAlignedDimension
 13
123.7015140254043
 23
95.94416321847901
 33
0.0
 14
137.2015140254043
 24
95.94416321847901
 34
0.0
100
AcDbRotatedDimension
  0
TEXT
  5
39E4
330
1F
100
AcDbEntity
  8
文字
100
AcDbText
 10
59.48750782661239
 20
32.79576821603382
 30
0.0
 40
6.0
  1
M12-60mm
 51
15.0
  7
OKANO
100
AcDbText
  0
LINE
  5
3AF6
330
1F
100
AcDbEntity
  8
太線
100
AcDbLine
 10
259.4105078301655
 20
70.3878994494799
 30
0.0
 11
203.4105078301655
 21
70.3878994494799
 31
0.0
  0
LINE
  5
3AF7
330
1F
100
AcDbEntity
  8
太線
100
AcDbLine
 10
203.4105078301655
 20
64.3878994494799
 30
0.0
 11
259.4105078301655
 21
64.3878994494799
 31
0.0
  0
LINE
  5
3AF9
330
1F
100
AcDbEntity
  8
太線
100
AcDbLine
 10
203.4105078301655
 20
70.3878994494799
 30
0.0
 11
203.4105078301655
 21
64.3878994494799
 31
0.0
  0
LINE
  5
3AFF
330
1F
100
AcDbEntity
  8
破線
100
AcDbLine
 10
225.1557213972074
 20
70.3878994494799
 30
0.0
 11
225.1557213972074
 21
64.3878994494799
 31
0.0
  0
LINE
  5
3B02
330
1F
100
AcDbEntity
  8
破線
100
AcDbLine
 10
237.8324502496015
 20
70.3878994494799
 30
0.0
 11
237.8324502496015
 21
64.3878994494799
 31
0.0
  0
LINE
  5
3B06
330
1F
100
AcDbEntity
  8
太線
100
AcDbLine
 10
259.4105078301655
 20
64.3878994494799
 30
0.0
 11
259.4105078301655
 21
70.3878994494799
 31
0.0
  0
LINE
  5
3B07
330
1F
100
AcDbEntity
  8
太線
100
AcDbLine
 10
123.8081613162123
 20
50.42470203271079
 30
0.0
 11
123.8081613162123
 21
48.9595260581385
 31
0.0
  0
LINE
  5
3B08
330
1F
100
AcDbEntity
  8
細線
100
AcDbLine
 10
122.8081613162123
 20
50.42470203271079
 30
0.0
 11
122.8081613162123
 21
49.10952605813849
 31
0.0
  0
LINE
  5
3B09
330
1F
100
AcDbEntity
  8
細線
100
AcDbLine
 10
112.8081613162124
 20
50.42470203271079
 30
0.0
 11
112.8081613162124
 21
47.4988117724242
 31
0.0
  0
LINE
  5
3B0A
330
1F
100
AcDbEntity
  8
太線
100
AcDbLine
 10
111.8081613162124
 20
31.59997257096563
 30
0.0
 11
111.8081613162124
 21
44.64166891528135
 31
0.0
  0
LINE
  5
3B0B
330
1F
100
AcDbEntity
  8
細線
100
AcDbLine
 10
112.8081613162123
 20
15.9951071017295
 30
0.0
 11
112.8081613162123
 21
10.47705007326941
 31
0.0
  0
LINE
  5
3B0C
330
1F
100
AcDbEntity
  8
太線
100
AcDbLine
 10
111.8081613162123
 20
9.400680454634304
 30
0.0
 11
111.8081613162123
 21
17.25782331177717
 31
0.0
  0
LINE
  5
3B0D
330
1F
100
AcDbEntity
  8
細線
100
AcDbLine
 10
122.8081613162123
 20
15.9951071017295
 30
0.0
 11
122.8081613162123
 21
10.47705007326941
 31
0.0
  0
LINE
  5
3B0E
330
1F
100
AcDbEntity
  8
太線
100
AcDbLine
 10
123.8081613162123
 20
18.57568045463429
 30
0.0
 11
123.8081613162123
 21
9.400680454634304
 31
0.0
  0
ARC
  5
3B0F
330
1F
100
AcDbEntity
  8
太線
100
AcDbCircle
 10
117.8081613162123
 20
14.40068045463432
 30
0.0
 40
13.00000000000004
100
AcDbArc
 50
247.3801350519611
 51
292.6198649480387
  0
LINE
  5
3B10
330
1F
100
AcDbEntity
  8
太線
100
AcDbLine
 10
111.8081613162123
 20
10.47705007326944
 30
0.0
 11
123.7757006298275
 21
10.47705007326943
 31
0.0
  0
LINE
  5
3B11
330
1F
100
AcDbEntity
  8
太線
100
AcDbLine
 10
123.8081613162123
 20
9.400680454634304
 30
0.0
 11
111.8081613162123
 21
9.400680454634304
 31
0.0
  0
LINE
  5
3B12
330
1F
100
AcDbEntity
  8
太線
100
AcDbLine
 10
125.8081613162123
 20
1.400680454634311
 30
0.0
 11
109.8081613162123
 21
1.400680454634319
 31
0.0
  0
LINE
  5
3B13
330
1F
100
AcDbEntity
  8
太線
100
AcDbLine
 10
112.8081613162123
 20
2.400680454634319
 30
0.0
 11
109.8081613162123
 21
1.400680454634319
 31
0.0
  0
LINE
  5
3B14
330
1F
100
AcDbEntity
  8
太線
100
AcDbLine
 10
109.8081613162123
 20
9.400680454634304
 30
0.0
 11
111.8081613162123
 21
9.400680454634304
 31
0.0
  0
LINE
  5
3B15
330
1F
100
AcDbEntity
  8
太線
100
AcDbLine
 10
108.8081613162123
 20
2.400680454634319
 30
0.0
 11
108.8081613162123
 21
8.400680454634304
 31
0.0
  0
ARC
  5
3B16
330
1F
100
AcDbEntity
  8
太線
100
AcDbCircle
 10
109.8081613162123
 20
2.400680454634255
 30
0.0
 40
1.0
100
AcDbArc
 50
180.0
 51
270.0
  0
ARC
  5
3B17
330
1F
100
AcDbEntity
  8
太線
100
AcDbCircle
 10
109.8081613162123
 20
8.400680454634269
 30
0.0
 40
1.0
100
AcDbArc
 50
90.0
 51
180.0
  0
LINE
  5
3B18
330
1F
100
AcDbEntity
  8
太線
100
AcDbLine
 10
112.8081613162123
 20
9.400680454634304
 30
0.0
 11
112.8081613162123
 21
2.400680454634319
 31
0.0
  0
LINE
  5
3B19
330
1F
100
AcDbEntity
  8
太線
100
AcDbLine
 10
122.8081613162123
 20
9.400680454634304
 30
0.0
 11
122.8081613162123
 21
2.400680454634319
 31
0.0
  0
LINE
  5
3B1A
330
1F
100
AcDbEntity
  8
太線
100
AcDbLine
 10
126.8081613162123
 20
8.400680454634297
 30
0.0
 11
126.8081613162123
 21
2.400680454634311
 31
0.0
  0
LINE
  5
3B1B
330
1F
100
AcDbEntity
  8
太線
100
AcDbLine
 10
122.8081613162123
 20
2.400680454634319
 30
0.0
 11
125.8081613162123
 21
1.400680454634311
 31
0.0
  0
ARC
  5
3B1C
330
1F
100
AcDbEntity
  8
太線
100
AcDbCircle
 10
125.8081613162123
 20
2.400680454634255
 30
0.0
 40
1.0
100
AcDbArc
 50
270.0
 51
0.0
  0
LINE
  5
3B1D
330
1F
100
AcDbEntity
  8
太線
100
AcDbLine
 10
123.8081613162123
 20
9.400680454634304
 30
0.0
 11
125.8081613162123
 21
9.400680454634297
 31
0.0
  0
ARC
  5
3B1E
330
1F
100
AcDbEntity
  8
太線
100
AcDbCircle
 10
125.8081613162123
 20
8.400680454634269
 30
0.0
 40
1.0
100
AcDbArc
 50
0.0
 51
90.0
  0
LINE
  5
3B1F
330
1F
100
AcDbEntity
  8
太線
100
AcDbLine
 10
130.3081613162123
 20
31.59997257096563
 30
0.0
 11
105.3081613162123
 21
31.59997257096563
 31
0.0
  0
LINE
  5
3B20
330
1F
100
AcDbEntity
  8
太線
100
AcDbLine
 10
105.3081613162123
 20
30.09997257096563
 30
0.0
 11
130.3081613162123
 21
30.09997257096563
 31
0.0
  0
LINE
  5
3B21
330
1F
100
AcDbEntity
  8
細線
100
AcDbLine
 10
112.8081613162124
 20
30.09997257096562
 30
0.0
 11
112.8081613162123
 21
21.9951071017295
 31
0.0
  0
LINE
  5
3B22
330
1F
100
AcDbEntity
  8
太線
100
AcDbLine
 10
111.8081613162123
 20
20.25782331177714
 30
0.0
 11
111.8081613162124
 21
30.09997257096563
 31
0.0
  0
LINE
  5
3B24
330
1F
100
AcDbEntity
  8
太線
100
AcDbLine
 10
111.8081613162123
 20
20.25782331177714
 30
0.0
 11
111.8081613162123
 21
17.25782331177717
 31
0.0
  0
LINE
  5
3B25
330
1F
100
AcDbEntity
  8
太線
100
AcDbLine
 10
105.3081613162123
 20
31.59997257096563
 30
0.0
 11
105.3081613162123
 21
30.09997257096563
 31
0.0
  0
LINE
  5
3B26
330
1F
100
AcDbEntity
  8
細線
100
AcDbLine
 10
122.8081613162123
 20
30.09997257096562
 30
0.0
 11
122.8081613162123
 21
21.72568045463428
 31
0.0
  0
LINE
  5
3B27
330
1F
100
AcDbEntity
  8
太線
100
AcDbLine
 10
123.8081613162123
 20
30.09997257096563
 30
0.0
 11
123.8081613162123
 21
21.57568045463431
 31
0.0
  0
LINE
  5
3B28
330
1F
100
AcDbEntity
  8
太線
100
AcDbLine
 10
123.8081613162123
 20
21.57568045463431
 30
0.0
 11
123.8081613162123
 21
18.57568045463429
 31
0.0
  0
LINE
  5
3B2A
330
1F
100
AcDbEntity
  8
太線
100
AcDbLine
 10
130.3081613162123
 20
30.09997257096563
 30
0.0
 11
130.3081613162123
 21
31.59997257096563
 31
0.0
  0
LINE
  5
3B2B
330
1F
100
AcDbEntity
  8
太線
100
AcDbLine
 10
111.8081613162124
 20
50.42470203271079
 30
0.0
 11
111.8081613162124
 21
54.64704764627237
 31
0.0
  0
LINE
  5
3B2C
330
1F
100
AcDbEntity
  8
細線
100
AcDbLine
 10
112.8081613162124
 20
68.69965339713279
 30
0.0
 11
112.8081613162124
 21
62.64704764627237
 31
0.0
  0
LINE
  5
3B2D
330
1F
100
AcDbEntity
  8
太線
100
AcDbLine
 10
123.8081613162124
 20
68.69965339713279
 30
0.0
 11
123.8081613162124
 21
62.64704764627237
 31
0.0
  0
LINE
  5
3B2E
330
1F
100
AcDbEntity
  8
細線
100
AcDbLine
 10
122.8081613162124
 20
68.69965339713279
 30
0.0
 11
122.8081613162124
 21
62.64704764627237
 31
0.0
  0
LINE
  5
3B2F
330
1F
100
AcDbEntity
  8
太線
100
AcDbLine
 10
125.8081613162123
 20
54.64704764627237
 30
0.0
 11
109.8081613162123
 21
54.64704764627237
 31
0.0
  0
LINE
  5
3B30
330
1F
100
AcDbEntity
  8
太線
100
AcDbLine
 10
123.8081613162123
 20
62.64704764627237
 30
0.0
 11
111.8081613162123
 21
62.64704764627237
 31
0.0
  0
ARC
  5
3B31
330
1F
100
AcDbEntity
  8
太線
100
AcDbCircle
 10
117.8081613162123
 20
67.64704764627238
 30
0.0
 40
13.00000000000004
100
AcDbArc
 50
247.3801350519611
 51
292.6198649480387
  0
LINE
  5
3B32
330
1F
100
AcDbEntity
  8
太線
100
AcDbLine
 10
128.3081613162123
 20
48.2845260581385
 30
0.0
 11
118.3081613162123
 21
49.78452605813849
 31
0.0
  0
LINE
  5
3B33
330
1F
100
AcDbEntity
  8
太線
100
AcDbLine
 10
118.3081613162123
 20
46.78452605813849
 30
0.0
 11
128.3081613162123
 21
45.28452605813849
 31
0.0
  0
LINE
  5
3B34
330
1F
100
AcDbEntity
  8
太線
100
AcDbLine
 10
117.8081613162123
 20
46.78452605813849
 30
0.0
 11
107.3081613162123
 21
48.28452605813851
 31
0.0
  0
LINE
  5
3B35
330
1F
100
AcDbEntity
  8
太線
100
AcDbLine
 10
107.3081613162123
 20
48.28452605813851
 30
0.0
 11
111.8081613162123
 21
48.2845260581385
 31
0.0
  0
LINE
  5
3B36
330
1F
100
AcDbEntity
  8
太線
100
AcDbLine
 10
117.8081613162123
 20
43.7845260581385
 30
0.0
 11
107.3081613162123
 21
45.28452605813851
 31
0.0
  0
LINE
  5
3B37
330
1F
100
AcDbEntity
  8
太線
100
AcDbLine
 10
107.3081613162123
 20
48.28452605813851
 30
0.0
 11
107.3081613162123
 21
45.28452605813851
 31
0.0
  0
LINE
  5
3B38
330
1F
100
AcDbEntity
  8
太線
100
AcDbLine
 10
117.8081613162123
 20
46.78452605813849
 30
0.0
 11
117.8081613162123
 21
43.7845260581385
 31
0.0
  0
LINE
  5
3B39
330
1F
100
AcDbEntity
  8
太線
100
AcDbLine
 10
118.3081613162123
 20
43.7845260581385
 30
0.0
 11
118.3081613162123
 21
46.78452605813849
 31
0.0
  0
LINE
  5
3B3A
330
1F
100
AcDbEntity
  8
太線
100
AcDbLine
 10
117.8081613162123
 20
43.7845260581385
 30
0.0
 11
118.3081613162123
 21
43.7845260581385
 31
0.0
  0
LINE
  5
3B3B
330
1F
100
AcDbEntity
  8
太線
100
AcDbLine
 10
118.3081613162123
 20
49.78452605813849
 30
0.0
 11
118.3081613162123
 21
46.78452605813849
 31
0.0
  0
LINE
  5
3B3C
330
1F
100
AcDbEntity
  8
太線
100
AcDbLine
 10
118.3081613162123
 20
46.78452605813849
 30
0.0
 11
117.8081613162123
 21
46.78452605813849
 31
0.0
  0
LINE
  5
3B3D
330
1F
100
AcDbEntity
  8
太線
100
AcDbLine
 10
109.8081613162123
 20
62.64704764627237
 30
0.0
 11
111.8081613162123
 21
62.64704764627237
 31
0.0
  0
LINE
  5
3B3E
330
1F
100
AcDbEntity
  8
太線
100
AcDbLine
 10
112.8081613162123
 20
55.64704764627236
 30
0.0
 11
109.8081613162123
 21
54.64704764627237
 31
0.0
  0
LINE
  5
3B3F
330
1F
100
AcDbEntity
  8
太線
100
AcDbLine
 10
108.8081613162123
 20
55.64704764627236
 30
0.0
 11
108.8081613162123
 21
61.64704764627237
 31
0.0
  0
ARC
  5
3B40
330
1F
100
AcDbEntity
  8
太線
100
AcDbCircle
 10
109.8081613162123
 20
55.64704764627231
 30
0.0
 40
1.0
100
AcDbArc
 50
180.0
 51
270.0
  0
ARC
  5
3B41
330
1F
100
AcDbEntity
  8
太線
100
AcDbCircle
 10
109.8081613162123
 20
61.64704764627233
 30
0.0
 40
1.0
100
AcDbArc
 50
90.0
 51
180.0
  0
LINE
  5
3B42
330
1F
100
AcDbEntity
  8
太線
100
AcDbLine
 10
112.8081613162123
 20
62.64704764627237
 30
0.0
 11
112.8081613162123
 21
55.64704764627236
 31
0.0
  0
LINE
  5
3B43
330
1F
100
AcDbEntity
  8
太線
100
AcDbLine
 10
128.3081613162123
 20
45.28452605813849
 30
0.0
 11
123.8081613162123
 21
45.28452605813849
 31
0.0
  0
LINE
  5
3B44
330
1F
100
AcDbEntity
  8
太線
100
AcDbLine
 10
128.3081613162123
 20
45.28452605813849
 30
0.0
 11
128.3081613162123
 21
48.2845260581385
 31
0.0
  0
LINE
  5
3B45
330
1F
100
AcDbEntity
  8
太線
100
AcDbLine
 10
126.8081613162123
 20
61.64704764627235
 30
0.0
 11
126.8081613162123
 21
55.64704764627236
 31
0.0
  0
LINE
  5
3B46
330
1F
100
AcDbEntity
  8
太線
100
AcDbLine
 10
122.8081613162123
 20
62.64704764627237
 30
0.0
 11
122.8081613162123
 21
55.64704764627236
 31
0.0
  0
LINE
  5
3B47
330
1F
100
AcDbEntity
  8
太線
100
AcDbLine
 10
122.8081613162123
 20
55.64704764627236
 30
0.0
 11
125.8081613162123
 21
54.64704764627237
 31
0.0
  0
ARC
  5
3B48
330
1F
100
AcDbEntity
  8
太線
100
AcDbCircle
 10
125.8081613162123
 20
55.64704764627231
 30
0.0
 40
1.0
100
AcDbArc
 50
270.0
 51
0.0
  0
LINE
  5
3B49
330
1F
100
AcDbEntity
  8
太線
100
AcDbLine
 10
123.8081613162123
 20
62.64704764627237
 30
0.0
 11
125.8081613162123
 21
62.64704764627236
 31
0.0
  0
ARC
  5
3B4A
330
1F
100
AcDbEntity
  8
太線
100
AcDbCircle
 10
125.8081613162123
 20
61.64704764627233
 30
0.0
 40
1.0
100
AcDbArc
 50
0.0
 51
90.0
  0
LINE
  5
3B4B
330
1F
100
AcDbEntity
  8
太線
100
AcDbLine
 10
112.8081613162124
 20
71.40068045463429
 30
0.0
 11
122.8081613162124
 21
71.40068045463429
 31
0.0
  0
LINE
  5
3B4C
330
1F
100
AcDbEntity
  8
太線
100
AcDbLine
 10
123.8081613162124
 20
68.69965339713279
 30
0.0
 11
111.8081613162124
 21
68.69965339713279
 31
0.0
  0
LINE
  5
3B4D
330
1F
100
AcDbEntity
  8
太線
100
AcDbLine
 10
111.8081613162124
 20
68.69965339713279
 30
0.0
 11
112.8081613162124
 21
71.40068045463429
 31
0.0
  0
LINE
  5
3B4E
330
1F
100
AcDbEntity
  8
太線
100
AcDbLine
 10
122.8081613162124
 20
71.40068045463429
 30
0.0
 11
123.8081613162124
 21
68.69965339713279
 31
0.0
  0
LINE
  5
3B4F
330
1F
100
AcDbEntity
  8
太線
100
AcDbLine
 10
123.8081613162124
 20
54.64704764627237
 30
0.0
 11
123.8081613162124
 21
50.42470203271079
 31
0.0
  0
LINE
  5
3B50
330
1F
100
AcDbEntity
  8
細線
100
AcDbLine
 10
122.8081613162124
 20
54.64704764627237
 30
0.0
 11
122.8081613162124
 21
50.42470203271079
 31
0.0
  0
LINE
  5
3B51
330
1F
100
AcDbEntity
  8
細線
100
AcDbLine
 10
112.8081613162124
 20
54.64704764627237
 30
0.0
 11
112.8081613162124
 21
50.42470203271079
 31
0.0
  0
LINE
  5
3B52
330
1F
100
AcDbEntity
  8
太線
100
AcDbLine
 10
111.8081613162124
 20
62.64704764627237
 30
0.0
 11
111.8081613162124
 21
68.69965339713279
 31
0.0
  0
LINE
  5
3B53
330
1F
100
AcDbEntity
  8
太線
100
AcDbLine
 10
123.8081613162123
 20
45.9595260581385
 30
0.0
 11
123.8081613162123
 21
31.59997257096563
 31
0.0
  0
LINE
  5
3B54
330
1F
100
AcDbEntity
  8
細線
100
AcDbLine
 10
122.8081613162123
 20
46.10952605813849
 30
0.0
 11
122.8081613162123
 21
31.59997257096563
 31
0.0
  0
LINE
  5
3B55
330
1F
100
AcDbEntity
  8
細線
100
AcDbLine
 10
112.8081613162124
 20
44.4988117724242
 30
0.0
 11
112.8081613162124
 21
31.59997257096563
 31
0.0
  0
LINE
  5
3B56
330
1F
100
AcDbEntity
  8
太線
100
AcDbLine
 10
111.8081613162124
 20
47.64166891528136
 30
0.0
 11
111.8081613162124
 21
50.42470203271079
 31
0.0
  0
XLINE
  5
3B5E
330
1F
100
AcDbEntity
  8
構築線
100
AcDbXline
 10
251.3088366387273
 20
124.444163218479
 30
0.0
 11
-1.0
 21
0.0
 31
0.0
  0
VIEWPORT
  5
2E
330
1B
100
AcDbEntity
 67
     1
  8
0
100
AcDbViewport
 10
273.6045687638686
 20
155.4745802917064
 30
0.0
 40
695.6136368388014
 41
333.26826973949
 68
     2
 69
     1
 12
273.6045687638686
 22
155.4745802917064
 13
0.0
 23
0.0
 14
10.0
 24
10.0
 15
10.0
 25
10.0
 16
0.0
 26
0.0
 36
1.0
 17
0.0
 27
0.0
 37
0.0
 42
50.0
 43
0.0
 44
0.0
 45
333.26826973949
 50
0.0
 51
0.0
 72
   100
 90
    32800
  1

281
     0
 71
     1
 74
     0
110
0.0
120
0.0
130
0.0
111
1.0
121
0.0
131
0.0
112
0.0
122
1.0
132
0.0
 79
     0
146
0.0
  0
VIEWPORT
  5
30
330
1B
100
AcDbEntity
 67
     1
  8
70-0-CON
100
AcDbViewport
 10
141.8594093064315
 20
100.3480256368386
 30
0.0
 40
261.6199023344245
 41
192.6196987113174
 68
     1
 69
     2
 12
201.7779522865162
 22
55.36675437563058
 13
0.0
 23
0.0
 14
5.0
 24
5.0
 15
10.0
 25
10.0
 16
0.0
 26
0.0
 36
1.0
 17
0.0
 27
0.0
 37
0.0
 42
50.0
 43
0.0
 44
0.0
 45
263.6058972686618
 50
0.0
 51
0.0
 72
   100
 90
    32864
  1

281
     0
 71
     1
 74
     0
110
0.0
120
0.0
130
0.0
111
1.0
121
0.0
131
0.0
112
0.0
122
1.0
132
0.0
 79
     0
146
0.0
  0
LWPOLYLINE
  5
45
330
1B
100
AcDbEntity
 67
     1
  8
50-0-CON
100
AcDbPolyline
 90
        4
 70
     1
 43
0.0
 10
11.04945813921926
 20
4.038176281179858
 10
272.2125713060605
 20
4.033520706629644
 10
273.4987754093466
 20
195.9297862125246
 10
11.04945813921926
 20
196.6578749924973
  0
LINE
  5
4A
330
1B
100
AcDbEntity
 67
     1
  8
50-0-CON
100
AcDbLine
 10
10.38768783662635
 20
100.3480256368386
 30
0.0
 11
-4.391850629656119
 21
100.3480256368386
 31
0.0
  0
LINE
  5
4B
330
1B
100
AcDbEntity
 67
     1
  8
50-0-CON
100
AcDbLine
 10
141.8594093064315
 20
197.098652626247
 30
0.0
 11
141.8594093064315
 21
202.387980773708
 31
0.0
  0
LINE
  5
4C
330
1B
100
AcDbEntity
 67
     1
  8
50-0-CON
100
AcDbLine
 10
272.4487699456857
 20
100.7888032705883
 30
0.0
 11
278.8458837249377
 21
100.7888032705883
 31
0.0
  0
LINE
  5
4D
330
1B
100
AcDbEntity
 67
     1
  8
50-0-CON
100
AcDbLine
 10
140.9770484758805
 20
4.038176281179858
 30
0.0
 11
140.9770484758805
 21
-3.455038652015446
 31
0.0
  0
ENDSEC
  0
SECTION
  2
OBJECTS
  0
DICTIONARY
  5
C
330
0
100
AcDbDictionary
281
     1
  3
ACAD_GROUP
350
D
  3
ACAD_LAYOUT
350
1A
  3
ACAD_MLINESTYLE
350
17
  3
ACAD_PLOTSETTINGS
350
19
  3
ACAD_PLOTSTYLENAME
350
E
  3
AcadDim
350
13D0
  3
AcDbVariableDictionary
350
6AD
  3
DWGPROPS
350
30F
  0
DICTIONARY
  5
D
102
{ACAD_REACTORS
330
C
102
}
330
C
100
AcDbDictionary
281
     1
  0
DICTIONARY
  5
1A
102
{ACAD_REACTORS
330
C
102
}
330
C
100
AcDbDictionary
281
     1
  3
A4
350
1E
  3
Model
350
22
  0
DICTIONARY
  5
17
102
{ACAD_REACTORS
330
C
102
}
330
C
100
AcDbDictionary
281
     1
  3
Standard
350
18
  0
DICTIONARY
  5
19
102
{ACAD_REACTORS
330
C
102
}
330
C
100
AcDbDictionary
281
     1
  0
ACDBDICTIONARYWDFLT
  5
E
102
{ACAD_REACTORS
330
C
102
}
330
C
100
AcDbDictionary
281
     1
  3
Normal
350
F
100
AcDbDictionaryWithDefault
340
F
  0
XRECORD
  5
13D0
102
{ACAD_REACTORS
330
C
102
}
330
C
100
AcDbXrecord
280
     1
 90
   990106
  3

 60
     0
 61
     0
 62
     1
 63
     3
 64
     0
 65
     0
 66
     0
 67
     3
 68
     1
 69
     0
 70
     0
 71
     0
 72
     0
 40
0.625
170
     0
340
3953
  0
DICTIONARY
  5
6AD
102
{ACAD_REACTORS
330
C
102
}
330
C
100
AcDbDictionary
281
     1
  3
SORTENTS
350
6AE
  0
XRECORD
  5
30F
102
{ACAD_REACTORS
330
C
102
}
330
C
100
AcDbXrecord
280
     1
  1
DWGPROPS COOKIE
  2

  3

  4

  6

  7

  8

  9

300
=
301
=
302
=
303
=
304
=
305
=
306
=
307
=
308
=
309
=
 40
0.3303803125
 41
2452362.482225463
 42
2452370.969861285
  1

 90
        0
  0
LAYOUT
  5
1E
102
{ACAD_REACTORS
330
1A
102
}
330
1A
100
AcDbPlotSettings
  1

  2
EPSON PM-920C
  4
A4
  6

 40
3.757083177566528
 41
14.7637300491333
 42
3.757080078125
 43
3.757080078125
 44
209.9733276367187
 45
296.9683227539062
 46
0.0
 47
0.0
 48
0.0
 49
0.0
140
0.0
141
0.0
142
1.0
143
1.0
 70
   688
 72
     1
 73
     1
 74
     5
  7
joint.ctb
 75
    16
147
1.0
148
0.0
149
0.0
100
AcDbLayout
  1
A4
 70
     1
 71
     1
 10
-3.757080078125
 20
-3.757083177566528
 11
293.2112426757812
 21
206.2162444591522
 12
0.0
 22
0.0
 32
0.0
 14
-4.391850629656119
 24
-3.455038652015446
 34
0.0
 15
278.8458837249377
 25
202.387980773708
 35
0.0
146
0.0
 13
0.0
 23
0.0
 33
0.0
 16
1.0
 26
0.0
 36
0.0
 17
0.0
 27
1.0
 37
0.0
 76
     0
330
1B
331
30
  0
LAYOUT
  5
22
102
{ACAD_REACTORS
330
1A
102
}
330
1A
100
AcDbPlotSettings
  1

  2
EPSON PM-920C
  4
A4
  6

 40
3.757083177566528
 41
14.7637300491333
 42
3.757080078125
 43
3.757080078125
 44
209.9733276367187
 45
296.9683227539062
 46
0.0
 47
0.0
 48
0.0
 49
0.0
140
0.0
141
0.0
142
1.0
143
1.0
 70
 11952
 72
     1
 73
     1
 74
     0
  7

 75
     0
147
1.0
148
-45.64199848979289
149
-84.48806419330498
100
AcDbLayout
  1
Model
 70
     1
 71
     0
 10
0.0
 20
0.0
 11
12.0
 21
9.0
 12
0.0
 22
0.0
 32
0.0
 14
0.0
 24
0.0
 34
0.0
 15
0.0
 25
0.0
 35
0.0
146
0.0
 13
0.0
 23
0.0
 33
0.0
 16
1.0
 26
0.0
 36
0.0
 17
0.0
 27
1.0
 37
0.0
 76
     0
330
1F
  0
MLINESTYLE
  5
18
102
{ACAD_REACTORS
330
17
102
}
330
17
100
AcDbMlineStyle
  2
STANDARD
 70
     0
  3

 62
   256
 51
90.0
 52
90.0
 71
     2
 49
0.5
 62
   256
  6
BYLAYER
 49
-0.5
 62
   256
  6
BYLAYER
  0
ACDBPLACEHOLDER
  5
F
102
{ACAD_REACTORS
330
E
102
}
330
E
  0
DICTIONARYVAR
  5
6AE
102
{ACAD_REACTORS
330
6AD
102
}
330
6AD
100
DictionaryVariables
280
     0
  1
96
  0
ENDSEC
  0
EOF
