  0
SECTION
  2
HEADER
  9
$ACADVER
  1
AC1015
  9
$ACADMAINTVER
 70
     6
  9
$DWGCODEPAGE
  3
ANSI_932
  9
$INSBASE
 10
0.0
 20
0.0
 30
0.0
  9
$EXTMIN
 10
73.17446743597564
 20
-77.9114774667903
 30
0.0
  9
$EXTMAX
 10
348.196544768897
 20
177.70818047913
 30
0.0
  9
$LIMMIN
 10
0.0
 20
0.0
  9
$LIMMAX
 10
420.0
 20
297.0
  9
$ORTHOMODE
 70
     0
  9
$REGENMODE
 70
     1
  9
$FILLMODE
 70
     1
  9
$QTEXTMODE
 70
     0
  9
$MIRRTEXT
 70
     1
  9
$LTSCALE
 40
1.0
  9
$ATTMODE
 70
     2
  9
$TEXTSIZE
 40
5.0
  9
$TRACEWID
 40
1.0
  9
$TEXTSTYLE
  7
OKANO
  9
$CLAYER
  8
太線
  9
$CELTYPE
  6
ByLayer
  9
$CECOLOR
 62
   256
  9
$CELTSCALE
 40
1.0
  9
$DISPSILH
 70
     0
  9
$DIMSCALE
 40
1.0
  9
$DIMASZ
 40
2.5
  9
$DIMEXO
 40
0.625
  9
$DIMDLI
 40
3.75
  9
$DIMRND
 40
0.0
  9
$DIMDLE
 40
0.0
  9
$DIMEXE
 40
1.25
  9
$DIMTP
 40
0.0
  9
$DIMTM
 40
0.0
  9
$DIMTXT
 40
2.5
  9
$DIMCEN
 40
2.5
  9
$DIMTSZ
 40
0.0
  9
$DIMTOL
 70
     0
  9
$DIMLIM
 70
     0
  9
$DIMTIH
 70
     0
  9
$DIMTOH
 70
     0
  9
$DIMSE1
 70
     0
  9
$DIMSE2
 70
     0
  9
$DIMTAD
 70
     1
  9
$DIMZIN
 70
     8
  9
$DIMBLK
  1

  9
$DIMASO
 70
     1
  9
$DIMSHO
 70
     1
  9
$DIMPOST
  1

  9
$DIMAPOST
  1

  9
$DIMALT
 70
     0
  9
$DIMALTD
 70
     3
  9
$DIMALTF
 40
0.03937007874016
  9
$DIMLFAC
 40
1.0
  9
$DIMTOFL
 70
     1
  9
$DIMTVP
 40
0.0
  9
$DIMTIX
 70
     0
  9
$DIMSOXD
 70
     0
  9
$DIMSAH
 70
     0
  9
$DIMBLK1
  1

  9
$DIMBLK2
  1

  9
$DIMSTYLE
  2
ISO-25
  9
$DIMCLRD
 70
     0
  9
$DIMCLRE
 70
     0
  9
$DIMCLRT
 70
     0
  9
$DIMTFAC
 40
1.0
  9
$DIMGAP
 40
0.625
  9
$DIMJUST
 70
     0
  9
$DIMSD1
 70
     0
  9
$DIMSD2
 70
     0
  9
$DIMTOLJ
 70
     0
  9
$DIMTZIN
 70
     8
  9
$DIMALTZ
 70
     0
  9
$DIMALTTZ
 70
     0
  9
$DIMUPT
 70
     0
  9
$DIMDEC
 70
     2
  9
$DIMTDEC
 70
     2
  9
$DIMALTU
 70
     2
  9
$DIMALTTD
 70
     3
  9
$DIMTXSTY
  7
Standard
  9
$DIMAUNIT
 70
     0
  9
$DIMADEC
 70
     0
  9
$DIMALTRND
 40
0.0
  9
$DIMAZIN
 70
     0
  9
$DIMDSEP
 70
    46
  9
$DIMATFIT
 70
     3
  9
$DIMFRAC
 70
     0
  9
$DIMLDRBLK
  1

  9
$DIMLUNIT
 70
     2
  9
$DIMLWD
 70
    -2
  9
$DIMLWE
 70
    -2
  9
$DIMTMOVE
 70
     0
  9
$LUNITS
 70
     2
  9
$LUPREC
 70
     2
  9
$SKETCHINC
 40
1.0
  9
$FILLETRAD
 40
3.0
  9
$AUNITS
 70
     0
  9
$AUPREC
 70
     0
  9
$MENU
  1
.
  9
$ELEVATION
 40
0.0
  9
$PELEVATION
 40
0.0
  9
$THICKNESS
 40
0.0
  9
$LIMCHECK
 70
     0
  9
$CHAMFERA
 40
10.0
  9
$CHAMFERB
 40
10.0
  9
$CHAMFERC
 40
20.0
  9
$CHAMFERD
 40
0.0
  9
$SKPOLY
 70
     0
  9
$TDCREATE
 40
2452362.482225463
  9
$TDUCREATE
 40
2452362.107225463
  9
$TDUPDATE
 40
2455957.593739410
  9
$TDUUPDATE
 40
2455957.218739410
  9
$TDINDWG
 40
2.4756871065
  9
$TDUSRTIMER
 40
2.4756871065
  9
$USRTIMER
 70
     1
  9
$ANGBASE
 50
0.0
  9
$ANGDIR
 70
     0
  9
$PDMODE
 70
     0
  9
$PDSIZE
 40
0.0
  9
$PLINEWID
 40
0.0
  9
$SPLFRAME
 70
     0
  9
$SPLINETYPE
 70
     6
  9
$SPLINESEGS
 70
     8
  9
$HANDSEED
  5
34CC
  9
$SURFTAB1
 70
     6
  9
$SURFTAB2
 70
     6
  9
$SURFTYPE
 70
     6
  9
$SURFU
 70
     6
  9
$SURFV
 70
     6
  9
$UCSBASE
  2

  9
$UCSNAME
  2

  9
$UCSORG
 10
0.0
 20
0.0
 30
0.0
  9
$UCSXDIR
 10
1.0
 20
0.0
 30
0.0
  9
$UCSYDIR
 10
0.0
 20
1.0
 30
0.0
  9
$UCSORTHOREF
  2

  9
$UCSORTHOVIEW
 70
     0
  9
$UCSORGTOP
 10
0.0
 20
0.0
 30
0.0
  9
$UCSORGBOTTOM
 10
0.0
 20
0.0
 30
0.0
  9
$UCSORGLEFT
 10
0.0
 20
0.0
 30
0.0
  9
$UCSORGRIGHT
 10
0.0
 20
0.0
 30
0.0
  9
$UCSORGFRONT
 10
0.0
 20
0.0
 30
0.0
  9
$UCSORGBACK
 10
0.0
 20
0.0
 30
0.0
  9
$PUCSBASE
  2

  9
$PUCSNAME
  2

  9
$PUCSORG
 10
0.0
 20
0.0
 30
0.0
  9
$PUCSXDIR
 10
1.0
 20
0.0
 30
0.0
  9
$PUCSYDIR
 10
0.0
 20
1.0
 30
0.0
  9
$PUCSORTHOREF
  2

  9
$PUCSORTHOVIEW
 70
     0
  9
$PUCSORGTOP
 10
0.0
 20
0.0
 30
0.0
  9
$PUCSORGBOTTOM
 10
0.0
 20
0.0
 30
0.0
  9
$PUCSORGLEFT
 10
0.0
 20
0.0
 30
0.0
  9
$PUCSORGRIGHT
 10
0.0
 20
0.0
 30
0.0
  9
$PUCSORGFRONT
 10
0.0
 20
0.0
 30
0.0
  9
$PUCSORGBACK
 10
0.0
 20
0.0
 30
0.0
  9
$USERI1
 70
     0
  9
$USERI2
 70
     0
  9
$USERI3
 70
     0
  9
$USERI4
 70
     0
  9
$USERI5
 70
     0
  9
$USERR1
 40
0.0
  9
$USERR2
 40
0.0
  9
$USERR3
 40
0.0
  9
$USERR4
 40
0.0
  9
$USERR5
 40
0.0
  9
$WORLDVIEW
 70
     1
  9
$SHADEDGE
 70
     3
  9
$SHADEDIF
 70
    70
  9
$TILEMODE
 70
     0
  9
$MAXACTVP
 70
    64
  9
$PINSBASE
 10
0.0
 20
0.0
 30
0.0
  9
$PLIMCHECK
 70
     0
  9
$PEXTMIN
 10
-4.391850629656119
 20
-3.455038652015446
 30
0.0
  9
$PEXTMAX
 10
278.8458837249377
 20
202.387980773708
 30
0.0
  9
$PLIMMIN
 10
-3.757080078125
 20
-3.757083177566528
  9
$PLIMMAX
 10
293.2112426757812
 20
206.2162444591522
  9
$UNITMODE
 70
     0
  9
$VISRETAIN
 70
     1
  9
$PLINEGEN
 70
     0
  9
$PSLTSCALE
 70
     1
  9
$TREEDEPTH
 70
  3020
  9
$CMLSTYLE
  2
Standard
  9
$CMLJUST
 70
     0
  9
$CMLSCALE
 40
20.0
  9
$PROXYGRAPHICS
 70
     1
  9
$MEASUREMENT
 70
     1
  9
$CELWEIGHT
370
    -1
  9
$ENDCAPS
280
     0
  9
$JOINSTYLE
280
     0
  9
$LWDISPLAY
290
     0
  9
$INSUNITS
 70
     4
  9
$HYPERLINKBASE
  1

  9
$STYLESHEET
  1

  9
$XEDIT
290
     1
  9
$CEPSNTYPE
380
     0
  9
$PSTYLEMODE
290
     1
  9
$FINGERPRINTGUID
  2
{FF7F33C3-4233-11D6-AEE0-0000F45FD7F4}
  9
$VERSIONGUID
  2
{82562AF8-7271-474B-A0B4-DEAD39018FFE}
  9
$EXTNAMES
290
     1
  9
$PSVPSCALE
 40
0.0
  9
$OLESTARTUP
290
     0
  0
ENDSEC
  0
SECTION
  2
CLASSES
  0
CLASS
  1
ACDBDICTIONARYWDFLT
  2
AcDbDictionaryWithDefault
  3
AutoCAD 2000
 90
        0
280
     0
281
     0
  0
CLASS
  1
ACDBPLACEHOLDER
  2
AcDbPlaceHolder
  3
AutoCAD 2000
 90
        0
280
     0
281
     0
  0
CLASS
  1
LAYOUT
  2
AcDbLayout
  3
AutoCAD 2000
 90
        0
280
     0
281
     0
  0
CLASS
  1
DICTIONARYVAR
  2
AcDbDictionaryVar
  3
AutoCAD 2000
 90
        0
280
     0
281
     0
  0
ENDSEC
  0
SECTION
  2
TABLES
  0
TABLE
  2
VPORT
  5
8
330
0
100
AcDbSymbolTable
 70
     2
  0
VPORT
  5
34CB
330
8
100
AcDbSymbolTableRecord
100
AcDbViewportTableRecord
  2
*Active
 70
     0
 10
0.0
 20
0.0
 11
1.0
 21
1.0
 12
183.1592740115988
 22
97.5756569573538
 13
0.0
 23
0.0
 14
5.0
 24
5.0
 15
10.0
 25
10.0
 16
0.0
 26
0.0
 36
1.0
 17
0.0
 27
0.0
 37
0.0
 40
280.6001922116252
 41
2.08724832214765
 42
50.0
 43
0.0
 44
0.0
 50
0.0
 51
0.0
 71
     0
 72
   100
 73
     1
 74
     2
 75
     0
 76
     0
 77
     0
 78
     0
281
     0
 65
     1
110
0.0
120
0.0
130
0.0
111
1.0
121
0.0
131
0.0
112
0.0
122
1.0
132
0.0
 79
     0
146
0.0
  0
ENDTAB
  0
TABLE
  2
LTYPE
  5
5
330
0
100
AcDbSymbolTable
 70
     5
  0
LTYPE
  5
14
330
5
100
AcDbSymbolTableRecord
100
AcDbLinetypeTableRecord
  2
ByBlock
 70
     0
  3

 72
    65
 73
     0
 40
0.0
  0
LTYPE
  5
15
330
5
100
AcDbSymbolTableRecord
100
AcDbLinetypeTableRecord
  2
ByLayer
 70
     0
  3

 72
    65
 73
     0
 40
0.0
  0
LTYPE
  5
16
330
5
100
AcDbSymbolTableRecord
100
AcDbLinetypeTableRecord
  2
Continuous
 70
     0
  3
Solid line
 72
    65
 73
     0
 40
0.0
  0
LTYPE
  5
33
330
5
100
AcDbSymbolTableRecord
100
AcDbLinetypeTableRecord
  2
DASHED2
 70
     0
  3
Dashed (.5x) _ _ _ _ _ _ _ _ _ _ _ _ _ _ _ _ _
 72
    65
 73
     2
 40
9.524999999999998
 49
6.349999999999999
 74
     0
 49
-3.174999999999999
 74
     0
  0
LTYPE
  5
34
330
5
100
AcDbSymbolTableRecord
100
AcDbLinetypeTableRecord
  2
CENTER2
 70
     0
  3
Center (.5x) ___ _ ___ _ ___ _ ___ _ ___ _ ___
 72
    65
 73
     4
 40
28.57499999999999
 49
19.05
 74
     0
 49
-3.174999999999999
 74
     0
 49
3.174999999999999
 74
     0
 49
-3.174999999999999
 74
     0
  0
LTYPE
  5
35
330
5
100
AcDbSymbolTableRecord
100
AcDbLinetypeTableRecord
  2
PHANTOM2
 70
     0
  3
Phantom (.5x) ___ _ _ ___ _ _ ___ _ _ ___ _ _
 72
    65
 73
     6
 40
31.75
 49
15.875
 74
     0
 49
-3.174999999999999
 74
     0
 49
3.174999999999999
 74
     0
 49
-3.174999999999999
 74
     0
 49
3.174999999999999
 74
     0
 49
-3.174999999999999
 74
     0
  0
LTYPE
  5
36
330
5
100
AcDbSymbolTableRecord
100
AcDbLinetypeTableRecord
  2
HIDDEN2
 70
     0
  3
Hidden (.5x) _ _ _ _ _ _ _ _ _ _ _ _ _ _ _ _ _
 72
    65
 73
     2
 40
4.762499999999999
 49
3.174999999999999
 74
     0
 49
-1.587499999999999
 74
     0
  0
ENDTAB
  0
TABLE
  2
LAYER
  5
2
330
0
100
AcDbSymbolTable
 70
    13
  0
LAYER
  5
10
330
2
100
AcDbSymbolTableRecord
100
AcDbLayerTableRecord
  2
0
 70
     0
 62
     7
  6
Continuous
370
    -3
390
F
  0
LAYER
  5
40
330
2
100
AcDbSymbolTableRecord
100
AcDbLayerTableRecord
  2
50-0-CON
 70
     0
 62
     4
  6
Continuous
370
    50
390
F
  0
LAYER
  5
41
330
2
100
AcDbSymbolTableRecord
100
AcDbLayerTableRecord
  2
70-0-CON
 70
     0
 62
   202
  6
Continuous
370
    70
390
F
  0
LAYER
  5
4E
330
2
100
AcDbSymbolTableRecord
100
AcDbLayerTableRecord
  2
極太線
 70
     0
 62
     7
  6
Continuous
370
    70
390
F
  0
LAYER
  5
4F
330
2
100
AcDbSymbolTableRecord
100
AcDbLayerTableRecord
  2
細線
 70
     0
 62
     8
  6
Continuous
370
    18
390
F
  0
LAYER
  5
AB
330
2
100
AcDbSymbolTableRecord
100
AcDbLayerTableRecord
  2
構築線
 70
     0
 62
    -2
  6
Continuous
370
    18
390
F
  0
LAYER
  5
B8
330
2
100
AcDbSymbolTableRecord
100
AcDbLayerTableRecord
  2
太線
 70
     0
 62
     7
  6
Continuous
370
    35
390
F
  0
LAYER
  5
B9
330
2
100
AcDbSymbolTableRecord
100
AcDbLayerTableRecord
  2
寸法線
 70
     0
 62
     5
  6
Continuous
370
    18
390
F
  0
LAYER
  5
BA
330
2
100
AcDbSymbolTableRecord
100
AcDbLayerTableRecord
  2
破線
 70
     0
 62
     8
  6
HIDDEN2
370
    18
390
F
  0
LAYER
  5
BB
330
2
100
AcDbSymbolTableRecord
100
AcDbLayerTableRecord
  2
中心線
 70
     0
 62
     1
  6
CENTER2
370
    18
390
F
  0
LAYER
  5
BC
330
2
100
AcDbSymbolTableRecord
100
AcDbLayerTableRecord
  2
想像線
 70
     0
 62
     8
  6
PHANTOM2
370
    18
390
F
  0
LAYER
  5
BD
330
2
100
AcDbSymbolTableRecord
100
AcDbLayerTableRecord
  2
文字
 70
     0
 62
     7
  6
Continuous
370
    18
390
F
  0
LAYER
  5
180
330
2
100
AcDbSymbolTableRecord
100
AcDbLayerTableRecord
  2
Defpoints
 70
     0
 62
     7
  6
Continuous
290
     0
370
    -3
390
F
  0
ENDTAB
  0
TABLE
  2
STYLE
  5
3
330
0
100
AcDbSymbolTable
 70
     3
  0
STYLE
  5
11
330
3
100
AcDbSymbolTableRecord
100
AcDbTextStyleTableRecord
  2
Standard
 70
     0
 40
0.0
 41
1.0
 50
0.0
 71
     0
 42
3.0
  3
txt
  4

  0
STYLE
  5
32
330
3
100
AcDbSymbolTableRecord
100
AcDbTextStyleTableRecord
  2

 70
     1
 40
0.0
 41
1.0
 50
0.0
 71
     0
 42
2.5
  3
ltypeshp.shx
  4

  0
STYLE
  5
50
330
3
100
AcDbSymbolTableRecord
100
AcDbTextStyleTableRecord
  2
OKANO
 70
     0
 40
0.0
 41
1.0
 50
15.0
 71
     0
 42
5.0
  3
isocp.shx
  4
bigfont.shx
  0
ENDTAB
  0
TABLE
  2
VIEW
  5
6
330
0
100
AcDbSymbolTable
 70
     0
  0
ENDTAB
  0
TABLE
  2
UCS
  5
7
330
0
100
AcDbSymbolTable
 70
     0
  0
ENDTAB
  0
TABLE
  2
APPID
  5
9
330
0
100
AcDbSymbolTable
 70
     1
  0
APPID
  5
12
330
9
100
AcDbSymbolTableRecord
100
AcDbRegAppTableRecord
  2
ACAD
 70
     0
  0
ENDTAB
  0
TABLE
  2
DIMSTYLE
  5
A
330
0
100
AcDbSymbolTable
 70
     2
100
AcDbDimStyleTable
 71
     2
340
27
340
A2
  0
DIMSTYLE
105
27
102
{ACAD_REACTORS
330
33BE
330
33CB
330
33DA
330
33E7
330
3401
330
340D
330
3438
330
3455
330
3462
330
3481
330
3497
102
}
330
A
100
AcDbSymbolTableRecord
100
AcDbDimStyleTableRecord
  2
ISO-25
 70
     0
 41
2.5
 42
0.625
 43
3.75
 44
1.25
 73
     0
 74
     0
 77
     1
 78
     8
140
2.5
141
2.5
143
0.03937007874016
147
0.625
171
     3
172
     1
271
     2
272
     2
274
     3
283
     0
284
     8
340
11
  0
DIMSTYLE
105
A2
330
A
100
AcDbSymbolTableRecord
100
AcDbDimStyleTableRecord
  2
sunpo
 70
     0
 40
0.0
 41
3.0
 42
2.0
 43
8.0
 44
3.0
 73
     0
 74
     0
 77
     1
 78
     8
140
5.0
141
2.5
143
0.03937007874016
147
1.0
171
     3
172
     1
271
     2
272
     2
274
     3
283
     0
284
     8
340
50
341
9B
342
9B
  0
ENDTAB
  0
TABLE
  2
BLOCK_RECORD
  5
1
330
0
100
AcDbSymbolTable
 70
    13
  0
BLOCK_RECORD
  5
1F
330
1
100
AcDbSymbolTableRecord
100
AcDbBlockTableRecord
  2
*Model_Space
340
22
  0
BLOCK_RECORD
  5
1B
330
1
100
AcDbSymbolTableRecord
100
AcDbBlockTableRecord
  2
*Paper_Space
340
1E
  0
BLOCK_RECORD
  5
9B
330
1
100
AcDbSymbolTableRecord
100
AcDbBlockTableRecord
  2
_Closed
340
0
  0
BLOCK_RECORD
  5
1510
330
1
100
AcDbSymbolTableRecord
100
AcDbBlockTableRecord
  2
A$C10A573AC
340
0
  0
BLOCK_RECORD
  5
33BF
330
1
100
AcDbSymbolTableRecord
100
AcDbBlockTableRecord
  2
*D2
340
0
  0
BLOCK_RECORD
  5
33CC
330
1
100
AcDbSymbolTableRecord
100
AcDbBlockTableRecord
  2
*D3
340
0
  0
BLOCK_RECORD
  5
33DB
330
1
100
AcDbSymbolTableRecord
100
AcDbBlockTableRecord
  2
*D4
340
0
  0
BLOCK_RECORD
  5
33E8
330
1
100
AcDbSymbolTableRecord
100
AcDbBlockTableRecord
  2
*D5
340
0
  0
BLOCK_RECORD
  5
3402
330
1
100
AcDbSymbolTableRecord
100
AcDbBlockTableRecord
  2
*D6
340
0
  0
BLOCK_RECORD
  5
340E
330
1
100
AcDbSymbolTableRecord
100
AcDbBlockTableRecord
  2
*D7
340
0
  0
BLOCK_RECORD
  5
3439
330
1
100
AcDbSymbolTableRecord
100
AcDbBlockTableRecord
  2
*D8
340
0
  0
BLOCK_RECORD
  5
3456
330
1
100
AcDbSymbolTableRecord
100
AcDbBlockTableRecord
  2
*D9
340
0
  0
BLOCK_RECORD
  5
3463
330
1
100
AcDbSymbolTableRecord
100
AcDbBlockTableRecord
  2
*D10
340
0
  0
BLOCK_RECORD
  5
3482
330
1
100
AcDbSymbolTableRecord
100
AcDbBlockTableRecord
  2
*D11
340
0
  0
BLOCK_RECORD
  5
3498
330
1
100
AcDbSymbolTableRecord
100
AcDbBlockTableRecord
  2
*D12
340
0
  0
ENDTAB
  0
ENDSEC
  0
SECTION
  2
BLOCKS
  0
BLOCK
  5
20
330
1F
100
AcDbEntity
  8
0
100
AcDbBlockBegin
  2
*Model_Space
 70
     0
 10
0.0
 20
0.0
 30
0.0
  3
*Model_Space
  1

  0
ENDBLK
  5
21
330
1F
100
AcDbEntity
  8
0
100
AcDbBlockEnd
  0
BLOCK
  5
1C
330
1B
100
AcDbEntity
 67
     1
  8
0
100
AcDbBlockBegin
  2
*Paper_Space
 70
     0
 10
0.0
 20
0.0
 30
0.0
  3
*Paper_Space
  1

  0
ENDBLK
  5
1D
330
1B
100
AcDbEntity
 67
     1
  8
0
100
AcDbBlockEnd
  0
BLOCK
  5
A0
330
9B
100
AcDbEntity
  8
0
100
AcDbBlockBegin
  2
_Closed
 70
     0
 10
0.0
 20
0.0
 30
0.0
  3
_Closed
  1

  0
LINE
  5
9C
330
9B
100
AcDbEntity
  8
0
 62
     0
370
    -2
100
AcDbLine
 10
-1.0
 20
0.1666666666666666
 30
0.0
 11
0.0
 21
0.0
 31
0.0
  0
LINE
  5
9D
330
9B
100
AcDbEntity
  8
0
 62
     0
370
    -2
100
AcDbLine
 10
0.0
 20
0.0
 30
0.0
 11
-1.0
 21
-0.1666666666666666
 31
0.0
  0
LINE
  5
9E
330
9B
100
AcDbEntity
  8
0
 62
     0
370
    -2
100
AcDbLine
 10
-1.0
 20
0.1666666666666666
 30
0.0
 11
-1.0
 21
-0.1666666666666666
 31
0.0
  0
LINE
  5
9F
330
9B
100
AcDbEntity
  8
0
 62
     0
370
    -2
100
AcDbLine
 10
0.0
 20
0.0
 30
0.0
 11
-1.0
 21
0.0
 31
0.0
  0
ENDBLK
  5
A1
330
9B
100
AcDbEntity
  8
0
100
AcDbBlockEnd
  0
BLOCK
  5
155B
330
1510
100
AcDbEntity
  8
0
100
AcDbBlockBegin
  2
A$C10A573AC
 70
     0
 10
0.0
 20
0.0
 30
0.0
  3
A$C10A573AC
  1

  0
TEXT
  5
1511
330
1510
100
AcDbEntity
  8
文字
100
AcDbText
 10
0.9844302777919438
 20
5.224957122252135
 30
0.0
 40
3.0
  1
Materal : Steel.
 51
15.0
  7
OKANO
100
AcDbText
  0
TEXT
  5
1512
330
1510
100
AcDbEntity
  8
文字
100
AcDbText
 10
-0.1141909619694843
 20
0.7500001922403499
 30
0.0
 40
3.0
  1
Surface treatment : Electro galvanized.
 51
15.0
  7
OKANO
100
AcDbText
  0
TEXT
  5
1513
330
1510
100
AcDbEntity
  8
文字
100
AcDbText
 10
-0.4901926332574931
 20
9.159967445193728
 30
0.0
 40
3.0
  1
5 TORGUE SCREW  M5-6
 51
15.0
  7
OKANO
100
AcDbText
  0
TEXT
  5
1514
330
1510
100
AcDbEntity
  8
文字
100
AcDbText
 10
1.364713526390005
 20
78.88822913323082
 30
0.0
 40
3.0
  1
Special standard,
 51
15.0
  7
OKANO
100
AcDbText
  0
TEXT
  5
1515
330
1510
100
AcDbEntity
  8
文字
100
AcDbText
 10
92.88160823408942
 20
89.92753849837379
 30
0.0
 40
3.0
  1
Screw Type
 51
15.0
  7
OKANO
100
AcDbText
  0
LINE
  5
1516
330
1510
100
AcDbEntity
  8
太線
100
AcDbLine
 10
113.9464587597784
 20
81.93930390144641
 30
0.0
 11
112.4464587597784
 21
81.93930390144641
 31
0.0
  0
LINE
  5
1517
330
1510
100
AcDbEntity
  8
太線
100
AcDbLine
 10
112.4464587597784
 20
76.9393039014464
 30
0.0
 11
121.4644995438761
 21
76.9393039014464
 31
0.0
  0
TEXT
  5
1518
330
1510
100
AcDbEntity
  8
文字
100
AcDbText
 10
93.46068240437217
 20
77.96976862235396
 30
0.0
 40
2.0
  1
17-30
 51
15.0
  7
OKANO
100
AcDbText
  0
LINE
  5
1519
330
1510
100
AcDbEntity
  8
太線
100
AcDbLine
 10
111.9464587597784
 20
81.43930390144641
 30
0.0
 11
111.9464587597784
 21
77.4393039014464
 31
0.0
  0
LINE
  5
151A
330
1510
100
AcDbEntity
  8
太線
100
AcDbLine
 10
91.94645875977846
 20
81.43930390144641
 30
0.0
 11
91.94645875977846
 21
77.43930390144639
 31
0.0
  0
LINE
  5
151B
330
1510
100
AcDbEntity
  8
太線
100
AcDbLine
 10
101.9644995438761
 20
77.4393039014464
 30
0.0
 11
101.9644995438761
 21
81.43930390144641
 31
0.0
  0
LINE
  5
151C
330
1510
100
AcDbEntity
  8
太線
100
AcDbLine
 10
92.44645875977846
 20
76.9393039014464
 30
0.0
 11
101.4644995438761
 21
76.9393039014464
 31
0.0
  0
ARC
  5
151D
330
1510
100
AcDbEntity
  8
太線
100
AcDbCircle
 10
92.44645875977846
 20
77.43930390144639
 30
0.0
 40
0.5
100
AcDbArc
 50
180.0
 51
270.0
  0
ARC
  5
151E
330
1510
100
AcDbEntity
  8
太線
100
AcDbCircle
 10
101.4644995438761
 20
77.4393039014464
 30
0.0
 40
0.5
100
AcDbArc
 50
270.0
 51
0.0
  0
ARC
  5
151F
330
1510
100
AcDbEntity
  8
太線
100
AcDbCircle
 10
112.4464587597784
 20
77.4393039014464
 30
0.0
 40
0.5
100
AcDbArc
 50
180.0
 51
270.0
  0
LINE
  5
1520
330
1510
100
AcDbEntity
  8
想像線
100
AcDbLine
 10
93.94645875977847
 20
81.93930390144641
 30
0.0
 11
99.96449954387617
 21
81.93930390144641
 31
0.0
  0
LINE
  5
1521
330
1510
100
AcDbEntity
  8
極太線
100
AcDbLine
 10
96.38762957111168
 20
85.43930390144641
 30
0.0
 11
97.50528794844525
 21
85.43930390144641
 31
0.0
  0
CIRCLE
  5
1522
330
1510
100
AcDbEntity
  8
太線
100
AcDbCircle
 10
96.94645875977847
 20
85.43930390144641
 30
0.0
 40
0.5588291886667776
  0
LINE
  5
1523
330
1510
100
AcDbEntity
  8
太線
100
AcDbLine
 10
99.46449954387617
 20
86.93930390144641
 30
0.0
 11
94.44645875977846
 21
86.93930390144641
 31
0.0
  0
LINE
  5
1524
330
1510
100
AcDbEntity
  8
太線
100
AcDbLine
 10
93.94645875977847
 20
86.43930390144641
 30
0.0
 11
93.94645875977847
 21
81.93930390144641
 31
0.0
  0
ARC
  5
1525
330
1510
100
AcDbEntity
  8
太線
100
AcDbCircle
 10
92.44645875977846
 20
81.43930390144641
 30
0.0
 40
0.5
100
AcDbArc
 50
90.0
 51
180.0
  0
LINE
  5
1526
330
1510
100
AcDbEntity
  8
太線
100
AcDbLine
 10
93.94645875977847
 20
81.93930390144641
 30
0.0
 11
92.44645875977846
 21
81.93930390144641
 31
0.0
  0
ARC
  5
1527
330
1510
100
AcDbEntity
  8
太線
100
AcDbCircle
 10
94.44645875977846
 20
86.43930390144641
 30
0.0
 40
0.5
100
AcDbArc
 50
90.0
 51
180.0
  0
LINE
  5
1528
330
1510
100
AcDbEntity
  8
太線
100
AcDbLine
 10
99.96449954387617
 20
81.93930390144641
 30
0.0
 11
99.96449954387617
 21
86.43930390144641
 31
0.0
  0
LINE
  5
1529
330
1510
100
AcDbEntity
  8
太線
100
AcDbLine
 10
101.4644995438761
 20
81.93930390144641
 30
0.0
 11
99.96449954387617
 21
81.93930390144641
 31
0.0
  0
ARC
  5
152A
330
1510
100
AcDbEntity
  8
太線
100
AcDbCircle
 10
101.4644995438761
 20
81.43930390144641
 30
0.0
 40
0.5
100
AcDbArc
 50
0.0
 51
90.0
  0
ARC
  5
152B
330
1510
100
AcDbEntity
  8
太線
100
AcDbCircle
 10
99.46449954387617
 20
86.43930390144641
 30
0.0
 40
0.5
100
AcDbArc
 50
0.0
 51
90.0
  0
LINE
  5
152C
330
1510
100
AcDbEntity
  8
極太線
100
AcDbLine
 10
96.94645875977847
 20
85.99813309011318
 30
0.0
 11
96.94645875977847
 21
84.88047471277964
 31
0.0
  0
ARC
  5
152D
330
1510
100
AcDbEntity
  8
太線
100
AcDbCircle
 10
112.4464587597784
 20
81.43930390144641
 30
0.0
 40
0.5
100
AcDbArc
 50
90.0
 51
180.0
  0
TEXT
  5
152E
330
1510
100
AcDbEntity
  8
文字
100
AcDbText
 10
134.3819212586066
 20
78.16263579228063
 30
0.0
 40
2.0
  1
101
 51
15.0
  7
OKANO
100
AcDbText
  0
TEXT
  5
152F
330
1510
100
AcDbEntity
  8
文字
100
AcDbText
 10
113.3422276612066
 20
77.96976862235396
 30
0.0
 40
2.0
  1
38-83
 51
15.0
  7
OKANO
100
AcDbText
  0
LINE
  5
1530
330
1510
100
AcDbEntity
  8
太線
100
AcDbLine
 10
141.9825403279738
 20
77.4393039014464
 30
0.0
 11
141.9825403279738
 21
81.43930390144641
 31
0.0
  0
LINE
  5
1531
330
1510
100
AcDbEntity
  8
太線
100
AcDbLine
 10
131.9644995438761
 20
81.43930390144641
 30
0.0
 11
131.9644995438761
 21
77.4393039014464
 31
0.0
  0
LINE
  5
1532
330
1510
100
AcDbEntity
  8
太線
100
AcDbLine
 10
121.9644995438761
 20
77.4393039014464
 30
0.0
 11
121.9644995438761
 21
81.43930390144641
 31
0.0
  0
ARC
  5
1533
330
1510
100
AcDbEntity
  8
太線
100
AcDbCircle
 10
121.4644995438761
 20
77.4393039014464
 30
0.0
 40
0.5
100
AcDbArc
 50
270.0
 51
0.0
  0
LINE
  5
1534
330
1510
100
AcDbEntity
  8
太線
100
AcDbLine
 10
132.4644995438761
 20
76.9393039014464
 30
0.0
 11
141.4825403279738
 21
76.9393039014464
 31
0.0
  0
ARC
  5
1535
330
1510
100
AcDbEntity
  8
太線
100
AcDbCircle
 10
132.4644995438761
 20
77.4393039014464
 30
0.0
 40
0.5
100
AcDbArc
 50
180.0
 51
270.0
  0
ARC
  5
1536
330
1510
100
AcDbEntity
  8
太線
100
AcDbCircle
 10
141.4825403279738
 20
77.4393039014464
 30
0.0
 40
0.5
100
AcDbArc
 50
270.0
 51
0.0
  0
ARC
  5
1537
330
1510
100
AcDbEntity
  8
太線
100
AcDbCircle
 10
121.4644995438761
 20
81.43930390144641
 30
0.0
 40
0.5
100
AcDbArc
 50
0.0
 51
90.0
  0
LINE
  5
1538
330
1510
100
AcDbEntity
  8
太線
100
AcDbLine
 10
119.9644995438761
 20
81.93930390144641
 30
0.0
 11
119.9644995438761
 21
86.43930390144641
 31
0.0
  0
LINE
  5
1539
330
1510
100
AcDbEntity
  8
太線
100
AcDbLine
 10
113.9464587597784
 20
86.43930390144641
 30
0.0
 11
113.9464587597784
 21
81.93930390144641
 31
0.0
  0
LINE
  5
153A
330
1510
100
AcDbEntity
  8
想像線
100
AcDbLine
 10
113.9464587597784
 20
81.93930390144641
 30
0.0
 11
119.9644995438761
 21
81.93930390144641
 31
0.0
  0
LINE
  5
153B
330
1510
100
AcDbEntity
  8
太線
100
AcDbLine
 10
121.4644995438761
 20
81.93930390144641
 30
0.0
 11
119.9644995438761
 21
81.93930390144641
 31
0.0
  0
LINE
  5
153C
330
1510
100
AcDbEntity
  8
太線
100
AcDbLine
 10
119.4644995438761
 20
86.93930390144641
 30
0.0
 11
114.4464587597784
 21
86.93930390144641
 31
0.0
  0
ARC
  5
153D
330
1510
100
AcDbEntity
  8
太線
100
AcDbCircle
 10
114.4464587597784
 20
86.43930390144641
 30
0.0
 40
0.5
100
AcDbArc
 50
90.0
 51
180.0
  0
CIRCLE
  5
153E
330
1510
100
AcDbEntity
  8
太線
100
AcDbCircle
 10
115.4464587597784
 20
85.43930390144641
 30
0.0
 40
0.5588291886667776
  0
LINE
  5
153F
330
1510
100
AcDbEntity
  8
極太線
100
AcDbLine
 10
115.4464587597784
 20
85.99813309011318
 30
0.0
 11
115.4464587597784
 21
84.88047471277964
 31
0.0
  0
LINE
  5
1540
330
1510
100
AcDbEntity
  8
極太線
100
AcDbLine
 10
114.8876295711116
 20
85.43930390144641
 30
0.0
 11
116.0052879484452
 21
85.43930390144641
 31
0.0
  0
ARC
  5
1541
330
1510
100
AcDbEntity
  8
太線
100
AcDbCircle
 10
119.4644995438761
 20
86.43930390144641
 30
0.0
 40
0.5
100
AcDbArc
 50
0.0
 51
90.0
  0
LINE
  5
1542
330
1510
100
AcDbEntity
  8
極太線
100
AcDbLine
 10
117.9056703552094
 20
85.43930390144641
 30
0.0
 11
119.0233287325429
 21
85.43930390144641
 31
0.0
  0
LINE
  5
1543
330
1510
100
AcDbEntity
  8
極太線
100
AcDbLine
 10
118.4644995438761
 20
85.99813309011318
 30
0.0
 11
118.4644995438761
 21
84.88047471277964
 31
0.0
  0
CIRCLE
  5
1544
330
1510
100
AcDbEntity
  8
太線
100
AcDbCircle
 10
118.4644995438761
 20
85.43930390144641
 30
0.0
 40
0.5588291886667776
  0
LINE
  5
1545
330
1510
100
AcDbEntity
  8
想像線
100
AcDbLine
 10
133.9644995438761
 20
81.93930390144641
 30
0.0
 11
139.9825403279738
 21
81.93930390144641
 31
0.0
  0
LINE
  5
1546
330
1510
100
AcDbEntity
  8
極太線
100
AcDbLine
 10
137.9237111393071
 20
85.43930390144641
 30
0.0
 11
139.0413695166406
 21
85.43930390144641
 31
0.0
  0
CIRCLE
  5
1547
330
1510
100
AcDbEntity
  8
太線
100
AcDbCircle
 10
138.4825403279738
 20
85.43930390144641
 30
0.0
 40
0.5588291886667776
  0
CIRCLE
  5
1548
330
1510
100
AcDbEntity
  8
太線
100
AcDbCircle
 10
138.4825403279738
 20
83.26342923362075
 30
0.0
 40
0.5588291886667776
  0
LINE
  5
1549
330
1510
100
AcDbEntity
  8
極太線
100
AcDbLine
 10
137.9237111393071
 20
83.26342923362075
 30
0.0
 11
139.0413695166406
 21
83.26342923362075
 31
0.0
  0
LINE
  5
154A
330
1510
100
AcDbEntity
  8
太線
100
AcDbLine
 10
139.4825403279738
 20
86.93930390144641
 30
0.0
 11
134.4644995438761
 21
86.93930390144641
 31
0.0
  0
LINE
  5
154B
330
1510
100
AcDbEntity
  8
太線
100
AcDbLine
 10
133.9644995438761
 20
86.43930390144641
 30
0.0
 11
133.9644995438761
 21
81.93930390144641
 31
0.0
  0
ARC
  5
154C
330
1510
100
AcDbEntity
  8
太線
100
AcDbCircle
 10
132.4644995438761
 20
81.43930390144641
 30
0.0
 40
0.5
100
AcDbArc
 50
90.0
 51
180.0
  0
LINE
  5
154D
330
1510
100
AcDbEntity
  8
太線
100
AcDbLine
 10
133.9644995438761
 20
81.93930390144641
 30
0.0
 11
132.4644995438761
 21
81.93930390144641
 31
0.0
  0
LINE
  5
154E
330
1510
100
AcDbEntity
  8
極太線
100
AcDbLine
 10
134.9056703552093
 20
83.26342923362075
 30
0.0
 11
136.0233287325429
 21
83.26342923362075
 31
0.0
  0
LINE
  5
154F
330
1510
100
AcDbEntity
  8
極太線
100
AcDbLine
 10
135.4644995438761
 20
83.82225842228752
 30
0.0
 11
135.4644995438761
 21
82.70460004495395
 31
0.0
  0
CIRCLE
  5
1550
330
1510
100
AcDbEntity
  8
太線
100
AcDbCircle
 10
135.4644995438761
 20
83.26342923362075
 30
0.0
 40
0.5588291886667776
  0
ARC
  5
1551
330
1510
100
AcDbEntity
  8
太線
100
AcDbCircle
 10
134.4644995438761
 20
86.43930390144641
 30
0.0
 40
0.5
100
AcDbArc
 50
90.0
 51
180.0
  0
CIRCLE
  5
1552
330
1510
100
AcDbEntity
  8
太線
100
AcDbCircle
 10
135.4644995438761
 20
85.43930390144641
 30
0.0
 40
0.5588291886667776
  0
LINE
  5
1553
330
1510
100
AcDbEntity
  8
極太線
100
AcDbLine
 10
135.4644995438761
 20
85.99813309011318
 30
0.0
 11
135.4644995438761
 21
84.88047471277964
 31
0.0
  0
LINE
  5
1554
330
1510
100
AcDbEntity
  8
極太線
100
AcDbLine
 10
134.9056703552093
 20
85.43930390144641
 30
0.0
 11
136.0233287325429
 21
85.43930390144641
 31
0.0
  0
LINE
  5
1555
330
1510
100
AcDbEntity
  8
太線
100
AcDbLine
 10
139.9825403279738
 20
81.93930390144641
 30
0.0
 11
139.9825403279738
 21
86.43930390144641
 31
0.0
  0
ARC
  5
1556
330
1510
100
AcDbEntity
  8
太線
100
AcDbCircle
 10
141.4825403279738
 20
81.43930390144641
 30
0.0
 40
0.5
100
AcDbArc
 50
0.0
 51
90.0
  0
LINE
  5
1557
330
1510
100
AcDbEntity
  8
極太線
100
AcDbLine
 10
138.4825403279738
 20
83.82225842228752
 30
0.0
 11
138.4825403279738
 21
82.70460004495395
 31
0.0
  0
LINE
  5
1558
330
1510
100
AcDbEntity
  8
太線
100
AcDbLine
 10
141.4825403279738
 20
81.93930390144641
 30
0.0
 11
139.9825403279738
 21
81.93930390144641
 31
0.0
  0
ARC
  5
1559
330
1510
100
AcDbEntity
  8
太線
100
AcDbCircle
 10
139.4825403279738
 20
86.43930390144641
 30
0.0
 40
0.5
100
AcDbArc
 50
0.0
 51
90.0
  0
LINE
  5
155A
330
1510
100
AcDbEntity
  8
極太線
100
AcDbLine
 10
138.4825403279738
 20
85.99813309011318
 30
0.0
 11
138.4825403279738
 21
84.88047471277964
 31
0.0
  0
ENDBLK
  5
155C
330
1510
100
AcDbEntity
  8
0
100
AcDbBlockEnd
  0
BLOCK
  5
33C9
330
33BF
100
AcDbEntity
  8
0
100
AcDbBlockBegin
  2
*D2
 70
     1
 10
0.0
 20
0.0
 30
0.0
  3
*D2
  1

  0
LINE
  5
33C0
330
33BF
100
AcDbEntity
  8
寸法線
 62
     0
370
    -2
100
AcDbLine
 10
226.1838366387273
 20
129.1211488256961
 30
0.0
 11
192.2551107339423
 21
129.1211488256961
 31
0.0
  0
LINE
  5
33C1
330
33BF
100
AcDbEntity
  8
寸法線
 62
     0
370
    -2
100
AcDbLine
 10
226.1838366387273
 20
160.1211488256961
 30
0.0
 11
192.2551107339423
 21
160.1211488256961
 31
0.0
  0
LINE
  5
33C2
330
33BF
100
AcDbEntity
  8
寸法線
 62
     0
370
    -2
100
AcDbLine
 10
193.5051107339423
 20
131.6211488256961
 30
0.0
 11
193.5051107339423
 21
157.6211488256961
 31
0.0
  0
SOLID
  5
33C3
330
33BF
100
AcDbEntity
  8
寸法線
 62
     0
100
AcDbTrace
 10
193.0884440672757
 20
131.6211488256961
 30
0.0
 11
193.921777400609
 21
131.6211488256961
 31
0.0
 12
193.5051107339423
 22
129.1211488256961
 32
0.0
 13
193.5051107339423
 23
129.1211488256961
 33
0.0
  0
SOLID
  5
33C4
330
33BF
100
AcDbEntity
  8
寸法線
 62
     0
100
AcDbTrace
 10
193.0884440672757
 20
157.6211488256961
 30
0.0
 11
193.921777400609
 21
157.6211488256961
 31
0.0
 12
193.5051107339423
 22
160.1211488256961
 32
0.0
 13
193.5051107339423
 23
160.1211488256961
 33
0.0
  0
MTEXT
  5
33C5
330
33BF
100
AcDbEntity
  8
寸法線
 62
     0
100
AcDbMText
 10
191.6301107339423
 20
144.6211488256962
 30
0.0
 40
2.5
 41
0.0
 71
     5
 72
     1
  1
31
 11
0.0000000000000001
 21
1.0
 31
0.0
 73
     1
 44
1.0
  0
POINT
  5
33C6
330
33BF
100
AcDbEntity
  8
Defpoints
 62
     0
100
AcDbPoint
 10
226.8088366387273
 20
129.1211488256961
 30
0.0
  0
POINT
  5
33C7
330
33BF
100
AcDbEntity
  8
Defpoints
 62
     0
100
AcDbPoint
 10
226.8088366387273
 20
160.1211488256961
 30
0.0
  0
POINT
  5
33C8
330
33BF
100
AcDbEntity
  8
Defpoints
 62
     0
100
AcDbPoint
 10
193.5051107339423
 20
160.1211488256961
 30
0.0
  0
ENDBLK
  5
33CA
330
33BF
100
AcDbEntity
  8
0
100
AcDbBlockEnd
  0
BLOCK
  5
33D8
330
33CC
100
AcDbEntity
  8
0
100
AcDbBlockBegin
  2
*D3
 70
     1
 10
0.0
 20
0.0
 30
0.0
  3
*D3
  1

  0
LINE
  5
341A
330
33CC
100
AcDbEntity
  8
寸法線
 62
     0
370
    -2
100
AcDbLine
 10
222.8088366387273
 20
156.9614019717143
 30
0.0
 11
222.8088366387273
 21
166.6531966490991
 31
0.0
  0
LINE
  5
341B
330
33CC
100
AcDbEntity
  8
寸法線
 62
     0
370
    -2
100
AcDbLine
 10
226.1838366387273
 20
160.7461488256961
 30
0.0
 11
226.1838366387273
 21
166.6531966490991
 31
0.0
  0
LINE
  5
341C
330
33CC
100
AcDbEntity
  8
寸法線
 62
     0
370
    -2
100
AcDbLine
 10
220.3088366387273
 20
165.4031966490991
 30
0.0
 11
217.8088366387273
 21
165.4031966490991
 31
0.0
  0
LINE
  5
341D
330
33CC
100
AcDbEntity
  8
寸法線
 62
     0
370
    -2
100
AcDbLine
 10
228.6838366387273
 20
165.4031966490991
 30
0.0
 11
231.1838366387273
 21
165.4031966490991
 31
0.0
  0
LINE
  5
341E
330
33CC
100
AcDbEntity
  8
寸法線
 62
     0
370
    -2
100
AcDbLine
 10
222.8088366387273
 20
165.4031966490991
 30
0.0
 11
226.1838366387273
 21
165.4031966490991
 31
0.0
  0
SOLID
  5
341F
330
33CC
100
AcDbEntity
  8
寸法線
 62
     0
100
AcDbTrace
 10
220.3088366387273
 20
165.8198633157658
 30
0.0
 11
220.3088366387273
 21
164.9865299824325
 31
0.0
 12
222.8088366387273
 22
165.4031966490991
 32
0.0
 13
222.8088366387273
 23
165.4031966490991
 33
0.0
  0
SOLID
  5
3420
330
33CC
100
AcDbEntity
  8
寸法線
 62
     0
100
AcDbTrace
 10
228.6838366387273
 20
165.8198633157658
 30
0.0
 11
228.6838366387273
 21
164.9865299824325
 31
0.0
 12
226.1838366387273
 22
165.4031966490991
 32
0.0
 13
226.1838366387273
 23
165.4031966490991
 33
0.0
  0
MTEXT
  5
3421
330
33CC
100
AcDbEntity
  8
寸法線
 62
     0
100
AcDbMText
 10
224.4963366387273
 20
167.2781966490991
 30
0.0
 40
2.5
 41
0.0
 71
     5
 72
     1
  1
4
 73
     1
 44
1.0
  0
POINT
  5
3422
330
33CC
100
AcDbEntity
  8
Defpoints
 62
     0
100
AcDbPoint
 10
222.8088366387273
 20
156.3364019717143
 30
0.0
  0
POINT
  5
3423
330
33CC
100
AcDbEntity
  8
Defpoints
 62
     0
100
AcDbPoint
 10
226.1838366387273
 20
160.1211488256961
 30
0.0
  0
POINT
  5
3424
330
33CC
100
AcDbEntity
  8
Defpoints
 62
     0
100
AcDbPoint
 10
226.1838366387273
 20
165.4031966490991
 30
0.0
  0
ENDBLK
  5
33D9
330
33CC
100
AcDbEntity
  8
0
100
AcDbBlockEnd
  0
BLOCK
  5
33E5
330
33DB
100
AcDbEntity
  8
0
100
AcDbBlockBegin
  2
*D4
 70
     1
 10
0.0
 20
0.0
 30
0.0
  3
*D4
  1

  0
LINE
  5
3425
330
33DB
100
AcDbEntity
  8
寸法線
 62
     0
370
    -2
100
AcDbLine
 10
144.8265140254043
 20
72.12114882569618
 30
0.0
 11
166.8520353664656
 21
72.12114882569617
 31
0.0
  0
LINE
  5
3426
330
33DB
100
AcDbEntity
  8
寸法線
 62
     0
370
    -2
100
AcDbLine
 10
144.8265140254043
 20
160.1211488256961
 30
0.0
 11
166.8520353664656
 21
160.1211488256961
 31
0.0
  0
LINE
  5
3427
330
33DB
100
AcDbEntity
  8
寸法線
 62
     0
370
    -2
100
AcDbLine
 10
165.6020353664656
 20
74.62114882569617
 30
0.0
 11
165.6020353664656
 21
157.6211488256961
 31
0.0
  0
SOLID
  5
3428
330
33DB
100
AcDbEntity
  8
寸法線
 62
     0
100
AcDbTrace
 10
165.185368699799
 20
74.62114882569617
 30
0.0
 11
166.0187020331323
 21
74.62114882569617
 31
0.0
 12
165.6020353664656
 22
72.12114882569617
 32
0.0
 13
165.6020353664656
 23
72.12114882569617
 33
0.0
  0
SOLID
  5
3429
330
33DB
100
AcDbEntity
  8
寸法線
 62
     0
100
AcDbTrace
 10
165.185368699799
 20
157.6211488256961
 30
0.0
 11
166.0187020331323
 21
157.6211488256961
 31
0.0
 12
165.6020353664656
 22
160.1211488256961
 32
0.0
 13
165.6020353664656
 23
160.1211488256961
 33
0.0
  0
MTEXT
  5
342A
330
33DB
100
AcDbEntity
  8
寸法線
 62
     0
100
AcDbMText
 10
163.7270353664656
 20
116.1211488256961
 30
0.0
 40
2.5
 41
0.0
 71
     5
 72
     1
  1
88.3
 11
0.0000000000000001
 21
1.0
 31
0.0
 73
     1
 44
1.0
  0
POINT
  5
342B
330
33DB
100
AcDbEntity
  8
Defpoints
 62
     0
100
AcDbPoint
 10
144.2015140254043
 20
72.12114882569618
 30
0.0
  0
POINT
  5
342C
330
33DB
100
AcDbEntity
  8
Defpoints
 62
     0
100
AcDbPoint
 10
144.2015140254043
 20
160.1211488256961
 30
0.0
  0
POINT
  5
342D
330
33DB
100
AcDbEntity
  8
Defpoints
 62
     0
100
AcDbPoint
 10
165.6020353664656
 20
160.1211488256961
 30
0.0
  0
ENDBLK
  5
33E6
330
33DB
100
AcDbEntity
  8
0
100
AcDbBlockEnd
  0
BLOCK
  5
33F2
330
33E8
100
AcDbEntity
  8
0
100
AcDbBlockBegin
  2
*D5
 70
     1
 10
0.0
 20
0.0
 30
0.0
  3
*D5
  1

  0
LINE
  5
33E9
330
33E8
100
AcDbEntity
  8
寸法線
 62
     0
370
    -2
100
AcDbLine
 10
111.7015140254043
 20
148.9675463326308
 30
0.0
 11
111.7015140254043
 21
175.83318047913
 31
0.0
  0
LINE
  5
33EA
330
33E8
100
AcDbEntity
  8
寸法線
 62
     0
370
    -2
100
AcDbLine
 10
122.7015140254043
 20
148.9675463326308
 30
0.0
 11
122.7015140254043
 21
175.83318047913
 31
0.0
  0
LINE
  5
33EB
330
33E8
100
AcDbEntity
  8
寸法線
 62
     0
370
    -2
100
AcDbLine
 10
114.2015140254043
 20
174.58318047913
 30
0.0
 11
120.2015140254043
 21
174.58318047913
 31
0.0
  0
SOLID
  5
33EC
330
33E8
100
AcDbEntity
  8
寸法線
 62
     0
100
AcDbTrace
 10
114.2015140254043
 20
174.9998471457967
 30
0.0
 11
114.2015140254043
 21
174.1665138124634
 31
0.0
 12
111.7015140254043
 22
174.58318047913
 32
0.0
 13
111.7015140254043
 23
174.58318047913
 33
0.0
  0
SOLID
  5
33ED
330
33E8
100
AcDbEntity
  8
寸法線
 62
     0
100
AcDbTrace
 10
120.2015140254043
 20
174.9998471457967
 30
0.0
 11
120.2015140254043
 21
174.1665138124634
 31
0.0
 12
122.7015140254043
 22
174.58318047913
 32
0.0
 13
122.7015140254043
 23
174.58318047913
 33
0.0
  0
MTEXT
  5
33EE
330
33E8
100
AcDbEntity
  8
寸法線
 62
     0
100
AcDbMText
 10
117.2015140254043
 20
176.45818047913
 30
0.0
 40
2.5
 41
0.0
 71
     5
 72
     1
  1
11
 73
     1
 44
1.0
  0
POINT
  5
33EF
330
33E8
100
AcDbEntity
  8
Defpoints
 62
     0
100
AcDbPoint
 10
111.7015140254043
 20
148.3425463326307
 30
0.0
  0
POINT
  5
33F0
330
33E8
100
AcDbEntity
  8
Defpoints
 62
     0
100
AcDbPoint
 10
122.7015140254043
 20
148.3425463326307
 30
0.0
  0
POINT
  5
33F1
330
33E8
100
AcDbEntity
  8
Defpoints
 62
     0
100
AcDbPoint
 10
122.7015140254043
 20
174.58318047913
 30
0.0
  0
ENDBLK
  5
33F3
330
33E8
100
AcDbEntity
  8
0
100
AcDbBlockEnd
  0
BLOCK
  5
340B
330
3402
100
AcDbEntity
  8
0
100
AcDbBlockBegin
  2
*D6
 70
     1
 10
0.0
 20
0.0
 30
0.0
  3
*D6
  1

  0
LINE
  5
3403
330
3402
100
AcDbEntity
  8
寸法線
 62
     0
370
    -2
100
AcDbLine
 10
148.35488146509
 20
175.1589453239335
 30
0.0
 11
137.4741146371773
 21
158.2948026845094
 31
0.0
  0
LINE
  5
3404
330
3402
100
AcDbEntity
  8
寸法線
 62
     0
370
    -2
100
AcDbLine
 10
132.0526085292774
 20
149.8919893745517
 30
0.0
 11
130.6972320023024
 21
147.7912860470622
 31
0.0
  0
MTEXT
  5
3405
330
3402
100
AcDbEntity
  8
寸法線
 62
     0
100
AcDbMText
 10
145.3110293985834
 20
173.899715781051
 30
0.0
 40
2.5
 41
0.0
 71
     5
 72
     1
  1
\U+22055
 11
0.5421506107899896
 21
0.840281330995781
 31
0.0
 73
     1
 44
1.0
  0
LINE
  5
3406
330
3402
100
AcDbEntity
  8
寸法線
 62
     0
370
    -2
100
AcDbLine
 10
133.4079850562524
 20
151.9926927020411
 30
0.0
 11
136.1187381102023
 21
156.19409935702
 31
0.0
  0
SOLID
  5
3407
330
3402
100
AcDbEntity
  8
寸法線
 62
     0
100
AcDbTrace
 10
131.7024913080292
 20
150.1178854623808
 30
0.0
 11
132.4027257505256
 21
149.6660932867225
 31
0.0
 12
133.4079850562524
 22
151.9926927020411
 32
0.0
 13
133.4079850562524
 23
151.9926927020411
 33
0.0
  0
SOLID
  5
3408
330
3402
100
AcDbEntity
  8
寸法線
 62
     0
100
AcDbTrace
 10
137.123997415929
 20
158.5206987723386
 30
0.0
 11
137.8242318584255
 21
158.0689065966803
 31
0.0
 12
136.1187381102023
 22
156.19409935702
 32
0.0
 13
136.1187381102023
 23
156.19409935702
 33
0.0
  0
POINT
  5
3409
330
3402
100
AcDbEntity
  8
Defpoints
 62
     0
100
AcDbPoint
 10
136.1187381102023
 20
156.19409935702
 30
0.0
  0
POINT
  5
340A
330
3402
100
AcDbEntity
  8
Defpoints
 62
     0
100
AcDbPoint
 10
133.4079850562524
 20
151.9926927020411
 30
0.0
  0
ENDBLK
  5
340C
330
3402
100
AcDbEntity
  8
0
100
AcDbBlockEnd
  0
BLOCK
  5
3418
330
340E
100
AcDbEntity
  8
0
100
AcDbBlockBegin
  2
*D7
 70
     1
 10
0.0
 20
0.0
 30
0.0
  3
*D7
  1

  0
LINE
  5
342E
330
340E
100
AcDbEntity
  8
寸法線
 62
     0
370
    -2
100
AcDbLine
 10
87.67759093418783
 20
38.5012296186942
 30
0.0
 11
87.67759093418783
 21
52.38620659113064
 31
0.0
  0
LINE
  5
342F
330
340E
100
AcDbEntity
  8
寸法線
 62
     0
370
    -2
100
AcDbLine
 10
147.2268384167063
 20
38.5012296186942
 30
0.0
 11
147.2268384167063
 21
52.38620659113064
 31
0.0
  0
LINE
  5
3430
330
340E
100
AcDbEntity
  8
寸法線
 62
     0
370
    -2
100
AcDbLine
 10
90.17759093418783
 20
51.13620659113064
 30
0.0
 11
144.7268384167063
 21
51.13620659113064
 31
0.0
  0
SOLID
  5
3431
330
340E
100
AcDbEntity
  8
寸法線
 62
     0
100
AcDbTrace
 10
90.17759093418783
 20
51.55287325779731
 30
0.0
 11
90.17759093418783
 21
50.71953992446398
 31
0.0
 12
87.67759093418783
 22
51.13620659113064
 32
0.0
 13
87.67759093418783
 23
51.13620659113064
 33
0.0
  0
SOLID
  5
3432
330
340E
100
AcDbEntity
  8
寸法線
 62
     0
100
AcDbTrace
 10
144.7268384167063
 20
51.55287325779731
 30
0.0
 11
144.7268384167063
 21
50.71953992446398
 31
0.0
 12
147.2268384167063
 22
51.13620659113064
 32
0.0
 13
147.2268384167063
 23
51.13620659113064
 33
0.0
  0
MTEXT
  5
3433
330
340E
100
AcDbEntity
  8
寸法線
 62
     0
100
AcDbMText
 10
117.452214675447
 20
53.01120659113064
 30
0.0
 40
2.5
 41
0.0
 71
     5
 72
     1
  1
60
 73
     1
 44
1.0
  0
POINT
  5
3434
330
340E
100
AcDbEntity
  8
Defpoints
 62
     0
100
AcDbPoint
 10
87.67759093418783
 20
37.87622961869419
 30
0.0
  0
POINT
  5
3435
330
340E
100
AcDbEntity
  8
Defpoints
 62
     0
100
AcDbPoint
 10
147.2268384167063
 20
37.87622961869419
 30
0.0
  0
POINT
  5
3436
330
340E
100
AcDbEntity
  8
Defpoints
 62
     0
100
AcDbPoint
 10
147.2268384167063
 20
51.13620659113064
 30
0.0
  0
ENDBLK
  5
3419
330
340E
100
AcDbEntity
  8
0
100
AcDbBlockEnd
  0
BLOCK
  5
3443
330
3439
100
AcDbEntity
  8
0
100
AcDbBlockBegin
  2
*D8
 70
     1
 10
0.0
 20
0.0
 30
0.0
  3
*D8
  1

  0
LINE
  5
3445
330
3439
100
AcDbEntity
  8
寸法線
 62
     0
370
    -2
100
AcDbLine
 10
116.3655347258788
 20
151.8942429353214
 30
0.0
 11
75.04946743597566
 21
151.8942429353214
 31
0.0
  0
LINE
  5
3446
330
3439
100
AcDbEntity
  8
寸法線
 62
     0
370
    -2
100
AcDbLine
 10
116.3655347258788
 20
135.4485749091295
 30
0.0
 11
75.04946743597566
 21
135.4485749091295
 31
0.0
  0
LINE
  5
3447
330
3439
100
AcDbEntity
  8
寸法線
 62
     0
370
    -2
100
AcDbLine
 10
76.29946743597566
 20
149.3942429353214
 30
0.0
 11
76.29946743597566
 21
137.9485749091295
 31
0.0
  0
SOLID
  5
3448
330
3439
100
AcDbEntity
  8
寸法線
 62
     0
100
AcDbTrace
 10
75.88280076930899
 20
149.3942429353214
 30
0.0
 11
76.71613410264233
 21
149.3942429353214
 31
0.0
 12
76.29946743597566
 22
151.8942429353214
 32
0.0
 13
76.29946743597566
 23
151.8942429353214
 33
0.0
  0
SOLID
  5
3449
330
3439
100
AcDbEntity
  8
寸法線
 62
     0
100
AcDbTrace
 10
75.88280076930899
 20
137.9485749091295
 30
0.0
 11
76.71613410264233
 21
137.9485749091295
 31
0.0
 12
76.29946743597566
 22
135.4485749091295
 32
0.0
 13
76.29946743597566
 23
135.4485749091295
 33
0.0
  0
MTEXT
  5
344A
330
3439
100
AcDbEntity
  8
寸法線
 62
     0
100
AcDbMText
 10
74.42446743597564
 20
143.6714089222255
 30
0.0
 40
2.5
 41
0.0
 71
     5
 72
     1
  1
17
 11
0.0000000000000001
 21
1.0
 31
0.0
 73
     1
 44
1.0
  0
POINT
  5
344B
330
3439
100
AcDbEntity
  8
Defpoints
 62
     0
100
AcDbPoint
 10
116.9905347258788
 20
151.8942429353214
 30
0.0
  0
POINT
  5
344C
330
3439
100
AcDbEntity
  8
Defpoints
 62
     0
100
AcDbPoint
 10
116.9905347258788
 20
135.4485749091295
 30
0.0
  0
POINT
  5
344D
330
3439
100
AcDbEntity
  8
Defpoints
 62
     0
100
AcDbPoint
 10
76.29946743597566
 20
135.4485749091295
 30
0.0
  0
ENDBLK
  5
3444
330
3439
100
AcDbEntity
  8
0
100
AcDbBlockEnd
  0
BLOCK
  5
3460
330
3456
100
AcDbEntity
  8
0
100
AcDbBlockBegin
  2
*D9
 70
     1
 10
0.0
 20
0.0
 30
0.0
  3
*D9
  1

  0
LINE
  5
346F
330
3456
100
AcDbEntity
  8
寸法線
 62
     0
370
    -2
100
AcDbLine
 10
147.8265140254043
 20
33.42433914215007
 30
0.0
 11
167.2771995637656
 21
33.42433914215007
 31
0.0
  0
LINE
  5
3470
330
3456
100
AcDbEntity
  8
寸法線
 62
     0
370
    -2
100
AcDbLine
 10
147.8265140254043
 20
-15.57566085784992
 30
0.0
 11
167.2771995637656
 21
-15.57566085784993
 31
0.0
  0
LINE
  5
3471
330
3456
100
AcDbEntity
  8
寸法線
 62
     0
370
    -2
100
AcDbLine
 10
166.0271995637656
 20
30.92433914215007
 30
0.0
 11
166.0271995637656
 21
-13.07566085784993
 31
0.0
  0
SOLID
  5
3472
330
3456
100
AcDbEntity
  8
寸法線
 62
     0
100
AcDbTrace
 10
165.6105328970989
 20
30.92433914215007
 30
0.0
 11
166.4438662304323
 21
30.92433914215007
 31
0.0
 12
166.0271995637656
 22
33.42433914215007
 32
0.0
 13
166.0271995637656
 23
33.42433914215007
 33
0.0
  0
SOLID
  5
3473
330
3456
100
AcDbEntity
  8
寸法線
 62
     0
100
AcDbTrace
 10
165.6105328970989
 20
-13.07566085784993
 30
0.0
 11
166.4438662304323
 21
-13.07566085784993
 31
0.0
 12
166.0271995637656
 22
-15.57566085784993
 32
0.0
 13
166.0271995637656
 23
-15.57566085784993
 33
0.0
  0
MTEXT
  5
3474
330
3456
100
AcDbEntity
  8
寸法線
 62
     0
100
AcDbMText
 10
164.1521995637656
 20
8.924339142150095
 30
0.0
 40
2.5
 41
0.0
 71
     5
 72
     1
  1
49.6
 11
0.0000000000000001
 21
1.0
 31
0.0
 73
     1
 44
1.0
  0
POINT
  5
3475
330
3456
100
AcDbEntity
  8
Defpoints
 62
     0
100
AcDbPoint
 10
147.2015140254043
 20
33.42433914215007
 30
0.0
  0
POINT
  5
3476
330
3456
100
AcDbEntity
  8
Defpoints
 62
     0
100
AcDbPoint
 10
147.2015140254043
 20
-15.57566085784992
 30
0.0
  0
POINT
  5
3477
330
3456
100
AcDbEntity
  8
Defpoints
 62
     0
100
AcDbPoint
 10
166.0271995637656
 20
-15.57566085784993
 30
0.0
  0
ENDBLK
  5
3461
330
3456
100
AcDbEntity
  8
0
100
AcDbBlockEnd
  0
BLOCK
  5
346D
330
3463
100
AcDbEntity
  8
0
100
AcDbBlockBegin
  2
*D10
 70
     1
 10
0.0
 20
0.0
 30
0.0
  3
*D10
  1

  0
LINE
  5
3478
330
3463
100
AcDbEntity
  8
寸法線
 62
     0
370
    -2
100
AcDbLine
 10
86.57651402540432
 20
33.42433914215007
 30
0.0
 11
77.64548725536521
 21
33.42433914215008
 31
0.0
  0
LINE
  5
3479
330
3463
100
AcDbEntity
  8
寸法線
 62
     0
370
    -2
100
AcDbLine
 10
86.57651402540432
 20
-15.57566085784992
 30
0.0
 11
77.6454872553652
 21
-15.57566085784992
 31
0.0
  0
LINE
  5
347A
330
3463
100
AcDbEntity
  8
寸法線
 62
     0
370
    -2
100
AcDbLine
 10
78.8954872553652
 20
30.92433914215007
 30
0.0
 11
78.8954872553652
 21
-13.07566085784992
 31
0.0
  0
SOLID
  5
347B
330
3463
100
AcDbEntity
  8
寸法線
 62
     0
100
AcDbTrace
 10
78.47882058869853
 20
30.92433914215007
 30
0.0
 11
79.31215392203187
 21
30.92433914215007
 31
0.0
 12
78.89548725536521
 22
33.42433914215008
 32
0.0
 13
78.89548725536521
 23
33.42433914215008
 33
0.0
  0
SOLID
  5
347C
330
3463
100
AcDbEntity
  8
寸法線
 62
     0
100
AcDbTrace
 10
78.47882058869853
 20
-13.07566085784992
 30
0.0
 11
79.31215392203187
 21
-13.07566085784992
 31
0.0
 12
78.8954872553652
 22
-15.57566085784992
 32
0.0
 13
78.8954872553652
 23
-15.57566085784992
 33
0.0
  0
MTEXT
  5
347D
330
3463
100
AcDbEntity
  8
寸法線
 62
     0
100
AcDbMText
 10
77.0204872553652
 20
8.92433914215009
 30
0.0
 40
2.5
 41
0.0
 71
     5
 72
     1
  1
49.3
 11
0.0000000000000001
 21
1.0
 31
0.0
 73
     1
 44
1.0
  0
POINT
  5
347E
330
3463
100
AcDbEntity
  8
Defpoints
 62
     0
100
AcDbPoint
 10
87.20151402540432
 20
33.42433914215007
 30
0.0
  0
POINT
  5
347F
330
3463
100
AcDbEntity
  8
Defpoints
 62
     0
100
AcDbPoint
 10
87.20151402540432
 20
-15.57566085784992
 30
0.0
  0
POINT
  5
3480
330
3463
100
AcDbEntity
  8
Defpoints
 62
     0
100
AcDbPoint
 10
78.8954872553652
 20
-15.57566085784992
 30
0.0
  0
ENDBLK
  5
346E
330
3463
100
AcDbEntity
  8
0
100
AcDbBlockEnd
  0
BLOCK
  5
348C
330
3482
100
AcDbEntity
  8
0
100
AcDbBlockBegin
  2
*D11
 70
     1
 10
0.0
 20
0.0
 30
0.0
  3
*D11
  1

  0
LINE
  5
348E
330
3482
100
AcDbEntity
  8
寸法線
 62
     0
370
    -2
100
AcDbLine
 10
222.8088366387273
 20
71.49614882569617
 30
0.0
 11
222.8088366387273
 21
41.13425464404452
 31
0.0
  0
LINE
  5
348F
330
3482
100
AcDbEntity
  8
寸法線
 62
     0
370
    -2
100
AcDbLine
 10
279.7385745903863
 20
97.99614882569617
 30
0.0
 11
279.7385745903863
 21
41.13425464404452
 31
0.0
  0
LINE
  5
3490
330
3482
100
AcDbEntity
  8
寸法線
 62
     0
370
    -2
100
AcDbLine
 10
225.3088366387273
 20
42.38425464404452
 30
0.0
 11
277.2385745903863
 21
42.38425464404452
 31
0.0
  0
SOLID
  5
3491
330
3482
100
AcDbEntity
  8
寸法線
 62
     0
100
AcDbTrace
 10
225.3088366387273
 20
42.80092131071118
 30
0.0
 11
225.3088366387273
 21
41.96758797737785
 31
0.0
 12
222.8088366387273
 22
42.38425464404452
 32
0.0
 13
222.8088366387273
 23
42.38425464404452
 33
0.0
  0
SOLID
  5
3492
330
3482
100
AcDbEntity
  8
寸法線
 62
     0
100
AcDbTrace
 10
277.2385745903863
 20
42.80092131071118
 30
0.0
 11
277.2385745903863
 21
41.96758797737785
 31
0.0
 12
279.7385745903863
 22
42.38425464404452
 32
0.0
 13
279.7385745903863
 23
42.38425464404452
 33
0.0
  0
MTEXT
  5
3493
330
3482
100
AcDbEntity
  8
寸法線
 62
     0
100
AcDbMText
 10
251.2737056145568
 20
44.25925464404452
 30
0.0
 40
2.5
 41
0.0
 71
     5
 72
     1
  1
57.3
 73
     1
 44
1.0
  0
POINT
  5
3494
330
3482
100
AcDbEntity
  8
Defpoints
 62
     0
100
AcDbPoint
 10
222.8088366387273
 20
72.12114882569617
 30
0.0
  0
POINT
  5
3495
330
3482
100
AcDbEntity
  8
Defpoints
 62
     0
100
AcDbPoint
 10
279.7385745903863
 20
98.62114882569617
 30
0.0
  0
POINT
  5
3496
330
3482
100
AcDbEntity
  8
Defpoints
 62
     0
100
AcDbPoint
 10
279.7385745903863
 20
42.38425464404452
 30
0.0
  0
ENDBLK
  5
348D
330
3482
100
AcDbEntity
  8
0
100
AcDbBlockEnd
  0
BLOCK
  5
34A4
330
3498
100
AcDbEntity
  8
0
100
AcDbBlockBegin
  2
*D12
 70
     1
 10
0.0
 20
0.0
 30
0.0
  3
*D12
  1

  0
LINE
  5
34A6
330
3498
100
AcDbEntity
  8
寸法線
 62
     0
370
    -2
100
AcDbLine
 10
275.6464966507071
 20
104.6374820815351
 30
0.0
 11
275.6464966507071
 21
137.5862890639034
 31
0.0
  0
LINE
  5
34A7
330
3498
100
AcDbEntity
  8
寸法線
 62
     0
370
    -2
100
AcDbLine
 10
279.5574897575006
 20
104.9926890014536
 30
0.0
 11
279.5574897575006
 21
137.5862890639034
 31
0.0
  0
LINE
  5
34A8
330
3498
100
AcDbEntity
  8
寸法線
 62
     0
370
    -2
100
AcDbLine
 10
273.1464966507071
 20
136.3362890639034
 30
0.0
 11
270.6464966507071
 21
136.3362890639034
 31
0.0
  0
LINE
  5
34A9
330
3498
100
AcDbEntity
  8
寸法線
 62
     0
370
    -2
100
AcDbLine
 10
282.0574897575006
 20
136.3362890639034
 30
0.0
 11
284.5574897575006
 21
136.3362890639034
 31
0.0
  0
LINE
  5
34AA
330
3498
100
AcDbEntity
  8
寸法線
 62
     0
370
    -2
100
AcDbLine
 10
275.6464966507071
 20
136.3362890639034
 30
0.0
 11
279.5574897575006
 21
136.3362890639034
 31
0.0
  0
SOLID
  5
34AB
330
3498
100
AcDbEntity
  8
寸法線
 62
     0
100
AcDbTrace
 10
273.1464966507071
 20
136.7529557305701
 30
0.0
 11
273.1464966507071
 21
135.9196223972368
 31
0.0
 12
275.6464966507071
 22
136.3362890639034
 32
0.0
 13
275.6464966507071
 23
136.3362890639034
 33
0.0
  0
SOLID
  5
34AC
330
3498
100
AcDbEntity
  8
寸法線
 62
     0
100
AcDbTrace
 10
282.0574897575006
 20
136.7529557305701
 30
0.0
 11
282.0574897575006
 21
135.9196223972368
 31
0.0
 12
279.5574897575006
 22
136.3362890639034
 32
0.0
 13
279.5574897575006
 23
136.3362890639034
 33
0.0
  0
MTEXT
  5
34AD
330
3498
100
AcDbEntity
  8
寸法線
 62
     0
100
AcDbMText
 10
277.6019932041039
 20
138.2112890639034
 30
0.0
 40
2.5
 41
0.0
 71
     5
 72
     1
  1
4
 73
     1
 44
1.0
  0
POINT
  5
34AE
330
3498
100
AcDbEntity
  8
Defpoints
 62
     0
100
AcDbPoint
 10
275.6464966507071
 20
104.0124820815351
 30
0.0
  0
POINT
  5
34AF
330
3498
100
AcDbEntity
  8
Defpoints
 62
     0
100
AcDbPoint
 10
279.5574897575006
 20
104.3676890014536
 30
0.0
  0
POINT
  5
34B0
330
3498
100
AcDbEntity
  8
Defpoints
 62
     0
100
AcDbPoint
 10
279.5574897575006
 20
136.3362890639034
 30
0.0
  0
ENDBLK
  5
34A5
330
3498
100
AcDbEntity
  8
0
100
AcDbBlockEnd
  0
ENDSEC
  0
SECTION
  2
ENTITIES
  0
TEXT
  5
29C1
330
1F
100
AcDbEntity
  8
文字
100
AcDbText
 10
287.7440372230388
 20
-67.43860538178703
 30
0.0
 40
3.599999999999999
  1
SET SCREW COUP
 51
15.0
  7
OKANO
100
AcDbText
  0
TEXT
  5
29C2
330
1F
100
AcDbEntity
  8
文字
100
AcDbText
 10
275.1070859623077
 20
-74.94304132364773
 30
0.0
 40
4.799999999999999
  1
joint kogyo T.okano
 51
15.0
  7
OKANO
100
AcDbText
  0
TEXT
  5
29C3
330
1F
100
AcDbEntity
  8
文字
100
AcDbText
 10
267.6187729505109
 20
-60.19066981635994
 30
0.0
 40
4.799999999999999
  1
F-999-20040824 Auto CAD
 51
15.0
  7
OKANO
100
AcDbText
  0
LINE
  5
29C4
330
1F
100
AcDbEntity
  8
太線
100
AcDbLine
 10
240.196544768897
 20
-61.1114774667903
 30
0.0
 11
348.196544768897
 21
-61.1114774667903
 31
0.0
  0
LWPOLYLINE
  5
29C5
330
1F
100
AcDbEntity
  8
太線
100
AcDbPolyline
 90
        4
 70
     1
 43
0.0
 10
240.196544768897
 20
-52.7114774667903
 10
348.196544768897
 20
-52.7114774667903
 10
348.196544768897
 20
-77.9114774667903
 10
240.196544768897
 20
-77.9114774667903
  0
TEXT
  5
29C6
330
1F
100
AcDbEntity
  8
文字
100
AcDbText
 10
244.0689283349545
 20
-69.30498926564098
 30
0.0
 40
2.399999999999999
  1
CHECK
 51
15.0
  7
OKANO
100
AcDbText
  0
LINE
  5
29C7
330
1F
100
AcDbEntity
  8
太線
100
AcDbLine
 10
264.196544768897
 20
-52.7114774667903
 30
0.0
 11
264.196544768897
 21
-77.9114774667903
 31
0.0
  0
TEXT
  5
29C8
330
1F
100
AcDbEntity
  8
文字
100
AcDbText
 10
244.0689283349545
 20
-76.22441687185681
 30
0.0
 40
2.399999999999999
  1
ISSUED
 51
15.0
  7
OKANO
100
AcDbText
  0
TEXT
  5
29C9
330
1F
100
AcDbEntity
  8
文字
100
AcDbText
 10
244.3254427678553
 20
-72.89284068258867
 30
0.0
 40
2.399999999999999
  1
APPR
 51
15.0
  7
OKANO
100
AcDbText
  0
TEXT
  5
29CA
330
1F
100
AcDbEntity
  8
文字
100
AcDbText
 10
242.2733327832688
 20
-59.31026128802514
 30
0.0
 40
2.399999999999999
  1
FILM NAME
 51
15.0
  7
OKANO
100
AcDbText
  0
TEXT
  5
29CB
330
1F
100
AcDbEntity
  8
文字
100
AcDbText
 10
243.5559016606009
 20
-65.71713843888194
 30
0.0
 40
2.399999999999999
  1
DRAWN
 51
15.0
  7
OKANO
100
AcDbText
  0
TEXT
  5
29CC
330
1F
100
AcDbEntity
  8
文字
100
AcDbText
 10
267.3054657259754
 20
-68.61291102775635
 30
0.0
 40
4.799999999999999
  1
13-1F
 51
15.0
  7
OKANO
100
AcDbText
  0
XLINE
  5
29D1
330
1F
100
AcDbEntity
  8
構築線
370
     5
100
AcDbXline
 10
40.70151402540432
 20
260.4711488256961
 30
0.0
 11
1.0
 21
0.0
 31
0.0
  0
XLINE
  5
325A
330
1F
100
AcDbEntity
  8
構築線
370
     5
100
AcDbXline
 10
117.2015140254043
 20
178.0193172078315
 30
0.0
 11
0.0
 21
-1.0
 31
0.0
  0
XLINE
  5
327C
330
1F
100
AcDbEntity
  8
構築線
100
AcDbXline
 10
251.3088366387273
 20
100.9313836067921
 30
0.0
 11
0.0
 21
1.0
 31
0.0
  0
XLINE
  5
329E
330
1F
100
AcDbEntity
  8
構築線
100
AcDbXline
 10
226.8088366387273
 20
86.06092904713513
 30
0.0
 11
1.0
 21
0.0
 31
0.0
  0
XLINE
  5
32A2
330
1F
100
AcDbEntity
  8
構築線
100
AcDbXline
 10
102.1295760136831
 20
8.924339142150074
 30
0.0
 11
1.0
 21
0.0
 31
0.0
  0
LINE
  5
32F2
330
1F
100
AcDbEntity
  8
太線
100
AcDbLine
 10
87.20151402540432
 20
75.12114882569616
 30
0.0
 11
87.20151402540432
 21
157.1211488256961
 31
0.0
  0
LINE
  5
32F3
330
1F
100
AcDbEntity
  8
太線
100
AcDbLine
 10
90.20151402540433
 20
160.1211488256961
 30
0.0
 11
144.2015140254043
 21
160.1211488256961
 31
0.0
  0
LINE
  5
32F4
330
1F
100
AcDbEntity
  8
太線
100
AcDbLine
 10
147.2015140254043
 20
157.1211488256961
 30
0.0
 11
147.2015140254043
 21
75.12114882569618
 31
0.0
  0
LINE
  5
32F5
330
1F
100
AcDbEntity
  8
太線
100
AcDbLine
 10
144.2015140254043
 20
72.12114882569618
 30
0.0
 11
90.20151402540433
 21
72.12114882569617
 31
0.0
  0
ARC
  5
32F6
330
1F
100
AcDbEntity
  8
太線
100
AcDbCircle
 10
251.3088366387273
 20
100.6211488256961
 30
0.0
 40
28.5
100
AcDbArc
 50
270.0
 51
90.0
  0
LINE
  5
32F7
330
1F
100
AcDbEntity
  8
太線
100
AcDbLine
 10
251.3088366387273
 20
72.12114882569617
 30
0.0
 11
222.8088366387273
 21
72.12114882569617
 31
0.0
  0
LINE
  5
32F8
330
1F
100
AcDbEntity
  8
太線
100
AcDbLine
 10
222.8088366387273
 20
72.12114882569617
 30
0.0
 11
222.8088366387273
 21
100.6211488256961
 31
0.0
  0
LINE
  5
32F9
330
1F
100
AcDbEntity
  8
太線
100
AcDbLine
 10
222.8088366387273
 20
100.6211488256961
 30
0.0
 11
222.8088366387273
 21
160.1211488256961
 31
0.0
  0
LINE
  5
32FA
330
1F
100
AcDbEntity
  8
太線
100
AcDbLine
 10
222.8088366387273
 20
160.1211488256961
 30
0.0
 11
226.8088366387273
 21
160.1211488256961
 31
0.0
  0
LINE
  5
3300
330
1F
100
AcDbEntity
  8
構築線
100
AcDbLine
 10
251.3088366387273
 20
129.1211488256961
 30
0.0
 11
226.8088366387273
 21
150.1211488256961
 31
0.0
  0
LINE
  5
3301
330
1F
100
AcDbEntity
  8
太線
100
AcDbLine
 10
251.3088366387273
 20
129.1211488256961
 30
0.0
 11
226.8088366387273
 21
150.1211488256961
 31
0.0
  0
LINE
  5
3304
330
1F
100
AcDbEntity
  8
想像線
100
AcDbLine
 10
91.20151402540432
 20
129.1211488256961
 30
0.0
 11
143.2015140254043
 21
129.1211488256961
 31
0.0
  0
LINE
  5
3307
330
1F
100
AcDbEntity
  8
想像線
100
AcDbLine
 10
143.2015140254043
 20
129.1211488256961
 30
0.0
 11
143.2015140254043
 21
150.1211488256961
 31
0.0
  0
LINE
  5
3308
330
1F
100
AcDbEntity
  8
想像線
100
AcDbLine
 10
143.2015140254043
 20
150.1211488256961
 30
0.0
 11
147.2015140254043
 21
150.1211488256961
 31
0.0
  0
LINE
  5
3309
330
1F
100
AcDbEntity
  8
想像線
100
AcDbLine
 10
87.20151402540432
 20
150.1211488256961
 30
0.0
 11
91.20151402540432
 21
150.1211488256961
 31
0.0
  0
LINE
  5
330A
330
1F
100
AcDbEntity
  8
想像線
100
AcDbLine
 10
91.20151402540432
 20
150.1211488256961
 30
0.0
 11
91.20151402540432
 21
129.1211488256961
 31
0.0
  0
ARC
  5
3322
330
1F
100
AcDbEntity
  8
太線
100
AcDbCircle
 10
117.2015140254043
 20
146.9720739357171
 30
0.0
 40
5.5
100
AcDbArc
 50
0.0
 51
180.0
  0
ARC
  5
3323
330
1F
100
AcDbEntity
  8
太線
100
AcDbCircle
 10
117.2015140254043
 20
140.5659173468801
 30
0.0
 40
5.5
100
AcDbArc
 50
180.0
 51
0.0
  0
LINE
  5
3324
330
1F
100
AcDbEntity
  8
太線
100
AcDbLine
 10
122.7015140254043
 20
148.3425463326307
 30
0.0
 11
122.7015140254043
 21
139.1954449499664
 31
0.0
  0
LINE
  5
3325
330
1F
100
AcDbEntity
  8
太線
100
AcDbLine
 10
111.7015140254043
 20
148.3425463326307
 30
0.0
 11
111.7015140254043
 21
139.1954449499664
 31
0.0
  0
CIRCLE
  5
3326
330
1F
100
AcDbEntity
  8
太線
100
AcDbCircle
 10
134.7633615832273
 20
154.0933960295306
 30
0.0
 40
2.5
  0
CIRCLE
  5
3327
330
1F
100
AcDbEntity
  8
太線
100
AcDbCircle
 10
100.5601230665184
 20
136.578844933903
 30
0.0
 40
2.5
  0
LINE
  5
3328
330
1F
100
AcDbEntity
  8
太線
100
AcDbLine
 10
226.8088366387273
 20
160.1211488256961
 30
0.0
 11
226.8088366387273
 21
150.1211488256961
 31
0.0
  0
LINE
  5
332A
330
1F
100
AcDbEntity
  8
想像線
100
AcDbLine
 10
226.8088366387273
 20
150.1211488256961
 30
0.0
 11
226.8088366387273
 21
129.1211488256961
 31
0.0
  0
LINE
  5
332B
330
1F
100
AcDbEntity
  8
想像線
100
AcDbLine
 10
226.8088366387273
 20
129.1211488256961
 30
0.0
 11
251.3088366387273
 21
129.1211488256961
 31
0.0
  0
LINE
  5
332C
330
1F
100
AcDbEntity
  8
想像線
100
AcDbLine
 10
222.8088366387273
 20
125.1211488256961
 30
0.0
 11
236.7486168601663
 21
125.1211488256961
 31
0.0
  0
LINE
  5
3331
330
1F
100
AcDbEntity
  8
想像線
100
AcDbLine
 10
183.8258949505848
 20
176.4816721376485
 30
0.0
 11
183.8258949505848
 21
176.4816721376485
 31
0.0
  0
LINE
  5
3332
330
1F
100
AcDbEntity
  8
想像線
100
AcDbLine
 10
183.8258949505848
 20
176.4816721376485
 30
0.0
 11
183.8258949505848
 21
176.4816721376485
 31
0.0
  0
LINE
  5
3333
330
1F
100
AcDbEntity
  8
想像線
100
AcDbLine
 10
183.8258949505848
 20
176.4816721376485
 30
0.0
 11
183.8258949505848
 21
176.4816721376485
 31
0.0
  0
ARC
  5
3334
330
1F
100
AcDbEntity
  8
想像線
100
AcDbCircle
 10
251.3088366387273
 20
100.6211488256962
 30
0.0
 40
28.49999999999996
100
AcDbArc
 50
120.7227907794617
 51
169.8958172838751
  0
ARC
  5
3335
330
1F
100
AcDbEntity
  8
想像線
100
AcDbCircle
 10
251.3088366387274
 20
100.6211488256962
 30
0.0
 40
28.50000000000006
100
AcDbArc
 50
190.104182716125
 51
239.2772092205382
  0
LINE
  5
3336
330
1F
100
AcDbEntity
  8
想像線
100
AcDbLine
 10
236.7486168601663
 20
76.12114882569617
 30
0.0
 11
222.8088366387273
 21
76.12114882569617
 31
0.0
  0
LINE
  5
334F
330
1F
100
AcDbEntity
  8
太線
100
AcDbLine
 10
132.7015140254043
 20
125.1211488256961
 30
0.0
 11
143.2015140254043
 21
125.1211488256961
 31
0.0
  0
LINE
  5
3350
330
1F
100
AcDbEntity
  8
太線
100
AcDbLine
 10
143.2015140254043
 20
125.1211488256961
 30
0.0
 11
143.2015140254043
 21
102.6211488256961
 31
0.0
  0
LINE
  5
3351
330
1F
100
AcDbEntity
  8
太線
100
AcDbLine
 10
143.2015140254043
 20
102.6211488256961
 30
0.0
 11
132.7015140254043
 21
102.6211488256961
 31
0.0
  0
LINE
  5
3352
330
1F
100
AcDbEntity
  8
太線
100
AcDbLine
 10
132.7015140254043
 20
102.6211488256961
 30
0.0
 11
132.7015140254043
 21
125.1211488256961
 31
0.0
  0
LINE
  5
3353
330
1F
100
AcDbEntity
  8
太線
100
AcDbLine
 10
132.7015140254043
 20
98.62114882569617
 30
0.0
 11
143.2015140254043
 21
98.62114882569617
 31
0.0
  0
LINE
  5
3354
330
1F
100
AcDbEntity
  8
太線
100
AcDbLine
 10
143.2015140254043
 20
98.62114882569617
 30
0.0
 11
143.2015140254043
 21
76.12114882569617
 31
0.0
  0
LINE
  5
3355
330
1F
100
AcDbEntity
  8
太線
100
AcDbLine
 10
143.2015140254043
 20
76.12114882569617
 30
0.0
 11
132.7015140254043
 21
76.12114882569617
 31
0.0
  0
LINE
  5
3356
330
1F
100
AcDbEntity
  8
太線
100
AcDbLine
 10
132.7015140254043
 20
76.12114882569617
 30
0.0
 11
132.7015140254043
 21
98.62114882569617
 31
0.0
  0
LINE
  5
3357
330
1F
100
AcDbEntity
  8
太線
100
AcDbLine
 10
119.2015140254043
 20
102.6211488256961
 30
0.0
 11
119.2015140254043
 21
125.1211488256961
 31
0.0
  0
LINE
  5
3358
330
1F
100
AcDbEntity
  8
太線
100
AcDbLine
 10
119.2015140254043
 20
125.1211488256961
 30
0.0
 11
128.7015140254043
 21
125.1211488256961
 31
0.0
  0
LINE
  5
3359
330
1F
100
AcDbEntity
  8
太線
100
AcDbLine
 10
128.7015140254043
 20
125.1211488256961
 30
0.0
 11
128.7015140254043
 21
102.6211488256961
 31
0.0
  0
LINE
  5
335A
330
1F
100
AcDbEntity
  8
太線
100
AcDbLine
 10
128.7015140254043
 20
102.6211488256961
 30
0.0
 11
119.2015140254043
 21
102.6211488256961
 31
0.0
  0
LINE
  5
335B
330
1F
100
AcDbEntity
  8
太線
100
AcDbLine
 10
128.7015140254043
 20
76.12114882569617
 30
0.0
 11
119.2015140254043
 21
76.12114882569617
 31
0.0
  0
LINE
  5
335C
330
1F
100
AcDbEntity
  8
太線
100
AcDbLine
 10
119.2015140254043
 20
76.12114882569617
 30
0.0
 11
119.2015140254043
 21
98.62114882569617
 31
0.0
  0
LINE
  5
335D
330
1F
100
AcDbEntity
  8
太線
100
AcDbLine
 10
119.2015140254043
 20
98.62114882569617
 30
0.0
 11
128.7015140254043
 21
98.62114882569617
 31
0.0
  0
LINE
  5
335E
330
1F
100
AcDbEntity
  8
太線
100
AcDbLine
 10
128.7015140254043
 20
98.62114882569617
 30
0.0
 11
128.7015140254043
 21
76.12114882569617
 31
0.0
  0
LINE
  5
335F
330
1F
100
AcDbEntity
  8
太線
100
AcDbLine
 10
115.2015140254043
 20
102.6211488256961
 30
0.0
 11
105.7015140254043
 21
102.6211488256961
 31
0.0
  0
LINE
  5
3360
330
1F
100
AcDbEntity
  8
太線
100
AcDbLine
 10
105.7015140254043
 20
102.6211488256961
 30
0.0
 11
105.7015140254043
 21
125.1211488256961
 31
0.0
  0
LINE
  5
3361
330
1F
100
AcDbEntity
  8
太線
100
AcDbLine
 10
105.7015140254043
 20
125.1211488256961
 30
0.0
 11
115.2015140254043
 21
125.1211488256961
 31
0.0
  0
LINE
  5
3362
330
1F
100
AcDbEntity
  8
太線
100
AcDbLine
 10
115.2015140254043
 20
125.1211488256961
 30
0.0
 11
115.2015140254043
 21
102.6211488256961
 31
0.0
  0
LINE
  5
3363
330
1F
100
AcDbEntity
  8
太線
100
AcDbLine
 10
105.7015140254043
 20
98.62114882569617
 30
0.0
 11
115.2015140254043
 21
98.62114882569617
 31
0.0
  0
LINE
  5
3364
330
1F
100
AcDbEntity
  8
太線
100
AcDbLine
 10
115.2015140254043
 20
98.62114882569617
 30
0.0
 11
115.2015140254043
 21
76.12114882569617
 31
0.0
  0
LINE
  5
3365
330
1F
100
AcDbEntity
  8
太線
100
AcDbLine
 10
115.2015140254043
 20
76.12114882569617
 30
0.0
 11
105.7015140254043
 21
76.12114882569617
 31
0.0
  0
LINE
  5
3366
330
1F
100
AcDbEntity
  8
太線
100
AcDbLine
 10
105.7015140254043
 20
76.12114882569617
 30
0.0
 11
105.7015140254043
 21
98.62114882569617
 31
0.0
  0
LINE
  5
3367
330
1F
100
AcDbEntity
  8
太線
100
AcDbLine
 10
91.20151402540432
 20
125.1211488256961
 30
0.0
 11
101.7015140254043
 21
125.1211488256961
 31
0.0
  0
LINE
  5
3368
330
1F
100
AcDbEntity
  8
太線
100
AcDbLine
 10
101.7015140254043
 20
125.1211488256961
 30
0.0
 11
101.7015140254043
 21
102.6211488256961
 31
0.0
  0
LINE
  5
3369
330
1F
100
AcDbEntity
  8
太線
100
AcDbLine
 10
101.7015140254043
 20
102.6211488256961
 30
0.0
 11
91.20151402540432
 21
102.6211488256961
 31
0.0
  0
LINE
  5
336A
330
1F
100
AcDbEntity
  8
太線
100
AcDbLine
 10
91.20151402540432
 20
102.6211488256961
 30
0.0
 11
91.20151402540432
 21
125.1211488256961
 31
0.0
  0
LINE
  5
336B
330
1F
100
AcDbEntity
  8
太線
100
AcDbLine
 10
91.20151402540432
 20
98.62114882569617
 30
0.0
 11
101.7015140254043
 21
98.62114882569617
 31
0.0
  0
LINE
  5
336C
330
1F
100
AcDbEntity
  8
太線
100
AcDbLine
 10
101.7015140254043
 20
98.62114882569617
 30
0.0
 11
101.7015140254043
 21
76.12114882569617
 31
0.0
  0
LINE
  5
336D
330
1F
100
AcDbEntity
  8
太線
100
AcDbLine
 10
101.7015140254043
 20
76.12114882569617
 30
0.0
 11
91.20151402540432
 21
76.12114882569617
 31
0.0
  0
LINE
  5
336E
330
1F
100
AcDbEntity
  8
太線
100
AcDbLine
 10
91.20151402540432
 20
76.12114882569617
 30
0.0
 11
91.20151402540432
 21
98.62114882569617
 31
0.0
  0
LINE
  5
336F
330
1F
100
AcDbEntity
  8
太線
100
AcDbLine
 10
87.20151402540432
 20
37.42433914215007
 30
0.0
 11
147.2015140254043
 21
37.42433914215007
 31
0.0
  0
LINE
  5
3370
330
1F
100
AcDbEntity
  8
太線
100
AcDbLine
 10
147.2015140254043
 20
37.42433914215007
 30
0.0
 11
147.2015140254043
 21
-19.57566085784992
 31
0.0
  0
LINE
  5
3371
330
1F
100
AcDbEntity
  8
太線
100
AcDbLine
 10
147.2015140254043
 20
-19.57566085784992
 30
0.0
 11
87.20151402540432
 21
-19.57566085784992
 31
0.0
  0
LINE
  5
3372
330
1F
100
AcDbEntity
  8
太線
100
AcDbLine
 10
87.20151402540432
 20
-19.57566085784992
 30
0.0
 11
87.20151402540432
 21
37.42433914215007
 31
0.0
  0
LINE
  5
3375
330
1F
100
AcDbEntity
  8
想像線
100
AcDbLine
 10
101.7015140254043
 20
76.12114882569617
 30
0.0
 11
105.7015140254043
 21
76.12114882569617
 31
0.0
  0
LINE
  5
3376
330
1F
100
AcDbEntity
  8
想像線
100
AcDbLine
 10
115.2015140254043
 20
76.12114882569617
 30
0.0
 11
119.2015140254043
 21
76.12114882569617
 31
0.0
  0
LINE
  5
3377
330
1F
100
AcDbEntity
  8
想像線
100
AcDbLine
 10
128.7015140254043
 20
76.12114882569617
 30
0.0
 11
132.7015140254043
 21
76.12114882569617
 31
0.0
  0
LINE
  5
3379
330
1F
100
AcDbEntity
  8
想像線
100
AcDbLine
 10
87.20151402540432
 20
125.1211488256961
 30
0.0
 11
91.20151402540432
 21
125.1211488256961
 31
0.0
  0
LINE
  5
337A
330
1F
100
AcDbEntity
  8
想像線
100
AcDbLine
 10
101.7015140254043
 20
125.1211488256961
 30
0.0
 11
105.7015140254043
 21
125.1211488256961
 31
0.0
  0
LINE
  5
337B
330
1F
100
AcDbEntity
  8
想像線
100
AcDbLine
 10
115.2015140254043
 20
125.1211488256961
 30
0.0
 11
119.2015140254043
 21
125.1211488256961
 31
0.0
  0
LINE
  5
337C
330
1F
100
AcDbEntity
  8
想像線
100
AcDbLine
 10
128.7015140254043
 20
125.1211488256961
 30
0.0
 11
132.7015140254043
 21
125.1211488256961
 31
0.0
  0
LINE
  5
337D
330
1F
100
AcDbEntity
  8
想像線
100
AcDbLine
 10
143.2015140254043
 20
125.1211488256961
 30
0.0
 11
147.2015140254043
 21
125.1211488256961
 31
0.0
  0
LINE
  5
3380
330
1F
100
AcDbEntity
  8
想像線
100
AcDbLine
 10
87.20151402540432
 20
-15.57566085784992
 30
0.0
 11
147.2015140254043
 21
-15.57566085784992
 31
0.0
  0
LINE
  5
3381
330
1F
100
AcDbEntity
  8
想像線
100
AcDbLine
 10
147.2015140254043
 20
22.30103224393008
 30
0.0
 11
143.2015140254043
 21
22.30103224393008
 31
0.0
  0
LINE
  5
3382
330
1F
100
AcDbEntity
  8
想像線
100
AcDbLine
 10
143.2015140254043
 20
22.30103224393008
 30
0.0
 11
143.2015140254043
 21
33.42433914215007
 31
0.0
  0
LINE
  5
3383
330
1F
100
AcDbEntity
  8
想像線
100
AcDbLine
 10
87.20151402540432
 20
22.30103224393008
 30
0.0
 11
91.20151402540432
 21
22.30103224393008
 31
0.0
  0
LINE
  5
3384
330
1F
100
AcDbEntity
  8
想像線
100
AcDbLine
 10
91.20151402540432
 20
22.30103224393008
 30
0.0
 11
91.20151402540432
 21
33.42433914215007
 31
0.0
  0
LINE
  5
3385
330
1F
100
AcDbEntity
  8
想像線
100
AcDbLine
 10
87.20151402540432
 20
33.42433914215007
 30
0.0
 11
147.2015140254043
 21
33.42433914215007
 31
0.0
  0
LINE
  5
3386
330
1F
100
AcDbEntity
  8
想像線
100
AcDbLine
 10
101.7015140254043
 20
33.42433914215007
 30
0.0
 11
101.7015140254043
 21
22.30103224393008
 31
0.0
  0
LINE
  5
3387
330
1F
100
AcDbEntity
  8
想像線
100
AcDbLine
 10
101.7015140254043
 20
22.30103224393008
 30
0.0
 11
105.7015140254043
 21
22.30103224393008
 31
0.0
  0
LINE
  5
3388
330
1F
100
AcDbEntity
  8
想像線
100
AcDbLine
 10
105.7015140254043
 20
22.30103224393008
 30
0.0
 11
105.7015140254043
 21
33.42433914215007
 31
0.0
  0
LINE
  5
3389
330
1F
100
AcDbEntity
  8
想像線
100
AcDbLine
 10
115.2015140254043
 20
33.42433914215007
 30
0.0
 11
115.2015140254043
 21
22.30103224393008
 31
0.0
  0
LINE
  5
338A
330
1F
100
AcDbEntity
  8
想像線
100
AcDbLine
 10
115.2015140254043
 20
22.30103224393008
 30
0.0
 11
119.2015140254043
 21
22.30103224393008
 31
0.0
  0
LINE
  5
338B
330
1F
100
AcDbEntity
  8
想像線
100
AcDbLine
 10
119.2015140254043
 20
22.30103224393008
 30
0.0
 11
119.2015140254043
 21
33.42433914215007
 31
0.0
  0
LINE
  5
338C
330
1F
100
AcDbEntity
  8
想像線
100
AcDbLine
 10
128.7015140254043
 20
33.42433914215007
 30
0.0
 11
128.7015140254043
 21
22.30103224393008
 31
0.0
  0
LINE
  5
338D
330
1F
100
AcDbEntity
  8
想像線
100
AcDbLine
 10
128.7015140254043
 20
22.30103224393008
 30
0.0
 11
132.7015140254043
 21
22.30103224393008
 31
0.0
  0
LINE
  5
338E
330
1F
100
AcDbEntity
  8
想像線
100
AcDbLine
 10
132.7015140254043
 20
22.30103224393008
 30
0.0
 11
132.7015140254043
 21
33.42433914215007
 31
0.0
  0
CIRCLE
  5
338F
330
1F
100
AcDbEntity
  8
太線
100
AcDbCircle
 10
251.3088366387273
 20
100.6211488256962
 30
0.0
 40
24.49999999999993
  0
LINE
  5
3398
330
1F
100
AcDbEntity
  8
想像線
100
AcDbLine
 10
222.8088366387273
 20
156.3364019717143
 30
0.0
 11
226.8088366387273
 21
156.3364019717143
 31
0.0
  0
LINE
  5
3399
330
1F
100
AcDbEntity
  8
想像線
100
AcDbLine
 10
222.8088366387273
 20
153.6561519892586
 30
0.0
 11
226.8088366387273
 21
153.6561519892586
 31
0.0
  0
LINE
  5
339A
330
1F
100
AcDbEntity
  8
想像線
100
AcDbLine
 10
222.8088366387273
 20
151.5119517596529
 30
0.0
 11
226.8088366387273
 21
151.5119517596529
 31
0.0
  0
LINE
  5
339B
330
1F
100
AcDbEntity
  8
想像線
100
AcDbLine
 10
222.8088366387273
 20
150.1211488256961
 30
0.0
 11
226.8088366387273
 21
150.1211488256961
 31
0.0
  0
LINE
  5
339C
330
1F
100
AcDbEntity
  8
想像線
100
AcDbLine
 10
222.8088366387273
 20
133.5542740753255
 30
0.0
 11
226.8088366387273
 21
133.5542740753255
 31
0.0
  0
LINE
  5
339F
330
1F
100
AcDbEntity
  8
想像線
100
AcDbLine
 10
275.7270675328768
 20
102.6211488256961
 30
0.0
 11
279.7385745903863
 21
102.6211488256961
 31
0.0
  0
LINE
  5
33A0
330
1F
100
AcDbEntity
  8
想像線
100
AcDbLine
 10
275.7270675328768
 20
98.62114882569617
 30
0.0
 11
279.7385745903863
 21
98.62114882569617
 31
0.0
  0
LINE
  5
33A1
330
1F
100
AcDbEntity
  8
想像線
100
AcDbLine
 10
275.32011746593
 20
101.9304731019826
 30
0.0
 11
280.0838982178317
 21
101.9304731019826
 31
0.0
  0
LINE
  5
33A2
330
1F
100
AcDbEntity
  8
想像線
100
AcDbLine
 10
275.8305230493024
 20
99.04057407970425
 30
0.0
 11
279.7436285509025
 21
99.04057407970425
 31
0.0
  0
LINE
  5
33A4
330
1F
100
AcDbEntity
  8
想像線
100
AcDbLine
 10
222.8088366387273
 20
138.9908674692081
 30
0.0
 11
226.8088366387273
 21
138.9908674692081
 31
0.0
  0
LINE
  5
33AB
330
1F
100
AcDbEntity
  8
想像線
100
AcDbLine
 10
137.1679739805331
 20
37.42433914215007
 30
0.0
 11
137.1679739805331
 21
33.42433914215007
 31
0.0
  0
LINE
  5
33AC
330
1F
100
AcDbEntity
  8
想像線
100
AcDbLine
 10
132.5171424673674
 20
37.42433914215007
 30
0.0
 11
132.7015140254043
 21
33.42433914215007
 31
0.0
  0
LINE
  5
33AD
330
1F
100
AcDbEntity
  8
想像線
100
AcDbLine
 10
122.6788441193043
 20
37.42433914215007
 30
0.0
 11
122.6788441193043
 21
33.42433914215007
 31
0.0
  0
LINE
  5
33AE
330
1F
100
AcDbEntity
  8
想像線
100
AcDbLine
 10
111.7672772937351
 20
37.42433914215007
 30
0.0
 11
111.7672772937351
 21
33.42433914215007
 31
0.0
  0
LINE
  5
33AF
330
1F
100
AcDbEntity
  8
想像線
100
AcDbLine
 10
98.35141591001287
 20
37.42433914215007
 30
0.0
 11
98.35141591001287
 21
33.42433914215007
 31
0.0
  0
LINE
  5
33B0
330
1F
100
AcDbEntity
  8
想像線
100
AcDbLine
 10
103.0022474231785
 20
37.42433914215007
 30
0.0
 11
103.0022474231785
 21
33.42433914215007
 31
0.0
  0
LINE
  5
33B1
330
1F
100
AcDbEntity
  8
想像線
100
AcDbLine
 10
119.2015140254043
 20
-15.57566085784989
 30
0.0
 11
119.2015140254043
 21
-19.57566085784992
 31
0.0
  0
LINE
  5
33B2
330
1F
100
AcDbEntity
  8
想像線
100
AcDbLine
 10
115.2015140254043
 20
-15.57566085784992
 30
0.0
 11
115.2015140254043
 21
-19.57566085784992
 31
0.0
  0
LINE
  5
33B3
330
1F
100
AcDbEntity
  8
想像線
100
AcDbLine
 10
118.400542035506
 20
-15.71508089960821
 30
0.0
 11
118.400542035506
 21
-19.37656559834977
 31
0.0
  0
LINE
  5
33B4
330
1F
100
AcDbEntity
  8
想像線
100
AcDbLine
 10
116.3392484812256
 20
-15.48623841048834
 30
0.0
 11
116.3392484812256
 21
-20.0630936748123
 31
0.0
  0
LINE
  5
33B5
330
1F
100
AcDbEntity
  8
構築線
100
AcDbLine
 10
87.20151402540432
 20
76.12114882569617
 30
0.0
 11
91.20151402540432
 21
76.12114882569617
 31
0.0
  0
LINE
  5
33B6
330
1F
100
AcDbEntity
  8
想像線
100
AcDbLine
 10
87.20151402540432
 20
76.12114882569617
 30
0.0
 11
91.20151402540432
 21
76.12114882569617
 31
0.0
  0
LINE
  5
33B7
330
1F
100
AcDbEntity
  8
想像線
100
AcDbLine
 10
143.2015140254043
 20
76.12114882569617
 30
0.0
 11
147.2015140254043
 21
76.12114882569617
 31
0.0
  0
ARC
  5
33B9
330
1F
100
AcDbEntity
  8
太線
100
AcDbCircle
 10
90.20151402540433
 20
157.1211488256961
 30
0.0
 40
3.0
100
AcDbArc
 50
90.0
 51
180.0
  0
ARC
  5
33BA
330
1F
100
AcDbEntity
  8
太線
100
AcDbCircle
 10
144.2015140254043
 20
157.1211488256961
 30
0.0
 40
3.0
100
AcDbArc
 50
0.0
 51
90.0
  0
ARC
  5
33BB
330
1F
100
AcDbEntity
  8
太線
100
AcDbCircle
 10
90.20151402540433
 20
75.12114882569616
 30
0.0
 40
3.0
100
AcDbArc
 50
180.0
 51
270.0
  0
ARC
  5
33BC
330
1F
100
AcDbEntity
  8
太線
100
AcDbCircle
 10
144.2015140254043
 20
75.12114882569618
 30
0.0
 40
3.0
100
AcDbArc
 50
270.0
 51
0.0
  0
DIMENSION
  5
33BE
330
1F
100
AcDbEntity
  8
寸法線
100
AcDbDimension
  2
*D2
 10
193.5051107339423
 20
160.1211488256961
 30
0.0
 11
191.6301107339423
 21
144.6211488256962
 31
0.0
 70
    32
 71
     5
 42
31.0
  3
ISO-25
100
AcDbAlignedDimension
 13
226.8088366387273
 23
129.1211488256961
 33
0.0
 14
226.8088366387273
 24
160.1211488256961
 34
0.0
 50
90.0
100
AcDbRotatedDimension
  0
DIMENSION
  5
33CB
330
1F
100
AcDbEntity
  8
寸法線
100
AcDbDimension
  2
*D3
 10
226.1838366387273
 20
165.4031966490991
 30
0.0
 11
224.4963366387273
 21
167.2781966490991
 31
0.0
 70
    32
  1
4
 71
     5
 42
3.375
  3
ISO-25
100
AcDbAlignedDimension
 13
222.8088366387273
 23
156.3364019717143
 33
0.0
 14
226.1838366387273
 24
160.1211488256961
 34
0.0
100
AcDbRotatedDimension
  0
DIMENSION
  5
33DA
330
1F
100
AcDbEntity
  8
寸法線
100
AcDbDimension
  2
*D4
 10
165.6020353664656
 20
160.1211488256961
 30
0.0
 11
163.7270353664656
 21
116.1211488256961
 31
0.0
 70
    32
  1
88.3
 71
     5
 42
87.99999999999998
  3
ISO-25
100
AcDbAlignedDimension
 13
144.2015140254043
 23
72.12114882569618
 33
0.0
 14
144.2015140254043
 24
160.1211488256961
 34
0.0
 50
90.0
100
AcDbRotatedDimension
  0
DIMENSION
  5
33E7
330
1F
100
AcDbEntity
  8
寸法線
100
AcDbDimension
  2
*D5
 10
122.7015140254043
 20
174.58318047913
 30
0.0
 11
117.2015140254043
 21
176.45818047913
 31
0.0
 70
    32
 71
     5
 42
11.0
  3
ISO-25
100
AcDbAlignedDimension
 13
111.7015140254043
 23
148.3425463326307
 33
0.0
 14
122.7015140254043
 24
148.3425463326307
 34
0.0
100
AcDbRotatedDimension
  0
DIMENSION
  5
3401
330
1F
100
AcDbEntity
  8
寸法線
100
AcDbDimension
  2
*D6
 10
133.4079850562524
 20
151.9926927020411
 30
0.0
 11
146.8865568942004
 21
172.8831833858198
 31
0.0
 70
   163
 71
     5
 42
4.999999999999943
  3
ISO-25
100
AcDbDiametricDimension
 15
136.1187381102023
 25
156.19409935702
 35
0.0
 40
0.0
1001
ACAD
1000
DSTYLE
1002
{
1070
   288
1070
     1
1002
}
  0
DIMENSION
  5
340D
330
1F
100
AcDbEntity
  8
寸法線
100
AcDbDimension
  2
*D7
 10
147.2268384167063
 20
51.13620659113064
 30
0.0
 11
117.452214675447
 21
53.01120659113064
 31
0.0
 70
    32
  1
60
 71
     5
 42
59.54924748251847
  3
ISO-25
100
AcDbAlignedDimension
 13
87.67759093418783
 23
37.87622961869419
 33
0.0
 14
147.2268384167063
 24
37.87622961869419
 34
0.0
100
AcDbRotatedDimension
  0
DIMENSION
  5
3438
330
1F
100
AcDbEntity
  8
寸法線
100
AcDbDimension
  2
*D8
 10
76.29946743597566
 20
135.4485749091295
 30
0.0
 11
74.42446743597564
 21
143.6714089222255
 31
0.0
 70
    32
  1
17
 71
     5
 42
16.44566802619192
  3
ISO-25
100
AcDbAlignedDimension
 13
116.9905347258788
 23
151.8942429353214
 33
0.0
 14
116.9905347258788
 24
135.4485749091295
 34
0.0
 50
90.0
100
AcDbRotatedDimension
  0
DIMENSION
  5
3455
330
1F
100
AcDbEntity
  8
寸法線
100
AcDbDimension
  2
*D9
 10
166.0271995637656
 20
-15.57566085784993
 30
0.0
 11
164.1521995637656
 21
8.924339142150095
 31
0.0
 70
    32
  1
49.6
 71
     5
 42
49.0
  3
ISO-25
100
AcDbAlignedDimension
 13
147.2015140254043
 23
33.42433914215007
 33
0.0
 14
147.2015140254043
 24
-15.57566085784992
 34
0.0
 50
90.0
100
AcDbRotatedDimension
  0
DIMENSION
  5
3462
330
1F
100
AcDbEntity
  8
寸法線
100
AcDbDimension
  2
*D10
 10
78.8954872553652
 20
-15.57566085784992
 30
0.0
 11
77.0204872553652
 21
8.92433914215009
 31
0.0
 70
    32
  1
49.3
 71
     5
 42
49.0
  3
ISO-25
100
AcDbAlignedDimension
 13
87.20151402540432
 23
33.42433914215007
 33
0.0
 14
87.20151402540432
 24
-15.57566085784992
 34
0.0
 50
90.0
100
AcDbRotatedDimension
  0
DIMENSION
  5
3481
330
1F
100
AcDbEntity
  8
寸法線
100
AcDbDimension
  2
*D11
 10
279.7385745903863
 20
42.38425464404452
 30
0.0
 11
251.2737056145568
 21
44.25925464404452
 31
0.0
 70
    32
  1
57.3
 71
     5
 42
56.92973795165897
  3
ISO-25
100
AcDbAlignedDimension
 13
222.8088366387273
 23
72.12114882569617
 33
0.0
 14
279.7385745903863
 24
98.62114882569617
 34
0.0
100
AcDbRotatedDimension
  0
DIMENSION
  5
3497
330
1F
100
AcDbEntity
  8
寸法線
100
AcDbDimension
  2
*D12
 10
279.5574897575006
 20
136.3362890639034
 30
0.0
 11
277.6019932041039
 21
138.2112890639034
 31
0.0
 70
    32
  1
4
 71
     5
 42
3.910993106793512
  3
ISO-25
100
AcDbAlignedDimension
 13
275.6464966507071
 23
104.0124820815351
 33
0.0
 14
279.5574897575006
 24
104.3676890014536
 34
0.0
100
AcDbRotatedDimension
  0
TEXT
  5
34B6
330
1F
100
AcDbEntity
  8
文字
100
AcDbText
 10
207.8481062940582
 20
-0.4795919910269291
 30
0.0
 40
4.799999999999999
  1
注記　内面バリは最小限にする
 51
15.0
  7
OKANO
100
AcDbText
  0
TEXT
  5
34C3
330
1F
100
AcDbEntity
  8
文字
100
AcDbText
 10
274.4199281712326
 20
-48.24952171693619
 30
0.0
 40
4.799999999999999
  1
JAN 4562182301130
 51
15.0
  7
OKANO
100
AcDbText
  0
VIEWPORT
  5
2E
330
1B
100
AcDbEntity
 67
     1
  8
0
100
AcDbViewport
 10
228.648837088626
 20
125.3601865839301
 30
0.0
 40
615.6698196644434
 41
294.9672126366626
 68
     2
 69
     1
 12
228.648837088626
 22
125.3601865839301
 13
0.0
 23
0.0
 14
10.0
 24
10.0
 15
10.0
 25
10.0
 16
0.0
 26
0.0
 36
1.0
 17
0.0
 27
0.0
 37
0.0
 42
50.0
 43
0.0
 44
0.0
 45
294.9672126366626
 50
0.0
 51
0.0
 72
   100
 90
    32800
  1

281
     0
 71
     1
 74
     0
110
0.0
120
0.0
130
0.0
111
1.0
121
0.0
131
0.0
112
0.0
122
1.0
132
0.0
 79
     0
146
0.0
  0
VIEWPORT
  5
30
330
1B
100
AcDbEntity
 67
     1
  8
70-0-CON
100
AcDbViewport
 10
141.8594093064315
 20
100.3480256368386
 30
0.0
 40
261.6199023344245
 41
192.6196987113174
 68
     1
 69
     2
 12
166.0693751284563
 22
59.75275635059888
 13
0.0
 23
0.0
 14
5.0
 24
5.0
 15
10.0
 25
10.0
 16
0.0
 26
0.0
 36
1.0
 17
0.0
 27
0.0
 37
0.0
 42
50.0
 43
0.0
 44
0.0
 45
289.0168948646313
 50
0.0
 51
0.0
 72
   100
 90
    32864
  1

281
     0
 71
     1
 74
     0
110
0.0
120
0.0
130
0.0
111
1.0
121
0.0
131
0.0
112
0.0
122
1.0
132
0.0
 79
     0
146
0.0
  0
LWPOLYLINE
  5
45
330
1B
100
AcDbEntity
 67
     1
  8
50-0-CON
100
AcDbPolyline
 90
        4
 70
     1
 43
0.0
 10
11.04945813921926
 20
4.038176281179858
 10
272.2125713060605
 20
4.033520706629644
 10
273.4987754093466
 20
195.9297862125246
 10
11.04945813921926
 20
196.6578749924973
  0
LINE
  5
4A
330
1B
100
AcDbEntity
 67
     1
  8
50-0-CON
100
AcDbLine
 10
10.38768783662635
 20
100.3480256368386
 30
0.0
 11
-4.391850629656119
 21
100.3480256368386
 31
0.0
  0
LINE
  5
4B
330
1B
100
AcDbEntity
 67
     1
  8
50-0-CON
100
AcDbLine
 10
141.8594093064315
 20
197.098652626247
 30
0.0
 11
141.8594093064315
 21
202.387980773708
 31
0.0
  0
LINE
  5
4C
330
1B
100
AcDbEntity
 67
     1
  8
50-0-CON
100
AcDbLine
 10
272.4487699456857
 20
100.7888032705883
 30
0.0
 11
278.8458837249377
 21
100.7888032705883
 31
0.0
  0
LINE
  5
4D
330
1B
100
AcDbEntity
 67
     1
  8
50-0-CON
100
AcDbLine
 10
140.9770484758805
 20
4.038176281179858
 30
0.0
 11
140.9770484758805
 21
-3.455038652015446
 31
0.0
  0
ENDSEC
  0
SECTION
  2
OBJECTS
  0
DICTIONARY
  5
C
330
0
100
AcDbDictionary
281
     1
  3
ACAD_GROUP
350
D
  3
ACAD_LAYOUT
350
1A
  3
ACAD_MLINESTYLE
350
17
  3
ACAD_PLOTSETTINGS
350
19
  3
ACAD_PLOTSTYLENAME
350
E
  3
AcadDim
350
13D0
  3
AcDbVariableDictionary
350
6AD
  3
DWGPROPS
350
30F
  0
DICTIONARY
  5
D
102
{ACAD_REACTORS
330
C
102
}
330
C
100
AcDbDictionary
281
     1
  0
DICTIONARY
  5
1A
102
{ACAD_REACTORS
330
C
102
}
330
C
100
AcDbDictionary
281
     1
  3
A4
350
1E
  3
Model
350
22
  0
DICTIONARY
  5
17
102
{ACAD_REACTORS
330
C
102
}
330
C
100
AcDbDictionary
281
     1
  3
Standard
350
18
  0
DICTIONARY
  5
19
102
{ACAD_REACTORS
330
C
102
}
330
C
100
AcDbDictionary
281
     1
  0
ACDBDICTIONARYWDFLT
  5
E
102
{ACAD_REACTORS
330
C
102
}
330
C
100
AcDbDictionary
281
     1
  3
Normal
350
F
100
AcDbDictionaryWithDefault
340
F
  0
XRECORD
  5
13D0
102
{ACAD_REACTORS
330
C
102
}
330
C
100
AcDbXrecord
280
     1
 90
   990106
  3

 60
     0
 61
     0
 62
     1
 63
     3
 64
     0
 65
     0
 66
     0
 67
     3
 68
     1
 69
     0
 70
     0
 71
     0
 72
     0
 40
0.0
170
     0
340
0
  0
DICTIONARY
  5
6AD
102
{ACAD_REACTORS
330
C
102
}
330
C
100
AcDbDictionary
281
     1
  3
SORTENTS
350
6AE
  0
XRECORD
  5
30F
102
{ACAD_REACTORS
330
C
102
}
330
C
100
AcDbXrecord
280
     1
  1
DWGPROPS COOKIE
  2

  3

  4

  6

  7

  8

  9

300
=
301
=
302
=
303
=
304
=
305
=
306
=
307
=
308
=
309
=
 40
0.3303803125
 41
2452362.482225463
 42
2452370.969861285
  1

 90
        0
  0
LAYOUT
  5
1E
102
{ACAD_REACTORS
330
1A
102
}
330
1A
100
AcDbPlotSettings
  1

  2
EPSON PM-920C
  4
A4
  6

 40
3.757083177566528
 41
14.7637300491333
 42
3.757080078125
 43
3.757080078125
 44
209.9733276367187
 45
296.9683227539062
 46
0.0
 47
0.0
 48
0.0
 49
0.0
140
0.0
141
0.0
142
1.0
143
1.0
 70
   688
 72
     1
 73
     1
 74
     5
  7
joint.ctb
 75
    16
147
1.0
148
0.0
149
0.0
100
AcDbLayout
  1
A4
 70
     1
 71
     1
 10
-3.757080078125
 20
-3.757083177566528
 11
293.2112426757812
 21
206.2162444591522
 12
0.0
 22
0.0
 32
0.0
 14
-4.391850629656119
 24
-3.455038652015446
 34
0.0
 15
278.8458837249377
 25
202.387980773708
 35
0.0
146
0.0
 13
0.0
 23
0.0
 33
0.0
 16
1.0
 26
0.0
 36
0.0
 17
0.0
 27
1.0
 37
0.0
 76
     0
330
1B
331
30
  0
LAYOUT
  5
22
102
{ACAD_REACTORS
330
1A
102
}
330
1A
100
AcDbPlotSettings
  1

  2
EPSON PM-920C
  4
A4
  6

 40
3.757083177566528
 41
14.7637300491333
 42
3.757080078125
 43
3.757080078125
 44
209.9733276367187
 45
296.9683227539062
 46
0.0
 47
0.0
 48
0.0
 49
0.0
140
0.0
141
0.0
142
1.0
143
1.0
 70
 11952
 72
     1
 73
     1
 74
     0
  7

 75
     0
147
1.0
148
-45.64199848979289
149
-84.48806419330498
100
AcDbLayout
  1
Model
 70
     1
 71
     0
 10
0.0
 20
0.0
 11
12.0
 21
9.0
 12
0.0
 22
0.0
 32
0.0
 14
0.0
 24
0.0
 34
0.0
 15
0.0
 25
0.0
 35
0.0
146
0.0
 13
0.0
 23
0.0
 33
0.0
 16
1.0
 26
0.0
 36
0.0
 17
0.0
 27
1.0
 37
0.0
 76
     0
330
1F
  0
MLINESTYLE
  5
18
102
{ACAD_REACTORS
330
17
102
}
330
17
100
AcDbMlineStyle
  2
STANDARD
 70
     0
  3

 62
   256
 51
90.0
 52
90.0
 71
     2
 49
0.5
 62
   256
  6
BYLAYER
 49
-0.5
 62
   256
  6
BYLAYER
  0
ACDBPLACEHOLDER
  5
F
102
{ACAD_REACTORS
330
E
102
}
330
E
  0
DICTIONARYVAR
  5
6AE
102
{ACAD_REACTORS
330
6AD
102
}
330
6AD
100
DictionaryVariables
280
     0
  1
96
  0
ENDSEC
  0
EOF
