  0
SECTION
  2
HEADER
  9
$ACADVER
  1
AC1015
  9
$ACADMAINTVER
 70
     6
  9
$DWGCODEPAGE
  3
ANSI_932
  9
$INSBASE
 10
0.0
 20
0.0
 30
0.0
  9
$EXTMIN
 10
277.2364578596693
 20
-157.0043113898074
 30
0.0
  9
$EXTMAX
 10
667.1310236327325
 20
129.8536275591684
 30
0.0
  9
$LIMMIN
 10
0.0
 20
0.0
  9
$LIMMAX
 10
420.0
 20
297.0
  9
$ORTHOMODE
 70
     1
  9
$REGENMODE
 70
     1
  9
$FILLMODE
 70
     1
  9
$QTEXTMODE
 70
     0
  9
$MIRRTEXT
 70
     1
  9
$LTSCALE
 40
1.0
  9
$ATTMODE
 70
     1
  9
$TEXTSIZE
 40
5.0
  9
$TRACEWID
 40
1.0
  9
$TEXTSTYLE
  7
OKANO
  9
$CLAYER
  8
太線
  9
$CELTYPE
  6
ByLayer
  9
$CECOLOR
 62
   256
  9
$CELTSCALE
 40
1.0
  9
$DISPSILH
 70
     0
  9
$DIMSCALE
 40
0.0
  9
$DIMASZ
 40
3.0
  9
$DIMEXO
 40
2.0
  9
$DIMDLI
 40
8.0
  9
$DIMRND
 40
0.0
  9
$DIMDLE
 40
0.0
  9
$DIMEXE
 40
3.0
  9
$DIMTP
 40
0.0
  9
$DIMTM
 40
0.0
  9
$DIMTXT
 40
5.0
  9
$DIMCEN
 40
2.5
  9
$DIMTSZ
 40
0.0
  9
$DIMTOL
 70
     0
  9
$DIMLIM
 70
     0
  9
$DIMTIH
 70
     0
  9
$DIMTOH
 70
     0
  9
$DIMSE1
 70
     0
  9
$DIMSE2
 70
     0
  9
$DIMTAD
 70
     1
  9
$DIMZIN
 70
     8
  9
$DIMBLK
  1
Closed
  9
$DIMASO
 70
     1
  9
$DIMSHO
 70
     1
  9
$DIMPOST
  1

  9
$DIMAPOST
  1

  9
$DIMALT
 70
     0
  9
$DIMALTD
 70
     3
  9
$DIMALTF
 40
0.03937007874016
  9
$DIMLFAC
 40
1.0
  9
$DIMTOFL
 70
     1
  9
$DIMTVP
 40
0.0
  9
$DIMTIX
 70
     0
  9
$DIMSOXD
 70
     0
  9
$DIMSAH
 70
     0
  9
$DIMBLK1
  1

  9
$DIMBLK2
  1

  9
$DIMSTYLE
  2
sunpo
  9
$DIMCLRD
 70
     0
  9
$DIMCLRE
 70
     0
  9
$DIMCLRT
 70
     0
  9
$DIMTFAC
 40
1.0
  9
$DIMGAP
 40
1.0
  9
$DIMJUST
 70
     0
  9
$DIMSD1
 70
     0
  9
$DIMSD2
 70
     0
  9
$DIMTOLJ
 70
     0
  9
$DIMTZIN
 70
     8
  9
$DIMALTZ
 70
     0
  9
$DIMALTTZ
 70
     0
  9
$DIMUPT
 70
     0
  9
$DIMDEC
 70
     2
  9
$DIMTDEC
 70
     2
  9
$DIMALTU
 70
     2
  9
$DIMALTTD
 70
     3
  9
$DIMTXSTY
  7
OKANO
  9
$DIMAUNIT
 70
     0
  9
$DIMADEC
 70
     0
  9
$DIMALTRND
 40
0.0
  9
$DIMAZIN
 70
     0
  9
$DIMDSEP
 70
    46
  9
$DIMATFIT
 70
     3
  9
$DIMFRAC
 70
     0
  9
$DIMLDRBLK
  1
Closed
  9
$DIMLUNIT
 70
     2
  9
$DIMLWD
 70
    -2
  9
$DIMLWE
 70
    -2
  9
$DIMTMOVE
 70
     0
  9
$LUNITS
 70
     2
  9
$LUPREC
 70
     2
  9
$SKETCHINC
 40
1.0
  9
$FILLETRAD
 40
1.0
  9
$AUNITS
 70
     0
  9
$AUPREC
 70
     0
  9
$MENU
  1
.
  9
$ELEVATION
 40
0.0
  9
$PELEVATION
 40
0.0
  9
$THICKNESS
 40
0.0
  9
$LIMCHECK
 70
     0
  9
$CHAMFERA
 40
10.0
  9
$CHAMFERB
 40
10.0
  9
$CHAMFERC
 40
20.0
  9
$CHAMFERD
 40
0.0
  9
$SKPOLY
 70
     0
  9
$TDCREATE
 40
2452362.482225463
  9
$TDUCREATE
 40
2452362.107225463
  9
$TDUPDATE
 40
2455957.595869329
  9
$TDUUPDATE
 40
2455957.220869328
  9
$TDINDWG
 40
2.1709525694
  9
$TDUSRTIMER
 40
2.1709525694
  9
$USRTIMER
 70
     1
  9
$ANGBASE
 50
0.0
  9
$ANGDIR
 70
     0
  9
$PDMODE
 70
     0
  9
$PDSIZE
 40
0.0
  9
$PLINEWID
 40
0.0
  9
$SPLFRAME
 70
     0
  9
$SPLINETYPE
 70
     6
  9
$SPLINESEGS
 70
     8
  9
$HANDSEED
  5
3DA1
  9
$SURFTAB1
 70
     6
  9
$SURFTAB2
 70
     6
  9
$SURFTYPE
 70
     6
  9
$SURFU
 70
     6
  9
$SURFV
 70
     6
  9
$UCSBASE
  2

  9
$UCSNAME
  2

  9
$UCSORG
 10
0.0
 20
0.0
 30
0.0
  9
$UCSXDIR
 10
1.0
 20
0.0
 30
0.0
  9
$UCSYDIR
 10
0.0
 20
1.0
 30
0.0
  9
$UCSORTHOREF
  2

  9
$UCSORTHOVIEW
 70
     0
  9
$UCSORGTOP
 10
0.0
 20
0.0
 30
0.0
  9
$UCSORGBOTTOM
 10
0.0
 20
0.0
 30
0.0
  9
$UCSORGLEFT
 10
0.0
 20
0.0
 30
0.0
  9
$UCSORGRIGHT
 10
0.0
 20
0.0
 30
0.0
  9
$UCSORGFRONT
 10
0.0
 20
0.0
 30
0.0
  9
$UCSORGBACK
 10
0.0
 20
0.0
 30
0.0
  9
$PUCSBASE
  2

  9
$PUCSNAME
  2

  9
$PUCSORG
 10
0.0
 20
0.0
 30
0.0
  9
$PUCSXDIR
 10
1.0
 20
0.0
 30
0.0
  9
$PUCSYDIR
 10
0.0
 20
1.0
 30
0.0
  9
$PUCSORTHOREF
  2

  9
$PUCSORTHOVIEW
 70
     0
  9
$PUCSORGTOP
 10
0.0
 20
0.0
 30
0.0
  9
$PUCSORGBOTTOM
 10
0.0
 20
0.0
 30
0.0
  9
$PUCSORGLEFT
 10
0.0
 20
0.0
 30
0.0
  9
$PUCSORGRIGHT
 10
0.0
 20
0.0
 30
0.0
  9
$PUCSORGFRONT
 10
0.0
 20
0.0
 30
0.0
  9
$PUCSORGBACK
 10
0.0
 20
0.0
 30
0.0
  9
$USERI1
 70
     0
  9
$USERI2
 70
     0
  9
$USERI3
 70
     0
  9
$USERI4
 70
     0
  9
$USERI5
 70
     0
  9
$USERR1
 40
0.0
  9
$USERR2
 40
0.0
  9
$USERR3
 40
0.0
  9
$USERR4
 40
0.0
  9
$USERR5
 40
0.0
  9
$WORLDVIEW
 70
     1
  9
$SHADEDGE
 70
     3
  9
$SHADEDIF
 70
    70
  9
$TILEMODE
 70
     0
  9
$MAXACTVP
 70
    64
  9
$PINSBASE
 10
0.0
 20
0.0
 30
0.0
  9
$PLIMCHECK
 70
     0
  9
$PEXTMIN
 10
-4.391850629656119
 20
-3.455038652015446
 30
0.0
  9
$PEXTMAX
 10
278.8458837249377
 20
202.387980773708
 30
0.0
  9
$PLIMMIN
 10
-3.757080078125
 20
-3.757083177566528
  9
$PLIMMAX
 10
293.2112426757812
 20
206.2162444591522
  9
$UNITMODE
 70
     0
  9
$VISRETAIN
 70
     1
  9
$PLINEGEN
 70
     0
  9
$PSLTSCALE
 70
     1
  9
$TREEDEPTH
 70
  3020
  9
$CMLSTYLE
  2
Standard
  9
$CMLJUST
 70
     0
  9
$CMLSCALE
 40
20.0
  9
$PROXYGRAPHICS
 70
     1
  9
$MEASUREMENT
 70
     1
  9
$CELWEIGHT
370
    -1
  9
$ENDCAPS
280
     0
  9
$JOINSTYLE
280
     0
  9
$LWDISPLAY
290
     0
  9
$INSUNITS
 70
     4
  9
$HYPERLINKBASE
  1

  9
$STYLESHEET
  1

  9
$XEDIT
290
     1
  9
$CEPSNTYPE
380
     0
  9
$PSTYLEMODE
290
     1
  9
$FINGERPRINTGUID
  2
{FF7F33C3-4233-11D6-AEE0-0000F45FD7F4}
  9
$VERSIONGUID
  2
{B25B43D6-2CB2-43BB-85E0-731ED91B25A5}
  9
$EXTNAMES
290
     1
  9
$PSVPSCALE
 40
0.0
  9
$OLESTARTUP
290
     0
  0
ENDSEC
  0
SECTION
  2
CLASSES
  0
CLASS
  1
ACDBDICTIONARYWDFLT
  2
AcDbDictionaryWithDefault
  3
AutoCAD 2000
 90
        0
280
     0
281
     0
  0
CLASS
  1
ACDBPLACEHOLDER
  2
AcDbPlaceHolder
  3
AutoCAD 2000
 90
        0
280
     0
281
     0
  0
CLASS
  1
LAYOUT
  2
AcDbLayout
  3
AutoCAD 2000
 90
        0
280
     0
281
     0
  0
CLASS
  1
DICTIONARYVAR
  2
AcDbDictionaryVar
  3
AutoCAD 2000
 90
        0
280
     0
281
     0
  0
ENDSEC
  0
SECTION
  2
TABLES
  0
TABLE
  2
VPORT
  5
8
330
0
100
AcDbSymbolTable
 70
     2
  0
VPORT
  5
3DA0
330
8
100
AcDbSymbolTableRecord
100
AcDbViewportTableRecord
  2
*Active
 70
     0
 10
0.0
 20
0.0
 11
1.0
 21
1.0
 12
369.9950136877341
 22
57.15681383598317
 13
0.0
 23
0.0
 14
5.0
 24
5.0
 15
10.0
 25
10.0
 16
0.0
 26
0.0
 36
1.0
 17
0.0
 27
0.0
 37
0.0
 40
241.9388117022634
 41
2.08724832214765
 42
50.0
 43
0.0
 44
0.0
 50
0.0
 51
0.0
 71
     0
 72
   100
 73
     1
 74
     3
 75
     0
 76
     0
 77
     0
 78
     0
281
     0
 65
     1
110
0.0
120
0.0
130
0.0
111
1.0
121
0.0
131
0.0
112
0.0
122
1.0
132
0.0
 79
     0
146
0.0
  0
ENDTAB
  0
TABLE
  2
LTYPE
  5
5
330
0
100
AcDbSymbolTable
 70
     5
  0
LTYPE
  5
14
330
5
100
AcDbSymbolTableRecord
100
AcDbLinetypeTableRecord
  2
ByBlock
 70
     0
  3

 72
    65
 73
     0
 40
0.0
  0
LTYPE
  5
15
330
5
100
AcDbSymbolTableRecord
100
AcDbLinetypeTableRecord
  2
ByLayer
 70
     0
  3

 72
    65
 73
     0
 40
0.0
  0
LTYPE
  5
16
330
5
100
AcDbSymbolTableRecord
100
AcDbLinetypeTableRecord
  2
Continuous
 70
     0
  3
Solid line
 72
    65
 73
     0
 40
0.0
  0
LTYPE
  5
33
330
5
100
AcDbSymbolTableRecord
100
AcDbLinetypeTableRecord
  2
DASHED2
 70
     0
  3
Dashed (.5x) _ _ _ _ _ _ _ _ _ _ _ _ _ _ _ _ _
 72
    65
 73
     2
 40
9.524999999999998
 49
6.349999999999999
 74
     0
 49
-3.174999999999999
 74
     0
  0
LTYPE
  5
34
330
5
100
AcDbSymbolTableRecord
100
AcDbLinetypeTableRecord
  2
CENTER2
 70
     0
  3
Center (.5x) ___ _ ___ _ ___ _ ___ _ ___ _ ___
 72
    65
 73
     4
 40
28.57499999999999
 49
19.05
 74
     0
 49
-3.174999999999999
 74
     0
 49
3.174999999999999
 74
     0
 49
-3.174999999999999
 74
     0
  0
LTYPE
  5
35
330
5
100
AcDbSymbolTableRecord
100
AcDbLinetypeTableRecord
  2
PHANTOM2
 70
     0
  3
Phantom (.5x) ___ _ _ ___ _ _ ___ _ _ ___ _ _
 72
    65
 73
     6
 40
31.75
 49
15.875
 74
     0
 49
-3.174999999999999
 74
     0
 49
3.174999999999999
 74
     0
 49
-3.174999999999999
 74
     0
 49
3.174999999999999
 74
     0
 49
-3.174999999999999
 74
     0
  0
LTYPE
  5
36
330
5
100
AcDbSymbolTableRecord
100
AcDbLinetypeTableRecord
  2
HIDDEN2
 70
     0
  3
Hidden (.5x) _ _ _ _ _ _ _ _ _ _ _ _ _ _ _ _ _
 72
    65
 73
     2
 40
4.762499999999999
 49
3.174999999999999
 74
     0
 49
-1.587499999999999
 74
     0
  0
ENDTAB
  0
TABLE
  2
LAYER
  5
2
330
0
100
AcDbSymbolTable
 70
    13
  0
LAYER
  5
10
330
2
100
AcDbSymbolTableRecord
100
AcDbLayerTableRecord
  2
0
 70
     0
 62
     7
  6
Continuous
370
    -3
390
F
  0
LAYER
  5
40
330
2
100
AcDbSymbolTableRecord
100
AcDbLayerTableRecord
  2
50-0-CON
 70
     0
 62
     4
  6
Continuous
370
    50
390
F
  0
LAYER
  5
41
330
2
100
AcDbSymbolTableRecord
100
AcDbLayerTableRecord
  2
70-0-CON
 70
     0
 62
   202
  6
Continuous
370
    70
390
F
  0
LAYER
  5
4E
330
2
100
AcDbSymbolTableRecord
100
AcDbLayerTableRecord
  2
極太線
 70
     0
 62
     7
  6
Continuous
370
    70
390
F
  0
LAYER
  5
4F
330
2
100
AcDbSymbolTableRecord
100
AcDbLayerTableRecord
  2
細線
 70
     0
 62
     8
  6
Continuous
370
    18
390
F
  0
LAYER
  5
AB
330
2
100
AcDbSymbolTableRecord
100
AcDbLayerTableRecord
  2
構築線
 70
     0
 62
    -2
  6
Continuous
290
     0
370
    18
390
F
  0
LAYER
  5
B8
330
2
100
AcDbSymbolTableRecord
100
AcDbLayerTableRecord
  2
太線
 70
     0
 62
     7
  6
Continuous
370
    35
390
F
  0
LAYER
  5
B9
330
2
100
AcDbSymbolTableRecord
100
AcDbLayerTableRecord
  2
寸法線
 70
     0
 62
     5
  6
Continuous
370
    18
390
F
  0
LAYER
  5
BA
330
2
100
AcDbSymbolTableRecord
100
AcDbLayerTableRecord
  2
破線
 70
     0
 62
     8
  6
HIDDEN2
370
    18
390
F
  0
LAYER
  5
BB
330
2
100
AcDbSymbolTableRecord
100
AcDbLayerTableRecord
  2
中心線
 70
     0
 62
     1
  6
CENTER2
370
    18
390
F
  0
LAYER
  5
BC
330
2
100
AcDbSymbolTableRecord
100
AcDbLayerTableRecord
  2
想像線
 70
     0
 62
     8
  6
PHANTOM2
370
    18
390
F
  0
LAYER
  5
BD
330
2
100
AcDbSymbolTableRecord
100
AcDbLayerTableRecord
  2
文字
 70
     0
 62
     7
  6
Continuous
370
    18
390
F
  0
LAYER
  5
180
330
2
100
AcDbSymbolTableRecord
100
AcDbLayerTableRecord
  2
Defpoints
 70
     0
 62
     7
  6
Continuous
290
     0
370
    -3
390
F
  0
ENDTAB
  0
TABLE
  2
STYLE
  5
3
330
0
100
AcDbSymbolTable
 70
     3
  0
STYLE
  5
11
330
3
100
AcDbSymbolTableRecord
100
AcDbTextStyleTableRecord
  2
Standard
 70
     0
 40
0.0
 41
1.0
 50
0.0
 71
     0
 42
3.0
  3
txt
  4

  0
STYLE
  5
32
330
3
100
AcDbSymbolTableRecord
100
AcDbTextStyleTableRecord
  2

 70
     1
 40
0.0
 41
1.0
 50
0.0
 71
     0
 42
2.5
  3
ltypeshp.shx
  4

  0
STYLE
  5
50
330
3
100
AcDbSymbolTableRecord
100
AcDbTextStyleTableRecord
  2
OKANO
 70
     0
 40
0.0
 41
1.0
 50
15.0
 71
     0
 42
5.0
  3
isocp.shx
  4
bigfont.shx
  0
ENDTAB
  0
TABLE
  2
VIEW
  5
6
330
0
100
AcDbSymbolTable
 70
     0
  0
ENDTAB
  0
TABLE
  2
UCS
  5
7
330
0
100
AcDbSymbolTable
 70
     0
  0
ENDTAB
  0
TABLE
  2
APPID
  5
9
330
0
100
AcDbSymbolTable
 70
     1
  0
APPID
  5
12
330
9
100
AcDbSymbolTableRecord
100
AcDbRegAppTableRecord
  2
ACAD
 70
     0
  0
ENDTAB
  0
TABLE
  2
DIMSTYLE
  5
A
330
0
100
AcDbSymbolTable
 70
     2
100
AcDbDimStyleTable
 71
     2
340
A2
340
27
  0
DIMSTYLE
105
27
330
A
100
AcDbSymbolTableRecord
100
AcDbDimStyleTableRecord
  2
ISO-25
 70
     0
 41
2.5
 42
0.625
 43
3.75
 44
1.25
 73
     0
 74
     0
 77
     1
 78
     8
140
2.5
141
2.5
143
0.03937007874016
147
0.625
171
     3
172
     1
271
     2
272
     2
274
     3
283
     0
284
     8
340
11
  0
DIMSTYLE
105
A2
102
{ACAD_REACTORS
330
2E95
330
2EA2
330
2EAF
330
2EBC
330
2ED8
330
2EE5
330
2F4C
330
3D25
330
3D78
102
}
330
A
100
AcDbSymbolTableRecord
100
AcDbDimStyleTableRecord
  2
sunpo
 70
     0
 40
0.0
 41
3.0
 42
2.0
 43
8.0
 44
3.0
 73
     0
 74
     0
 77
     1
 78
     8
140
5.0
141
2.5
143
0.03937007874016
147
1.0
171
     3
172
     1
271
     2
272
     2
274
     3
283
     0
284
     8
340
50
341
9B
342
9B
  0
ENDTAB
  0
TABLE
  2
BLOCK_RECORD
  5
1
330
0
100
AcDbSymbolTable
 70
    42
  0
BLOCK_RECORD
  5
1F
330
1
100
AcDbSymbolTableRecord
100
AcDbBlockTableRecord
  2
*Model_Space
340
22
  0
BLOCK_RECORD
  5
1B
330
1
100
AcDbSymbolTableRecord
100
AcDbBlockTableRecord
  2
*Paper_Space
340
1E
  0
BLOCK_RECORD
  5
9B
330
1
100
AcDbSymbolTableRecord
100
AcDbBlockTableRecord
  2
_Closed
340
0
102
{BLKREFS
331
348D
331
348E
331
3529
331
352A
331
3532
331
3538
331
3539
331
3541
331
3542
331
354A
331
354B
331
355A
331
355B
331
385A
331
385B
331
39DA
331
39DB
331
3A26
331
3A27
331
3A2F
331
3A30
331
3A44
331
3A45
331
3A55
331
3A56
331
3A5F
331
3A60
331
3A70
331
3A71
331
3AA5
331
3AA6
331
3ABC
331
3ABD
331
3B14
331
3B15
331
3B1D
331
3B1E
331
3B3A
331
3B3B
331
3B69
331
3B6A
331
3B89
331
3B8A
331
3BB8
331
3BB9
331
3BEE
331
3BEF
331
3CDB
331
3CDC
331
3D0A
331
3D0B
331
3D17
331
3D18
331
3D2A
331
3D2B
331
3D37
331
3D38
331
3D40
331
3D41
331
3D49
331
3D4A
331
3D54
331
3D55
331
3D5D
331
3D5E
331
3D66
331
3D67
331
3D71
331
3D72
331
3D89
331
3D8A
331
3D9A
331
3D9B
102
}
  0
BLOCK_RECORD
  5
1510
330
1
100
AcDbSymbolTableRecord
100
AcDbBlockTableRecord
  2
A$C10A573AC
340
0
  0
BLOCK_RECORD
  5
2E96
330
1
100
AcDbSymbolTableRecord
100
AcDbBlockTableRecord
  2
*D2
340
0
  0
BLOCK_RECORD
  5
2EA3
330
1
100
AcDbSymbolTableRecord
100
AcDbBlockTableRecord
  2
*D3
340
0
  0
BLOCK_RECORD
  5
2EB0
330
1
100
AcDbSymbolTableRecord
100
AcDbBlockTableRecord
  2
*D4
340
0
  0
BLOCK_RECORD
  5
2EBD
330
1
100
AcDbSymbolTableRecord
100
AcDbBlockTableRecord
  2
*D5
340
0
  0
BLOCK_RECORD
  5
2ED9
330
1
100
AcDbSymbolTableRecord
100
AcDbBlockTableRecord
  2
*D7
340
0
  0
BLOCK_RECORD
  5
2EE6
330
1
100
AcDbSymbolTableRecord
100
AcDbBlockTableRecord
  2
*D8
340
0
  0
BLOCK_RECORD
  5
2F4D
330
1
100
AcDbSymbolTableRecord
100
AcDbBlockTableRecord
  2
*D11
340
0
  0
BLOCK_RECORD
  5
3D26
330
1
100
AcDbSymbolTableRecord
100
AcDbBlockTableRecord
  2
*D40
340
0
  0
BLOCK_RECORD
  5
3D79
330
1
100
AcDbSymbolTableRecord
100
AcDbBlockTableRecord
  2
*D41
340
0
  0
ENDTAB
  0
ENDSEC
  0
SECTION
  2
BLOCKS
  0
BLOCK
  5
20
330
1F
100
AcDbEntity
  8
0
100
AcDbBlockBegin
  2
*Model_Space
 70
     0
 10
0.0
 20
0.0
 30
0.0
  3
*Model_Space
  1

  0
ENDBLK
  5
21
330
1F
100
AcDbEntity
  8
0
100
AcDbBlockEnd
  0
BLOCK
  5
1C
330
1B
100
AcDbEntity
 67
     1
  8
0
100
AcDbBlockBegin
  2
*Paper_Space
 70
     0
 10
0.0
 20
0.0
 30
0.0
  3
*Paper_Space
  1

  0
ENDBLK
  5
1D
330
1B
100
AcDbEntity
 67
     1
  8
0
100
AcDbBlockEnd
  0
BLOCK
  5
A0
330
9B
100
AcDbEntity
  8
0
100
AcDbBlockBegin
  2
_Closed
 70
     0
 10
0.0
 20
0.0
 30
0.0
  3
_Closed
  1

  0
LINE
  5
9C
330
9B
100
AcDbEntity
  8
0
 62
     0
370
    -2
100
AcDbLine
 10
-1.0
 20
0.1666666666666666
 30
0.0
 11
0.0
 21
0.0
 31
0.0
  0
LINE
  5
9D
330
9B
100
AcDbEntity
  8
0
 62
     0
370
    -2
100
AcDbLine
 10
0.0
 20
0.0
 30
0.0
 11
-1.0
 21
-0.1666666666666666
 31
0.0
  0
LINE
  5
9E
330
9B
100
AcDbEntity
  8
0
 62
     0
370
    -2
100
AcDbLine
 10
-1.0
 20
0.1666666666666666
 30
0.0
 11
-1.0
 21
-0.1666666666666666
 31
0.0
  0
LINE
  5
9F
330
9B
100
AcDbEntity
  8
0
 62
     0
370
    -2
100
AcDbLine
 10
0.0
 20
0.0
 30
0.0
 11
-1.0
 21
0.0
 31
0.0
  0
ENDBLK
  5
A1
330
9B
100
AcDbEntity
  8
0
100
AcDbBlockEnd
  0
BLOCK
  5
155B
330
1510
100
AcDbEntity
  8
0
100
AcDbBlockBegin
  2
A$C10A573AC
 70
     0
 10
0.0
 20
0.0
 30
0.0
  3
A$C10A573AC
  1

  0
TEXT
  5
1511
330
1510
100
AcDbEntity
  8
文字
100
AcDbText
 10
0.9844302777919438
 20
5.224957122252135
 30
0.0
 40
3.0
  1
Materal : Steel.
 51
15.0
  7
OKANO
100
AcDbText
  0
TEXT
  5
1512
330
1510
100
AcDbEntity
  8
文字
100
AcDbText
 10
-0.1141909619694843
 20
0.7500001922403499
 30
0.0
 40
3.0
  1
Surface treatment : Electro galvanized.
 51
15.0
  7
OKANO
100
AcDbText
  0
TEXT
  5
1513
330
1510
100
AcDbEntity
  8
文字
100
AcDbText
 10
-0.4901926332574931
 20
9.159967445193728
 30
0.0
 40
3.0
  1
5 TORGUE SCREW  M5-6
 51
15.0
  7
OKANO
100
AcDbText
  0
TEXT
  5
1514
330
1510
100
AcDbEntity
  8
文字
100
AcDbText
 10
1.364713526390005
 20
78.88822913323082
 30
0.0
 40
3.0
  1
Special standard,
 51
15.0
  7
OKANO
100
AcDbText
  0
TEXT
  5
1515
330
1510
100
AcDbEntity
  8
文字
100
AcDbText
 10
92.88160823408942
 20
89.92753849837379
 30
0.0
 40
3.0
  1
Screw Type
 51
15.0
  7
OKANO
100
AcDbText
  0
LINE
  5
1516
330
1510
100
AcDbEntity
  8
太線
100
AcDbLine
 10
113.9464587597784
 20
81.93930390144641
 30
0.0
 11
112.4464587597784
 21
81.93930390144641
 31
0.0
  0
LINE
  5
1517
330
1510
100
AcDbEntity
  8
太線
100
AcDbLine
 10
112.4464587597784
 20
76.9393039014464
 30
0.0
 11
121.4644995438761
 21
76.9393039014464
 31
0.0
  0
TEXT
  5
1518
330
1510
100
AcDbEntity
  8
文字
100
AcDbText
 10
93.46068240437217
 20
77.96976862235396
 30
0.0
 40
2.0
  1
17-30
 51
15.0
  7
OKANO
100
AcDbText
  0
LINE
  5
1519
330
1510
100
AcDbEntity
  8
太線
100
AcDbLine
 10
111.9464587597784
 20
81.43930390144641
 30
0.0
 11
111.9464587597784
 21
77.4393039014464
 31
0.0
  0
LINE
  5
151A
330
1510
100
AcDbEntity
  8
太線
100
AcDbLine
 10
91.94645875977846
 20
81.43930390144641
 30
0.0
 11
91.94645875977846
 21
77.43930390144639
 31
0.0
  0
LINE
  5
151B
330
1510
100
AcDbEntity
  8
太線
100
AcDbLine
 10
101.9644995438761
 20
77.4393039014464
 30
0.0
 11
101.9644995438761
 21
81.43930390144641
 31
0.0
  0
LINE
  5
151C
330
1510
100
AcDbEntity
  8
太線
100
AcDbLine
 10
92.44645875977846
 20
76.9393039014464
 30
0.0
 11
101.4644995438761
 21
76.9393039014464
 31
0.0
  0
ARC
  5
151D
330
1510
100
AcDbEntity
  8
太線
100
AcDbCircle
 10
92.44645875977846
 20
77.43930390144639
 30
0.0
 40
0.5
100
AcDbArc
 50
180.0
 51
270.0
  0
ARC
  5
151E
330
1510
100
AcDbEntity
  8
太線
100
AcDbCircle
 10
101.4644995438761
 20
77.4393039014464
 30
0.0
 40
0.5
100
AcDbArc
 50
270.0
 51
0.0
  0
ARC
  5
151F
330
1510
100
AcDbEntity
  8
太線
100
AcDbCircle
 10
112.4464587597784
 20
77.4393039014464
 30
0.0
 40
0.5
100
AcDbArc
 50
180.0
 51
270.0
  0
LINE
  5
1520
330
1510
100
AcDbEntity
  8
想像線
100
AcDbLine
 10
93.94645875977847
 20
81.93930390144641
 30
0.0
 11
99.96449954387617
 21
81.93930390144641
 31
0.0
  0
LINE
  5
1521
330
1510
100
AcDbEntity
  8
極太線
100
AcDbLine
 10
96.38762957111168
 20
85.43930390144641
 30
0.0
 11
97.50528794844525
 21
85.43930390144641
 31
0.0
  0
CIRCLE
  5
1522
330
1510
100
AcDbEntity
  8
太線
100
AcDbCircle
 10
96.94645875977847
 20
85.43930390144641
 30
0.0
 40
0.5588291886667776
  0
LINE
  5
1523
330
1510
100
AcDbEntity
  8
太線
100
AcDbLine
 10
99.46449954387617
 20
86.93930390144641
 30
0.0
 11
94.44645875977846
 21
86.93930390144641
 31
0.0
  0
LINE
  5
1524
330
1510
100
AcDbEntity
  8
太線
100
AcDbLine
 10
93.94645875977847
 20
86.43930390144641
 30
0.0
 11
93.94645875977847
 21
81.93930390144641
 31
0.0
  0
ARC
  5
1525
330
1510
100
AcDbEntity
  8
太線
100
AcDbCircle
 10
92.44645875977846
 20
81.43930390144641
 30
0.0
 40
0.5
100
AcDbArc
 50
90.0
 51
180.0
  0
LINE
  5
1526
330
1510
100
AcDbEntity
  8
太線
100
AcDbLine
 10
93.94645875977847
 20
81.93930390144641
 30
0.0
 11
92.44645875977846
 21
81.93930390144641
 31
0.0
  0
ARC
  5
1527
330
1510
100
AcDbEntity
  8
太線
100
AcDbCircle
 10
94.44645875977846
 20
86.43930390144641
 30
0.0
 40
0.5
100
AcDbArc
 50
90.0
 51
180.0
  0
LINE
  5
1528
330
1510
100
AcDbEntity
  8
太線
100
AcDbLine
 10
99.96449954387617
 20
81.93930390144641
 30
0.0
 11
99.96449954387617
 21
86.43930390144641
 31
0.0
  0
LINE
  5
1529
330
1510
100
AcDbEntity
  8
太線
100
AcDbLine
 10
101.4644995438761
 20
81.93930390144641
 30
0.0
 11
99.96449954387617
 21
81.93930390144641
 31
0.0
  0
ARC
  5
152A
330
1510
100
AcDbEntity
  8
太線
100
AcDbCircle
 10
101.4644995438761
 20
81.43930390144641
 30
0.0
 40
0.5
100
AcDbArc
 50
0.0
 51
90.0
  0
ARC
  5
152B
330
1510
100
AcDbEntity
  8
太線
100
AcDbCircle
 10
99.46449954387617
 20
86.43930390144641
 30
0.0
 40
0.5
100
AcDbArc
 50
0.0
 51
90.0
  0
LINE
  5
152C
330
1510
100
AcDbEntity
  8
極太線
100
AcDbLine
 10
96.94645875977847
 20
85.99813309011318
 30
0.0
 11
96.94645875977847
 21
84.88047471277964
 31
0.0
  0
ARC
  5
152D
330
1510
100
AcDbEntity
  8
太線
100
AcDbCircle
 10
112.4464587597784
 20
81.43930390144641
 30
0.0
 40
0.5
100
AcDbArc
 50
90.0
 51
180.0
  0
TEXT
  5
152E
330
1510
100
AcDbEntity
  8
文字
100
AcDbText
 10
134.3819212586066
 20
78.16263579228063
 30
0.0
 40
2.0
  1
101
 51
15.0
  7
OKANO
100
AcDbText
  0
TEXT
  5
152F
330
1510
100
AcDbEntity
  8
文字
100
AcDbText
 10
113.3422276612066
 20
77.96976862235396
 30
0.0
 40
2.0
  1
38-83
 51
15.0
  7
OKANO
100
AcDbText
  0
LINE
  5
1530
330
1510
100
AcDbEntity
  8
太線
100
AcDbLine
 10
141.9825403279738
 20
77.4393039014464
 30
0.0
 11
141.9825403279738
 21
81.43930390144641
 31
0.0
  0
LINE
  5
1531
330
1510
100
AcDbEntity
  8
太線
100
AcDbLine
 10
131.9644995438761
 20
81.43930390144641
 30
0.0
 11
131.9644995438761
 21
77.4393039014464
 31
0.0
  0
LINE
  5
1532
330
1510
100
AcDbEntity
  8
太線
100
AcDbLine
 10
121.9644995438761
 20
77.4393039014464
 30
0.0
 11
121.9644995438761
 21
81.43930390144641
 31
0.0
  0
ARC
  5
1533
330
1510
100
AcDbEntity
  8
太線
100
AcDbCircle
 10
121.4644995438761
 20
77.4393039014464
 30
0.0
 40
0.5
100
AcDbArc
 50
270.0
 51
0.0
  0
LINE
  5
1534
330
1510
100
AcDbEntity
  8
太線
100
AcDbLine
 10
132.4644995438761
 20
76.9393039014464
 30
0.0
 11
141.4825403279738
 21
76.9393039014464
 31
0.0
  0
ARC
  5
1535
330
1510
100
AcDbEntity
  8
太線
100
AcDbCircle
 10
132.4644995438761
 20
77.4393039014464
 30
0.0
 40
0.5
100
AcDbArc
 50
180.0
 51
270.0
  0
ARC
  5
1536
330
1510
100
AcDbEntity
  8
太線
100
AcDbCircle
 10
141.4825403279738
 20
77.4393039014464
 30
0.0
 40
0.5
100
AcDbArc
 50
270.0
 51
0.0
  0
ARC
  5
1537
330
1510
100
AcDbEntity
  8
太線
100
AcDbCircle
 10
121.4644995438761
 20
81.43930390144641
 30
0.0
 40
0.5
100
AcDbArc
 50
0.0
 51
90.0
  0
LINE
  5
1538
330
1510
100
AcDbEntity
  8
太線
100
AcDbLine
 10
119.9644995438761
 20
81.93930390144641
 30
0.0
 11
119.9644995438761
 21
86.43930390144641
 31
0.0
  0
LINE
  5
1539
330
1510
100
AcDbEntity
  8
太線
100
AcDbLine
 10
113.9464587597784
 20
86.43930390144641
 30
0.0
 11
113.9464587597784
 21
81.93930390144641
 31
0.0
  0
LINE
  5
153A
330
1510
100
AcDbEntity
  8
想像線
100
AcDbLine
 10
113.9464587597784
 20
81.93930390144641
 30
0.0
 11
119.9644995438761
 21
81.93930390144641
 31
0.0
  0
LINE
  5
153B
330
1510
100
AcDbEntity
  8
太線
100
AcDbLine
 10
121.4644995438761
 20
81.93930390144641
 30
0.0
 11
119.9644995438761
 21
81.93930390144641
 31
0.0
  0
LINE
  5
153C
330
1510
100
AcDbEntity
  8
太線
100
AcDbLine
 10
119.4644995438761
 20
86.93930390144641
 30
0.0
 11
114.4464587597784
 21
86.93930390144641
 31
0.0
  0
ARC
  5
153D
330
1510
100
AcDbEntity
  8
太線
100
AcDbCircle
 10
114.4464587597784
 20
86.43930390144641
 30
0.0
 40
0.5
100
AcDbArc
 50
90.0
 51
180.0
  0
CIRCLE
  5
153E
330
1510
100
AcDbEntity
  8
太線
100
AcDbCircle
 10
115.4464587597784
 20
85.43930390144641
 30
0.0
 40
0.5588291886667776
  0
LINE
  5
153F
330
1510
100
AcDbEntity
  8
極太線
100
AcDbLine
 10
115.4464587597784
 20
85.99813309011318
 30
0.0
 11
115.4464587597784
 21
84.88047471277964
 31
0.0
  0
LINE
  5
1540
330
1510
100
AcDbEntity
  8
極太線
100
AcDbLine
 10
114.8876295711116
 20
85.43930390144641
 30
0.0
 11
116.0052879484452
 21
85.43930390144641
 31
0.0
  0
ARC
  5
1541
330
1510
100
AcDbEntity
  8
太線
100
AcDbCircle
 10
119.4644995438761
 20
86.43930390144641
 30
0.0
 40
0.5
100
AcDbArc
 50
0.0
 51
90.0
  0
LINE
  5
1542
330
1510
100
AcDbEntity
  8
極太線
100
AcDbLine
 10
117.9056703552094
 20
85.43930390144641
 30
0.0
 11
119.0233287325429
 21
85.43930390144641
 31
0.0
  0
LINE
  5
1543
330
1510
100
AcDbEntity
  8
極太線
100
AcDbLine
 10
118.4644995438761
 20
85.99813309011318
 30
0.0
 11
118.4644995438761
 21
84.88047471277964
 31
0.0
  0
CIRCLE
  5
1544
330
1510
100
AcDbEntity
  8
太線
100
AcDbCircle
 10
118.4644995438761
 20
85.43930390144641
 30
0.0
 40
0.5588291886667776
  0
LINE
  5
1545
330
1510
100
AcDbEntity
  8
想像線
100
AcDbLine
 10
133.9644995438761
 20
81.93930390144641
 30
0.0
 11
139.9825403279738
 21
81.93930390144641
 31
0.0
  0
LINE
  5
1546
330
1510
100
AcDbEntity
  8
極太線
100
AcDbLine
 10
137.9237111393071
 20
85.43930390144641
 30
0.0
 11
139.0413695166406
 21
85.43930390144641
 31
0.0
  0
CIRCLE
  5
1547
330
1510
100
AcDbEntity
  8
太線
100
AcDbCircle
 10
138.4825403279738
 20
85.43930390144641
 30
0.0
 40
0.5588291886667776
  0
CIRCLE
  5
1548
330
1510
100
AcDbEntity
  8
太線
100
AcDbCircle
 10
138.4825403279738
 20
83.26342923362075
 30
0.0
 40
0.5588291886667776
  0
LINE
  5
1549
330
1510
100
AcDbEntity
  8
極太線
100
AcDbLine
 10
137.9237111393071
 20
83.26342923362075
 30
0.0
 11
139.0413695166406
 21
83.26342923362075
 31
0.0
  0
LINE
  5
154A
330
1510
100
AcDbEntity
  8
太線
100
AcDbLine
 10
139.4825403279738
 20
86.93930390144641
 30
0.0
 11
134.4644995438761
 21
86.93930390144641
 31
0.0
  0
LINE
  5
154B
330
1510
100
AcDbEntity
  8
太線
100
AcDbLine
 10
133.9644995438761
 20
86.43930390144641
 30
0.0
 11
133.9644995438761
 21
81.93930390144641
 31
0.0
  0
ARC
  5
154C
330
1510
100
AcDbEntity
  8
太線
100
AcDbCircle
 10
132.4644995438761
 20
81.43930390144641
 30
0.0
 40
0.5
100
AcDbArc
 50
90.0
 51
180.0
  0
LINE
  5
154D
330
1510
100
AcDbEntity
  8
太線
100
AcDbLine
 10
133.9644995438761
 20
81.93930390144641
 30
0.0
 11
132.4644995438761
 21
81.93930390144641
 31
0.0
  0
LINE
  5
154E
330
1510
100
AcDbEntity
  8
極太線
100
AcDbLine
 10
134.9056703552093
 20
83.26342923362075
 30
0.0
 11
136.0233287325429
 21
83.26342923362075
 31
0.0
  0
LINE
  5
154F
330
1510
100
AcDbEntity
  8
極太線
100
AcDbLine
 10
135.4644995438761
 20
83.82225842228752
 30
0.0
 11
135.4644995438761
 21
82.70460004495395
 31
0.0
  0
CIRCLE
  5
1550
330
1510
100
AcDbEntity
  8
太線
100
AcDbCircle
 10
135.4644995438761
 20
83.26342923362075
 30
0.0
 40
0.5588291886667776
  0
ARC
  5
1551
330
1510
100
AcDbEntity
  8
太線
100
AcDbCircle
 10
134.4644995438761
 20
86.43930390144641
 30
0.0
 40
0.5
100
AcDbArc
 50
90.0
 51
180.0
  0
CIRCLE
  5
1552
330
1510
100
AcDbEntity
  8
太線
100
AcDbCircle
 10
135.4644995438761
 20
85.43930390144641
 30
0.0
 40
0.5588291886667776
  0
LINE
  5
1553
330
1510
100
AcDbEntity
  8
極太線
100
AcDbLine
 10
135.4644995438761
 20
85.99813309011318
 30
0.0
 11
135.4644995438761
 21
84.88047471277964
 31
0.0
  0
LINE
  5
1554
330
1510
100
AcDbEntity
  8
極太線
100
AcDbLine
 10
134.9056703552093
 20
85.43930390144641
 30
0.0
 11
136.0233287325429
 21
85.43930390144641
 31
0.0
  0
LINE
  5
1555
330
1510
100
AcDbEntity
  8
太線
100
AcDbLine
 10
139.9825403279738
 20
81.93930390144641
 30
0.0
 11
139.9825403279738
 21
86.43930390144641
 31
0.0
  0
ARC
  5
1556
330
1510
100
AcDbEntity
  8
太線
100
AcDbCircle
 10
141.4825403279738
 20
81.43930390144641
 30
0.0
 40
0.5
100
AcDbArc
 50
0.0
 51
90.0
  0
LINE
  5
1557
330
1510
100
AcDbEntity
  8
極太線
100
AcDbLine
 10
138.4825403279738
 20
83.82225842228752
 30
0.0
 11
138.4825403279738
 21
82.70460004495395
 31
0.0
  0
LINE
  5
1558
330
1510
100
AcDbEntity
  8
太線
100
AcDbLine
 10
141.4825403279738
 20
81.93930390144641
 30
0.0
 11
139.9825403279738
 21
81.93930390144641
 31
0.0
  0
ARC
  5
1559
330
1510
100
AcDbEntity
  8
太線
100
AcDbCircle
 10
139.4825403279738
 20
86.43930390144641
 30
0.0
 40
0.5
100
AcDbArc
 50
0.0
 51
90.0
  0
LINE
  5
155A
330
1510
100
AcDbEntity
  8
極太線
100
AcDbLine
 10
138.4825403279738
 20
85.99813309011318
 30
0.0
 11
138.4825403279738
 21
84.88047471277964
 31
0.0
  0
ENDBLK
  5
155C
330
1510
100
AcDbEntity
  8
0
100
AcDbBlockEnd
  0
BLOCK
  5
2EA0
330
2E96
100
AcDbEntity
  8
0
100
AcDbBlockBegin
  2
*D2
 70
     1
 10
0.0
 20
0.0
 30
0.0
  3
*D2
  1

  0
LINE
  5
3D34
330
2E96
100
AcDbEntity
  8
寸法線
 62
     0
370
    -2
100
AcDbLine
 10
466.3533343240453
 20
42.555451139666
 30
0.0
 11
466.3533343240453
 21
59.94494528901305
 31
0.0
  0
LINE
  5
3D35
330
2E96
100
AcDbEntity
  8
寸法線
 62
     0
370
    -2
100
AcDbLine
 10
501.3533343240453
 20
42.55545113966599
 30
0.0
 11
501.3533343240453
 21
59.94494528901305
 31
0.0
  0
LINE
  5
3D36
330
2E96
100
AcDbEntity
  8
寸法線
 62
     0
370
    -2
100
AcDbLine
 10
469.3533343240453
 20
56.94494528901305
 30
0.0
 11
498.3533343240453
 21
56.94494528901305
 31
0.0
  0
INSERT
  5
3D37
330
2E96
100
AcDbEntity
  8
寸法線
 62
     0
370
    -2
100
AcDbBlockReference
  2
_Closed
 10
466.3533343240453
 20
56.94494528901305
 30
0.0
 41
3.0
 42
3.0
 43
3.0
 50
180.0
  0
INSERT
  5
3D38
330
2E96
100
AcDbEntity
  8
寸法線
 62
     0
370
    -2
100
AcDbBlockReference
  2
_Closed
 10
501.3533343240453
 20
56.94494528901305
 30
0.0
 41
3.0
 42
3.0
 43
3.0
  0
MTEXT
  5
3D39
330
2E96
100
AcDbEntity
  8
寸法線
 62
     0
100
AcDbMText
 10
483.8533343240453
 20
60.44494528901305
 30
0.0
 40
5.0
 41
0.0
 71
     5
 72
     1
  1
35
  7
OKANO
 73
     1
 44
1.0
  0
POINT
  5
3D3A
330
2E96
100
AcDbEntity
  8
Defpoints
 62
     0
100
AcDbPoint
 10
466.3533343240453
 20
40.555451139666
 30
0.0
  0
POINT
  5
3D3B
330
2E96
100
AcDbEntity
  8
Defpoints
 62
     0
100
AcDbPoint
 10
501.3533343240453
 20
40.55545113966599
 30
0.0
  0
POINT
  5
3D3C
330
2E96
100
AcDbEntity
  8
Defpoints
 62
     0
100
AcDbPoint
 10
501.3533343240453
 20
56.94494528901305
 30
0.0
  0
ENDBLK
  5
2EA1
330
2E96
100
AcDbEntity
  8
0
100
AcDbBlockEnd
  0
BLOCK
  5
2EAD
330
2EA3
100
AcDbEntity
  8
0
100
AcDbBlockBegin
  2
*D3
 70
     1
 10
0.0
 20
0.0
 30
0.0
  3
*D3
  1

  0
LINE
  5
3D3D
330
2EA3
100
AcDbEntity
  8
寸法線
 62
     0
370
    -2
100
AcDbLine
 10
501.3533343240453
 20
42.55545113966599
 30
0.0
 11
501.3533343240453
 21
59.94494528901304
 31
0.0
  0
LINE
  5
3D3E
330
2EA3
100
AcDbEntity
  8
寸法線
 62
     0
370
    -2
100
AcDbLine
 10
561.3533343240454
 20
12.55545113966598
 30
0.0
 11
561.3533343240454
 21
59.94494528901304
 31
0.0
  0
LINE
  5
3D3F
330
2EA3
100
AcDbEntity
  8
寸法線
 62
     0
370
    -2
100
AcDbLine
 10
504.3533343240453
 20
56.94494528901304
 30
0.0
 11
558.3533343240453
 21
56.94494528901304
 31
0.0
  0
INSERT
  5
3D40
330
2EA3
100
AcDbEntity
  8
寸法線
 62
     0
370
    -2
100
AcDbBlockReference
  2
_Closed
 10
501.3533343240453
 20
56.94494528901304
 30
0.0
 41
3.0
 42
3.0
 43
3.0
 50
180.0
  0
INSERT
  5
3D41
330
2EA3
100
AcDbEntity
  8
寸法線
 62
     0
370
    -2
100
AcDbBlockReference
  2
_Closed
 10
561.3533343240454
 20
56.94494528901304
 30
0.0
 41
3.0
 42
3.0
 43
3.0
  0
MTEXT
  5
3D42
330
2EA3
100
AcDbEntity
  8
寸法線
 62
     0
100
AcDbMText
 10
531.3533343240453
 20
60.44494528901304
 30
0.0
 40
5.0
 41
0.0
 71
     5
 72
     1
  1
57.3
  7
OKANO
 73
     1
 44
1.0
  0
POINT
  5
3D43
330
2EA3
100
AcDbEntity
  8
Defpoints
 62
     0
100
AcDbPoint
 10
501.3533343240453
 20
40.55545113966599
 30
0.0
  0
POINT
  5
3D44
330
2EA3
100
AcDbEntity
  8
Defpoints
 62
     0
100
AcDbPoint
 10
561.3533343240454
 20
10.55545113966598
 30
0.0
  0
POINT
  5
3D45
330
2EA3
100
AcDbEntity
  8
Defpoints
 62
     0
100
AcDbPoint
 10
561.3533343240454
 20
56.94494528901304
 30
0.0
  0
ENDBLK
  5
2EAE
330
2EA3
100
AcDbEntity
  8
0
100
AcDbBlockEnd
  0
BLOCK
  5
2EBA
330
2EB0
100
AcDbEntity
  8
0
100
AcDbBlockBegin
  2
*D4
 70
     1
 10
0.0
 20
0.0
 30
0.0
  3
*D4
  1

  0
LINE
  5
3D63
330
2EB0
100
AcDbEntity
  8
寸法線
 62
     0
370
    -2
100
AcDbLine
 10
501.3533343240453
 20
-56.444548860334
 30
0.0
 11
501.3533343240453
 21
-65.52340792467385
 31
0.0
  0
LINE
  5
3D64
330
2EB0
100
AcDbEntity
  8
寸法線
 62
     0
370
    -2
100
AcDbLine
 10
476.3533343240453
 20
-21.444548860334
 30
0.0
 11
476.3533343240453
 21
-65.52340792467385
 31
0.0
  0
LINE
  5
3D65
330
2EB0
100
AcDbEntity
  8
寸法線
 62
     0
370
    -2
100
AcDbLine
 10
498.3533343240453
 20
-62.52340792467385
 30
0.0
 11
479.3533343240453
 21
-62.52340792467385
 31
0.0
  0
INSERT
  5
3D66
330
2EB0
100
AcDbEntity
  8
寸法線
 62
     0
370
    -2
100
AcDbBlockReference
  2
_Closed
 10
501.3533343240453
 20
-62.52340792467385
 30
0.0
 41
3.0
 42
3.0
 43
3.0
  0
INSERT
  5
3D67
330
2EB0
100
AcDbEntity
  8
寸法線
 62
     0
370
    -2
100
AcDbBlockReference
  2
_Closed
 10
476.3533343240453
 20
-62.52340792467385
 30
0.0
 41
3.0
 42
3.0
 43
3.0
 50
180.0
  0
MTEXT
  5
3D68
330
2EB0
100
AcDbEntity
  8
寸法線
 62
     0
100
AcDbMText
 10
488.8533343240453
 20
-59.02291579868959
 30
0.0
 40
5.0
 41
0.0
 71
     5
 72
     1
  1
25
  7
OKANO
 73
     1
 44
1.0
  0
POINT
  5
3D69
330
2EB0
100
AcDbEntity
  8
Defpoints
 62
     0
100
AcDbPoint
 10
501.3533343240453
 20
-54.444548860334
 30
0.0
  0
POINT
  5
3D6A
330
2EB0
100
AcDbEntity
  8
Defpoints
 62
     0
100
AcDbPoint
 10
476.3533343240453
 20
-19.444548860334
 30
0.0
  0
POINT
  5
3D6B
330
2EB0
100
AcDbEntity
  8
Defpoints
 62
     0
100
AcDbPoint
 10
476.3533343240453
 20
-62.52340792467385
 30
0.0
  0
ENDBLK
  5
2EBB
330
2EB0
100
AcDbEntity
  8
0
100
AcDbBlockEnd
  0
BLOCK
  5
2EC7
330
2EBD
100
AcDbEntity
  8
0
100
AcDbBlockBegin
  2
*D5
 70
     1
 10
0.0
 20
0.0
 30
0.0
  3
*D5
  1

  0
LINE
  5
3D5A
330
2EBD
100
AcDbEntity
  8
寸法線
 62
     0
370
    -2
100
AcDbLine
 10
476.3533343240453
 20
-21.444548860334
 30
0.0
 11
476.3533343240453
 21
-65.52340792467385
 31
0.0
  0
LINE
  5
3D5B
330
2EBD
100
AcDbEntity
  8
寸法線
 62
     0
370
    -2
100
AcDbLine
 10
466.3533343240453
 20
-21.444548860334
 30
0.0
 11
466.3533343240453
 21
-65.52340792467385
 31
0.0
  0
LINE
  5
3D5C
330
2EBD
100
AcDbEntity
  8
寸法線
 62
     0
370
    -2
100
AcDbLine
 10
473.3533343240453
 20
-62.52340792467385
 30
0.0
 11
469.3533343240453
 21
-62.52340792467385
 31
0.0
  0
INSERT
  5
3D5D
330
2EBD
100
AcDbEntity
  8
寸法線
 62
     0
370
    -2
100
AcDbBlockReference
  2
_Closed
 10
476.3533343240453
 20
-62.52340792467385
 30
0.0
 41
3.0
 42
3.0
 43
3.0
  0
INSERT
  5
3D5E
330
2EBD
100
AcDbEntity
  8
寸法線
 62
     0
370
    -2
100
AcDbBlockReference
  2
_Closed
 10
466.3533343240453
 20
-62.52340792467385
 30
0.0
 41
3.0
 42
3.0
 43
3.0
 50
180.0
  0
MTEXT
  5
3D5F
330
2EBD
100
AcDbEntity
  8
寸法線
 62
     0
100
AcDbMText
 10
471.3533343240453
 20
-59.02340792467384
 30
0.0
 40
5.0
 41
0.0
 71
     5
 72
     1
  1
10
  7
OKANO
 73
     1
 44
1.0
  0
POINT
  5
3D60
330
2EBD
100
AcDbEntity
  8
Defpoints
 62
     0
100
AcDbPoint
 10
476.3533343240453
 20
-19.444548860334
 30
0.0
  0
POINT
  5
3D61
330
2EBD
100
AcDbEntity
  8
Defpoints
 62
     0
100
AcDbPoint
 10
466.3533343240453
 20
-19.444548860334
 30
0.0
  0
POINT
  5
3D62
330
2EBD
100
AcDbEntity
  8
Defpoints
 62
     0
100
AcDbPoint
 10
466.3533343240453
 20
-62.52340792467385
 30
0.0
  0
ENDBLK
  5
2EC8
330
2EBD
100
AcDbEntity
  8
0
100
AcDbBlockEnd
  0
BLOCK
  5
2EE3
330
2ED9
100
AcDbEntity
  8
0
100
AcDbBlockBegin
  2
*D7
 70
     1
 10
0.0
 20
0.0
 30
0.0
  3
*D7
  1

  0
LINE
  5
3D46
330
2ED9
100
AcDbEntity
  8
寸法線
 62
     0
370
    -2
100
AcDbLine
 10
464.6809379635569
 20
-14.444548860334
 30
0.0
 11
445.6808714031583
 21
-14.44454886033399
 31
0.0
  0
LINE
  5
3D47
330
2ED9
100
AcDbEntity
  8
寸法線
 62
     0
370
    -2
100
AcDbLine
 10
464.3019680308116
 20
35.555451139666
 30
0.0
 11
445.6808714031583
 21
35.555451139666
 31
0.0
  0
LINE
  5
3D48
330
2ED9
100
AcDbEntity
  8
寸法線
 62
     0
370
    -2
100
AcDbLine
 10
448.6808714031583
 20
-11.44454886033399
 30
0.0
 11
448.6808714031583
 21
32.555451139666
 31
0.0
  0
INSERT
  5
3D49
330
2ED9
100
AcDbEntity
  8
寸法線
 62
     0
370
    -2
100
AcDbBlockReference
  2
_Closed
 10
448.6808714031583
 20
-14.44454886033399
 30
0.0
 41
3.0
 42
3.0
 43
3.0
 50
270.0
  0
INSERT
  5
3D4A
330
2ED9
100
AcDbEntity
  8
寸法線
 62
     0
370
    -2
100
AcDbBlockReference
  2
_Closed
 10
448.6808714031583
 20
35.555451139666
 30
0.0
 41
3.0
 42
3.0
 43
3.0
 50
90.0
  0
MTEXT
  5
3D4B
330
2ED9
100
AcDbEntity
  8
寸法線
 62
     0
100
AcDbMText
 10
445.1808714031583
 20
10.55545113966607
 30
0.0
 40
5.0
 41
0.0
 71
     5
 72
     1
  1
49.3
  7
OKANO
 11
0.0000000000000001
 21
1.0
 31
0.0
 73
     1
 44
1.0
  0
POINT
  5
3D4C
330
2ED9
100
AcDbEntity
  8
Defpoints
 62
     0
100
AcDbPoint
 10
466.6809379635569
 20
-14.444548860334
 30
0.0
  0
POINT
  5
3D4D
330
2ED9
100
AcDbEntity
  8
Defpoints
 62
     0
100
AcDbPoint
 10
466.3019680308116
 20
35.555451139666
 30
0.0
  0
POINT
  5
3D4E
330
2ED9
100
AcDbEntity
  8
Defpoints
 62
     0
100
AcDbPoint
 10
448.6808714031583
 20
35.555451139666
 30
0.0
  0
ENDBLK
  5
2EE4
330
2ED9
100
AcDbEntity
  8
0
100
AcDbBlockEnd
  0
BLOCK
  5
2EF2
330
2EE6
100
AcDbEntity
  8
0
100
AcDbBlockBegin
  2
*D8
 70
     1
 10
0.0
 20
0.0
 30
0.0
  3
*D8
  1

  0
LINE
  5
3D4F
330
2EE6
100
AcDbEntity
  8
寸法線
 62
     0
370
    -2
100
AcDbLine
 10
464.3019680308116
 20
35.555451139666
 30
0.0
 11
445.6808714031583
 21
35.555451139666
 31
0.0
  0
LINE
  5
3D50
330
2EE6
100
AcDbEntity
  8
寸法線
 62
     0
370
    -2
100
AcDbLine
 10
464.3533343240453
 20
40.555451139666
 30
0.0
 11
445.6808714031583
 21
40.55545113966601
 31
0.0
  0
LINE
  5
3D51
330
2EE6
100
AcDbEntity
  8
寸法線
 62
     0
370
    -2
100
AcDbLine
 10
448.6808714031583
 20
32.555451139666
 30
0.0
 11
448.6808714031583
 21
29.555451139666
 31
0.0
  0
LINE
  5
3D52
330
2EE6
100
AcDbEntity
  8
寸法線
 62
     0
370
    -2
100
AcDbLine
 10
448.6808714031583
 20
43.555451139666
 30
0.0
 11
448.6808714031583
 21
46.555451139666
 31
0.0
  0
LINE
  5
3D53
330
2EE6
100
AcDbEntity
  8
寸法線
 62
     0
370
    -2
100
AcDbLine
 10
448.6808714031583
 20
35.555451139666
 30
0.0
 11
448.6808714031583
 21
40.55545113966601
 31
0.0
  0
INSERT
  5
3D54
330
2EE6
100
AcDbEntity
  8
寸法線
 62
     0
370
    -2
100
AcDbBlockReference
  2
_Closed
 10
448.6808714031583
 20
35.555451139666
 30
0.0
 41
3.0
 42
3.0
 43
3.0
 50
90.0
  0
INSERT
  5
3D55
330
2EE6
100
AcDbEntity
  8
寸法線
 62
     0
370
    -2
100
AcDbBlockReference
  2
_Closed
 10
448.6808714031583
 20
40.55545113966601
 30
0.0
 41
3.0
 42
3.0
 43
3.0
 50
270.0
  0
MTEXT
  5
3D56
330
2EE6
100
AcDbEntity
  8
寸法線
 62
     0
100
AcDbMText
 10
445.1808714031583
 20
38.05545113966607
 30
0.0
 40
5.0
 41
0.0
 71
     5
 72
     1
  1
4
  7
OKANO
 11
0.0000000000000001
 21
1.0
 31
0.0
 73
     1
 44
1.0
  0
POINT
  5
3D57
330
2EE6
100
AcDbEntity
  8
Defpoints
 62
     0
100
AcDbPoint
 10
466.3019680308116
 20
35.555451139666
 30
0.0
  0
POINT
  5
3D58
330
2EE6
100
AcDbEntity
  8
Defpoints
 62
     0
100
AcDbPoint
 10
466.3533343240453
 20
40.555451139666
 30
0.0
  0
POINT
  5
3D59
330
2EE6
100
AcDbEntity
  8
Defpoints
 62
     0
100
AcDbPoint
 10
448.6808714031583
 20
40.55545113966601
 30
0.0
  0
ENDBLK
  5
2EF3
330
2EE6
100
AcDbEntity
  8
0
100
AcDbBlockEnd
  0
BLOCK
  5
2F59
330
2F4D
100
AcDbEntity
  8
0
100
AcDbBlockBegin
  2
*D11
 70
     1
 10
0.0
 20
0.0
 30
0.0
  3
*D11
  1

  0
LINE
  5
3D6C
330
2F4D
100
AcDbEntity
  8
寸法線
 62
     0
370
    -2
100
AcDbLine
 10
533.8533343240453
 20
-46.444548860334
 30
0.0
 11
533.8533343240453
 21
-49.73366904332557
 31
0.0
  0
LINE
  5
3D6D
330
2F4D
100
AcDbEntity
  8
寸法線
 62
     0
370
    -2
100
AcDbLine
 10
528.8533343240453
 20
-46.444548860334
 30
0.0
 11
528.8533343240453
 21
-49.73366904332557
 31
0.0
  0
LINE
  5
3D6E
330
2F4D
100
AcDbEntity
  8
寸法線
 62
     0
370
    -2
100
AcDbLine
 10
536.8533343240454
 20
-46.73366904332556
 30
0.0
 11
539.8533343240453
 21
-46.73366904332556
 31
0.0
  0
LINE
  5
3D6F
330
2F4D
100
AcDbEntity
  8
寸法線
 62
     0
370
    -2
100
AcDbLine
 10
525.8533343240453
 20
-46.73366904332556
 30
0.0
 11
522.8533343240453
 21
-46.73366904332556
 31
0.0
  0
LINE
  5
3D70
330
2F4D
100
AcDbEntity
  8
寸法線
 62
     0
370
    -2
100
AcDbLine
 10
533.8533343240453
 20
-46.73366904332556
 30
0.0
 11
528.8533343240453
 21
-46.73366904332556
 31
0.0
  0
INSERT
  5
3D71
330
2F4D
100
AcDbEntity
  8
寸法線
 62
     0
370
    -2
100
AcDbBlockReference
  2
_Closed
 10
533.8533343240453
 20
-46.73366904332556
 30
0.0
 41
3.0
 42
3.0
 43
3.0
 50
180.0
  0
INSERT
  5
3D72
330
2F4D
100
AcDbEntity
  8
寸法線
 62
     0
370
    -2
100
AcDbBlockReference
  2
_Closed
 10
528.8533343240453
 20
-46.73366904332556
 30
0.0
 41
3.0
 42
3.0
 43
3.0
  0
MTEXT
  5
3D73
330
2F4D
100
AcDbEntity
  8
寸法線
 62
     0
100
AcDbMText
 10
531.3533343240453
 20
-43.23366904332557
 30
0.0
 40
5.0
 41
0.0
 71
     5
 72
     1
  1
4
  7
OKANO
 73
     1
 44
1.0
  0
POINT
  5
3D74
330
2F4D
100
AcDbEntity
  8
Defpoints
 62
     0
100
AcDbPoint
 10
533.8533343240453
 20
-44.444548860334
 30
0.0
  0
POINT
  5
3D75
330
2F4D
100
AcDbEntity
  8
Defpoints
 62
     0
100
AcDbPoint
 10
528.8533343240453
 20
-44.444548860334
 30
0.0
  0
POINT
  5
3D76
330
2F4D
100
AcDbEntity
  8
Defpoints
 62
     0
100
AcDbPoint
 10
528.8533343240453
 20
-46.73366904332556
 30
0.0
  0
ENDBLK
  5
2F5A
330
2F4D
100
AcDbEntity
  8
0
100
AcDbBlockEnd
  0
BLOCK
  5
3D30
330
3D26
100
AcDbEntity
  8
0
100
AcDbBlockBegin
  2
*D40
 70
     1
 10
0.0
 20
0.0
 30
0.0
  3
*D40
  1

  0
LINE
  5
3D97
330
3D26
100
AcDbEntity
  8
寸法線
 62
     0
370
    -2
100
AcDbLine
 10
351.0188229689349
 20
121.6465207779819
 30
0.0
 11
375.7534165539732
 21
121.6465207779819
 31
0.0
  0
LINE
  5
3D98
330
3D26
100
AcDbEntity
  8
寸法線
 62
     0
370
    -2
100
AcDbLine
 10
350.0188229689348
 20
59.64652077798191
 30
0.0
 11
375.7534165539732
 21
59.6465207779819
 31
0.0
  0
LINE
  5
3D99
330
3D26
100
AcDbEntity
  8
寸法線
 62
     0
370
    -2
100
AcDbLine
 10
372.7534165539732
 20
118.6465207779819
 30
0.0
 11
372.7534165539732
 21
62.64652077798189
 31
0.0
  0
INSERT
  5
3D9A
330
3D26
100
AcDbEntity
  8
寸法線
 62
     0
370
    -2
100
AcDbBlockReference
  2
_Closed
 10
372.7534165539732
 20
121.6465207779819
 30
0.0
 41
3.0
 42
3.0
 43
3.0
 50
90.0
  0
INSERT
  5
3D9B
330
3D26
100
AcDbEntity
  8
寸法線
 62
     0
370
    -2
100
AcDbBlockReference
  2
_Closed
 10
372.7534165539732
 20
59.6465207779819
 30
0.0
 41
3.0
 42
3.0
 43
3.0
 50
270.0
  0
MTEXT
  5
3D9C
330
3D26
100
AcDbEntity
  8
寸法線
 62
     0
100
AcDbMText
 10
369.252924427989
 20
90.64652077798195
 30
0.0
 40
5.0
 41
0.0
 71
     5
 72
     1
  1
62
  7
OKANO
 11
0.0000000000000001
 21
1.0
 31
0.0
 73
     1
 44
1.0
  0
POINT
  5
3D9D
330
3D26
100
AcDbEntity
  8
Defpoints
 62
     0
100
AcDbPoint
 10
349.0188229689349
 20
121.6465207779819
 30
0.0
  0
POINT
  5
3D9E
330
3D26
100
AcDbEntity
  8
Defpoints
 62
     0
100
AcDbPoint
 10
348.0188229689348
 20
59.64652077798191
 30
0.0
  0
POINT
  5
3D9F
330
3D26
100
AcDbEntity
  8
Defpoints
 62
     0
100
AcDbPoint
 10
372.7534165539732
 20
59.6465207779819
 30
0.0
  0
ENDBLK
  5
3D31
330
3D26
100
AcDbEntity
  8
0
100
AcDbBlockEnd
  0
BLOCK
  5
3D82
330
3D79
100
AcDbEntity
  8
0
100
AcDbBlockBegin
  2
*D41
 70
     1
 10
0.0
 20
0.0
 30
0.0
  3
*D41
  1

  0
LINE
  5
3D85
330
3D79
100
AcDbEntity
  8
寸法線
 62
     0
370
    -2
100
AcDbLine
 10
584.4581797885621
 20
14.11945286656583
 30
0.0
 11
540.3331341101106
 21
11.15810842385178
 31
0.0
  0
LINE
  5
3D86
330
3D79
100
AcDbEntity
  8
寸法線
 62
     0
370
    -2
100
AcDbLine
 10
522.3735345379799
 20
9.952793855480194
 30
0.0
 11
519.3802679426248
 21
9.751908094084939
 31
0.0
  0
MTEXT
  5
3D87
330
3D79
100
AcDbEntity
  8
寸法線
 62
     0
100
AcDbMText
 10
578.155084173688
 20
17.20480257465491
 30
0.0
 40
5.0
 41
0.0
 71
     5
 72
     1
  1
M12
  7
OKANO
 11
0.9977555317850297
 21
0.066961920465087
 31
0.0
 73
     1
 44
1.0
  0
LINE
  5
3D88
330
3D79
100
AcDbEntity
  8
寸法線
 62
     0
370
    -2
100
AcDbLine
 10
525.366801133335
 20
10.15367961687545
 30
0.0
 11
537.3398675147554
 21
10.95722266245651
 31
0.0
  0
INSERT
  5
3D89
330
3D79
100
AcDbEntity
  8
寸法線
 62
     0
370
    -2
100
AcDbBlockReference
  2
_Closed
 10
525.366801133335
 20
10.15367961687545
 30
0.0
 41
3.0
 42
3.0
 43
3.0
 50
3.83950841232429
  0
INSERT
  5
3D8A
330
3D79
100
AcDbEntity
  8
寸法線
 62
     0
370
    -2
100
AcDbBlockReference
  2
_Closed
 10
537.3398675147554
 20
10.95722266245651
 30
0.0
 41
3.0
 42
3.0
 43
3.0
 50
183.8395084123242
  0
POINT
  5
3D8B
330
3D79
100
AcDbEntity
  8
Defpoints
 62
     0
100
AcDbPoint
 10
537.3398675147554
 20
10.95722266245651
 30
0.0
  0
POINT
  5
3D8C
330
3D79
100
AcDbEntity
  8
Defpoints
 62
     0
100
AcDbPoint
 10
525.366801133335
 20
10.15367961687545
 30
0.0
  0
ENDBLK
  5
3D83
330
3D79
100
AcDbEntity
  8
0
100
AcDbBlockEnd
  0
ENDSEC
  0
SECTION
  2
ENTITIES
  0
LINE
  5
28E3
330
1F
100
AcDbEntity
  8
太線
100
AcDbLine
 10
501.3533343240453
 20
40.55545113966599
 30
0.0
 11
466.3533343240453
 21
40.55545113966599
 31
0.0
  0
LINE
  5
28FC
330
1F
100
AcDbEntity
  8
想像線
100
AcDbLine
 10
501.3533343240453
 20
35.55545113966599
 30
0.0
 11
501.3533343240453
 21
-14.444548860334
 31
0.0
  0
LINE
  5
2A6B
330
1F
100
AcDbEntity
  8
太線
100
AcDbLine
 10
501.3533343240453
 20
8.103619521801363
 30
0.0
 11
476.3533343240453
 21
8.05545113966599
 31
0.0
  0
LINE
  5
2A6C
330
1F
100
AcDbEntity
  8
太線
100
AcDbLine
 10
476.3533343240453
 20
8.05545113966599
 30
0.0
 11
476.3533343240453
 21
13.00728275753061
 31
0.0
  0
LINE
  5
2A6D
330
1F
100
AcDbEntity
  8
太線
100
AcDbLine
 10
476.3533343240453
 20
13.00728275753061
 30
0.0
 11
501.3533343240453
 21
13.05545113966599
 31
0.0
  0
LINE
  5
2A7E
330
1F
100
AcDbEntity
  8
破線
100
AcDbLine
 10
493.6214427187358
 20
8.092059110088882
 30
0.0
 11
493.6214427187358
 21
13.00728275753061
 31
0.0
  0
LINE
  5
2ABB
330
1F
100
AcDbEntity
  8
破線
100
AcDbLine
 10
499.5593564495513
 20
8.092059110088882
 30
0.0
 11
499.5593564495513
 21
13.00728275753061
 31
0.0
  0
LINE
  5
2E2B
330
1F
100
AcDbEntity
  8
太線
100
AcDbLine
 10
466.3533343240453
 20
40.55545113966599
 30
0.0
 11
466.3533343240453
 21
-19.444548860334
 31
0.0
  0
LINE
  5
2E2D
330
1F
100
AcDbEntity
  8
想像線
100
AcDbLine
 10
501.3533343240453
 20
-14.444548860334
 30
0.0
 11
466.6809379635569
 21
-14.444548860334
 31
0.0
  0
LINE
  5
2E2E
330
1F
100
AcDbEntity
  8
想像線
100
AcDbLine
 10
501.3533343240453
 20
35.55545113966599
 30
0.0
 11
466.3019680308116
 21
35.55545113966599
 31
0.0
  0
CIRCLE
  5
2E47
330
1F
100
AcDbEntity
  8
太線
100
AcDbCircle
 10
531.3533343240453
 20
10.55545113966599
 30
0.0
 40
6.0
  0
LINE
  5
2E4C
330
1F
100
AcDbEntity
  8
太線
100
AcDbLine
 10
511.3533343240454
 20
-9.444548860334009
 30
0.0
 11
531.3533343240453
 21
-9.444548860334009
 31
0.0
  0
LINE
  5
2E4D
330
1F
100
AcDbEntity
  8
太線
100
AcDbLine
 10
531.3533343240453
 20
-9.444548860334009
 30
0.0
 11
511.3533343240454
 21
-9.444548860334009
 31
0.0
  0
LINE
  5
2E4E
330
1F
100
AcDbEntity
  8
太線
100
AcDbLine
 10
511.3533343240454
 20
-9.444548860334009
 30
0.0
 11
511.3533343240454
 21
30.55545113966599
 31
0.0
  0
LINE
  5
2E64
330
1F
100
AcDbEntity
  8
太線
100
AcDbLine
 10
528.8533343240453
 20
-44.444548860334
 30
0.0
 11
528.9015027061807
 21
-19.444548860334
 31
0.0
  0
LINE
  5
2E65
330
1F
100
AcDbEntity
  8
太線
100
AcDbLine
 10
533.8533343240453
 20
-19.444548860334
 30
0.0
 11
533.8533343240453
 21
-44.444548860334
 31
0.0
  0
LINE
  5
2E66
330
1F
100
AcDbEntity
  8
太線
100
AcDbLine
 10
476.3533343240453
 20
-19.444548860334
 30
0.0
 11
501.3533343240453
 21
-44.444548860334
 31
0.0
  0
LINE
  5
2E67
330
1F
100
AcDbEntity
  8
想像線
100
AcDbLine
 10
506.3533343240453
 20
-19.444548860334
 30
0.0
 11
506.3533343240453
 21
-54.44454886033399
 31
0.0
  0
LINE
  5
2E68
330
1F
100
AcDbEntity
  8
想像線
100
AcDbLine
 10
556.3533343240453
 20
-54.44454886033401
 30
0.0
 11
556.3533343240453
 21
-19.44454886033401
 31
0.0
  0
LINE
  5
2E69
330
1F
100
AcDbEntity
  8
太線
100
AcDbLine
 10
501.3533343240453
 20
-54.44454886033399
 30
0.0
 11
501.3533343240453
 21
-19.444548860334
 31
0.0
  0
LINE
  5
2E6A
330
1F
100
AcDbEntity
  8
太線
100
AcDbLine
 10
561.3533343240454
 20
10.55545113966599
 30
0.0
 11
561.3533343240454
 21
-54.44454886033401
 31
0.0
  0
LINE
  5
2E6B
330
1F
100
AcDbEntity
  8
太線
100
AcDbLine
 10
561.3533343240454
 20
-54.44454886033401
 30
0.0
 11
501.3533343240453
 21
-54.44454886033399
 31
0.0
  0
LINE
  5
2E6C
330
1F
100
AcDbEntity
  8
太線
100
AcDbLine
 10
533.8533343240453
 20
-44.444548860334
 30
0.0
 11
528.8533343240453
 21
-44.444548860334
 31
0.0
  0
LINE
  5
2E6D
330
1F
100
AcDbEntity
  8
太線
100
AcDbLine
 10
511.3533343240454
 20
-9.444548860334009
 30
0.0
 11
551.3533343240453
 21
-9.444548860334009
 31
0.0
  0
LINE
  5
2E6E
330
1F
100
AcDbEntity
  8
太線
100
AcDbLine
 10
531.3533343240453
 20
30.55545113966599
 30
0.0
 11
511.3533343240454
 21
30.55545113966599
 31
0.0
  0
LINE
  5
2E6F
330
1F
100
AcDbEntity
  8
太線
100
AcDbLine
 10
511.3533343240454
 20
30.55545113966599
 30
0.0
 11
531.3533343240453
 21
30.55545113966599
 31
0.0
  0
ARC
  5
2E73
330
1F
100
AcDbEntity
  8
太線
100
AcDbCircle
 10
531.3533343240453
 20
10.55545113966599
 30
0.0
 40
20.0
100
AcDbArc
 50
0.0
 51
90.0
  0
CIRCLE
  5
2E74
330
1F
100
AcDbEntity
  8
太線
100
AcDbCircle
 10
531.3533343240453
 20
10.55545113966599
 30
0.0
 40
6.0
  0
ARC
  5
2E75
330
1F
100
AcDbEntity
  8
太線
100
AcDbCircle
 10
531.3533343240453
 20
10.55545113966599
 30
0.0
 40
30.10002455617537
100
AcDbArc
 50
355.3277307595231
 51
97.87244706275643
  0
LINE
  5
2E76
330
1F
100
AcDbEntity
  8
破線
100
AcDbLine
 10
533.8533343240453
 20
-27.17507275221436
 30
0.0
 11
528.8899422944682
 21
-27.17507275221436
 31
0.0
  0
LINE
  5
2E77
330
1F
100
AcDbEntity
  8
破線
100
AcDbLine
 10
533.8533343240453
 20
-21.4890664659793
 30
0.0
 11
528.8899422944682
 21
-21.4890664659793
 31
0.0
  0
LINE
  5
2E78
330
1F
100
AcDbEntity
  8
太線
100
AcDbLine
 10
551.3533343240453
 20
-9.444548860334009
 30
0.0
 11
551.3533343240453
 21
10.55545113966599
 31
0.0
  0
LINE
  5
2E79
330
1F
100
AcDbEntity
  8
太線
100
AcDbLine
 10
511.3533343240454
 20
30.55545113966599
 30
0.0
 11
511.3533343240454
 21
-9.444548860334009
 31
0.0
  0
LINE
  5
2E7A
330
1F
100
AcDbEntity
  8
太線
100
AcDbLine
 10
466.3533343240453
 20
-19.444548860334
 30
0.0
 11
466.3533343240453
 21
40.55545113966599
 31
0.0
  0
LINE
  5
2E7B
330
1F
100
AcDbEntity
  8
想像線
100
AcDbLine
 10
501.3533343240453
 20
-14.444548860334
 30
0.0
 11
501.3533343240453
 21
35.55545113966599
 31
0.0
  0
LINE
  5
2E7C
330
1F
100
AcDbEntity
  8
想像線
100
AcDbLine
 10
501.3533343240453
 20
-14.444548860334
 30
0.0
 11
466.3019680308116
 21
-14.444548860334
 31
0.0
  0
LINE
  5
2E7D
330
1F
100
AcDbEntity
  8
太線
100
AcDbLine
 10
476.3533343240453
 20
8.103619521801363
 30
0.0
 11
501.3533343240453
 21
8.05545113966599
 31
0.0
  0
LINE
  5
2E7E
330
1F
100
AcDbEntity
  8
太線
100
AcDbLine
 10
501.3533343240453
 20
13.00728275753061
 30
0.0
 11
476.3533343240453
 21
13.05545113966599
 31
0.0
  0
LINE
  5
2E7F
330
1F
100
AcDbEntity
  8
太線
100
AcDbLine
 10
501.3533343240453
 20
-19.444548860334
 30
0.0
 11
466.3533343240453
 21
-19.444548860334
 31
0.0
  0
LINE
  5
2E80
330
1F
100
AcDbEntity
  8
太線
100
AcDbLine
 10
501.3533343240453
 20
-19.444548860334
 30
0.0
 11
511.3533343240454
 21
-9.444548860334009
 31
0.0
  0
CIRCLE
  5
2E81
330
1F
100
AcDbEntity
  8
太線
100
AcDbCircle
 10
496.9571918557517
 20
-24.18834883156039
 30
0.0
 40
3.0
  0
LINE
  5
2E82
330
1F
100
AcDbEntity
  8
破線
100
AcDbLine
 10
499.5593564495513
 20
13.01884316924309
 30
0.0
 11
499.5593564495513
 21
8.103619521801363
 31
0.0
  0
LINE
  5
2E83
330
1F
100
AcDbEntity
  8
破線
100
AcDbLine
 10
493.6214427187358
 20
13.01884316924309
 30
0.0
 11
493.6214427187358
 21
8.103619521801363
 31
0.0
  0
LINE
  5
2E84
330
1F
100
AcDbEntity
  8
太線
100
AcDbLine
 10
476.3533343240453
 20
13.05545113966599
 30
0.0
 11
476.3533343240453
 21
8.103619521801363
 31
0.0
  0
LINE
  5
2E85
330
1F
100
AcDbEntity
  8
想像線
100
AcDbLine
 10
501.3533343240453
 20
35.55545113966599
 30
0.0
 11
466.6809379635569
 21
35.55545113966599
 31
0.0
  0
LINE
  5
2E86
330
1F
100
AcDbEntity
  8
太線
100
AcDbLine
 10
527.2305880025045
 20
40.37179633907942
 30
0.0
 11
501.3533343240453
 21
40.55545113966599
 31
0.0
  0
LINE
  5
2E88
330
1F
100
AcDbEntity
  8
想像線
100
AcDbLine
 10
506.3533343240453
 20
-19.444548860334
 30
0.0
 11
556.3533343240453
 21
-19.44454886033401
 31
0.0
  0
DIMENSION
  5
2E95
330
1F
100
AcDbEntity
  8
寸法線
100
AcDbDimension
  2
*D2
 10
501.3533343240453
 20
56.94494528901305
 30
0.0
 11
483.8533343240453
 21
60.44494528901305
 31
0.0
 70
    32
 71
     5
 42
35.0
  3
sunpo
100
AcDbAlignedDimension
 13
466.3533343240453
 23
40.555451139666
 33
0.0
 14
501.3533343240453
 24
40.55545113966599
 34
0.0
 50
180.0
100
AcDbRotatedDimension
1001
ACAD
1000
DSTYLE
1002
{
1070
    40
1040
1.0
1002
}
  0
DIMENSION
  5
2EA2
330
1F
100
AcDbEntity
  8
寸法線
100
AcDbDimension
  2
*D3
 10
561.3533343240454
 20
56.94494528901304
 30
0.0
 11
531.3533343240453
 21
60.44494528901304
 31
0.0
 70
    32
  1
57.3
 71
     5
 42
60.0
  3
sunpo
100
AcDbAlignedDimension
 13
501.3533343240453
 23
40.55545113966599
 33
0.0
 14
561.3533343240454
 24
10.55545113966598
 34
0.0
 50
180.0
100
AcDbRotatedDimension
1001
ACAD
1000
DSTYLE
1002
{
1070
    40
1040
1.0
1070
   279
1070
     1
1002
}
  0
DIMENSION
  5
2EAF
330
1F
100
AcDbEntity
  8
寸法線
100
AcDbDimension
  2
*D4
 10
476.3533343240453
 20
-62.52340792467385
 30
0.0
 11
488.8533343240453
 21
-59.02291579868959
 31
0.0
 70
    32
 71
     5
 42
25.0
  3
sunpo
100
AcDbAlignedDimension
 13
501.3533343240453
 23
-54.444548860334
 33
0.0
 14
476.3533343240453
 24
-19.444548860334
 34
0.0
 50
180.0
100
AcDbRotatedDimension
1001
ACAD
1000
DSTYLE
1002
{
1070
    40
1040
1.0
1002
}
  0
DIMENSION
  5
2EBC
330
1F
100
AcDbEntity
  8
寸法線
100
AcDbDimension
  2
*D5
 10
466.3533343240453
 20
-62.52340792467385
 30
0.0
 11
471.3533343240453
 21
-59.02340792467384
 31
0.0
 70
    32
 71
     5
 42
10.0
  3
sunpo
100
AcDbAlignedDimension
 13
476.3533343240453
 23
-19.444548860334
 33
0.0
 14
466.3533343240453
 24
-19.444548860334
 34
0.0
 50
180.0
100
AcDbRotatedDimension
1001
ACAD
1000
DSTYLE
1002
{
1070
    40
1040
1.0
1070
   279
1070
     1
1002
}
  0
DIMENSION
  5
2ED8
330
1F
100
AcDbEntity
  8
寸法線
100
AcDbDimension
  2
*D7
 10
448.6808714031583
 20
35.555451139666
 30
0.0
 11
445.1808714031583
 21
10.55545113966607
 31
0.0
 70
    32
  1
49.3
 71
     5
 42
50.0
  3
sunpo
100
AcDbAlignedDimension
 13
466.6809379635569
 23
-14.444548860334
 33
0.0
 14
466.3019680308116
 24
35.555451139666
 34
0.0
 50
270.0
100
AcDbRotatedDimension
1001
ACAD
1000
DSTYLE
1002
{
1070
    40
1040
1.0
1070
   279
1070
     1
1002
}
  0
DIMENSION
  5
2EE5
330
1F
100
AcDbEntity
  8
寸法線
100
AcDbDimension
  2
*D8
 10
448.6808714031583
 20
40.55545113966601
 30
0.0
 11
445.1808714031583
 21
38.05545113966607
 31
0.0
 70
    32
  1
4
 71
     5
 42
5.0
  3
sunpo
100
AcDbAlignedDimension
 13
466.3019680308116
 23
35.555451139666
 33
0.0
 14
466.3533343240453
 24
40.555451139666
 34
0.0
 50
270.0
100
AcDbRotatedDimension
1001
ACAD
1000
DSTYLE
1002
{
1070
    40
1040
1.0
1070
   279
1070
     1
1002
}
  0
DIMENSION
  5
2F4C
330
1F
100
AcDbEntity
  8
寸法線
100
AcDbDimension
  2
*D11
 10
528.8533343240453
 20
-46.73366904332556
 30
0.0
 11
531.3533343240453
 21
-43.23366904332557
 31
0.0
 70
    33
  1
4
 71
     5
 42
5.0
  3
sunpo
100
AcDbAlignedDimension
 13
533.8533343240453
 23
-44.444548860334
 33
0.0
 14
528.8533343240453
 24
-44.444548860334
 34
0.0
1001
ACAD
1000
DSTYLE
1002
{
1070
    40
1040
1.0
1002
}
  0
LWPOLYLINE
  5
358D
330
1F
100
AcDbEntity
  8
太線
100
AcDbPolyline
 90
        4
 70
     1
 43
0.0
 10
515.9310236327325
 20
-121.7243113898073
 10
667.1310236327325
 20
-121.7243113898073
 10
667.1310236327325
 20
-157.0043113898074
 10
515.9310236327325
 20
-157.0043113898074
  0
LINE
  5
358E
330
1F
100
AcDbEntity
  8
太線
100
AcDbLine
 10
515.9310236327325
 20
-133.4843113898073
 30
0.0
 11
667.1310236327325
 21
-133.4843113898073
 31
0.0
  0
TEXT
  5
358F
330
1F
100
AcDbEntity
  8
文字
100
AcDbText
 10
554.3221430869919
 20
-132.1951806792049
 30
0.0
 40
6.719999999999999
  1
F-999-20080107 Auto CAD
 51
15.0
  7
OKANO
100
AcDbText
  0
TEXT
  5
3590
330
1F
100
AcDbEntity
  8
文字
100
AcDbText
 10
564.8057813035075
 20
-152.8485007894078
 30
0.0
 40
6.719999999999999
  1
joint kogyo T.okano
 51
15.0
  7
OKANO
100
AcDbText
  0
TEXT
  5
3592
330
1F
100
AcDbEntity
  8
文字
100
AcDbText
 10
561.4331265753239
 20
-142.5913887185743
 30
0.0
 40
6.0
  1
13-3Y M12-60
 51
15.0
  7
OKANO
100
AcDbText
  0
TEXT
  5
3593
330
1F
100
AcDbEntity
  8
文字
100
AcDbText
 10
520.6341232811178
 20
-139.9322367507356
 30
0.0
 40
3.359999999999999
  1
DRAWN
 51
15.0
  7
OKANO
100
AcDbText
  0
LINE
  5
3594
330
1F
100
AcDbEntity
  8
太線
100
AcDbLine
 10
549.5310236327325
 20
-121.7243113898073
 30
0.0
 11
549.5310236327325
 21
-157.0043113898074
 31
0.0
  0
TEXT
  5
3595
330
1F
100
AcDbEntity
  8
文字
100
AcDbText
 10
521.7114808312739
 20
-149.9782198919251
 30
0.0
 40
3.359999999999999
  1
APPR
 51
15.0
  7
OKANO
100
AcDbText
  0
TEXT
  5
3596
330
1F
100
AcDbEntity
  8
文字
100
AcDbText
 10
521.352360625213
 20
-154.6424265569005
 30
0.0
 40
3.359999999999999
  1
ISSUED
 51
15.0
  7
OKANO
100
AcDbText
  0
TEXT
  5
3597
330
1F
100
AcDbEntity
  8
文字
100
AcDbText
 10
521.352360625213
 20
-144.9552279081983
 30
0.0
 40
3.359999999999999
  1
CHECK
 51
15.0
  7
OKANO
100
AcDbText
  0
TEXT
  5
3598
330
1F
100
AcDbEntity
  8
文字
100
AcDbText
 10
518.8385268528529
 20
-130.9626087395361
 30
0.0
 40
3.359999999999999
  1
FILM NAME
 51
15.0
  7
OKANO
100
AcDbText
  0
CIRCLE
  5
37D6
330
1F
100
AcDbEntity
  8
太線
100
AcDbCircle
 10
306.7932082386898
 20
-24.41778234872138
 30
0.0
 40
3.0
  0
LINE
  5
37D7
330
1F
100
AcDbEntity
  8
想像線
100
AcDbLine
 10
317.2364578596693
 20
-19.67398237749499
 30
0.0
 11
317.2364578596693
 21
-54.67398237749499
 31
0.0
  0
LINE
  5
37D8
330
1F
100
AcDbEntity
  8
太線
100
AcDbLine
 10
311.646681115669
 20
-44.67398237749498
 30
0.0
 11
287.2364578596693
 21
-19.67398237749499
 31
0.0
  0
LINE
  5
37D9
330
1F
100
AcDbEntity
  8
太線
100
AcDbLine
 10
312.2364578596693
 20
-54.67398237749499
 30
0.0
 11
312.2364578596693
 21
-19.67398237749499
 31
0.0
  0
LINE
  5
37DA
330
1F
100
AcDbEntity
  8
太線
100
AcDbLine
 10
372.152537642769
 20
-54.673982377495
 30
0.0
 11
371.8168567751674
 21
5.326017622504991
 31
0.0
  0
LINE
  5
37DB
330
1F
100
AcDbEntity
  8
想像線
100
AcDbLine
 10
367.2364578596693
 20
-54.673982377495
 30
0.0
 11
367.2364578596693
 21
-19.673982377495
 31
0.0
  0
LINE
  5
37DC
330
1F
100
AcDbEntity
  8
太線
100
AcDbLine
 10
344.7364578596693
 20
-19.673982377495
 30
0.0
 11
344.7364578596693
 21
-44.67398237749498
 31
0.0
  0
LINE
  5
37DD
330
1F
100
AcDbEntity
  8
太線
100
AcDbLine
 10
339.7364578596693
 20
-44.67398237749498
 30
0.0
 11
339.7364578596693
 21
-19.67398237749499
 31
0.0
  0
LINE
  5
37DF
330
1F
100
AcDbEntity
  8
細線
100
AcDbLine
 10
338.0188229689348
 20
62.34754783548343
 30
0.0
 11
338.0188229689348
 21
80.6224991999054
 31
0.0
  0
LINE
  5
37E0
330
1F
100
AcDbEntity
  8
太線
100
AcDbLine
 10
337.0188229689349
 20
62.34754783548341
 30
0.0
 11
337.0188229689349
 21
80.6224991999054
 31
0.0
  0
LINE
  5
37E1
330
1F
100
AcDbEntity
  8
細線
100
AcDbLine
 10
348.0188229689348
 20
62.34754783548343
 30
0.0
 11
348.0188229689348
 21
80.6224991999054
 31
0.0
  0
LINE
  5
37E2
330
1F
100
AcDbEntity
  8
太線
100
AcDbLine
 10
349.0188229689349
 20
121.6465207779819
 30
0.0
 11
349.0188229689349
 21
113.789377920839
 31
0.0
  0
ARC
  5
37EB
330
1F
100
AcDbEntity
  8
太線
100
AcDbCircle
 10
343.0188229689349
 20
116.6465207779818
 30
0.0
 40
13.00000000000004
100
AcDbArc
 50
67.38013505196121
 51
112.6198649480388
  0
LINE
  5
37EC
330
1F
100
AcDbEntity
  8
太線
100
AcDbLine
 10
335.0188229689349
 20
129.6465207779818
 30
0.0
 11
351.0188229689349
 21
129.6465207779818
 31
0.0
  0
LINE
  5
37EE
330
1F
100
AcDbEntity
  8
太線
100
AcDbLine
 10
337.0188229689349
 20
121.6465207779819
 30
0.0
 11
349.0188229689349
 21
121.6465207779819
 31
0.0
  0
LINE
  5
37F3
330
1F
100
AcDbEntity
  8
太線
100
AcDbLine
 10
348.0188229689349
 20
121.6465207779819
 30
0.0
 11
348.0188229689349
 21
128.6465207779818
 31
0.0
  0
LINE
  5
37F4
330
1F
100
AcDbEntity
  8
太線
100
AcDbLine
 10
352.0188229689349
 20
128.6465207779818
 30
0.0
 11
352.0188229689349
 21
122.6465207779819
 31
0.0
  0
ARC
  5
37F5
330
1F
100
AcDbEntity
  8
太線
100
AcDbCircle
 10
351.0188229689349
 20
128.6465207779819
 30
0.0
 40
1.0
100
AcDbArc
 50
0.0
 51
90.0
  0
LINE
  5
37F6
330
1F
100
AcDbEntity
  8
太線
100
AcDbLine
 10
348.0188229689349
 20
128.6465207779818
 30
0.0
 11
351.0188229689349
 21
129.6465207779818
 31
0.0
  0
ARC
  5
37F9
330
1F
100
AcDbEntity
  8
太線
100
AcDbCircle
 10
351.0188229689349
 20
122.6465207779819
 30
0.0
 40
1.0
100
AcDbArc
 50
270.0
 51
0.0
  0
LINE
  5
37FA
330
1F
100
AcDbEntity
  8
太線
100
AcDbLine
 10
351.0188229689349
 20
121.6465207779819
 30
0.0
 11
349.0188229689349
 21
121.6465207779819
 31
0.0
  0
LINE
  5
37FC
330
1F
100
AcDbEntity
  8
太線
100
AcDbLine
 10
334.0188229689349
 20
122.6465207779819
 30
0.0
 11
334.0188229689349
 21
128.6465207779818
 31
0.0
  0
LINE
  5
37FD
330
1F
100
AcDbEntity
  8
太線
100
AcDbLine
 10
338.0188229689349
 20
121.6465207779819
 30
0.0
 11
338.0188229689349
 21
128.6465207779818
 31
0.0
  0
ARC
  5
37FE
330
1F
100
AcDbEntity
  8
太線
100
AcDbCircle
 10
335.0188229689349
 20
128.6465207779819
 30
0.0
 40
1.0
100
AcDbArc
 50
90.0
 51
180.0
  0
LINE
  5
37FF
330
1F
100
AcDbEntity
  8
太線
100
AcDbLine
 10
338.0188229689349
 20
128.6465207779818
 30
0.0
 11
335.0188229689349
 21
129.6465207779818
 31
0.0
  0
ARC
  5
3800
330
1F
100
AcDbEntity
  8
太線
100
AcDbCircle
 10
335.0188229689349
 20
122.6465207779819
 30
0.0
 40
1.0
100
AcDbArc
 50
180.0
 51
270.0
  0
LINE
  5
3803
330
1F
100
AcDbEntity
  8
太線
100
AcDbLine
 10
337.0188229689349
 20
121.6465207779819
 30
0.0
 11
335.0188229689349
 21
121.6465207779819
 31
0.0
  0
LINE
  5
3822
330
1F
100
AcDbEntity
  8
想像線
100
AcDbLine
 10
277.2364578596693
 20
-14.67398237749498
 30
0.0
 11
311.646681115669
 21
-14.67398237749498
 31
0.0
  0
LINE
  5
3823
330
1F
100
AcDbEntity
  8
太線
100
AcDbLine
 10
312.2364578596693
 20
-19.67398237749499
 30
0.0
 11
277.2364578596693
 21
-19.67398237749498
 31
0.0
  0
LINE
  5
3824
330
1F
100
AcDbEntity
  8
太線
100
AcDbLine
 10
312.3408060019158
 20
7.826017622505005
 30
0.0
 11
287.2364578596693
 21
7.826017622505005
 31
0.0
  0
LINE
  5
3825
330
1F
100
AcDbEntity
  8
太線
100
AcDbLine
 10
287.2364578596693
 20
12.826017622505
 30
0.0
 11
311.646681115669
 21
12.826017622505
 31
0.0
  0
LINE
  5
3826
330
1F
100
AcDbEntity
  8
想像線
100
AcDbLine
 10
312.2364578596693
 20
35.32601762250502
 30
0.0
 11
277.2364578596693
 21
35.32601762250502
 31
0.0
  0
LINE
  5
3827
330
1F
100
AcDbEntity
  8
太線
100
AcDbLine
 10
277.2364578596693
 20
40.32601762250502
 30
0.0
 11
342.2364578596693
 21
40.32601762250502
 31
0.0
  0
LINE
  5
3828
330
1F
100
AcDbEntity
  8
太線
100
AcDbLine
 10
338.0188229689348
 20
59.64652077798191
 30
0.0
 11
337.0188229689349
 21
62.34754783548341
 31
0.0
  0
LINE
  5
3829
330
1F
100
AcDbEntity
  8
太線
100
AcDbLine
 10
349.0188229689349
 20
62.34754783548341
 30
0.0
 11
348.0188229689348
 21
59.64652077798191
 31
0.0
  0
CIRCLE
  5
382B
330
1F
100
AcDbEntity
  8
太線
100
AcDbCircle
 10
342.2364578596693
 20
10.326017622505
 30
0.0
 40
30.0
  0
CIRCLE
  5
382C
330
1F
100
AcDbEntity
  8
太線
100
AcDbCircle
 10
342.2364578596693
 20
10.326017622505
 30
0.0
 40
25.0
  0
LINE
  5
382D
330
1F
100
AcDbEntity
  8
想像線
100
AcDbLine
 10
367.2364578596693
 20
-19.673982377495
 30
0.0
 11
317.2364578596693
 21
-19.67398237749499
 31
0.0
  0
CIRCLE
  5
382E
330
1F
100
AcDbEntity
  8
細線
100
AcDbCircle
 10
342.2364578596693
 20
10.326017622505
 30
0.0
 40
24.03857690457265
  0
LINE
  5
382F
330
1F
100
AcDbEntity
  8
想像線
100
AcDbLine
 10
366.275034764242
 20
-19.673982377495
 30
0.0
 11
366.275034764242
 21
10.326017622505
 31
0.0
  0
LINE
  5
3830
330
1F
100
AcDbEntity
  8
想像線
100
AcDbLine
 10
311.646681115669
 20
-14.67398237749498
 30
0.0
 11
312.2364578596693
 21
35.32601762250502
 31
0.0
  0
LINE
  5
3831
330
1F
100
AcDbEntity
  8
想像線
100
AcDbLine
 10
342.2364578596693
 20
34.36459452707768
 30
0.0
 11
312.2364578596693
 21
34.36459452707768
 31
0.0
  0
LINE
  5
3832
330
1F
100
AcDbEntity
  8
太線
100
AcDbLine
 10
361.2364578596693
 20
40.32601762250502
 30
0.0
 11
323.2364578596693
 21
40.32601762250502
 31
0.0
  0
LINE
  5
3833
330
1F
100
AcDbEntity
  8
太線
100
AcDbLine
 10
355.5726184614712
 20
30.32601762250502
 30
0.0
 11
328.9002972578674
 21
30.32601762250502
 31
0.0
  0
LINE
  5
3834
330
1F
100
AcDbEntity
  8
太線
100
AcDbLine
 10
348.0188229689348
 20
59.64652077798191
 30
0.0
 11
338.0188229689348
 21
59.64652077798191
 31
0.0
  0
LINE
  5
3835
330
1F
100
AcDbEntity
  8
太線
100
AcDbLine
 10
362.2364578596693
 20
32.68669739750291
 30
0.0
 11
362.2364578596693
 21
39.32601762250502
 31
0.0
  0
LINE
  5
3836
330
1F
100
AcDbEntity
  8
想像線
100
AcDbLine
 10
352.2364578596693
 20
30.32601762250502
 30
0.0
 11
352.2364578596693
 21
40.32601762250502
 31
0.0
  0
LINE
  5
3837
330
1F
100
AcDbEntity
  8
想像線
100
AcDbLine
 10
348.2364578596693
 20
30.32601762250502
 30
0.0
 11
348.2364578596693
 21
39.71989453590314
 31
0.0
  0
LINE
  5
3838
330
1F
100
AcDbEntity
  8
想像線
100
AcDbLine
 10
342.2364578596693
 20
30.32601762250502
 30
0.0
 11
342.2364578596693
 21
40.326017622505
 31
0.0
  0
ARC
  5
3839
330
1F
100
AcDbEntity
  8
太線
100
AcDbCircle
 10
361.7364578596693
 20
39.82601762250502
 30
0.0
 40
0.5
100
AcDbArc
 50
0.0
 51
98.89579528650337
  0
ARC
  5
383A
330
1F
100
AcDbEntity
  8
太線
100
AcDbCircle
 10
361.2364578596693
 20
39.32601762250502
 30
0.0
 40
1.0
100
AcDbArc
 50
82.29795315063695
 51
90.0
  0
ARC
  5
383B
330
1F
100
AcDbEntity
  8
太線
100
AcDbCircle
 10
361.5045010346192
 20
41.30797444755515
 30
0.0
 40
1.0
100
AcDbArc
 50
262.2979531506365
 51
278.8957952865034
  0
LINE
  5
383C
330
1F
100
AcDbEntity
  8
太線
100
AcDbLine
 10
322.2364578596693
 20
39.32601762250502
 30
0.0
 11
322.2364578596693
 21
32.68669739750291
 31
0.0
  0
LINE
  5
383D
330
1F
100
AcDbEntity
  8
想像線
100
AcDbLine
 10
332.2364578596693
 20
30.32601762250503
 30
0.0
 11
332.2364578596693
 21
40.32601762250503
 31
0.0
  0
LINE
  5
383E
330
1F
100
AcDbEntity
  8
想像線
100
AcDbLine
 10
336.2364578596693
 20
30.32601762250503
 30
0.0
 11
336.2364578596693
 21
39.71989453590315
 31
0.0
  0
ARC
  5
383F
330
1F
100
AcDbEntity
  8
太線
100
AcDbCircle
 10
323.2364578596693
 20
39.32601762250502
 30
0.0
 40
1.0
100
AcDbArc
 50
90.0
 51
180.0
  0
LINE
  5
3840
330
1F
100
AcDbEntity
  8
太線
100
AcDbLine
 10
322.2364578596693
 20
32.68669739750291
 30
0.0
 11
322.2364578596693
 21
34.36459452707768
 31
0.0
  0
LINE
  5
3841
330
1F
100
AcDbEntity
  8
想像線
100
AcDbLine
 10
342.2364578596693
 20
-13.71255928206764
 30
0.0
 11
311.6580216153256
 21
-13.71255928206764
 31
0.0
  0
LINE
  5
3842
330
1F
100
AcDbEntity
  8
破線
100
AcDbLine
 10
344.7364578596693
 20
-21.22406468384586
 30
0.0
 11
339.7364578596693
 21
-21.22406468384586
 31
0.0
  0
LINE
  5
3843
330
1F
100
AcDbEntity
  8
想像線
100
AcDbLine
 10
318.1978809550967
 20
-19.67398237749499
 30
0.0
 11
318.1978809550967
 21
10.32601762250502
 31
0.0
  0
LINE
  5
3844
330
1F
100
AcDbEntity
  8
太線
100
AcDbLine
 10
277.2364578596693
 20
-19.67398237749498
 30
0.0
 11
277.2364578596693
 21
40.32601762250502
 31
0.0
  0
LINE
  5
3845
330
1F
100
AcDbEntity
  8
破線
100
AcDbLine
 10
310.4424799851754
 20
12.826017622505
 30
0.0
 11
310.4424799851754
 21
7.826017622505005
 31
0.0
  0
LINE
  5
3846
330
1F
100
AcDbEntity
  8
破線
100
AcDbLine
 10
304.0097399091482
 20
12.826017622505
 30
0.0
 11
304.0097399091482
 21
7.826017622505005
 31
0.0
  0
LINE
  5
3847
330
1F
100
AcDbEntity
  8
太線
100
AcDbLine
 10
287.2364578596693
 20
7.826017622505005
 30
0.0
 11
287.2364578596693
 21
12.826017622505
 31
0.0
  0
LINE
  5
3848
330
1F
100
AcDbEntity
  8
太線
100
AcDbLine
 10
372.152537642769
 20
-54.673982377495
 30
0.0
 11
312.2364578596693
 21
-54.67398237749499
 31
0.0
  0
LINE
  5
3849
330
1F
100
AcDbEntity
  8
破線
100
AcDbLine
 10
344.7364578596693
 20
-27.40450626937533
 30
0.0
 11
339.7364578596693
 21
-27.40450626937533
 31
0.0
  0
LINE
  5
384A
330
1F
100
AcDbEntity
  8
太線
100
AcDbLine
 10
344.7364578596693
 20
-44.67398237749498
 30
0.0
 11
339.7364578596693
 21
-44.67398237749498
 31
0.0
  0
LINE
  5
3BF7
330
1F
100
AcDbEntity
  8
太線
100
AcDbLine
 10
349.0188229689349
 20
120.5701511593467
 30
0.0
 11
337.0512836553198
 21
120.5701511593467
 31
0.0
  0
LINE
  5
3BFC
330
1F
100
AcDbEntity
  8
太線
100
AcDbLine
 10
337.0188229689349
 20
62.34754783548341
 30
0.0
 11
349.0188229689349
 21
62.34754783548341
 31
0.0
  0
LINE
  5
3C03
330
1F
100
AcDbEntity
  8
太線
100
AcDbLine
 10
343.0188229689349
 20
111.6465207779819
 30
0.0
 11
343.0188229689349
 21
114.6465207779818
 31
0.0
  0
LINE
  5
3C06
330
1F
100
AcDbEntity
  8
太線
100
AcDbLine
 10
343.0188229689349
 20
114.6465207779818
 30
0.0
 11
353.5188229689349
 21
113.1465207779819
 31
0.0
  0
LINE
  5
3C07
330
1F
100
AcDbEntity
  8
太線
100
AcDbLine
 10
343.0188229689349
 20
111.6465207779819
 30
0.0
 11
353.5188229689349
 21
110.1465207779819
 31
0.0
  0
LINE
  5
3C08
330
1F
100
AcDbEntity
  8
太線
100
AcDbLine
 10
353.5188229689349
 20
110.1465207779819
 30
0.0
 11
353.5188229689349
 21
113.1465207779819
 31
0.0
  0
LINE
  5
3C0A
330
1F
100
AcDbEntity
  8
太線
100
AcDbLine
 10
342.5188229689349
 20
111.6465207779819
 30
0.0
 11
332.5188229689349
 21
113.1465207779819
 31
0.0
  0
LINE
  5
3C0B
330
1F
100
AcDbEntity
  8
太線
100
AcDbLine
 10
332.5188229689349
 20
113.1465207779819
 30
0.0
 11
332.5188229689349
 21
110.1465207779819
 31
0.0
  0
LINE
  5
3C0C
330
1F
100
AcDbEntity
  8
太線
100
AcDbLine
 10
332.5188229689349
 20
110.1465207779819
 30
0.0
 11
342.5188229689349
 21
108.6465207779819
 31
0.0
  0
LINE
  5
3C0D
330
1F
100
AcDbEntity
  8
太線
100
AcDbLine
 10
342.5188229689349
 20
108.6465207779819
 30
0.0
 11
342.5188229689349
 21
111.6465207779819
 31
0.0
  0
LINE
  5
3C0E
330
1F
100
AcDbEntity
  8
太線
100
AcDbLine
 10
332.5188229689349
 20
113.1465207779819
 30
0.0
 11
337.0188229689349
 21
113.1465207779819
 31
0.0
  0
LINE
  5
3C0F
330
1F
100
AcDbEntity
  8
太線
100
AcDbLine
 10
353.5188229689349
 20
110.1465207779819
 30
0.0
 11
349.0188229689349
 21
110.1465207779819
 31
0.0
  0
LINE
  5
3C10
330
1F
100
AcDbEntity
  8
太線
100
AcDbLine
 10
343.0188229689349
 20
114.6465207779818
 30
0.0
 11
342.5188229689349
 21
114.6465207779818
 31
0.0
  0
LINE
  5
3C11
330
1F
100
AcDbEntity
  8
太線
100
AcDbLine
 10
342.5188229689349
 20
114.6465207779818
 30
0.0
 11
342.5188229689349
 21
111.6465207779819
 31
0.0
  0
LINE
  5
3C12
330
1F
100
AcDbEntity
  8
太線
100
AcDbLine
 10
342.5188229689349
 20
111.6465207779819
 30
0.0
 11
343.0188229689349
 21
111.6465207779819
 31
0.0
  0
LINE
  5
3C13
330
1F
100
AcDbEntity
  8
細線
100
AcDbLine
 10
348.0188229689349
 20
113.9322350636962
 30
0.0
 11
348.018822968935
 21
120.5701511593467
 31
0.0
  0
LINE
  5
3C14
330
1F
100
AcDbEntity
  8
太線
100
AcDbLine
 10
349.0188229689349
 20
110.789377920839
 30
0.0
 11
349.0188229689349
 21
100.9472286616505
 31
0.0
  0
LINE
  5
3C15
330
1F
100
AcDbEntity
  8
太線
100
AcDbLine
 10
337.0188229689349
 20
112.4715207779819
 30
0.0
 11
337.0188229689349
 21
121.6465207779819
 31
0.0
  0
LINE
  5
3C16
330
1F
100
AcDbEntity
  8
細線
100
AcDbLine
 10
338.0188229689349
 20
112.3215207779819
 30
0.0
 11
338.0188229689349
 21
120.5701511593467
 31
0.0
  0
LINE
  5
3C1B
330
1F
100
AcDbEntity
  8
太線
100
AcDbLine
 10
355.5188229689349
 20
99.44722866165058
 30
0.0
 11
355.5188229689349
 21
100.9472286616505
 31
0.0
  0
LINE
  5
3C1C
330
1F
100
AcDbEntity
  8
太線
100
AcDbLine
 10
355.5188229689349
 20
100.9472286616505
 30
0.0
 11
330.5188229689349
 21
100.9472286616505
 31
0.0
  0
LINE
  5
3C1D
330
1F
100
AcDbEntity
  8
太線
100
AcDbLine
 10
330.5188229689349
 20
100.9472286616505
 30
0.0
 11
330.5188229689349
 21
99.44722866165058
 31
0.0
  0
LINE
  5
3C1E
330
1F
100
AcDbEntity
  8
太線
100
AcDbLine
 10
330.5188229689349
 20
99.44722866165058
 30
0.0
 11
355.5188229689349
 21
99.44722866165058
 31
0.0
  0
LINE
  5
3C1F
330
1F
100
AcDbEntity
  8
太線
100
AcDbLine
 10
349.0188229689349
 20
99.44722866165058
 30
0.0
 11
349.0188229689349
 21
80.6224991999054
 31
0.0
  0
LINE
  5
3C20
330
1F
100
AcDbEntity
  8
細線
100
AcDbLine
 10
348.0188229689348
 20
100.9472286616505
 30
0.0
 11
348.0188229689349
 21
110.9322350636962
 31
0.0
  0
LINE
  5
3C21
330
1F
100
AcDbEntity
  8
太線
100
AcDbLine
 10
337.0188229689349
 20
100.9472286616505
 30
0.0
 11
337.0188229689349
 21
109.4715207779819
 31
0.0
  0
LINE
  5
3C22
330
1F
100
AcDbEntity
  8
細線
100
AcDbLine
 10
338.018822968935
 20
100.9472286616505
 30
0.0
 11
338.0188229689349
 21
109.3215207779819
 31
0.0
  0
CIRCLE
  5
3C23
330
1F
100
AcDbEntity
  8
想像線
100
AcDbCircle
 10
531.3533343240453
 20
10.55545113966599
 30
0.0
 40
26.55637538070499
  0
LINE
  5
3D21
330
1F
100
AcDbEntity
  8
太線
100
AcDbLine
 10
349.0188229689349
 20
80.6224991999054
 30
0.0
 11
349.0188229689349
 21
62.34754783548341
 31
0.0
  0
LINE
  5
3D22
330
1F
100
AcDbEntity
  8
細線
100
AcDbLine
 10
348.0188229689348
 20
80.6224991999054
 30
0.0
 11
348.0188229689348
 21
99.44722866165058
 31
0.0
  0
LINE
  5
3D23
330
1F
100
AcDbEntity
  8
細線
100
AcDbLine
 10
338.018822968935
 20
80.6224991999054
 30
0.0
 11
338.018822968935
 21
99.44722866165058
 31
0.0
  0
LINE
  5
3D24
330
1F
100
AcDbEntity
  8
太線
100
AcDbLine
 10
337.0188229689349
 20
80.6224991999054
 30
0.0
 11
337.0188229689349
 21
99.44722866165058
 31
0.0
  0
DIMENSION
  5
3D25
330
1F
100
AcDbEntity
  8
寸法線
100
AcDbDimension
  2
*D40
 10
372.7534165539732
 20
59.6465207779819
 30
0.0
 11
369.252924427989
 21
90.64652077798195
 31
0.0
 70
    32
 71
     5
 42
61.99999999999999
  3
sunpo
100
AcDbAlignedDimension
 13
349.0188229689349
 23
121.6465207779819
 33
0.0
 14
348.0188229689348
 24
59.64652077798191
 34
0.0
 50
90.0
100
AcDbRotatedDimension
1001
ACAD
1000
DSTYLE
1002
{
1070
    40
1040
1.0
1002
}
  0
TEXT
  5
3D32
330
1F
100
AcDbEntity
  8
文字
100
AcDbText
 10
284.2540341708986
 20
91.23725164108691
 30
0.0
 40
6.0
  1
M12-60mm
 51
15.0
  7
OKANO
100
AcDbText
  0
DIMENSION
  5
3D78
330
1F
100
AcDbEntity
  8
寸法線
100
AcDbDimension
  2
*D41
 10
525.366801133335
 20
10.15367961687545
 30
0.0
 11
578.3894838490168
 21
13.71216719198419
 31
0.0
 70
   163
  1
M12
 71
     5
 42
12.00000000000011
  3
sunpo
100
AcDbDiametricDimension
 15
537.3398675147554
 25
10.95722266245651
 35
0.0
 40
0.0
1001
ACAD
1000
DSTYLE
1002
{
1070
    40
1040
1.0
1070
   288
1070
     1
1002
}
  0
CIRCLE
  5
3D84
330
1F
100
AcDbEntity
  8
破線
100
AcDbCircle
 10
531.3533343240453
 20
10.55545113966599
 30
0.0
 40
4.888570278150393
  0
XLINE
  5
3D94
330
1F
100
AcDbEntity
  8
構築線
100
AcDbXline
 10
342.2364578596693
 20
10.326017622505
 30
0.0
 11
1.0
 21
0.0
 31
0.0
  0
XLINE
  5
3D95
330
1F
100
AcDbEntity
  8
構築線
100
AcDbXline
 10
342.2364578596693
 20
10.326017622505
 30
0.0
 11
0.0
 21
-1.0
 31
0.0
  0
XLINE
  5
3D96
330
1F
100
AcDbEntity
  8
構築線
100
AcDbXline
 10
531.3533343240453
 20
10.55545113966599
 30
0.0
 11
0.0
 21
1.0
 31
0.0
  0
VIEWPORT
  5
2E
330
1B
100
AcDbEntity
 67
     1
  8
0
100
AcDbViewport
 10
240.217746142324
 20
108.4856578538652
 30
0.0
 40
674.002607272527
 41
322.9144324231721
 68
     2
 69
     1
 12
240.217746142324
 22
108.4856578538652
 13
0.0
 23
0.0
 14
10.0
 24
10.0
 15
10.0
 25
10.0
 16
0.0
 26
0.0
 36
1.0
 17
0.0
 27
0.0
 37
0.0
 42
50.0
 43
0.0
 44
0.0
 45
322.9144324231721
 50
0.0
 51
0.0
 72
   100
 90
    32800
  1

281
     0
 71
     1
 74
     0
110
0.0
120
0.0
130
0.0
111
1.0
121
0.0
131
0.0
112
0.0
122
1.0
132
0.0
 79
     0
146
0.0
  0
VIEWPORT
  5
30
330
1B
100
AcDbEntity
 67
     1
  8
70-0-CON
100
AcDbViewport
 10
141.8594093064315
 20
100.3480256368386
 30
0.0
 40
261.6199023344245
 41
192.6196987113174
 68
     1
 69
     2
 12
445.476849226746
 22
1.174267073398311
 13
0.0
 23
0.0
 14
5.0
 24
5.0
 15
10.0
 25
10.0
 16
0.0
 26
0.0
 36
1.0
 17
0.0
 27
0.0
 37
0.0
 42
50.0
 43
0.0
 44
0.0
 45
354.3059142906168
 50
0.0
 51
0.0
 72
   100
 90
    32864
  1

281
     0
 71
     1
 74
     0
110
0.0
120
0.0
130
0.0
111
1.0
121
0.0
131
0.0
112
0.0
122
1.0
132
0.0
 79
     0
146
0.0
  0
LWPOLYLINE
  5
45
330
1B
100
AcDbEntity
 67
     1
  8
50-0-CON
100
AcDbPolyline
 90
        4
 70
     1
 43
0.0
 10
11.04945813921926
 20
4.038176281179858
 10
272.2125713060605
 20
4.033520706629644
 10
273.4987754093466
 20
195.9297862125246
 10
11.04945813921926
 20
196.6578749924973
  0
LINE
  5
4A
330
1B
100
AcDbEntity
 67
     1
  8
50-0-CON
100
AcDbLine
 10
10.38768783662635
 20
100.3480256368386
 30
0.0
 11
-4.391850629656119
 21
100.3480256368386
 31
0.0
  0
LINE
  5
4B
330
1B
100
AcDbEntity
 67
     1
  8
50-0-CON
100
AcDbLine
 10
141.8594093064315
 20
197.098652626247
 30
0.0
 11
141.8594093064315
 21
202.387980773708
 31
0.0
  0
LINE
  5
4C
330
1B
100
AcDbEntity
 67
     1
  8
50-0-CON
100
AcDbLine
 10
272.4487699456857
 20
100.7888032705883
 30
0.0
 11
278.8458837249377
 21
100.7888032705883
 31
0.0
  0
LINE
  5
4D
330
1B
100
AcDbEntity
 67
     1
  8
50-0-CON
100
AcDbLine
 10
140.9770484758805
 20
4.038176281179858
 30
0.0
 11
140.9770484758805
 21
-3.455038652015446
 31
0.0
  0
ENDSEC
  0
SECTION
  2
OBJECTS
  0
DICTIONARY
  5
C
330
0
100
AcDbDictionary
281
     1
  3
ACAD_GROUP
350
D
  3
ACAD_LAYOUT
350
1A
  3
ACAD_MLINESTYLE
350
17
  3
ACAD_PLOTSETTINGS
350
19
  3
ACAD_PLOTSTYLENAME
350
E
  3
AcadDim
350
3D77
  3
AcDbVariableDictionary
350
6AD
  3
DWGPROPS
350
30F
  0
DICTIONARY
  5
D
102
{ACAD_REACTORS
330
C
102
}
330
C
100
AcDbDictionary
281
     1
  0
DICTIONARY
  5
1A
102
{ACAD_REACTORS
330
C
102
}
330
C
100
AcDbDictionary
281
     1
  3
A4
350
1E
  3
Model
350
22
  0
DICTIONARY
  5
17
102
{ACAD_REACTORS
330
C
102
}
330
C
100
AcDbDictionary
281
     1
  3
Standard
350
18
  0
DICTIONARY
  5
19
102
{ACAD_REACTORS
330
C
102
}
330
C
100
AcDbDictionary
281
     1
  0
ACDBDICTIONARYWDFLT
  5
E
102
{ACAD_REACTORS
330
C
102
}
330
C
100
AcDbDictionary
281
     1
  3
Normal
350
F
100
AcDbDictionaryWithDefault
340
F
  0
XRECORD
  5
3D77
102
{ACAD_REACTORS
330
C
102
}
330
C
100
AcDbXrecord
280
     1
 90
   990106
  3

 60
     0
 61
     0
 62
     1
 63
     3
 64
     0
 65
     0
 66
     0
 67
     3
 68
     1
 69
     0
 70
     0
 71
     0
 72
     0
 40
0.9821740024764281
170
     0
  0
DICTIONARY
  5
6AD
102
{ACAD_REACTORS
330
C
102
}
330
C
100
AcDbDictionary
281
     1
  3
SORTENTS
350
6AE
  0
XRECORD
  5
30F
102
{ACAD_REACTORS
330
C
102
}
330
C
100
AcDbXrecord
280
     1
  1
DWGPROPS COOKIE
  2

  3

  4

  6

  7

  8

  9

300
=
301
=
302
=
303
=
304
=
305
=
306
=
307
=
308
=
309
=
 40
0.3303803125
 41
2452362.482225463
 42
2452370.969861285
  1

 90
        0
  0
LAYOUT
  5
1E
102
{ACAD_REACTORS
330
1A
102
}
330
1A
100
AcDbPlotSettings
  1

  2
EPSON PM-920C
  4
A4
  6

 40
3.757083177566528
 41
14.7637300491333
 42
3.757080078125
 43
3.757080078125
 44
209.9733276367187
 45
296.9683227539062
 46
0.0
 47
0.0
 48
0.0
 49
0.0
140
0.0
141
0.0
142
1.0
143
1.0
 70
   688
 72
     1
 73
     1
 74
     5
  7
joint.ctb
 75
    16
147
1.0
148
0.0
149
0.0
100
AcDbLayout
  1
A4
 70
     1
 71
     1
 10
-3.757080078125
 20
-3.757083177566528
 11
293.2112426757812
 21
206.2162444591522
 12
0.0
 22
0.0
 32
0.0
 14
-4.391850629656119
 24
-3.455038652015446
 34
0.0
 15
278.8458837249377
 25
202.387980773708
 35
0.0
146
0.0
 13
0.0
 23
0.0
 33
0.0
 16
1.0
 26
0.0
 36
0.0
 17
0.0
 27
1.0
 37
0.0
 76
     0
330
1B
331
30
  0
LAYOUT
  5
22
102
{ACAD_REACTORS
330
1A
102
}
330
1A
100
AcDbPlotSettings
  1

  2
EPSON PM-920C
  4
A4
  6

 40
3.757083177566528
 41
14.7637300491333
 42
3.757080078125
 43
3.757080078125
 44
209.9733276367187
 45
296.9683227539062
 46
0.0
 47
0.0
 48
0.0
 49
0.0
140
0.0
141
0.0
142
1.0
143
1.0
 70
 11952
 72
     1
 73
     1
 74
     0
  7

 75
     0
147
1.0
148
-45.64199848979289
149
-84.48806419330498
100
AcDbLayout
  1
Model
 70
     1
 71
     0
 10
0.0
 20
0.0
 11
12.0
 21
9.0
 12
0.0
 22
0.0
 32
0.0
 14
0.0
 24
0.0
 34
0.0
 15
0.0
 25
0.0
 35
0.0
146
0.0
 13
0.0
 23
0.0
 33
0.0
 16
1.0
 26
0.0
 36
0.0
 17
0.0
 27
1.0
 37
0.0
 76
     0
330
1F
  0
MLINESTYLE
  5
18
102
{ACAD_REACTORS
330
17
102
}
330
17
100
AcDbMlineStyle
  2
STANDARD
 70
     0
  3

 62
   256
 51
90.0
 52
90.0
 71
     2
 49
0.5
 62
   256
  6
BYLAYER
 49
-0.5
 62
   256
  6
BYLAYER
  0
ACDBPLACEHOLDER
  5
F
102
{ACAD_REACTORS
330
E
102
}
330
E
  0
DICTIONARYVAR
  5
6AE
102
{ACAD_REACTORS
330
6AD
102
}
330
6AD
100
DictionaryVariables
280
     0
  1
96
  0
ENDSEC
  0
EOF
