  0
SECTION
  2
HEADER
  9
$ACADVER
  1
AC1015
  9
$ACADMAINTVER
 70
     6
  9
$DWGCODEPAGE
  3
ANSI_932
  9
$INSBASE
 10
0.0
 20
0.0
 30
0.0
  9
$EXTMIN
 10
-23.03111126731408
 20
-238.0917626337977
 30
0.0
  9
$EXTMAX
 10
617.9521347808631
 20
265.1665559093593
 30
0.0
  9
$LIMMIN
 10
0.0
 20
0.0
  9
$LIMMAX
 10
420.0
 20
297.0
  9
$ORTHOMODE
 70
     1
  9
$REGENMODE
 70
     1
  9
$FILLMODE
 70
     1
  9
$QTEXTMODE
 70
     0
  9
$MIRRTEXT
 70
     1
  9
$LTSCALE
 40
1.0
  9
$ATTMODE
 70
     1
  9
$TEXTSIZE
 40
5.0
  9
$TRACEWID
 40
1.0
  9
$TEXTSTYLE
  7
OKANO
  9
$CLAYER
  8
太線
  9
$CELTYPE
  6
ByLayer
  9
$CECOLOR
 62
   256
  9
$CELTSCALE
 40
1.0
  9
$DISPSILH
 70
     0
  9
$DIMSCALE
 40
0.0
  9
$DIMASZ
 40
3.0
  9
$DIMEXO
 40
2.0
  9
$DIMDLI
 40
8.0
  9
$DIMRND
 40
0.0
  9
$DIMDLE
 40
0.0
  9
$DIMEXE
 40
3.0
  9
$DIMTP
 40
0.0
  9
$DIMTM
 40
0.0
  9
$DIMTXT
 40
5.0
  9
$DIMCEN
 40
2.5
  9
$DIMTSZ
 40
0.0
  9
$DIMTOL
 70
     0
  9
$DIMLIM
 70
     0
  9
$DIMTIH
 70
     0
  9
$DIMTOH
 70
     0
  9
$DIMSE1
 70
     0
  9
$DIMSE2
 70
     0
  9
$DIMTAD
 70
     1
  9
$DIMZIN
 70
     8
  9
$DIMBLK
  1
Closed
  9
$DIMASO
 70
     1
  9
$DIMSHO
 70
     1
  9
$DIMPOST
  1

  9
$DIMAPOST
  1

  9
$DIMALT
 70
     0
  9
$DIMALTD
 70
     3
  9
$DIMALTF
 40
0.03937007874016
  9
$DIMLFAC
 40
1.0
  9
$DIMTOFL
 70
     1
  9
$DIMTVP
 40
0.0
  9
$DIMTIX
 70
     0
  9
$DIMSOXD
 70
     0
  9
$DIMSAH
 70
     0
  9
$DIMBLK1
  1

  9
$DIMBLK2
  1

  9
$DIMSTYLE
  2
sunpo
  9
$DIMCLRD
 70
     0
  9
$DIMCLRE
 70
     0
  9
$DIMCLRT
 70
     0
  9
$DIMTFAC
 40
1.0
  9
$DIMGAP
 40
1.0
  9
$DIMJUST
 70
     0
  9
$DIMSD1
 70
     0
  9
$DIMSD2
 70
     0
  9
$DIMTOLJ
 70
     0
  9
$DIMTZIN
 70
     8
  9
$DIMALTZ
 70
     0
  9
$DIMALTTZ
 70
     0
  9
$DIMUPT
 70
     0
  9
$DIMDEC
 70
     2
  9
$DIMTDEC
 70
     2
  9
$DIMALTU
 70
     2
  9
$DIMALTTD
 70
     3
  9
$DIMTXSTY
  7
OKANO
  9
$DIMAUNIT
 70
     0
  9
$DIMADEC
 70
     0
  9
$DIMALTRND
 40
0.0
  9
$DIMAZIN
 70
     0
  9
$DIMDSEP
 70
    46
  9
$DIMATFIT
 70
     3
  9
$DIMFRAC
 70
     0
  9
$DIMLDRBLK
  1
Closed
  9
$DIMLUNIT
 70
     2
  9
$DIMLWD
 70
    -2
  9
$DIMLWE
 70
    -2
  9
$DIMTMOVE
 70
     0
  9
$LUNITS
 70
     2
  9
$LUPREC
 70
     2
  9
$SKETCHINC
 40
1.0
  9
$FILLETRAD
 40
1.0
  9
$AUNITS
 70
     0
  9
$AUPREC
 70
     0
  9
$MENU
  1
.
  9
$ELEVATION
 40
0.0
  9
$PELEVATION
 40
0.0
  9
$THICKNESS
 40
0.0
  9
$LIMCHECK
 70
     0
  9
$CHAMFERA
 40
10.0
  9
$CHAMFERB
 40
10.0
  9
$CHAMFERC
 40
20.0
  9
$CHAMFERD
 40
0.0
  9
$SKPOLY
 70
     0
  9
$TDCREATE
 40
2452362.482225463
  9
$TDUCREATE
 40
2452362.107225463
  9
$TDUPDATE
 40
2455957.618781088
  9
$TDUUPDATE
 40
2455957.243781087
  9
$TDINDWG
 40
2.2638196759
  9
$TDUSRTIMER
 40
2.2638196759
  9
$USRTIMER
 70
     1
  9
$ANGBASE
 50
0.0
  9
$ANGDIR
 70
     0
  9
$PDMODE
 70
     0
  9
$PDSIZE
 40
0.0
  9
$PLINEWID
 40
0.0
  9
$SPLFRAME
 70
     0
  9
$SPLINETYPE
 70
     6
  9
$SPLINESEGS
 70
     8
  9
$HANDSEED
  5
4197
  9
$SURFTAB1
 70
     6
  9
$SURFTAB2
 70
     6
  9
$SURFTYPE
 70
     6
  9
$SURFU
 70
     6
  9
$SURFV
 70
     6
  9
$UCSBASE
  2

  9
$UCSNAME
  2

  9
$UCSORG
 10
0.0
 20
0.0
 30
0.0
  9
$UCSXDIR
 10
1.0
 20
0.0
 30
0.0
  9
$UCSYDIR
 10
0.0
 20
1.0
 30
0.0
  9
$UCSORTHOREF
  2

  9
$UCSORTHOVIEW
 70
     0
  9
$UCSORGTOP
 10
0.0
 20
0.0
 30
0.0
  9
$UCSORGBOTTOM
 10
0.0
 20
0.0
 30
0.0
  9
$UCSORGLEFT
 10
0.0
 20
0.0
 30
0.0
  9
$UCSORGRIGHT
 10
0.0
 20
0.0
 30
0.0
  9
$UCSORGFRONT
 10
0.0
 20
0.0
 30
0.0
  9
$UCSORGBACK
 10
0.0
 20
0.0
 30
0.0
  9
$PUCSBASE
  2

  9
$PUCSNAME
  2

  9
$PUCSORG
 10
0.0
 20
0.0
 30
0.0
  9
$PUCSXDIR
 10
1.0
 20
0.0
 30
0.0
  9
$PUCSYDIR
 10
0.0
 20
1.0
 30
0.0
  9
$PUCSORTHOREF
  2

  9
$PUCSORTHOVIEW
 70
     0
  9
$PUCSORGTOP
 10
0.0
 20
0.0
 30
0.0
  9
$PUCSORGBOTTOM
 10
0.0
 20
0.0
 30
0.0
  9
$PUCSORGLEFT
 10
0.0
 20
0.0
 30
0.0
  9
$PUCSORGRIGHT
 10
0.0
 20
0.0
 30
0.0
  9
$PUCSORGFRONT
 10
0.0
 20
0.0
 30
0.0
  9
$PUCSORGBACK
 10
0.0
 20
0.0
 30
0.0
  9
$USERI1
 70
     0
  9
$USERI2
 70
     0
  9
$USERI3
 70
     0
  9
$USERI4
 70
     0
  9
$USERI5
 70
     0
  9
$USERR1
 40
0.0
  9
$USERR2
 40
0.0
  9
$USERR3
 40
0.0
  9
$USERR4
 40
0.0
  9
$USERR5
 40
0.0
  9
$WORLDVIEW
 70
     1
  9
$SHADEDGE
 70
     3
  9
$SHADEDIF
 70
    70
  9
$TILEMODE
 70
     0
  9
$MAXACTVP
 70
    64
  9
$PINSBASE
 10
0.0
 20
0.0
 30
0.0
  9
$PLIMCHECK
 70
     0
  9
$PEXTMIN
 10
-4.391850629656119
 20
-3.455038652015446
 30
0.0
  9
$PEXTMAX
 10
278.8458837249377
 20
202.387980773708
 30
0.0
  9
$PLIMMIN
 10
-3.757080078125
 20
-3.757083177566528
  9
$PLIMMAX
 10
293.2112426757812
 20
206.2162444591522
  9
$UNITMODE
 70
     0
  9
$VISRETAIN
 70
     1
  9
$PLINEGEN
 70
     0
  9
$PSLTSCALE
 70
     1
  9
$TREEDEPTH
 70
  3020
  9
$CMLSTYLE
  2
Standard
  9
$CMLJUST
 70
     0
  9
$CMLSCALE
 40
20.0
  9
$PROXYGRAPHICS
 70
     1
  9
$MEASUREMENT
 70
     1
  9
$CELWEIGHT
370
    -1
  9
$ENDCAPS
280
     0
  9
$JOINSTYLE
280
     0
  9
$LWDISPLAY
290
     0
  9
$INSUNITS
 70
     4
  9
$HYPERLINKBASE
  1

  9
$STYLESHEET
  1

  9
$XEDIT
290
     1
  9
$CEPSNTYPE
380
     0
  9
$PSTYLEMODE
290
     1
  9
$FINGERPRINTGUID
  2
{FF7F33C3-4233-11D6-AEE0-0000F45FD7F4}
  9
$VERSIONGUID
  2
{8DEB57F9-6AEB-4E84-8A73-6DCAB4726079}
  9
$EXTNAMES
290
     1
  9
$PSVPSCALE
 40
0.0
  9
$OLESTARTUP
290
     0
  0
ENDSEC
  0
SECTION
  2
CLASSES
  0
CLASS
  1
ACDBDICTIONARYWDFLT
  2
AcDbDictionaryWithDefault
  3
AutoCAD 2000
 90
        0
280
     0
281
     0
  0
CLASS
  1
ACDBPLACEHOLDER
  2
AcDbPlaceHolder
  3
AutoCAD 2000
 90
        0
280
     0
281
     0
  0
CLASS
  1
LAYOUT
  2
AcDbLayout
  3
AutoCAD 2000
 90
        0
280
     0
281
     0
  0
CLASS
  1
DICTIONARYVAR
  2
AcDbDictionaryVar
  3
AutoCAD 2000
 90
        0
280
     0
281
     0
  0
ENDSEC
  0
SECTION
  2
TABLES
  0
TABLE
  2
VPORT
  5
8
330
0
100
AcDbSymbolTable
 70
     1
  0
VPORT
  5
4190
330
8
100
AcDbSymbolTableRecord
100
AcDbViewportTableRecord
  2
*Active
 70
     0
 10
0.0
 20
0.0
 11
1.0
 21
1.0
 12
385.9851916986162
 22
-98.51344480124044
 13
0.0
 23
0.0
 14
5.0
 24
5.0
 15
10.0
 25
10.0
 16
0.0
 26
0.0
 36
1.0
 17
0.0
 27
0.0
 37
0.0
 40
316.6557239561329
 41
1.857142857142857
 42
50.0
 43
0.0
 44
0.0
 50
0.0
 51
0.0
 71
     0
 72
   100
 73
     1
 74
     3
 75
     0
 76
     0
 77
     0
 78
     0
281
     0
 65
     1
110
0.0
120
0.0
130
0.0
111
1.0
121
0.0
131
0.0
112
0.0
122
1.0
132
0.0
 79
     0
146
0.0
  0
ENDTAB
  0
TABLE
  2
LTYPE
  5
5
330
0
100
AcDbSymbolTable
 70
     5
  0
LTYPE
  5
14
330
5
100
AcDbSymbolTableRecord
100
AcDbLinetypeTableRecord
  2
ByBlock
 70
     0
  3

 72
    65
 73
     0
 40
0.0
  0
LTYPE
  5
15
330
5
100
AcDbSymbolTableRecord
100
AcDbLinetypeTableRecord
  2
ByLayer
 70
     0
  3

 72
    65
 73
     0
 40
0.0
  0
LTYPE
  5
16
330
5
100
AcDbSymbolTableRecord
100
AcDbLinetypeTableRecord
  2
Continuous
 70
     0
  3
Solid line
 72
    65
 73
     0
 40
0.0
  0
LTYPE
  5
33
330
5
100
AcDbSymbolTableRecord
100
AcDbLinetypeTableRecord
  2
DASHED2
 70
     0
  3
Dashed (.5x) _ _ _ _ _ _ _ _ _ _ _ _ _ _ _ _ _
 72
    65
 73
     2
 40
9.524999999999998
 49
6.349999999999999
 74
     0
 49
-3.174999999999999
 74
     0
  0
LTYPE
  5
34
330
5
100
AcDbSymbolTableRecord
100
AcDbLinetypeTableRecord
  2
CENTER2
 70
     0
  3
Center (.5x) ___ _ ___ _ ___ _ ___ _ ___ _ ___
 72
    65
 73
     4
 40
28.57499999999999
 49
19.05
 74
     0
 49
-3.174999999999999
 74
     0
 49
3.174999999999999
 74
     0
 49
-3.174999999999999
 74
     0
  0
LTYPE
  5
35
330
5
100
AcDbSymbolTableRecord
100
AcDbLinetypeTableRecord
  2
PHANTOM2
 70
     0
  3
Phantom (.5x) ___ _ _ ___ _ _ ___ _ _ ___ _ _
 72
    65
 73
     6
 40
31.75
 49
15.875
 74
     0
 49
-3.174999999999999
 74
     0
 49
3.174999999999999
 74
     0
 49
-3.174999999999999
 74
     0
 49
3.174999999999999
 74
     0
 49
-3.174999999999999
 74
     0
  0
LTYPE
  5
36
330
5
100
AcDbSymbolTableRecord
100
AcDbLinetypeTableRecord
  2
HIDDEN2
 70
     0
  3
Hidden (.5x) _ _ _ _ _ _ _ _ _ _ _ _ _ _ _ _ _
 72
    65
 73
     2
 40
4.762499999999999
 49
3.174999999999999
 74
     0
 49
-1.587499999999999
 74
     0
  0
ENDTAB
  0
TABLE
  2
LAYER
  5
2
330
0
100
AcDbSymbolTable
 70
    13
  0
LAYER
  5
10
330
2
100
AcDbSymbolTableRecord
100
AcDbLayerTableRecord
  2
0
 70
     0
 62
     7
  6
Continuous
370
    -3
390
F
  0
LAYER
  5
40
330
2
100
AcDbSymbolTableRecord
100
AcDbLayerTableRecord
  2
50-0-CON
 70
     0
 62
     4
  6
Continuous
370
    50
390
F
  0
LAYER
  5
41
330
2
100
AcDbSymbolTableRecord
100
AcDbLayerTableRecord
  2
70-0-CON
 70
     0
 62
   202
  6
Continuous
370
    70
390
F
  0
LAYER
  5
4E
330
2
100
AcDbSymbolTableRecord
100
AcDbLayerTableRecord
  2
極太線
 70
     0
 62
     7
  6
Continuous
370
    70
390
F
  0
LAYER
  5
4F
330
2
100
AcDbSymbolTableRecord
100
AcDbLayerTableRecord
  2
細線
 70
     0
 62
     8
  6
Continuous
370
    18
390
F
  0
LAYER
  5
AB
330
2
100
AcDbSymbolTableRecord
100
AcDbLayerTableRecord
  2
構築線
 70
     0
 62
     2
  6
Continuous
290
     0
370
    18
390
F
  0
LAYER
  5
B8
330
2
100
AcDbSymbolTableRecord
100
AcDbLayerTableRecord
  2
太線
 70
     0
 62
     7
  6
Continuous
370
    35
390
F
  0
LAYER
  5
B9
330
2
100
AcDbSymbolTableRecord
100
AcDbLayerTableRecord
  2
寸法線
 70
     0
 62
     5
  6
Continuous
370
    18
390
F
  0
LAYER
  5
BA
330
2
100
AcDbSymbolTableRecord
100
AcDbLayerTableRecord
  2
破線
 70
     0
 62
     8
  6
HIDDEN2
370
    18
390
F
  0
LAYER
  5
BB
330
2
100
AcDbSymbolTableRecord
100
AcDbLayerTableRecord
  2
中心線
 70
     0
 62
     1
  6
CENTER2
370
    18
390
F
  0
LAYER
  5
BC
330
2
100
AcDbSymbolTableRecord
100
AcDbLayerTableRecord
  2
想像線
 70
     0
 62
     8
  6
PHANTOM2
370
    18
390
F
  0
LAYER
  5
BD
330
2
100
AcDbSymbolTableRecord
100
AcDbLayerTableRecord
  2
文字
 70
     0
 62
     7
  6
Continuous
370
    18
390
F
  0
LAYER
  5
180
330
2
100
AcDbSymbolTableRecord
100
AcDbLayerTableRecord
  2
Defpoints
 70
     0
 62
     7
  6
Continuous
290
     0
370
    -3
390
F
  0
ENDTAB
  0
TABLE
  2
STYLE
  5
3
330
0
100
AcDbSymbolTable
 70
     3
  0
STYLE
  5
11
330
3
100
AcDbSymbolTableRecord
100
AcDbTextStyleTableRecord
  2
Standard
 70
     0
 40
0.0
 41
1.0
 50
0.0
 71
     0
 42
3.0
  3
txt
  4

  0
STYLE
  5
32
330
3
100
AcDbSymbolTableRecord
100
AcDbTextStyleTableRecord
  2

 70
     1
 40
0.0
 41
1.0
 50
0.0
 71
     0
 42
2.5
  3
ltypeshp.shx
  4

  0
STYLE
  5
50
330
3
100
AcDbSymbolTableRecord
100
AcDbTextStyleTableRecord
  2
OKANO
 70
     0
 40
0.0
 41
1.0
 50
15.0
 71
     0
 42
5.0
  3
isocp.shx
  4
bigfont.shx
  0
ENDTAB
  0
TABLE
  2
VIEW
  5
6
330
0
100
AcDbSymbolTable
 70
     0
  0
ENDTAB
  0
TABLE
  2
UCS
  5
7
330
0
100
AcDbSymbolTable
 70
     0
  0
ENDTAB
  0
TABLE
  2
APPID
  5
9
330
0
100
AcDbSymbolTable
 70
     1
  0
APPID
  5
12
330
9
100
AcDbSymbolTableRecord
100
AcDbRegAppTableRecord
  2
ACAD
 70
     0
  0
ENDTAB
  0
TABLE
  2
DIMSTYLE
  5
A
330
0
100
AcDbSymbolTable
 70
     2
100
AcDbDimStyleTable
 71
     2
340
A2
340
27
  0
DIMSTYLE
105
27
102
{ACAD_REACTORS
330
38A6
330
38A8
330
38AB
330
38AC
330
40F7
330
40F8
330
40FB
102
}
330
A
100
AcDbSymbolTableRecord
100
AcDbDimStyleTableRecord
  2
ISO-25
 70
     0
 41
2.5
 42
0.625
 43
3.75
 44
1.25
 73
     0
 74
     0
 77
     1
 78
     8
140
2.5
141
2.5
143
0.03937007874016
147
0.625
171
     3
172
     1
271
     2
272
     2
274
     3
283
     0
284
     8
340
11
  0
DIMSTYLE
105
A2
102
{ACAD_REACTORS
330
33B0
330
33B4
330
33BE
330
33F4
330
33F8
330
390D
330
3987
330
39ED
330
39FA
330
3A07
330
3A14
330
3A69
330
3A91
330
3AAC
330
3B90
330
3BEA
330
3E1D
330
3E1E
330
3E24
330
3E25
330
3E26
330
3E2A
330
3E2D
330
3E30
330
3E33
330
3E39
330
3E3A
330
3E3F
330
3E46
330
3E59
330
4081
330
408E
330
4150
330
4178
102
}
330
A
100
AcDbSymbolTableRecord
100
AcDbDimStyleTableRecord
  2
sunpo
 70
     0
 40
0.0
 41
3.0
 42
2.0
 43
8.0
 44
3.0
 73
     0
 74
     0
 77
     1
 78
     8
140
5.0
141
2.5
143
0.03937007874016
147
1.0
171
     3
172
     1
271
     2
272
     2
274
     3
283
     0
284
     8
340
50
341
9B
342
9B
  0
ENDTAB
  0
TABLE
  2
BLOCK_RECORD
  5
1
330
0
100
AcDbSymbolTable
 70
    48
  0
BLOCK_RECORD
  5
1F
330
1
100
AcDbSymbolTableRecord
100
AcDbBlockTableRecord
  2
*Model_Space
340
22
  0
BLOCK_RECORD
  5
1B
330
1
100
AcDbSymbolTableRecord
100
AcDbBlockTableRecord
  2
*Paper_Space
340
1E
  0
BLOCK_RECORD
  5
9B
330
1
100
AcDbSymbolTableRecord
100
AcDbBlockTableRecord
  2
_Closed
340
0
102
{BLKREFS
331
3529
331
352A
331
3532
331
3538
331
3539
331
3541
331
3542
331
354A
331
354B
331
3A5F
331
3A60
331
3CB2
331
3CB3
331
3F0E
331
3F0F
331
3F16
331
3F17
331
3F1D
331
3F1E
331
3F26
331
3F27
331
3F2F
331
3F30
331
3F38
331
3F39
331
3F43
331
3F44
331
3F4C
331
3F4D
331
3F55
331
3F56
331
3F5E
331
3F5F
331
3F67
331
3F68
331
3F72
331
3F73
331
3F7C
331
3F7D
331
3F85
331
3F86
331
401E
331
401F
331
4027
331
4028
331
4030
331
4031
331
4039
331
403A
331
4042
331
4043
331
404E
331
404F
331
4058
331
4059
331
4061
331
4062
331
406C
331
406D
331
409E
331
409F
331
40A7
331
40A8
331
413A
331
413B
331
4160
331
4161
331
4188
331
4189
102
}
  0
BLOCK_RECORD
  5
1510
330
1
100
AcDbSymbolTableRecord
100
AcDbBlockTableRecord
  2
A$C10A573AC
340
0
  0
BLOCK_RECORD
  5
341C
330
1
100
AcDbSymbolTableRecord
100
AcDbBlockTableRecord
  2
*D2
340
0
  0
BLOCK_RECORD
  5
3428
330
1
100
AcDbSymbolTableRecord
100
AcDbBlockTableRecord
  2
*D3
340
0
  0
BLOCK_RECORD
  5
3431
330
1
100
AcDbSymbolTableRecord
100
AcDbBlockTableRecord
  2
*D4
340
0
  0
BLOCK_RECORD
  5
343D
330
1
100
AcDbSymbolTableRecord
100
AcDbBlockTableRecord
  2
*D5
340
0
  0
BLOCK_RECORD
  5
3449
330
1
100
AcDbSymbolTableRecord
100
AcDbBlockTableRecord
  2
*D6
340
0
  0
BLOCK_RECORD
  5
38B4
330
1
100
AcDbSymbolTableRecord
100
AcDbBlockTableRecord
  2
*D7
340
0
  0
BLOCK_RECORD
  5
38C0
330
1
100
AcDbSymbolTableRecord
100
AcDbBlockTableRecord
  2
*D8
340
0
  0
BLOCK_RECORD
  5
38CB
330
1
100
AcDbSymbolTableRecord
100
AcDbBlockTableRecord
  2
*D9
340
0
  0
BLOCK_RECORD
  5
38D6
330
1
100
AcDbSymbolTableRecord
100
AcDbBlockTableRecord
  2
*D10
340
0
  0
BLOCK_RECORD
  5
390E
330
1
100
AcDbSymbolTableRecord
100
AcDbBlockTableRecord
  2
*D11
340
0
  0
BLOCK_RECORD
  5
3988
330
1
100
AcDbSymbolTableRecord
100
AcDbBlockTableRecord
  2
*D12
340
0
  0
BLOCK_RECORD
  5
39EE
330
1
100
AcDbSymbolTableRecord
100
AcDbBlockTableRecord
  2
*D14
340
0
  0
BLOCK_RECORD
  5
39FB
330
1
100
AcDbSymbolTableRecord
100
AcDbBlockTableRecord
  2
*D15
340
0
  0
BLOCK_RECORD
  5
3A08
330
1
100
AcDbSymbolTableRecord
100
AcDbBlockTableRecord
  2
*D16
340
0
  0
BLOCK_RECORD
  5
3A15
330
1
100
AcDbSymbolTableRecord
100
AcDbBlockTableRecord
  2
*D17
340
0
  0
BLOCK_RECORD
  5
3A6A
330
1
100
AcDbSymbolTableRecord
100
AcDbBlockTableRecord
  2
*D18
340
0
  0
BLOCK_RECORD
  5
3A92
330
1
100
AcDbSymbolTableRecord
100
AcDbBlockTableRecord
  2
*D19
340
0
  0
BLOCK_RECORD
  5
3AAD
330
1
100
AcDbSymbolTableRecord
100
AcDbBlockTableRecord
  2
*D20
340
0
  0
BLOCK_RECORD
  5
3BC1
330
1
100
AcDbSymbolTableRecord
100
AcDbBlockTableRecord
  2
*D21
340
0
  0
BLOCK_RECORD
  5
3C25
330
1
100
AcDbSymbolTableRecord
100
AcDbBlockTableRecord
  2
*D22
340
0
  0
BLOCK_RECORD
  5
3CC1
330
1
100
AcDbSymbolTableRecord
100
AcDbBlockTableRecord
  2
A$C057E205E
340
0
  0
BLOCK_RECORD
  5
3E5F
330
1
100
AcDbSymbolTableRecord
100
AcDbBlockTableRecord
  2
*D24
340
0
  0
BLOCK_RECORD
  5
3E6A
330
1
100
AcDbSymbolTableRecord
100
AcDbBlockTableRecord
  2
*D25
340
0
  0
BLOCK_RECORD
  5
3E75
330
1
100
AcDbSymbolTableRecord
100
AcDbBlockTableRecord
  2
*D26
340
0
  0
BLOCK_RECORD
  5
3E81
330
1
100
AcDbSymbolTableRecord
100
AcDbBlockTableRecord
  2
*D27
340
0
  0
BLOCK_RECORD
  5
3E8D
330
1
100
AcDbSymbolTableRecord
100
AcDbBlockTableRecord
  2
*D28
340
0
  0
BLOCK_RECORD
  5
3E99
330
1
100
AcDbSymbolTableRecord
100
AcDbBlockTableRecord
  2
*D29
340
0
  0
BLOCK_RECORD
  5
3EA5
330
1
100
AcDbSymbolTableRecord
100
AcDbBlockTableRecord
  2
*D30
340
0
  0
BLOCK_RECORD
  5
3EB3
330
1
100
AcDbSymbolTableRecord
100
AcDbBlockTableRecord
  2
*D31
340
0
  0
BLOCK_RECORD
  5
3EBF
330
1
100
AcDbSymbolTableRecord
100
AcDbBlockTableRecord
  2
*D32
340
0
  0
BLOCK_RECORD
  5
3ECB
330
1
100
AcDbSymbolTableRecord
100
AcDbBlockTableRecord
  2
*D33
340
0
  0
BLOCK_RECORD
  5
3ED7
330
1
100
AcDbSymbolTableRecord
100
AcDbBlockTableRecord
  2
*D34
340
0
  0
BLOCK_RECORD
  5
3EE3
330
1
100
AcDbSymbolTableRecord
100
AcDbBlockTableRecord
  2
*D35
340
0
  0
BLOCK_RECORD
  5
3EF1
330
1
100
AcDbSymbolTableRecord
100
AcDbBlockTableRecord
  2
*D36
340
0
  0
BLOCK_RECORD
  5
3EFC
330
1
100
AcDbSymbolTableRecord
100
AcDbBlockTableRecord
  2
*D37
340
0
  0
BLOCK_RECORD
  5
4082
330
1
100
AcDbSymbolTableRecord
100
AcDbBlockTableRecord
  2
*D38
340
0
  0
BLOCK_RECORD
  5
408F
330
1
100
AcDbSymbolTableRecord
100
AcDbBlockTableRecord
  2
*D39
340
0
  0
BLOCK_RECORD
  5
40FD
330
1
100
AcDbSymbolTableRecord
100
AcDbBlockTableRecord
  2
*D43
340
0
  0
BLOCK_RECORD
  5
4108
330
1
100
AcDbSymbolTableRecord
100
AcDbBlockTableRecord
  2
*D44
340
0
  0
BLOCK_RECORD
  5
4113
330
1
100
AcDbSymbolTableRecord
100
AcDbBlockTableRecord
  2
*D45
340
0
  0
BLOCK_RECORD
  5
4151
330
1
100
AcDbSymbolTableRecord
100
AcDbBlockTableRecord
  2
*D46
340
0
  0
BLOCK_RECORD
  5
4179
330
1
100
AcDbSymbolTableRecord
100
AcDbBlockTableRecord
  2
*D47
340
0
  0
ENDTAB
  0
ENDSEC
  0
SECTION
  2
BLOCKS
  0
BLOCK
  5
20
330
1F
100
AcDbEntity
  8
0
100
AcDbBlockBegin
  2
*Model_Space
 70
     0
 10
0.0
 20
0.0
 30
0.0
  3
*Model_Space
  1

  0
ENDBLK
  5
21
330
1F
100
AcDbEntity
  8
0
100
AcDbBlockEnd
  0
BLOCK
  5
1C
330
1B
100
AcDbEntity
 67
     1
  8
0
100
AcDbBlockBegin
  2
*Paper_Space
 70
     0
 10
0.0
 20
0.0
 30
0.0
  3
*Paper_Space
  1

  0
ENDBLK
  5
1D
330
1B
100
AcDbEntity
 67
     1
  8
0
100
AcDbBlockEnd
  0
BLOCK
  5
A0
330
9B
100
AcDbEntity
  8
0
100
AcDbBlockBegin
  2
_Closed
 70
     0
 10
0.0
 20
0.0
 30
0.0
  3
_Closed
  1

  0
LINE
  5
9C
330
9B
100
AcDbEntity
  8
0
 62
     0
370
    -2
100
AcDbLine
 10
-1.0
 20
0.1666666666666666
 30
0.0
 11
0.0
 21
0.0
 31
0.0
  0
LINE
  5
9D
330
9B
100
AcDbEntity
  8
0
 62
     0
370
    -2
100
AcDbLine
 10
0.0
 20
0.0
 30
0.0
 11
-1.0
 21
-0.1666666666666666
 31
0.0
  0
LINE
  5
9E
330
9B
100
AcDbEntity
  8
0
 62
     0
370
    -2
100
AcDbLine
 10
-1.0
 20
0.1666666666666666
 30
0.0
 11
-1.0
 21
-0.1666666666666666
 31
0.0
  0
LINE
  5
9F
330
9B
100
AcDbEntity
  8
0
 62
     0
370
    -2
100
AcDbLine
 10
0.0
 20
0.0
 30
0.0
 11
-1.0
 21
0.0
 31
0.0
  0
ENDBLK
  5
A1
330
9B
100
AcDbEntity
  8
0
100
AcDbBlockEnd
  0
BLOCK
  5
155B
330
1510
100
AcDbEntity
  8
0
100
AcDbBlockBegin
  2
A$C10A573AC
 70
     0
 10
0.0
 20
0.0
 30
0.0
  3
A$C10A573AC
  1

  0
TEXT
  5
1511
330
1510
100
AcDbEntity
  8
文字
100
AcDbText
 10
0.9844302777919438
 20
5.224957122252135
 30
0.0
 40
3.0
  1
Materal : Steel.
 51
15.0
  7
OKANO
100
AcDbText
  0
TEXT
  5
1512
330
1510
100
AcDbEntity
  8
文字
100
AcDbText
 10
-0.1141909619694843
 20
0.7500001922403499
 30
0.0
 40
3.0
  1
Surface treatment : Electro galvanized.
 51
15.0
  7
OKANO
100
AcDbText
  0
TEXT
  5
1513
330
1510
100
AcDbEntity
  8
文字
100
AcDbText
 10
-0.4901926332574931
 20
9.159967445193728
 30
0.0
 40
3.0
  1
5 TORGUE SCREW  M5-6
 51
15.0
  7
OKANO
100
AcDbText
  0
TEXT
  5
1514
330
1510
100
AcDbEntity
  8
文字
100
AcDbText
 10
1.364713526390005
 20
78.88822913323082
 30
0.0
 40
3.0
  1
Special standard,
 51
15.0
  7
OKANO
100
AcDbText
  0
TEXT
  5
1515
330
1510
100
AcDbEntity
  8
文字
100
AcDbText
 10
92.88160823408942
 20
89.92753849837379
 30
0.0
 40
3.0
  1
Screw Type
 51
15.0
  7
OKANO
100
AcDbText
  0
LINE
  5
1516
330
1510
100
AcDbEntity
  8
太線
100
AcDbLine
 10
113.9464587597784
 20
81.93930390144641
 30
0.0
 11
112.4464587597784
 21
81.93930390144641
 31
0.0
  0
LINE
  5
1517
330
1510
100
AcDbEntity
  8
太線
100
AcDbLine
 10
112.4464587597784
 20
76.9393039014464
 30
0.0
 11
121.4644995438761
 21
76.9393039014464
 31
0.0
  0
TEXT
  5
1518
330
1510
100
AcDbEntity
  8
文字
100
AcDbText
 10
93.46068240437217
 20
77.96976862235396
 30
0.0
 40
2.0
  1
17-30
 51
15.0
  7
OKANO
100
AcDbText
  0
LINE
  5
1519
330
1510
100
AcDbEntity
  8
太線
100
AcDbLine
 10
111.9464587597784
 20
81.43930390144641
 30
0.0
 11
111.9464587597784
 21
77.4393039014464
 31
0.0
  0
LINE
  5
151A
330
1510
100
AcDbEntity
  8
太線
100
AcDbLine
 10
91.94645875977846
 20
81.43930390144641
 30
0.0
 11
91.94645875977846
 21
77.43930390144639
 31
0.0
  0
LINE
  5
151B
330
1510
100
AcDbEntity
  8
太線
100
AcDbLine
 10
101.9644995438761
 20
77.4393039014464
 30
0.0
 11
101.9644995438761
 21
81.43930390144641
 31
0.0
  0
LINE
  5
151C
330
1510
100
AcDbEntity
  8
太線
100
AcDbLine
 10
92.44645875977846
 20
76.9393039014464
 30
0.0
 11
101.4644995438761
 21
76.9393039014464
 31
0.0
  0
ARC
  5
151D
330
1510
100
AcDbEntity
  8
太線
100
AcDbCircle
 10
92.44645875977846
 20
77.43930390144639
 30
0.0
 40
0.5
100
AcDbArc
 50
180.0
 51
270.0
  0
ARC
  5
151E
330
1510
100
AcDbEntity
  8
太線
100
AcDbCircle
 10
101.4644995438761
 20
77.4393039014464
 30
0.0
 40
0.5
100
AcDbArc
 50
270.0
 51
0.0
  0
ARC
  5
151F
330
1510
100
AcDbEntity
  8
太線
100
AcDbCircle
 10
112.4464587597784
 20
77.4393039014464
 30
0.0
 40
0.5
100
AcDbArc
 50
180.0
 51
270.0
  0
LINE
  5
1520
330
1510
100
AcDbEntity
  8
想像線
100
AcDbLine
 10
93.94645875977847
 20
81.93930390144641
 30
0.0
 11
99.96449954387617
 21
81.93930390144641
 31
0.0
  0
LINE
  5
1521
330
1510
100
AcDbEntity
  8
極太線
100
AcDbLine
 10
96.38762957111168
 20
85.43930390144641
 30
0.0
 11
97.50528794844525
 21
85.43930390144641
 31
0.0
  0
CIRCLE
  5
1522
330
1510
100
AcDbEntity
  8
太線
100
AcDbCircle
 10
96.94645875977847
 20
85.43930390144641
 30
0.0
 40
0.5588291886667776
  0
LINE
  5
1523
330
1510
100
AcDbEntity
  8
太線
100
AcDbLine
 10
99.46449954387617
 20
86.93930390144641
 30
0.0
 11
94.44645875977846
 21
86.93930390144641
 31
0.0
  0
LINE
  5
1524
330
1510
100
AcDbEntity
  8
太線
100
AcDbLine
 10
93.94645875977847
 20
86.43930390144641
 30
0.0
 11
93.94645875977847
 21
81.93930390144641
 31
0.0
  0
ARC
  5
1525
330
1510
100
AcDbEntity
  8
太線
100
AcDbCircle
 10
92.44645875977846
 20
81.43930390144641
 30
0.0
 40
0.5
100
AcDbArc
 50
90.0
 51
180.0
  0
LINE
  5
1526
330
1510
100
AcDbEntity
  8
太線
100
AcDbLine
 10
93.94645875977847
 20
81.93930390144641
 30
0.0
 11
92.44645875977846
 21
81.93930390144641
 31
0.0
  0
ARC
  5
1527
330
1510
100
AcDbEntity
  8
太線
100
AcDbCircle
 10
94.44645875977846
 20
86.43930390144641
 30
0.0
 40
0.5
100
AcDbArc
 50
90.0
 51
180.0
  0
LINE
  5
1528
330
1510
100
AcDbEntity
  8
太線
100
AcDbLine
 10
99.96449954387617
 20
81.93930390144641
 30
0.0
 11
99.96449954387617
 21
86.43930390144641
 31
0.0
  0
LINE
  5
1529
330
1510
100
AcDbEntity
  8
太線
100
AcDbLine
 10
101.4644995438761
 20
81.93930390144641
 30
0.0
 11
99.96449954387617
 21
81.93930390144641
 31
0.0
  0
ARC
  5
152A
330
1510
100
AcDbEntity
  8
太線
100
AcDbCircle
 10
101.4644995438761
 20
81.43930390144641
 30
0.0
 40
0.5
100
AcDbArc
 50
0.0
 51
90.0
  0
ARC
  5
152B
330
1510
100
AcDbEntity
  8
太線
100
AcDbCircle
 10
99.46449954387617
 20
86.43930390144641
 30
0.0
 40
0.5
100
AcDbArc
 50
0.0
 51
90.0
  0
LINE
  5
152C
330
1510
100
AcDbEntity
  8
極太線
100
AcDbLine
 10
96.94645875977847
 20
85.99813309011318
 30
0.0
 11
96.94645875977847
 21
84.88047471277964
 31
0.0
  0
ARC
  5
152D
330
1510
100
AcDbEntity
  8
太線
100
AcDbCircle
 10
112.4464587597784
 20
81.43930390144641
 30
0.0
 40
0.5
100
AcDbArc
 50
90.0
 51
180.0
  0
TEXT
  5
152E
330
1510
100
AcDbEntity
  8
文字
100
AcDbText
 10
134.3819212586066
 20
78.16263579228063
 30
0.0
 40
2.0
  1
101
 51
15.0
  7
OKANO
100
AcDbText
  0
TEXT
  5
152F
330
1510
100
AcDbEntity
  8
文字
100
AcDbText
 10
113.3422276612066
 20
77.96976862235396
 30
0.0
 40
2.0
  1
38-83
 51
15.0
  7
OKANO
100
AcDbText
  0
LINE
  5
1530
330
1510
100
AcDbEntity
  8
太線
100
AcDbLine
 10
141.9825403279738
 20
77.4393039014464
 30
0.0
 11
141.9825403279738
 21
81.43930390144641
 31
0.0
  0
LINE
  5
1531
330
1510
100
AcDbEntity
  8
太線
100
AcDbLine
 10
131.9644995438761
 20
81.43930390144641
 30
0.0
 11
131.9644995438761
 21
77.4393039014464
 31
0.0
  0
LINE
  5
1532
330
1510
100
AcDbEntity
  8
太線
100
AcDbLine
 10
121.9644995438761
 20
77.4393039014464
 30
0.0
 11
121.9644995438761
 21
81.43930390144641
 31
0.0
  0
ARC
  5
1533
330
1510
100
AcDbEntity
  8
太線
100
AcDbCircle
 10
121.4644995438761
 20
77.4393039014464
 30
0.0
 40
0.5
100
AcDbArc
 50
270.0
 51
0.0
  0
LINE
  5
1534
330
1510
100
AcDbEntity
  8
太線
100
AcDbLine
 10
132.4644995438761
 20
76.9393039014464
 30
0.0
 11
141.4825403279738
 21
76.9393039014464
 31
0.0
  0
ARC
  5
1535
330
1510
100
AcDbEntity
  8
太線
100
AcDbCircle
 10
132.4644995438761
 20
77.4393039014464
 30
0.0
 40
0.5
100
AcDbArc
 50
180.0
 51
270.0
  0
ARC
  5
1536
330
1510
100
AcDbEntity
  8
太線
100
AcDbCircle
 10
141.4825403279738
 20
77.4393039014464
 30
0.0
 40
0.5
100
AcDbArc
 50
270.0
 51
0.0
  0
ARC
  5
1537
330
1510
100
AcDbEntity
  8
太線
100
AcDbCircle
 10
121.4644995438761
 20
81.43930390144641
 30
0.0
 40
0.5
100
AcDbArc
 50
0.0
 51
90.0
  0
LINE
  5
1538
330
1510
100
AcDbEntity
  8
太線
100
AcDbLine
 10
119.9644995438761
 20
81.93930390144641
 30
0.0
 11
119.9644995438761
 21
86.43930390144641
 31
0.0
  0
LINE
  5
1539
330
1510
100
AcDbEntity
  8
太線
100
AcDbLine
 10
113.9464587597784
 20
86.43930390144641
 30
0.0
 11
113.9464587597784
 21
81.93930390144641
 31
0.0
  0
LINE
  5
153A
330
1510
100
AcDbEntity
  8
想像線
100
AcDbLine
 10
113.9464587597784
 20
81.93930390144641
 30
0.0
 11
119.9644995438761
 21
81.93930390144641
 31
0.0
  0
LINE
  5
153B
330
1510
100
AcDbEntity
  8
太線
100
AcDbLine
 10
121.4644995438761
 20
81.93930390144641
 30
0.0
 11
119.9644995438761
 21
81.93930390144641
 31
0.0
  0
LINE
  5
153C
330
1510
100
AcDbEntity
  8
太線
100
AcDbLine
 10
119.4644995438761
 20
86.93930390144641
 30
0.0
 11
114.4464587597784
 21
86.93930390144641
 31
0.0
  0
ARC
  5
153D
330
1510
100
AcDbEntity
  8
太線
100
AcDbCircle
 10
114.4464587597784
 20
86.43930390144641
 30
0.0
 40
0.5
100
AcDbArc
 50
90.0
 51
180.0
  0
CIRCLE
  5
153E
330
1510
100
AcDbEntity
  8
太線
100
AcDbCircle
 10
115.4464587597784
 20
85.43930390144641
 30
0.0
 40
0.5588291886667776
  0
LINE
  5
153F
330
1510
100
AcDbEntity
  8
極太線
100
AcDbLine
 10
115.4464587597784
 20
85.99813309011318
 30
0.0
 11
115.4464587597784
 21
84.88047471277964
 31
0.0
  0
LINE
  5
1540
330
1510
100
AcDbEntity
  8
極太線
100
AcDbLine
 10
114.8876295711116
 20
85.43930390144641
 30
0.0
 11
116.0052879484452
 21
85.43930390144641
 31
0.0
  0
ARC
  5
1541
330
1510
100
AcDbEntity
  8
太線
100
AcDbCircle
 10
119.4644995438761
 20
86.43930390144641
 30
0.0
 40
0.5
100
AcDbArc
 50
0.0
 51
90.0
  0
LINE
  5
1542
330
1510
100
AcDbEntity
  8
極太線
100
AcDbLine
 10
117.9056703552094
 20
85.43930390144641
 30
0.0
 11
119.0233287325429
 21
85.43930390144641
 31
0.0
  0
LINE
  5
1543
330
1510
100
AcDbEntity
  8
極太線
100
AcDbLine
 10
118.4644995438761
 20
85.99813309011318
 30
0.0
 11
118.4644995438761
 21
84.88047471277964
 31
0.0
  0
CIRCLE
  5
1544
330
1510
100
AcDbEntity
  8
太線
100
AcDbCircle
 10
118.4644995438761
 20
85.43930390144641
 30
0.0
 40
0.5588291886667776
  0
LINE
  5
1545
330
1510
100
AcDbEntity
  8
想像線
100
AcDbLine
 10
133.9644995438761
 20
81.93930390144641
 30
0.0
 11
139.9825403279738
 21
81.93930390144641
 31
0.0
  0
LINE
  5
1546
330
1510
100
AcDbEntity
  8
極太線
100
AcDbLine
 10
137.9237111393071
 20
85.43930390144641
 30
0.0
 11
139.0413695166406
 21
85.43930390144641
 31
0.0
  0
CIRCLE
  5
1547
330
1510
100
AcDbEntity
  8
太線
100
AcDbCircle
 10
138.4825403279738
 20
85.43930390144641
 30
0.0
 40
0.5588291886667776
  0
CIRCLE
  5
1548
330
1510
100
AcDbEntity
  8
太線
100
AcDbCircle
 10
138.4825403279738
 20
83.26342923362075
 30
0.0
 40
0.5588291886667776
  0
LINE
  5
1549
330
1510
100
AcDbEntity
  8
極太線
100
AcDbLine
 10
137.9237111393071
 20
83.26342923362075
 30
0.0
 11
139.0413695166406
 21
83.26342923362075
 31
0.0
  0
LINE
  5
154A
330
1510
100
AcDbEntity
  8
太線
100
AcDbLine
 10
139.4825403279738
 20
86.93930390144641
 30
0.0
 11
134.4644995438761
 21
86.93930390144641
 31
0.0
  0
LINE
  5
154B
330
1510
100
AcDbEntity
  8
太線
100
AcDbLine
 10
133.9644995438761
 20
86.43930390144641
 30
0.0
 11
133.9644995438761
 21
81.93930390144641
 31
0.0
  0
ARC
  5
154C
330
1510
100
AcDbEntity
  8
太線
100
AcDbCircle
 10
132.4644995438761
 20
81.43930390144641
 30
0.0
 40
0.5
100
AcDbArc
 50
90.0
 51
180.0
  0
LINE
  5
154D
330
1510
100
AcDbEntity
  8
太線
100
AcDbLine
 10
133.9644995438761
 20
81.93930390144641
 30
0.0
 11
132.4644995438761
 21
81.93930390144641
 31
0.0
  0
LINE
  5
154E
330
1510
100
AcDbEntity
  8
極太線
100
AcDbLine
 10
134.9056703552093
 20
83.26342923362075
 30
0.0
 11
136.0233287325429
 21
83.26342923362075
 31
0.0
  0
LINE
  5
154F
330
1510
100
AcDbEntity
  8
極太線
100
AcDbLine
 10
135.4644995438761
 20
83.82225842228752
 30
0.0
 11
135.4644995438761
 21
82.70460004495395
 31
0.0
  0
CIRCLE
  5
1550
330
1510
100
AcDbEntity
  8
太線
100
AcDbCircle
 10
135.4644995438761
 20
83.26342923362075
 30
0.0
 40
0.5588291886667776
  0
ARC
  5
1551
330
1510
100
AcDbEntity
  8
太線
100
AcDbCircle
 10
134.4644995438761
 20
86.43930390144641
 30
0.0
 40
0.5
100
AcDbArc
 50
90.0
 51
180.0
  0
CIRCLE
  5
1552
330
1510
100
AcDbEntity
  8
太線
100
AcDbCircle
 10
135.4644995438761
 20
85.43930390144641
 30
0.0
 40
0.5588291886667776
  0
LINE
  5
1553
330
1510
100
AcDbEntity
  8
極太線
100
AcDbLine
 10
135.4644995438761
 20
85.99813309011318
 30
0.0
 11
135.4644995438761
 21
84.88047471277964
 31
0.0
  0
LINE
  5
1554
330
1510
100
AcDbEntity
  8
極太線
100
AcDbLine
 10
134.9056703552093
 20
85.43930390144641
 30
0.0
 11
136.0233287325429
 21
85.43930390144641
 31
0.0
  0
LINE
  5
1555
330
1510
100
AcDbEntity
  8
太線
100
AcDbLine
 10
139.9825403279738
 20
81.93930390144641
 30
0.0
 11
139.9825403279738
 21
86.43930390144641
 31
0.0
  0
ARC
  5
1556
330
1510
100
AcDbEntity
  8
太線
100
AcDbCircle
 10
141.4825403279738
 20
81.43930390144641
 30
0.0
 40
0.5
100
AcDbArc
 50
0.0
 51
90.0
  0
LINE
  5
1557
330
1510
100
AcDbEntity
  8
極太線
100
AcDbLine
 10
138.4825403279738
 20
83.82225842228752
 30
0.0
 11
138.4825403279738
 21
82.70460004495395
 31
0.0
  0
LINE
  5
1558
330
1510
100
AcDbEntity
  8
太線
100
AcDbLine
 10
141.4825403279738
 20
81.93930390144641
 30
0.0
 11
139.9825403279738
 21
81.93930390144641
 31
0.0
  0
ARC
  5
1559
330
1510
100
AcDbEntity
  8
太線
100
AcDbCircle
 10
139.4825403279738
 20
86.43930390144641
 30
0.0
 40
0.5
100
AcDbArc
 50
0.0
 51
90.0
  0
LINE
  5
155A
330
1510
100
AcDbEntity
  8
極太線
100
AcDbLine
 10
138.4825403279738
 20
85.99813309011318
 30
0.0
 11
138.4825403279738
 21
84.88047471277964
 31
0.0
  0
ENDBLK
  5
155C
330
1510
100
AcDbEntity
  8
0
100
AcDbBlockEnd
  0
BLOCK
  5
3426
330
341C
100
AcDbEntity
  8
0
100
AcDbBlockBegin
  2
*D2
 70
     1
 10
0.0
 20
0.0
 30
0.0
  3
*D2
  1

  0
LINE
  5
3547
330
341C
100
AcDbEntity
  8
想像線
 62
     0
370
    -2
100
AcDbLine
 10
505.3559203034455
 20
191.5930794161718
 30
0.0
 11
505.3559203034455
 21
262.1655716573907
 31
0.0
  0
LINE
  5
3548
330
341C
100
AcDbEntity
  8
想像線
 62
     0
370
    -2
100
AcDbLine
 10
586.7514312688765
 20
191.5930794161718
 30
0.0
 11
586.7514312688765
 21
262.1655716573907
 31
0.0
  0
LINE
  5
3549
330
341C
100
AcDbEntity
  8
想像線
 62
     0
370
    -2
100
AcDbLine
 10
508.3559203034456
 20
259.1655716573908
 30
0.0
 11
583.7514312688766
 21
259.1655716573908
 31
0.0
  0
INSERT
  5
354A
330
341C
100
AcDbEntity
  8
想像線
 62
     0
370
    -2
100
AcDbBlockReference
  2
_Closed
 10
505.3559203034455
 20
259.1655716573908
 30
0.0
 41
3.0
 42
3.0
 43
3.0
 50
180.0
  0
INSERT
  5
354B
330
341C
100
AcDbEntity
  8
想像線
 62
     0
370
    -2
100
AcDbBlockReference
  2
_Closed
 10
586.7514312688765
 20
259.1655716573908
 30
0.0
 41
3.0
 42
3.0
 43
3.0
  0
MTEXT
  5
354C
330
341C
100
AcDbEntity
  8
想像線
 62
     0
100
AcDbMText
 10
546.0536757861611
 20
262.666063783375
 30
0.0
 40
5.0
 41
0.0
 71
     5
 72
     1
  1
120
  7
OKANO
 73
     1
 44
1.0
  0
POINT
  5
354D
330
341C
100
AcDbEntity
  8
Defpoints
 62
     0
100
AcDbPoint
 10
505.3559203034455
 20
189.5930794161718
 30
0.0
  0
POINT
  5
354E
330
341C
100
AcDbEntity
  8
Defpoints
 62
     0
100
AcDbPoint
 10
586.7514312688765
 20
189.5930794161718
 30
0.0
  0
POINT
  5
354F
330
341C
100
AcDbEntity
  8
Defpoints
 62
     0
100
AcDbPoint
 10
586.7514312688765
 20
259.1655716573908
 30
0.0
  0
ENDBLK
  5
3427
330
341C
100
AcDbEntity
  8
0
100
AcDbBlockEnd
  0
BLOCK
  5
342F
330
3428
100
AcDbEntity
  8
0
100
AcDbBlockBegin
  2
*D3
 70
     1
 10
0.0
 20
0.0
 30
0.0
  3
*D3
  1

  0
LINE
  5
352F
330
3428
100
AcDbEntity
  8
寸法線
 62
     0
370
    -2
100
AcDbLine
 10
468.6811412509894
 20
215.3689486849156
 30
0.0
 11
486.0729855954384
 21
201.9859554688378
 31
0.0
  0
MTEXT
  5
3530
330
3428
100
AcDbEntity
  8
寸法線
 62
     0
100
AcDbMText
 10
475.8257094928602
 20
214.2881208490165
 30
0.0
 40
5.0
 41
0.0
 71
     5
 72
     1
  1
R20
  7
OKANO
 11
0.7925215445677974
 21
-0.6098439156012569
 31
0.0
 73
     1
 44
1.0
  0
LINE
  5
3531
330
3428
100
AcDbEntity
  8
寸法線
 62
     0
370
    -2
100
AcDbLine
 10
504.3009811204975
 20
187.959545410009
 30
0.0
 11
488.4505502291418
 21
200.156423722034
 31
0.0
  0
INSERT
  5
3532
330
3428
100
AcDbEntity
  8
寸法線
 62
     0
370
    -2
100
AcDbBlockReference
  2
_Closed
 10
488.4505502291418
 20
200.156423722034
 30
0.0
 41
3.0
 42
3.0
 43
3.0
 50
322.4217820975769
  0
POINT
  5
3533
330
3428
100
AcDbEntity
  8
Defpoints
 62
     0
100
AcDbPoint
 10
488.4505502291418
 20
200.156423722034
 30
0.0
  0
POINT
  5
3534
330
3428
100
AcDbEntity
  8
Defpoints
 62
     0
100
AcDbPoint
 10
504.3009811204975
 20
187.959545410009
 30
0.0
  0
ENDBLK
  5
3430
330
3428
100
AcDbEntity
  8
0
100
AcDbBlockEnd
  0
BLOCK
  5
343B
330
3431
100
AcDbEntity
  8
0
100
AcDbBlockBegin
  2
*D4
 70
     1
 10
0.0
 20
0.0
 30
0.0
  3
*D4
  1

  0
LINE
  5
3535
330
3431
100
AcDbEntity
  8
想像線
 62
     0
370
    -2
100
AcDbLine
 10
502.3752541177278
 20
188.6131849386661
 30
0.0
 11
458.2258249440049
 21
188.6131849386661
 31
0.0
  0
LINE
  5
3536
330
3431
100
AcDbEntity
  8
想像線
 62
     0
370
    -2
100
AcDbLine
 10
502.3752541177278
 20
106.30206762221
 30
0.0
 11
458.2258249440049
 21
106.30206762221
 31
0.0
  0
LINE
  5
3537
330
3431
100
AcDbEntity
  8
想像線
 62
     0
370
    -2
100
AcDbLine
 10
461.2258249440049
 20
185.6131849386661
 30
0.0
 11
461.2258249440048
 21
109.30206762221
 31
0.0
  0
INSERT
  5
3538
330
3431
100
AcDbEntity
  8
想像線
 62
     0
370
    -2
100
AcDbBlockReference
  2
_Closed
 10
461.2258249440049
 20
188.6131849386661
 30
0.0
 41
3.0
 42
3.0
 43
3.0
 50
90.0
  0
INSERT
  5
3539
330
3431
100
AcDbEntity
  8
想像線
 62
     0
370
    -2
100
AcDbBlockReference
  2
_Closed
 10
461.2258249440048
 20
106.30206762221
 30
0.0
 41
3.0
 42
3.0
 43
3.0
 50
270.0
  0
MTEXT
  5
353A
330
3431
100
AcDbEntity
  8
想像線
 62
     0
100
AcDbMText
 10
457.7253328180206
 20
147.4576262804381
 30
0.0
 40
5.0
 41
0.0
 71
     5
 72
     1
  1
120
  7
OKANO
 11
0.0000000000000001
 21
1.0
 31
0.0
 73
     1
 44
1.0
  0
POINT
  5
353B
330
3431
100
AcDbEntity
  8
Defpoints
 62
     0
100
AcDbPoint
 10
504.3752541177277
 20
188.6131849386661
 30
0.0
  0
POINT
  5
353C
330
3431
100
AcDbEntity
  8
Defpoints
 62
     0
100
AcDbPoint
 10
504.3752541177277
 20
106.30206762221
 30
0.0
  0
POINT
  5
353D
330
3431
100
AcDbEntity
  8
Defpoints
 62
     0
100
AcDbPoint
 10
461.2258249440048
 20
106.30206762221
 30
0.0
  0
ENDBLK
  5
343C
330
3431
100
AcDbEntity
  8
0
100
AcDbBlockEnd
  0
BLOCK
  5
3447
330
343D
100
AcDbEntity
  8
0
100
AcDbBlockBegin
  2
*D5
 70
     1
 10
0.0
 20
0.0
 30
0.0
  3
*D5
  1

  0
LINE
  5
353E
330
343D
100
AcDbEntity
  8
寸法線
 62
     0
370
    -2
100
AcDbLine
 10
580.1394636823413
 20
114.7808675306611
 30
0.0
 11
590.0088196765308
 21
125.0396544301465
 31
0.0
  0
LINE
  5
353F
330
343D
100
AcDbEntity
  8
寸法線
 62
     0
370
    -2
100
AcDbLine
 10
593.4083444978504
 20
102.0156829434564
 30
0.0
 11
603.2777004920399
 21
112.2744698429418
 31
0.0
  0
LINE
  5
3540
330
343D
100
AcDbEntity
  8
寸法線
 62
     0
370
    -2
100
AcDbLine
 10
590.0908891582072
 20
120.797807591778
 30
0.0
 11
599.0358536536712
 21
112.1924003612654
 31
0.0
  0
INSERT
  5
3541
330
343D
100
AcDbEntity
  8
寸法線
 62
     0
370
    -2
100
AcDbBlockReference
  2
_Closed
 10
587.9289309981848
 20
122.8776962701241
 30
0.0
 41
3.0
 42
3.0
 43
3.0
 50
136.1083965334503
  0
INSERT
  5
3542
330
343D
100
AcDbEntity
  8
寸法線
 62
     0
370
    -2
100
AcDbBlockReference
  2
_Closed
 10
601.1978118136937
 20
110.1125116829194
 30
0.0
 41
3.0
 42
3.0
 43
3.0
 50
316.1083965334503
  0
MTEXT
  5
3543
330
343D
100
AcDbEntity
  8
寸法線
 62
     0
100
AcDbMText
 10
596.9902493864307
 20
119.0177431484769
 30
0.0
 40
5.0
 41
0.0
 71
     5
 72
     1
  1
20
  7
OKANO
 11
0.7206527200074976
 21
-0.6932962261153564
 31
0.0
 73
     1
 44
1.0
  0
POINT
  5
3544
330
343D
100
AcDbEntity
  8
Defpoints
 62
     0
100
AcDbPoint
 10
578.7528712301106
 20
113.3395620906461
 30
0.0
  0
POINT
  5
3545
330
343D
100
AcDbEntity
  8
Defpoints
 62
     0
100
AcDbPoint
 10
592.0217520456197
 20
100.5743775034414
 30
0.0
  0
POINT
  5
3546
330
343D
100
AcDbEntity
  8
Defpoints
 62
     0
100
AcDbPoint
 10
601.1978118136937
 20
110.1125116829194
 30
0.0
  0
ENDBLK
  5
3448
330
343D
100
AcDbEntity
  8
0
100
AcDbBlockEnd
  0
BLOCK
  5
3453
330
3449
100
AcDbEntity
  8
0
100
AcDbBlockBegin
  2
*D6
 70
     1
 10
0.0
 20
0.0
 30
0.0
  3
*D6
  1

  0
LINE
  5
3526
330
3449
100
AcDbEntity
  8
寸法線
 62
     0
370
    -2
100
AcDbLine
 10
583.1150457165494
 20
101.1233604831944
 30
0.0
 11
609.5976541785107
 21
74.61532630630154
 31
0.0
  0
LINE
  5
3527
330
3449
100
AcDbEntity
  8
寸法線
 62
     0
370
    -2
100
AcDbLine
 10
591.4695263189019
 20
109.4698277171929
 30
0.0
 11
617.9521347808631
 21
82.96179354030005
 31
0.0
  0
LINE
  5
3528
330
3449
100
AcDbEntity
  8
寸法線
 62
     0
370
    -2
100
AcDbLine
 10
609.599689861697
 20
78.857966505045
 30
0.0
 11
613.7094945821197
 21
82.96382922348636
 31
0.0
  0
INSERT
  5
3529
330
3449
100
AcDbEntity
  8
寸法線
 62
     0
370
    -2
100
AcDbBlockReference
  2
_Closed
 10
607.4773519207322
 20
76.73766424726642
 30
0.0
 41
3.0
 42
3.0
 43
3.0
 50
224.972508617138
  0
INSERT
  5
352A
330
3449
100
AcDbEntity
  8
寸法線
 62
     0
370
    -2
100
AcDbBlockReference
  2
_Closed
 10
615.8318325230846
 20
85.08413148126493
 30
0.0
 41
3.0
 42
3.0
 43
3.0
 50
44.972508617138
  0
MTEXT
  5
352B
330
3449
100
AcDbEntity
  8
寸法線
 62
     0
100
AcDbMText
 10
609.1805584358882
 20
83.38730694794071
 30
0.0
 40
5.0
 41
0.0
 71
     5
 72
     1
  1
12
  7
OKANO
 11
0.7074459803216251
 21
0.7067674192595291
 31
0.0
 73
     1
 44
1.0
  0
POINT
  5
352C
330
3449
100
AcDbEntity
  8
Defpoints
 62
     0
100
AcDbPoint
 10
581.7015108780303
 20
102.5382524438376
 30
0.0
  0
POINT
  5
352D
330
3449
100
AcDbEntity
  8
Defpoints
 62
     0
100
AcDbPoint
 10
590.0559914803827
 20
110.8847196778361
 30
0.0
  0
POINT
  5
352E
330
3449
100
AcDbEntity
  8
Defpoints
 62
     0
100
AcDbPoint
 10
615.8318325230846
 20
85.08413148126493
 30
0.0
  0
ENDBLK
  5
3454
330
3449
100
AcDbEntity
  8
0
100
AcDbBlockEnd
  0
BLOCK
  5
38BE
330
38B4
100
AcDbEntity
  8
0
100
AcDbBlockBegin
  2
*D7
 70
     1
 10
0.0
 20
0.0
 30
0.0
  3
*D7
  1

  0
LINE
  5
38E8
330
38B4
100
AcDbEntity
  8
寸法線
 62
     0
370
    -2
100
AcDbLine
 10
344.0356814466761
 20
143.7094004934369
 30
0.0
 11
344.0356814466761
 21
108.0694099197185
 31
0.0
  0
LINE
  5
38E9
330
38B4
100
AcDbEntity
  8
寸法線
 62
     0
370
    -2
100
AcDbLine
 10
414.0356814466753
 20
143.7094004934361
 30
0.0
 11
414.0356814466753
 21
108.0694099197185
 31
0.0
  0
LINE
  5
38EA
330
38B4
100
AcDbEntity
  8
寸法線
 62
     0
370
    -2
100
AcDbLine
 10
346.5356814466761
 20
109.3194099197185
 30
0.0
 11
411.5356814466752
 21
109.3194099197185
 31
0.0
  0
SOLID
  5
38EB
330
38B4
100
AcDbEntity
  8
寸法線
 62
     0
100
AcDbTrace
 10
346.5356814466761
 20
109.7360765863851
 30
0.0
 11
346.5356814466761
 21
108.9027432530518
 31
0.0
 12
344.0356814466761
 22
109.3194099197185
 32
0.0
 13
344.0356814466761
 23
109.3194099197185
 33
0.0
  0
SOLID
  5
38EC
330
38B4
100
AcDbEntity
  8
寸法線
 62
     0
100
AcDbTrace
 10
411.5356814466752
 20
109.7360765863851
 30
0.0
 11
411.5356814466752
 21
108.9027432530518
 31
0.0
 12
414.0356814466753
 22
109.3194099197185
 32
0.0
 13
414.0356814466753
 23
109.3194099197185
 33
0.0
  0
MTEXT
  5
38ED
330
38B4
100
AcDbEntity
  8
寸法線
 62
     0
370
    25
100
AcDbMText
 10
379.0356814466757
 20
111.1944099197185
 30
0.0
 40
2.5
 41
0.0
 71
     5
 72
     1
  1
70
 73
     1
 44
1.0
  0
POINT
  5
38EE
330
38B4
100
AcDbEntity
  8
Defpoints
 62
     0
100
AcDbPoint
 10
344.0356814466761
 20
144.3344004934369
 30
0.0
  0
POINT
  5
38EF
330
38B4
100
AcDbEntity
  8
Defpoints
 62
     0
100
AcDbPoint
 10
414.0356814466753
 20
144.3344004934361
 30
0.0
  0
POINT
  5
38F0
330
38B4
100
AcDbEntity
  8
Defpoints
 62
     0
100
AcDbPoint
 10
414.0356814466753
 20
109.3194099197185
 30
0.0
  0
ENDBLK
  5
38BF
330
38B4
100
AcDbEntity
  8
0
100
AcDbBlockEnd
  0
BLOCK
  5
38C9
330
38C0
100
AcDbEntity
  8
0
100
AcDbBlockBegin
  2
*D8
 70
     1
 10
0.0
 20
0.0
 30
0.0
  3
*D8
  1

  0
LINE
  5
38F1
330
38C0
100
AcDbEntity
  8
寸法線
 62
     0
370
    -2
100
AcDbLine
 10
427.2658674613809
 20
159.7748221994895
 30
0.0
 11
419.403666755921
 21
150.5991617594172
 31
0.0
  0
LINE
  5
38F2
330
38C0
100
AcDbEntity
  8
寸法線
 62
     0
370
    -2
100
AcDbLine
 10
408.6676961374307
 20
138.0696392274563
 30
0.0
 11
407.0410339225079
 21
136.1712267226138
 31
0.0
  0
MTEXT
  5
38F3
330
38C0
100
AcDbEntity
  8
寸法線
 62
     0
370
    25
100
AcDbMText
 10
422.7242888374803
 20
157.3561948930667
 30
0.0
 40
2.5
 41
0.0
 71
     5
 72
     1
  1
\U+220511.5
 11
0.6506648859691029
 21
0.7593650019370227
 31
0.0
 73
     1
 44
1.0
  0
LINE
  5
38F4
330
38C0
100
AcDbEntity
  8
寸法線
 62
     0
370
    -2
100
AcDbLine
 10
410.2943583523535
 20
139.9680517322989
 30
0.0
 11
417.7770045409982
 21
148.7007492545746
 31
0.0
  0
SOLID
  5
38F5
330
38C0
100
AcDbEntity
  8
寸法線
 62
     0
100
AcDbTrace
 10
408.3512940532902
 20
138.3407495966101
 30
0.0
 11
408.9840982215712
 21
137.7985288583025
 31
0.0
 12
410.2943583523535
 22
139.9680517322989
 32
0.0
 13
410.2943583523535
 23
139.9680517322989
 33
0.0
  0
SOLID
  5
38F6
330
38C0
100
AcDbEntity
  8
寸法線
 62
     0
100
AcDbTrace
 10
419.0872646717805
 20
150.870272128571
 30
0.0
 11
419.7200688400614
 21
150.3280513902634
 31
0.0
 12
417.7770045409982
 22
148.7007492545746
 32
0.0
 13
417.7770045409982
 23
148.7007492545746
 33
0.0
  0
POINT
  5
38F7
330
38C0
100
AcDbEntity
  8
Defpoints
 62
     0
100
AcDbPoint
 10
417.7770045409982
 20
148.7007492545746
 30
0.0
  0
POINT
  5
38F8
330
38C0
100
AcDbEntity
  8
Defpoints
 62
     0
100
AcDbPoint
 10
410.2943583523535
 20
139.9680517322989
 30
0.0
  0
ENDBLK
  5
38CA
330
38C0
100
AcDbEntity
  8
0
100
AcDbBlockEnd
  0
BLOCK
  5
38D4
330
38CB
100
AcDbEntity
  8
0
100
AcDbBlockBegin
  2
*D9
 70
     1
 10
0.0
 20
0.0
 30
0.0
  3
*D9
  1

  0
LINE
  5
38F9
330
38CB
100
AcDbEntity
  8
寸法線
 62
     0
370
    -2
100
AcDbLine
 10
364.9659288355776
 20
153.5501568666437
 30
0.0
 11
351.357370036257
 21
147.5581989048137
 31
0.0
  0
LINE
  5
38FA
330
38CB
100
AcDbEntity
  8
寸法線
 62
     0
370
    -2
100
AcDbLine
 10
336.7139928570945
 20
141.1106020820597
 30
0.0
 11
334.4259651728505
 21
140.1031650785044
 31
0.0
  0
MTEXT
  5
38FB
330
38CB
100
AcDbEntity
  8
寸法線
 62
     0
370
    25
100
AcDbMText
 10
361.350316477606
 20
154.0068813753826
 30
0.0
 40
2.5
 41
0.0
 71
     5
 72
     1
  1
\U+220511
 11
0.915211073697646
 21
0.4029748014221259
 31
0.0
 73
     1
 44
1.0
  0
LINE
  5
38FC
330
38CB
100
AcDbEntity
  8
寸法線
 62
     0
370
    -2
100
AcDbLine
 10
339.0020205413386
 20
142.118039085615
 30
0.0
 11
349.0693423520129
 21
146.5507619012584
 31
0.0
  0
SOLID
  5
38FD
330
38CB
100
AcDbEntity
  8
寸法線
 62
     0
100
AcDbTrace
 10
336.5460866898353
 20
141.4919400294337
 30
0.0
 11
336.8818990243537
 21
140.7292641346857
 31
0.0
 12
339.0020205413386
 22
142.118039085615
 32
0.0
 13
339.0020205413386
 23
142.118039085615
 33
0.0
  0
SOLID
  5
38FE
330
38CB
100
AcDbEntity
  8
寸法線
 62
     0
100
AcDbTrace
 10
351.1894638689978
 20
147.9395368521877
 30
0.0
 11
351.5252762035162
 21
147.1768609574397
 31
0.0
 12
349.0693423520129
 22
146.5507619012584
 32
0.0
 13
349.0693423520129
 23
146.5507619012584
 33
0.0
  0
POINT
  5
38FF
330
38CB
100
AcDbEntity
  8
Defpoints
 62
     0
100
AcDbPoint
 10
349.0693423520129
 20
146.5507619012584
 30
0.0
  0
POINT
  5
3900
330
38CB
100
AcDbEntity
  8
Defpoints
 62
     0
100
AcDbPoint
 10
339.0020205413386
 20
142.118039085615
 30
0.0
  0
ENDBLK
  5
38D5
330
38CB
100
AcDbEntity
  8
0
100
AcDbBlockEnd
  0
BLOCK
  5
38DD
330
38D6
100
AcDbEntity
  8
0
100
AcDbBlockBegin
  2
*D10
 70
     1
 10
0.0
 20
0.0
 30
0.0
  3
*D10
  1

  0
LINE
  5
3A63
330
38D6
100
AcDbEntity
  8
寸法線
 62
     0
370
    -2
100
AcDbLine
 10
322.7887689823798
 20
153.6356356449458
 30
0.0
 11
331.949437912295
 21
149.6253806958823
 31
0.0
  0
MTEXT
  5
3A64
330
38D6
100
AcDbEntity
  8
寸法線
 62
     0
370
    25
100
AcDbMText
 10
326.9759426340475
 20
153.8494154634061
 30
0.0
 40
2.5
 41
0.0
 71
     5
 72
     1
  1
10.5
 11
0.9160668929915097
 21
-0.4010254949063486
 31
0.0
 73
     1
 44
1.0
  0
LINE
  5
3A65
330
38D6
100
AcDbEntity
  8
寸法線
 62
     0
370
    -2
100
AcDbLine
 10
344.0356814466757
 20
144.334400493437
 30
0.0
 11
334.2396051447737
 21
148.6228169586165
 31
0.0
  0
SOLID
  5
3A66
330
38D6
100
AcDbEntity
  8
寸法線
 62
     0
100
AcDbTrace
 10
332.116531868506
 20
150.0070752346288
 30
0.0
 11
331.782343956084
 21
149.2436861571358
 31
0.0
 12
334.2396051447737
 22
148.6228169586165
 32
0.0
 13
334.2396051447737
 23
148.6228169586165
 33
0.0
  0
POINT
  5
3A67
330
38D6
100
AcDbEntity
  8
Defpoints
 62
     0
100
AcDbPoint
 10
334.2396051447737
 20
148.6228169586165
 30
0.0
  0
POINT
  5
3A68
330
38D6
100
AcDbEntity
  8
Defpoints
 62
     0
100
AcDbPoint
 10
344.0356814466757
 20
144.334400493437
 30
0.0
  0
ENDBLK
  5
38DE
330
38D6
100
AcDbEntity
  8
0
100
AcDbBlockEnd
  0
BLOCK
  5
3917
330
390E
100
AcDbEntity
  8
0
100
AcDbBlockBegin
  2
*D11
 70
     1
 10
0.0
 20
0.0
 30
0.0
  3
*D11
  1

  0
LINE
  5
3A5B
330
390E
100
AcDbEntity
  8
寸法線
 62
     0
370
    -2
100
AcDbLine
 10
385.4760454098573
 20
182.4072693270964
 30
0.0
 11
408.7850949907616
 21
151.3339606131137
 31
0.0
  0
LINE
  5
3A5C
330
390E
100
AcDbEntity
  8
寸法線
 62
     0
370
    -2
100
AcDbLine
 10
419.2862679025895
 20
137.3348403737596
 30
0.0
 11
421.0864689731886
 21
134.9349911898704
 31
0.0
  0
MTEXT
  5
3A5D
330
390E
100
AcDbEntity
  8
寸法線
 62
     0
100
AcDbMText
 10
390.8689754132907
 20
181.050632722776
 30
0.0
 40
5.0
 41
0.0
 71
     5
 72
     1
  1
30
  7
OKANO
 11
0.6000670235330255
 21
-0.7999497279630862
 31
0.0
 73
     1
 44
1.0
  0
LINE
  5
3A5E
330
390E
100
AcDbEntity
  8
寸法線
 62
     0
370
    -2
100
AcDbLine
 10
417.4860668319904
 20
139.7346895576488
 30
0.0
 11
410.5852960613606
 21
148.9341114292244
 31
0.0
  0
INSERT
  5
3A5F
330
390E
100
AcDbEntity
  8
寸法線
 62
     0
370
    -2
100
AcDbBlockReference
  2
_Closed
 10
417.4860668319904
 20
139.7346895576488
 30
0.0
 41
3.0
 42
3.0
 43
3.0
 50
126.8746980036315
  0
INSERT
  5
3A60
330
390E
100
AcDbEntity
  8
寸法線
 62
     0
370
    -2
100
AcDbBlockReference
  2
_Closed
 10
410.5852960613606
 20
148.9341114292244
 30
0.0
 41
3.0
 42
3.0
 43
3.0
 50
306.8746980036316
  0
POINT
  5
3A61
330
390E
100
AcDbEntity
  8
Defpoints
 62
     0
100
AcDbPoint
 10
410.5852960613606
 20
148.9341114292244
 30
0.0
  0
POINT
  5
3A62
330
390E
100
AcDbEntity
  8
Defpoints
 62
     0
100
AcDbPoint
 10
417.4860668319904
 20
139.7346895576488
 30
0.0
  0
ENDBLK
  5
3918
330
390E
100
AcDbEntity
  8
0
100
AcDbBlockEnd
  0
BLOCK
  5
3993
330
3988
100
AcDbEntity
  8
0
100
AcDbBlockBegin
  2
*D12
 70
     1
 10
0.0
 20
0.0
 30
0.0
  3
*D12
  1

  0
LINE
  5
403F
330
3988
100
AcDbEntity
  8
寸法線
 62
     0
370
    -2
100
AcDbLine
 10
337.2276382550594
 20
-127.4348014968863
 30
0.0
 11
337.2276382550594
 21
-116.0017245166522
 31
0.0
  0
LINE
  5
4040
330
3988
100
AcDbEntity
  8
寸法線
 62
     0
370
    -2
100
AcDbLine
 10
348.3619186387545
 20
-126.7392637371141
 30
0.0
 11
348.3619186387545
 21
-116.0017245166522
 31
0.0
  0
LINE
  5
4041
330
3988
100
AcDbEntity
  8
寸法線
 62
     0
370
    -2
100
AcDbLine
 10
340.2276382550594
 20
-119.0017245166522
 30
0.0
 11
345.3619186387545
 21
-119.0017245166522
 31
0.0
  0
INSERT
  5
4042
330
3988
100
AcDbEntity
  8
寸法線
 62
     0
370
    -2
100
AcDbBlockReference
  2
_Closed
 10
337.2276382550594
 20
-119.0017245166522
 30
0.0
 41
3.0
 42
3.0
 43
3.0
 50
180.0
  0
INSERT
  5
4043
330
3988
100
AcDbEntity
  8
寸法線
 62
     0
370
    -2
100
AcDbBlockReference
  2
_Closed
 10
348.3619186387545
 20
-119.0017245166522
 30
0.0
 41
3.0
 42
3.0
 43
3.0
  0
MTEXT
  5
4044
330
3988
100
AcDbEntity
  8
寸法線
 62
     0
100
AcDbMText
 10
342.794778446907
 20
-115.5017245166522
 30
0.0
 40
5.0
 41
0.0
 71
     5
 72
     1
  1
11
  7
OKANO
 73
     1
 44
1.0
  0
POINT
  5
4045
330
3988
100
AcDbEntity
  8
Defpoints
 62
     0
100
AcDbPoint
 10
337.2276382550594
 20
-129.4348014968863
 30
0.0
  0
POINT
  5
4046
330
3988
100
AcDbEntity
  8
Defpoints
 62
     0
100
AcDbPoint
 10
348.3619186387545
 20
-128.7392637371141
 30
0.0
  0
POINT
  5
4047
330
3988
100
AcDbEntity
  8
Defpoints
 62
     0
100
AcDbPoint
 10
348.3619186387545
 20
-119.0017245166522
 30
0.0
  0
ENDBLK
  5
3994
330
3988
100
AcDbEntity
  8
0
100
AcDbBlockEnd
  0
BLOCK
  5
39F8
330
39EE
100
AcDbEntity
  8
0
100
AcDbBlockBegin
  2
*D14
 70
     1
 10
0.0
 20
0.0
 30
0.0
  3
*D14
  1

  0
LINE
  5
401B
330
39EE
100
AcDbEntity
  8
寸法線
 62
     0
370
    -2
100
AcDbLine
 10
247.942042716236
 20
-135.0853102204942
 30
0.0
 11
247.942042716236
 21
-145.4704963827932
 31
0.0
  0
LINE
  5
401C
330
39EE
100
AcDbEntity
  8
寸法線
 62
     0
370
    -2
100
AcDbLine
 10
302.942042716236
 20
-135.0853102204942
 30
0.0
 11
302.942042716236
 21
-145.4704963827932
 31
0.0
  0
LINE
  5
401D
330
39EE
100
AcDbEntity
  8
寸法線
 62
     0
370
    -2
100
AcDbLine
 10
250.942042716236
 20
-142.4704963827932
 30
0.0
 11
299.942042716236
 21
-142.4704963827932
 31
0.0
  0
INSERT
  5
401E
330
39EE
100
AcDbEntity
  8
寸法線
 62
     0
370
    -2
100
AcDbBlockReference
  2
_Closed
 10
247.942042716236
 20
-142.4704963827932
 30
0.0
 41
3.0
 42
3.0
 43
3.0
 50
180.0
  0
INSERT
  5
401F
330
39EE
100
AcDbEntity
  8
寸法線
 62
     0
370
    -2
100
AcDbBlockReference
  2
_Closed
 10
302.942042716236
 20
-142.4704963827932
 30
0.0
 41
3.0
 42
3.0
 43
3.0
  0
MTEXT
  5
4020
330
39EE
100
AcDbEntity
  8
寸法線
 62
     0
100
AcDbMText
 10
275.442042716236
 20
-138.9704963827932
 30
0.0
 40
5.0
 41
0.0
 71
     5
 72
     1
  1
60
  7
OKANO
 73
     1
 44
1.0
  0
POINT
  5
4021
330
39EE
100
AcDbEntity
  8
Defpoints
 62
     0
100
AcDbPoint
 10
247.942042716236
 20
-133.0853102204942
 30
0.0
  0
POINT
  5
4022
330
39EE
100
AcDbEntity
  8
Defpoints
 62
     0
100
AcDbPoint
 10
302.942042716236
 20
-133.0853102204942
 30
0.0
  0
POINT
  5
4023
330
39EE
100
AcDbEntity
  8
Defpoints
 62
     0
100
AcDbPoint
 10
302.942042716236
 20
-142.4704963827932
 30
0.0
  0
ENDBLK
  5
39F9
330
39EE
100
AcDbEntity
  8
0
100
AcDbBlockEnd
  0
BLOCK
  5
3A05
330
39FB
100
AcDbEntity
  8
0
100
AcDbBlockBegin
  2
*D15
 70
     1
 10
0.0
 20
0.0
 30
0.0
  3
*D15
  1

  0
LINE
  5
405E
330
39FB
100
AcDbEntity
  8
寸法線
 62
     0
370
    -2
100
AcDbLine
 10
429.6195623655166
 20
-134.8793510078207
 30
0.0
 11
429.6195623655166
 21
-143.3150853971334
 31
0.0
  0
LINE
  5
405F
330
39FB
100
AcDbEntity
  8
寸法線
 62
     0
370
    -2
100
AcDbLine
 10
402.3713237918277
 20
-132.1644251609823
 30
0.0
 11
402.3713237918277
 21
-143.3150853971334
 31
0.0
  0
LINE
  5
4060
330
39FB
100
AcDbEntity
  8
寸法線
 62
     0
370
    -2
100
AcDbLine
 10
426.6195623655167
 20
-140.3150853971334
 30
0.0
 11
405.3713237918278
 21
-140.3150853971334
 31
0.0
  0
INSERT
  5
4061
330
39FB
100
AcDbEntity
  8
寸法線
 62
     0
370
    -2
100
AcDbBlockReference
  2
_Closed
 10
429.6195623655166
 20
-140.3150853971334
 30
0.0
 41
3.0
 42
3.0
 43
3.0
  0
INSERT
  5
4062
330
39FB
100
AcDbEntity
  8
寸法線
 62
     0
370
    -2
100
AcDbBlockReference
  2
_Closed
 10
402.3713237918277
 20
-140.3150853971334
 30
0.0
 41
3.0
 42
3.0
 43
3.0
 50
180.0
  0
MTEXT
  5
4063
330
39FB
100
AcDbEntity
  8
寸法線
 62
     0
100
AcDbMText
 10
415.9954430786722
 20
-136.8150853971334
 30
0.0
 40
5.0
 41
0.0
 71
     5
 72
     1
  1
30
  7
OKANO
 73
     1
 44
1.0
  0
POINT
  5
4064
330
39FB
100
AcDbEntity
  8
Defpoints
 62
     0
100
AcDbPoint
 10
429.6195623655166
 20
-132.8793510078207
 30
0.0
  0
POINT
  5
4065
330
39FB
100
AcDbEntity
  8
Defpoints
 62
     0
100
AcDbPoint
 10
402.3713237918277
 20
-130.1644251609823
 30
0.0
  0
POINT
  5
4066
330
39FB
100
AcDbEntity
  8
Defpoints
 62
     0
100
AcDbPoint
 10
402.3713237918277
 20
-140.3150853971334
 30
0.0
  0
ENDBLK
  5
3A06
330
39FB
100
AcDbEntity
  8
0
100
AcDbBlockEnd
  0
BLOCK
  5
3A12
330
3A08
100
AcDbEntity
  8
0
100
AcDbBlockBegin
  2
*D16
 70
     1
 10
0.0
 20
0.0
 30
0.0
  3
*D16
  1

  0
LINE
  5
4036
330
3A08
100
AcDbEntity
  8
寸法線
 62
     0
370
    -2
100
AcDbLine
 10
402.3713237918277
 20
-132.1644251609823
 30
0.0
 11
402.3713237918277
 21
-143.3150853971334
 31
0.0
  0
LINE
  5
4037
330
3A08
100
AcDbEntity
  8
寸法線
 62
     0
370
    -2
100
AcDbLine
 10
342.2910616604849
 20
-139.8004401291681
 30
0.0
 11
342.2910616604849
 21
-143.3150853971334
 31
0.0
  0
LINE
  5
4038
330
3A08
100
AcDbEntity
  8
寸法線
 62
     0
370
    -2
100
AcDbLine
 10
399.3713237918277
 20
-140.3150853971334
 30
0.0
 11
345.2910616604849
 21
-140.3150853971334
 31
0.0
  0
INSERT
  5
4039
330
3A08
100
AcDbEntity
  8
寸法線
 62
     0
370
    -2
100
AcDbBlockReference
  2
_Closed
 10
402.3713237918277
 20
-140.3150853971334
 30
0.0
 41
3.0
 42
3.0
 43
3.0
  0
INSERT
  5
403A
330
3A08
100
AcDbEntity
  8
寸法線
 62
     0
370
    -2
100
AcDbBlockReference
  2
_Closed
 10
342.2910616604849
 20
-140.3150853971334
 30
0.0
 41
3.0
 42
3.0
 43
3.0
 50
180.0
  0
MTEXT
  5
403B
330
3A08
100
AcDbEntity
  8
寸法線
 62
     0
100
AcDbMText
 10
372.3311927261563
 20
-136.8150853971334
 30
0.0
 40
5.0
 41
0.0
 71
     5
 72
     1
  1
70
  7
OKANO
 73
     1
 44
1.0
  0
POINT
  5
403C
330
3A08
100
AcDbEntity
  8
Defpoints
 62
     0
100
AcDbPoint
 10
402.3713237918277
 20
-130.1644251609823
 30
0.0
  0
POINT
  5
403D
330
3A08
100
AcDbEntity
  8
Defpoints
 62
     0
100
AcDbPoint
 10
342.2910616604849
 20
-137.8004401291681
 30
0.0
  0
POINT
  5
403E
330
3A08
100
AcDbEntity
  8
Defpoints
 62
     0
100
AcDbPoint
 10
342.2910616604849
 20
-140.3150853971334
 30
0.0
  0
ENDBLK
  5
3A13
330
3A08
100
AcDbEntity
  8
0
100
AcDbBlockEnd
  0
BLOCK
  5
3A21
330
3A15
100
AcDbEntity
  8
0
100
AcDbBlockBegin
  2
*D17
 70
     1
 10
0.0
 20
0.0
 30
0.0
  3
*D17
  1

  0
LINE
  5
4048
330
3A15
100
AcDbEntity
  8
寸法線
 62
     0
370
    -2
100
AcDbLine
 10
342.2910616604849
 20
-139.8004401291681
 30
0.0
 11
342.2910616604849
 21
-143.3150853971334
 31
0.0
  0
LINE
  5
4049
330
3A15
100
AcDbEntity
  8
寸法線
 62
     0
370
    -2
100
AcDbLine
 10
332.2244569203858
 20
-139.4412045239061
 30
0.0
 11
332.2244569203858
 21
-143.3150853971334
 31
0.0
  0
LINE
  5
404A
330
3A15
100
AcDbEntity
  8
寸法線
 62
     0
370
    -2
100
AcDbLine
 10
339.2910616604849
 20
-140.3150853971334
 30
0.0
 11
335.2244569203858
 21
-140.3150853971334
 31
0.0
  0
LINE
  5
404B
330
3A15
100
AcDbEntity
  8
寸法線
 62
     0
370
    -2
100
AcDbLine
 10
337.2577592904353
 20
-140.3150853971334
 30
0.0
 11
340.8577592904354
 21
-152.3150853971334
 31
0.0
  0
LINE
  5
404C
330
3A15
100
AcDbEntity
  8
寸法線
 62
     0
370
    -2
100
AcDbLine
 10
340.8577592904354
 20
-152.3150853971334
 30
0.0
 11
352.3757084828665
 21
-152.3150853971334
 31
0.0
  0
MTEXT
  5
404D
330
3A15
100
AcDbEntity
  8
寸法線
 62
     0
100
AcDbMText
 10
346.6167338866509
 20
-148.8150853971334
 30
0.0
 40
5.0
 41
0.0
 71
     5
 72
     1
  1
10.5
  7
OKANO
 73
     1
 44
1.0
  0
INSERT
  5
404E
330
3A15
100
AcDbEntity
  8
寸法線
 62
     0
370
    -2
100
AcDbBlockReference
  2
_Closed
 10
342.2910616604849
 20
-140.3150853971334
 30
0.0
 41
3.0
 42
3.0
 43
3.0
  0
INSERT
  5
404F
330
3A15
100
AcDbEntity
  8
寸法線
 62
     0
370
    -2
100
AcDbBlockReference
  2
_Closed
 10
332.2244569203858
 20
-140.3150853971334
 30
0.0
 41
3.0
 42
3.0
 43
3.0
 50
180.0
  0
POINT
  5
4050
330
3A15
100
AcDbEntity
  8
Defpoints
 62
     0
100
AcDbPoint
 10
342.2910616604849
 20
-137.8004401291681
 30
0.0
  0
POINT
  5
4051
330
3A15
100
AcDbEntity
  8
Defpoints
 62
     0
100
AcDbPoint
 10
332.2244569203858
 20
-137.4412045239061
 30
0.0
  0
POINT
  5
4052
330
3A15
100
AcDbEntity
  8
Defpoints
 62
     0
100
AcDbPoint
 10
332.2244569203858
 20
-140.3150853971334
 30
0.0
  0
ENDBLK
  5
3A22
330
3A15
100
AcDbEntity
  8
0
100
AcDbBlockEnd
  0
BLOCK
  5
3A76
330
3A6A
100
AcDbEntity
  8
0
100
AcDbBlockBegin
  2
*D18
 70
     1
 10
0.0
 20
0.0
 30
0.0
  3
*D18
  1

  0
LINE
  5
4053
330
3A6A
100
AcDbEntity
  8
寸法線
 62
     0
370
    -2
100
AcDbLine
 10
329.7305553003488
 20
-132.8793510078207
 30
0.0
 11
320.8433005193223
 21
-132.8793510078207
 31
0.0
  0
LINE
  5
4054
330
3A6A
100
AcDbEntity
  8
寸法線
 62
     0
370
    -2
100
AcDbLine
 10
330.1195623655166
 20
-130.8793510078203
 30
0.0
 11
320.8433005193223
 21
-130.8793510078203
 31
0.0
  0
LINE
  5
4055
330
3A6A
100
AcDbEntity
  8
寸法線
 62
     0
370
    -2
100
AcDbLine
 10
323.8433005193223
 20
-135.8793510078207
 30
0.0
 11
323.8433005193223
 21
-138.8793510078207
 31
0.0
  0
LINE
  5
4056
330
3A6A
100
AcDbEntity
  8
寸法線
 62
     0
370
    -2
100
AcDbLine
 10
323.8433005193224
 20
-127.8793510078203
 30
0.0
 11
323.8433005193224
 21
-119.7146558571193
 31
0.0
  0
LINE
  5
4057
330
3A6A
100
AcDbEntity
  8
寸法線
 62
     0
370
    -2
100
AcDbLine
 10
323.8433005193223
 20
-132.8793510078207
 30
0.0
 11
323.8433005193223
 21
-130.8793510078203
 31
0.0
  0
INSERT
  5
4058
330
3A6A
100
AcDbEntity
  8
寸法線
 62
     0
370
    -2
100
AcDbBlockReference
  2
_Closed
 10
323.8433005193223
 20
-132.8793510078207
 30
0.0
 41
3.0
 42
3.0
 43
3.0
 50
90.0
  0
INSERT
  5
4059
330
3A6A
100
AcDbEntity
  8
寸法線
 62
     0
370
    -2
100
AcDbBlockReference
  2
_Closed
 10
323.8433005193223
 20
-130.8793510078203
 30
0.0
 41
3.0
 42
3.0
 43
3.0
 50
270.0
  0
MTEXT
  5
405A
330
3A6A
100
AcDbEntity
  8
寸法線
 62
     0
100
AcDbMText
 10
320.3428083933382
 20
-122.2970034324698
 30
0.0
 40
5.0
 41
0.0
 71
     5
 72
     1
  1
2
  7
OKANO
 11
0.0000000000000001
 21
1.0
 31
0.0
 73
     1
 44
1.0
  0
POINT
  5
405B
330
3A6A
100
AcDbEntity
  8
Defpoints
 62
     0
100
AcDbPoint
 10
331.7305553003488
 20
-132.8793510078207
 30
0.0
  0
POINT
  5
405C
330
3A6A
100
AcDbEntity
  8
Defpoints
 62
     0
100
AcDbPoint
 10
332.1195623655166
 20
-130.8793510078203
 30
0.0
  0
POINT
  5
405D
330
3A6A
100
AcDbEntity
  8
Defpoints
 62
     0
100
AcDbPoint
 10
323.8433005193223
 20
-130.8793510078203
 30
0.0
  0
ENDBLK
  5
3A77
330
3A6A
100
AcDbEntity
  8
0
100
AcDbBlockEnd
  0
BLOCK
  5
3A9E
330
3A92
100
AcDbEntity
  8
0
100
AcDbBlockBegin
  2
*D19
 70
     1
 10
0.0
 20
0.0
 30
0.0
  3
*D19
  1

  0
LINE
  5
4067
330
3A92
100
AcDbEntity
  8
寸法線
 62
     0
370
    -2
100
AcDbLine
 10
479.1007384689503
 20
-132.5439503883553
 30
0.0
 11
469.4527297064082
 21
-132.5439503883553
 31
0.0
  0
LINE
  5
4068
330
3A92
100
AcDbEntity
  8
寸法線
 62
     0
370
    -2
100
AcDbLine
 10
484.1007384689503
 20
-127.5439503883553
 30
0.0
 11
469.4527297064082
 21
-127.5439503883553
 31
0.0
  0
LINE
  5
4069
330
3A92
100
AcDbEntity
  8
寸法線
 62
     0
370
    -2
100
AcDbLine
 10
472.4527297064081
 20
-135.5439503883553
 30
0.0
 11
472.4527297064081
 21
-138.5439503883553
 31
0.0
  0
LINE
  5
406A
330
3A92
100
AcDbEntity
  8
寸法線
 62
     0
370
    -2
100
AcDbLine
 10
472.4527297064082
 20
-124.5439503883553
 30
0.0
 11
472.4527297064082
 21
-111.5881790224152
 31
0.0
  0
LINE
  5
406B
330
3A92
100
AcDbEntity
  8
寸法線
 62
     0
370
    -2
100
AcDbLine
 10
472.4527297064081
 20
-132.5439503883553
 30
0.0
 11
472.4527297064082
 21
-127.5439503883553
 31
0.0
  0
INSERT
  5
406C
330
3A92
100
AcDbEntity
  8
寸法線
 62
     0
370
    -2
100
AcDbBlockReference
  2
_Closed
 10
472.4527297064081
 20
-132.5439503883553
 30
0.0
 41
3.0
 42
3.0
 43
3.0
 50
90.0
  0
INSERT
  5
406D
330
3A92
100
AcDbEntity
  8
寸法線
 62
     0
370
    -2
100
AcDbBlockReference
  2
_Closed
 10
472.4527297064082
 20
-127.5439503883553
 30
0.0
 41
3.0
 42
3.0
 43
3.0
 50
270.0
  0
MTEXT
  5
406E
330
3A92
100
AcDbEntity
  8
寸法線
 62
     0
100
AcDbMText
 10
468.9527297064082
 20
-116.5660647053851
 30
0.0
 40
5.0
 41
0.0
 71
     5
 72
     1
  1
5.5
  7
OKANO
 11
0.0000000000000001
 21
1.0
 31
0.0
 73
     1
 44
1.0
  0
POINT
  5
406F
330
3A92
100
AcDbEntity
  8
Defpoints
 62
     0
100
AcDbPoint
 10
481.1007384689503
 20
-132.5439503883553
 30
0.0
  0
POINT
  5
4070
330
3A92
100
AcDbEntity
  8
Defpoints
 62
     0
100
AcDbPoint
 10
486.1007384689503
 20
-127.5439503883553
 30
0.0
  0
POINT
  5
4071
330
3A92
100
AcDbEntity
  8
Defpoints
 62
     0
100
AcDbPoint
 10
472.4527297064082
 20
-127.5439503883553
 30
0.0
  0
ENDBLK
  5
3A9F
330
3A92
100
AcDbEntity
  8
0
100
AcDbBlockEnd
  0
BLOCK
  5
3AB7
330
3AAD
100
AcDbEntity
  8
0
100
AcDbBlockBegin
  2
*D20
 70
     1
 10
0.0
 20
0.0
 30
0.0
  3
*D20
  1

  0
LINE
  5
402D
330
3AAD
100
AcDbEntity
  8
寸法線
 62
     0
370
    -2
100
AcDbLine
 10
481.1007384689503
 20
-134.5439503883553
 30
0.0
 11
481.1007384689503
 21
-147.4783488244961
 31
0.0
  0
LINE
  5
402E
330
3AAD
100
AcDbEntity
  8
寸法線
 62
     0
370
    -2
100
AcDbLine
 10
601.1007384689503
 20
-134.5439503883552
 30
0.0
 11
601.1007384689503
 21
-147.4783488244961
 31
0.0
  0
LINE
  5
402F
330
3AAD
100
AcDbEntity
  8
寸法線
 62
     0
370
    -2
100
AcDbLine
 10
484.1007384689503
 20
-144.4783488244961
 30
0.0
 11
598.1007384689503
 21
-144.4783488244961
 31
0.0
  0
INSERT
  5
4030
330
3AAD
100
AcDbEntity
  8
寸法線
 62
     0
370
    -2
100
AcDbBlockReference
  2
_Closed
 10
481.1007384689503
 20
-144.4783488244961
 30
0.0
 41
3.0
 42
3.0
 43
3.0
 50
180.0
  0
INSERT
  5
4031
330
3AAD
100
AcDbEntity
  8
寸法線
 62
     0
370
    -2
100
AcDbBlockReference
  2
_Closed
 10
601.1007384689503
 20
-144.4783488244961
 30
0.0
 41
3.0
 42
3.0
 43
3.0
  0
MTEXT
  5
4032
330
3AAD
100
AcDbEntity
  8
寸法線
 62
     0
100
AcDbMText
 10
541.1007384689503
 20
-140.978348824496
 30
0.0
 40
5.0
 41
0.0
 71
     5
 72
     1
  1
160
  7
OKANO
 73
     1
 44
1.0
  0
POINT
  5
4033
330
3AAD
100
AcDbEntity
  8
Defpoints
 62
     0
100
AcDbPoint
 10
481.1007384689503
 20
-132.5439503883553
 30
0.0
  0
POINT
  5
4034
330
3AAD
100
AcDbEntity
  8
Defpoints
 62
     0
100
AcDbPoint
 10
601.1007384689503
 20
-132.5439503883552
 30
0.0
  0
POINT
  5
4035
330
3AAD
100
AcDbEntity
  8
Defpoints
 62
     0
100
AcDbPoint
 10
601.1007384689503
 20
-144.4783488244961
 30
0.0
  0
ENDBLK
  5
3AB8
330
3AAD
100
AcDbEntity
  8
0
100
AcDbBlockEnd
  0
BLOCK
  5
3BCB
330
3BC1
100
AcDbEntity
  8
0
100
AcDbBlockBegin
  2
*D21
 70
     1
 10
0.0
 20
0.0
 30
0.0
  3
*D21
  1

  0
LINE
  5
3CAF
330
3BC1
100
AcDbEntity
  8
寸法線
 62
     0
370
    -2
100
AcDbLine
 10
51.75721205461013
 20
-71.4158363683307
 30
0.0
 11
71.67365302414193
 21
-71.4158363683307
 31
0.0
  0
LINE
  5
3CB0
330
3BC1
100
AcDbEntity
  8
寸法線
 62
     0
370
    -2
100
AcDbLine
 10
51.75721205461013
 20
-131.8321743242804
 30
0.0
 11
71.67365302414191
 21
-131.8321743242804
 31
0.0
  0
LINE
  5
3CB1
330
3BC1
100
AcDbEntity
  8
寸法線
 62
     0
370
    -2
100
AcDbLine
 10
68.67365302414192
 20
-74.4158363683307
 30
0.0
 11
68.67365302414191
 21
-128.8321743242804
 31
0.0
  0
INSERT
  5
3CB2
330
3BC1
100
AcDbEntity
  8
寸法線
 62
     0
370
    -2
100
AcDbBlockReference
  2
_Closed
 10
68.67365302414192
 20
-71.4158363683307
 30
0.0
 41
3.0
 42
3.0
 43
3.0
 50
90.0
  0
INSERT
  5
3CB3
330
3BC1
100
AcDbEntity
  8
寸法線
 62
     0
370
    -2
100
AcDbBlockReference
  2
_Closed
 10
68.67365302414191
 20
-131.8321743242804
 30
0.0
 41
3.0
 42
3.0
 43
3.0
 50
270.0
  0
MTEXT
  5
3CB4
330
3BC1
100
AcDbEntity
  8
寸法線
 62
     0
100
AcDbMText
 10
65.17365302414194
 20
-101.6240053463055
 30
0.0
 40
5.0
 41
0.0
 71
     5
 72
     1
  1
85
  7
OKANO
 11
0.0000000000000001
 21
1.0
 31
0.0
 73
     1
 44
1.0
  0
POINT
  5
3CB5
330
3BC1
100
AcDbEntity
  8
Defpoints
 62
     0
100
AcDbPoint
 10
49.75721205461013
 20
-71.4158363683307
 30
0.0
  0
POINT
  5
3CB6
330
3BC1
100
AcDbEntity
  8
Defpoints
 62
     0
100
AcDbPoint
 10
49.75721205461013
 20
-131.8321743242804
 30
0.0
  0
POINT
  5
3CB7
330
3BC1
100
AcDbEntity
  8
Defpoints
 62
     0
100
AcDbPoint
 10
68.67365302414191
 20
-131.8321743242804
 30
0.0
  0
ENDBLK
  5
3BCC
330
3BC1
100
AcDbEntity
  8
0
100
AcDbBlockEnd
  0
BLOCK
  5
3C2F
330
3C25
100
AcDbEntity
  8
0
100
AcDbBlockBegin
  2
*D22
 70
     1
 10
0.0
 20
0.0
 30
0.0
  3
*D22
  1

  0
LINE
  5
4137
330
3C25
100
AcDbEntity
  8
寸法線
 62
     0
370
    -2
100
AcDbLine
 10
171.5922258477567
 20
-71.4158363683307
 30
0.0
 11
199.1757604225565
 21
-71.4158363683307
 31
0.0
  0
LINE
  5
4138
330
3C25
100
AcDbEntity
  8
寸法線
 62
     0
370
    -2
100
AcDbLine
 10
171.5922258477567
 20
-182.8735642879613
 30
0.0
 11
199.1757604225565
 21
-182.8735642879614
 31
0.0
  0
LINE
  5
4139
330
3C25
100
AcDbEntity
  8
寸法線
 62
     0
370
    -2
100
AcDbLine
 10
196.1757604225565
 20
-74.4158363683307
 30
0.0
 11
196.1757604225565
 21
-179.8735642879614
 31
0.0
  0
INSERT
  5
413A
330
3C25
100
AcDbEntity
  8
寸法線
 62
     0
370
    -2
100
AcDbBlockReference
  2
_Closed
 10
196.1757604225565
 20
-71.4158363683307
 30
0.0
 41
3.0
 42
3.0
 43
3.0
 50
90.0
  0
INSERT
  5
413B
330
3C25
100
AcDbEntity
  8
寸法線
 62
     0
370
    -2
100
AcDbBlockReference
  2
_Closed
 10
196.1757604225565
 20
-182.8735642879614
 30
0.0
 41
3.0
 42
3.0
 43
3.0
 50
270.0
  0
MTEXT
  5
413C
330
3C25
100
AcDbEntity
  8
寸法線
 62
     0
100
AcDbMText
 10
192.6757604225565
 20
-127.144700328146
 30
0.0
 40
5.0
 41
0.0
 71
     5
 72
     1
  1
135
  7
OKANO
 11
0.0000000000000001
 21
1.0
 31
0.0
 73
     1
 44
1.0
  0
POINT
  5
413D
330
3C25
100
AcDbEntity
  8
Defpoints
 62
     0
100
AcDbPoint
 10
169.5922258477567
 20
-71.4158363683307
 30
0.0
  0
POINT
  5
413E
330
3C25
100
AcDbEntity
  8
Defpoints
 62
     0
100
AcDbPoint
 10
169.5922258477567
 20
-182.8735642879613
 30
0.0
  0
POINT
  5
413F
330
3C25
100
AcDbEntity
  8
Defpoints
 62
     0
100
AcDbPoint
 10
196.1757604225565
 20
-182.8735642879614
 30
0.0
  0
ENDBLK
  5
3C30
330
3C25
100
AcDbEntity
  8
0
100
AcDbBlockEnd
  0
BLOCK
  5
3D28
330
3CC1
100
AcDbEntity
  8
0
100
AcDbBlockBegin
  2
A$C057E205E
 70
     0
 10
0.0
 20
0.0
 30
0.0
  3
A$C057E205E
  1

  0
LINE
  5
3CC2
330
3CC1
100
AcDbEntity
  8
太線
100
AcDbLine
 10
38.00000063948155
 20
48.31028556239653
 30
0.0
 11
38.00000063948155
 21
24.31028556239652
 31
0.0
  0
LINE
  5
3CC3
330
3CC1
100
AcDbEntity
  8
想像線
100
AcDbLine
 10
24.23591133708169
 20
46.31028556239653
 30
0.0
 11
24.00000063948155
 21
26.31028556239653
 31
0.0
  0
LINE
  5
3CC4
330
3CC1
100
AcDbEntity
  8
想像線
100
AcDbLine
 10
14.469581990471
 20
37.07861414648755
 30
0.0
 11
14.469581990471
 21
28.31028556239651
 31
0.0
  0
LINE
  5
3CC5
330
3CC1
100
AcDbEntity
  8
想像線
100
AcDbLine
 10
14.06958199047099
 20
37.59889909720976
 30
0.0
 11
14.06958199047099
 21
28.31028556239651
 31
0.0
  0
LINE
  5
3CC6
330
3CC1
100
AcDbEntity
  8
想像線
100
AcDbLine
 10
10.06958199047099
 20
37.59889909720976
 30
0.0
 11
10.069581990471
 21
28.31028556239651
 31
0.0
  0
LINE
  5
3CC7
330
3CC1
100
AcDbEntity
  8
想像線
100
AcDbLine
 10
9.669581990470987
 20
28.31028556239651
 30
0.0
 11
9.669581990471002
 21
37.07861414648755
 31
0.0
  0
CIRCLE
  5
3CC8
330
3CC1
100
AcDbEntity
  8
太線
100
AcDbCircle
 10
12.00000063948154
 20
36.31028556239653
 30
0.0
 40
12.0
  0
CIRCLE
  5
3CC9
330
3CC1
100
AcDbEntity
  8
細線
100
AcDbCircle
 10
12.00000063948154
 20
36.31028556239653
 30
0.0
 40
9.615430761829063
  0
CIRCLE
  5
3CCA
330
3CC1
100
AcDbEntity
  8
太線
100
AcDbCircle
 10
12.00000063948154
 20
36.31028556239653
 30
0.0
 40
10.0
  0
ARC
  5
3CCB
330
3CC1
100
AcDbEntity
  8
細線
100
AcDbCircle
 10
7.459837071900764
 20
22.04102630690211
 30
0.0
 40
0.4162413570046767
100
AcDbArc
 50
196.6522123926323
 51
332.9675075299441
  0
LINE
  5
3CCC
330
3CC1
100
AcDbEntity
  8
太線
100
AcDbLine
 10
8.469581990470999
 20
22.79889909720975
 30
0.0
 11
6.069581990470993
 21
22.79889909720975
 31
0.0
  0
LINE
  5
3CCD
330
3CC1
100
AcDbEntity
  8
太線
100
AcDbLine
 10
6.665536398760785
 20
28.31028556239651
 30
0.0
 11
17.33446488020231
 21
28.31028556239651
 31
0.0
  0
LINE
  5
3CCE
330
3CC1
100
AcDbEntity
  8
細線
100
AcDbLine
 10
5.669581990470994
 20
21.99889909720976
 30
0.0
 11
18.46958199047099
 21
21.99889909720976
 31
0.0
  0
LINE
  5
3CCF
330
3CC1
100
AcDbEntity
  8
太線
100
AcDbLine
 10
5.669581990470994
 20
21.59889909720975
 30
0.0
 11
18.46958199047099
 21
21.59889909720975
 31
0.0
  0
LINE
  5
3CD0
330
3CC1
100
AcDbEntity
  8
太線
100
AcDbLine
 10
4.400000639481547
 20
24.31028556239651
 30
0.0
 11
19.60000063948155
 21
24.31028556239651
 31
0.0
  0
LINE
  5
3CD1
330
3CC1
100
AcDbEntity
  8
太線
100
AcDbLine
 10
4.869581990471004
 20
18.39889909720975
 30
0.0
 11
9.669581990471002
 21
18.39889909720975
 31
0.0
  0
LINE
  5
3CD2
330
3CC1
100
AcDbEntity
  8
太線
100
AcDbLine
 10
4.469581990470999
 20
19.99889909720975
 30
0.0
 11
18.069581990471
 21
19.99889909720975
 31
0.0
  0
LINE
  5
3CD3
330
3CC1
100
AcDbEntity
  8
太線
100
AcDbLine
 10
4.469581990470999
 20
21.19889909720976
 30
0.0
 11
4.469581990470999
 21
18.79889909720975
 31
0.0
  0
ARC
  5
3CD4
330
3CC1
100
AcDbEntity
  8
太線
100
AcDbCircle
 10
4.869581990471004
 20
18.79889909720975
 30
0.0
 40
0.4
100
AcDbArc
 50
180.0
 51
270.0
  0
ARC
  5
3CD5
330
3CC1
100
AcDbEntity
  8
細線
100
AcDbCircle
 10
6.47807979665373
 20
22.04102630690211
 30
0.0
 40
0.4162413570046767
100
AcDbArc
 50
196.6522123926323
 51
332.9675075299441
  0
LINE
  5
3CD6
330
3CC1
100
AcDbEntity
  8
太線
100
AcDbLine
 10
5.669581990470994
 20
22.39889909720975
 30
0.0
 11
5.669581990470994
 21
21.59889909720975
 31
0.0
  0
ARC
  5
3CD7
330
3CC1
100
AcDbEntity
  8
太線
100
AcDbCircle
 10
6.069581990470993
 20
22.39889909720975
 30
0.0
 40
0.4
100
AcDbArc
 50
90.0
 51
180.0
  0
LINE
  5
3CD8
330
3CC1
100
AcDbEntity
  8
太線
100
AcDbLine
 10
4.000000639481555
 20
27.36601365239736
 30
0.0
 11
4.000000639481555
 21
24.71028556239652
 31
0.0
  0
ARC
  5
3CD9
330
3CC1
100
AcDbEntity
  8
太線
100
AcDbCircle
 10
4.200000639481544
 20
24.51028556239652
 30
0.0
 40
0.2
100
AcDbArc
 50
180.0
 51
278.8957952865034
  0
ARC
  5
3CDA
330
3CC1
100
AcDbEntity
  8
太線
100
AcDbCircle
 10
4.292783369501592
 20
23.91750283237647
 30
0.0
 40
0.4
100
AcDbArc
 50
82.29795315063654
 51
98.89579528650337
  0
ARC
  5
3CDB
330
3CC1
100
AcDbEntity
  8
太線
100
AcDbCircle
 10
4.400000639481547
 20
24.71028556239652
 30
0.0
 40
0.4
100
AcDbArc
 50
262.2979531506365
 51
270.0
  0
ARC
  5
3CDC
330
3CC1
100
AcDbEntity
  8
太線
100
AcDbCircle
 10
4.869581990471004
 20
21.19889909720976
 30
0.0
 40
0.4
100
AcDbArc
 50
90.0
 51
180.0
  0
LINE
  5
3CDD
330
3CC1
100
AcDbEntity
  8
太線
100
AcDbLine
 10
5.669581990470994
 20
21.59889909720975
 30
0.0
 11
4.869581990471004
 21
21.59889909720975
 31
0.0
  0
LINE
  5
3CDE
330
3CC1
100
AcDbEntity
  8
想像線
100
AcDbLine
 10
24.00000063948155
 20
26.31028556239653
 30
0.0
 11
38.00000063948155
 21
26.31028556239653
 31
0.0
  0
LINE
  5
3CDF
330
3CC1
100
AcDbEntity
  8
太線
100
AcDbLine
 10
38.00000063948155
 20
24.31028556239652
 30
0.0
 11
12.00000063948154
 21
24.31028556239652
 31
0.0
  0
CIRCLE
  5
3CE0
330
3CC1
100
AcDbEntity
  8
太線
100
AcDbCircle
 10
22.46958199047099
 20
9.998899097209758
 30
0.0
 40
0.8795004643958726
  0
ARC
  5
3CE1
330
3CC1
100
AcDbEntity
  8
太線
100
AcDbCircle
 10
22.46958199047099
 20
9.998899097209758
 30
0.0
 40
4.728402512927522
100
AcDbArc
 50
171.0885869325796
 51
70.67419611043961
  0
ARC
  5
3CE2
330
3CC1
100
AcDbEntity
  8
太線
100
AcDbCircle
 10
22.56481378435893
 20
9.717791581484476
 30
0.0
 40
2.586531234550987
100
AcDbArc
 50
215.0352941570024
 51
6.239302511908031
  0
ARC
  5
3CE3
330
3CC1
100
AcDbEntity
  8
太線
100
AcDbCircle
 10
22.46958199047099
 20
9.998899097209758
 30
0.0
 40
7.232764563447711
100
AcDbArc
 50
158.35697109745
 51
82.89639821277226
  0
ARC
  5
3CE4
330
3CC1
100
AcDbEntity
  8
太線
100
AcDbCircle
 10
22.46958199047099
 20
9.998899097209758
 30
0.0
 40
10.0
100
AcDbArc
 50
152.172907248027
 51
88.8654795878571
  0
LINE
  5
3CE5
330
3CC1
100
AcDbEntity
  8
太線
100
AcDbLine
 10
9.669581990471002
 20
18.39889909720975
 30
0.0
 11
20.44696571796557
 21
8.23291333900741
 31
0.0
  0
LINE
  5
3CE6
330
3CC1
100
AcDbEntity
  8
想像線
100
AcDbLine
 10
19.17938022719464
 20
26.69485480056747
 30
0.0
 11
24.00000063948155
 21
26.69485480056747
 31
0.0
  0
LINE
  5
3CE7
330
3CC1
100
AcDbEntity
  8
太線
100
AcDbLine
 10
19.669581990471
 20
21.59889909720975
 30
0.0
 11
22.46958199047099
 21
20.79889909720975
 31
0.0
  0
ARC
  5
3CE8
330
3CC1
100
AcDbEntity
  8
太線
100
AcDbCircle
 10
18.069581990471
 20
19.59889909720975
 30
0.0
 40
0.4
100
AcDbArc
 50
0.0
 51
90.0
  0
LINE
  5
3CE9
330
3CC1
100
AcDbEntity
  8
太線
100
AcDbLine
 10
18.46958199047101
 20
19.59889909720975
 30
0.0
 11
18.46958199047099
 21
9.998899097209758
 31
0.0
  0
LINE
  5
3CEA
330
3CC1
100
AcDbEntity
  8
太線
100
AcDbLine
 10
10.06958199047099
 20
23.99889909720975
 30
0.0
 11
14.469581990471
 21
23.99889909720975
 31
0.0
  0
LINE
  5
3CEB
330
3CC1
100
AcDbEntity
  8
太線
100
AcDbLine
 10
8.469581990470999
 20
22.79889909720975
 30
0.0
 11
15.669581990471
 21
22.79889909720975
 31
0.0
  0
LINE
  5
3CEC
330
3CC1
100
AcDbEntity
  8
想像線
100
AcDbLine
 10
14.069581990471
 20
24.31028556239651
 30
0.0
 11
14.06958199047099
 21
23.99889909720975
 31
0.0
  0
ARC
  5
3CED
330
3CC1
100
AcDbEntity
  8
太線
100
AcDbCircle
 10
8.869581990470997
 20
23.59889909720975
 30
0.0
 40
0.4
100
AcDbArc
 50
90.0
 51
180.0
  0
LINE
  5
3CEE
330
3CC1
100
AcDbEntity
  8
太線
100
AcDbLine
 10
10.06958199047099
 20
23.99889909720975
 30
0.0
 11
8.869581990470997
 21
23.99889909720975
 31
0.0
  0
LINE
  5
3CEF
330
3CC1
100
AcDbEntity
  8
想像線
100
AcDbLine
 10
10.069581990471
 20
24.31028556239651
 30
0.0
 11
10.06958199047099
 21
23.99889909720975
 31
0.0
  0
LINE
  5
3CF0
330
3CC1
100
AcDbEntity
  8
想像線
100
AcDbLine
 10
9.669581990471002
 20
23.99889909720975
 30
0.0
 11
9.669581990470987
 21
24.31028556239651
 31
0.0
  0
ARC
  5
3CF1
330
3CC1
100
AcDbEntity
  8
細線
100
AcDbCircle
 10
13.75035558941905
 20
22.04102630690211
 30
0.0
 40
0.4162413570046767
100
AcDbArc
 50
196.6522123926323
 51
332.9675075299441
  0
ARC
  5
3CF2
330
3CC1
100
AcDbEntity
  8
細線
100
AcDbCircle
 10
11.60503416073039
 20
22.04102630690211
 30
0.0
 40
0.4162413570046767
100
AcDbArc
 50
196.6522123926323
 51
332.9675075299441
  0
ARC
  5
3CF3
330
3CC1
100
AcDbEntity
  8
細線
100
AcDbCircle
 10
12.76859831417201
 20
22.04102630690211
 30
0.0
 40
0.4162413570046767
100
AcDbArc
 50
196.6522123926323
 51
332.9675075299441
  0
ARC
  5
3CF4
330
3CC1
100
AcDbEntity
  8
細線
100
AcDbCircle
 10
8.623401225342391
 20
22.04102630690211
 30
0.0
 40
0.4162413570046767
100
AcDbArc
 50
196.6522123926323
 51
332.9675075299441
  0
ARC
  5
3CF5
330
3CC1
100
AcDbEntity
  8
細線
100
AcDbCircle
 10
9.605158500589425
 20
22.04102630690211
 30
0.0
 40
0.4162413570046767
100
AcDbArc
 50
196.6522123926323
 51
332.9675075299441
  0
ARC
  5
3CF6
330
3CC1
100
AcDbEntity
  8
細線
100
AcDbCircle
 10
10.62327688548335
 20
22.04102630690211
 30
0.0
 40
0.4162413570046767
100
AcDbArc
 50
196.6522123926323
 51
332.9675075299441
  0
LINE
  5
3CF7
330
3CC1
100
AcDbEntity
  8
太線
100
AcDbLine
 10
14.08522612101305
 20
23.84179687512899
 30
0.0
 11
14.08522612101305
 21
22.77459357675318
 31
0.0
  0
LINE
  5
3CF8
330
3CC1
100
AcDbEntity
  8
太線
100
AcDbLine
 10
10.11760410476389
 20
23.84179687512899
 30
0.0
 11
10.11760410476389
 21
22.92705151300372
 31
0.0
  0
LINE
  5
3CF9
330
3CC1
100
AcDbEntity
  8
想像線
100
AcDbLine
 10
9.669581990471002
 20
23.99889909720975
 30
0.0
 11
9.669581990471002
 21
22.79889909720975
 31
0.0
  0
LINE
  5
3CFA
330
3CC1
100
AcDbEntity
  8
太線
100
AcDbLine
 10
8.469581990470999
 20
23.59889909720975
 30
0.0
 11
8.469581990470999
 21
22.79889909720975
 31
0.0
  0
LINE
  5
3CFB
330
3CC1
100
AcDbEntity
  8
想像線
100
AcDbLine
 10
16.06958199047099
 20
27.99889909720976
 30
0.0
 11
16.06958199047099
 21
28.19889909720976
 31
0.0
  0
LINE
  5
3CFC
330
3CC1
100
AcDbEntity
  8
太線
100
AcDbLine
 10
20.00000063948154
 20
24.71028556239652
 30
0.0
 11
20.00000063948154
 21
27.36601365239736
 31
0.0
  0
ARC
  5
3CFD
330
3CC1
100
AcDbEntity
  8
太線
100
AcDbCircle
 10
19.60000063948155
 20
24.71028556239652
 30
0.0
 40
0.4
100
AcDbArc
 50
270.0
 51
0.0
  0
LINE
  5
3CFE
330
3CC1
100
AcDbEntity
  8
太線
100
AcDbLine
 10
20.00000063948154
 20
27.36601365239736
 30
0.0
 11
20.00000063948154
 21
26.69485480056747
 31
0.0
  0
LINE
  5
3CFF
330
3CC1
100
AcDbEntity
  8
太線
100
AcDbLine
 10
18.46958199047099
 20
21.59889909720975
 30
0.0
 11
19.669581990471
 21
21.59889909720975
 31
0.0
  0
LINE
  5
3D00
330
3CC1
100
AcDbEntity
  8
太線
100
AcDbLine
 10
18.46958199047099
 20
22.39889909720975
 30
0.0
 11
18.46958199047099
 21
21.59889909720975
 31
0.0
  0
LINE
  5
3D01
330
3CC1
100
AcDbEntity
  8
太線
100
AcDbLine
 10
15.669581990471
 20
22.79889909720975
 30
0.0
 11
18.06958199047099
 21
22.79889909720975
 31
0.0
  0
ARC
  5
3D02
330
3CC1
100
AcDbEntity
  8
細線
100
AcDbCircle
 10
16.98651828727548
 20
22.04102630690211
 30
0.0
 40
0.4162413570046767
100
AcDbArc
 50
196.6522123926323
 51
332.9675075299441
  0
ARC
  5
3D03
330
3CC1
100
AcDbEntity
  8
細線
100
AcDbCircle
 10
17.96827556252252
 20
22.04102630690211
 30
0.0
 40
0.4162413570046767
100
AcDbArc
 50
196.6522123926323
 51
332.9675075299441
  0
ARC
  5
3D04
330
3CC1
100
AcDbEntity
  8
太線
100
AcDbCircle
 10
18.06958199047099
 20
22.39889909720975
 30
0.0
 40
0.4
100
AcDbArc
 50
0.0
 51
90.0
  0
LINE
  5
3D05
330
3CC1
100
AcDbEntity
  8
太線
100
AcDbLine
 10
15.669581990471
 20
23.59889909720975
 30
0.0
 11
15.669581990471
 21
22.79889909720975
 31
0.0
  0
LINE
  5
3D06
330
3CC1
100
AcDbEntity
  8
太線
100
AcDbLine
 10
14.469581990471
 20
23.99889909720975
 30
0.0
 11
15.26958199047099
 21
23.99889909720975
 31
0.0
  0
LINE
  5
3D07
330
3CC1
100
AcDbEntity
  8
想像線
100
AcDbLine
 10
14.469581990471
 20
24.31028556239651
 30
0.0
 11
14.469581990471
 21
23.99889909720975
 31
0.0
  0
ARC
  5
3D08
330
3CC1
100
AcDbEntity
  8
細線
100
AcDbCircle
 10
14.84119685858682
 20
22.04102630690211
 30
0.0
 40
0.4162413570046767
100
AcDbArc
 50
196.6522123926323
 51
332.9675075299441
  0
LINE
  5
3D09
330
3CC1
100
AcDbEntity
  8
想像線
100
AcDbLine
 10
14.469581990471
 20
23.99889909720975
 30
0.0
 11
14.469581990471
 21
22.79889909720975
 31
0.0
  0
ARC
  5
3D0A
330
3CC1
100
AcDbEntity
  8
太線
100
AcDbCircle
 10
15.26958199047099
 20
23.59889909720975
 30
0.0
 40
0.4
100
AcDbArc
 50
0.0
 51
90.0
  0
ARC
  5
3D0B
330
3CC1
100
AcDbEntity
  8
細線
100
AcDbCircle
 10
15.82295413383386
 20
22.04102630690211
 30
0.0
 40
0.4162413570046767
100
AcDbArc
 50
196.6522123926323
 51
332.9675075299441
  0
LINE
  5
3D0C
330
3CC1
100
AcDbEntity
  8
太線
100
AcDbLine
 10
22.46958199047099
 20
20.79889909720975
 30
0.0
 11
25.13602408145846
 21
9.998899097209758
 31
0.0
  0
ARC
  5
3D0D
330
3CC1
100
AcDbEntity
  8
太線
100
AcDbCircle
 10
22.46958199047099
 20
9.998899097209758
 30
0.0
 40
2.666442090987455
100
AcDbArc
 50
0.0000000000016284
 51
27.73712696829502
  0
LINE
  5
3D0E
330
3CC1
100
AcDbEntity
  8
太線
100
AcDbLine
 10
0.0335687262416968
 20
62.31028556239653
 30
0.0
 11
24.00000063948155
 21
62.31028556239653
 31
0.0
  0
LINE
  5
3D0F
330
3CC1
100
AcDbEntity
  8
想像線
100
AcDbLine
 10
2.000000639481555
 20
48.31028556239653
 30
0.0
 11
22.00000063948154
 21
48.31028556239653
 31
0.0
  0
LINE
  5
3D10
330
3CC1
100
AcDbEntity
  8
太線
100
AcDbLine
 10
0.0335687262416968
 20
62.31028556239653
 30
0.0
 11
0.1678410732823181
 21
38.31028556239653
 31
0.0
  0
LINE
  5
3D11
330
3CC1
100
AcDbEntity
  8
想像線
100
AcDbLine
 10
2.000000639481555
 20
62.31028556239653
 30
0.0
 11
2.000000639481555
 21
48.31028556239653
 31
0.0
  0
LINE
  5
3D12
330
3CC1
100
AcDbEntity
  8
想像線
100
AcDbLine
 10
2.384569877652481
 20
48.31028556239653
 30
0.0
 11
2.384569877652481
 21
43.48966515010962
 31
0.0
  0
LINE
  5
3D13
330
3CC1
100
AcDbEntity
  8
太線
100
AcDbLine
 10
34.00000063948155
 20
35.31028556239653
 30
0.0
 11
24.23591133708169
 21
35.31028556239653
 31
0.0
  0
LINE
  5
3D14
330
3CC1
100
AcDbEntity
  8
太線
100
AcDbLine
 10
23.95826138258295
 20
37.31028556239653
 30
0.0
 11
34.00000063948155
 21
37.31028556239653
 31
0.0
  0
LINE
  5
3D15
330
3CC1
100
AcDbEntity
  8
想像線
100
AcDbLine
 10
38.00000063948155
 20
46.31028556239653
 30
0.0
 11
24.23591133708169
 21
46.31028556239653
 31
0.0
  0
LINE
  5
3D16
330
3CC1
100
AcDbEntity
  8
太線
100
AcDbLine
 10
24.00000063948155
 20
48.31028556239653
 30
0.0
 11
38.00000063948155
 21
48.31028556239653
 31
0.0
  0
LINE
  5
3D17
330
3CC1
100
AcDbEntity
  8
太線
100
AcDbLine
 10
24.23591133708169
 20
58.31028556239653
 30
0.0
 11
34.00000063948155
 21
48.31028556239653
 31
0.0
  0
CIRCLE
  5
3D18
330
3CC1
100
AcDbEntity
  8
太線
100
AcDbCircle
 10
26.17730048787334
 20
50.20780555088709
 30
0.0
 40
1.2
  0
LINE
  5
3D19
330
3CC1
100
AcDbEntity
  8
太線
100
AcDbLine
 10
11.00000063948154
 20
48.31028556239653
 30
0.0
 11
11.00000063948154
 21
58.31028556239653
 31
0.0
  0
LINE
  5
3D1A
330
3CC1
100
AcDbEntity
  8
太線
100
AcDbLine
 10
13.00000063948155
 20
58.31028556239653
 30
0.0
 11
13.00000063948155
 21
48.31028556239653
 31
0.0
  0
LINE
  5
3D1B
330
3CC1
100
AcDbEntity
  8
太線
100
AcDbLine
 10
24.00000063948155
 20
62.31028556239653
 30
0.0
 11
24.00000063948155
 21
48.31028556239653
 31
0.0
  0
LINE
  5
3D1C
330
3CC1
100
AcDbEntity
  8
想像線
100
AcDbLine
 10
22.00000063948154
 20
48.31028556239653
 30
0.0
 11
22.00000063948154
 21
62.31028556239653
 31
0.0
  0
LINE
  5
3D1D
330
3CC1
100
AcDbEntity
  8
想像線
100
AcDbLine
 10
19.17938022719464
 20
45.9257163242256
 30
0.0
 11
24.23137513721906
 21
45.9257163242256
 31
0.0
  0
LINE
  5
3D1E
330
3CC1
100
AcDbEntity
  8
太線
100
AcDbLine
 10
14.06958199047099
 20
37.59889909720976
 30
0.0
 11
14.469581990471
 21
37.07861414648755
 31
0.0
  0
LINE
  5
3D1F
330
3CC1
100
AcDbEntity
  8
太線
100
AcDbLine
 10
9.669581990471002
 20
37.07861414648755
 30
0.0
 11
10.06958199047099
 21
37.59889909720976
 31
0.0
  0
LINE
  5
3D20
330
3CC1
100
AcDbEntity
  8
太線
100
AcDbLine
 10
10.06958199047099
 20
37.59889909720976
 30
0.0
 11
14.06958199047099
 21
37.59889909720976
 31
0.0
  0
LINE
  5
3D21
330
3CC1
100
AcDbEntity
  8
破線
100
AcDbLine
 10
11.00000063948154
 20
48.93031848493688
 30
0.0
 11
13.00000063948155
 21
48.93031848493688
 31
0.0
  0
LINE
  5
3D22
330
3CC1
100
AcDbEntity
  8
破線
100
AcDbLine
 10
24.71759178927914
 20
35.31028556239653
 30
0.0
 11
24.71759178927914
 21
37.31028556239653
 31
0.0
  0
LINE
  5
3D23
330
3CC1
100
AcDbEntity
  8
破線
100
AcDbLine
 10
27.29068781968999
 20
35.31028556239653
 30
0.0
 11
27.29068781968999
 21
37.31028556239653
 31
0.0
  0
LINE
  5
3D24
330
3CC1
100
AcDbEntity
  8
想像線
100
AcDbLine
 10
21.61543140131061
 20
48.31028556239653
 30
0.0
 11
21.61543140131061
 21
43.48966515010962
 31
0.0
  0
LINE
  5
3D25
330
3CC1
100
AcDbEntity
  8
太線
100
AcDbLine
 10
11.00000063948154
 20
58.31028556239653
 30
0.0
 11
13.00000063948155
 21
58.31028556239653
 31
0.0
  0
LINE
  5
3D26
330
3CC1
100
AcDbEntity
  8
破線
100
AcDbLine
 10
11.00000063948154
 20
51.40249511914867
 30
0.0
 11
13.00000063948155
 21
51.40249511914867
 31
0.0
  0
LINE
  5
3D27
330
3CC1
100
AcDbEntity
  8
太線
100
AcDbLine
 10
34.00000063948155
 20
37.31028556239653
 30
0.0
 11
34.00000063948155
 21
35.31028556239653
 31
0.0
  0
ENDBLK
  5
3D29
330
3CC1
100
AcDbEntity
  8
0
100
AcDbBlockEnd
  0
BLOCK
  5
3E68
330
3E5F
100
AcDbEntity
  8
0
100
AcDbBlockBegin
  2
*D24
 70
     1
 10
0.0
 20
0.0
 30
0.0
  3
*D24
  1

  0
LINE
  5
3F0A
330
3E5F
100
AcDbEntity
  8
寸法線
 62
     0
370
    -2
100
AcDbLine
 10
-23.03111126731408
 20
232.4401052495793
 30
0.0
 11
37.37319811514224
 21
184.5010452946209
 31
0.0
  0
LINE
  5
3F0B
330
3E5F
100
AcDbEntity
  8
寸法線
 62
     0
370
    -2
100
AcDbLine
 10
48.33931950090172
 20
175.7979319578437
 30
0.0
 11
50.68920265499303
 21
173.9329790999629
 31
0.0
  0
MTEXT
  5
3F0C
330
3E5F
100
AcDbEntity
  8
寸法線
 62
     0
100
AcDbMText
 10
-14.7199931277648
 20
230.3130347440173
 30
0.0
 40
5.0
 41
0.0
 71
     5
 72
     1
  1
M-12
  7
OKANO
 11
0.7832943846971023
 21
-0.6216509526269448
 31
0.0
 73
     1
 44
1.0
  0
LINE
  5
3F0D
330
3E5F
100
AcDbEntity
  8
寸法線
 62
     0
370
    -2
100
AcDbLine
 10
45.98943634681041
 20
177.6628848157245
 30
0.0
 11
39.72308126923354
 21
182.6360924367401
 31
0.0
  0
INSERT
  5
3F0E
330
3E5F
100
AcDbEntity
  8
寸法線
 62
     0
370
    -2
100
AcDbBlockReference
  2
_Closed
 10
45.98943634681041
 20
177.6628848157245
 30
0.0
 41
3.0
 42
3.0
 43
3.0
 50
141.5632037337107
  0
INSERT
  5
3F0F
330
3E5F
100
AcDbEntity
  8
寸法線
 62
     0
370
    -2
100
AcDbBlockReference
  2
_Closed
 10
39.72308126923354
 20
182.6360924367401
 30
0.0
 41
3.0
 42
3.0
 43
3.0
 50
321.5632037337107
  0
POINT
  5
3F10
330
3E5F
100
AcDbEntity
  8
Defpoints
 62
     0
100
AcDbPoint
 10
39.72308126923354
 20
182.6360924367401
 30
0.0
  0
POINT
  5
3F11
330
3E5F
100
AcDbEntity
  8
Defpoints
 62
     0
100
AcDbPoint
 10
45.98943634681041
 20
177.6628848157245
 30
0.0
  0
ENDBLK
  5
3E69
330
3E5F
100
AcDbEntity
  8
0
100
AcDbBlockEnd
  0
BLOCK
  5
3E73
330
3E6A
100
AcDbEntity
  8
0
100
AcDbBlockBegin
  2
*D25
 70
     1
 10
0.0
 20
0.0
 30
0.0
  3
*D25
  1

  0
LINE
  5
3F12
330
3E6A
100
AcDbEntity
  8
寸法線
 62
     0
370
    -2
100
AcDbLine
 10
106.663479775335
 20
243.7700792755675
 30
0.0
 11
51.46817701615423
 21
188.7362177568712
 31
0.0
  0
LINE
  5
3F13
330
3E6A
100
AcDbEntity
  8
寸法線
 62
     0
370
    -2
100
AcDbLine
 10
34.24434059988954
 20
171.5627594955933
 30
0.0
 11
32.11991565661769
 21
169.4445483020612
 31
0.0
  0
MTEXT
  5
3F14
330
3E6A
100
AcDbEntity
  8
寸法線
 62
     0
100
AcDbMText
 10
98.29918394443376
 20
240.3734571920579
 30
0.0
 40
5.0
 41
0.0
 71
     5
 72
     1
  1
M-20
  7
OKANO
 11
0.7081416477572807
 21
0.7060703978440135
 31
0.0
 73
     1
 44
1.0
  0
LINE
  5
3F15
330
3E6A
100
AcDbEntity
  8
寸法線
 62
     0
370
    -2
100
AcDbLine
 10
36.36876554316137
 20
173.6809706891253
 30
0.0
 11
49.34375207288238
 21
186.6180065633392
 31
0.0
  0
INSERT
  5
3F16
330
3E6A
100
AcDbEntity
  8
寸法線
 62
     0
370
    -2
100
AcDbBlockReference
  2
_Closed
 10
36.36876554316137
 20
173.6809706891253
 30
0.0
 41
3.0
 42
3.0
 43
3.0
 50
44.91608486587089
  0
INSERT
  5
3F17
330
3E6A
100
AcDbEntity
  8
寸法線
 62
     0
370
    -2
100
AcDbBlockReference
  2
_Closed
 10
49.34375207288238
 20
186.6180065633392
 30
0.0
 41
3.0
 42
3.0
 43
3.0
 50
224.9160848658708
  0
POINT
  5
3F18
330
3E6A
100
AcDbEntity
  8
Defpoints
 62
     0
100
AcDbPoint
 10
49.34375207288238
 20
186.6180065633392
 30
0.0
  0
POINT
  5
3F19
330
3E6A
100
AcDbEntity
  8
Defpoints
 62
     0
100
AcDbPoint
 10
36.36876554316137
 20
173.6809706891253
 30
0.0
  0
ENDBLK
  5
3E74
330
3E6A
100
AcDbEntity
  8
0
100
AcDbBlockEnd
  0
BLOCK
  5
3E7F
330
3E75
100
AcDbEntity
  8
0
100
AcDbBlockBegin
  2
*D26
 70
     1
 10
0.0
 20
0.0
 30
0.0
  3
*D26
  1

  0
LINE
  5
3F1A
330
3E75
100
AcDbEntity
  8
寸法線
 62
     0
370
    -2
100
AcDbLine
 10
12.85625880802194
 20
182.1494886262323
 30
0.0
 11
12.85625880802195
 21
225.8351476058088
 31
0.0
  0
LINE
  5
3F1B
330
3E75
100
AcDbEntity
  8
寸法線
 62
     0
370
    -2
100
AcDbLine
 10
107.8562588080219
 20
212.1494886262323
 30
0.0
 11
107.8562588080219
 21
225.8351476058088
 31
0.0
  0
LINE
  5
3F1C
330
3E75
100
AcDbEntity
  8
寸法線
 62
     0
370
    -2
100
AcDbLine
 10
15.85625880802195
 20
222.8351476058088
 30
0.0
 11
104.8562588080219
 21
222.8351476058088
 31
0.0
  0
INSERT
  5
3F1D
330
3E75
100
AcDbEntity
  8
寸法線
 62
     0
370
    -2
100
AcDbBlockReference
  2
_Closed
 10
12.85625880802195
 20
222.8351476058088
 30
0.0
 41
3.0
 42
3.0
 43
3.0
 50
180.0
  0
INSERT
  5
3F1E
330
3E75
100
AcDbEntity
  8
寸法線
 62
     0
370
    -2
100
AcDbBlockReference
  2
_Closed
 10
107.8562588080219
 20
222.8351476058088
 30
0.0
 41
3.0
 42
3.0
 43
3.0
  0
MTEXT
  5
3F1F
330
3E75
100
AcDbEntity
  8
寸法線
 62
     0
100
AcDbMText
 10
60.35625880802195
 20
226.3368481293423
 30
0.0
 40
5.0
 41
0.0
 71
     5
 72
     1
  1
92.3
  7
OKANO
 73
     1
 44
1.0
  0
POINT
  5
3F20
330
3E75
100
AcDbEntity
  8
Defpoints
 62
     0
100
AcDbPoint
 10
12.85625880802194
 20
180.1494886262323
 30
0.0
  0
POINT
  5
3F21
330
3E75
100
AcDbEntity
  8
Defpoints
 62
     0
100
AcDbPoint
 10
107.8562588080219
 20
210.1494886262323
 30
0.0
  0
POINT
  5
3F22
330
3E75
100
AcDbEntity
  8
Defpoints
 62
     0
100
AcDbPoint
 10
107.8562588080219
 20
222.8351476058088
 30
0.0
  0
ENDBLK
  5
3E80
330
3E75
100
AcDbEntity
  8
0
100
AcDbBlockEnd
  0
BLOCK
  5
3E8B
330
3E81
100
AcDbEntity
  8
0
100
AcDbBlockBegin
  2
*D27
 70
     1
 10
0.0
 20
0.0
 30
0.0
  3
*D27
  1

  0
LINE
  5
3F23
330
3E81
100
AcDbEntity
  8
寸法線
 62
     0
370
    -2
100
AcDbLine
 10
67.85625880802195
 20
113.1494886262323
 30
0.0
 11
67.85625880802195
 21
101.2651493887228
 31
0.0
  0
LINE
  5
3F24
330
3E81
100
AcDbEntity
  8
寸法線
 62
     0
370
    -2
100
AcDbLine
 10
17.85625880802195
 20
113.1494886262323
 30
0.0
 11
17.85625880802195
 21
101.2651493887228
 31
0.0
  0
LINE
  5
3F25
330
3E81
100
AcDbEntity
  8
寸法線
 62
     0
370
    -2
100
AcDbLine
 10
64.85625880802195
 20
104.2651493887228
 30
0.0
 11
20.85625880802195
 21
104.2651493887228
 31
0.0
  0
INSERT
  5
3F26
330
3E81
100
AcDbEntity
  8
寸法線
 62
     0
370
    -2
100
AcDbBlockReference
  2
_Closed
 10
67.85625880802195
 20
104.2651493887228
 30
0.0
 41
3.0
 42
3.0
 43
3.0
  0
INSERT
  5
3F27
330
3E81
100
AcDbEntity
  8
寸法線
 62
     0
370
    -2
100
AcDbBlockReference
  2
_Closed
 10
17.85625880802195
 20
104.2651493887228
 30
0.0
 41
3.0
 42
3.0
 43
3.0
 50
180.0
  0
MTEXT
  5
3F28
330
3E81
100
AcDbEntity
  8
寸法線
 62
     0
100
AcDbMText
 10
42.85625880802195
 20
107.7651493887228
 30
0.0
 40
5.0
 41
0.0
 71
     5
 72
     1
  1
49.3
  7
OKANO
 73
     1
 44
1.0
  0
POINT
  5
3F29
330
3E81
100
AcDbEntity
  8
Defpoints
 62
     0
100
AcDbPoint
 10
67.85625880802195
 20
115.1494886262323
 30
0.0
  0
POINT
  5
3F2A
330
3E81
100
AcDbEntity
  8
Defpoints
 62
     0
100
AcDbPoint
 10
17.85625880802195
 20
115.1494886262323
 30
0.0
  0
POINT
  5
3F2B
330
3E81
100
AcDbEntity
  8
Defpoints
 62
     0
100
AcDbPoint
 10
17.85625880802195
 20
104.2651493887228
 30
0.0
  0
ENDBLK
  5
3E8C
330
3E81
100
AcDbEntity
  8
0
100
AcDbBlockEnd
  0
BLOCK
  5
3E97
330
3E8D
100
AcDbEntity
  8
0
100
AcDbBlockBegin
  2
*D28
 70
     1
 10
0.0
 20
0.0
 30
0.0
  3
*D28
  1

  0
LINE
  5
3F2C
330
3E8D
100
AcDbEntity
  8
寸法線
 62
     0
370
    -2
100
AcDbLine
 10
40.85625880802195
 20
210.1494886262323
 30
0.0
 11
-6.919754690293291
 21
210.1494886262323
 31
0.0
  0
LINE
  5
3F2D
330
3E8D
100
AcDbEntity
  8
寸法線
 62
     0
370
    -2
100
AcDbLine
 10
16.85625880802194
 20
150.1494886262323
 30
0.0
 11
-6.9197546902933
 21
150.1494886262323
 31
0.0
  0
LINE
  5
3F2E
330
3E8D
100
AcDbEntity
  8
寸法線
 62
     0
370
    -2
100
AcDbLine
 10
-3.919754690293289
 20
207.1494886262323
 30
0.0
 11
-3.919754690293301
 21
153.1494886262323
 31
0.0
  0
INSERT
  5
3F2F
330
3E8D
100
AcDbEntity
  8
寸法線
 62
     0
370
    -2
100
AcDbBlockReference
  2
_Closed
 10
-3.919754690293289
 20
210.1494886262323
 30
0.0
 41
3.0
 42
3.0
 43
3.0
 50
90.0
  0
INSERT
  5
3F30
330
3E8D
100
AcDbEntity
  8
寸法線
 62
     0
370
    -2
100
AcDbBlockReference
  2
_Closed
 10
-3.919754690293302
 20
150.1494886262323
 30
0.0
 41
3.0
 42
3.0
 43
3.0
 50
270.0
  0
MTEXT
  5
3F31
330
3E8D
100
AcDbEntity
  8
寸法線
 62
     0
100
AcDbMText
 10
-7.419754690293325
 20
180.1494886262323
 30
0.0
 40
5.0
 41
0.0
 71
     5
 72
     1
  1
57.3
  7
OKANO
 11
0.0000000000000001
 21
1.0
 31
0.0
 73
     1
 44
1.0
  0
POINT
  5
3F32
330
3E8D
100
AcDbEntity
  8
Defpoints
 62
     0
100
AcDbPoint
 10
42.85625880802195
 20
210.1494886262323
 30
0.0
  0
POINT
  5
3F33
330
3E8D
100
AcDbEntity
  8
Defpoints
 62
     0
100
AcDbPoint
 10
18.85625880802194
 20
150.1494886262323
 30
0.0
  0
POINT
  5
3F34
330
3E8D
100
AcDbEntity
  8
Defpoints
 62
     0
100
AcDbPoint
 10
-3.919754690293302
 20
150.1494886262323
 30
0.0
  0
ENDBLK
  5
3E98
330
3E8D
100
AcDbEntity
  8
0
100
AcDbBlockEnd
  0
BLOCK
  5
3EA3
330
3E99
100
AcDbEntity
  8
0
100
AcDbBlockBegin
  2
*D29
 70
     1
 10
0.0
 20
0.0
 30
0.0
  3
*D29
  1

  0
LINE
  5
3F35
330
3E99
100
AcDbEntity
  8
寸法線
 62
     0
370
    -2
100
AcDbLine
 10
16.85625880802194
 20
150.1494886262323
 30
0.0
 11
-6.919754690293308
 21
150.1494886262323
 31
0.0
  0
LINE
  5
3F36
330
3E99
100
AcDbEntity
  8
寸法線
 62
     0
370
    -2
100
AcDbLine
 10
10.85625880802194
 20
115.1494886262323
 30
0.0
 11
-6.919754690293316
 21
115.1494886262323
 31
0.0
  0
LINE
  5
3F37
330
3E99
100
AcDbEntity
  8
寸法線
 62
     0
370
    -2
100
AcDbLine
 10
-3.919754690293309
 20
147.1494886262323
 30
0.0
 11
-3.919754690293316
 21
118.1494886262322
 31
0.0
  0
INSERT
  5
3F38
330
3E99
100
AcDbEntity
  8
寸法線
 62
     0
370
    -2
100
AcDbBlockReference
  2
_Closed
 10
-3.919754690293309
 20
150.1494886262323
 30
0.0
 41
3.0
 42
3.0
 43
3.0
 50
90.0
  0
INSERT
  5
3F39
330
3E99
100
AcDbEntity
  8
寸法線
 62
     0
370
    -2
100
AcDbBlockReference
  2
_Closed
 10
-3.919754690293316
 20
115.1494886262323
 30
0.0
 41
3.0
 42
3.0
 43
3.0
 50
270.0
  0
MTEXT
  5
3F3A
330
3E99
100
AcDbEntity
  8
寸法線
 62
     0
100
AcDbMText
 10
-7.419754690293334
 20
132.6494886262323
 30
0.0
 40
5.0
 41
0.0
 71
     5
 72
     1
  1
35
  7
OKANO
 11
0.0000000000000001
 21
1.0
 31
0.0
 73
     1
 44
1.0
  0
POINT
  5
3F3B
330
3E99
100
AcDbEntity
  8
Defpoints
 62
     0
100
AcDbPoint
 10
18.85625880802194
 20
150.1494886262323
 30
0.0
  0
POINT
  5
3F3C
330
3E99
100
AcDbEntity
  8
Defpoints
 62
     0
100
AcDbPoint
 10
12.85625880802194
 20
115.1494886262323
 30
0.0
  0
POINT
  5
3F3D
330
3E99
100
AcDbEntity
  8
Defpoints
 62
     0
100
AcDbPoint
 10
-3.919754690293316
 20
115.1494886262323
 30
0.0
  0
ENDBLK
  5
3EA4
330
3E99
100
AcDbEntity
  8
0
100
AcDbBlockEnd
  0
BLOCK
  5
3EB1
330
3EA5
100
AcDbEntity
  8
0
100
AcDbBlockBegin
  2
*D30
 70
     1
 10
0.0
 20
0.0
 30
0.0
  3
*D30
  1

  0
LINE
  5
3F3E
330
3EA5
100
AcDbEntity
  8
寸法線
 62
     0
370
    -2
100
AcDbLine
 10
17.85625880802195
 20
113.1494886262323
 30
0.0
 11
17.85625880802195
 21
101.2651493887228
 31
0.0
  0
LINE
  5
3F3F
330
3EA5
100
AcDbEntity
  8
寸法線
 62
     0
370
    -2
100
AcDbLine
 10
12.85625880802194
 20
113.1494886262323
 30
0.0
 11
12.85625880802194
 21
101.2651493887228
 31
0.0
  0
LINE
  5
3F40
330
3EA5
100
AcDbEntity
  8
寸法線
 62
     0
370
    -2
100
AcDbLine
 10
20.85625880802195
 20
104.2651493887228
 30
0.0
 11
23.85625880802194
 21
104.2651493887228
 31
0.0
  0
LINE
  5
3F41
330
3EA5
100
AcDbEntity
  8
寸法線
 62
     0
370
    -2
100
AcDbLine
 10
9.856258808021948
 20
104.2651493887228
 30
0.0
 11
6.856258808021948
 21
104.2651493887228
 31
0.0
  0
LINE
  5
3F42
330
3EA5
100
AcDbEntity
  8
寸法線
 62
     0
370
    -2
100
AcDbLine
 10
17.85625880802195
 20
104.2651493887228
 30
0.0
 11
12.85625880802194
 21
104.2651493887228
 31
0.0
  0
INSERT
  5
3F43
330
3EA5
100
AcDbEntity
  8
寸法線
 62
     0
370
    -2
100
AcDbBlockReference
  2
_Closed
 10
17.85625880802195
 20
104.2651493887228
 30
0.0
 41
3.0
 42
3.0
 43
3.0
 50
180.0
  0
INSERT
  5
3F44
330
3EA5
100
AcDbEntity
  8
寸法線
 62
     0
370
    -2
100
AcDbBlockReference
  2
_Closed
 10
12.85625880802194
 20
104.2651493887228
 30
0.0
 41
3.0
 42
3.0
 43
3.0
  0
MTEXT
  5
3F45
330
3EA5
100
AcDbEntity
  8
寸法線
 62
     0
100
AcDbMText
 10
15.35625880802195
 20
107.7651493887228
 30
0.0
 40
5.0
 41
0.0
 71
     5
 72
     1
  1
4
  7
OKANO
 73
     1
 44
1.0
  0
POINT
  5
3F46
330
3EA5
100
AcDbEntity
  8
Defpoints
 62
     0
100
AcDbPoint
 10
17.85625880802195
 20
115.1494886262323
 30
0.0
  0
POINT
  5
3F47
330
3EA5
100
AcDbEntity
  8
Defpoints
 62
     0
100
AcDbPoint
 10
12.85625880802194
 20
115.1494886262323
 30
0.0
  0
POINT
  5
3F48
330
3EA5
100
AcDbEntity
  8
Defpoints
 62
     0
100
AcDbPoint
 10
12.85625880802194
 20
104.2651493887228
 30
0.0
  0
ENDBLK
  5
3EB2
330
3EA5
100
AcDbEntity
  8
0
100
AcDbBlockEnd
  0
BLOCK
  5
3EBD
330
3EB3
100
AcDbEntity
  8
0
100
AcDbBlockBegin
  2
*D31
 70
     1
 10
0.0
 20
0.0
 30
0.0
  3
*D31
  1

  0
LINE
  5
3F49
330
3EB3
100
AcDbEntity
  8
寸法線
 62
     0
370
    -2
100
AcDbLine
 10
109.8562588080219
 20
210.1494886262323
 30
0.0
 11
126.6731711715676
 21
210.1494886262323
 31
0.0
  0
LINE
  5
3F4A
330
3EB3
100
AcDbEntity
  8
寸法線
 62
     0
370
    -2
100
AcDbLine
 10
109.6259815172381
 20
150.1494886262323
 30
0.0
 11
126.6731711715676
 21
150.1494886262323
 31
0.0
  0
LINE
  5
3F4B
330
3EB3
100
AcDbEntity
  8
寸法線
 62
     0
370
    -2
100
AcDbLine
 10
123.6731711715676
 20
207.1494886262323
 30
0.0
 11
123.6731711715676
 21
153.1494886262323
 31
0.0
  0
INSERT
  5
3F4C
330
3EB3
100
AcDbEntity
  8
寸法線
 62
     0
370
    -2
100
AcDbBlockReference
  2
_Closed
 10
123.6731711715676
 20
210.1494886262323
 30
0.0
 41
3.0
 42
3.0
 43
3.0
 50
90.0
  0
INSERT
  5
3F4D
330
3EB3
100
AcDbEntity
  8
寸法線
 62
     0
370
    -2
100
AcDbBlockReference
  2
_Closed
 10
123.6731711715676
 20
150.1494886262323
 30
0.0
 41
3.0
 42
3.0
 43
3.0
 50
270.0
  0
MTEXT
  5
3F4E
330
3EB3
100
AcDbEntity
  8
寸法線
 62
     0
100
AcDbMText
 10
120.1731711715676
 20
180.1494886262323
 30
0.0
 40
5.0
 41
0.0
 71
     5
 72
     1
  1
57.3
  7
OKANO
 11
0.0000000000000001
 21
1.0
 31
0.0
 73
     1
 44
1.0
  0
POINT
  5
3F4F
330
3EB3
100
AcDbEntity
  8
Defpoints
 62
     0
100
AcDbPoint
 10
107.8562588080219
 20
210.1494886262323
 30
0.0
  0
POINT
  5
3F50
330
3EB3
100
AcDbEntity
  8
Defpoints
 62
     0
100
AcDbPoint
 10
107.6259815172381
 20
150.1494886262323
 30
0.0
  0
POINT
  5
3F51
330
3EB3
100
AcDbEntity
  8
Defpoints
 62
     0
100
AcDbPoint
 10
123.6731711715676
 20
150.1494886262323
 30
0.0
  0
ENDBLK
  5
3EBE
330
3EB3
100
AcDbEntity
  8
0
100
AcDbBlockEnd
  0
BLOCK
  5
3EC9
330
3EBF
100
AcDbEntity
  8
0
100
AcDbBlockBegin
  2
*D32
 70
     1
 10
0.0
 20
0.0
 30
0.0
  3
*D32
  1

  0
LINE
  5
3F52
330
3EBF
100
AcDbEntity
  8
寸法線
 62
     0
370
    -2
100
AcDbLine
 10
143.7720005802016
 20
113.1494886262323
 30
0.0
 11
143.7720005802016
 21
93.88305669567841
 31
0.0
  0
LINE
  5
3F53
330
3EBF
100
AcDbEntity
  8
寸法線
 62
     0
370
    -2
100
AcDbLine
 10
203.7720005802016
 20
113.1494886262323
 30
0.0
 11
203.7720005802016
 21
93.88305669567841
 31
0.0
  0
LINE
  5
3F54
330
3EBF
100
AcDbEntity
  8
寸法線
 62
     0
370
    -2
100
AcDbLine
 10
146.7720005802016
 20
96.88305669567842
 30
0.0
 11
200.7720005802016
 21
96.88305669567842
 31
0.0
  0
INSERT
  5
3F55
330
3EBF
100
AcDbEntity
  8
寸法線
 62
     0
370
    -2
100
AcDbBlockReference
  2
_Closed
 10
143.7720005802016
 20
96.88305669567842
 30
0.0
 41
3.0
 42
3.0
 43
3.0
 50
180.0
  0
INSERT
  5
3F56
330
3EBF
100
AcDbEntity
  8
寸法線
 62
     0
370
    -2
100
AcDbBlockReference
  2
_Closed
 10
203.7720005802016
 20
96.88305669567842
 30
0.0
 41
3.0
 42
3.0
 43
3.0
  0
MTEXT
  5
3F57
330
3EBF
100
AcDbEntity
  8
寸法線
 62
     0
100
AcDbMText
 10
173.7720005802016
 20
100.3830566956784
 30
0.0
 40
5.0
 41
0.0
 71
     5
 72
     1
  1
57.3
  7
OKANO
 73
     1
 44
1.0
  0
POINT
  5
3F58
330
3EBF
100
AcDbEntity
  8
Defpoints
 62
     0
100
AcDbPoint
 10
143.7720005802016
 20
115.1494886262323
 30
0.0
  0
POINT
  5
3F59
330
3EBF
100
AcDbEntity
  8
Defpoints
 62
     0
100
AcDbPoint
 10
203.7720005802016
 20
115.1494886262323
 30
0.0
  0
POINT
  5
3F5A
330
3EBF
100
AcDbEntity
  8
Defpoints
 62
     0
100
AcDbPoint
 10
203.7720005802016
 20
96.88305669567842
 30
0.0
  0
ENDBLK
  5
3ECA
330
3EBF
100
AcDbEntity
  8
0
100
AcDbBlockEnd
  0
BLOCK
  5
3ED5
330
3ECB
100
AcDbEntity
  8
0
100
AcDbBlockBegin
  2
*D33
 70
     1
 10
0.0
 20
0.0
 30
0.0
  3
*D33
  1

  0
LINE
  5
3F5B
330
3ECB
100
AcDbEntity
  8
寸法線
 62
     0
370
    -2
100
AcDbLine
 10
99.85625880802196
 20
150.1494886262323
 30
0.0
 11
107.6259815172381
 21
150.1494886262323
 31
0.0
  0
LINE
  5
3F5C
330
3ECB
100
AcDbEntity
  8
寸法線
 62
     0
370
    -2
100
AcDbLine
 10
74.85625880802195
 20
125.1494886262323
 30
0.0
 11
107.6259815172381
 21
125.1494886262322
 31
0.0
  0
LINE
  5
3F5D
330
3ECB
100
AcDbEntity
  8
寸法線
 62
     0
370
    -2
100
AcDbLine
 10
104.6259815172381
 20
147.1494886262323
 30
0.0
 11
104.6259815172381
 21
128.1494886262322
 31
0.0
  0
INSERT
  5
3F5E
330
3ECB
100
AcDbEntity
  8
寸法線
 62
     0
370
    -2
100
AcDbBlockReference
  2
_Closed
 10
104.6259815172381
 20
150.1494886262323
 30
0.0
 41
3.0
 42
3.0
 43
3.0
 50
90.0
  0
INSERT
  5
3F5F
330
3ECB
100
AcDbEntity
  8
寸法線
 62
     0
370
    -2
100
AcDbBlockReference
  2
_Closed
 10
104.6259815172381
 20
125.1494886262322
 30
0.0
 41
3.0
 42
3.0
 43
3.0
 50
270.0
  0
MTEXT
  5
3F60
330
3ECB
100
AcDbEntity
  8
寸法線
 62
     0
100
AcDbMText
 10
101.1254893912539
 20
137.6494886262323
 30
0.0
 40
5.0
 41
0.0
 71
     5
 72
     1
  1
25
  7
OKANO
 11
0.0000000000000001
 21
1.0
 31
0.0
 73
     1
 44
1.0
  0
POINT
  5
3F61
330
3ECB
100
AcDbEntity
  8
Defpoints
 62
     0
100
AcDbPoint
 10
97.85625880802195
 20
150.1494886262323
 30
0.0
  0
POINT
  5
3F62
330
3ECB
100
AcDbEntity
  8
Defpoints
 62
     0
100
AcDbPoint
 10
72.85625880802195
 20
125.1494886262323
 30
0.0
  0
POINT
  5
3F63
330
3ECB
100
AcDbEntity
  8
Defpoints
 62
     0
100
AcDbPoint
 10
104.6259815172381
 20
125.1494886262322
 30
0.0
  0
ENDBLK
  5
3ED6
330
3ECB
100
AcDbEntity
  8
0
100
AcDbBlockEnd
  0
BLOCK
  5
3EE1
330
3ED7
100
AcDbEntity
  8
0
100
AcDbBlockBegin
  2
*D34
 70
     1
 10
0.0
 20
0.0
 30
0.0
  3
*D34
  1

  0
LINE
  5
3F64
330
3ED7
100
AcDbEntity
  8
寸法線
 62
     0
370
    -2
100
AcDbLine
 10
72.85625880802195
 20
123.1494886262322
 30
0.0
 11
72.85625880802195
 21
116.6533771457535
 31
0.0
  0
LINE
  5
3F65
330
3ED7
100
AcDbEntity
  8
寸法線
 62
     0
370
    -2
100
AcDbLine
 10
97.85625880802195
 20
148.1494886262323
 30
0.0
 11
97.85625880802195
 21
116.6533771457535
 31
0.0
  0
LINE
  5
3F66
330
3ED7
100
AcDbEntity
  8
寸法線
 62
     0
370
    -2
100
AcDbLine
 10
75.85625880802195
 20
119.6533771457535
 30
0.0
 11
94.85625880802194
 21
119.6533771457535
 31
0.0
  0
INSERT
  5
3F67
330
3ED7
100
AcDbEntity
  8
寸法線
 62
     0
370
    -2
100
AcDbBlockReference
  2
_Closed
 10
72.85625880802195
 20
119.6533771457535
 30
0.0
 41
3.0
 42
3.0
 43
3.0
 50
180.0
  0
INSERT
  5
3F68
330
3ED7
100
AcDbEntity
  8
寸法線
 62
     0
370
    -2
100
AcDbBlockReference
  2
_Closed
 10
97.85625880802195
 20
119.6533771457535
 30
0.0
 41
3.0
 42
3.0
 43
3.0
  0
MTEXT
  5
3F69
330
3ED7
100
AcDbEntity
  8
寸法線
 62
     0
100
AcDbMText
 10
85.35625880802195
 20
123.1538692717378
 30
0.0
 40
5.0
 41
0.0
 71
     5
 72
     1
  1
25
  7
OKANO
 73
     1
 44
1.0
  0
POINT
  5
3F6A
330
3ED7
100
AcDbEntity
  8
Defpoints
 62
     0
100
AcDbPoint
 10
72.85625880802195
 20
125.1494886262322
 30
0.0
  0
POINT
  5
3F6B
330
3ED7
100
AcDbEntity
  8
Defpoints
 62
     0
100
AcDbPoint
 10
97.85625880802195
 20
150.1494886262323
 30
0.0
  0
POINT
  5
3F6C
330
3ED7
100
AcDbEntity
  8
Defpoints
 62
     0
100
AcDbPoint
 10
97.85625880802195
 20
119.6533771457535
 30
0.0
  0
ENDBLK
  5
3EE2
330
3ED7
100
AcDbEntity
  8
0
100
AcDbBlockEnd
  0
BLOCK
  5
3EEF
330
3EE3
100
AcDbEntity
  8
0
100
AcDbBlockBegin
  2
*D35
 70
     1
 10
0.0
 20
0.0
 30
0.0
  3
*D35
  1

  0
LINE
  5
3F6D
330
3EE3
100
AcDbEntity
  8
寸法線
 62
     0
370
    -2
100
AcDbLine
 10
72.85625880802195
 20
113.1494886262323
 30
0.0
 11
72.85625880802195
 21
101.2651493887228
 31
0.0
  0
LINE
  5
3F6E
330
3EE3
100
AcDbEntity
  8
寸法線
 62
     0
370
    -2
100
AcDbLine
 10
67.85625880802195
 20
113.1494886262323
 30
0.0
 11
67.85625880802195
 21
101.2651493887228
 31
0.0
  0
LINE
  5
3F6F
330
3EE3
100
AcDbEntity
  8
寸法線
 62
     0
370
    -2
100
AcDbLine
 10
75.85625880802195
 20
104.2651493887228
 30
0.0
 11
78.85625880802194
 21
104.2651493887228
 31
0.0
  0
LINE
  5
3F70
330
3EE3
100
AcDbEntity
  8
寸法線
 62
     0
370
    -2
100
AcDbLine
 10
64.85625880802195
 20
104.2651493887228
 30
0.0
 11
61.85625880802195
 21
104.2651493887228
 31
0.0
  0
LINE
  5
3F71
330
3EE3
100
AcDbEntity
  8
寸法線
 62
     0
370
    -2
100
AcDbLine
 10
72.85625880802195
 20
104.2651493887228
 30
0.0
 11
67.85625880802195
 21
104.2651493887228
 31
0.0
  0
INSERT
  5
3F72
330
3EE3
100
AcDbEntity
  8
寸法線
 62
     0
370
    -2
100
AcDbBlockReference
  2
_Closed
 10
72.85625880802195
 20
104.2651493887228
 30
0.0
 41
3.0
 42
3.0
 43
3.0
 50
180.0
  0
INSERT
  5
3F73
330
3EE3
100
AcDbEntity
  8
寸法線
 62
     0
370
    -2
100
AcDbBlockReference
  2
_Closed
 10
67.85625880802195
 20
104.2651493887228
 30
0.0
 41
3.0
 42
3.0
 43
3.0
  0
MTEXT
  5
3F74
330
3EE3
100
AcDbEntity
  8
寸法線
 62
     0
100
AcDbMText
 10
70.35625880802195
 20
107.7651493887228
 30
0.0
 40
5.0
 41
0.0
 71
     5
 72
     1
  1
4
  7
OKANO
 73
     1
 44
1.0
  0
POINT
  5
3F75
330
3EE3
100
AcDbEntity
  8
Defpoints
 62
     0
100
AcDbPoint
 10
72.85625880802195
 20
115.1494886262323
 30
0.0
  0
POINT
  5
3F76
330
3EE3
100
AcDbEntity
  8
Defpoints
 62
     0
100
AcDbPoint
 10
67.85625880802195
 20
115.1494886262323
 30
0.0
  0
POINT
  5
3F77
330
3EE3
100
AcDbEntity
  8
Defpoints
 62
     0
100
AcDbPoint
 10
67.85625880802195
 20
104.2651493887228
 30
0.0
  0
ENDBLK
  5
3EF0
330
3EE3
100
AcDbEntity
  8
0
100
AcDbBlockEnd
  0
BLOCK
  5
3EFA
330
3EF1
100
AcDbEntity
  8
0
100
AcDbBlockBegin
  2
*D36
 70
     1
 10
0.0
 20
0.0
 30
0.0
  3
*D36
  1

  0
LINE
  5
3F78
330
3EF1
100
AcDbEntity
  8
寸法線
 62
     0
370
    -2
100
AcDbLine
 10
94.41561336382667
 20
165.9795006052851
 30
0.0
 11
81.17889454650216
 21
149.8964748855704
 31
0.0
  0
LINE
  5
3F79
330
3EF1
100
AcDbEntity
  8
寸法線
 62
     0
370
    -2
100
AcDbLine
 10
73.55319735839398
 20
140.6310152426126
 30
0.0
 11
71.64677306136693
 21
138.3146503318732
 31
0.0
  0
MTEXT
  5
3F7A
330
3EF1
100
AcDbEntity
  8
寸法線
 62
     0
100
AcDbMText
 10
88.84864112040702
 20
164.72314903263
 30
0.0
 40
5.0
 41
0.0
 71
     5
 72
     1
  1
\U+22056
  7
OKANO
 11
0.6354747656756823
 21
0.7721216369131465
 31
0.0
 73
     1
 44
1.0
  0
LINE
  5
3F7B
330
3EF1
100
AcDbEntity
  8
寸法線
 62
     0
370
    -2
100
AcDbLine
 10
75.45962165542102
 20
142.947380153352
 30
0.0
 11
79.27247024947513
 21
147.5801099748309
 31
0.0
  0
INSERT
  5
3F7C
330
3EF1
100
AcDbEntity
  8
寸法線
 62
     0
370
    -2
100
AcDbBlockReference
  2
_Closed
 10
75.45962165542102
 20
142.947380153352
 30
0.0
 41
3.0
 42
3.0
 43
3.0
 50
50.54479415024471
  0
INSERT
  5
3F7D
330
3EF1
100
AcDbEntity
  8
寸法線
 62
     0
370
    -2
100
AcDbBlockReference
  2
_Closed
 10
79.27247024947513
 20
147.5801099748309
 30
0.0
 41
3.0
 42
3.0
 43
3.0
 50
230.5447941502447
  0
POINT
  5
3F7E
330
3EF1
100
AcDbEntity
  8
Defpoints
 62
     0
100
AcDbPoint
 10
79.27247024947513
 20
147.5801099748309
 30
0.0
  0
POINT
  5
3F7F
330
3EF1
100
AcDbEntity
  8
Defpoints
 62
     0
100
AcDbPoint
 10
75.45962165542102
 20
142.947380153352
 30
0.0
  0
ENDBLK
  5
3EFB
330
3EF1
100
AcDbEntity
  8
0
100
AcDbBlockEnd
  0
BLOCK
  5
3F08
330
3EFC
100
AcDbEntity
  8
0
100
AcDbBlockBegin
  2
*D37
 70
     1
 10
0.0
 20
0.0
 30
0.0
  3
*D37
  1

  0
LINE
  5
3F80
330
3EFC
100
AcDbEntity
  8
寸法線
 62
     0
370
    -2
100
AcDbLine
 10
171.2720005802016
 20
123.1494886262323
 30
0.0
 11
171.2720005802016
 21
113.6700919864386
 31
0.0
  0
LINE
  5
3F81
330
3EFC
100
AcDbEntity
  8
寸法線
 62
     0
370
    -2
100
AcDbLine
 10
176.2720005802016
 20
123.1494886262323
 30
0.0
 11
176.2720005802016
 21
113.6700919864386
 31
0.0
  0
LINE
  5
3F82
330
3EFC
100
AcDbEntity
  8
寸法線
 62
     0
370
    -2
100
AcDbLine
 10
168.2720005802016
 20
116.6700919864385
 30
0.0
 11
165.2720005802016
 21
116.6700919864385
 31
0.0
  0
LINE
  5
3F83
330
3EFC
100
AcDbEntity
  8
寸法線
 62
     0
370
    -2
100
AcDbLine
 10
179.2720005802016
 20
116.6700919864385
 30
0.0
 11
182.2720005802016
 21
116.6700919864385
 31
0.0
  0
LINE
  5
3F84
330
3EFC
100
AcDbEntity
  8
寸法線
 62
     0
370
    -2
100
AcDbLine
 10
171.2720005802016
 20
116.6700919864385
 30
0.0
 11
176.2720005802016
 21
116.6700919864385
 31
0.0
  0
INSERT
  5
3F85
330
3EFC
100
AcDbEntity
  8
寸法線
 62
     0
370
    -2
100
AcDbBlockReference
  2
_Closed
 10
171.2720005802016
 20
116.6700919864385
 30
0.0
 41
3.0
 42
3.0
 43
3.0
  0
INSERT
  5
3F86
330
3EFC
100
AcDbEntity
  8
寸法線
 62
     0
370
    -2
100
AcDbBlockReference
  2
_Closed
 10
176.2720005802016
 20
116.6700919864385
 30
0.0
 41
3.0
 42
3.0
 43
3.0
 50
180.0
  0
MTEXT
  5
3F87
330
3EFC
100
AcDbEntity
  8
寸法線
 62
     0
100
AcDbMText
 10
173.7720005802016
 20
120.1700919864385
 30
0.0
 40
5.0
 41
0.0
 71
     5
 72
     1
  1
4
  7
OKANO
 73
     1
 44
1.0
  0
POINT
  5
3F88
330
3EFC
100
AcDbEntity
  8
Defpoints
 62
     0
100
AcDbPoint
 10
171.2720005802016
 20
125.1494886262323
 30
0.0
  0
POINT
  5
3F89
330
3EFC
100
AcDbEntity
  8
Defpoints
 62
     0
100
AcDbPoint
 10
176.2720005802016
 20
125.1494886262323
 30
0.0
  0
POINT
  5
3F8A
330
3EFC
100
AcDbEntity
  8
Defpoints
 62
     0
100
AcDbPoint
 10
176.2720005802016
 20
116.6700919864385
 30
0.0
  0
ENDBLK
  5
3F09
330
3EFC
100
AcDbEntity
  8
0
100
AcDbBlockEnd
  0
BLOCK
  5
408C
330
4082
100
AcDbEntity
  8
0
100
AcDbBlockBegin
  2
*D38
 70
     1
 10
0.0
 20
0.0
 30
0.0
  3
*D38
  1

  0
LINE
  5
40A4
330
4082
100
AcDbEntity
  8
寸法線
 62
     0
370
    -2
100
AcDbLine
 10
431.6195623655167
 20
-132.8793510078207
 30
0.0
 11
437.3048593501482
 21
-132.8793510078207
 31
0.0
  0
LINE
  5
40A5
330
4082
100
AcDbEntity
  8
寸法線
 62
     0
370
    -2
100
AcDbLine
 10
409.3713237918278
 20
-48.16982028593969
 30
0.0
 11
437.3048593501482
 21
-48.1698202859397
 31
0.0
  0
LINE
  5
40A6
330
4082
100
AcDbEntity
  8
寸法線
 62
     0
370
    -2
100
AcDbLine
 10
434.3048593501482
 20
-129.8793510078207
 30
0.0
 11
434.3048593501483
 21
-51.16982028593969
 31
0.0
  0
INSERT
  5
40A7
330
4082
100
AcDbEntity
  8
寸法線
 62
     0
370
    -2
100
AcDbBlockReference
  2
_Closed
 10
434.3048593501482
 20
-132.8793510078207
 30
0.0
 41
3.0
 42
3.0
 43
3.0
 50
270.0
  0
INSERT
  5
40A8
330
4082
100
AcDbEntity
  8
寸法線
 62
     0
370
    -2
100
AcDbBlockReference
  2
_Closed
 10
434.3048593501483
 20
-48.1698202859397
 30
0.0
 41
3.0
 42
3.0
 43
3.0
 50
90.0
  0
MTEXT
  5
40A9
330
4082
100
AcDbEntity
  8
寸法線
 62
     0
100
AcDbMText
 10
430.8048593501482
 20
-90.52458564688015
 30
0.0
 40
5.0
 41
0.0
 71
     5
 72
     1
  1
85
  7
OKANO
 11
0.0000000000000001
 21
1.0
 31
0.0
 73
     1
 44
1.0
  0
POINT
  5
40AA
330
4082
100
AcDbEntity
  8
Defpoints
 62
     0
100
AcDbPoint
 10
429.6195623655166
 20
-132.8793510078207
 30
0.0
  0
POINT
  5
40AB
330
4082
100
AcDbEntity
  8
Defpoints
 62
     0
100
AcDbPoint
 10
407.3713237918277
 20
-48.16982028593969
 30
0.0
  0
POINT
  5
40AC
330
4082
100
AcDbEntity
  8
Defpoints
 62
     0
100
AcDbPoint
 10
434.3048593501483
 20
-48.1698202859397
 30
0.0
  0
ENDBLK
  5
408D
330
4082
100
AcDbEntity
  8
0
100
AcDbBlockEnd
  0
BLOCK
  5
4099
330
408F
100
AcDbEntity
  8
0
100
AcDbBlockBegin
  2
*D39
 70
     1
 10
0.0
 20
0.0
 30
0.0
  3
*D39
  1

  0
LINE
  5
409B
330
408F
100
AcDbEntity
  8
寸法線
 62
     0
370
    -2
100
AcDbLine
 10
603.1007384689503
 20
-132.5439503883553
 30
0.0
 11
607.6935253009598
 21
-132.5439503883553
 31
0.0
  0
LINE
  5
409C
330
408F
100
AcDbEntity
  8
寸法線
 62
     0
370
    -2
100
AcDbLine
 10
551.4964327051386
 20
-38.06438322391148
 30
0.0
 11
607.6935253009598
 21
-38.0643832239115
 31
0.0
  0
LINE
  5
409D
330
408F
100
AcDbEntity
  8
寸法線
 62
     0
370
    -2
100
AcDbLine
 10
604.6935253009599
 20
-129.5439503883553
 30
0.0
 11
604.6935253009599
 21
-41.06438322391149
 31
0.0
  0
INSERT
  5
409E
330
408F
100
AcDbEntity
  8
寸法線
 62
     0
370
    -2
100
AcDbBlockReference
  2
_Closed
 10
604.6935253009599
 20
-132.5439503883553
 30
0.0
 41
3.0
 42
3.0
 43
3.0
 50
270.0
  0
INSERT
  5
409F
330
408F
100
AcDbEntity
  8
寸法線
 62
     0
370
    -2
100
AcDbBlockReference
  2
_Closed
 10
604.6935253009599
 20
-38.06438322391149
 30
0.0
 41
3.0
 42
3.0
 43
3.0
 50
90.0
  0
MTEXT
  5
40A0
330
408F
100
AcDbEntity
  8
寸法線
 62
     0
100
AcDbMText
 10
601.1935253009599
 20
-85.30416680613331
 30
0.0
 40
5.0
 41
0.0
 71
     5
 72
     1
  1
95
  7
OKANO
 11
0.0000000000000001
 21
1.0
 31
0.0
 73
     1
 44
1.0
  0
POINT
  5
40A1
330
408F
100
AcDbEntity
  8
Defpoints
 62
     0
100
AcDbPoint
 10
601.1007384689503
 20
-132.5439503883553
 30
0.0
  0
POINT
  5
40A2
330
408F
100
AcDbEntity
  8
Defpoints
 62
     0
100
AcDbPoint
 10
549.4964327051386
 20
-38.06438322391148
 30
0.0
  0
POINT
  5
40A3
330
408F
100
AcDbEntity
  8
Defpoints
 62
     0
100
AcDbPoint
 10
604.6935253009599
 20
-38.06438322391149
 30
0.0
  0
ENDBLK
  5
409A
330
408F
100
AcDbEntity
  8
0
100
AcDbBlockEnd
  0
BLOCK
  5
4106
330
40FD
100
AcDbEntity
  8
0
100
AcDbBlockBegin
  2
*D43
 70
     1
 10
0.0
 20
0.0
 30
0.0
  3
*D43
  1

  0
LINE
  5
411E
330
40FD
100
AcDbEntity
  8
寸法線
 62
     0
370
    -2
100
AcDbLine
 10
326.1106722996771
 20
86.51211068263709
 30
0.0
 11
310.3953543099283
 21
90.41496038079435
 31
0.0
  0
LINE
  5
411F
330
40FD
100
AcDbEntity
  8
寸法線
 62
     0
370
    -2
100
AcDbLine
 10
247.311630083612
 20
106.0816044929858
 30
0.0
 11
244.8853329979844
 21
106.6841677280701
 31
0.0
  0
MTEXT
  5
4120
330
40FD
100
AcDbEntity
  8
寸法線
 62
     0
370
    25
100
AcDbMText
 10
322.923149097549
 20
89.23567834948418
 30
0.0
 40
2.5
 41
0.0
 71
     5
 72
     1
  1
\U+220560
 11
0.9705188342510213
 21
-0.2410252940337152
 31
0.0
 73
     1
 44
1.0
  0
LINE
  5
4121
330
40FD
100
AcDbEntity
  8
寸法線
 62
     0
370
    -2
100
AcDbLine
 10
249.7379271692395
 20
105.4790412579015
 30
0.0
 11
307.9690572243007
 21
91.01752361587864
 31
0.0
  0
SOLID
  5
4122
330
40FD
100
AcDbEntity
  8
寸法線
 62
     0
100
AcDbTrace
 10
247.4120572894593
 20
106.4859873405904
 30
0.0
 11
247.2112028777646
 21
105.6772216453812
 31
0.0
 12
249.7379271692395
 22
105.4790412579015
 32
0.0
 13
249.7379271692395
 23
105.4790412579015
 33
0.0
  0
SOLID
  5
4123
330
40FD
100
AcDbEntity
  8
寸法線
 62
     0
100
AcDbTrace
 10
310.4957815157757
 20
90.81934322839893
 30
0.0
 11
310.2949271040809
 21
90.01057753318978
 31
0.0
 12
307.9690572243007
 22
91.01752361587864
 32
0.0
 13
307.9690572243007
 23
91.01752361587864
 33
0.0
  0
POINT
  5
4124
330
40FD
100
AcDbEntity
  8
Defpoints
 62
     0
100
AcDbPoint
 10
307.9690572243007
 20
91.01752361587864
 30
0.0
  0
POINT
  5
4125
330
40FD
100
AcDbEntity
  8
Defpoints
 62
     0
100
AcDbPoint
 10
249.7379271692395
 20
105.4790412579015
 30
0.0
  0
ENDBLK
  5
4107
330
40FD
100
AcDbEntity
  8
0
100
AcDbBlockEnd
  0
BLOCK
  5
4111
330
4108
100
AcDbEntity
  8
0
100
AcDbBlockBegin
  2
*D44
 70
     1
 10
0.0
 20
0.0
 30
0.0
  3
*D44
  1

  0
LINE
  5
4126
330
4108
100
AcDbEntity
  8
寸法線
 62
     0
370
    -2
100
AcDbLine
 10
323.3701908222911
 20
113.4778807086846
 30
0.0
 11
302.5075590502951
 21
106.3405702029652
 31
0.0
  0
LINE
  5
4127
330
4108
100
AcDbEntity
  8
寸法線
 62
     0
370
    -2
100
AcDbLine
 10
255.1994253432451
 20
90.15599467081495
 30
0.0
 11
252.8340186578926
 21
89.34676589420744
 31
0.0
  0
MTEXT
  5
4128
330
4108
100
AcDbEntity
  8
寸法線
 62
     0
370
    25
100
AcDbMText
 10
319.0180419880274
 20
113.9706568264037
 30
0.0
 40
2.5
 41
0.0
 71
     5
 72
     1
  1
\U+220545
 11
0.9461626741410007
 21
0.3236915106430043
 31
0.0
 73
     1
 44
1.0
  0
LINE
  5
4129
330
4108
100
AcDbEntity
  8
寸法線
 62
     0
370
    -2
100
AcDbLine
 10
257.5648320285976
 20
90.96522344742245
 30
0.0
 11
300.1421523649426
 21
105.5313414263576
 31
0.0
  0
SOLID
  5
412A
330
4108
100
AcDbEntity
  8
寸法線
 62
     0
100
AcDbTrace
 10
255.0645538804772
 20
90.55022911837371
 30
0.0
 11
255.334296806013
 21
89.76176022325621
 31
0.0
 12
257.5648320285976
 22
90.96522344742245
 32
0.0
 13
257.5648320285976
 23
90.96522344742245
 33
0.0
  0
SOLID
  5
412B
330
4108
100
AcDbEntity
  8
寸法線
 62
     0
100
AcDbTrace
 10
302.3726875875272
 20
106.7348046505239
 30
0.0
 11
302.642430513063
 21
105.9463357554064
 31
0.0
 12
300.1421523649426
 22
105.5313414263576
 32
0.0
 13
300.1421523649426
 23
105.5313414263576
 33
0.0
  0
POINT
  5
412C
330
4108
100
AcDbEntity
  8
Defpoints
 62
     0
100
AcDbPoint
 10
300.1421523649426
 20
105.5313414263576
 30
0.0
  0
POINT
  5
412D
330
4108
100
AcDbEntity
  8
Defpoints
 62
     0
100
AcDbPoint
 10
257.5648320285976
 20
90.96522344742245
 30
0.0
  0
ENDBLK
  5
4112
330
4108
100
AcDbEntity
  8
0
100
AcDbBlockEnd
  0
BLOCK
  5
411C
330
4113
100
AcDbEntity
  8
0
100
AcDbBlockBegin
  2
*D45
 70
     1
 10
0.0
 20
0.0
 30
0.0
  3
*D45
  1

  0
LINE
  5
412E
330
4113
100
AcDbEntity
  8
寸法線
 62
     0
370
    -2
100
AcDbLine
 10
292.0836782114753
 20
113.6887041429429
 30
0.0
 11
284.2214775060153
 21
104.5130437028706
 31
0.0
  0
LINE
  5
412F
330
4113
100
AcDbEntity
  8
寸法線
 62
     0
370
    -2
100
AcDbLine
 10
273.4855068875251
 20
91.98352117090974
 30
0.0
 11
271.8588446726024
 21
90.08510866606718
 31
0.0
  0
MTEXT
  5
4130
330
4113
100
AcDbEntity
  8
寸法線
 62
     0
370
    25
100
AcDbMText
 10
287.5420995875747
 20
111.27007683652
 30
0.0
 40
2.5
 41
0.0
 71
     5
 72
     1
  1
\U+220511.5
 11
0.6506648859691029
 21
0.7593650019370227
 31
0.0
 73
     1
 44
1.0
  0
LINE
  5
4131
330
4113
100
AcDbEntity
  8
寸法線
 62
     0
370
    -2
100
AcDbLine
 10
275.1121691024479
 20
93.8819336757523
 30
0.0
 11
282.5948152910925
 21
102.614631198028
 31
0.0
  0
SOLID
  5
4132
330
4113
100
AcDbEntity
  8
寸法線
 62
     0
100
AcDbTrace
 10
273.1691048033847
 20
92.25463154006353
 30
0.0
 11
273.8019089716655
 21
91.71241080175596
 31
0.0
 12
275.1121691024479
 22
93.8819336757523
 32
0.0
 13
275.1121691024479
 23
93.8819336757523
 33
0.0
  0
SOLID
  5
4133
330
4113
100
AcDbEntity
  8
寸法線
 62
     0
100
AcDbTrace
 10
283.9050754218749
 20
104.7841540720243
 30
0.0
 11
284.5378795901557
 21
104.2419333337168
 31
0.0
 12
282.5948152910925
 22
102.614631198028
 32
0.0
 13
282.5948152910925
 23
102.614631198028
 33
0.0
  0
POINT
  5
4134
330
4113
100
AcDbEntity
  8
Defpoints
 62
     0
100
AcDbPoint
 10
282.5948152910925
 20
102.614631198028
 30
0.0
  0
POINT
  5
4135
330
4113
100
AcDbEntity
  8
Defpoints
 62
     0
100
AcDbPoint
 10
275.1121691024479
 20
93.8819336757523
 30
0.0
  0
ENDBLK
  5
411D
330
4113
100
AcDbEntity
  8
0
100
AcDbBlockEnd
  0
BLOCK
  5
415B
330
4151
100
AcDbEntity
  8
0
100
AcDbBlockBegin
  2
*D46
 70
     1
 10
0.0
 20
0.0
 30
0.0
  3
*D46
  1

  0
LINE
  5
415D
330
4151
100
AcDbEntity
  8
寸法線
 62
     0
370
    -2
100
AcDbLine
 10
245.942042716236
 20
-133.0853102204942
 30
0.0
 11
239.1001958135634
 21
-133.0853102204942
 31
0.0
  0
LINE
  5
415E
330
4151
100
AcDbEntity
  8
寸法線
 62
     0
370
    -2
100
AcDbLine
 10
265.4318202858299
 20
-101.1595852192414
 30
0.0
 11
239.1001958135634
 21
-101.1595852192414
 31
0.0
  0
LINE
  5
415F
330
4151
100
AcDbEntity
  8
寸法線
 62
     0
370
    -2
100
AcDbLine
 10
242.1001958135634
 20
-130.0853102204942
 30
0.0
 11
242.1001958135634
 21
-104.1595852192414
 31
0.0
  0
INSERT
  5
4160
330
4151
100
AcDbEntity
  8
寸法線
 62
     0
370
    -2
100
AcDbBlockReference
  2
_Closed
 10
242.1001958135634
 20
-133.0853102204942
 30
0.0
 41
3.0
 42
3.0
 43
3.0
 50
270.0
  0
INSERT
  5
4161
330
4151
100
AcDbEntity
  8
寸法線
 62
     0
370
    -2
100
AcDbBlockReference
  2
_Closed
 10
242.1001958135634
 20
-101.1595852192414
 30
0.0
 41
3.0
 42
3.0
 43
3.0
 50
90.0
  0
MTEXT
  5
4162
330
4151
100
AcDbEntity
  8
寸法線
 62
     0
100
AcDbMText
 10
238.6001958135635
 20
-117.1224477198678
 30
0.0
 40
5.0
 41
0.0
 71
     5
 72
     1
  1
40
  7
OKANO
 11
0.0000000000000001
 21
1.0
 31
0.0
 73
     1
 44
1.0
  0
POINT
  5
4163
330
4151
100
AcDbEntity
  8
Defpoints
 62
     0
100
AcDbPoint
 10
247.942042716236
 20
-133.0853102204942
 30
0.0
  0
POINT
  5
4164
330
4151
100
AcDbEntity
  8
Defpoints
 62
     0
100
AcDbPoint
 10
267.4318202858299
 20
-101.1595852192414
 30
0.0
  0
POINT
  5
4165
330
4151
100
AcDbEntity
  8
Defpoints
 62
     0
100
AcDbPoint
 10
242.1001958135634
 20
-101.1595852192414
 30
0.0
  0
ENDBLK
  5
415C
330
4151
100
AcDbEntity
  8
0
100
AcDbBlockEnd
  0
BLOCK
  5
4183
330
4179
100
AcDbEntity
  8
0
100
AcDbBlockBegin
  2
*D47
 70
     1
 10
0.0
 20
0.0
 30
0.0
  3
*D47
  1

  0
LINE
  5
4185
330
4179
100
AcDbEntity
  8
寸法線
 62
     0
370
    -2
100
AcDbLine
 10
505.751097351422
 20
-132.5439503883553
 30
0.0
 11
501.4094850601372
 21
-132.5439503883553
 31
0.0
  0
LINE
  5
4186
330
4179
100
AcDbEntity
  8
寸法線
 62
     0
370
    -2
100
AcDbLine
 10
524.1007384689503
 20
-82.05411383255148
 30
0.0
 11
501.4094850601373
 21
-82.05411383255148
 31
0.0
  0
LINE
  5
4187
330
4179
100
AcDbEntity
  8
寸法線
 62
     0
370
    -2
100
AcDbLine
 10
504.4094850601372
 20
-129.5439503883553
 30
0.0
 11
504.4094850601372
 21
-85.05411383255149
 31
0.0
  0
INSERT
  5
4188
330
4179
100
AcDbEntity
  8
寸法線
 62
     0
370
    -2
100
AcDbBlockReference
  2
_Closed
 10
504.4094850601372
 20
-132.5439503883553
 30
0.0
 41
3.0
 42
3.0
 43
3.0
 50
270.0
  0
INSERT
  5
4189
330
4179
100
AcDbEntity
  8
寸法線
 62
     0
370
    -2
100
AcDbBlockReference
  2
_Closed
 10
504.4094850601372
 20
-82.05411383255148
 30
0.0
 41
3.0
 42
3.0
 43
3.0
 50
90.0
  0
MTEXT
  5
418A
330
4179
100
AcDbEntity
  8
寸法線
 62
     0
100
AcDbMText
 10
500.9094850601372
 20
-107.2990321104533
 30
0.0
 40
5.0
 41
0.0
 71
     5
 72
     1
  1
60
  7
OKANO
 11
0.0000000000000001
 21
1.0
 31
0.0
 73
     1
 44
1.0
  0
POINT
  5
418B
330
4179
100
AcDbEntity
  8
Defpoints
 62
     0
100
AcDbPoint
 10
507.751097351422
 20
-132.5439503883553
 30
0.0
  0
POINT
  5
418C
330
4179
100
AcDbEntity
  8
Defpoints
 62
     0
100
AcDbPoint
 10
526.1007384689503
 20
-82.05411383255148
 30
0.0
  0
POINT
  5
418D
330
4179
100
AcDbEntity
  8
Defpoints
 62
     0
100
AcDbPoint
 10
504.4094850601372
 20
-82.05411383255148
 30
0.0
  0
ENDBLK
  5
4184
330
4179
100
AcDbEntity
  8
0
100
AcDbBlockEnd
  0
ENDSEC
  0
SECTION
  2
ENTITIES
  0
LINE
  5
290E
330
1F
100
AcDbEntity
  8
太線
100
AcDbLine
 10
105.2663459017367
 20
-28.46439797545474
 30
0.0
 11
40.26634590173671
 21
-28.46439797545474
 31
0.0
  0
LINE
  5
2912
330
1F
100
AcDbEntity
  8
想像線
100
AcDbLine
 10
105.2663459017367
 20
26.53560202454525
 30
0.0
 11
70.85612264573706
 21
26.53560202454525
 31
0.0
  0
LINE
  5
2913
330
1F
100
AcDbEntity
  8
想像線
100
AcDbLine
 10
70.85612264573706
 20
26.53560202454525
 30
0.0
 11
70.26634590173671
 21
-23.46439797545474
 31
0.0
  0
LINE
  5
2914
330
1F
100
AcDbEntity
  8
想像線
100
AcDbLine
 10
70.26634590173671
 20
-23.46439797545474
 30
0.0
 11
105.2663459017367
 21
-23.46439797545474
 31
0.0
  0
CIRCLE
  5
29D7
330
1F
100
AcDbEntity
  8
太線
100
AcDbCircle
 10
40.26634590173671
 20
1.535602024545255
 30
0.0
 40
30.0
  0
CIRCLE
  5
29D8
330
1F
100
AcDbEntity
  8
太線
100
AcDbCircle
 10
40.26634590173671
 20
1.535602024545255
 30
0.0
 40
25.0
  0
LINE
  5
29EC
330
1F
100
AcDbEntity
  8
太線
100
AcDbLine
 10
70.26634590173671
 20
31.53560202454525
 30
0.0
 11
105.2663459017367
 21
31.53560202454525
 31
0.0
  0
LINE
  5
2A72
330
1F
100
AcDbEntity
  8
太線
100
AcDbLine
 10
70.16199775949022
 20
4.035602024545255
 30
0.0
 11
95.26634590173671
 21
4.035602024545255
 31
0.0
  0
LINE
  5
2A73
330
1F
100
AcDbEntity
  8
太線
100
AcDbLine
 10
95.26634590173671
 20
4.035602024545255
 30
0.0
 11
95.26634590173671
 21
-0.9643979754547444
 31
0.0
  0
LINE
  5
2A74
330
1F
100
AcDbEntity
  8
太線
100
AcDbLine
 10
95.26634590173671
 20
-0.9643979754547444
 30
0.0
 11
70.85612264573706
 21
-0.9643979754547444
 31
0.0
  0
LINE
  5
2A7B
330
1F
100
AcDbEntity
  8
破線
100
AcDbLine
 10
78.49306385225782
 20
-0.9643979754547444
 30
0.0
 11
78.49306385225782
 21
4.035602024545255
 31
0.0
  0
LINE
  5
2ABD
330
1F
100
AcDbEntity
  8
破線
100
AcDbLine
 10
72.06032377623069
 20
-0.9643979754547444
 30
0.0
 11
72.06032377623069
 21
4.035602024545255
 31
0.0
  0
CIRCLE
  5
2AC8
330
1F
100
AcDbEntity
  8
細線
100
AcDbCircle
 10
40.26634590173671
 20
1.535602024545255
 30
0.0
 40
24.03857690457265
  0
LINE
  5
2AD3
330
1F
100
AcDbEntity
  8
太線
100
AcDbLine
 10
105.2663459017367
 20
31.53560202454525
 30
0.0
 11
105.2663459017367
 21
-28.46439797545474
 31
0.0
  0
LINE
  5
2C20
330
1F
100
AcDbEntity
  8
想像線
100
AcDbLine
 10
40.26634590173671
 20
-22.50297488002741
 30
0.0
 11
70.26634590173671
 21
-22.50297488002741
 31
0.0
  0
LINE
  5
2C21
330
1F
100
AcDbEntity
  8
想像線
100
AcDbLine
 10
40.26634590173671
 20
25.57417892911792
 30
0.0
 11
70.84478214608049
 21
25.57417892911792
 31
0.0
  0
LINE
  5
2E5A
330
1F
100
AcDbEntity
  8
太線
100
AcDbLine
 10
20.26634590173671
 20
-20.82507775045266
 30
0.0
 11
20.26634590173671
 21
-27.46439797545477
 31
0.0
  0
LINE
  5
2E5B
330
1F
100
AcDbEntity
  8
太線
100
AcDbLine
 10
21.26634590173671
 20
-28.46439797545477
 30
0.0
 11
59.26634590173671
 21
-28.46439797545477
 31
0.0
  0
LINE
  5
2E5C
330
1F
100
AcDbEntity
  8
太線
100
AcDbLine
 10
60.26634590173671
 20
-27.46439797545477
 30
0.0
 11
60.26634590173671
 21
-20.82507775045266
 31
0.0
  0
LINE
  5
2E5D
330
1F
100
AcDbEntity
  8
太線
100
AcDbLine
 10
60.26634590173671
 20
-20.82507775045266
 30
0.0
 11
60.26634590173671
 21
-22.50297488002741
 31
0.0
  0
LINE
  5
2E5E
330
1F
100
AcDbEntity
  8
太線
100
AcDbLine
 10
26.9301852999348
 20
-18.46439797545477
 30
0.0
 11
53.60250650353862
 21
-18.46439797545477
 31
0.0
  0
LINE
  5
2E5F
330
1F
100
AcDbEntity
  8
想像線
100
AcDbLine
 10
30.26634590173671
 20
-18.46439797545477
 30
0.0
 11
30.26634590173671
 21
-28.46439797545477
 31
0.0
  0
LINE
  5
2E60
330
1F
100
AcDbEntity
  8
想像線
100
AcDbLine
 10
34.26634590173671
 20
-18.46439797545477
 30
0.0
 11
34.26634590173671
 21
-27.85827488885288
 31
0.0
  0
LINE
  5
2E61
330
1F
100
AcDbEntity
  8
想像線
100
AcDbLine
 10
40.26634590173671
 20
-18.46439797545477
 30
0.0
 11
40.26634590173671
 21
-28.46439797545474
 31
0.0
  0
LINE
  5
2E62
330
1F
100
AcDbEntity
  8
想像線
100
AcDbLine
 10
46.26634590173671
 20
-18.46439797545477
 30
0.0
 11
46.26634590173671
 21
-27.85827488885288
 31
0.0
  0
LINE
  5
2E63
330
1F
100
AcDbEntity
  8
想像線
100
AcDbLine
 10
50.26634590173671
 20
-18.46439797545477
 30
0.0
 11
50.26634590173671
 21
-28.46439797545477
 31
0.0
  0
ARC
  5
2E89
330
1F
100
AcDbEntity
  8
太線
100
AcDbCircle
 10
20.76634590173671
 20
-27.96439797545477
 30
0.0
 40
0.5
100
AcDbArc
 50
180.0
 51
278.8957952865034
  0
ARC
  5
2E8A
330
1F
100
AcDbEntity
  8
太線
100
AcDbCircle
 10
21.26634590173671
 20
-27.46439797545477
 30
0.0
 40
1.0
100
AcDbArc
 50
262.2979531506369
 51
270.0
  0
ARC
  5
2E8B
330
1F
100
AcDbEntity
  8
太線
100
AcDbCircle
 10
59.26634590173671
 20
-27.46439797545477
 30
0.0
 40
1.0
100
AcDbArc
 50
270.0
 51
0.0
  0
ARC
  5
2E8C
330
1F
100
AcDbEntity
  8
太線
100
AcDbCircle
 10
20.99830272678681
 20
-29.4463548005049
 30
0.0
 40
1.0
100
AcDbArc
 50
82.29795315063654
 51
98.89579528650337
  0
TEXT
  5
30AA
330
1F
100
AcDbEntity
  8
文字
100
AcDbText
 10
135.0742643644946
 20
-196.3963965987631
 30
0.0
 40
5.759999999999999
  1
14-2L100                                                                                                                  
 51
15.0
  7
OKANO
100
AcDbText
  0
TEXT
  5
321C
330
1F
100
AcDbEntity
  8
文字
100
AcDbText
 10
510.4562239445311
 20
-171.1410549385937
 30
0.0
 40
5.759999999999999
  1
水平調整25mm　２ｔ　タイプ                                                                                                                                      
 51
15.0
  7
OKANO
100
AcDbText
  0
TEXT
  5
321D
330
1F
100
AcDbEntity
  8
文字
100
AcDbText
 10
526.3119766719531
 20
-156.8671742122401
 30
0.0
 40
5.759999999999999
  1
15-2L2000B                                                                                                                                                                               
 51
15.0
  7
OKANO
100
AcDbText
  0
ARC
  5
3228
330
1F
100
AcDbEntity
  8
太線
100
AcDbCircle
 10
541.4338357896711
 20
-49.1067729058023
 30
0.0
 40
25.31465050611781
100
AcDbArc
 50
253.1602647809359
 51
285.0511046503695
  0
LINE
  5
3229
330
1F
100
AcDbEntity
  8
太線
100
AcDbLine
 10
556.1007384689503
 20
-74.56292867298373
 30
0.0
 11
531.1007384689503
 21
-74.56292867298373
 31
0.0
  0
LINE
  5
322A
330
1F
100
AcDbEntity
  8
太線
100
AcDbLine
 10
526.1007384689503
 20
-58.56292867298373
 30
0.0
 11
556.1007384689503
 21
-58.56292867298373
 31
0.0
  0
LINE
  5
322B
330
1F
100
AcDbEntity
  8
破線
100
AcDbLine
 10
526.1007384689503
 20
-98.05411383255147
 30
0.0
 11
556.1007384689503
 21
-98.05411383255147
 31
0.0
  0
LINE
  5
322C
330
1F
100
AcDbEntity
  8
太線
100
AcDbLine
 10
556.1007384689503
 20
-114.0541138325514
 30
0.0
 11
531.1007384689503
 21
-114.0541138325514
 31
0.0
  0
ARC
  5
322D
330
1F
100
AcDbEntity
  8
太線
100
AcDbCircle
 10
541.4338357896711
 20
-88.59795806537006
 30
0.0
 40
25.31465050611781
100
AcDbArc
 50
253.1602647809359
 51
285.0511046503695
  0
LINE
  5
322E
330
1F
100
AcDbEntity
  8
想像線
100
AcDbLine
 10
556.1007384689503
 20
-129.1341611460399
 30
0.0
 11
531.1007384689503
 21
-129.1341611460399
 31
0.0
  0
ARC
  5
322F
330
1F
100
AcDbEntity
  8
想像線
100
AcDbCircle
 10
541.4338357896711
 20
-103.6780053788584
 30
0.0
 40
25.31465050611781
100
AcDbArc
 50
253.1602647809359
 51
285.0511046503695
  0
LINE
  5
3230
330
1F
100
AcDbEntity
  8
想像線
100
AcDbLine
 10
526.09757355766
 20
-118.8312025720609
 30
0.0
 11
556.1007384689503
 21
-118.8312025720609
 31
0.0
  0
LINE
  5
3231
330
1F
100
AcDbEntity
  8
太線
100
AcDbLine
 10
601.1007384689503
 20
-132.5439503883553
 30
0.0
 11
481.1007384689503
 21
-132.5439503883553
 31
0.0
  0
LINE
  5
3232
330
1F
100
AcDbEntity
  8
太線
100
AcDbLine
 10
481.1007384689503
 20
-132.5439503883553
 30
0.0
 11
601.1007384689503
 21
-132.5439503883553
 31
0.0
  0
ARC
  5
3233
330
1F
100
AcDbEntity
  8
太線
100
AcDbCircle
 10
541.1007384689503
 20
-148.095242057432
 30
0.0
 40
33.69174736868501
100
AcDbArc
 50
40.72361606748761
 51
139.2763839325123
  0
LINE
  5
3234
330
1F
100
AcDbEntity
  8
太線
100
AcDbLine
 10
515.5669258033006
 20
-126.11438102992
 30
0.0
 11
566.6345511346
 21
-126.11438102992
 31
0.0
  0
LINE
  5
3235
330
1F
100
AcDbEntity
  8
太線
100
AcDbLine
 10
507.751097351422
 20
-127.5439503883553
 30
0.0
 11
574.2101744550743
 21
-127.6889853284075
 31
0.0
  0
LINE
  5
3236
330
1F
100
AcDbEntity
  8
想像線
100
AcDbLine
 10
526.1007384689503
 20
-129.1341611460399
 30
0.0
 11
526.1007384689503
 21
-118.8312025720609
 31
0.0
  0
LINE
  5
3237
330
1F
100
AcDbEntity
  8
想像線
100
AcDbLine
 10
534.1007384689503
 20
-118.8312025720609
 30
0.0
 11
534.1007384689503
 21
-129.1341611460399
 31
0.0
  0
TEXT
  5
3238
330
1F
100
AcDbEntity
  8
文字
100
AcDbText
 10
236.1441003739705
 20
-166.4297398150358
 30
0.0
 40
5.759999999999999
  1
水平調整30mm　500kタイプ                                                                                                                                      
 51
15.0
  7
OKANO
100
AcDbText
  0
TEXT
  5
3239
330
1F
100
AcDbEntity
  8
文字
100
AcDbText
 10
380.2383600988323
 20
-153.3369249597219
 30
0.0
 40
5.759999999999999
  1
15-2L500A(ｱﾝｶｰ）                                                                                                                                                                                 
 51
15.0
  7
OKANO
100
AcDbText
  0
LINE
  5
323A
330
1F
100
AcDbEntity
  8
太線
100
AcDbLine
 10
486.1007384689503
 20
-127.5439503883553
 30
0.0
 11
507.751097351422
 21
-127.5439503883553
 31
0.0
  0
ARC
  5
323B
330
1F
100
AcDbEntity
  8
太線
100
AcDbCircle
 10
486.1007384689503
 20
-132.5439503883553
 30
0.0
 40
5.0
100
AcDbArc
 50
90.0
 51
180.0
  0
LINE
  5
323C
330
1F
100
AcDbEntity
  8
太線
100
AcDbLine
 10
481.1007384689503
 20
-132.5439503883553
 30
0.0
 11
481.1007384689503
 21
-132.5439503883553
 31
0.0
  0
LINE
  5
323D
330
1F
100
AcDbEntity
  8
想像線
100
AcDbLine
 10
492.3271493627724
 20
-127.5439503883553
 30
0.0
 11
492.3271493627724
 21
-132.5439503883553
 31
0.0
  0
LINE
  5
323E
330
1F
100
AcDbEntity
  8
想像線
100
AcDbLine
 10
507.751097351422
 20
-127.5439503883553
 30
0.0
 11
507.751097351422
 21
-132.5439503883553
 31
0.0
  0
LINE
  5
323F
330
1F
100
AcDbEntity
  8
太線
100
AcDbLine
 10
507.751097351422
 20
-126.11438102992
 30
0.0
 11
515.5669258033006
 21
-126.11438102992
 31
0.0
  0
LINE
  5
3240
330
1F
100
AcDbEntity
  8
太線
100
AcDbLine
 10
507.751097351422
 20
-126.11438102992
 30
0.0
 11
507.751097351422
 21
-127.5439503883553
 31
0.0
  0
LINE
  5
3241
330
1F
100
AcDbEntity
  8
想像線
100
AcDbLine
 10
531.1007384689503
 20
-129.1341611460399
 30
0.0
 11
526.1007384689503
 21
-129.1341611460399
 31
0.0
  0
ARC
  5
3242
330
1F
100
AcDbEntity
  8
想像線
100
AcDbCircle
 10
530.3000754245299
 20
-119.4332238212715
 30
0.0
 40
9.574652439182898
100
AcDbArc
 50
242.2559248299449
 51
294.8092894638859
  0
LINE
  5
3249
330
1F
100
AcDbEntity
  8
太線
100
AcDbLine
 10
396.3713237918277
 20
-111.0853102204942
 30
0.0
 11
396.3713237918277
 21
-67.17781833133767
 31
0.0
  0
LINE
  5
324A
330
1F
100
AcDbEntity
  8
細線
100
AcDbLine
 10
397.3713237918277
 20
-48.16982028593969
 30
0.0
 11
397.3713237918277
 21
-67.17781833133767
 31
0.0
  0
LINE
  5
324B
330
1F
100
AcDbEntity
  8
太線
100
AcDbLine
 10
408.3713237918277
 20
-50.8708473434412
 30
0.0
 11
408.3713237918277
 21
-67.17781833133767
 31
0.0
  0
LINE
  5
324C
330
1F
100
AcDbEntity
  8
細線
100
AcDbLine
 10
407.3713237918277
 20
-48.16982028593969
 30
0.0
 11
407.3713237918277
 21
-67.17781833133767
 31
0.0
  0
LINE
  5
324D
330
1F
100
AcDbEntity
  8
太線
100
AcDbLine
 10
397.3611013614216
 20
-94.64551213369754
 30
0.0
 11
394.3611013614216
 21
-94.64551213369754
 31
0.0
  0
LINE
  5
324E
330
1F
100
AcDbEntity
  8
太線
100
AcDbLine
 10
393.3713237918277
 20
-95.27155383549592
 30
0.0
 11
411.3713237918277
 21
-95.27155383549592
 31
0.0
  0
LINE
  5
324F
330
1F
100
AcDbEntity
  8
太線
100
AcDbLine
 10
397.3713237918277
 20
-103.2715538354959
 30
0.0
 11
394.3713237918277
 21
-104.2715538354959
 31
0.0
  0
LINE
  5
3250
330
1F
100
AcDbEntity
  8
太線
100
AcDbLine
 10
395.0933538806157
 20
-110.926850672002
 30
0.0
 11
397.4031471327084
 21
-112.6190877872548
 31
0.0
  0
LINE
  5
3251
330
1F
100
AcDbEntity
  8
破線
100
AcDbLine
 10
408.3713237918277
 20
-122.1644251609823
 30
0.0
 11
396.3713237918277
 21
-122.1644251609823
 31
0.0
  0
LINE
  5
3252
330
1F
100
AcDbEntity
  8
太線
100
AcDbLine
 10
411.5844877758387
 20
-119.0853102204942
 30
0.0
 11
393.1581598078167
 21
-119.0853102204942
 31
0.0
  0
LINE
  5
3253
330
1F
100
AcDbEntity
  8
太線
100
AcDbLine
 10
410.3713237918277
 20
-111.0853102204942
 30
0.0
 11
394.3713237918277
 21
-111.0853102204942
 31
0.0
  0
LINE
  5
3254
330
1F
100
AcDbEntity
  8
太線
100
AcDbLine
 10
410.3713237918277
 20
-104.2715538354959
 30
0.0
 11
394.3713237918277
 21
-104.2715538354959
 31
0.0
  0
LINE
  5
3255
330
1F
100
AcDbEntity
  8
破線
100
AcDbLine
 10
410.3713237918277
 20
-130.1644251609823
 30
0.0
 11
394.3713237918277
 21
-130.1644251609823
 31
0.0
  0
LINE
  5
3256
330
1F
100
AcDbEntity
  8
破線
100
AcDbLine
 10
397.3713237918277
 20
-129.1644251609823
 30
0.0
 11
394.3713237918277
 21
-130.1644251609823
 31
0.0
  0
LINE
  5
3258
330
1F
100
AcDbEntity
  8
太線
100
AcDbLine
 10
393.3713237918277
 20
-103.2715538354959
 30
0.0
 11
393.3713237918277
 21
-95.27155383549592
 31
0.0
  0
LINE
  5
3259
330
1F
100
AcDbEntity
  8
太線
100
AcDbLine
 10
393.3713237918277
 20
-112.0853102204942
 30
0.0
 11
393.3713237918277
 21
-119.0853102204942
 31
0.0
  0
LINE
  5
325E
330
1F
100
AcDbEntity
  8
破線
100
AcDbLine
 10
393.3713237918277
 20
-129.1644251609823
 30
0.0
 11
393.3713237918277
 21
-123.1644251609823
 31
0.0
  0
ARC
  5
3260
330
1F
100
AcDbEntity
  8
破線
100
AcDbCircle
 10
394.3713237918277
 20
-129.1644251609823
 30
0.0
 40
1.0
100
AcDbArc
 50
180.0
 51
270.0
  0
LINE
  5
3262
330
1F
100
AcDbEntity
  8
破線
100
AcDbLine
 10
394.3713237918277
 20
-122.1644251609823
 30
0.0
 11
396.3713237918277
 21
-122.1644251609823
 31
0.0
  0
ARC
  5
3263
330
1F
100
AcDbEntity
  8
破線
100
AcDbCircle
 10
394.3713237918277
 20
-123.1644251609823
 30
0.0
 40
1.0
100
AcDbArc
 50
90.0
 51
180.0
  0
LINE
  5
3264
330
1F
100
AcDbEntity
  8
破線
100
AcDbLine
 10
396.3713237918277
 20
-119.0853102204942
 30
0.0
 11
396.3713237918277
 21
-122.1644251609823
 31
0.0
  0
ARC
  5
3265
330
1F
100
AcDbEntity
  8
太線
100
AcDbCircle
 10
394.3713237918277
 20
-112.0853102204942
 30
0.0
 40
1.0
100
AcDbArc
 50
90.0
 51
180.0
  0
ARC
  5
3266
330
1F
100
AcDbEntity
  8
太線
100
AcDbCircle
 10
394.3713237918277
 20
-103.2715538354959
 30
0.0
 40
1.0
100
AcDbArc
 50
180.0
 51
270.0
  0
ARC
  5
3267
330
1F
100
AcDbEntity
  8
太線
100
AcDbCircle
 10
394.3611013614216
 20
-95.64551213369753
 30
0.0
 40
1.0
100
AcDbArc
 50
90.0
 51
180.0
  0
LINE
  5
3268
330
1F
100
AcDbEntity
  8
太線
100
AcDbLine
 10
407.3713237918277
 20
-95.27155383549589
 30
0.0
 11
407.3713237918277
 21
-103.2715538354959
 31
0.0
  0
LINE
  5
3269
330
1F
100
AcDbEntity
  8
太線
100
AcDbLine
 10
397.3713237918277
 20
-95.27155383549589
 30
0.0
 11
397.3713237918277
 21
-103.2715538354959
 31
0.0
  0
LINE
  5
326A
330
1F
100
AcDbEntity
  8
太線
100
AcDbLine
 10
411.3713237918277
 20
-95.27155383549592
 30
0.0
 11
411.3713237918277
 21
-103.2715538354959
 31
0.0
  0
LINE
  5
326C
330
1F
100
AcDbEntity
  8
太線
100
AcDbLine
 10
411.3713237918277
 20
-112.0853102204942
 30
0.0
 11
411.3713237918277
 21
-119.0853102204942
 31
0.0
  0
LINE
  5
326D
330
1F
100
AcDbEntity
  8
太線
100
AcDbLine
 10
397.3713237918278
 20
-112.5957728699908
 30
0.0
 11
397.3713237918278
 21
-119.0853102204942
 31
0.0
  0
LINE
  5
326E
330
1F
100
AcDbEntity
  8
太線
100
AcDbLine
 10
407.3713237918277
 20
-112.3988075966214
 30
0.0
 11
407.3713237918277
 21
-119.0853102204942
 31
0.0
  0
LINE
  5
326F
330
1F
100
AcDbEntity
  8
破線
100
AcDbLine
 10
408.3713237918277
 20
-122.1644251609823
 30
0.0
 11
410.3713237918277
 21
-122.1644251609823
 31
0.0
  0
LINE
  5
3270
330
1F
100
AcDbEntity
  8
破線
100
AcDbLine
 10
407.3713237918277
 20
-129.1644251609823
 30
0.0
 11
410.3713237918277
 21
-130.1644251609823
 31
0.0
  0
LINE
  5
3271
330
1F
100
AcDbEntity
  8
破線
100
AcDbLine
 10
407.3713237918277
 20
-122.1644251609823
 30
0.0
 11
407.3713237918277
 21
-129.1644251609823
 31
0.0
  0
LINE
  5
3272
330
1F
100
AcDbEntity
  8
破線
100
AcDbLine
 10
397.3713237918277
 20
-122.1644251609823
 30
0.0
 11
397.3713237918277
 21
-129.1644251609823
 31
0.0
  0
ARC
  5
3273
330
1F
100
AcDbEntity
  8
破線
100
AcDbCircle
 10
402.3713237918277
 20
-117.1644251609823
 30
0.0
 40
13.00000000000004
100
AcDbArc
 50
247.3801350519612
 51
292.6198649480387
  0
LINE
  5
3274
330
1F
100
AcDbEntity
  8
破線
100
AcDbLine
 10
397.3713237918278
 20
-119.0853102204942
 30
0.0
 11
397.3713237918277
 21
-122.1644251609823
 31
0.0
  0
LINE
  5
3275
330
1F
100
AcDbEntity
  8
破線
100
AcDbLine
 10
407.3713237918277
 20
-119.0853102204942
 30
0.0
 11
407.3713237918277
 21
-122.1644251609823
 31
0.0
  0
LINE
  5
3276
330
1F
100
AcDbEntity
  8
破線
100
AcDbLine
 10
408.3713237918277
 20
-119.0853102204942
 30
0.0
 11
408.3713237918277
 21
-122.1644251609823
 31
0.0
  0
LINE
  5
3277
330
1F
100
AcDbEntity
  8
破線
100
AcDbLine
 10
411.3713237918277
 20
-123.1644251609823
 30
0.0
 11
411.3713237918277
 21
-129.1644251609823
 31
0.0
  0
ARC
  5
3279
330
1F
100
AcDbEntity
  8
破線
100
AcDbCircle
 10
410.3713237918277
 20
-129.1644251609823
 30
0.0
 40
1.0
100
AcDbArc
 50
270.0
 51
0.0
  0
ARC
  5
327B
330
1F
100
AcDbEntity
  8
破線
100
AcDbCircle
 10
410.3713237918277
 20
-123.1644251609823
 30
0.0
 40
1.0
100
AcDbArc
 50
0.0
 51
90.0
  0
LINE
  5
327C
330
1F
100
AcDbEntity
  8
太線
100
AcDbLine
 10
407.2582674855816
 20
-112.4652480495045
 30
0.0
 11
409.8760329807269
 21
-110.926850672002
 31
0.0
  0
LINE
  5
327D
330
1F
100
AcDbEntity
  8
太線
100
AcDbLine
 10
407.3713237918277
 20
-103.2715538354959
 30
0.0
 11
410.3713237918277
 21
-104.2715538354959
 31
0.0
  0
LINE
  5
327E
330
1F
100
AcDbEntity
  8
太線
100
AcDbLine
 10
397.4031471327084
 20
-112.6190877872548
 30
0.0
 11
401.4067891507888
 21
-111.2345301475025
 31
0.0
  0
LINE
  5
327F
330
1F
100
AcDbEntity
  8
太線
100
AcDbLine
 10
404.7944866827642
 20
-111.0806904097522
 30
0.0
 11
407.2582674855816
 21
-112.4652480495045
 31
0.0
  0
ARC
  5
3280
330
1F
100
AcDbEntity
  8
太線
100
AcDbCircle
 10
402.3713237918277
 20
-91.27155383549592
 30
0.0
 40
13.0
100
AcDbArc
 50
247.3801350519612
 51
292.6198649480387
  0
ARC
  5
3281
330
1F
100
AcDbEntity
  8
太線
100
AcDbCircle
 10
410.3713237918277
 20
-112.0853102204942
 30
0.0
 40
1.0
100
AcDbArc
 50
0.0
 51
90.0
  0
ARC
  5
3282
330
1F
100
AcDbEntity
  8
太線
100
AcDbCircle
 10
410.3713237918277
 20
-103.2715538354959
 30
0.0
 40
1.0
100
AcDbArc
 50
270.0
 51
0.0
  0
LINE
  5
3286
330
1F
100
AcDbEntity
  8
太線
100
AcDbLine
 10
408.3611013614216
 20
-94.64551213369754
 30
0.0
 11
410.3611013614217
 21
-94.64551213369754
 31
0.0
  0
LINE
  5
3287
330
1F
100
AcDbEntity
  8
太線
100
AcDbLine
 10
397.3611013614216
 20
-94.64551213369754
 30
0.0
 11
408.3611013614216
 21
-94.64551213369754
 31
0.0
  0
ARC
  5
3288
330
1F
100
AcDbEntity
  8
太線
100
AcDbCircle
 10
410.3611013614217
 20
-95.64551213369753
 30
0.0
 40
1.0
100
AcDbArc
 50
0.0
 51
90.0
  0
LINE
  5
329A
330
1F
100
AcDbEntity
  8
太線
100
AcDbLine
 10
531.1007384689501
 20
-40.76541028141297
 30
0.0
 11
531.1007384689502
 21
-58.56292867298373
 31
0.0
  0
LINE
  5
329B
330
1F
100
AcDbEntity
  8
太線
100
AcDbLine
 10
532.1007384689502
 20
-38.06438322391148
 30
0.0
 11
532.1007384689501
 21
-58.56292867298373
 31
0.0
  0
LINE
  5
329C
330
1F
100
AcDbEntity
  8
太線
100
AcDbLine
 10
534.1007384689503
 20
-58.56292867298373
 30
0.0
 11
534.1007384689503
 21
-74.56292867298373
 31
0.0
  0
LINE
  5
329D
330
1F
100
AcDbEntity
  8
太線
100
AcDbLine
 10
526.1007384689503
 20
-74.56292867298373
 30
0.0
 11
526.1007384689503
 21
-58.56292867298373
 31
0.0
  0
LINE
  5
329E
330
1F
100
AcDbEntity
  8
太線
100
AcDbLine
 10
526.1007384689503
 20
-114.0541138325514
 30
0.0
 11
526.1007384689503
 21
-98.05411383255147
 31
0.0
  0
LINE
  5
329F
330
1F
100
AcDbEntity
  8
太線
100
AcDbLine
 10
534.1007384689503
 20
-98.05411383255147
 30
0.0
 11
534.1007384689503
 21
-114.0541138325514
 31
0.0
  0
LINE
  5
32A0
330
1F
100
AcDbEntity
  8
太線
100
AcDbLine
 10
531.1007384689503
 20
-114.0541138325514
 30
0.0
 11
526.1007384689503
 21
-114.0541138325514
 31
0.0
  0
ARC
  5
32A1
330
1F
100
AcDbEntity
  8
太線
100
AcDbCircle
 10
530.3000754245299
 20
-104.3531765077831
 30
0.0
 40
9.574652439182898
100
AcDbArc
 50
242.2559248299449
 51
294.8092894638859
  0
LINE
  5
32A2
330
1F
100
AcDbEntity
  8
太線
100
AcDbLine
 10
532.1007384689503
 20
-114.0541138325514
 30
0.0
 11
532.1007384689502
 21
-115.6278146762044
 31
0.0
  0
LINE
  5
32A3
330
1F
100
AcDbEntity
  8
太線
100
AcDbLine
 10
531.1007384689502
 20
-114.0541138325514
 30
0.0
 11
531.1007384689503
 21
-115.9217461212535
 31
0.0
  0
LINE
  5
32A4
330
1F
100
AcDbEntity
  8
太線
100
AcDbLine
 10
531.1007384689503
 20
-74.56292867298373
 30
0.0
 11
526.1007384689503
 21
-74.56292867298373
 31
0.0
  0
ARC
  5
32A5
330
1F
100
AcDbEntity
  8
太線
100
AcDbCircle
 10
530.3000754245299
 20
-64.86199134821538
 30
0.0
 40
9.574652439182898
100
AcDbArc
 50
242.2559248299449
 51
294.8092894638859
  0
LINE
  5
32AC
330
1F
100
AcDbEntity
  8
想像線
100
AcDbLine
 10
548.1007384689503
 20
-118.8312025720609
 30
0.0
 11
548.1007384689503
 21
-129.1341611460399
 31
0.0
  0
LINE
  5
32AD
330
1F
100
AcDbEntity
  8
想像線
100
AcDbLine
 10
556.1007384689503
 20
-118.8312025720609
 30
0.0
 11
556.1007384689503
 21
-129.1341611460399
 31
0.0
  0
LINE
  5
32AE
330
1F
100
AcDbEntity
  8
太線
100
AcDbLine
 10
596.1007384689503
 20
-127.5439503883552
 30
0.0
 11
574.2101744550743
 21
-127.5439503883552
 31
0.0
  0
LINE
  5
32AF
330
1F
100
AcDbEntity
  8
太線
100
AcDbLine
 10
574.2101744550743
 20
-126.11438102992
 30
0.0
 11
566.6345511346
 21
-126.11438102992
 31
0.0
  0
ARC
  5
32B0
330
1F
100
AcDbEntity
  8
想像線
100
AcDbCircle
 10
551.7921803027684
 20
-122.9758016897796
 30
0.0
 40
6.350862044312581
100
AcDbArc
 50
230.9396192866367
 51
312.0723616256726
  0
LINE
  5
32B1
330
1F
100
AcDbEntity
  8
想像線
100
AcDbLine
 10
574.2101744550743
 20
-127.5439503883552
 30
0.0
 11
574.2101744550743
 21
-132.5439503883553
 31
0.0
  0
LINE
  5
32B2
330
1F
100
AcDbEntity
  8
太線
100
AcDbLine
 10
574.2101744550743
 20
-127.6889853284075
 30
0.0
 11
574.2101744550743
 21
-126.11438102992
 31
0.0
  0
LINE
  5
32B3
330
1F
100
AcDbEntity
  8
想像線
100
AcDbLine
 10
589.5402826959704
 20
-132.5439503883553
 30
0.0
 11
589.5402826959704
 21
-127.5439503883553
 31
0.0
  0
ARC
  5
32B4
330
1F
100
AcDbEntity
  8
太線
100
AcDbCircle
 10
596.1007384689503
 20
-132.5439503883552
 30
0.0
 40
5.0
100
AcDbArc
 50
0.0
 51
90.0
  0
LINE
  5
32B5
330
1F
100
AcDbEntity
  8
太線
100
AcDbLine
 10
601.1007384689503
 20
-132.5439503883552
 30
0.0
 11
601.1007384689503
 21
-132.5439503883553
 31
0.0
  0
LINE
  5
32B7
330
1F
100
AcDbEntity
  8
太線
100
AcDbLine
 10
551.10073846895
 20
-82.05411383255146
 30
0.0
 11
551.10073846895
 21
-74.56292867298373
 31
0.0
  0
LINE
  5
32B8
330
1F
100
AcDbEntity
  8
太線
100
AcDbLine
 10
549.4964327051386
 20
-38.06438322391148
 30
0.0
 11
549.4964327051384
 21
-58.56292867298373
 31
0.0
  0
LINE
  5
32B9
330
1F
100
AcDbEntity
  8
太線
100
AcDbLine
 10
556.1007384689503
 20
-58.56292867298373
 30
0.0
 11
556.1007384689503
 21
-74.56292867298373
 31
0.0
  0
LINE
  5
32BA
330
1F
100
AcDbEntity
  8
太線
100
AcDbLine
 10
548.1007384689503
 20
-58.56292867298373
 30
0.0
 11
548.1007384689503
 21
-74.56292867298373
 31
0.0
  0
LINE
  5
32BB
330
1F
100
AcDbEntity
  8
太線
100
AcDbLine
 10
556.1007384689503
 20
-98.05411383255147
 30
0.0
 11
556.1007384689503
 21
-114.0541138325514
 31
0.0
  0
LINE
  5
32BC
330
1F
100
AcDbEntity
  8
太線
100
AcDbLine
 10
548.1007384689503
 20
-98.05411383255147
 30
0.0
 11
548.1007384689503
 21
-114.0541138325514
 31
0.0
  0
ARC
  5
32BD
330
1F
100
AcDbEntity
  8
太線
100
AcDbCircle
 10
551.7921803027684
 20
-107.8957543762911
 30
0.0
 40
6.350862044312581
100
AcDbArc
 50
230.9396192866367
 51
312.0723616256726
  0
LINE
  5
32BE
330
1F
100
AcDbEntity
  8
太線
100
AcDbLine
 10
549.4964327051386
 20
-114.0541138325514
 30
0.0
 11
549.4964327051386
 21
-115.466326061835
 31
0.0
  0
LINE
  5
32BF
330
1F
100
AcDbEntity
  8
太線
100
AcDbLine
 10
551.1007384689503
 20
-115.9217461212535
 30
0.0
 11
551.1007384689503
 21
-114.0541138325514
 31
0.0
  0
ARC
  5
32C0
330
1F
100
AcDbEntity
  8
太線
100
AcDbCircle
 10
551.7921803027684
 20
-68.40456921672345
 30
0.0
 40
6.350862044312581
100
AcDbArc
 50
230.9396192866367
 51
312.0723616256726
  0
CIRCLE
  5
33AA
330
1F
100
AcDbEntity
  8
太線
100
AcDbCircle
 10
544.3009811204976
 20
147.9595454100089
 30
0.0
 40
10.0
  0
LEADER
  5
33AB
330
1F
100
AcDbEntity
  8
寸法線
100
AcDbLeader
  3
sunpo
 76
     2
 10
541.4034300900977
 20
117.2673119714384
 30
0.0
 10
546.80926864466
 20
83.39047682571646
 30
0.0
1001
ACAD
1000
DSTYLE
1002
{
1070
   147
1040
1.0
1070
    77
1070
     0
1002
}
  0
CIRCLE
  5
33AC
330
1F
100
AcDbEntity
  8
太線
100
AcDbCircle
 10
544.3009811204976
 20
147.9595454100089
 30
0.0
 40
29.5
  0
CIRCLE
  5
33AD
330
1F
100
AcDbEntity
  8
太線
100
AcDbCircle
 10
544.3009811204976
 20
147.9595454100089
 30
0.0
 40
24.5
  0
LINE
  5
33AE
330
1F
100
AcDbEntity
  8
太線
100
AcDbLine
 10
584.3009811204977
 20
207.9595454100088
 30
0.0
 11
504.3009811204976
 21
207.9595454100088
 31
0.0
  0
LINE
  5
33AF
330
1F
100
AcDbEntity
  8
太線
100
AcDbLine
 10
504.3009811204976
 20
87.9595454100089
 30
0.0
 11
584.3009811204978
 21
87.95954541000885
 31
0.0
  0
DIMENSION
  5
33B0
330
1F
100
AcDbEntity
  8
想像線
100
AcDbDimension
  2
*D2
 10
586.7514312688765
 20
259.1655716573908
 30
0.0
 11
546.0536757861611
 21
262.666063783375
 31
0.0
 70
    32
  1
120
 71
     5
 42
81.39551096543096
  3
sunpo
100
AcDbAlignedDimension
 13
505.3559203034455
 23
189.5930794161718
 33
0.0
 14
586.7514312688765
 24
189.5930794161718
 34
0.0
100
AcDbRotatedDimension
1001
ACAD
1000
DSTYLE
1002
{
1070
    40
1040
1.0
1002
}
  0
ARC
  5
33B1
330
1F
100
AcDbEntity
  8
太線
100
AcDbCircle
 10
501.924895198428
 20
191.235585916099
 30
0.0
 40
6.0
100
AcDbArc
 50
58.83348738434196
 51
236.3518041728777
  0
LINE
  5
33B2
330
1F
100
AcDbEntity
  8
太線
100
AcDbLine
 10
510.6825163744733
 20
190.4394094030657
 30
0.0
 11
505.0300571405418
 21
196.3695872126754
 31
0.0
  0
ARC
  5
33B3
330
1F
100
AcDbEntity
  8
太線
100
AcDbCircle
 10
504.3009811204976
 20
187.9595454100089
 30
0.0
 40
19.99999999999988
100
AcDbArc
 50
90.0
 51
180.0
  0
DIMENSION
  5
33B4
330
1F
100
AcDbEntity
  8
寸法線
100
AcDbDimension
  2
*D3
 10
504.3009811204975
 20
187.959545410009
 30
0.0
 11
473.6909556682187
 21
211.513905422584
 31
0.0
 70
   164
 71
     5
 42
19.99999999999977
  3
sunpo
100
AcDbRadialDimension
 15
488.4505502291418
 25
200.156423722034
 35
0.0
 40
0.0
1001
ACAD
1000
DSTYLE
1002
{
1070
    40
1040
1.0
1070
   288
1070
     1
1002
}
  0
LINE
  5
33B5
330
1F
100
AcDbEntity
  8
想像線
100
AcDbLine
 10
542.9972473873045
 20
118.4883683321767
 30
0.0
 11
543.5579163498443
 21
123.470816272983
 31
0.0
  0
LINE
  5
33B6
330
1F
100
AcDbEntity
  8
想像線
100
AcDbLine
 10
539.0223348486565
 20
118.9356605298489
 30
0.0
 11
539.5830038111962
 21
123.9181084706552
 31
0.0
  0
LINE
  5
33B7
330
1F
100
AcDbEntity
  8
太線
100
AcDbLine
 10
527.1153469653636
 20
124.2345975646332
 30
0.0
 11
524.744549541633
 21
121.5629563911333
 31
0.0
  0
LINE
  5
33B8
330
1F
100
AcDbEntity
  8
想像線
  6
HIDDEN2
100
AcDbLine
 10
519.8350768635971
 20
121.9679471263496
 30
0.0
 11
521.8684606626434
 21
122.7749949049928
 31
0.0
  0
LINE
  5
33B9
330
1F
100
AcDbEntity
  8
想像線
  6
HIDDEN2
100
AcDbLine
 10
521.8684606626434
 20
122.7749949049928
 30
0.0
 11
522.6053774029032
 21
122.1210596659939
 31
0.0
  0
ARC
  5
33BA
330
1F
100
AcDbEntity
  8
太線
  6
HIDDEN2
100
AcDbCircle
 10
520.7744889714651
 20
123.7687482263688
 30
0.0
 40
1.970459417374236
100
AcDbArc
 50
138.4143536004886
 51
228.4143536004834
  0
LINE
  5
33BB
330
1F
100
AcDbEntity
  8
太線
  6
HIDDEN2
100
AcDbLine
 10
521.0599658403339
 20
124.8326325861278
 30
0.0
 11
524.744549541633
 21
121.5629563911333
 31
0.0
  0
LINE
  5
33BC
330
1F
100
AcDbEntity
  8
想像線
  6
HIDDEN2
100
AcDbLine
 10
520.5719936038569
 20
121.3140118873507
 30
0.0
 11
521.8684606626434
 21
122.7749949049928
 31
0.0
  0
LINE
  5
33BD
330
1F
100
AcDbEntity
  8
太線
100
AcDbLine
 10
484.3009811204977
 20
187.9595454100088
 30
0.0
 11
484.3009811204977
 21
107.9595454100088
 31
0.0
  0
DIMENSION
  5
33BE
330
1F
100
AcDbEntity
  8
想像線
100
AcDbDimension
  2
*D4
 10
461.2258249440048
 20
106.30206762221
 30
0.0
 11
457.7253328180206
 21
147.4576262804381
 31
0.0
 70
    32
  1
120
 71
     5
 42
82.31111731645615
  3
sunpo
100
AcDbAlignedDimension
 13
504.3752541177277
 23
188.6131849386661
 33
0.0
 14
504.3752541177277
 24
106.30206762221
 34
0.0
 50
90.0
100
AcDbRotatedDimension
1001
ACAD
1000
DSTYLE
1002
{
1070
    40
1040
1.0
1002
}
  0
ARC
  5
33BF
330
1F
100
AcDbEntity
  8
太線
100
AcDbCircle
 10
504.3009811204977
 20
107.9595454100088
 30
0.0
 40
20.0
100
AcDbArc
 50
180.0
 51
270.0
  0
ARC
  5
33C0
330
1F
100
AcDbEntity
  8
太線
100
AcDbCircle
 10
501.3095377035949
 20
105.2947574357241
 30
0.0
 40
6.0
100
AcDbArc
 50
149.216977121707
 51
326.7352939102442
  0
LINE
  5
33C1
330
1F
100
AcDbEntity
  8
太線
  6
HIDDEN2
100
AcDbLine
 10
519.4666184934671
 20
122.2949147458491
 30
0.0
 11
522.4142854545063
 21
119.6791737898535
 31
0.0
  0
ARC
  5
33C2
330
1F
100
AcDbEntity
  8
太線
100
AcDbCircle
 10
505.1473099012826
 20
108.9094254808042
 30
0.0
 40
6.0
100
AcDbArc
 50
300.362216594388
 51
121.4577023579331
  0
LINE
  5
33C3
330
1F
100
AcDbEntity
  8
太線
100
AcDbLine
 10
506.3264100919012
 20
102.00371027115
 30
0.0
 11
508.1800991450013
 21
103.7323423828441
 31
0.0
  0
LINE
  5
33C4
330
1F
100
AcDbEntity
  8
太線
100
AcDbLine
 10
502.0470806734597
 20
114.0575113447773
 30
0.0
 11
496.1548682179672
 21
108.3654873968145
 31
0.0
  0
ARC
  5
33C5
330
1F
100
AcDbEntity
  8
太線
  6
HIDDEN2
100
AcDbCircle
 10
525.1544986623935
 20
120.5405627820048
 30
0.0
 40
0.4926148543435592
100
AcDbArc
 50
318.4143536004886
 51
48.41435360048346
  0
LINE
  5
33C6
330
1F
100
AcDbEntity
  8
太線
  6
HIDDEN2
100
AcDbLine
 10
525.5229570325233
 20
120.2135951625052
 30
0.0
 11
525.1959894130238
 21
119.8451367923752
 31
0.0
  0
ARC
  5
33C7
330
1F
100
AcDbEntity
  8
太線
  6
HIDDEN2
100
AcDbCircle
 10
523.7221559325043
 20
121.1530072703733
 30
0.0
 40
1.970459417374236
100
AcDbArc
 50
228.4143536004834
 51
318.4143536004886
  0
LINE
  5
33C8
330
1F
100
AcDbEntity
  8
太線
  6
HIDDEN2
100
AcDbLine
 10
524.744549541633
 20
121.5629563911333
 30
0.0
 11
525.4814662818928
 21
120.9090211521344
 31
0.0
  0
LINE
  5
33C9
330
1F
100
AcDbEntity
  8
想像線
  6
HIDDEN2
100
AcDbLine
 10
521.3089103441167
 20
120.6600766483518
 30
0.0
 11
522.6053774029032
 21
122.1210596659939
 31
0.0
  0
LINE
  5
33CA
330
1F
100
AcDbEntity
  8
想像線
  6
HIDDEN2
100
AcDbLine
 10
522.0458270843765
 20
120.006141409353
 30
0.0
 11
522.6053774029032
 21
122.1210596659939
 31
0.0
  0
LINE
  5
33CB
330
1F
100
AcDbEntity
  8
太線
  6
HIDDEN2
100
AcDbLine
 10
520.323049100074
 20
125.4865678251267
 30
0.0
 11
521.0599658403339
 21
124.8326325861278
 31
0.0
  0
LINE
  5
33CC
330
1F
100
AcDbEntity
  8
太線
  6
HIDDEN2
100
AcDbLine
 10
519.3006554909453
 20
125.0766187043664
 30
0.0
 11
519.6276231104447
 21
125.4450770744963
 31
0.0
  0
ARC
  5
33CD
330
1F
100
AcDbEntity
  8
太線
  6
HIDDEN2
100
AcDbCircle
 10
519.9960814805747
 20
125.1181094549971
 30
0.0
 40
0.4926148543435592
100
AcDbArc
 50
48.41435360048346
 51
138.4143536004886
  0
LINE
  5
33CE
330
1F
100
AcDbEntity
  8
太線
100
AcDbLine
 10
527.5198276639335
 20
132.1122224196157
 30
0.0
 11
526.6745694540016
 21
131.1597046661844
 31
0.0
  0
LINE
  5
33CF
330
1F
100
AcDbEntity
  8
太線
  6
HIDDEN2
100
AcDbLine
 10
529.4758675066443
 20
133.5742933683118
 30
0.0
 11
532.4235344676835
 21
130.9585524123162
 31
0.0
  0
LINE
  5
33D0
330
1F
100
AcDbEntity
  8
太線
100
AcDbLine
 10
523.4117813698567
 20
127.4828831466597
 30
0.0
 11
521.0599658403339
 21
124.8326325861278
 31
0.0
  0
LINE
  5
33D1
330
1F
100
AcDbEntity
  8
太線
  6
HIDDEN2
100
AcDbLine
 10
531.2463522136139
 20
128.8898091819137
 30
0.0
 11
532.465025218314
 21
130.2631264226868
 31
0.0
  0
LINE
  5
33D2
330
1F
100
AcDbEntity
  8
太線
100
AcDbLine
 10
531.2463522136139
 20
128.8898091819137
 30
0.0
 11
530.2966150862446
 21
127.819554596649
 31
0.0
  0
ARC
  5
33D3
330
1F
100
AcDbEntity
  8
太線
  6
HIDDEN2
100
AcDbCircle
 10
529.1488998871449
 20
133.205834998182
 30
0.0
 40
0.4926148543435592
100
AcDbArc
 50
48.41435360048346
 51
138.4143536004886
  0
LINE
  5
33D4
330
1F
100
AcDbEntity
  8
太線
100
AcDbLine
 10
527.5198276639335
 20
132.1122224196157
 30
0.0
 11
528.7804415170149
 21
133.5328026176813
 31
0.0
  0
CIRCLE
  5
33D5
330
1F
100
AcDbEntity
  8
太線
100
AcDbCircle
 10
526.1263868654896
 20
147.9595454100091
 30
0.0
 40
4.0
  0
ARC
  5
33D6
330
1F
100
AcDbEntity
  8
太線
100
AcDbCircle
 10
505.5137956521228
 20
187.3737063153171
 30
0.0
 40
6.0
100
AcDbArc
 50
209.978726857023
 51
31.07421262056787
  0
LINE
  5
33D7
330
1F
100
AcDbEntity
  8
太線
100
AcDbLine
 10
498.6003432786737
 20
186.2408532372804
 30
0.0
 11
500.3165297284343
 21
184.3756357827134
 31
0.0
  0
LINE
  5
33D8
330
1F
100
AcDbEntity
  8
太線
  6
HIDDEN2
100
AcDbLine
 10
528.115595422596
 20
177.8621677749242
 30
0.0
 11
528.3996524416296
 21
177.4596991368197
 31
0.0
  0
LINE
  5
33D9
330
1F
100
AcDbEntity
  8
太線
  6
HIDDEN2
100
AcDbLine
 10
525.3694927940436
 20
178.3358142512071
 30
0.0
 11
522.1497436892083
 21
176.0633580989379
 31
0.0
  0
LINE
  5
33DA
330
1F
100
AcDbEntity
  8
想像線
  6
HIDDEN2
100
AcDbLine
 10
524.9670241559392
 20
178.0517572321735
 30
0.0
 11
525.2884080994219
 21
175.8878052567109
 31
0.0
  0
LINE
  5
33DB
330
1F
100
AcDbEntity
  8
太線
100
AcDbLine
 10
533.0883855494248
 20
168.2535326376237
 30
0.0
 11
532.3540573985379
 21
169.2939718135843
 31
0.0
  0
LINE
  5
33DC
330
1F
100
AcDbEntity
  8
太線
  6
HIDDEN2
100
AcDbLine
 10
534.0651472499846
 20
166.0153012140186
 30
0.0
 11
530.8453981451491
 21
163.7428450617493
 31
0.0
  0
LINE
  5
33DD
330
1F
100
AcDbEntity
  8
太線
  6
HIDDEN2
100
AcDbLine
 10
529.1001357806212
 20
165.3613369188789
 30
0.0
 11
530.1588724880109
 21
163.86125668082
 31
0.0
  0
LINE
  5
33DE
330
1F
100
AcDbEntity
  8
太線
100
AcDbLine
 10
529.1001357806212
 20
165.3613369188789
 30
0.0
 11
528.2750403241379
 21
166.5303805348637
 31
0.0
  0
LINE
  5
33DF
330
1F
100
AcDbEntity
  8
太線
  6
HIDDEN2
100
AcDbLine
 10
527.47630354635
 20
176.2050594416144
 30
0.0
 11
523.4516171653057
 21
173.3644892512776
 31
0.0
  0
LINE
  5
33E0
330
1F
100
AcDbEntity
  8
想像線
  6
HIDDEN2
100
AcDbLine
 10
525.2884080994219
 20
175.8878052567109
 30
0.0
 11
524.4834708232129
 21
175.3196912186436
 31
0.0
  0
ARC
  5
33E1
330
1F
100
AcDbEntity
  8
太線
  6
HIDDEN2
100
AcDbCircle
 10
522.3626228700635
 20
173.1988438513147
 30
0.0
 40
0.4926148543435592
100
AcDbArc
 50
215.2139355850716
 51
305.21393558507
  0
LINE
  5
33E2
330
1F
100
AcDbEntity
  8
太線
  6
HIDDEN2
100
AcDbLine
 10
523.4516171653057
 20
173.3644892512776
 30
0.0
 11
522.6466798890968
 21
172.7963752132104
 31
0.0
  0
LINE
  5
33E3
330
1F
100
AcDbEntity
  8
太線
  6
HIDDEN2
100
AcDbLine
 10
521.9601542319589
 20
172.9147868322811
 30
0.0
 11
521.6760972129252
 21
173.3172554703855
 31
0.0
  0
ARC
  5
33E4
330
1F
100
AcDbEntity
  8
太線
  6
HIDDEN2
100
AcDbCircle
 10
523.2859717653432
 20
174.4534835465201
 30
0.0
 40
1.970459417374236
100
AcDbArc
 50
125.21393558507
 51
215.2139355850716
  0
LINE
  5
33E5
330
1F
100
AcDbEntity
  8
太線
100
AcDbLine
 10
525.5112757025901
 20
170.4462442831335
 30
0.0
 11
523.4516171653057
 21
173.3644892512776
 31
0.0
  0
LINE
  5
33E6
330
1F
100
AcDbEntity
  8
想像線
  6
HIDDEN2
100
AcDbLine
 10
522.5522123273127
 20
176.3474151179716
 30
0.0
 11
524.4834708232129
 21
175.3196912186436
 31
0.0
  0
LINE
  5
33E7
330
1F
100
AcDbEntity
  8
想像線
  6
HIDDEN2
100
AcDbLine
 10
524.1620868797304
 20
177.4836431941061
 30
0.0
 11
525.2884080994219
 21
175.8878052567109
 31
0.0
  0
LINE
  5
33E8
330
1F
100
AcDbEntity
  8
想像線
  6
HIDDEN2
100
AcDbLine
 10
523.3571496035215
 20
176.9155291560388
 30
0.0
 11
524.4834708232129
 21
175.3196912186436
 31
0.0
  0
ARC
  5
33E9
330
1F
100
AcDbEntity
  8
太線
  6
HIDDEN2
100
AcDbCircle
 10
527.9971838035256
 20
177.1756421177862
 30
0.0
 40
0.4926148543435592
100
AcDbArc
 50
305.21393558507
 51
35.21393558507166
  0
LINE
  5
33EA
330
1F
100
AcDbEntity
  8
太線
100
AcDbLine
 10
529.519471336653
 20
173.3101795306038
 30
0.0
 11
527.47630354635
 21
176.2050594416144
 31
0.0
  0
LINE
  5
33EB
330
1F
100
AcDbEntity
  8
太線
  6
HIDDEN2
100
AcDbLine
 10
528.2812408225588
 20
176.7731734796818
 30
0.0
 11
527.47630354635
 21
176.2050594416144
 31
0.0
  0
ARC
  5
33EC
330
1F
100
AcDbEntity
  8
太線
  6
HIDDEN2
100
AcDbCircle
 10
533.7810902309509
 20
166.4177698521231
 30
0.0
 40
0.4926148543435592
100
AcDbArc
 50
305.21393558507
 51
35.21393558507166
  0
LINE
  5
33ED
330
1F
100
AcDbEntity
  8
太線
100
AcDbLine
 10
533.0883855494248
 20
168.2535326376237
 30
0.0
 11
534.1835588690553
 21
166.7018268711568
 31
0.0
  0
ARC
  5
33EE
330
1F
100
AcDbEntity
  8
太線
  6
HIDDEN2
100
AcDbCircle
 10
526.5057208701786
 20
176.7259396987895
 30
0.0
 40
1.970459417374236
100
AcDbArc
 50
35.21393558507166
 51
125.21393558507
  0
LINE
  5
33EF
330
1F
100
AcDbEntity
  8
太線
100
AcDbLine
 10
578.0580503476065
 20
190.3293494447748
 30
0.0
 11
583.7298536107612
 21
196.2410287314845
 31
0.0
  0
ARC
  5
33F0
330
1F
100
AcDbEntity
  8
太線
100
AcDbCircle
 10
584.3009811204977
 20
187.9595454100088
 30
0.0
 40
19.99999999999994
100
AcDbArc
 50
0.0
 51
90.0
  0
ARC
  5
33F1
330
1F
100
AcDbEntity
  8
太線
100
AcDbCircle
 10
586.8182259352987
 20
191.0969101106679
 30
0.0
 40
6.0
100
AcDbArc
 50
303.4610072403252
 51
120.9793240288655
  0
LEADER
  5
33F2
330
1F
100
AcDbEntity
  8
寸法線
100
AcDbLeader
  3
sunpo
 76
     2
 10
554.7828705531758
 20
165.7461830101727
 30
0.0
 10
562.1548632517849
 20
230.4522734915384
 30
0.0
1001
ACAD
1000
DSTYLE
1002
{
1070
   147
1040
1.0
1070
    77
1070
     0
1002
}
  0
TEXT
  5
33F3
330
1F
100
AcDbEntity
  8
文字
100
AcDbText
 10
449.4114160749936
 20
76.46398721409036
 30
0.0
 40
5.759999999999999
  1
M5-8mm  ×3　SUS304
 51
15.0
  7
OKANO
100
AcDbText
  0
DIMENSION
  5
33F4
330
1F
100
AcDbEntity
  8
寸法線
100
AcDbDimension
  2
*D5
 10
601.1978118136937
 20
110.1125116829194
 30
0.0
 11
596.9902493864307
 21
119.0177431484769
 31
0.0
 70
    33
  1
20
 71
     5
 42
18.41230935112679
  3
sunpo
100
AcDbAlignedDimension
 13
578.7528712301106
 23
113.3395620906461
 33
0.0
 14
592.0217520456197
 24
100.5743775034414
 34
0.0
1001
ACAD
1000
DSTYLE
1002
{
1070
    40
1040
1.0
1002
}
  0
LINE
  5
33F5
330
1F
100
AcDbEntity
  8
太線
100
AcDbLine
 10
604.3009811204976
 20
107.9595454100088
 30
0.0
 11
604.3009811204976
 21
187.9595454100088
 31
0.0
  0
ARC
  5
33F6
330
1F
100
AcDbEntity
  8
太線
100
AcDbCircle
 10
584.3009811204978
 20
107.9595454100087
 30
0.0
 40
20.0
100
AcDbArc
 50
270.0
 51
0.0
  0
ARC
  5
33F7
330
1F
100
AcDbEntity
  8
太線
100
AcDbCircle
 10
587.1294082452439
 20
105.1311182852625
 30
0.0
 40
6.0
100
AcDbArc
 50
213.0462060789197
 51
30.56452286745789
  0
DIMENSION
  5
33F8
330
1F
100
AcDbEntity
  8
寸法線
100
AcDbDimension
  2
*D6
 10
615.8318325230846
 20
85.08413148126493
 30
0.0
 11
609.1805584358882
 21
83.38730694794071
 31
0.0
 70
    33
  1
12
 71
     5
 42
11.80935482671657
  3
sunpo
100
AcDbAlignedDimension
 13
581.7015108780303
 23
102.5382524438376
 33
0.0
 14
590.0559914803827
 24
110.8847196778361
 34
0.0
1001
ACAD
1000
DSTYLE
1002
{
1070
    40
1040
1.0
1002
}
  0
TEXT
  5
33F9
330
1F
100
AcDbEntity
  8
文字
100
AcDbText
 10
544.1319461545274
 20
76.18855172865557
 30
0.0
 40
5.759999999999999
  1
Φ3.8mm×1
 51
15.0
  7
OKANO
100
AcDbText
  0
ARC
  5
33FA
330
1F
100
AcDbEntity
  8
太線
100
AcDbCircle
 10
583.3054486185272
 20
108.760395526079
 30
0.0
 40
6.0
100
AcDbArc
 50
58.32379763122862
 51
239.4192833947736
  0
LINE
  5
33FB
330
1F
100
AcDbEntity
  8
太線
100
AcDbLine
 10
582.1000218126505
 20
101.8592270719663
 30
0.0
 11
580.252938438432
 21
103.5949157225742
 31
0.0
  0
LINE
  5
33FC
330
1F
100
AcDbEntity
  8
太線
100
AcDbLine
 10
586.425287710356
 20
113.8966211216874
 30
0.0
 11
592.2957505857139
 21
108.1821684030198
 31
0.0
  0
CIRCLE
  5
33FE
330
1F
100
AcDbEntity
  8
太線
100
AcDbCircle
 10
553.3882782480018
 20
132.2198850816971
 30
0.0
 40
4.0
  0
LINE
  5
33FF
330
1F
100
AcDbEntity
  8
太線
100
AcDbLine
 10
567.5225247605997
 20
145.6671305952569
 30
0.0
 11
568.796004839776
 21
145.6671305952569
 31
0.0
  0
LINE
  5
3400
330
1F
100
AcDbEntity
  8
太線
100
AcDbLine
 10
567.5225247605997
 20
145.6671305952569
 30
0.0
 11
565.6232629603949
 21
145.6671305952569
 31
0.0
  0
ARC
  5
3401
330
1F
100
AcDbEntity
  8
太線
  6
HIDDEN2
100
AcDbCircle
 10
565.6232629603949
 20
146.1597454496005
 30
0.0
 40
0.4926148543435592
100
AcDbArc
 50
180.0
 51
270.0
  0
LINE
  5
3402
330
1F
100
AcDbEntity
  8
太線
  6
HIDDEN2
100
AcDbLine
 10
565.1306481060514
 20
146.1597454496005
 30
0.0
 11
565.1306481060514
 21
150.1006642843489
 31
0.0
  0
LINE
  5
3403
330
1F
100
AcDbEntity
  8
太線
100
AcDbLine
 10
567.4593359807809
 20
150.5932791386925
 30
0.0
 11
568.8902257348794
 21
150.5932791386925
 31
0.0
  0
LINE
  5
3404
330
1F
100
AcDbEntity
  8
太線
  6
HIDDEN2
100
AcDbLine
 10
567.4593359807809
 20
150.5932791386925
 30
0.0
 11
565.6232629603949
 21
150.5932791386925
 31
0.0
  0
ARC
  5
3405
330
1F
100
AcDbEntity
  8
太線
  6
HIDDEN2
100
AcDbCircle
 10
578.2402897465831
 20
150.1006642843489
 30
0.0
 40
1.970459417374236
100
AcDbArc
 50
0.0
 51
90.0
  0
LINE
  5
3406
330
1F
100
AcDbEntity
  8
太線
  6
HIDDEN2
100
AcDbLine
 10
577.2550600378961
 20
145.6671305952569
 30
0.0
 11
577.2550600378961
 21
150.5932791386925
 31
0.0
  0
LINE
  5
3407
330
1F
100
AcDbEntity
  8
太線
100
AcDbLine
 10
573.7117756408284
 20
145.6671305952569
 30
0.0
 11
577.2550600378961
 21
145.6671305952569
 31
0.0
  0
LINE
  5
3408
330
1F
100
AcDbEntity
  8
太線
  6
HIDDEN2
100
AcDbLine
 10
577.2550600378961
 20
144.6819008865698
 30
0.0
 11
577.2550600378961
 21
145.6671305952569
 31
0.0
  0
ARC
  5
3409
330
1F
100
AcDbEntity
  8
太線
  6
HIDDEN2
100
AcDbCircle
 10
577.7476748922396
 20
144.6819008865698
 30
0.0
 40
0.4926148543435592
100
AcDbArc
 50
180.0
 51
270.0
  0
LINE
  5
340A
330
1F
100
AcDbEntity
  8
太線
  6
HIDDEN2
100
AcDbLine
 10
578.2402897465831
 20
144.1892860322262
 30
0.0
 11
577.7476748922396
 21
144.1892860322262
 31
0.0
  0
ARC
  5
340B
330
1F
100
AcDbEntity
  8
太線
  6
HIDDEN2
100
AcDbCircle
 10
578.2402897465831
 20
146.1597454496005
 30
0.0
 40
1.970459417374236
100
AcDbArc
 50
270.0
 51
0.0
  0
LINE
  5
340C
330
1F
100
AcDbEntity
  8
想像線
  6
HIDDEN2
100
AcDbLine
 10
578.2574703276524
 20
147.6375900126311
 30
0.0
 11
578.2574703276524
 21
148.6228197213182
 31
0.0
  0
LINE
  5
340D
330
1F
100
AcDbEntity
  8
想像線
  6
HIDDEN2
100
AcDbLine
 10
580.2107491639573
 20
148.6228197213182
 30
0.0
 11
578.2574703276524
 21
148.6228197213182
 31
0.0
  0
LINE
  5
340E
330
1F
100
AcDbEntity
  8
想像線
  6
HIDDEN2
100
AcDbLine
 10
580.2107491639573
 20
147.6375900126311
 30
0.0
 11
578.2574703276524
 21
147.6375900126311
 31
0.0
  0
LINE
  5
340F
330
1F
100
AcDbEntity
  8
想像線
  6
HIDDEN2
100
AcDbLine
 10
580.2107491639573
 20
146.652360303944
 30
0.0
 11
578.2574703276524
 21
147.6375900126311
 31
0.0
  0
LINE
  5
3410
330
1F
100
AcDbEntity
  8
太線
  6
HIDDEN2
100
AcDbLine
 10
580.2107491639573
 20
146.1597454496005
 30
0.0
 11
580.2107491639573
 21
150.1006642843489
 31
0.0
  0
LINE
  5
3411
330
1F
100
AcDbEntity
  8
想像線
  6
HIDDEN2
100
AcDbLine
 10
580.2107491639573
 20
149.6080494300053
 30
0.0
 11
578.2574703276524
 21
148.6228197213182
 31
0.0
  0
LINE
  5
3412
330
1F
100
AcDbEntity
  8
太線
100
AcDbLine
 10
573.6831772032685
 20
150.5932791386925
 30
0.0
 11
577.2550600378961
 21
150.5932791386925
 31
0.0
  0
LINE
  5
3413
330
1F
100
AcDbEntity
  8
太線
  6
HIDDEN2
100
AcDbLine
 10
577.7476748922396
 20
152.0711237017231
 30
0.0
 11
578.2402897465831
 21
152.0711237017231
 31
0.0
  0
LINE
  5
3414
330
1F
100
AcDbEntity
  8
太線
  6
HIDDEN2
100
AcDbLine
 10
577.2550600378961
 20
150.5932791386925
 30
0.0
 11
577.2550600378961
 21
151.5785088473796
 31
0.0
  0
ARC
  5
3415
330
1F
100
AcDbEntity
  8
太線
  6
HIDDEN2
100
AcDbCircle
 10
577.7476748922396
 20
151.5785088473796
 30
0.0
 40
0.4926148543435592
100
AcDbArc
 50
90.0
 51
180.0
  0
CIRCLE
  5
3416
330
1F
100
AcDbEntity
  8
太線
100
AcDbCircle
 10
553.3882782480016
 20
163.6992057383207
 30
0.0
 40
4.0
  0
LINE
  5
3417
330
1F
100
AcDbEntity
  8
想像線
100
AcDbLine
 10
549.5796273923388
 20
176.9834302901687
 30
0.0
 11
549.0189584297991
 21
172.0009823493624
 31
0.0
  0
LINE
  5
3418
330
1F
100
AcDbEntity
  8
想像線
100
AcDbLine
 10
545.044045891151
 20
172.4482745470345
 30
0.0
 11
545.6047148536907
 21
177.4307224878409
 31
0.0
  0
ARC
  5
3419
330
1F
100
AcDbEntity
  8
太線
100
AcDbCircle
 10
583.2167276759803
 20
187.2467762421389
 30
0.0
 40
6.0
100
AcDbArc
 50
148.7385987926347
 51
329.8340845561821
  0
LINE
  5
341A
330
1F
100
AcDbEntity
  8
太線
100
AcDbLine
 10
590.1264420643559
 20
186.0913426060341
 30
0.0
 11
588.404171012382
 21
184.2317419750663
 31
0.0
  0
TEXT
  5
341B
330
1F
100
AcDbEntity
  8
文字
100
AcDbText
 10
551.2888502939538
 20
234.8281504518784
 30
0.0
 40
5.759999999999999
  1
Φ4mm×3
 51
15.0
  7
OKANO
100
AcDbText
  0
LINE
  5
3482
330
1F
100
AcDbEntity
  8
太線
100
AcDbLine
 10
396.3713237918277
 20
-50.8708473434412
 30
0.0
 11
397.3713237918277
 21
-48.16982028593969
 31
0.0
  0
LINE
  5
3483
330
1F
100
AcDbEntity
  8
太線
100
AcDbLine
 10
397.3713237918277
 20
-48.16982028593969
 30
0.0
 11
407.3713237918277
 21
-48.16982028593969
 31
0.0
  0
LINE
  5
3484
330
1F
100
AcDbEntity
  8
太線
100
AcDbLine
 10
407.3713237918277
 20
-48.16982028593969
 30
0.0
 11
408.3713237918277
 21
-50.8708473434412
 31
0.0
  0
LINE
  5
3485
330
1F
100
AcDbEntity
  8
太線
100
AcDbLine
 10
531.1007384689501
 20
-40.76541028141297
 30
0.0
 11
532.1007384689502
 21
-38.06438322391148
 31
0.0
  0
LINE
  5
3486
330
1F
100
AcDbEntity
  8
太線
100
AcDbLine
 10
532.1007384689502
 20
-38.06438322391148
 30
0.0
 11
549.4964327051386
 21
-38.06438322391148
 31
0.0
  0
LINE
  5
3487
330
1F
100
AcDbEntity
  8
太線
100
AcDbLine
 10
549.4964327051386
 20
-38.06438322391148
 30
0.0
 11
551.10073846895
 21
-40.76541028141297
 31
0.0
  0
TEXT
  5
3561
330
1F
100
AcDbEntity
  8
文字
100
AcDbText
 10
509.1433009087845
 20
-53.71245422448737
 30
0.0
 40
5.759999999999999
  1
M-20                             
 51
15.0
  7
OKANO
100
AcDbText
  0
TEXT
  5
3562
330
1F
100
AcDbEntity
  8
文字
100
AcDbText
 10
372.9509463223112
 20
-68.54932184683019
 30
0.0
 40
5.759999999999999
  1
M-12                          
 51
15.0
  7
OKANO
100
AcDbText
  0
TEXT
  5
3563
330
1F
100
AcDbEntity
  8
文字
100
AcDbText
 10
121.630804944169
 20
-56.55168786107674
 30
0.0
 40
5.759999999999999
  1
M-12                          
 51
15.0
  7
OKANO
100
AcDbText
  0
TEXT
  5
3564
330
1F
100
AcDbEntity
  8
文字
100
AcDbText
 10
7.387211490230129
 20
-63.02973962612373
 30
0.0
 40
5.759999999999999
  1
M-12                          
 51
15.0
  7
OKANO
100
AcDbText
  0
TEXT
  5
3573
330
1F
100
AcDbEntity
  8
文字
100
AcDbText
 10
129.0974040349308
 20
-209.5175906634121
 30
0.0
 40
5.759999999999999
  1
50kgストッパー付タイプ                                                                                                                                                                              
 51
15.0
  7
OKANO
100
AcDbText
  0
LWPOLYLINE
  5
358D
330
1F
100
AcDbEntity
  8
太線
100
AcDbPolyline
 90
        4
 70
     1
 43
0.0
 10
439.0061696907085
 20
-202.8117626337977
 10
590.2061696907085
 20
-202.8117626337977
 10
590.2061696907085
 20
-238.0917626337977
 10
439.0061696907085
 20
-238.0917626337977
  0
LINE
  5
358E
330
1F
100
AcDbEntity
  8
太線
100
AcDbLine
 10
439.0061696907085
 20
-214.5717626337977
 30
0.0
 11
590.2061696907085
 21
-214.5717626337977
 31
0.0
  0
TEXT
  5
358F
330
1F
100
AcDbEntity
  8
文字
100
AcDbText
 10
477.3972891449679
 20
-213.2826319231952
 30
0.0
 40
6.719999999999999
  1
F-999-20100511 Auto CAD
 51
15.0
  7
OKANO
100
AcDbText
  0
TEXT
  5
3590
330
1F
100
AcDbEntity
  8
文字
100
AcDbText
 10
487.8809273614835
 20
-233.9359520333981
 30
0.0
 40
6.719999999999999
  1
joint kogyo T.okano
 51
15.0
  7
OKANO
100
AcDbText
  0
TEXT
  5
3592
330
1F
100
AcDbEntity
  8
文字
100
AcDbText
 10
476.3204342273573
 20
-223.6788399625647
 30
0.0
 40
4.0
  1
14-2L65・14-2L100・15-2L500・15-2L2000Ｂ
 51
15.0
  7
OKANO
100
AcDbText
  0
TEXT
  5
3593
330
1F
100
AcDbEntity
  8
文字
100
AcDbText
 10
443.7092693390938
 20
-221.019687994726
 30
0.0
 40
3.359999999999999
  1
DRAWN
 51
15.0
  7
OKANO
100
AcDbText
  0
LINE
  5
3594
330
1F
100
AcDbEntity
  8
太線
100
AcDbLine
 10
472.6061696907085
 20
-202.8117626337977
 30
0.0
 11
472.6061696907085
 21
-238.0917626337977
 31
0.0
  0
TEXT
  5
3595
330
1F
100
AcDbEntity
  8
文字
100
AcDbText
 10
444.7866268892499
 20
-231.0656711359154
 30
0.0
 40
3.359999999999999
  1
APPR
 51
15.0
  7
OKANO
100
AcDbText
  0
TEXT
  5
3596
330
1F
100
AcDbEntity
  8
文字
100
AcDbText
 10
444.427506683189
 20
-235.7298778008908
 30
0.0
 40
3.359999999999999
  1
ISSUED
 51
15.0
  7
OKANO
100
AcDbText
  0
TEXT
  5
3597
330
1F
100
AcDbEntity
  8
文字
100
AcDbText
 10
444.427506683189
 20
-226.0426791521887
 30
0.0
 40
3.359999999999999
  1
CHECK
 51
15.0
  7
OKANO
100
AcDbText
  0
TEXT
  5
3598
330
1F
100
AcDbEntity
  8
文字
100
AcDbText
 10
441.9136729108289
 20
-212.0500599835265
 30
0.0
 40
3.359999999999999
  1
FILM NAME
 51
15.0
  7
OKANO
100
AcDbText
  0
LINE
  5
37DF
330
1F
100
AcDbEntity
  8
細線
100
AcDbLine
 10
280.442042716236
 20
-48.16982028593969
 30
0.0
 11
280.442042716236
 21
-81.32972886814279
 31
0.0
  0
LINE
  5
37E0
330
1F
100
AcDbEntity
  8
太線
100
AcDbLine
 10
281.442042716236
 20
-50.8708473434412
 30
0.0
 11
281.442042716236
 21
-81.32972886814281
 31
0.0
  0
LINE
  5
37E1
330
1F
100
AcDbEntity
  8
細線
100
AcDbLine
 10
270.442042716236
 20
-48.16982028593969
 30
0.0
 11
270.442042716236
 21
-81.32972886814279
 31
0.0
  0
LINE
  5
37E2
330
1F
100
AcDbEntity
  8
太線
100
AcDbLine
 10
269.442042716236
 20
-101.1595852192414
 30
0.0
 11
269.442042716236
 21
-91.16210451386264
 31
0.0
  0
LINE
  5
37E3
330
1F
100
AcDbEntity
  8
太線
100
AcDbLine
 10
256.155206700247
 20
-131.0853102204942
 30
0.0
 11
248.9420427162361
 21
-131.0853102204942
 31
0.0
  0
LINE
  5
37E4
330
1F
100
AcDbEntity
  8
太線
100
AcDbLine
 10
247.942042716236
 20
-133.0853102204942
 30
0.0
 11
302.942042716236
 21
-133.0853102204942
 31
0.0
  0
LINE
  5
37E5
330
1F
100
AcDbEntity
  8
太線
100
AcDbLine
 10
247.942042716236
 20
-132.0853102204942
 30
0.0
 11
247.942042716236
 21
-133.0853102204942
 31
0.0
  0
ARC
  5
37E6
330
1F
100
AcDbEntity
  8
太線
100
AcDbCircle
 10
248.9420427162361
 20
-132.0853102204942
 30
0.0
 40
1.0
100
AcDbArc
 50
90.0
 51
180.0
  0
LINE
  5
37E7
330
1F
100
AcDbEntity
  8
太線
100
AcDbLine
 10
280.442042716236
 20
-112.3988075966214
 30
0.0
 11
280.442042716236
 21
-119.0853102204942
 31
0.0
  0
LINE
  5
37E8
330
1F
100
AcDbEntity
  8
太線
100
AcDbLine
 10
270.4420427162361
 20
-112.5957728699908
 30
0.0
 11
270.4420427162361
 21
-119.0853102204942
 31
0.0
  0
LINE
  5
37E9
330
1F
100
AcDbEntity
  8
太線
100
AcDbLine
 10
284.442042716236
 20
-112.0853102204942
 30
0.0
 11
284.442042716236
 21
-119.0853102204942
 31
0.0
  0
LINE
  5
37EA
330
1F
100
AcDbEntity
  8
太線
100
AcDbLine
 10
266.442042716236
 20
-112.0853102204942
 30
0.0
 11
266.442042716236
 21
-119.0853102204942
 31
0.0
  0
ARC
  5
37EB
330
1F
100
AcDbEntity
  8
破線
100
AcDbCircle
 10
275.442042716236
 20
-117.1644251609823
 30
0.0
 40
13.00000000000004
100
AcDbArc
 50
247.3801350519612
 51
292.6198649480387
  0
LINE
  5
37EC
330
1F
100
AcDbEntity
  8
破線
100
AcDbLine
 10
283.442042716236
 20
-130.1644251609823
 30
0.0
 11
267.442042716236
 21
-130.1644251609823
 31
0.0
  0
LINE
  5
37ED
330
1F
100
AcDbEntity
  8
太線
100
AcDbLine
 10
284.655206700247
 20
-119.0853102204942
 30
0.0
 11
266.2288787322251
 21
-119.0853102204942
 31
0.0
  0
LINE
  5
37EE
330
1F
100
AcDbEntity
  8
破線
100
AcDbLine
 10
281.442042716236
 20
-122.1644251609823
 30
0.0
 11
269.442042716236
 21
-122.1644251609823
 31
0.0
  0
TEXT
  5
37EF
330
1F
100
AcDbEntity
  8
文字
100
AcDbText
 10
261.7281921312078
 20
-154.6844910862268
 30
0.0
 40
5.759999999999999
  1
15-2L500                                                                                                                                                                                 
 51
15.0
  7
OKANO
100
AcDbText
  0
ARC
  5
37F0
330
1F
100
AcDbEntity
  8
太線
100
AcDbCircle
 10
266.2288787322251
 20
-122.0853102204942
 30
0.0
 40
3.0
100
AcDbArc
 50
90.0
 51
151.5570713756351
  0
LINE
  5
37F1
330
1F
100
AcDbEntity
  8
太線
100
AcDbLine
 10
263.5910028326147
 20
-120.6564607748719
 30
0.0
 11
258.7930825998573
 21
-129.5141596661165
 31
0.0
  0
ARC
  5
37F2
330
1F
100
AcDbEntity
  8
太線
100
AcDbCircle
 10
256.155206700247
 20
-128.0853102204942
 30
0.0
 40
3.0
100
AcDbArc
 50
270.0
 51
331.5570713756351
  0
LINE
  5
37F3
330
1F
100
AcDbEntity
  8
破線
100
AcDbLine
 10
270.442042716236
 20
-122.1644251609823
 30
0.0
 11
270.442042716236
 21
-129.1644251609823
 31
0.0
  0
LINE
  5
37F4
330
1F
100
AcDbEntity
  8
破線
100
AcDbLine
 10
266.442042716236
 20
-129.1644251609823
 30
0.0
 11
266.442042716236
 21
-123.1644251609823
 31
0.0
  0
ARC
  5
37F5
330
1F
100
AcDbEntity
  8
破線
100
AcDbCircle
 10
267.442042716236
 20
-129.1644251609823
 30
0.0
 40
1.0
100
AcDbArc
 50
180.0
 51
270.0
  0
LINE
  5
37F6
330
1F
100
AcDbEntity
  8
破線
100
AcDbLine
 10
270.442042716236
 20
-129.1644251609823
 30
0.0
 11
267.442042716236
 21
-130.1644251609823
 31
0.0
  0
LINE
  5
37F7
330
1F
100
AcDbEntity
  8
破線
100
AcDbLine
 10
270.4420427162361
 20
-119.0853102204942
 30
0.0
 11
270.442042716236
 21
-122.1644251609823
 31
0.0
  0
LINE
  5
37F8
330
1F
100
AcDbEntity
  8
破線
100
AcDbLine
 10
269.442042716236
 20
-119.0853102204942
 30
0.0
 11
269.442042716236
 21
-122.1644251609823
 31
0.0
  0
ARC
  5
37F9
330
1F
100
AcDbEntity
  8
破線
100
AcDbCircle
 10
267.442042716236
 20
-123.1644251609823
 30
0.0
 40
1.0
100
AcDbArc
 50
90.0
 51
180.0
  0
LINE
  5
37FA
330
1F
100
AcDbEntity
  8
破線
100
AcDbLine
 10
267.442042716236
 20
-122.1644251609823
 30
0.0
 11
269.442042716236
 21
-122.1644251609823
 31
0.0
  0
LINE
  5
37FB
330
1F
100
AcDbEntity
  8
太線
100
AcDbLine
 10
292.0910028326147
 20
-129.5141596661165
 30
0.0
 11
287.2930825998573
 21
-120.6564607748719
 31
0.0
  0
LINE
  5
37FC
330
1F
100
AcDbEntity
  8
破線
100
AcDbLine
 10
284.442042716236
 20
-123.1644251609823
 30
0.0
 11
284.442042716236
 21
-129.1644251609823
 31
0.0
  0
LINE
  5
37FD
330
1F
100
AcDbEntity
  8
破線
100
AcDbLine
 10
280.442042716236
 20
-122.1644251609823
 30
0.0
 11
280.442042716236
 21
-129.1644251609823
 31
0.0
  0
ARC
  5
37FE
330
1F
100
AcDbEntity
  8
破線
100
AcDbCircle
 10
283.442042716236
 20
-129.1644251609823
 30
0.0
 40
1.0
100
AcDbArc
 50
270.0
 51
0.0
  0
LINE
  5
37FF
330
1F
100
AcDbEntity
  8
破線
100
AcDbLine
 10
280.442042716236
 20
-129.1644251609823
 30
0.0
 11
283.442042716236
 21
-130.1644251609823
 31
0.0
  0
ARC
  5
3800
330
1F
100
AcDbEntity
  8
破線
100
AcDbCircle
 10
283.442042716236
 20
-123.1644251609823
 30
0.0
 40
1.0
100
AcDbArc
 50
0.0
 51
90.0
  0
LINE
  5
3801
330
1F
100
AcDbEntity
  8
破線
100
AcDbLine
 10
281.442042716236
 20
-119.0853102204942
 30
0.0
 11
281.442042716236
 21
-122.1644251609823
 31
0.0
  0
LINE
  5
3802
330
1F
100
AcDbEntity
  8
破線
100
AcDbLine
 10
280.442042716236
 20
-119.0853102204942
 30
0.0
 11
280.442042716236
 21
-122.1644251609823
 31
0.0
  0
LINE
  5
3803
330
1F
100
AcDbEntity
  8
破線
100
AcDbLine
 10
281.442042716236
 20
-122.1644251609823
 30
0.0
 11
283.442042716236
 21
-122.1644251609823
 31
0.0
  0
ARC
  5
3804
330
1F
100
AcDbEntity
  8
太線
100
AcDbCircle
 10
284.655206700247
 20
-122.0853102204942
 30
0.0
 40
3.0
100
AcDbArc
 50
28.4429286243649
 51
90.0
  0
LINE
  5
3805
330
1F
100
AcDbEntity
  8
太線
100
AcDbLine
 10
301.942042716236
 20
-131.0853102204942
 30
0.0
 11
294.728878732225
 21
-131.0853102204942
 31
0.0
  0
ARC
  5
3806
330
1F
100
AcDbEntity
  8
太線
100
AcDbCircle
 10
294.728878732225
 20
-128.0853102204942
 30
0.0
 40
3.0
100
AcDbArc
 50
208.4429286243649
 51
270.0
  0
ARC
  5
3807
330
1F
100
AcDbEntity
  8
太線
100
AcDbCircle
 10
301.942042716236
 20
-132.0853102204942
 30
0.0
 40
1.0
100
AcDbArc
 50
0.0
 51
90.0
  0
LINE
  5
3808
330
1F
100
AcDbEntity
  8
太線
100
AcDbLine
 10
302.942042716236
 20
-133.0853102204942
 30
0.0
 11
302.942042716236
 21
-132.0853102204942
 31
0.0
  0
LINE
  5
3809
330
1F
100
AcDbEntity
  8
破線
100
AcDbLine
 10
270.4318202858299
 20
-101.1595852192414
 30
0.0
 11
281.43182028583
 21
-101.1595852192414
 31
0.0
  0
ARC
  5
380A
330
1F
100
AcDbEntity
  8
破線
100
AcDbCircle
 10
275.442042716236
 20
-97.78562692103987
 30
0.0
 40
13.0
100
AcDbArc
 50
247.3801350519612
 51
292.6198649480387
  0
LINE
  5
380B
330
1F
100
AcDbEntity
  8
太線
100
AcDbLine
 10
277.8652056071726
 20
-111.0806904097522
 30
0.0
 11
280.3289864099899
 21
-112.4652480495045
 31
0.0
  0
LINE
  5
380C
330
1F
100
AcDbEntity
  8
破線
100
AcDbLine
 10
283.442042716236
 20
-110.7856269210398
 30
0.0
 11
267.442042716236
 21
-110.7856269210398
 31
0.0
  0
LINE
  5
380D
330
1F
100
AcDbEntity
  8
太線
100
AcDbLine
 10
283.442042716236
 20
-111.0853102204942
 30
0.0
 11
267.442042716236
 21
-111.0853102204942
 31
0.0
  0
LINE
  5
380E
330
1F
100
AcDbEntity
  8
破線
100
AcDbLine
 10
266.442042716236
 20
-101.7856269210398
 30
0.0
 11
284.442042716236
 21
-101.7856269210398
 31
0.0
  0
LINE
  5
380F
330
1F
100
AcDbEntity
  8
破線
100
AcDbLine
 10
270.442042716236
 20
-101.7856269210398
 30
0.0
 11
270.442042716236
 21
-109.7856269210398
 31
0.0
  0
LINE
  5
3810
330
1F
100
AcDbEntity
  8
破線
100
AcDbLine
 10
266.442042716236
 20
-109.7856269210398
 30
0.0
 11
266.442042716236
 21
-101.7856269210398
 31
0.0
  0
LINE
  5
3811
330
1F
100
AcDbEntity
  8
太線
100
AcDbLine
 10
270.4738660571167
 20
-112.6190877872548
 30
0.0
 11
274.4775080751971
 21
-111.2345301475025
 31
0.0
  0
ARC
  5
3812
330
1F
100
AcDbEntity
  8
太線
100
AcDbCircle
 10
267.442042716236
 20
-112.0853102204942
 30
0.0
 40
1.0
100
AcDbArc
 50
90.0
 51
180.0
  0
LINE
  5
3813
330
1F
100
AcDbEntity
  8
太線
100
AcDbLine
 10
268.164072805024
 20
-110.926850672002
 30
0.0
 11
270.4738660571167
 21
-112.6190877872548
 31
0.0
  0
ARC
  5
3814
330
1F
100
AcDbEntity
  8
破線
100
AcDbCircle
 10
267.442042716236
 20
-109.7856269210398
 30
0.0
 40
1.0
100
AcDbArc
 50
180.0
 51
270.0
  0
LINE
  5
3815
330
1F
100
AcDbEntity
  8
破線
100
AcDbLine
 10
270.442042716236
 20
-109.7856269210398
 30
0.0
 11
267.442042716236
 21
-110.7856269210398
 31
0.0
  0
ARC
  5
3816
330
1F
100
AcDbEntity
  8
破線
100
AcDbCircle
 10
267.4318202858299
 20
-102.1595852192414
 30
0.0
 40
1.0
100
AcDbArc
 50
90.0
 51
180.0
  0
LINE
  5
3817
330
1F
100
AcDbEntity
  8
破線
100
AcDbLine
 10
270.4318202858299
 20
-101.1595852192414
 30
0.0
 11
267.4318202858299
 21
-101.1595852192414
 31
0.0
  0
LINE
  5
3818
330
1F
100
AcDbEntity
  8
破線
100
AcDbLine
 10
284.442042716236
 20
-101.7856269210398
 30
0.0
 11
284.442042716236
 21
-109.7856269210398
 31
0.0
  0
LINE
  5
3819
330
1F
100
AcDbEntity
  8
破線
100
AcDbLine
 10
280.442042716236
 20
-101.7856269210398
 30
0.0
 11
280.442042716236
 21
-109.7856269210398
 31
0.0
  0
ARC
  5
381A
330
1F
100
AcDbEntity
  8
太線
100
AcDbCircle
 10
283.442042716236
 20
-112.0853102204942
 30
0.0
 40
1.0
100
AcDbArc
 50
0.0
 51
90.0
  0
LINE
  5
381B
330
1F
100
AcDbEntity
  8
太線
100
AcDbLine
 10
280.3289864099899
 20
-112.4652480495045
 30
0.0
 11
282.9467519051352
 21
-110.926850672002
 31
0.0
  0
ARC
  5
381C
330
1F
100
AcDbEntity
  8
破線
100
AcDbCircle
 10
283.442042716236
 20
-109.7856269210398
 30
0.0
 40
1.0
100
AcDbArc
 50
270.0
 51
0.0
  0
LINE
  5
381D
330
1F
100
AcDbEntity
  8
破線
100
AcDbLine
 10
280.442042716236
 20
-109.7856269210398
 30
0.0
 11
283.442042716236
 21
-110.7856269210398
 31
0.0
  0
ARC
  5
381E
330
1F
100
AcDbEntity
  8
破線
100
AcDbCircle
 10
283.43182028583
 20
-102.1595852192414
 30
0.0
 40
1.0
100
AcDbArc
 50
0.0
 51
90.0
  0
LINE
  5
381F
330
1F
100
AcDbEntity
  8
破線
100
AcDbLine
 10
281.43182028583
 20
-101.1595852192414
 30
0.0
 11
283.43182028583
 21
-101.1595852192414
 31
0.0
  0
LINE
  5
3828
330
1F
100
AcDbEntity
  8
太線
100
AcDbLine
 10
280.442042716236
 20
-48.16982028593969
 30
0.0
 11
281.442042716236
 21
-50.8708473434412
 31
0.0
  0
LINE
  5
3829
330
1F
100
AcDbEntity
  8
太線
100
AcDbLine
 10
269.442042716236
 20
-50.8708473434412
 30
0.0
 11
270.442042716236
 21
-48.16982028593969
 31
0.0
  0
TEXT
  5
382A
330
1F
100
AcDbEntity
  8
文字
100
AcDbText
 10
246.0216652467195
 20
-66.84509226991116
 30
0.0
 40
5.759999999999999
  1
M-12                          
 51
15.0
  7
OKANO
100
AcDbText
  0
LINE
  5
3834
330
1F
100
AcDbEntity
  8
太線
100
AcDbLine
 10
270.442042716236
 20
-48.16982028593969
 30
0.0
 11
280.442042716236
 21
-48.16982028593969
 31
0.0
  0
DIMENSION
  5
38A6
330
1F
100
AcDbEntity
  8
寸法線
370
    25
100
AcDbDimension
  2
*D7
 10
414.0356814466753
 20
109.3194099197185
 30
0.0
 11
379.0356814466757
 21
111.1944099197185
 31
0.0
 70
    32
 71
     5
 42
69.99999999999914
  3
ISO-25
100
AcDbAlignedDimension
 13
344.0356814466761
 23
144.3344004934369
 33
0.0
 14
414.0356814466753
 24
144.3344004934361
 34
0.0
100
AcDbRotatedDimension
  0
ARC
  5
38A7
330
1F
100
AcDbEntity
  8
太線
370
    25
100
AcDbCircle
 10
414.0356814466757
 20
144.3344004934367
 30
0.0
 40
29.92684640862699
100
AcDbArc
 50
246.469298145232
 51
109.6483671244479
  0
DIMENSION
  5
38A8
330
1F
100
AcDbEntity
  8
寸法線
370
    25
100
AcDbDimension
  2
*D8
 10
410.2943583523535
 20
139.9680517322989
 30
0.0
 11
422.7242888374803
 21
157.3561948930667
 31
0.0
 70
    35
 71
     5
 42
11.5
  3
ISO-25
100
AcDbDiametricDimension
 15
417.7770045409982
 25
148.7007492545746
 35
0.0
 40
0.0
1001
ACAD
1000
DSTYLE
1002
{
1070
   288
1070
     1
1002
}
  0
CIRCLE
  5
38A9
330
1F
100
AcDbEntity
  8
太線
370
    25
100
AcDbCircle
 10
414.0356814466757
 20
144.3344004934367
 30
0.0
 40
5.75
  0
CIRCLE
  5
38AA
330
1F
100
AcDbEntity
  8
太線
370
    25
100
AcDbCircle
 10
414.0356814466757
 20
144.3344004934367
 30
0.0
 40
22.5
  0
DIMENSION
  5
38AB
330
1F
100
AcDbEntity
  8
寸法線
370
    25
100
AcDbDimension
  2
*D9
 10
339.0020205413386
 20
142.118039085615
 30
0.0
 11
362.1058942302724
 21
152.2908606121996
 31
0.0
 70
   163
 71
     5
 42
11.00000000000005
  3
ISO-25
100
AcDbDiametricDimension
 15
349.0693423520129
 25
146.5507619012584
 35
0.0
 40
0.0
1001
ACAD
1000
DSTYLE
1002
{
1070
   288
1070
     1
1002
}
  0
DIMENSION
  5
38AC
330
1F
100
AcDbEntity
  8
寸法線
370
    25
100
AcDbDimension
  2
*D10
 10
344.0356814466757
 20
144.334400493437
 30
0.0
 11
326.9759426340475
 21
153.8494154634061
 31
0.0
 70
    36
  1
10.5
 71
     5
 42
10.69362551670423
  3
ISO-25
100
AcDbRadialDimension
 15
334.2396051447737
 25
148.6228169586165
 35
0.0
 40
0.0
1001
ACAD
1000
DSTYLE
1002
{
1070
   288
1070
     1
1002
}
  0
ARC
  5
38AD
330
1F
100
AcDbEntity
  8
太線
370
    25
100
AcDbCircle
 10
344.0356814466757
 20
144.3344004934367
 30
0.0
 40
10.69362551670436
100
AcDbArc
 50
94.16865786076614
 51
258.8810334751942
  0
LINE
  5
38AE
330
1F
100
AcDbEntity
  8
太線
370
    25
100
AcDbLine
 10
340.3141395197094
 20
134.3092445157303
 30
0.0
 11
407.777704080749
 21
115.2921371312811
 31
0.0
  0
CIRCLE
  5
38AF
330
1F
100
AcDbEntity
  8
太線
370
    25
100
AcDbCircle
 10
344.0356814466757
 20
144.3344004934367
 30
0.0
 40
5.5
  0
LINE
  5
38B0
330
1F
100
AcDbEntity
  8
太線
370
    25
100
AcDbLine
 10
340.796021151295
 20
154.2892423721066
 30
0.0
 11
407.5367632649563
 21
173.5470723745377
 31
0.0
  0
ARC
  5
38B1
330
1F
100
AcDbEntity
  8
太線
370
    25
100
AcDbCircle
 10
344.0356814466757
 20
144.3344004934367
 30
0.0
 40
10.46872846427808
100
AcDbArc
 50
104.1639218140664
 51
108.0267342608357
  0
ARC
  5
38B2
330
1F
100
AcDbEntity
  8
太線
370
    25
100
AcDbCircle
 10
414.0356814466757
 20
144.3344004934367
 30
0.0
 40
30.0
100
AcDbArc
 50
104.6493206882397
 51
107.4628139467074
  0
DIMENSION
  5
390D
330
1F
100
AcDbEntity
  8
寸法線
100
AcDbDimension
  2
*D11
 10
417.4860668319904
 20
139.7346895576488
 30
0.0
 11
388.06915136542
 21
178.9503981404104
 31
0.0
 70
   163
  1
30
 71
     5
 42
11.50000000000008
  3
sunpo
100
AcDbDiametricDimension
 15
410.5852960613606
 25
148.9341114292244
 35
0.0
 40
0.0
1001
ACAD
1000
DSTYLE
1002
{
1070
    40
1040
1.0
1070
   288
1070
     1
1002
}
  0
LINE
  5
394D
330
1F
100
AcDbEntity
  8
太線
370
    25
100
AcDbLine
 10
411.3327263495277
 20
-118.8793510078207
 30
0.0
 11
392.9063983815057
 21
-118.8793510078207
 31
0.0
  0
LINE
  5
394E
330
1F
100
AcDbEntity
  8
太線
370
    25
100
AcDbLine
 10
332.1195623655166
 20
-132.8793510078207
 30
0.0
 11
429.6195623655166
 21
-132.8793510078207
 31
0.0
  0
LINE
  5
3952
330
1F
100
AcDbEntity
  8
太線
370
    25
100
AcDbLine
 10
382.8327263495276
 20
-130.8793510078207
 30
0.0
 11
332.1195623655166
 21
-130.8793510078203
 31
0.0
  0
ARC
  5
3953
330
1F
100
AcDbEntity
  8
太線
370
    25
100
AcDbCircle
 10
333.0136485697103
 20
-131.8793510078207
 30
0.0
 40
1.0
100
AcDbArc
 50
90.0
 51
180.0
  0
LINE
  5
3954
330
1F
100
AcDbEntity
  8
太線
370
    25
100
AcDbLine
 10
331.7305553003488
 20
-131.8793510078207
 30
0.0
 11
331.7305553003488
 21
-132.8793510078207
 31
0.0
  0
LINE
  5
3955
330
1F
100
AcDbEntity
  8
太線
370
    25
100
AcDbLine
 10
337.1195623655166
 20
-130.8793510078203
 30
0.0
 11
337.1195623655166
 21
-132.8793510078207
 31
0.0
  0
LINE
  5
3956
330
1F
100
AcDbEntity
  8
太線
370
    25
100
AcDbLine
 10
348.1195623655167
 20
-130.8793510078205
 30
0.0
 11
348.1195623655167
 21
-132.8793510078207
 31
0.0
  0
LINE
  5
3957
330
1F
100
AcDbEntity
  8
太線
370
    25
100
AcDbLine
 10
390.2685224818954
 20
-120.4505015621984
 30
0.0
 11
385.4706022491379
 21
-129.308200453443
 31
0.0
  0
ARC
  5
3958
330
1F
100
AcDbEntity
  8
太線
370
    25
100
AcDbCircle
 10
382.8327263495276
 20
-127.8793510078207
 30
0.0
 40
3.0
100
AcDbArc
 50
270.0
 51
331.5570713756365
  0
ARC
  5
395D
330
1F
100
AcDbEntity
  8
太線
370
    25
100
AcDbCircle
 10
392.9063983815057
 20
-121.8793510078207
 30
0.0
 40
3.0
100
AcDbArc
 50
90.0
 51
151.5570713756365
  0
LINE
  5
3966
330
1F
100
AcDbEntity
  8
太線
370
    25
100
AcDbLine
 10
428.6195623655166
 20
-130.8793510078207
 30
0.0
 11
421.4063983815057
 21
-130.8793510078207
 31
0.0
  0
LINE
  5
3967
330
1F
100
AcDbEntity
  8
太線
370
    25
100
AcDbLine
 10
418.7685224818953
 20
-129.308200453443
 30
0.0
 11
413.9706022491379
 21
-120.4505015621984
 31
0.0
  0
ARC
  5
3969
330
1F
100
AcDbEntity
  8
太線
370
    25
100
AcDbCircle
 10
411.3327263495277
 20
-121.8793510078207
 30
0.0
 40
3.0
100
AcDbArc
 50
28.44292862436347
 51
90.0
  0
ARC
  5
396E
330
1F
100
AcDbEntity
  8
太線
370
    25
100
AcDbCircle
 10
421.4063983815057
 20
-127.8793510078207
 30
0.0
 40
3.0
100
AcDbArc
 50
208.4429286243634
 51
270.0
  0
ARC
  5
396F
330
1F
100
AcDbEntity
  8
太線
370
    25
100
AcDbCircle
 10
428.6195623655166
 20
-131.8793510078207
 30
0.0
 40
1.0
100
AcDbArc
 50
0.0
 51
90.0
  0
LINE
  5
3970
330
1F
100
AcDbEntity
  8
太線
370
    25
100
AcDbLine
 10
429.6195623655166
 20
-132.8793510078207
 30
0.0
 11
429.6195623655166
 21
-131.8793510078207
 31
0.0
  0
TEXT
  5
3986
330
1F
100
AcDbEntity
  8
文字
100
AcDbText
 10
356.8464327079268
 20
-172.976147904171
 30
0.0
 40
5.759999999999999
  1
水平調整30mm　500kタイプ                                                                                                                                      
 51
15.0
  7
OKANO
100
AcDbText
  0
DIMENSION
  5
3987
330
1F
100
AcDbEntity
  8
寸法線
100
AcDbDimension
  2
*D12
 10
348.3619186387545
 20
-119.0017245166522
 30
0.0
 11
342.794778446907
 21
-115.5017245166522
 31
0.0
 70
    32
  1
11
 71
     5
 42
11.13428038369511
  3
sunpo
100
AcDbAlignedDimension
 13
337.2276382550594
 23
-129.4348014968863
 33
0.0
 14
348.3619186387545
 24
-128.7392637371141
 34
0.0
100
AcDbRotatedDimension
1001
ACAD
1000
DSTYLE
1002
{
1070
    40
1040
1.0
1002
}
  0
DIMENSION
  5
39ED
330
1F
100
AcDbEntity
  8
寸法線
100
AcDbDimension
  2
*D14
 10
302.942042716236
 20
-142.4704963827932
 30
0.0
 11
275.442042716236
 21
-138.9704963827932
 31
0.0
 70
    32
  1
60
 71
     5
 42
55.0
  3
sunpo
100
AcDbAlignedDimension
 13
247.942042716236
 23
-133.0853102204942
 33
0.0
 14
302.942042716236
 24
-133.0853102204942
 34
0.0
100
AcDbRotatedDimension
1001
ACAD
1000
DSTYLE
1002
{
1070
    40
1040
1.0
1002
}
  0
DIMENSION
  5
39FA
330
1F
100
AcDbEntity
  8
寸法線
100
AcDbDimension
  2
*D15
 10
402.3713237918277
 20
-140.3150853971334
 30
0.0
 11
415.9954430786722
 21
-136.8150853971334
 31
0.0
 70
    32
  1
30
 71
     5
 42
27.24823857368892
  3
sunpo
100
AcDbAlignedDimension
 13
429.6195623655166
 23
-132.8793510078207
 33
0.0
 14
402.3713237918277
 24
-130.1644251609823
 34
0.0
100
AcDbRotatedDimension
1001
ACAD
1000
DSTYLE
1002
{
1070
    40
1040
1.0
1002
}
  0
DIMENSION
  5
3A07
330
1F
100
AcDbEntity
  8
寸法線
100
AcDbDimension
  2
*D16
 10
342.2910616604849
 20
-140.3150853971334
 30
0.0
 11
372.3311927261563
 21
-136.8150853971334
 31
0.0
 70
    32
  1
70
 71
     5
 42
60.0802621313428
  3
sunpo
100
AcDbAlignedDimension
 13
402.3713237918277
 23
-130.1644251609823
 33
0.0
 14
342.2910616604849
 24
-137.8004401291681
 34
0.0
100
AcDbRotatedDimension
1001
ACAD
1000
DSTYLE
1002
{
1070
    40
1040
1.0
1070
   279
1070
     1
1002
}
  0
DIMENSION
  5
3A14
330
1F
100
AcDbEntity
  8
寸法線
100
AcDbDimension
  2
*D17
 10
332.2244569203858
 20
-140.3150853971334
 30
0.0
 11
341.8577592904354
 21
-148.8150853971334
 31
0.0
 70
    32
  1
10.5
 71
     5
 42
10.06660474009913
  3
sunpo
100
AcDbAlignedDimension
 13
342.2910616604849
 23
-137.8004401291681
 33
0.0
 14
332.2244569203858
 24
-137.4412045239061
 34
0.0
100
AcDbRotatedDimension
1001
ACAD
1000
DSTYLE
1002
{
1070
    40
1040
1.0
1070
   279
1070
     1
1002
}
  0
DIMENSION
  5
3A69
330
1F
100
AcDbEntity
  8
寸法線
100
AcDbDimension
  2
*D18
 10
323.8433005193223
 20
-130.8793510078203
 30
0.0
 11
320.3428083933382
 21
-122.2970034324698
 31
0.0
 70
    32
 71
     5
 42
2.000000000000341
  3
sunpo
100
AcDbAlignedDimension
 13
331.7305553003488
 23
-132.8793510078207
 33
0.0
 14
332.1195623655166
 24
-130.8793510078203
 34
0.0
 50
90.0
100
AcDbRotatedDimension
1001
ACAD
1000
DSTYLE
1002
{
1070
    40
1040
1.0
1002
}
  0
DIMENSION
  5
3A91
330
1F
100
AcDbEntity
  8
寸法線
100
AcDbDimension
  2
*D19
 10
472.4527297064082
 20
-127.5439503883553
 30
0.0
 11
468.9527297064082
 21
-116.5660647053851
 31
0.0
 70
    32
  1
5.5
 71
     5
 42
5.0
  3
sunpo
100
AcDbAlignedDimension
 13
481.1007384689503
 23
-132.5439503883553
 33
0.0
 14
486.1007384689503
 24
-127.5439503883553
 34
0.0
 50
90.0
100
AcDbRotatedDimension
1001
ACAD
1000
DSTYLE
1002
{
1070
    40
1040
1.0
1002
}
  0
DIMENSION
  5
3AAC
330
1F
100
AcDbEntity
  8
寸法線
100
AcDbDimension
  2
*D20
 10
601.1007384689503
 20
-144.4783488244961
 30
0.0
 11
541.1007384689503
 21
-140.978348824496
 31
0.0
 70
    32
  1
160
 71
     5
 42
120.0
  3
sunpo
100
AcDbAlignedDimension
 13
481.1007384689503
 23
-132.5439503883553
 33
0.0
 14
601.1007384689503
 24
-132.5439503883552
 34
0.0
100
AcDbRotatedDimension
1001
ACAD
1000
DSTYLE
1002
{
1070
    40
1040
1.0
1002
}
  0
LEADER
  5
3B7B
330
1F
100
AcDbEntity
  8
寸法線
100
AcDbLeader
  3
sunpo
 76
     2
 10
523.7527184710729
 20
117.4232651933441
 30
0.0
 10
502.9093627733236
 20
84.10046291100753
 30
0.0
1001
ACAD
1000
DSTYLE
1002
{
1070
   147
1040
1.0
1070
    77
1070
     0
1002
}
  0
LINE
  5
3B84
330
1F
100
AcDbEntity
  8
想像線
100
AcDbLine
 10
45.01572565508135
 20
-38.14391500438995
 30
0.0
 11
45.01572565508135
 21
-72.14391500438996
 31
0.0
  0
LINE
  5
3B85
330
1F
100
AcDbEntity
  8
想像線
100
AcDbLine
 10
35.01572565508135
 20
-38.14391500438995
 30
0.0
 11
35.01572565508135
 21
-72.14391500438996
 31
0.0
  0
LINE
  5
3B86
330
1F
100
AcDbEntity
  8
太線
100
AcDbLine
 10
34.01572565508135
 20
-39.44462738119545
 30
0.0
 11
34.01572565508135
 21
-72.14391500438996
 31
0.0
  0
LINE
  5
3B87
330
1F
100
AcDbEntity
  8
太線
100
AcDbLine
 10
46.01572565508135
 20
-72.14391500438996
 30
0.0
 11
46.01572565508135
 21
-39.44462738119545
 31
0.0
  0
LINE
  5
3B88
330
1F
100
AcDbEntity
  8
太線
100
AcDbLine
 10
45.01572565508135
 20
-72.14391500438996
 30
0.0
 11
34.01572565508135
 21
-72.14391500438996
 31
0.0
  0
ARC
  5
3B89
330
1F
100
AcDbEntity
  8
細線
100
AcDbCircle
 10
38.26818484582881
 20
-77.03859698015907
 30
0.0
 40
1.040603392511691
100
AcDbArc
 50
207.0324924700558
 51
343.3477876073676
  0
LINE
  5
3B8A
330
1F
100
AcDbEntity
  8
太線
100
AcDbLine
 10
46.01572565508135
 20
-86.14391500438996
 30
0.0
 11
25.44517306503654
 21
-105.547505890298
 31
0.0
  0
LINE
  5
3B8B
330
1F
100
AcDbEntity
  8
太線
100
AcDbLine
 10
59.01572565508136
 20
-82.14391500438996
 30
0.0
 11
25.01572565508132
 21
-82.14391500438996
 31
0.0
  0
LINE
  5
3B8C
330
1F
100
AcDbEntity
  8
太線
100
AcDbLine
 10
56.01572565508135
 20
-78.14391500438995
 30
0.0
 11
24.01572565508135
 21
-78.14391500438995
 31
0.0
  0
LINE
  5
3B8D
330
1F
100
AcDbEntity
  8
細線
100
AcDbLine
 10
56.01572565508135
 20
-77.14391500438996
 30
0.0
 11
24.01572565508135
 21
-77.14391500438996
 31
0.0
  0
LINE
  5
3B8E
330
1F
100
AcDbEntity
  8
太線
100
AcDbLine
 10
49.01572565508136
 20
-75.14391500438995
 30
0.0
 11
31.01572565508135
 21
-75.14391500438995
 31
0.0
  0
ARC
  5
3B8F
330
1F
100
AcDbEntity
  8
太線
100
AcDbCircle
 10
14.01572565508135
 20
-107.1439150043899
 30
0.0
 40
25.0
100
AcDbArc
 50
91.13452041214289
 51
130.8229120270868
  0
DIMENSION
  5
3B90
330
1F
100
AcDbEntity
  8
寸法線
100
AcDbDimension
  2
*D21
 10
68.67365302414191
 20
-131.8321743242804
 30
0.0
 11
65.17365302414194
 21
-101.6240053463055
 31
0.0
 70
    32
  1
85
 71
     5
 42
60.41633795594977
  3
sunpo
100
AcDbAlignedDimension
 13
49.75721205461013
 23
-71.4158363683307
 33
0.0
 14
49.75721205461013
 24
-131.8321743242804
 34
0.0
 50
90.0
100
AcDbRotatedDimension
1001
ACAD
1000
DSTYLE
1002
{
1070
    40
1040
1.0
1002
}
  0
LINE
  5
3B91
330
1F
100
AcDbEntity
  8
太線
100
AcDbLine
 10
49.01572565508136
 20
-73.14391500438995
 30
0.0
 11
49.01572565508136
 21
-75.14391500438995
 31
0.0
  0
ARC
  5
3B92
330
1F
100
AcDbEntity
  8
太線
100
AcDbCircle
 10
55.01572565508135
 20
-76.14391500438995
 30
0.0
 40
1.0
100
AcDbArc
 50
0.000000000000007
 51
90.0
  0
LINE
  5
3B93
330
1F
100
AcDbEntity
  8
想像線
100
AcDbLine
 10
46.01572565508135
 20
-72.14391500438996
 30
0.0
 11
46.01572565508135
 21
-75.14391500438995
 31
0.0
  0
ARC
  5
3B94
330
1F
100
AcDbEntity
  8
細線
100
AcDbCircle
 10
51.54008795150693
 20
-77.03859698015907
 30
0.0
 40
1.040603392511691
100
AcDbArc
 50
207.0324924700558
 51
343.3477876073676
  0
LINE
  5
3B95
330
1F
100
AcDbEntity
  8
太線
100
AcDbLine
 10
49.01572565508136
 20
-75.14391500438995
 30
0.0
 11
55.01572565508135
 21
-75.14391500438995
 31
0.0
  0
LINE
  5
3B96
330
1F
100
AcDbEntity
  8
太線
100
AcDbLine
 10
58.01572565508135
 20
-86.14391500438996
 30
0.0
 11
46.01572565508135
 21
-86.14391500438996
 31
0.0
  0
ARC
  5
3B97
330
1F
100
AcDbEntity
  8
太線
100
AcDbCircle
 10
58.01572565508135
 20
-85.14391500438994
 30
0.0
 40
1.0
100
AcDbArc
 50
270.0
 51
0.000000000000007
  0
LINE
  5
3B98
330
1F
100
AcDbEntity
  8
太線
100
AcDbLine
 10
56.01572565508135
 20
-78.14391500438995
 30
0.0
 11
58.01572565508135
 21
-78.14391500438995
 31
0.0
  0
ARC
  5
3B99
330
1F
100
AcDbEntity
  8
太線
100
AcDbCircle
 10
58.01572565508135
 20
-79.14391500438995
 30
0.0
 40
1.0
100
AcDbArc
 50
0.000000000000007
 51
90.0
  0
LINE
  5
3B9A
330
1F
100
AcDbEntity
  8
太線
100
AcDbLine
 10
59.01572565508136
 20
-79.14391500438995
 30
0.0
 11
59.01572565508136
 21
-85.14391500438994
 31
0.0
  0
LINE
  5
3B9B
330
1F
100
AcDbEntity
  8
太線
100
AcDbLine
 10
56.01572565508135
 20
-76.14391500438995
 30
0.0
 11
56.01572565508135
 21
-78.14391500438995
 31
0.0
  0
ARC
  5
3B9C
330
1F
100
AcDbEntity
  8
細線
100
AcDbCircle
 10
53.99448113962453
 20
-77.03859698015907
 30
0.0
 40
1.040603392511691
100
AcDbArc
 50
207.0324924700558
 51
343.3477876073676
  0
ARC
  5
3B9D
330
1F
100
AcDbEntity
  8
細線
100
AcDbCircle
 10
48.63117756790288
 20
-77.03859698015907
 30
0.0
 40
1.040603392511691
100
AcDbArc
 50
207.0324924700558
 51
343.3477876073676
  0
ARC
  5
3B9E
330
1F
100
AcDbEntity
  8
細線
100
AcDbCircle
 10
46.17678437978528
 20
-77.03859698015907
 30
0.0
 40
1.040603392511691
100
AcDbArc
 50
207.0324924700558
 51
343.3477876073676
  0
ARC
  5
3B9F
330
1F
100
AcDbEntity
  8
細線
100
AcDbCircle
 10
43.63148841755045
 20
-77.03859698015907
 30
0.0
 40
1.040603392511691
100
AcDbArc
 50
207.0324924700558
 51
343.3477876073676
  0
ARC
  5
3BA0
330
1F
100
AcDbEntity
  8
細線
100
AcDbCircle
 10
41.17709522943286
 20
-77.03859698015907
 30
0.0
 40
1.040603392511691
100
AcDbArc
 50
207.0324924700558
 51
343.3477876073676
  0
LINE
  5
3BA2
330
1F
100
AcDbEntity
  8
太線
100
AcDbLine
 10
45.01572565508135
 20
-72.14391500438996
 30
0.0
 11
48.01572565508135
 21
-72.14391500438996
 31
0.0
  0
ARC
  5
3BA3
330
1F
100
AcDbEntity
  8
太線
100
AcDbCircle
 10
48.01572565508135
 20
-73.14391500438995
 30
0.0
 40
1.0
100
AcDbArc
 50
0.000000000000007
 51
90.0
  0
LINE
  5
3BA4
330
1F
100
AcDbEntity
  8
太線
100
AcDbLine
 10
44.89567036934909
 20
-72.53667055959187
 30
0.0
 11
44.89567036934909
 21
-74.82353396490504
 31
0.0
  0
LINE
  5
3BA5
330
1F
100
AcDbEntity
  8
太線
100
AcDbLine
 10
24.01572565508132
 20
-83.14391500438995
 30
0.0
 11
24.01572565508134
 21
-101.7969622022553
 31
0.0
  0
LINE
  5
3BA6
330
1F
100
AcDbEntity
  8
太線
100
AcDbLine
 10
14.01572565508135
 20
-80.14391500438994
 30
0.0
 11
9.956433071870231
 21
-96.58543460343169
 31
0.0
  0
ARC
  5
3BA7
330
1F
100
AcDbEntity
  8
太線
100
AcDbCircle
 10
14.01572565508135
 20
-107.1439150043899
 30
0.0
 40
18.08191140861927
100
AcDbArc
 50
97.10360178722766
 51
124.3072527398775
  0
CIRCLE
  5
3BA9
330
1F
100
AcDbEntity
  8
太線
100
AcDbCircle
 10
14.01572565508135
 20
-107.1439150043899
 30
0.0
 40
2.198751160989681
  0
ARC
  5
3BAC
330
1F
100
AcDbEntity
  8
太線
100
AcDbCircle
 10
25.01572565508135
 20
-76.14391500438995
 30
0.0
 40
1.0
100
AcDbArc
 50
90.0
 51
180.0
  0
LINE
  5
3BAD
330
1F
100
AcDbEntity
  8
太線
100
AcDbLine
 10
31.01572565508135
 20
-73.14391500438995
 30
0.0
 11
31.01572565508135
 21
-75.14391500438995
 31
0.0
  0
LINE
  5
3BAE
330
1F
100
AcDbEntity
  8
想像線
100
AcDbLine
 10
34.01572565508135
 20
-72.14391500438996
 30
0.0
 11
34.01572565508135
 21
-75.14391500438995
 31
0.0
  0
LINE
  5
3BAF
330
1F
100
AcDbEntity
  8
太線
100
AcDbLine
 10
34.97661532872621
 20
-72.53667055959187
 30
0.0
 11
34.97661532872621
 21
-75.20467880553138
 31
0.0
  0
ARC
  5
3BB0
330
1F
100
AcDbEntity
  8
細線
100
AcDbCircle
 10
25.26899172495254
 20
-77.03859698015907
 30
0.0
 40
1.040603392511691
100
AcDbArc
 50
207.0324924700558
 51
343.3477876073676
  0
LINE
  5
3BB1
330
1F
100
AcDbEntity
  8
太線
100
AcDbLine
 10
31.01572565508135
 20
-75.14391500438995
 30
0.0
 11
25.01572565508135
 21
-75.14391500438995
 31
0.0
  0
ARC
  5
3BB2
330
1F
100
AcDbEntity
  8
細線
100
AcDbCircle
 10
33.08668848479177
 20
-77.03859698015907
 30
0.0
 40
1.040603392511691
100
AcDbArc
 50
207.0324924700558
 51
343.3477876073676
  0
ARC
  5
3BB3
330
1F
100
AcDbEntity
  8
細線
100
AcDbCircle
 10
35.81379165771122
 20
-77.03859698015907
 30
0.0
 40
1.040603392511691
100
AcDbArc
 50
207.0324924700558
 51
343.3477876073676
  0
ARC
  5
3BB4
330
1F
100
AcDbEntity
  8
細線
100
AcDbCircle
 10
30.63229529667419
 20
-77.03859698015907
 30
0.0
 40
1.040603392511691
100
AcDbArc
 50
207.0324924700558
 51
343.3477876073676
  0
ARC
  5
3BB5
330
1F
100
AcDbEntity
  8
細線
100
AcDbCircle
 10
27.72338491307013
 20
-77.03859698015907
 30
0.0
 40
1.040603392511691
100
AcDbArc
 50
207.0324924700558
 51
343.3477876073676
  0
LINE
  5
3BB6
330
1F
100
AcDbEntity
  8
太線
100
AcDbLine
 10
21.01572565508135
 20
-78.14391500438995
 30
0.0
 11
14.01572565508135
 21
-80.14391500438994
 31
0.0
  0
LINE
  5
3BB7
330
1F
100
AcDbEntity
  8
太線
100
AcDbLine
 10
24.01572565508135
 20
-76.14391500438995
 30
0.0
 11
24.01572565508135
 21
-78.14391500438995
 31
0.0
  0
LINE
  5
3BB8
330
1F
100
AcDbEntity
  8
太線
100
AcDbLine
 10
24.01572565508135
 20
-78.14391500438995
 30
0.0
 11
21.01572565508135
 21
-78.14391500438995
 31
0.0
  0
ARC
  5
3BB9
330
1F
100
AcDbEntity
  8
太線
100
AcDbCircle
 10
25.01572565508132
 20
-83.14391500438995
 30
0.0
 40
1.0
100
AcDbArc
 50
90.0
 51
180.0
  0
LINE
  5
3BBB
330
1F
100
AcDbEntity
  8
太線
100
AcDbLine
 10
34.01572565508135
 20
-72.14391500438996
 30
0.0
 11
32.01572565508135
 21
-72.14391500438996
 31
0.0
  0
ARC
  5
3BBC
330
1F
100
AcDbEntity
  8
太線
100
AcDbCircle
 10
32.01572565508135
 20
-73.14391500438995
 30
0.0
 40
1.0
100
AcDbArc
 50
90.0
 51
180.0
  0
LINE
  5
3BBD
330
1F
100
AcDbEntity
  8
想像線
100
AcDbLine
 10
30.01572565508135
 20
-62.14391500438996
 30
0.0
 11
30.01572565508135
 21
-61.64391500438995
 31
0.0
  0
LINE
  5
3BBE
330
1F
100
AcDbEntity
  8
太線
100
AcDbLine
 10
45.01572565508135
 20
-38.14391500438995
 30
0.0
 11
35.01572565508135
 21
-38.14391500438995
 31
0.0
  0
LINE
  5
3BBF
330
1F
100
AcDbEntity
  8
太線
100
AcDbLine
 10
46.01572565508135
 20
-39.44462738119545
 30
0.0
 11
45.01572565508135
 21
-38.14391500438995
 31
0.0
  0
LINE
  5
3BC0
330
1F
100
AcDbEntity
  8
太線
100
AcDbLine
 10
35.01572565508135
 20
-38.14391500438995
 30
0.0
 11
34.01572565508135
 21
-39.44462738119545
 31
0.0
  0
DIMENSION
  5
3BEA
330
1F
100
AcDbEntity
  8
寸法線
100
AcDbDimension
  2
*D22
 10
196.1757604225565
 20
-182.8735642879614
 30
0.0
 11
192.6757604225565
 21
-127.144700328146
 31
0.0
 70
    32
  1
135
 71
     5
 42
111.4577279196306
  3
sunpo
100
AcDbAlignedDimension
 13
169.5922258477567
 23
-71.4158363683307
 33
0.0
 14
169.5922258477567
 24
-182.8735642879613
 34
0.0
 50
90.0
100
AcDbRotatedDimension
1001
ACAD
1000
DSTYLE
1002
{
1070
    40
1040
1.0
1002
}
  0
CIRCLE
  5
3BEB
330
1F
100
AcDbEntity
  8
太線
100
AcDbCircle
 10
135.2691945056584
 20
-138.0349421567257
 30
0.0
 40
2.198751160989681
  0
ARC
  5
3BED
330
1F
100
AcDbEntity
  8
太線
100
AcDbCircle
 10
134.5715424728357
 20
-138.2801238995357
 30
0.0
 40
16.79907253088356
100
AcDbArc
 50
171.1353013454613
 51
303.4277270929855
  0
ARC
  5
3BEE
330
1F
100
AcDbEntity
  8
太線
100
AcDbCircle
 10
135.0311150209386
 20
-138.7377109460389
 30
0.0
 40
31.50138819427047
100
AcDbArc
 50
94.81976617207925
 51
120.468943696815
  0
LINE
  5
3BEF
330
1F
100
AcDbEntity
  8
太線
100
AcDbLine
 10
170.7869916533768
 20
-90.46737900394385
 30
0.0
 11
151.5671572699792
 21
-123.2662745914826
 31
0.0
  0
ARC
  5
3BF0
330
1F
100
AcDbEntity
  8
太線
100
AcDbCircle
 10
135.0311150209386
 20
-138.7377109460389
 30
0.0
 40
44.43547654268127
100
AcDbArc
 50
91.57671050712171
 51
128.5662336141981
  0
LINE
  5
3BF2
330
1F
100
AcDbEntity
  8
太線
100
AcDbLine
 10
166.6224896369902
 20
-72.14391500438996
 30
0.0
 11
166.6224896369902
 21
-39.44462738119545
 31
0.0
  0
LINE
  5
3BF3
330
1F
100
AcDbEntity
  8
太線
100
AcDbLine
 10
154.6224896369902
 20
-39.44462738119545
 30
0.0
 11
154.6224896369902
 21
-72.14391500438996
 31
0.0
  0
LINE
  5
3BF4
330
1F
100
AcDbEntity
  8
想像線
100
AcDbLine
 10
155.6224896369902
 20
-38.14391500438995
 30
0.0
 11
155.6224896369902
 21
-72.14391500438996
 31
0.0
  0
LINE
  5
3BF5
330
1F
100
AcDbEntity
  8
想像線
100
AcDbLine
 10
165.6224896369902
 20
-38.14391500438995
 30
0.0
 11
165.6224896369902
 21
-72.14391500438996
 31
0.0
  0
LINE
  5
3BF6
330
1F
100
AcDbEntity
  8
太線
100
AcDbLine
 10
176.6224896369902
 20
-78.66738796628232
 30
0.0
 11
178.6224896369902
 21
-78.66738796628232
 31
0.0
  0
LINE
  5
3BF7
330
1F
100
AcDbEntity
  8
太線
100
AcDbLine
 10
170.7869916533768
 20
-90.46737900394385
 30
0.0
 11
179.6224896369902
 21
-85.66738796628232
 31
0.0
  0
LINE
  5
3BF8
330
1F
100
AcDbEntity
  8
太線
100
AcDbLine
 10
153.9726758979472
 20
-87.88290630688482
 30
0.0
 11
179.1941495310914
 21
-85.94455178409067
 31
0.0
  0
LINE
  5
3BF9
330
1F
100
AcDbEntity
  8
太線
100
AcDbLine
 10
179.6224896369902
 20
-79.66738796628232
 30
0.0
 11
179.6224896369902
 21
-85.66738796628232
 31
0.0
  0
ARC
  5
3BFA
330
1F
100
AcDbEntity
  8
太線
100
AcDbCircle
 10
178.6224896369902
 20
-79.66738796628232
 30
0.0
 40
1.0
100
AcDbArc
 50
0.000000000000007
 51
90.0
  0
LINE
  5
3BFB
330
1F
100
AcDbEntity
  8
太線
100
AcDbLine
 10
135.218245536513
 20
-81.42172456423736
 30
0.0
 11
131.396036448691
 21
-116.3889335658208
 31
0.0
  0
LINE
  5
3BFC
330
1F
100
AcDbEntity
  8
太線
100
AcDbLine
 10
146.8589259525781
 20
-131.8189421568881
 30
0.0
 11
146.9748196351128
 21
-131.1031580725817
 31
0.0
  0
LINE
  5
3BFD
330
1F
100
AcDbEntity
  8
太線
100
AcDbLine
 10
154.6224896369902
 20
-72.14391500438996
 30
0.0
 11
152.6224896369902
 21
-72.14391500438996
 31
0.0
  0
ARC
  5
3BFE
330
1F
100
AcDbEntity
  8
細線
100
AcDbCircle
 10
153.6934524667007
 20
-77.56206994205143
 30
0.0
 40
1.040603392511691
100
AcDbArc
 50
207.0324924700558
 51
343.3477876073676
  0
LINE
  5
3BFF
330
1F
100
AcDbEntity
  8
太線
100
AcDbLine
 10
169.6224896369902
 20
-75.66738796628232
 30
0.0
 11
151.6224896369902
 21
-75.66738796628232
 31
0.0
  0
LINE
  5
3C00
330
1F
100
AcDbEntity
  8
細線
100
AcDbLine
 10
176.6224896369902
 20
-77.66738796628231
 30
0.0
 11
144.6224896369902
 21
-77.66738796628231
 31
0.0
  0
LINE
  5
3C01
330
1F
100
AcDbEntity
  8
太線
100
AcDbLine
 10
176.6224896369902
 20
-78.66738796628232
 30
0.0
 11
144.6224896369902
 21
-78.66738796628232
 31
0.0
  0
LINE
  5
3C02
330
1F
100
AcDbEntity
  8
太線
100
AcDbLine
 10
155.5833793106351
 20
-72.53667055959187
 30
0.0
 11
155.5833793106351
 21
-75.20467880553138
 31
0.0
  0
LINE
  5
3C03
330
1F
100
AcDbEntity
  8
想像線
100
AcDbLine
 10
154.6224896369902
 20
-72.14391500438996
 30
0.0
 11
154.6224896369902
 21
-75.14391500438995
 31
0.0
  0
LINE
  5
3C04
330
1F
100
AcDbEntity
  8
太線
100
AcDbLine
 10
169.6224896369902
 20
-73.14391500438995
 30
0.0
 11
169.6224896369902
 21
-75.14391500438995
 31
0.0
  0
LINE
  5
3C05
330
1F
100
AcDbEntity
  8
想像線
100
AcDbLine
 10
166.6224896369902
 20
-72.14391500438996
 30
0.0
 11
166.6224896369902
 21
-75.14391500438995
 31
0.0
  0
ARC
  5
3C06
330
1F
100
AcDbEntity
  8
細線
100
AcDbCircle
 10
172.1468519334158
 20
-77.56206994205143
 30
0.0
 40
1.040603392511691
100
AcDbArc
 50
207.0324924700558
 51
343.3477876073676
  0
LINE
  5
3C07
330
1F
100
AcDbEntity
  8
太線
100
AcDbLine
 10
169.6224896369902
 20
-75.66738796628232
 30
0.0
 11
175.6224896369902
 21
-75.66738796628232
 31
0.0
  0
ARC
  5
3C08
330
1F
100
AcDbEntity
  8
細線
100
AcDbCircle
 10
174.6012451215334
 20
-77.56206994205143
 30
0.0
 40
1.040603392511691
100
AcDbArc
 50
207.0324924700558
 51
343.3477876073676
  0
LINE
  5
3C09
330
1F
100
AcDbEntity
  8
太線
100
AcDbLine
 10
176.6224896369902
 20
-76.66738796628232
 30
0.0
 11
176.6224896369902
 21
-78.66738796628232
 31
0.0
  0
ARC
  5
3C0A
330
1F
100
AcDbEntity
  8
太線
100
AcDbCircle
 10
175.6224896369902
 20
-76.66738796628232
 30
0.0
 40
1.0
100
AcDbArc
 50
0.000000000000007
 51
90.0
  0
ARC
  5
3C0B
330
1F
100
AcDbEntity
  8
細線
100
AcDbCircle
 10
169.2379415498117
 20
-77.56206994205143
 30
0.0
 40
1.040603392511691
100
AcDbArc
 50
207.0324924700558
 51
343.3477876073676
  0
ARC
  5
3C0C
330
1F
100
AcDbEntity
  8
細線
100
AcDbCircle
 10
166.7835483616942
 20
-77.56206994205143
 30
0.0
 40
1.040603392511691
100
AcDbArc
 50
207.0324924700558
 51
343.3477876073676
  0
ARC
  5
3C0D
330
1F
100
AcDbEntity
  8
細線
100
AcDbCircle
 10
158.8749488277377
 20
-77.56206994205143
 30
0.0
 40
1.040603392511691
100
AcDbArc
 50
207.0324924700558
 51
343.3477876073676
  0
ARC
  5
3C0E
330
1F
100
AcDbEntity
  8
細線
100
AcDbCircle
 10
164.2382523994593
 20
-77.56206994205143
 30
0.0
 40
1.040603392511691
100
AcDbArc
 50
207.0324924700558
 51
343.3477876073676
  0
ARC
  5
3C0F
330
1F
100
AcDbEntity
  8
細線
100
AcDbCircle
 10
161.7838592113417
 20
-77.56206994205143
 30
0.0
 40
1.040603392511691
100
AcDbArc
 50
207.0324924700558
 51
343.3477876073676
  0
ARC
  5
3C10
330
1F
100
AcDbEntity
  8
細線
100
AcDbCircle
 10
156.4205556396201
 20
-77.56206994205143
 30
0.0
 40
1.040603392511691
100
AcDbArc
 50
207.0324924700558
 51
343.3477876073676
  0
LINE
  5
3C11
330
1F
100
AcDbEntity
  8
太線
100
AcDbLine
 10
165.6224896369902
 20
-72.14391500438996
 30
0.0
 11
154.6224896369902
 21
-72.14391500438996
 31
0.0
  0
LINE
  5
3C12
330
1F
100
AcDbEntity
  8
太線
100
AcDbLine
 10
165.6224896369902
 20
-72.14391500438996
 30
0.0
 11
168.6224896369902
 21
-72.14391500438996
 31
0.0
  0
ARC
  5
3C13
330
1F
100
AcDbEntity
  8
太線
100
AcDbCircle
 10
168.6224896369902
 20
-73.14391500438995
 30
0.0
 40
1.0
100
AcDbArc
 50
0.000000000000007
 51
90.0
  0
LINE
  5
3C16
330
1F
100
AcDbEntity
  8
太線
100
AcDbLine
 10
165.502434351258
 20
-72.53667055959187
 30
0.0
 11
165.502434351258
 21
-74.82353396490504
 31
0.0
  0
LINE
  5
3C17
330
1F
100
AcDbEntity
  8
太線
100
AcDbLine
 10
151.6224896369902
 20
-73.14391500438995
 30
0.0
 11
151.6224896369902
 21
-75.14391500438995
 31
0.0
  0
LINE
  5
3C18
330
1F
100
AcDbEntity
  8
太線
100
AcDbLine
 10
141.6224896369902
 20
-78.66738796628232
 30
0.0
 11
134.6224896369902
 21
-80.66738796628232
 31
0.0
  0
ARC
  5
3C19
330
1F
100
AcDbEntity
  8
細線
100
AcDbCircle
 10
145.8757557068614
 20
-77.56206994205143
 30
0.0
 40
1.040603392511691
100
AcDbArc
 50
207.0324924700558
 51
343.3477876073676
  0
LINE
  5
3C1A
330
1F
100
AcDbEntity
  8
太線
100
AcDbLine
 10
151.6224896369902
 20
-75.66738796628232
 30
0.0
 11
145.6224896369902
 21
-75.66738796628232
 31
0.0
  0
ARC
  5
3C1B
330
1F
100
AcDbEntity
  8
細線
100
AcDbCircle
 10
151.2390592785831
 20
-77.56206994205143
 30
0.0
 40
1.040603392511691
100
AcDbArc
 50
207.0324924700558
 51
343.3477876073676
  0
ARC
  5
3C1C
330
1F
100
AcDbEntity
  8
細線
100
AcDbCircle
 10
148.330148894979
 20
-77.56206994205143
 30
0.0
 40
1.040603392511691
100
AcDbArc
 50
207.0324924700558
 51
343.3477876073676
  0
ARC
  5
3C1D
330
1F
100
AcDbEntity
  8
太線
100
AcDbCircle
 10
145.6224896369902
 20
-76.66738796628232
 30
0.0
 40
1.0
100
AcDbArc
 50
90.0
 51
180.0
  0
LINE
  5
3C1E
330
1F
100
AcDbEntity
  8
太線
100
AcDbLine
 10
144.6224896369902
 20
-76.66738796628232
 30
0.0
 11
144.6224896369902
 21
-78.66738796628232
 31
0.0
  0
LINE
  5
3C1F
330
1F
100
AcDbEntity
  8
太線
100
AcDbLine
 10
144.6224896369902
 20
-78.66738796628232
 30
0.0
 11
141.6224896369902
 21
-78.66738796628232
 31
0.0
  0
ARC
  5
3C20
330
1F
100
AcDbEntity
  8
太線
100
AcDbCircle
 10
152.6224896369902
 20
-73.14391500438995
 30
0.0
 40
1.0
100
AcDbArc
 50
90.0
 51
180.0
  0
LINE
  5
3C21
330
1F
100
AcDbEntity
  8
想像線
100
AcDbLine
 10
150.6224896369902
 20
-62.14391500438996
 30
0.0
 11
150.6224896369902
 21
-61.64391500438995
 31
0.0
  0
LINE
  5
3C22
330
1F
100
AcDbEntity
  8
太線
100
AcDbLine
 10
165.6224896369902
 20
-38.14391500438995
 30
0.0
 11
155.6224896369902
 21
-38.14391500438995
 31
0.0
  0
LINE
  5
3C23
330
1F
100
AcDbEntity
  8
太線
100
AcDbLine
 10
166.6224896369902
 20
-39.44462738119545
 30
0.0
 11
165.6224896369902
 21
-38.14391500438995
 31
0.0
  0
LINE
  5
3C24
330
1F
100
AcDbEntity
  8
太線
100
AcDbLine
 10
155.6224896369902
 20
-38.14391500438995
 30
0.0
 11
154.6224896369902
 21
-39.44462738119545
 31
0.0
  0
ARC
  5
3C76
330
1F
100
AcDbEntity
  8
太線
100
AcDbCircle
 10
13.77764617036152
 20
-107.8466837937031
 30
0.0
 40
10.29441497526703
100
AcDbArc
 50
0.8334727907720777
 51
113.3327606800254
  0
ARC
  5
3C77
330
1F
100
AcDbEntity
  8
太線
100
AcDbCircle
 10
13.77764617036152
 20
-107.8466837937031
 30
0.0
 40
11.89190493022338
100
AcDbArc
 50
11.14775259192445
 51
108.7433120461438
  0
LINE
  5
3C7A
330
1F
100
AcDbEntity
  8
太線
100
AcDbLine
 10
-4.713007458946119
 20
-86.68122803158446
 30
0.0
 11
-5.992128947925557
 21
-88.23567709053053
 31
0.0
  0
LINE
  5
3C7B
330
1F
100
AcDbEntity
  8
太線
100
AcDbLine
 10
-5.992128947925557
 20
-88.23567709053053
 30
0.0
 11
9.486373570169991
 21
-98.48933592404225
 31
0.0
  0
LINE
  5
3C7C
330
1F
100
AcDbEntity
  8
太線
100
AcDbLine
 10
-4.713007458946119
 20
-86.68122803158446
 30
0.0
 11
10.37877331408746
 21
-96.45084831856776
 31
0.0
  0
LINE
  5
3C7E
330
1F
100
AcDbEntity
  8
太線
100
AcDbLine
 10
40.11408105345383
 20
-115.6999130975421
 30
0.0
 11
38.86382856238062
 21
-117.2730504181222
 31
0.0
  0
LINE
  5
3C7F
330
1F
100
AcDbEntity
  8
太線
100
AcDbLine
 10
38.86382856238062
 20
-117.2730504181222
 30
0.0
 11
24.07097196074514
 21
-107.6969378220523
 31
0.0
  0
LINE
  5
3C80
330
1F
100
AcDbEntity
  8
太線
100
AcDbLine
 10
25.03241987909631
 20
-105.9368437032606
 30
0.0
 11
40.11408105345383
 21
-115.6999130975421
 31
0.0
  0
ARC
  5
3C81
330
1F
100
AcDbEntity
  8
太線
100
AcDbCircle
 10
7.035750068173673
 20
-91.5797396992508
 30
0.0
 40
13.45021882309577
100
AcDbArc
 50
165.60382972368
 51
257.5871520373372
  0
ARC
  5
3C82
330
1F
100
AcDbEntity
  8
太線
100
AcDbCircle
 10
30.47837889755385
 20
-102.0488630796984
 30
0.0
 40
17.38078381997681
100
AcDbArc
 50
232.8302235075272
 51
298.845878638814
  0
ARC
  5
3C84
330
1F
100
AcDbEntity
  8
太線
100
AcDbCircle
 10
13.77764617036152
 20
-107.8466837937031
 30
0.0
 40
10.29441497526703
100
AcDbArc
 50
162.0781020914777
 51
307.7977419633961
  0
LINE
  5
3C85
330
1F
100
AcDbEntity
  8
太線
100
AcDbLine
 10
25.50003716653691
 20
-105.4655960769855
 30
0.0
 11
25.50003716653691
 21
-106.2553799910517
 31
0.0
  0
ARC
  5
3C86
330
1F
100
AcDbEntity
  8
太線
100
AcDbCircle
 10
14.01572565508135
 20
-107.1439150043899
 30
0.0
 40
18.08191140861927
100
AcDbArc
 50
349.8589807309198
 51
21.64302890254994
  0
ARC
  5
3C88
330
1F
100
AcDbEntity
  8
太線
100
AcDbCircle
 10
14.01572565508135
 20
-107.1439150043899
 30
0.0
 40
25.0
100
AcDbArc
 50
144.6298252566891
 51
333.2031153831637
  0
ARC
  5
3C89
330
1F
100
AcDbEntity
  8
太線
100
AcDbCircle
 10
14.01572565508135
 20
-107.1439150043899
 30
0.0
 40
18.08191140861927
100
AcDbArc
 50
159.0470096184023
 51
318.2895364935149
  0
LINE
  5
3C8A
330
1F
100
AcDbEntity
  8
太線
100
AcDbLine
 10
37.2953158362309
 20
-116.257678277469
 30
0.0
 11
38.86382856238061
 21
-117.2730504181222
 31
0.0
  0
ARC
  5
3C8B
330
1F
100
AcDbEntity
  8
太線
100
AcDbCircle
 10
14.01572565508135
 20
-107.1439150043899
 30
0.0
 40
25.0
100
AcDbArc
 50
343.3433214437106
 51
27.82709275197295
  0
LINE
  5
3C90
330
1F
100
AcDbEntity
  8
太線
100
AcDbLine
 10
157.2407705765527
 20
-136.3042552029622
 30
0.0
 11
187.6453995040575
 21
-155.9866031018338
 31
0.0
  0
LINE
  5
3C91
330
1F
100
AcDbEntity
  8
太線
100
AcDbLine
 10
187.6453995040575
 20
-155.9866031018338
 30
0.0
 11
185.1248904820538
 21
-159.1580479401232
 31
0.0
  0
ARC
  5
3C92
330
1F
100
AcDbEntity
  8
太線
100
AcDbCircle
 10
134.5511467797434
 20
-140.1544928252944
 30
0.0
 40
20.75354059013834
100
AcDbArc
 50
0.8334727907720777
 51
113.3327606800254
  0
ARC
  5
3C93
330
1F
100
AcDbEntity
  8
太線
100
AcDbCircle
 10
134.5511467797434
 20
-140.1544928252944
 30
0.0
 40
23.97408033933034
100
AcDbArc
 50
11.14775259192445
 51
108.7433120461438
  0
LINE
  5
3C95
330
1F
100
AcDbEntity
  8
太線
100
AcDbLine
 10
97.27398906305921
 20
-97.48493400886317
 30
0.0
 11
127.6990191014949
 21
-117.1804885074214
 31
0.0
  0
LINE
  5
3C96
330
1F
100
AcDbEntity
  8
太線
100
AcDbLine
 10
94.69528014127664
 20
-100.6187033116984
 30
0.0
 11
125.8999412177572
 21
-121.290079520058
 31
0.0
  0
CIRCLE
  5
3C99
330
1F
100
AcDbEntity
  8
太線
100
AcDbCircle
 10
135.0311150209386
 20
-138.7377109460389
 30
0.0
 40
4.432682340555196
  0
LINE
  5
3C9A
330
1F
100
AcDbEntity
  8
太線
100
AcDbLine
 10
181.962768826136
 20
-157.1110577045664
 30
0.0
 11
185.1248904820538
 21
-159.1580479401232
 31
0.0
  0
LINE
  5
3C9C
330
1F
100
AcDbEntity
  8
太線
100
AcDbLine
 10
185.1248904820538
 20
-159.1580479401232
 30
0.0
 11
155.3024915731568
 21
-139.8526049464463
 31
0.0
  0
LINE
  5
3C9D
330
1F
100
AcDbEntity
  8
太線
100
AcDbLine
 10
158.183487028033
 20
-135.3542199883917
 30
0.0
 11
158.183487028033
 21
-136.9464243591492
 31
0.0
  0
LINE
  5
3C9F
330
1F
100
AcDbEntity
  8
太線
100
AcDbLine
 10
97.27398906305921
 20
-97.48493400886317
 30
0.0
 11
94.69528014127664
 21
-100.6187033116984
 31
0.0
  0
ARC
  5
3CA1
330
1F
100
AcDbEntity
  8
太線
100
AcDbCircle
 10
135.0311150209386
 20
-138.7377109460389
 30
0.0
 40
12.76811044127669
100
AcDbArc
 50
175.5347774827814
 51
298.4483388205489
  0
ARC
  5
3CA2
330
1F
100
AcDbEntity
  8
太線
100
AcDbCircle
 10
113.0520135072412
 20
-104.1125889576322
 30
0.0
 40
18.68627562613751
100
AcDbArc
 50
169.2236388496548
 51
251.8562829536756
  0
ARC
  5
3CA3
330
1F
100
AcDbEntity
  8
太線
100
AcDbCircle
 10
130.4906103077815
 20
-114.8810990325818
 30
0.0
 40
24.28485361371379
100
AcDbArc
 50
196.7249933994312
 51
250.2936280925077
  0
ARC
  5
3CA4
330
1F
100
AcDbEntity
  8
太線
100
AcDbCircle
 10
174.8398232268746
 20
-141.7359964234278
 30
0.0
 40
20.23142326911166
100
AcDbArc
 50
226.4713641225224
 51
300.5553783261794
  0
ARC
  5
3CA5
330
1F
100
AcDbEntity
  8
太線
100
AcDbCircle
 10
157.2681409359809
 20
-133.9507605306807
 30
0.0
 40
22.74643303521155
100
AcDbArc
 50
224.7480467826318
 51
279.2031384191452
  0
LINE
  5
3CB8
330
1F
100
AcDbEntity
  8
太線
100
AcDbLine
 10
148.6489235188485
 20
-120.7635356768963
 30
0.0
 11
153.9726758979472
 21
-87.88290630688482
 31
0.0
  0
ARC
  5
3CBA
330
1F
100
AcDbEntity
  8
太線
100
AcDbCircle
 10
135.0311150209386
 20
-138.7377109460389
 30
0.0
 40
44.43547654268127
100
AcDbArc
 50
345.5999998565992
 51
51.29053993726113
  0
ARC
  5
3CBB
330
1F
100
AcDbEntity
  8
太線
100
AcDbCircle
 10
135.0311150209386
 20
-138.7377109460389
 30
0.0
 40
31.50138819427047
100
AcDbArc
 50
353.6972897739823
 51
47.82454902256512
  0
ARC
  5
3CBC
330
1F
100
AcDbEntity
  8
太線
100
AcDbCircle
 10
135.0311150209386
 20
-138.7377109460389
 30
0.0
 40
31.50138819427047
100
AcDbArc
 50
150.3412279622816
 51
325.6270000397198
  0
ARC
  5
3CBD
330
1F
100
AcDbEntity
  8
太線
100
AcDbCircle
 10
135.0311150209386
 20
-138.7377109460389
 30
0.0
 40
44.43547654268127
100
AcDbArc
 50
147.2559511148456
 51
328.6131677763223
  0
TEXT
  5
3CBE
330
1F
100
AcDbEntity
  8
文字
100
AcDbText
 10
136.8248995467811
 20
-95.50861266278207
 30
0.0
 40
5.759999999999999
  1
100                       
 51
15.0
  7
OKANO
100
AcDbText
  0
TEXT
  5
3CBF
330
1F
100
AcDbEntity
  8
文字
100
AcDbText
 10
27.07444773485031
 20
-91.09175836462828
 30
0.0
 40
5.759999999999999
  1
65                                                                                                                 
 51
15.0
  7
OKANO
100
AcDbText
  0
TEXT
  5
3E1C
330
1F
100
AcDbEntity
  8
文字
100
AcDbText
 10
13.64118847779536
 20
254.4894650122121
 30
0.0
 40
10.0
  1
14-2L65・14-2L100・15-2L500・15-2Ｌ500A（ｱﾝｶｰ）・15-2Ｌ2000B
 51
15.0
  7
OKANO
100
AcDbText
  0
DIMENSION
  5
3E1D
330
1F
100
AcDbEntity
  8
寸法線
100
AcDbDimension
  2
*D24
 10
45.98943634681041
 20
177.6628848157245
 30
0.0
 11
-16.89607739254606
 21
227.5711189180574
 31
0.0
 70
   163
  1
M-12
 71
     5
 42
8.000000000000028
  3
sunpo
100
AcDbDiametricDimension
 15
39.72308126923354
 25
182.6360924367401
 35
0.0
 40
0.0
1001
ACAD
1000
DSTYLE
1002
{
1070
    40
1040
1.0
1070
   288
1070
     1
1002
}
  0
DIMENSION
  5
3E1E
330
1F
100
AcDbEntity
  8
寸法線
100
AcDbDimension
  2
*D25
 10
36.36876554316137
 20
173.6809706891253
 30
0.0
 11
100.7707778124772
 21
237.894612930002
 31
0.0
 70
   163
  1
M-20
 71
     5
 42
18.3225864074136
  3
sunpo
100
AcDbDiametricDimension
 15
49.34375207288238
 25
186.6180065633392
 35
0.0
 40
0.0
1001
ACAD
1000
DSTYLE
1002
{
1070
    40
1040
1.0
1070
   288
1070
     1
1002
}
  0
CIRCLE
  5
3E1F
330
1F
100
AcDbEntity
  8
想像線
100
AcDbCircle
 10
42.85625880802192
 20
180.1494886262323
 30
0.0
 40
9.161293203706826
  0
CIRCLE
  5
3E20
330
1F
100
AcDbEntity
  8
太線
100
AcDbCircle
 10
42.85625880802195
 20
180.1494886262323
 30
0.0
 40
10.0
  0
ARC
  5
3E21
330
1F
100
AcDbEntity
  8
太線
100
AcDbCircle
 10
42.85625880802195
 20
180.1494886262323
 30
0.0
 40
20.0
100
AcDbArc
 50
90.0
 51
180.0
  0
LINE
  5
3E22
330
1F
100
AcDbEntity
  8
太線
100
AcDbLine
 10
62.85625880802192
 20
160.1494886262323
 30
0.0
 11
22.85625880802192
 21
160.1494886262323
 31
0.0
  0
LINE
  5
3E23
330
1F
100
AcDbEntity
  8
太線
100
AcDbLine
 10
72.85625880802195
 20
150.1494886262323
 30
0.0
 11
12.85625880802194
 21
150.1494886262323
 31
0.0
  0
DIMENSION
  5
3E24
330
1F
100
AcDbEntity
  8
寸法線
100
AcDbDimension
  2
*D26
 10
107.8562588080219
 20
222.8351476058088
 30
0.0
 11
60.35625880802195
 21
226.3368481293423
 31
0.0
 70
    32
  1
92.3
 71
     5
 42
95.0
  3
sunpo
100
AcDbAlignedDimension
 13
12.85625880802194
 23
180.1494886262323
 33
0.0
 14
107.8562588080219
 24
210.1494886262323
 34
0.0
100
AcDbRotatedDimension
1001
ACAD
1000
DSTYLE
1002
{
1070
    40
1040
1.0
1002
}
  0
DIMENSION
  5
3E25
330
1F
100
AcDbEntity
  8
寸法線
100
AcDbDimension
  2
*D27
 10
17.85625880802195
 20
104.2651493887228
 30
0.0
 11
42.85625880802195
 21
107.7651493887228
 31
0.0
 70
    32
  1
49.3
 71
     5
 42
50.0
  3
sunpo
100
AcDbAlignedDimension
 13
67.85625880802195
 23
115.1494886262323
 33
0.0
 14
17.85625880802195
 24
115.1494886262323
 34
0.0
100
AcDbRotatedDimension
1001
ACAD
1000
DSTYLE
1002
{
1070
    40
1040
1.0
1070
   279
1070
     1
1002
}
  0
DIMENSION
  5
3E26
330
1F
100
AcDbEntity
  8
寸法線
100
AcDbDimension
  2
*D28
 10
-3.919754690293302
 20
150.1494886262323
 30
0.0
 11
-7.419754690293325
 21
180.1494886262323
 31
0.0
 70
    32
  1
57.3
 71
     5
 42
60.0
  3
sunpo
100
AcDbAlignedDimension
 13
42.85625880802195
 23
210.1494886262323
 33
0.0
 14
18.85625880802194
 24
150.1494886262323
 34
0.0
 50
90.0
100
AcDbRotatedDimension
1001
ACAD
1000
DSTYLE
1002
{
1070
    40
1040
1.0
1002
}
  0
LINE
  5
3E27
330
1F
100
AcDbEntity
  8
太線
100
AcDbLine
 10
12.85625880802194
 20
115.1494886262323
 30
0.0
 11
72.85625880802195
 21
115.1494886262323
 31
0.0
  0
LINE
  5
3E28
330
1F
100
AcDbEntity
  8
想像線
100
AcDbLine
 10
17.85625880802195
 20
150.1494886262323
 30
0.0
 11
67.85625880802195
 21
150.1494886262323
 31
0.0
  0
ARC
  5
3E29
330
1F
100
AcDbEntity
  8
太線
100
AcDbCircle
 10
42.85625880802195
 20
180.1494886262323
 30
0.0
 40
30.0
100
AcDbArc
 50
90.0
 51
180.0
  0
DIMENSION
  5
3E2A
330
1F
100
AcDbEntity
  8
寸法線
100
AcDbDimension
  2
*D29
 10
-3.919754690293316
 20
115.1494886262323
 30
0.0
 11
-7.419754690293334
 21
132.6494886262323
 31
0.0
 70
    32
 71
     5
 42
35.00000000000001
  3
sunpo
100
AcDbAlignedDimension
 13
18.85625880802194
 23
150.1494886262323
 33
0.0
 14
12.85625880802194
 24
115.1494886262323
 34
0.0
 50
90.0
100
AcDbRotatedDimension
1001
ACAD
1000
DSTYLE
1002
{
1070
    40
1040
1.0
1070
   279
1070
     1
1002
}
  0
LINE
  5
3E2B
330
1F
100
AcDbEntity
  8
想像線
100
AcDbLine
 10
17.85625880802195
 20
115.1494886262323
 30
0.0
 11
17.85625880802195
 21
150.1494886262323
 31
0.0
  0
LINE
  5
3E2C
330
1F
100
AcDbEntity
  8
太線
100
AcDbLine
 10
12.85625880802194
 20
180.1494886262323
 30
0.0
 11
12.85625880802194
 21
115.1494886262323
 31
0.0
  0
DIMENSION
  5
3E2D
330
1F
100
AcDbEntity
  8
寸法線
100
AcDbDimension
  2
*D30
 10
12.85625880802194
 20
104.2651493887228
 30
0.0
 11
15.35625880802195
 21
107.7651493887228
 31
0.0
 70
    32
  1
4
 71
     5
 42
5.0
  3
sunpo
100
AcDbAlignedDimension
 13
17.85625880802195
 23
115.1494886262323
 33
0.0
 14
12.85625880802194
 24
115.1494886262323
 34
0.0
100
AcDbRotatedDimension
1001
ACAD
1000
DSTYLE
1002
{
1070
    40
1040
1.0
1070
   279
1070
     1
1002
}
  0
LINE
  5
3E2E
330
1F
100
AcDbEntity
  8
太線
100
AcDbLine
 10
22.85625880802192
 20
160.1494886262323
 30
0.0
 11
22.85625880802192
 21
180.1494886262323
 31
0.0
  0
LINE
  5
3E2F
330
1F
100
AcDbEntity
  8
太線
100
AcDbLine
 10
72.85625880802195
 20
150.1494886262323
 30
0.0
 11
72.85625880802195
 21
210.1494886262323
 31
0.0
  0
DIMENSION
  5
3E30
330
1F
100
AcDbEntity
  8
寸法線
100
AcDbDimension
  2
*D31
 10
123.6731711715676
 20
150.1494886262323
 30
0.0
 11
120.1731711715676
 21
180.1494886262323
 31
0.0
 70
    32
  1
57.3
 71
     5
 42
60.0
  3
sunpo
100
AcDbAlignedDimension
 13
107.8562588080219
 23
210.1494886262323
 33
0.0
 14
107.6259815172381
 24
150.1494886262323
 34
0.0
 50
90.0
100
AcDbRotatedDimension
1001
ACAD
1000
DSTYLE
1002
{
1070
    40
1040
1.0
1002
}
  0
LINE
  5
3E31
330
1F
100
AcDbEntity
  8
太線
100
AcDbLine
 10
107.8562588080219
 20
210.1494886262323
 30
0.0
 11
107.8562588080219
 21
150.1494886262323
 31
0.0
  0
CIRCLE
  5
3E32
330
1F
100
AcDbEntity
  8
太線
100
AcDbCircle
 10
173.7720005802016
 20
180.1494886262323
 30
0.0
 40
30.0
  0
DIMENSION
  5
3E33
330
1F
100
AcDbEntity
  8
寸法線
100
AcDbDimension
  2
*D32
 10
203.7720005802016
 20
96.88305669567842
 30
0.0
 11
173.7720005802016
 21
100.3830566956784
 31
0.0
 70
    32
  1
57.3
 71
     5
 42
60.0
  3
sunpo
100
AcDbAlignedDimension
 13
143.7720005802016
 23
115.1494886262323
 33
0.0
 14
203.7720005802016
 24
115.1494886262323
 34
0.0
100
AcDbRotatedDimension
1001
ACAD
1000
DSTYLE
1002
{
1070
    40
1040
1.0
1002
}
  0
CIRCLE
  5
3E34
330
1F
100
AcDbEntity
  8
細線
100
AcDbCircle
 10
173.7720005802016
 20
180.1494886262323
 30
0.0
 40
23.6476562994305
  0
LINE
  5
3E35
330
1F
100
AcDbEntity
  8
太線
100
AcDbLine
 10
143.7720005802016
 20
115.1494886262323
 30
0.0
 11
203.7720005802016
 21
115.1494886262323
 31
0.0
  0
LINE
  5
3E36
330
1F
100
AcDbEntity
  8
想像線
100
AcDbLine
 10
148.7720005802016
 20
150.1494886262323
 30
0.0
 11
198.7720005802016
 21
150.1494886262323
 31
0.0
  0
CIRCLE
  5
3E37
330
1F
100
AcDbEntity
  8
太線
100
AcDbCircle
 10
173.7720005802016
 20
180.1494886262323
 30
0.0
 40
25.0
  0
LINE
  5
3E38
330
1F
100
AcDbEntity
  8
太線
100
AcDbLine
 10
143.7720005802016
 20
113.1494886262323
 30
0.0
 11
143.7720005802016
 21
155.1494886262323
 31
0.0
  0
DIMENSION
  5
3E39
330
1F
100
AcDbEntity
  8
寸法線
100
AcDbDimension
  2
*D33
 10
104.6259815172381
 20
125.1494886262322
 30
0.0
 11
101.1254893912539
 21
137.6494886262323
 31
0.0
 70
    32
 71
     5
 42
25.00000000000001
  3
sunpo
100
AcDbAlignedDimension
 13
97.85625880802195
 23
150.1494886262323
 33
0.0
 14
72.85625880802195
 24
125.1494886262323
 34
0.0
 50
90.0
100
AcDbRotatedDimension
1001
ACAD
1000
DSTYLE
1002
{
1070
    40
1040
1.0
1002
}
  0
DIMENSION
  5
3E3A
330
1F
100
AcDbEntity
  8
寸法線
100
AcDbDimension
  2
*D34
 10
97.85625880802195
 20
119.6533771457535
 30
0.0
 11
85.35625880802195
 21
123.1538692717378
 31
0.0
 70
    32
 71
     5
 42
25.0
  3
sunpo
100
AcDbAlignedDimension
 13
72.85625880802195
 23
125.1494886262322
 33
0.0
 14
97.85625880802195
 24
150.1494886262323
 34
0.0
100
AcDbRotatedDimension
1001
ACAD
1000
DSTYLE
1002
{
1070
    40
1040
1.0
1002
}
  0
LINE
  5
3E3B
330
1F
100
AcDbEntity
  8
太線
100
AcDbLine
 10
97.85625880802195
 20
150.1494886262323
 30
0.0
 11
72.85625880802195
 21
125.1494886262323
 31
0.0
  0
LINE
  5
3E3C
330
1F
100
AcDbEntity
  8
想像線
100
AcDbLine
 10
148.7720005802016
 20
115.1494886262323
 30
0.0
 11
148.7720005802016
 21
150.1494886262323
 31
0.0
  0
LINE
  5
3E3D
330
1F
100
AcDbEntity
  8
想像線
100
AcDbLine
 10
67.85625880802195
 20
150.1494886262323
 30
0.0
 11
67.85625880802195
 21
115.1494886262323
 31
0.0
  0
LINE
  5
3E3E
330
1F
100
AcDbEntity
  8
太線
100
AcDbLine
 10
72.85625880802195
 20
115.1494886262323
 30
0.0
 11
72.85625880802195
 21
150.1494886262323
 31
0.0
  0
DIMENSION
  5
3E3F
330
1F
100
AcDbEntity
  8
寸法線
100
AcDbDimension
  2
*D35
 10
67.85625880802195
 20
104.2651493887228
 30
0.0
 11
70.35625880802195
 21
107.7651493887228
 31
0.0
 70
    32
  1
4
 71
     5
 42
5.0
  3
sunpo
100
AcDbAlignedDimension
 13
72.85625880802195
 23
115.1494886262323
 33
0.0
 14
67.85625880802195
 24
115.1494886262323
 34
0.0
100
AcDbRotatedDimension
1001
ACAD
1000
DSTYLE
1002
{
1070
    40
1040
1.0
1002
}
  0
LINE
  5
3E40
330
1F
100
AcDbEntity
  8
想像線
100
AcDbLine
 10
72.85625880802195
 20
205.1494886262323
 30
0.0
 11
107.8562588080219
 21
205.1494886262323
 31
0.0
  0
LINE
  5
3E41
330
1F
100
AcDbEntity
  8
想像線
100
AcDbLine
 10
107.8562588080219
 20
155.1494886262323
 30
0.0
 11
72.85625880802195
 21
155.1494886262323
 31
0.0
  0
LINE
  5
3E42
330
1F
100
AcDbEntity
  8
太線
100
AcDbLine
 10
72.85625880802195
 20
150.1494886262323
 30
0.0
 11
107.8562588080219
 21
150.1494886262323
 31
0.0
  0
LINE
  5
3E43
330
1F
100
AcDbEntity
  8
太線
100
AcDbLine
 10
62.85625880802192
 20
200.1494886262323
 30
0.0
 11
62.85625880802192
 21
160.1494886262323
 31
0.0
  0
LINE
  5
3E44
330
1F
100
AcDbEntity
  8
想像線
100
AcDbLine
 10
72.85625880802195
 20
155.1494886262323
 30
0.0
 11
72.85625880802195
 21
205.1494886262323
 31
0.0
  0
LINE
  5
3E45
330
1F
100
AcDbEntity
  8
太線
100
AcDbLine
 10
72.85625880802195
 20
150.1494886262323
 30
0.0
 11
62.85625880802192
 21
160.1494886262323
 31
0.0
  0
DIMENSION
  5
3E46
330
1F
100
AcDbEntity
  8
寸法線
100
AcDbDimension
  2
*D36
 10
75.45962165542102
 20
142.947380153352
 30
0.0
 11
91.55106684960305
 21
162.4989873527651
 31
0.0
 70
   163
 71
     5
 42
6.000000000000028
  3
sunpo
100
AcDbDiametricDimension
 15
79.27247024947513
 25
147.5801099748309
 35
0.0
 40
0.0
1001
ACAD
1000
DSTYLE
1002
{
1070
    40
1040
1.0
1070
   288
1070
     1
1002
}
  0
CIRCLE
  5
3E47
330
1F
100
AcDbEntity
  8
太線
100
AcDbCircle
 10
77.36604595244807
 20
145.2637450640915
 30
0.0
 40
3.0
  0
CIRCLE
  5
3E48
330
1F
100
AcDbEntity
  8
想像線
100
AcDbCircle
 10
42.85625880802195
 20
180.1494886262323
 30
0.0
 40
4.0
  0
CIRCLE
  5
3E49
330
1F
100
AcDbEntity
  8
太線
100
AcDbCircle
 10
42.85625880802195
 20
180.1494886262323
 30
0.0
 40
5.0
  0
LINE
  5
3E4A
330
1F
100
AcDbEntity
  8
太線
100
AcDbLine
 10
42.85625880802192
 20
200.1494886262323
 30
0.0
 11
62.85625880802192
 21
200.1494886262323
 31
0.0
  0
LINE
  5
3E4B
330
1F
100
AcDbEntity
  8
太線
100
AcDbLine
 10
153.7720005802016
 20
192.7673984553599
 30
0.0
 11
153.7720005802016
 21
167.5315787971047
 31
0.0
  0
LINE
  5
3E4C
330
1F
100
AcDbEntity
  8
太線
100
AcDbLine
 10
143.7720005802016
 20
200.1494886262323
 30
0.0
 11
143.776666802228
 21
160.1494886262323
 31
0.0
  0
LINE
  5
3E4D
330
1F
100
AcDbEntity
  8
太線
100
AcDbLine
 10
143.7720005802016
 20
154.0761311610535
 30
0.0
 11
143.7912083332988
 21
179.0761311610535
 31
0.0
  0
LINE
  5
3E4E
330
1F
100
AcDbEntity
  8
想像線
100
AcDbLine
 10
150.124344280771
 20
180.1494886262323
 30
0.0
 11
150.124344280771
 21
150.1494886262323
 31
0.0
  0
LINE
  5
3E4F
330
1F
100
AcDbEntity
  8
想像線
100
AcDbLine
 10
153.7720005802016
 20
170.1494886262323
 30
0.0
 11
143.784349903467
 21
170.1494886262323
 31
0.0
  0
LINE
  5
3E50
330
1F
100
AcDbEntity
  8
太線
100
AcDbLine
 10
143.776666802228
 20
160.1494886262323
 30
0.0
 11
151.4113208052037
 21
160.1494886262323
 31
0.0
  0
LINE
  5
3E51
330
1F
100
AcDbEntity
  8
想像線
100
AcDbLine
 10
153.7720005802016
 20
174.1494886262323
 30
0.0
 11
144.3781236668035
 21
174.1494886262323
 31
0.0
  0
LINE
  5
3E52
330
1F
100
AcDbEntity
  8
想像線
100
AcDbLine
 10
143.7720005802016
 20
186.1494886262322
 30
0.0
 11
153.7720005802016
 21
186.1494886262322
 31
0.0
  0
LINE
  5
3E53
330
1F
100
AcDbEntity
  8
想像線
100
AcDbLine
 10
153.7720005802016
 20
190.1494886262323
 30
0.0
 11
143.7731671357082
 21
190.1494886262323
 31
0.0
  0
LINE
  5
3E54
330
1F
100
AcDbEntity
  8
太線
100
AcDbLine
 10
151.4113208052037
 20
200.1494886262323
 30
0.0
 11
143.7720005802016
 21
200.1494886262323
 31
0.0
  0
LINE
  5
3E55
330
1F
100
AcDbEntity
  8
太線
100
AcDbLine
 10
176.2720005802016
 20
125.1494886262323
 30
0.0
 11
176.2720005802016
 21
150.1494886262323
 31
0.0
  0
LINE
  5
3E56
330
1F
100
AcDbEntity
  8
太線
100
AcDbLine
 10
171.2720005802016
 20
150.1494886262323
 30
0.0
 11
171.2720005802016
 21
125.1494886262323
 31
0.0
  0
LINE
  5
3E57
330
1F
100
AcDbEntity
  8
想像線
100
AcDbLine
 10
198.7720005802016
 20
150.1494886262323
 30
0.0
 11
198.7720005802016
 21
115.1494886262323
 31
0.0
  0
LINE
  5
3E58
330
1F
100
AcDbEntity
  8
太線
100
AcDbLine
 10
203.7720005802016
 20
115.1494886262323
 30
0.0
 11
203.7720005802016
 21
180.1494886262323
 31
0.0
  0
DIMENSION
  5
3E59
330
1F
100
AcDbEntity
  8
寸法線
100
AcDbDimension
  2
*D37
 10
176.2720005802016
 20
116.6700919864385
 30
0.0
 11
173.7720005802016
 21
120.1700919864385
 31
0.0
 70
    32
  1
4
 71
     5
 42
5.0
  3
sunpo
100
AcDbAlignedDimension
 13
171.2720005802016
 23
125.1494886262323
 33
0.0
 14
176.2720005802016
 24
125.1494886262323
 34
0.0
100
AcDbRotatedDimension
1001
ACAD
1000
DSTYLE
1002
{
1070
    40
1040
1.0
1002
}
  0
LINE
  5
3E5A
330
1F
100
AcDbEntity
  8
太線
100
AcDbLine
 10
171.2720005802016
 20
125.1494886262323
 30
0.0
 11
176.2720005802016
 21
125.1494886262323
 31
0.0
  0
LINE
  5
3E5B
330
1F
100
AcDbEntity
  8
想像線
100
AcDbLine
 10
197.4196568796321
 20
180.1494886262323
 30
0.0
 11
197.4196568796321
 21
150.1494886262323
 31
0.0
  0
LINE
  5
3E5C
330
1F
100
AcDbEntity
  8
破線
100
AcDbLine
 10
171.2720005802016
 20
142.0984934805199
 30
0.0
 11
176.2720005802016
 21
142.0984934805199
 31
0.0
  0
LINE
  5
3E5D
330
1F
100
AcDbEntity
  8
破線
100
AcDbLine
 10
171.2720005802016
 20
148.2514795690562
 30
0.0
 11
176.2720005802016
 21
148.2514795690562
 31
0.0
  0
LINE
  5
3E5E
330
1F
100
AcDbEntity
  8
太線
100
AcDbLine
 10
107.8562588080219
 20
210.1494886262323
 30
0.0
 11
42.85625880802195
 21
210.1494886262323
 31
0.0
  0
LINE
  5
3F8D
330
1F
100
AcDbEntity
  8
太線
100
AcDbLine
 10
70.26634590173671
 20
31.53560202454525
 30
0.0
 11
40.52702556067288
 21
31.65687042389118
 31
0.0
  0
LINE
  5
3F8E
330
1F
100
AcDbEntity
  8
太線
100
AcDbLine
 10
345.0049075512356
 20
31.53560202454525
 30
0.0
 11
345.0049075512356
 21
-28.46439797545474
 31
0.0
  0
CIRCLE
  5
3F8F
330
1F
100
AcDbEntity
  8
太線
100
AcDbCircle
 10
280.0049075512356
 20
1.535602024545255
 30
0.0
 40
30.0
  0
LINE
  5
3F90
330
1F
100
AcDbEntity
  8
太線
100
AcDbLine
 10
335.0049075512356
 20
-0.9643979754547444
 30
0.0
 11
310.5946842952359
 21
-0.9643979754547444
 31
0.0
  0
LINE
  5
3F91
330
1F
100
AcDbEntity
  8
太線
100
AcDbLine
 10
309.9005594089891
 20
4.035602024545255
 30
0.0
 11
335.0049075512356
 21
4.035602024545255
 31
0.0
  0
LINE
  5
3F92
330
1F
100
AcDbEntity
  8
想像線
100
AcDbLine
 10
310.0049075512356
 20
-23.46439797545474
 30
0.0
 11
345.0049075512356
 21
-23.46439797545474
 31
0.0
  0
LINE
  5
3F93
330
1F
100
AcDbEntity
  8
想像線
100
AcDbLine
 10
345.0049075512356
 20
26.53560202454525
 30
0.0
 11
310.5946842952359
 21
26.53560202454525
 31
0.0
  0
LINE
  5
3F94
330
1F
100
AcDbEntity
  8
太線
100
AcDbLine
 10
345.0049075512356
 20
-28.46439797545474
 30
0.0
 11
280.0049075512356
 21
-28.46439797545474
 31
0.0
  0
LINE
  5
3F95
330
1F
100
AcDbEntity
  8
太線
100
AcDbLine
 10
266.6687469494337
 20
-18.46439797545477
 30
0.0
 11
293.3410681530375
 21
-18.46439797545477
 31
0.0
  0
LINE
  5
3F96
330
1F
100
AcDbEntity
  8
太線
100
AcDbLine
 10
261.0049075512356
 20
-28.46439797545477
 30
0.0
 11
299.0049075512356
 21
-28.46439797545477
 31
0.0
  0
CIRCLE
  5
3F97
330
1F
100
AcDbEntity
  8
細線
100
AcDbCircle
 10
280.0049075512356
 20
1.535602024545255
 30
0.0
 40
24.03857690457265
  0
CIRCLE
  5
3F98
330
1F
100
AcDbEntity
  8
太線
100
AcDbCircle
 10
280.0049075512356
 20
1.535602024545255
 30
0.0
 40
25.0
  0
LINE
  5
3F99
330
1F
100
AcDbEntity
  8
太線
100
AcDbLine
 10
260.0049075512356
 20
-20.82507775045266
 30
0.0
 11
260.0049075512356
 21
-27.46439797545477
 31
0.0
  0
ARC
  5
3F9A
330
1F
100
AcDbEntity
  8
太線
100
AcDbCircle
 10
260.5049075512356
 20
-27.96439797545477
 30
0.0
 40
0.5
100
AcDbArc
 50
180.0
 51
278.8957952865034
  0
ARC
  5
3F9B
330
1F
100
AcDbEntity
  8
太線
100
AcDbCircle
 10
260.7368643762857
 20
-29.4463548005049
 30
0.0
 40
1.0
100
AcDbArc
 50
82.29795315063654
 51
98.89579528650337
  0
ARC
  5
3F9C
330
1F
100
AcDbEntity
  8
太線
100
AcDbCircle
 10
261.0049075512356
 20
-27.46439797545477
 30
0.0
 40
1.0
100
AcDbArc
 50
262.2979531506369
 51
270.0
  0
LINE
  5
3F9D
330
1F
100
AcDbEntity
  8
想像線
100
AcDbLine
 10
274.0049075512356
 20
-18.46439797545477
 30
0.0
 11
274.0049075512356
 21
-27.85827488885288
 31
0.0
  0
LINE
  5
3F9E
330
1F
100
AcDbEntity
  8
想像線
100
AcDbLine
 10
270.0049075512356
 20
-18.46439797545477
 30
0.0
 11
270.0049075512356
 21
-28.46439797545477
 31
0.0
  0
LINE
  5
3F9F
330
1F
100
AcDbEntity
  8
想像線
100
AcDbLine
 10
310.5946842952359
 20
26.53560202454525
 30
0.0
 11
310.0049075512356
 21
-23.46439797545474
 31
0.0
  0
LINE
  5
3FA0
330
1F
100
AcDbEntity
  8
想像線
100
AcDbLine
 10
280.0049075512356
 20
-22.50297488002741
 30
0.0
 11
310.0049075512356
 21
-22.50297488002741
 31
0.0
  0
LINE
  5
3FA1
330
1F
100
AcDbEntity
  8
想像線
100
AcDbLine
 10
290.0049075512356
 20
-18.46439797545477
 30
0.0
 11
290.0049075512356
 21
-28.46439797545477
 31
0.0
  0
LINE
  5
3FA2
330
1F
100
AcDbEntity
  8
想像線
100
AcDbLine
 10
286.0049075512356
 20
-18.46439797545477
 30
0.0
 11
286.0049075512356
 21
-27.85827488885288
 31
0.0
  0
LINE
  5
3FA3
330
1F
100
AcDbEntity
  8
想像線
100
AcDbLine
 10
280.0049075512356
 20
-18.46439797545477
 30
0.0
 11
280.0049075512356
 21
-28.46439797545474
 31
0.0
  0
LINE
  5
3FA4
330
1F
100
AcDbEntity
  8
太線
100
AcDbLine
 10
300.0049075512356
 20
-27.46439797545477
 30
0.0
 11
300.0049075512356
 21
-20.82507775045266
 31
0.0
  0
ARC
  5
3FA5
330
1F
100
AcDbEntity
  8
太線
100
AcDbCircle
 10
299.0049075512356
 20
-27.46439797545477
 30
0.0
 40
1.0
100
AcDbArc
 50
270.0
 51
0.0
  0
LINE
  5
3FA6
330
1F
100
AcDbEntity
  8
太線
100
AcDbLine
 10
300.0049075512356
 20
-20.82507775045266
 30
0.0
 11
300.0049075512356
 21
-22.50297488002741
 31
0.0
  0
LINE
  5
3FA7
330
1F
100
AcDbEntity
  8
想像線
100
AcDbLine
 10
280.0049075512356
 20
25.57417892911792
 30
0.0
 11
310.5833437955794
 21
25.57417892911792
 31
0.0
  0
LINE
  5
3FA8
330
1F
100
AcDbEntity
  8
破線
100
AcDbLine
 10
311.7988854257296
 20
-0.9643979754547444
 30
0.0
 11
311.7988854257296
 21
4.035602024545255
 31
0.0
  0
LINE
  5
3FA9
330
1F
100
AcDbEntity
  8
破線
100
AcDbLine
 10
318.2316255017567
 20
-0.9643979754547444
 30
0.0
 11
318.2316255017567
 21
4.035602024545255
 31
0.0
  0
LINE
  5
3FAA
330
1F
100
AcDbEntity
  8
太線
100
AcDbLine
 10
335.0049075512356
 20
4.035602024545255
 30
0.0
 11
335.0049075512356
 21
-0.9643979754547444
 31
0.0
  0
LINE
  5
3FAB
330
1F
100
AcDbEntity
  8
太線
100
AcDbLine
 10
310.0049075512356
 20
31.53560202454525
 30
0.0
 11
345.0049075512356
 21
31.53560202454525
 31
0.0
  0
LINE
  5
3FAC
330
1F
100
AcDbEntity
  8
太線
100
AcDbLine
 10
310.0049075512356
 20
31.53560202454525
 30
0.0
 11
280.2655872101718
 21
31.65687042389118
 31
0.0
  0
LINE
  5
3FAD
330
1F
100
AcDbEntity
  8
太線
100
AcDbLine
 10
191.1317685534454
 20
31.53560202454525
 30
0.0
 11
161.3924482123816
 21
31.65687042389118
 31
0.0
  0
LINE
  5
3FAE
330
1F
100
AcDbEntity
  8
太線
100
AcDbLine
 10
142.1317685534454
 20
-28.46439797545477
 30
0.0
 11
180.1317685534454
 21
-28.46439797545477
 31
0.0
  0
CIRCLE
  5
3FAF
330
1F
100
AcDbEntity
  8
細線
100
AcDbCircle
 10
161.1317685534454
 20
1.535602024545255
 30
0.0
 40
24.03857690457265
  0
CIRCLE
  5
3FB0
330
1F
100
AcDbEntity
  8
太線
100
AcDbCircle
 10
161.1317685534454
 20
1.535602024545255
 30
0.0
 40
25.0
  0
LINE
  5
3FB1
330
1F
100
AcDbEntity
  8
太線
100
AcDbLine
 10
226.1317685534454
 20
-28.46439797545474
 30
0.0
 11
161.1317685534454
 21
-28.46439797545474
 31
0.0
  0
LINE
  5
3FB2
330
1F
100
AcDbEntity
  8
想像線
100
AcDbLine
 10
161.1317685534454
 20
-22.50297488002741
 30
0.0
 11
191.1317685534454
 21
-22.50297488002741
 31
0.0
  0
LINE
  5
3FB3
330
1F
100
AcDbEntity
  8
想像線
100
AcDbLine
 10
161.1317685534454
 20
25.57417892911792
 30
0.0
 11
191.7102047977892
 21
25.57417892911792
 31
0.0
  0
CIRCLE
  5
3FB4
330
1F
100
AcDbEntity
  8
太線
100
AcDbCircle
 10
161.1317685534454
 20
1.535602024545255
 30
0.0
 40
30.0
  0
LINE
  5
3FB5
330
1F
100
AcDbEntity
  8
太線
100
AcDbLine
 10
147.7956079516435
 20
-18.46439797545477
 30
0.0
 11
174.4679291552473
 21
-18.46439797545477
 31
0.0
  0
LINE
  5
3FB6
330
1F
100
AcDbEntity
  8
太線
100
AcDbLine
 10
141.1317685534454
 20
-20.82507775045266
 30
0.0
 11
141.1317685534454
 21
-27.46439797545477
 31
0.0
  0
ARC
  5
3FB7
330
1F
100
AcDbEntity
  8
太線
100
AcDbCircle
 10
141.6317685534454
 20
-27.96439797545477
 30
0.0
 40
0.5
100
AcDbArc
 50
180.0
 51
278.8957952865034
  0
ARC
  5
3FB8
330
1F
100
AcDbEntity
  8
太線
100
AcDbCircle
 10
141.8637253784955
 20
-29.4463548005049
 30
0.0
 40
1.0
100
AcDbArc
 50
82.29795315063654
 51
98.89579528650337
  0
ARC
  5
3FB9
330
1F
100
AcDbEntity
  8
太線
100
AcDbCircle
 10
142.1317685534454
 20
-27.46439797545477
 30
0.0
 40
1.0
100
AcDbArc
 50
262.2979531506369
 51
270.0
  0
LINE
  5
3FBA
330
1F
100
AcDbEntity
  8
想像線
100
AcDbLine
 10
155.1317685534454
 20
-18.46439797545477
 30
0.0
 11
155.1317685534454
 21
-27.85827488885288
 31
0.0
  0
LINE
  5
3FBB
330
1F
100
AcDbEntity
  8
想像線
100
AcDbLine
 10
161.1317685534454
 20
-18.46439797545477
 30
0.0
 11
161.1317685534454
 21
-28.46439797545474
 31
0.0
  0
LINE
  5
3FBC
330
1F
100
AcDbEntity
  8
想像線
100
AcDbLine
 10
151.1317685534454
 20
-18.46439797545477
 30
0.0
 11
151.1317685534454
 21
-28.46439797545477
 31
0.0
  0
LINE
  5
3FBD
330
1F
100
AcDbEntity
  8
想像線
100
AcDbLine
 10
171.1317685534454
 20
-18.46439797545477
 30
0.0
 11
171.1317685534454
 21
-28.46439797545477
 31
0.0
  0
LINE
  5
3FBE
330
1F
100
AcDbEntity
  8
想像線
100
AcDbLine
 10
167.1317685534454
 20
-18.46439797545477
 30
0.0
 11
167.1317685534454
 21
-27.85827488885288
 31
0.0
  0
LINE
  5
3FBF
330
1F
100
AcDbEntity
  8
太線
100
AcDbLine
 10
226.1317685534454
 20
31.53560202454525
 30
0.0
 11
226.1317685534454
 21
-28.46439797545474
 31
0.0
  0
LINE
  5
3FC0
330
1F
100
AcDbEntity
  8
想像線
100
AcDbLine
 10
226.1317685534454
 20
26.53560202454525
 30
0.0
 11
191.7215452974458
 21
26.53560202454525
 31
0.0
  0
LINE
  5
3FC1
330
1F
100
AcDbEntity
  8
想像線
100
AcDbLine
 10
191.1317685534454
 20
-23.46439797545474
 30
0.0
 11
226.1317685534454
 21
-23.46439797545474
 31
0.0
  0
LINE
  5
3FC2
330
1F
100
AcDbEntity
  8
想像線
100
AcDbLine
 10
191.7215452974458
 20
26.53560202454525
 30
0.0
 11
191.1317685534454
 21
-23.46439797545474
 31
0.0
  0
LINE
  5
3FC3
330
1F
100
AcDbEntity
  8
太線
100
AcDbLine
 10
181.1317685534454
 20
-27.46439797545477
 30
0.0
 11
181.1317685534454
 21
-20.82507775045266
 31
0.0
  0
ARC
  5
3FC4
330
1F
100
AcDbEntity
  8
太線
100
AcDbCircle
 10
180.1317685534454
 20
-27.46439797545477
 30
0.0
 40
1.0
100
AcDbArc
 50
270.0
 51
0.0
  0
LINE
  5
3FC5
330
1F
100
AcDbEntity
  8
太線
100
AcDbLine
 10
181.1317685534454
 20
-20.82507775045266
 30
0.0
 11
181.1317685534454
 21
-22.50297488002741
 31
0.0
  0
LINE
  5
3FC6
330
1F
100
AcDbEntity
  8
太線
100
AcDbLine
 10
216.1317685534454
 20
-0.9643979754547444
 30
0.0
 11
191.7215452974458
 21
-0.9643979754547444
 31
0.0
  0
LINE
  5
3FC7
330
1F
100
AcDbEntity
  8
太線
100
AcDbLine
 10
191.0274204111989
 20
4.035602024545255
 30
0.0
 11
216.1317685534454
 21
4.035602024545255
 31
0.0
  0
LINE
  5
3FC8
330
1F
100
AcDbEntity
  8
破線
100
AcDbLine
 10
192.9257464279394
 20
-0.9643979754547444
 30
0.0
 11
192.9257464279394
 21
4.035602024545255
 31
0.0
  0
LINE
  5
3FC9
330
1F
100
AcDbEntity
  8
破線
100
AcDbLine
 10
199.3584865039665
 20
-0.9643979754547444
 30
0.0
 11
199.3584865039665
 21
4.035602024545255
 31
0.0
  0
LINE
  5
3FCA
330
1F
100
AcDbEntity
  8
太線
100
AcDbLine
 10
216.1317685534454
 20
4.035602024545255
 30
0.0
 11
216.1317685534454
 21
-0.9643979754547444
 31
0.0
  0
LINE
  5
3FCB
330
1F
100
AcDbEntity
  8
太線
100
AcDbLine
 10
191.1317685534454
 20
31.53560202454525
 30
0.0
 11
226.1317685534454
 21
31.53560202454525
 31
0.0
  0
LINE
  5
3FCC
330
1F
100
AcDbEntity
  8
太線
100
AcDbLine
 10
435.5190026555542
 20
31.53560202454525
 30
0.0
 11
405.7796823144903
 21
31.65687042389118
 31
0.0
  0
LINE
  5
3FCD
330
1F
100
AcDbEntity
  8
太線
100
AcDbLine
 10
386.5190026555542
 20
-28.46439797545477
 30
0.0
 11
424.5190026555542
 21
-28.46439797545477
 31
0.0
  0
CIRCLE
  5
3FCE
330
1F
100
AcDbEntity
  8
細線
100
AcDbCircle
 10
405.5190026555542
 20
1.535602024545255
 30
0.0
 40
24.03857690457265
  0
CIRCLE
  5
3FCF
330
1F
100
AcDbEntity
  8
太線
100
AcDbCircle
 10
405.5190026555542
 20
1.535602024545255
 30
0.0
 40
25.0
  0
LINE
  5
3FD0
330
1F
100
AcDbEntity
  8
太線
100
AcDbLine
 10
470.5190026555542
 20
-28.46439797545474
 30
0.0
 11
405.5190026555542
 21
-28.46439797545474
 31
0.0
  0
LINE
  5
3FD1
330
1F
100
AcDbEntity
  8
想像線
100
AcDbLine
 10
405.5190026555542
 20
-22.50297488002741
 30
0.0
 11
435.5190026555542
 21
-22.50297488002741
 31
0.0
  0
LINE
  5
3FD2
330
1F
100
AcDbEntity
  8
想像線
100
AcDbLine
 10
405.5190026555542
 20
25.57417892911792
 30
0.0
 11
436.097438899898
 21
25.57417892911792
 31
0.0
  0
CIRCLE
  5
3FD3
330
1F
100
AcDbEntity
  8
太線
100
AcDbCircle
 10
405.5190026555542
 20
1.535602024545255
 30
0.0
 40
30.0
  0
LINE
  5
3FD4
330
1F
100
AcDbEntity
  8
太線
100
AcDbLine
 10
392.1828420537523
 20
-18.46439797545477
 30
0.0
 11
418.8551632573561
 21
-18.46439797545477
 31
0.0
  0
LINE
  5
3FD5
330
1F
100
AcDbEntity
  8
太線
100
AcDbLine
 10
385.5190026555542
 20
-20.82507775045266
 30
0.0
 11
385.5190026555542
 21
-27.46439797545477
 31
0.0
  0
ARC
  5
3FD6
330
1F
100
AcDbEntity
  8
太線
100
AcDbCircle
 10
386.0190026555542
 20
-27.96439797545477
 30
0.0
 40
0.5
100
AcDbArc
 50
180.0
 51
278.8957952865034
  0
ARC
  5
3FD7
330
1F
100
AcDbEntity
  8
太線
100
AcDbCircle
 10
386.2509594806043
 20
-29.4463548005049
 30
0.0
 40
1.0
100
AcDbArc
 50
82.29795315063654
 51
98.89579528650337
  0
ARC
  5
3FD8
330
1F
100
AcDbEntity
  8
太線
100
AcDbCircle
 10
386.5190026555542
 20
-27.46439797545477
 30
0.0
 40
1.0
100
AcDbArc
 50
262.2979531506369
 51
270.0
  0
LINE
  5
3FD9
330
1F
100
AcDbEntity
  8
想像線
100
AcDbLine
 10
399.5190026555542
 20
-18.46439797545477
 30
0.0
 11
399.5190026555542
 21
-27.85827488885288
 31
0.0
  0
LINE
  5
3FDA
330
1F
100
AcDbEntity
  8
想像線
100
AcDbLine
 10
405.5190026555542
 20
-18.46439797545477
 30
0.0
 11
405.5190026555542
 21
-28.46439797545474
 31
0.0
  0
LINE
  5
3FDB
330
1F
100
AcDbEntity
  8
想像線
100
AcDbLine
 10
395.5190026555542
 20
-18.46439797545477
 30
0.0
 11
395.5190026555542
 21
-28.46439797545477
 31
0.0
  0
LINE
  5
3FDC
330
1F
100
AcDbEntity
  8
想像線
100
AcDbLine
 10
415.5190026555542
 20
-18.46439797545477
 30
0.0
 11
415.5190026555542
 21
-28.46439797545477
 31
0.0
  0
LINE
  5
3FDD
330
1F
100
AcDbEntity
  8
想像線
100
AcDbLine
 10
411.5190026555542
 20
-18.46439797545477
 30
0.0
 11
411.5190026555542
 21
-27.85827488885288
 31
0.0
  0
LINE
  5
3FDE
330
1F
100
AcDbEntity
  8
太線
100
AcDbLine
 10
470.5190026555542
 20
31.53560202454525
 30
0.0
 11
470.5190026555542
 21
-28.46439797545474
 31
0.0
  0
LINE
  5
3FDF
330
1F
100
AcDbEntity
  8
想像線
100
AcDbLine
 10
470.5190026555542
 20
26.53560202454525
 30
0.0
 11
436.1087793995546
 21
26.53560202454525
 31
0.0
  0
LINE
  5
3FE0
330
1F
100
AcDbEntity
  8
想像線
100
AcDbLine
 10
435.5190026555542
 20
-23.46439797545474
 30
0.0
 11
470.5190026555542
 21
-23.46439797545474
 31
0.0
  0
LINE
  5
3FE1
330
1F
100
AcDbEntity
  8
想像線
100
AcDbLine
 10
436.1087793995546
 20
26.53560202454525
 30
0.0
 11
435.5190026555542
 21
-23.46439797545474
 31
0.0
  0
LINE
  5
3FE2
330
1F
100
AcDbEntity
  8
太線
100
AcDbLine
 10
425.5190026555542
 20
-27.46439797545477
 30
0.0
 11
425.5190026555542
 21
-20.82507775045266
 31
0.0
  0
ARC
  5
3FE3
330
1F
100
AcDbEntity
  8
太線
100
AcDbCircle
 10
424.5190026555542
 20
-27.46439797545477
 30
0.0
 40
1.0
100
AcDbArc
 50
270.0
 51
0.0
  0
LINE
  5
3FE4
330
1F
100
AcDbEntity
  8
太線
100
AcDbLine
 10
425.5190026555542
 20
-20.82507775045266
 30
0.0
 11
425.5190026555542
 21
-22.50297488002741
 31
0.0
  0
LINE
  5
3FE5
330
1F
100
AcDbEntity
  8
太線
100
AcDbLine
 10
460.5190026555542
 20
-0.9643979754547444
 30
0.0
 11
436.1087793995546
 21
-0.9643979754547444
 31
0.0
  0
LINE
  5
3FE6
330
1F
100
AcDbEntity
  8
太線
100
AcDbLine
 10
435.4146545133077
 20
4.035602024545255
 30
0.0
 11
460.5190026555542
 21
4.035602024545255
 31
0.0
  0
LINE
  5
3FE7
330
1F
100
AcDbEntity
  8
破線
100
AcDbLine
 10
437.3129805300481
 20
-0.9643979754547444
 30
0.0
 11
437.3129805300481
 21
4.035602024545255
 31
0.0
  0
LINE
  5
3FE8
330
1F
100
AcDbEntity
  8
破線
100
AcDbLine
 10
443.7457206060753
 20
-0.9643979754547444
 30
0.0
 11
443.7457206060753
 21
4.035602024545255
 31
0.0
  0
LINE
  5
3FE9
330
1F
100
AcDbEntity
  8
太線
100
AcDbLine
 10
460.5190026555542
 20
4.035602024545255
 30
0.0
 11
460.5190026555542
 21
-0.9643979754547444
 31
0.0
  0
LINE
  5
3FEA
330
1F
100
AcDbEntity
  8
太線
100
AcDbLine
 10
435.5190026555542
 20
31.53560202454525
 30
0.0
 11
470.5190026555542
 21
31.53560202454525
 31
0.0
  0
LINE
  5
3FEB
330
1F
100
AcDbEntity
  8
太線
100
AcDbLine
 10
608.6509170513882
 20
31.53560202454525
 30
0.0
 11
608.6509170513882
 21
-28.46439797545474
 31
0.0
  0
CIRCLE
  5
3FEC
330
1F
100
AcDbEntity
  8
太線
100
AcDbCircle
 10
543.6509170513882
 20
1.535602024545255
 30
0.0
 40
30.0
  0
LINE
  5
3FED
330
1F
100
AcDbEntity
  8
太線
100
AcDbLine
 10
530.3147564495863
 20
-18.46439797545477
 30
0.0
 11
556.98707765319
 21
-18.46439797545477
 31
0.0
  0
CIRCLE
  5
3FEE
330
1F
100
AcDbEntity
  8
太線
100
AcDbCircle
 10
543.6509170513882
 20
1.535602024545255
 30
0.0
 40
25.0
  0
CIRCLE
  5
3FEF
330
1F
100
AcDbEntity
  8
細線
100
AcDbCircle
 10
543.6509170513882
 20
1.535602024545255
 30
0.0
 40
24.03857690457265
  0
LINE
  5
3FF0
330
1F
100
AcDbEntity
  8
太線
100
AcDbLine
 10
524.6509170513881
 20
-28.46439797545477
 30
0.0
 11
562.6509170513882
 21
-28.46439797545477
 31
0.0
  0
LINE
  5
3FF1
330
1F
100
AcDbEntity
  8
太線
100
AcDbLine
 10
523.6509170513881
 20
-20.82507775045266
 30
0.0
 11
523.6509170513881
 21
-27.46439797545477
 31
0.0
  0
ARC
  5
3FF2
330
1F
100
AcDbEntity
  8
太線
100
AcDbCircle
 10
524.6509170513881
 20
-27.46439797545477
 30
0.0
 40
1.0
100
AcDbArc
 50
262.2979531506369
 51
270.0
  0
ARC
  5
3FF3
330
1F
100
AcDbEntity
  8
太線
100
AcDbCircle
 10
524.3828738764383
 20
-29.4463548005049
 30
0.0
 40
1.0
100
AcDbArc
 50
82.29795315063654
 51
98.89579528650337
  0
ARC
  5
3FF4
330
1F
100
AcDbEntity
  8
太線
100
AcDbCircle
 10
524.1509170513881
 20
-27.96439797545477
 30
0.0
 40
0.5
100
AcDbArc
 50
180.0
 51
278.8957952865034
  0
LINE
  5
3FF5
330
1F
100
AcDbEntity
  8
太線
100
AcDbLine
 10
573.5465689091417
 20
4.035602024545255
 30
0.0
 11
598.6509170513881
 21
4.035602024545255
 31
0.0
  0
LINE
  5
3FF6
330
1F
100
AcDbEntity
  8
太線
100
AcDbLine
 10
598.6509170513881
 20
-0.9643979754547444
 30
0.0
 11
574.2406937953886
 21
-0.9643979754547444
 31
0.0
  0
LINE
  5
3FF7
330
1F
100
AcDbEntity
  8
想像線
100
AcDbLine
 10
573.6509170513881
 20
-23.46439797545474
 30
0.0
 11
608.6509170513882
 21
-23.46439797545474
 31
0.0
  0
LINE
  5
3FF8
330
1F
100
AcDbEntity
  8
想像線
100
AcDbLine
 10
608.6509170513882
 20
26.53560202454525
 30
0.0
 11
574.2406937953886
 21
26.53560202454525
 31
0.0
  0
LINE
  5
3FF9
330
1F
100
AcDbEntity
  8
太線
100
AcDbLine
 10
608.6509170513882
 20
-28.46439797545474
 30
0.0
 11
543.6509170513882
 21
-28.46439797545474
 31
0.0
  0
LINE
  5
3FFA
330
1F
100
AcDbEntity
  8
想像線
100
AcDbLine
 10
574.2406937953886
 20
26.53560202454525
 30
0.0
 11
573.6509170513881
 21
-23.46439797545474
 31
0.0
  0
LINE
  5
3FFB
330
1F
100
AcDbEntity
  8
想像線
100
AcDbLine
 10
543.6509170513882
 20
-22.50297488002741
 30
0.0
 11
573.6509170513881
 21
-22.50297488002741
 31
0.0
  0
LINE
  5
3FFC
330
1F
100
AcDbEntity
  8
想像線
100
AcDbLine
 10
533.6509170513882
 20
-18.46439797545477
 30
0.0
 11
533.6509170513882
 21
-28.46439797545477
 31
0.0
  0
LINE
  5
3FFD
330
1F
100
AcDbEntity
  8
想像線
100
AcDbLine
 10
543.6509170513882
 20
-18.46439797545477
 30
0.0
 11
543.6509170513882
 21
-28.46439797545474
 31
0.0
  0
LINE
  5
3FFE
330
1F
100
AcDbEntity
  8
想像線
100
AcDbLine
 10
537.6509170513882
 20
-18.46439797545477
 30
0.0
 11
537.6509170513882
 21
-27.85827488885288
 31
0.0
  0
LINE
  5
3FFF
330
1F
100
AcDbEntity
  8
想像線
100
AcDbLine
 10
549.6509170513881
 20
-18.46439797545477
 30
0.0
 11
549.6509170513881
 21
-27.85827488885288
 31
0.0
  0
LINE
  5
4000
330
1F
100
AcDbEntity
  8
想像線
100
AcDbLine
 10
553.6509170513881
 20
-18.46439797545477
 30
0.0
 11
553.6509170513881
 21
-28.46439797545477
 31
0.0
  0
LINE
  5
4001
330
1F
100
AcDbEntity
  8
太線
100
AcDbLine
 10
563.6509170513882
 20
-27.46439797545477
 30
0.0
 11
563.6509170513882
 21
-20.82507775045266
 31
0.0
  0
ARC
  5
4002
330
1F
100
AcDbEntity
  8
太線
100
AcDbCircle
 10
562.6509170513882
 20
-27.46439797545477
 30
0.0
 40
1.0
100
AcDbArc
 50
270.0
 51
0.0
  0
LINE
  5
4003
330
1F
100
AcDbEntity
  8
太線
100
AcDbLine
 10
563.6509170513882
 20
-20.82507775045266
 30
0.0
 11
563.6509170513882
 21
-22.50297488002741
 31
0.0
  0
LINE
  5
4004
330
1F
100
AcDbEntity
  8
想像線
100
AcDbLine
 10
543.6509170513882
 20
25.57417892911792
 30
0.0
 11
574.2293532957319
 21
25.57417892911792
 31
0.0
  0
LINE
  5
4005
330
1F
100
AcDbEntity
  8
破線
100
AcDbLine
 10
575.4448949258821
 20
-0.9643979754547444
 30
0.0
 11
575.4448949258821
 21
4.035602024545255
 31
0.0
  0
LINE
  5
4006
330
1F
100
AcDbEntity
  8
破線
100
AcDbLine
 10
581.8776350019093
 20
-0.9643979754547444
 30
0.0
 11
581.8776350019093
 21
4.035602024545255
 31
0.0
  0
LINE
  5
4007
330
1F
100
AcDbEntity
  8
太線
100
AcDbLine
 10
598.6509170513881
 20
4.035602024545255
 30
0.0
 11
598.6509170513881
 21
-0.9643979754547444
 31
0.0
  0
LINE
  5
4008
330
1F
100
AcDbEntity
  8
太線
100
AcDbLine
 10
573.6509170513881
 20
31.53560202454525
 30
0.0
 11
608.6509170513882
 21
31.53560202454525
 31
0.0
  0
LINE
  5
4009
330
1F
100
AcDbEntity
  8
太線
100
AcDbLine
 10
573.6509170513881
 20
31.53560202454525
 30
0.0
 11
543.9115967103243
 21
31.65687042389118
 31
0.0
  0
TEXT
  5
400B
330
1F
100
AcDbEntity
  8
文字
100
AcDbText
 10
9.56017068698884
 20
-152.5921343998327
 30
0.0
 40
5.759999999999999
  1
14-2L65                                                                                                                 
 51
15.0
  7
OKANO
100
AcDbText
  0
TEXT
  5
400C
330
1F
100
AcDbEntity
  8
文字
100
AcDbText
 10
3.583310357425034
 20
-165.7133284644817
 30
0.0
 40
5.759999999999999
  1
30kgストッパー付タイプ                                                                                                                                                                              
 51
15.0
  7
OKANO
100
AcDbText
  0
LINE
  5
4012
330
1F
100
AcDbEntity
  8
太線
100
AcDbLine
 10
281.442042716236
 20
-91.16210451386264
 30
0.0
 11
281.442042716236
 21
-101.1595852192414
 31
0.0
  0
LINE
  5
4013
330
1F
100
AcDbEntity
  8
細線
100
AcDbLine
 10
280.442042716236
 20
-91.16210451386264
 30
0.0
 11
280.442042716236
 21
-101.1595852192414
 31
0.0
  0
LINE
  5
4014
330
1F
100
AcDbEntity
  8
細線
100
AcDbLine
 10
270.442042716236
 20
-91.16210451386264
 30
0.0
 11
270.442042716236
 21
-101.1595852192414
 31
0.0
  0
LINE
  5
4015
330
1F
100
AcDbEntity
  8
太線
100
AcDbLine
 10
269.442042716236
 20
-91.16210451386264
 30
0.0
 11
269.442042716236
 21
-90.9557705699412
 31
0.0
  0
LINE
  5
4017
330
1F
100
AcDbEntity
  8
太線
100
AcDbLine
 10
408.3713237918277
 20
-67.17781833133767
 30
0.0
 11
408.3713237918277
 21
-111.0853102204942
 31
0.0
  0
LINE
  5
4018
330
1F
100
AcDbEntity
  8
細線
100
AcDbLine
 10
407.3713237918277
 20
-67.17781833133767
 30
0.0
 11
407.3713237918277
 21
-111.0853102204942
 31
0.0
  0
LINE
  5
4019
330
1F
100
AcDbEntity
  8
細線
100
AcDbLine
 10
397.3713237918277
 20
-67.17781833133767
 30
0.0
 11
397.3713237918277
 21
-111.0853102204942
 31
0.0
  0
LINE
  5
401A
330
1F
100
AcDbEntity
  8
太線
100
AcDbLine
 10
396.3713237918277
 20
-67.17781833133767
 30
0.0
 11
396.3713237918277
 21
-50.8708473434412
 31
0.0
  0
DIMENSION
  5
4081
330
1F
100
AcDbEntity
  8
寸法線
100
AcDbDimension
  2
*D38
 10
434.3048593501483
 20
-48.1698202859397
 30
0.0
 11
430.8048593501482
 21
-90.52458564688015
 31
0.0
 70
    32
  1
85
 71
     5
 42
84.70953072188104
  3
sunpo
100
AcDbAlignedDimension
 13
429.6195623655166
 23
-132.8793510078207
 33
0.0
 14
407.3713237918277
 24
-48.16982028593969
 34
0.0
 50
90.0
100
AcDbRotatedDimension
1001
ACAD
1000
DSTYLE
1002
{
1070
    40
1040
1.0
1002
}
  0
DIMENSION
  5
408E
330
1F
100
AcDbEntity
  8
寸法線
100
AcDbDimension
  2
*D39
 10
604.6935253009599
 20
-38.06438322391149
 30
0.0
 11
601.1935253009599
 21
-85.30416680613331
 31
0.0
 70
    32
  1
95
 71
     5
 42
94.4795671644438
  3
sunpo
100
AcDbAlignedDimension
 13
601.1007384689503
 23
-132.5439503883553
 33
0.0
 14
549.4964327051386
 24
-38.06438322391148
 34
0.0
 50
90.0
100
AcDbRotatedDimension
1001
ACAD
1000
DSTYLE
1002
{
1070
    40
1040
1.0
1002
}
  0
DIMENSION
  5
40F7
330
1F
100
AcDbEntity
  8
寸法線
370
    25
100
AcDbDimension
  2
*D43
 10
249.7379271692395
 20
105.4790412579015
 30
0.0
 11
322.4712266712358
 21
87.41595553526352
 31
0.0
 70
   163
 71
     5
 42
60.0
  3
ISO-25
100
AcDbDiametricDimension
 15
307.9690572243007
 25
91.01752361587864
 35
0.0
 40
0.0
1001
ACAD
1000
DSTYLE
1002
{
1070
   288
1070
     1
1002
}
  0
DIMENSION
  5
40F8
330
1F
100
AcDbEntity
  8
寸法線
370
    25
100
AcDbDimension
  2
*D44
 10
257.5648320285976
 20
90.96522344742245
 30
0.0
 11
319.624963570483
 21
112.1966018123893
 31
0.0
 70
   163
 71
     5
 42
45.0
  3
ISO-25
100
AcDbDiametricDimension
 15
300.1421523649426
 25
105.5313414263576
 35
0.0
 40
0.0
1001
ACAD
1000
DSTYLE
1002
{
1070
   288
1070
     1
1002
}
  0
CIRCLE
  5
40F9
330
1F
100
AcDbEntity
  8
太線
370
    25
100
AcDbCircle
 10
278.8534921967701
 20
98.24828243689012
 30
0.0
 40
30.0
  0
CIRCLE
  5
40FA
330
1F
100
AcDbEntity
  8
太線
370
    25
100
AcDbCircle
 10
278.8534921967701
 20
98.24828243689012
 30
0.0
 40
22.5
  0
DIMENSION
  5
40FB
330
1F
100
AcDbEntity
  8
寸法線
370
    25
100
AcDbDimension
  2
*D45
 10
275.1121691024479
 20
93.8819336757523
 30
0.0
 11
287.5420995875747
 21
111.27007683652
 31
0.0
 70
    35
 71
     5
 42
11.49999999999994
  3
ISO-25
100
AcDbDiametricDimension
 15
282.5948152910925
 25
102.614631198028
 35
0.0
 40
0.0
1001
ACAD
1000
DSTYLE
1002
{
1070
   288
1070
     1
1002
}
  0
CIRCLE
  5
40FC
330
1F
100
AcDbEntity
  8
太線
370
    25
100
AcDbCircle
 10
278.8534921967701
 20
98.24828243689012
 30
0.0
 40
5.75
  0
LINE
  5
4140
330
1F
100
AcDbEntity
  8
太線
100
AcDbLine
 10
280.442042716236
 20
-81.95577056994116
 30
0.0
 11
280.442042716236
 21
-89.9557705699412
 31
0.0
  0
LINE
  5
4141
330
1F
100
AcDbEntity
  8
太線
100
AcDbLine
 10
284.442042716236
 20
-81.95577056994119
 30
0.0
 11
284.442042716236
 21
-89.9557705699412
 31
0.0
  0
LINE
  5
4142
330
1F
100
AcDbEntity
  8
太線
100
AcDbLine
 10
266.442042716236
 20
-89.9557705699412
 30
0.0
 11
266.442042716236
 21
-81.95577056994119
 31
0.0
  0
LINE
  5
4143
330
1F
100
AcDbEntity
  8
太線
100
AcDbLine
 10
270.442042716236
 20
-81.95577056994116
 30
0.0
 11
270.442042716236
 21
-89.9557705699412
 31
0.0
  0
LINE
  5
4144
330
1F
100
AcDbEntity
  8
太線
100
AcDbLine
 10
283.442042716236
 20
-90.9557705699412
 30
0.0
 11
267.442042716236
 21
-90.9557705699412
 31
0.0
  0
ARC
  5
4145
330
1F
100
AcDbEntity
  8
太線
100
AcDbCircle
 10
275.442042716236
 20
-77.95577056994119
 30
0.0
 40
13.0
100
AcDbArc
 50
247.3801350519612
 51
292.6198649480387
  0
LINE
  5
4146
330
1F
100
AcDbEntity
  8
太線
100
AcDbLine
 10
270.442042716236
 20
-89.9557705699412
 30
0.0
 11
267.442042716236
 21
-90.9557705699412
 31
0.0
  0
ARC
  5
4147
330
1F
100
AcDbEntity
  8
太線
100
AcDbCircle
 10
267.442042716236
 20
-89.9557705699412
 30
0.0
 40
1.0
100
AcDbArc
 50
180.0
 51
270.0
  0
LINE
  5
4148
330
1F
100
AcDbEntity
  8
太線
100
AcDbLine
 10
280.442042716236
 20
-89.9557705699412
 30
0.0
 11
283.442042716236
 21
-90.9557705699412
 31
0.0
  0
ARC
  5
4149
330
1F
100
AcDbEntity
  8
太線
100
AcDbCircle
 10
283.442042716236
 20
-89.9557705699412
 30
0.0
 40
1.0
100
AcDbArc
 50
270.0
 51
0.0
  0
LINE
  5
414A
330
1F
100
AcDbEntity
  8
太線
100
AcDbLine
 10
266.442042716236
 20
-81.95577056994119
 30
0.0
 11
284.442042716236
 21
-81.95577056994119
 31
0.0
  0
LINE
  5
414B
330
1F
100
AcDbEntity
  8
太線
100
AcDbLine
 10
270.4318202858299
 20
-81.32972886814281
 30
0.0
 11
281.43182028583
 21
-81.32972886814281
 31
0.0
  0
LINE
  5
414C
330
1F
100
AcDbEntity
  8
太線
100
AcDbLine
 10
270.4318202858299
 20
-81.32972886814281
 30
0.0
 11
267.4318202858299
 21
-81.32972886814281
 31
0.0
  0
ARC
  5
414D
330
1F
100
AcDbEntity
  8
太線
100
AcDbCircle
 10
267.4318202858299
 20
-82.3297288681428
 30
0.0
 40
1.0
100
AcDbArc
 50
90.0
 51
180.0
  0
LINE
  5
414E
330
1F
100
AcDbEntity
  8
太線
100
AcDbLine
 10
281.43182028583
 20
-81.32972886814281
 30
0.0
 11
283.43182028583
 21
-81.32972886814281
 31
0.0
  0
ARC
  5
414F
330
1F
100
AcDbEntity
  8
太線
100
AcDbCircle
 10
283.43182028583
 20
-82.3297288681428
 30
0.0
 40
1.0
100
AcDbArc
 50
0.0
 51
90.0
  0
DIMENSION
  5
4150
330
1F
100
AcDbEntity
  8
寸法線
100
AcDbDimension
  2
*D46
 10
242.1001958135634
 20
-101.1595852192414
 30
0.0
 11
238.6001958135635
 21
-117.1224477198678
 31
0.0
 70
    32
  1
40
 71
     5
 42
31.92572500125277
  3
sunpo
100
AcDbAlignedDimension
 13
247.942042716236
 23
-133.0853102204942
 33
0.0
 14
267.4318202858299
 24
-101.1595852192414
 34
0.0
 50
90.0
100
AcDbRotatedDimension
1001
ACAD
1000
DSTYLE
1002
{
1070
    40
1040
1.0
1002
}
  0
LINE
  5
4166
330
1F
100
AcDbEntity
  8
太線
100
AcDbLine
 10
281.442042716236
 20
-90.9557705699412
 30
0.0
 11
281.442042716236
 21
-91.16210451386264
 31
0.0
  0
LINE
  5
4167
330
1F
100
AcDbEntity
  8
細線
100
AcDbLine
 10
280.442042716236
 20
-90.9557705699412
 30
0.0
 11
280.442042716236
 21
-91.16210451386264
 31
0.0
  0
LINE
  5
4168
330
1F
100
AcDbEntity
  8
細線
100
AcDbLine
 10
270.442042716236
 20
-90.9557705699412
 30
0.0
 11
270.442042716236
 21
-91.16210451386264
 31
0.0
  0
LINE
  5
4169
330
1F
100
AcDbEntity
  8
太線
100
AcDbLine
 10
269.442042716236
 20
-81.32972886814281
 30
0.0
 11
269.442042716236
 21
-50.8708473434412
 31
0.0
  0
ARC
  5
416A
330
1F
100
AcDbEntity
  8
破線
100
AcDbCircle
 10
541.4338357896711
 20
-72.59795806537005
 30
0.0
 40
25.31465050611781
100
AcDbArc
 50
253.1602647809359
 51
285.0511046503695
  0
LINE
  5
416B
330
1F
100
AcDbEntity
  8
破線
100
AcDbLine
 10
556.1007384689503
 20
-98.05411383255147
 30
0.0
 11
531.1007384689503
 21
-98.05411383255147
 31
0.0
  0
LINE
  5
416C
330
1F
100
AcDbEntity
  8
破線
100
AcDbLine
 10
526.1007384689503
 20
-82.05411383255148
 30
0.0
 11
556.1007384689503
 21
-82.05411383255148
 31
0.0
  0
ARC
  5
416D
330
1F
100
AcDbEntity
  8
破線
100
AcDbCircle
 10
551.7921803027684
 20
-91.8957543762912
 30
0.0
 40
6.350862044312581
100
AcDbArc
 50
230.9396192866367
 51
312.0723616256726
  0
LINE
  5
416E
330
1F
100
AcDbEntity
  8
破線
100
AcDbLine
 10
534.1007384689503
 20
-82.05411383255148
 30
0.0
 11
534.1007384689503
 21
-98.05411383255147
 31
0.0
  0
LINE
  5
416F
330
1F
100
AcDbEntity
  8
破線
100
AcDbLine
 10
526.1007384689503
 20
-98.05411383255147
 30
0.0
 11
526.1007384689503
 21
-82.05411383255148
 31
0.0
  0
LINE
  5
4170
330
1F
100
AcDbEntity
  8
破線
100
AcDbLine
 10
531.1007384689503
 20
-98.05411383255147
 30
0.0
 11
526.1007384689503
 21
-98.05411383255147
 31
0.0
  0
ARC
  5
4171
330
1F
100
AcDbEntity
  8
破線
100
AcDbCircle
 10
530.3000754245299
 20
-88.35317650778312
 30
0.0
 40
9.574652439182898
100
AcDbArc
 50
242.2559248299449
 51
294.8092894638859
  0
LINE
  5
4172
330
1F
100
AcDbEntity
  8
破線
100
AcDbLine
 10
556.1007384689503
 20
-82.05411383255148
 30
0.0
 11
556.1007384689503
 21
-98.05411383255147
 31
0.0
  0
LINE
  5
4173
330
1F
100
AcDbEntity
  8
破線
100
AcDbLine
 10
548.1007384689503
 20
-82.05411383255148
 30
0.0
 11
548.1007384689503
 21
-98.05411383255147
 31
0.0
  0
LINE
  5
4174
330
1F
100
AcDbEntity
  8
太線
100
AcDbLine
 10
549.4964327051383
 20
-74.56292867298373
 30
0.0
 11
549.4964327051381
 21
-82.05411383255146
 31
0.0
  0
LINE
  5
4175
330
1F
100
AcDbEntity
  8
太線
100
AcDbLine
 10
551.10073846895
 20
-58.56292867298373
 30
0.0
 11
551.10073846895
 21
-40.76541028141297
 31
0.0
  0
LINE
  5
4176
330
1F
100
AcDbEntity
  8
太線
100
AcDbLine
 10
532.1007384689501
 20
-74.56292867298373
 30
0.0
 11
532.1007384689498
 21
-82.05411383255146
 31
0.0
  0
LINE
  5
4177
330
1F
100
AcDbEntity
  8
太線
100
AcDbLine
 10
531.1007384689502
 20
-74.56292867298373
 30
0.0
 11
531.1007384689502
 21
-82.05411383255146
 31
0.0
  0
DIMENSION
  5
4178
330
1F
100
AcDbEntity
  8
寸法線
100
AcDbDimension
  2
*D47
 10
504.4094850601372
 20
-82.05411383255148
 30
0.0
 11
500.9094850601372
 21
-107.2990321104533
 31
0.0
 70
    32
  1
60
 71
     5
 42
50.48983655580383
  3
sunpo
100
AcDbAlignedDimension
 13
507.751097351422
 23
-132.5439503883553
 33
0.0
 14
526.1007384689503
 24
-82.05411383255148
 34
0.0
 50
90.0
100
AcDbRotatedDimension
1001
ACAD
1000
DSTYLE
1002
{
1070
    40
1040
1.0
1002
}
  0
VIEWPORT
  5
2E
330
1B
100
AcDbEntity
 67
     1
  8
0
100
AcDbViewport
 10
240.217746142324
 20
108.4856578538652
 30
0.0
 40
674.002607272527
 41
322.9144324231721
 68
     2
 69
     1
 12
240.217746142324
 22
108.4856578538652
 13
0.0
 23
0.0
 14
10.0
 24
10.0
 15
10.0
 25
10.0
 16
0.0
 26
0.0
 36
1.0
 17
0.0
 27
0.0
 37
0.0
 42
50.0
 43
0.0
 44
0.0
 45
322.9144324231721
 50
0.0
 51
0.0
 72
   100
 90
    32800
  1

281
     0
 71
     1
 74
     0
110
0.0
120
0.0
130
0.0
111
1.0
121
0.0
131
0.0
112
0.0
122
1.0
132
0.0
 79
     0
146
0.0
  0
VIEWPORT
  5
30
330
1B
100
AcDbEntity
 67
     1
  8
70-0-CON
100
AcDbViewport
 10
141.8594093064315
 20
100.3480256368386
 30
0.0
 40
261.6199023344245
 41
192.6196987113174
 68
     1
 69
     2
 12
304.530777934651
 22
14.19570053033517
 13
0.0
 23
0.0
 14
5.0
 24
5.0
 15
10.0
 25
10.0
 16
0.0
 26
0.0
 36
1.0
 17
0.0
 27
0.0
 37
0.0
 42
50.0
 43
0.0
 44
0.0
 45
584.0877865215503
 50
0.0
 51
0.0
 72
   100
 90
    32864
  1

281
     0
 71
     1
 74
     0
110
0.0
120
0.0
130
0.0
111
1.0
121
0.0
131
0.0
112
0.0
122
1.0
132
0.0
 79
     0
146
0.0
  0
LWPOLYLINE
  5
45
330
1B
100
AcDbEntity
 67
     1
  8
50-0-CON
100
AcDbPolyline
 90
        4
 70
     1
 43
0.0
 10
11.04945813921926
 20
4.038176281179858
 10
272.2125713060605
 20
4.033520706629644
 10
273.4987754093466
 20
195.9297862125246
 10
11.04945813921926
 20
196.6578749924973
  0
LINE
  5
4A
330
1B
100
AcDbEntity
 67
     1
  8
50-0-CON
100
AcDbLine
 10
10.38768783662635
 20
100.3480256368386
 30
0.0
 11
-4.391850629656119
 21
100.3480256368386
 31
0.0
  0
LINE
  5
4B
330
1B
100
AcDbEntity
 67
     1
  8
50-0-CON
100
AcDbLine
 10
141.8594093064315
 20
197.098652626247
 30
0.0
 11
141.8594093064315
 21
202.387980773708
 31
0.0
  0
LINE
  5
4C
330
1B
100
AcDbEntity
 67
     1
  8
50-0-CON
100
AcDbLine
 10
272.4487699456857
 20
100.7888032705883
 30
0.0
 11
278.8458837249377
 21
100.7888032705883
 31
0.0
  0
LINE
  5
4D
330
1B
100
AcDbEntity
 67
     1
  8
50-0-CON
100
AcDbLine
 10
140.9770484758805
 20
4.038176281179858
 30
0.0
 11
140.9770484758805
 21
-3.455038652015446
 31
0.0
  0
ENDSEC
  0
SECTION
  2
OBJECTS
  0
DICTIONARY
  5
C
330
0
100
AcDbDictionary
281
     1
  3
ACAD_GROUP
350
D
  3
ACAD_LAYOUT
350
1A
  3
ACAD_MLINESTYLE
350
17
  3
ACAD_PLOTSETTINGS
350
19
  3
ACAD_PLOTSTYLENAME
350
E
  3
AcadDim
350
13D0
  3
AcDbVariableDictionary
350
6AD
  3
DWGPROPS
350
30F
  0
DICTIONARY
  5
D
102
{ACAD_REACTORS
330
C
102
}
330
C
100
AcDbDictionary
281
     1
  0
DICTIONARY
  5
1A
102
{ACAD_REACTORS
330
C
102
}
330
C
100
AcDbDictionary
281
     1
  3
A4
350
1E
  3
Model
350
22
  0
DICTIONARY
  5
17
102
{ACAD_REACTORS
330
C
102
}
330
C
100
AcDbDictionary
281
     1
  3
Standard
350
18
  0
DICTIONARY
  5
19
102
{ACAD_REACTORS
330
C
102
}
330
C
100
AcDbDictionary
281
     1
  0
ACDBDICTIONARYWDFLT
  5
E
102
{ACAD_REACTORS
330
C
102
}
330
C
100
AcDbDictionary
281
     1
  3
Normal
350
F
100
AcDbDictionaryWithDefault
340
F
  0
XRECORD
  5
13D0
102
{ACAD_REACTORS
330
C
102
}
330
C
100
AcDbXrecord
280
     1
 90
   990106
  3

 60
     0
 61
     0
 62
     1
 63
     3
 64
     0
 65
     0
 66
     0
 67
     3
 68
     1
 69
     0
 70
     0
 71
     0
 72
     0
 40
0.9821740024764281
170
     0
  0
DICTIONARY
  5
6AD
102
{ACAD_REACTORS
330
C
102
}
330
C
100
AcDbDictionary
281
     1
  3
SORTENTS
350
6AE
  0
XRECORD
  5
30F
102
{ACAD_REACTORS
330
C
102
}
330
C
100
AcDbXrecord
280
     1
  1
DWGPROPS COOKIE
  2

  3

  4

  6

  7

  8

  9

300
=
301
=
302
=
303
=
304
=
305
=
306
=
307
=
308
=
309
=
 40
0.3303803125
 41
2452362.482225463
 42
2452370.969861285
  1

 90
        0
  0
LAYOUT
  5
1E
102
{ACAD_REACTORS
330
1A
102
}
330
1A
100
AcDbPlotSettings
  1

  2
EPSON PM-920C
  4
A4
  6

 40
3.757083177566528
 41
14.7637300491333
 42
3.757080078125
 43
3.757080078125
 44
209.9733276367187
 45
296.9683227539062
 46
0.0
 47
0.0
 48
0.0
 49
0.0
140
0.0
141
0.0
142
1.0
143
1.0
 70
   688
 72
     1
 73
     1
 74
     5
  7
joint.ctb
 75
    16
147
1.0
148
0.0
149
0.0
100
AcDbLayout
  1
A4
 70
     1
 71
     1
 10
-3.757080078125
 20
-3.757083177566528
 11
293.2112426757812
 21
206.2162444591522
 12
0.0
 22
0.0
 32
0.0
 14
-4.391850629656119
 24
-3.455038652015446
 34
0.0
 15
278.8458837249377
 25
202.387980773708
 35
0.0
146
0.0
 13
0.0
 23
0.0
 33
0.0
 16
1.0
 26
0.0
 36
0.0
 17
0.0
 27
1.0
 37
0.0
 76
     0
330
1B
331
30
  0
LAYOUT
  5
22
102
{ACAD_REACTORS
330
1A
102
}
330
1A
100
AcDbPlotSettings
  1

  2
EPSON PM-920C
  4
A4
  6

 40
3.757083177566528
 41
14.7637300491333
 42
3.757080078125
 43
3.757080078125
 44
209.9733276367187
 45
296.9683227539062
 46
0.0
 47
0.0
 48
0.0
 49
0.0
140
0.0
141
0.0
142
1.0
143
1.0
 70
 11952
 72
     1
 73
     1
 74
     0
  7

 75
     0
147
1.0
148
-45.64199848979289
149
-84.48806419330498
100
AcDbLayout
  1
Model
 70
     1
 71
     0
 10
0.0
 20
0.0
 11
12.0
 21
9.0
 12
0.0
 22
0.0
 32
0.0
 14
0.0
 24
0.0
 34
0.0
 15
0.0
 25
0.0
 35
0.0
146
0.0
 13
0.0
 23
0.0
 33
0.0
 16
1.0
 26
0.0
 36
0.0
 17
0.0
 27
1.0
 37
0.0
 76
     0
330
1F
  0
MLINESTYLE
  5
18
102
{ACAD_REACTORS
330
17
102
}
330
17
100
AcDbMlineStyle
  2
STANDARD
 70
     0
  3

 62
   256
 51
90.0
 52
90.0
 71
     2
 49
0.5
 62
   256
  6
BYLAYER
 49
-0.5
 62
   256
  6
BYLAYER
  0
ACDBPLACEHOLDER
  5
F
102
{ACAD_REACTORS
330
E
102
}
330
E
  0
DICTIONARYVAR
  5
6AE
102
{ACAD_REACTORS
330
6AD
102
}
330
6AD
100
DictionaryVariables
280
     0
  1
96
  0
ENDSEC
  0
EOF
