  0
SECTION
  2
HEADER
  9
$ACADVER
  1
AC1015
  9
$ACADMAINTVER
 70
     6
  9
$DWGCODEPAGE
  3
ANSI_932
  9
$INSBASE
 10
0.0
 20
0.0
 30
0.0
  9
$EXTMIN
 10
-24.42957468704438
 20
-270.3939852018735
 30
0.0
  9
$EXTMAX
 10
808.0108127771378
 20
308.1983189123435
 30
0.0
  9
$LIMMIN
 10
0.0
 20
0.0
  9
$LIMMAX
 10
420.0
 20
297.0
  9
$ORTHOMODE
 70
     0
  9
$REGENMODE
 70
     1
  9
$FILLMODE
 70
     1
  9
$QTEXTMODE
 70
     0
  9
$MIRRTEXT
 70
     1
  9
$LTSCALE
 40
1.0
  9
$ATTMODE
 70
     1
  9
$TEXTSIZE
 40
5.0
  9
$TRACEWID
 40
1.0
  9
$TEXTSTYLE
  7
OKANO
  9
$CLAYER
  8
太線
  9
$CELTYPE
  6
ByLayer
  9
$CECOLOR
 62
   256
  9
$CELTSCALE
 40
1.0
  9
$DISPSILH
 70
     0
  9
$DIMSCALE
 40
0.0
  9
$DIMASZ
 40
3.0
  9
$DIMEXO
 40
2.0
  9
$DIMDLI
 40
8.0
  9
$DIMRND
 40
0.0
  9
$DIMDLE
 40
0.0
  9
$DIMEXE
 40
3.0
  9
$DIMTP
 40
0.0
  9
$DIMTM
 40
0.0
  9
$DIMTXT
 40
5.0
  9
$DIMCEN
 40
2.5
  9
$DIMTSZ
 40
0.0
  9
$DIMTOL
 70
     0
  9
$DIMLIM
 70
     0
  9
$DIMTIH
 70
     0
  9
$DIMTOH
 70
     0
  9
$DIMSE1
 70
     0
  9
$DIMSE2
 70
     0
  9
$DIMTAD
 70
     1
  9
$DIMZIN
 70
     8
  9
$DIMBLK
  1
Closed
  9
$DIMASO
 70
     1
  9
$DIMSHO
 70
     1
  9
$DIMPOST
  1

  9
$DIMAPOST
  1

  9
$DIMALT
 70
     0
  9
$DIMALTD
 70
     3
  9
$DIMALTF
 40
0.03937007874016
  9
$DIMLFAC
 40
1.0
  9
$DIMTOFL
 70
     1
  9
$DIMTVP
 40
0.0
  9
$DIMTIX
 70
     0
  9
$DIMSOXD
 70
     0
  9
$DIMSAH
 70
     0
  9
$DIMBLK1
  1

  9
$DIMBLK2
  1

  9
$DIMSTYLE
  2
sunpo
  9
$DIMCLRD
 70
     0
  9
$DIMCLRE
 70
     0
  9
$DIMCLRT
 70
     0
  9
$DIMTFAC
 40
1.0
  9
$DIMGAP
 40
1.0
  9
$DIMJUST
 70
     0
  9
$DIMSD1
 70
     0
  9
$DIMSD2
 70
     0
  9
$DIMTOLJ
 70
     0
  9
$DIMTZIN
 70
     8
  9
$DIMALTZ
 70
     0
  9
$DIMALTTZ
 70
     0
  9
$DIMUPT
 70
     0
  9
$DIMDEC
 70
     2
  9
$DIMTDEC
 70
     2
  9
$DIMALTU
 70
     2
  9
$DIMALTTD
 70
     3
  9
$DIMTXSTY
  7
OKANO
  9
$DIMAUNIT
 70
     0
  9
$DIMADEC
 70
     0
  9
$DIMALTRND
 40
0.0
  9
$DIMAZIN
 70
     0
  9
$DIMDSEP
 70
    46
  9
$DIMATFIT
 70
     3
  9
$DIMFRAC
 70
     0
  9
$DIMLDRBLK
  1
Closed
  9
$DIMLUNIT
 70
     2
  9
$DIMLWD
 70
    -2
  9
$DIMLWE
 70
    -2
  9
$DIMTMOVE
 70
     0
  9
$LUNITS
 70
     2
  9
$LUPREC
 70
     2
  9
$SKETCHINC
 40
1.0
  9
$FILLETRAD
 40
1.0
  9
$AUNITS
 70
     0
  9
$AUPREC
 70
     0
  9
$MENU
  1
.
  9
$ELEVATION
 40
0.0
  9
$PELEVATION
 40
0.0
  9
$THICKNESS
 40
0.0
  9
$LIMCHECK
 70
     0
  9
$CHAMFERA
 40
10.0
  9
$CHAMFERB
 40
10.0
  9
$CHAMFERC
 40
20.0
  9
$CHAMFERD
 40
0.0
  9
$SKPOLY
 70
     0
  9
$TDCREATE
 40
2452362.482225463
  9
$TDUCREATE
 40
2452362.107225463
  9
$TDUPDATE
 40
2455957.611293009
  9
$TDUUPDATE
 40
2455957.236293009
  9
$TDINDWG
 40
2.2263119329
  9
$TDUSRTIMER
 40
2.2263119329
  9
$USRTIMER
 70
     1
  9
$ANGBASE
 50
0.0
  9
$ANGDIR
 70
     0
  9
$PDMODE
 70
     0
  9
$PDSIZE
 40
0.0
  9
$PLINEWID
 40
0.0
  9
$SPLFRAME
 70
     0
  9
$SPLINETYPE
 70
     6
  9
$SPLINESEGS
 70
     8
  9
$HANDSEED
  5
43FE
  9
$SURFTAB1
 70
     6
  9
$SURFTAB2
 70
     6
  9
$SURFTYPE
 70
     6
  9
$SURFU
 70
     6
  9
$SURFV
 70
     6
  9
$UCSBASE
  2

  9
$UCSNAME
  2

  9
$UCSORG
 10
0.0
 20
0.0
 30
0.0
  9
$UCSXDIR
 10
1.0
 20
0.0
 30
0.0
  9
$UCSYDIR
 10
0.0
 20
1.0
 30
0.0
  9
$UCSORTHOREF
  2

  9
$UCSORTHOVIEW
 70
     0
  9
$UCSORGTOP
 10
0.0
 20
0.0
 30
0.0
  9
$UCSORGBOTTOM
 10
0.0
 20
0.0
 30
0.0
  9
$UCSORGLEFT
 10
0.0
 20
0.0
 30
0.0
  9
$UCSORGRIGHT
 10
0.0
 20
0.0
 30
0.0
  9
$UCSORGFRONT
 10
0.0
 20
0.0
 30
0.0
  9
$UCSORGBACK
 10
0.0
 20
0.0
 30
0.0
  9
$PUCSBASE
  2

  9
$PUCSNAME
  2

  9
$PUCSORG
 10
0.0
 20
0.0
 30
0.0
  9
$PUCSXDIR
 10
1.0
 20
0.0
 30
0.0
  9
$PUCSYDIR
 10
0.0
 20
1.0
 30
0.0
  9
$PUCSORTHOREF
  2

  9
$PUCSORTHOVIEW
 70
     0
  9
$PUCSORGTOP
 10
0.0
 20
0.0
 30
0.0
  9
$PUCSORGBOTTOM
 10
0.0
 20
0.0
 30
0.0
  9
$PUCSORGLEFT
 10
0.0
 20
0.0
 30
0.0
  9
$PUCSORGRIGHT
 10
0.0
 20
0.0
 30
0.0
  9
$PUCSORGFRONT
 10
0.0
 20
0.0
 30
0.0
  9
$PUCSORGBACK
 10
0.0
 20
0.0
 30
0.0
  9
$USERI1
 70
     0
  9
$USERI2
 70
     0
  9
$USERI3
 70
     0
  9
$USERI4
 70
     0
  9
$USERI5
 70
     0
  9
$USERR1
 40
0.0
  9
$USERR2
 40
0.0
  9
$USERR3
 40
0.0
  9
$USERR4
 40
0.0
  9
$USERR5
 40
0.0
  9
$WORLDVIEW
 70
     1
  9
$SHADEDGE
 70
     3
  9
$SHADEDIF
 70
    70
  9
$TILEMODE
 70
     0
  9
$MAXACTVP
 70
    64
  9
$PINSBASE
 10
0.0
 20
0.0
 30
0.0
  9
$PLIMCHECK
 70
     0
  9
$PEXTMIN
 10
-4.391850629656119
 20
-3.455038652015446
 30
0.0
  9
$PEXTMAX
 10
278.8458837249377
 20
202.387980773708
 30
0.0
  9
$PLIMMIN
 10
-3.757080078125
 20
-3.757083177566528
  9
$PLIMMAX
 10
293.2112426757812
 20
206.2162444591522
  9
$UNITMODE
 70
     0
  9
$VISRETAIN
 70
     1
  9
$PLINEGEN
 70
     0
  9
$PSLTSCALE
 70
     1
  9
$TREEDEPTH
 70
  3020
  9
$CMLSTYLE
  2
Standard
  9
$CMLJUST
 70
     0
  9
$CMLSCALE
 40
20.0
  9
$PROXYGRAPHICS
 70
     1
  9
$MEASUREMENT
 70
     1
  9
$CELWEIGHT
370
    -1
  9
$ENDCAPS
280
     0
  9
$JOINSTYLE
280
     0
  9
$LWDISPLAY
290
     0
  9
$INSUNITS
 70
     4
  9
$HYPERLINKBASE
  1

  9
$STYLESHEET
  1

  9
$XEDIT
290
     1
  9
$CEPSNTYPE
380
     0
  9
$PSTYLEMODE
290
     1
  9
$FINGERPRINTGUID
  2
{FF7F33C3-4233-11D6-AEE0-0000F45FD7F4}
  9
$VERSIONGUID
  2
{0C083A1A-0ADB-4593-9D8C-EF4DC57A6F63}
  9
$EXTNAMES
290
     1
  9
$PSVPSCALE
 40
0.0
  9
$OLESTARTUP
290
     0
  0
ENDSEC
  0
SECTION
  2
CLASSES
  0
CLASS
  1
ACDBDICTIONARYWDFLT
  2
AcDbDictionaryWithDefault
  3
AutoCAD 2000
 90
        0
280
     0
281
     0
  0
CLASS
  1
ACDBPLACEHOLDER
  2
AcDbPlaceHolder
  3
AutoCAD 2000
 90
        0
280
     0
281
     0
  0
CLASS
  1
LAYOUT
  2
AcDbLayout
  3
AutoCAD 2000
 90
        0
280
     0
281
     0
  0
CLASS
  1
DICTIONARYVAR
  2
AcDbDictionaryVar
  3
AutoCAD 2000
 90
        0
280
     0
281
     0
  0
ENDSEC
  0
SECTION
  2
TABLES
  0
TABLE
  2
VPORT
  5
8
330
0
100
AcDbSymbolTable
 70
     4
  0
VPORT
  5
43FD
330
8
100
AcDbSymbolTableRecord
100
AcDbViewportTableRecord
  2
*Active
 70
     0
 10
0.0
 20
0.0
 11
1.0
 21
1.0
 12
229.104496486284
 22
-24.05309936985611
 13
0.0
 23
0.0
 14
5.0
 24
5.0
 15
10.0
 25
10.0
 16
0.0
 26
0.0
 36
1.0
 17
0.0
 27
0.0
 37
0.0
 40
635.5693097983133
 41
2.08724832214765
 42
50.0
 43
0.0
 44
0.0
 50
0.0
 51
0.0
 71
     0
 72
   100
 73
     1
 74
     3
 75
     0
 76
     0
 77
     0
 78
     0
281
     0
 65
     1
110
0.0
120
0.0
130
0.0
111
1.0
121
0.0
131
0.0
112
0.0
122
1.0
132
0.0
 79
     0
146
0.0
  0
ENDTAB
  0
TABLE
  2
LTYPE
  5
5
330
0
100
AcDbSymbolTable
 70
     5
  0
LTYPE
  5
14
330
5
100
AcDbSymbolTableRecord
100
AcDbLinetypeTableRecord
  2
ByBlock
 70
     0
  3

 72
    65
 73
     0
 40
0.0
  0
LTYPE
  5
15
330
5
100
AcDbSymbolTableRecord
100
AcDbLinetypeTableRecord
  2
ByLayer
 70
     0
  3

 72
    65
 73
     0
 40
0.0
  0
LTYPE
  5
16
330
5
100
AcDbSymbolTableRecord
100
AcDbLinetypeTableRecord
  2
Continuous
 70
     0
  3
Solid line
 72
    65
 73
     0
 40
0.0
  0
LTYPE
  5
33
330
5
100
AcDbSymbolTableRecord
100
AcDbLinetypeTableRecord
  2
DASHED2
 70
     0
  3
Dashed (.5x) _ _ _ _ _ _ _ _ _ _ _ _ _ _ _ _ _
 72
    65
 73
     2
 40
9.524999999999998
 49
6.349999999999999
 74
     0
 49
-3.174999999999999
 74
     0
  0
LTYPE
  5
34
330
5
100
AcDbSymbolTableRecord
100
AcDbLinetypeTableRecord
  2
CENTER2
 70
     0
  3
Center (.5x) ___ _ ___ _ ___ _ ___ _ ___ _ ___
 72
    65
 73
     4
 40
28.57499999999999
 49
19.05
 74
     0
 49
-3.174999999999999
 74
     0
 49
3.174999999999999
 74
     0
 49
-3.174999999999999
 74
     0
  0
LTYPE
  5
35
330
5
100
AcDbSymbolTableRecord
100
AcDbLinetypeTableRecord
  2
PHANTOM2
 70
     0
  3
Phantom (.5x) ___ _ _ ___ _ _ ___ _ _ ___ _ _
 72
    65
 73
     6
 40
31.75
 49
15.875
 74
     0
 49
-3.174999999999999
 74
     0
 49
3.174999999999999
 74
     0
 49
-3.174999999999999
 74
     0
 49
3.174999999999999
 74
     0
 49
-3.174999999999999
 74
     0
  0
LTYPE
  5
36
330
5
100
AcDbSymbolTableRecord
100
AcDbLinetypeTableRecord
  2
HIDDEN2
 70
     0
  3
Hidden (.5x) _ _ _ _ _ _ _ _ _ _ _ _ _ _ _ _ _
 72
    65
 73
     2
 40
4.762499999999999
 49
3.174999999999999
 74
     0
 49
-1.587499999999999
 74
     0
  0
ENDTAB
  0
TABLE
  2
LAYER
  5
2
330
0
100
AcDbSymbolTable
 70
    13
  0
LAYER
  5
10
330
2
100
AcDbSymbolTableRecord
100
AcDbLayerTableRecord
  2
0
 70
     0
 62
     7
  6
Continuous
370
    -3
390
F
  0
LAYER
  5
40
330
2
100
AcDbSymbolTableRecord
100
AcDbLayerTableRecord
  2
50-0-CON
 70
     0
 62
     4
  6
Continuous
370
    50
390
F
  0
LAYER
  5
41
330
2
100
AcDbSymbolTableRecord
100
AcDbLayerTableRecord
  2
70-0-CON
 70
     0
 62
   202
  6
Continuous
370
    70
390
F
  0
LAYER
  5
4E
330
2
100
AcDbSymbolTableRecord
100
AcDbLayerTableRecord
  2
極太線
 70
     0
 62
     7
  6
Continuous
370
    70
390
F
  0
LAYER
  5
4F
330
2
100
AcDbSymbolTableRecord
100
AcDbLayerTableRecord
  2
細線
 70
     0
 62
     8
  6
Continuous
370
    18
390
F
  0
LAYER
  5
AB
330
2
100
AcDbSymbolTableRecord
100
AcDbLayerTableRecord
  2
構築線
 70
     0
 62
    -2
  6
Continuous
370
    18
390
F
  0
LAYER
  5
B8
330
2
100
AcDbSymbolTableRecord
100
AcDbLayerTableRecord
  2
太線
 70
     0
 62
     7
  6
Continuous
370
    35
390
F
  0
LAYER
  5
B9
330
2
100
AcDbSymbolTableRecord
100
AcDbLayerTableRecord
  2
寸法線
 70
     0
 62
     5
  6
Continuous
370
    18
390
F
  0
LAYER
  5
BA
330
2
100
AcDbSymbolTableRecord
100
AcDbLayerTableRecord
  2
破線
 70
     0
 62
     8
  6
HIDDEN2
370
    18
390
F
  0
LAYER
  5
BB
330
2
100
AcDbSymbolTableRecord
100
AcDbLayerTableRecord
  2
中心線
 70
     0
 62
     1
  6
CENTER2
370
    18
390
F
  0
LAYER
  5
BC
330
2
100
AcDbSymbolTableRecord
100
AcDbLayerTableRecord
  2
想像線
 70
     0
 62
     8
  6
PHANTOM2
370
    18
390
F
  0
LAYER
  5
BD
330
2
100
AcDbSymbolTableRecord
100
AcDbLayerTableRecord
  2
文字
 70
     0
 62
     7
  6
Continuous
370
    18
390
F
  0
LAYER
  5
180
330
2
100
AcDbSymbolTableRecord
100
AcDbLayerTableRecord
  2
Defpoints
 70
     0
 62
     7
  6
Continuous
290
     0
370
    -3
390
F
  0
ENDTAB
  0
TABLE
  2
STYLE
  5
3
330
0
100
AcDbSymbolTable
 70
     3
  0
STYLE
  5
11
330
3
100
AcDbSymbolTableRecord
100
AcDbTextStyleTableRecord
  2
Standard
 70
     0
 40
0.0
 41
1.0
 50
0.0
 71
     0
 42
3.0
  3
txt
  4

  0
STYLE
  5
32
330
3
100
AcDbSymbolTableRecord
100
AcDbTextStyleTableRecord
  2

 70
     1
 40
0.0
 41
1.0
 50
0.0
 71
     0
 42
2.5
  3
ltypeshp.shx
  4

  0
STYLE
  5
50
330
3
100
AcDbSymbolTableRecord
100
AcDbTextStyleTableRecord
  2
OKANO
 70
     0
 40
0.0
 41
1.0
 50
15.0
 71
     0
 42
5.0
  3
isocp.shx
  4
bigfont.shx
  0
ENDTAB
  0
TABLE
  2
VIEW
  5
6
330
0
100
AcDbSymbolTable
 70
     0
  0
ENDTAB
  0
TABLE
  2
UCS
  5
7
330
0
100
AcDbSymbolTable
 70
     0
  0
ENDTAB
  0
TABLE
  2
APPID
  5
9
330
0
100
AcDbSymbolTable
 70
     1
  0
APPID
  5
12
330
9
100
AcDbSymbolTableRecord
100
AcDbRegAppTableRecord
  2
ACAD
 70
     0
  0
ENDTAB
  0
TABLE
  2
DIMSTYLE
  5
A
330
0
100
AcDbSymbolTable
 70
     2
100
AcDbDimStyleTable
 71
     2
340
A2
340
27
  0
DIMSTYLE
105
27
102
{ACAD_REACTORS
330
38A6
330
38A8
330
38AB
330
38AC
330
4327
330
4328
330
432B
102
}
330
A
100
AcDbSymbolTableRecord
100
AcDbDimStyleTableRecord
  2
ISO-25
 70
     0
 41
2.5
 42
0.625
 43
3.75
 44
1.25
 73
     0
 74
     0
 77
     1
 78
     8
140
2.5
141
2.5
143
0.03937007874016
147
0.625
171
     3
172
     1
271
     2
272
     2
274
     3
283
     0
284
     8
340
11
  0
DIMSTYLE
105
A2
102
{ACAD_REACTORS
330
2E95
330
2EA2
330
2EAF
330
2EBC
330
2ED8
330
2EE5
330
2F25
330
2F31
330
2F4C
330
33B0
330
33B4
330
33BE
330
33F4
330
33F8
330
3495
330
37DE
330
390D
330
3488
330
3987
330
39ED
330
39FA
330
3A07
330
3A14
330
3A69
330
3A91
330
3AAC
330
3B90
330
3BEA
330
41C7
330
41D4
330
41E6
330
41F8
330
4263
330
42A5
330
42C9
330
43CC
330
43D8
102
}
330
A
100
AcDbSymbolTableRecord
100
AcDbDimStyleTableRecord
  2
sunpo
 70
     0
 40
0.0
 41
3.0
 42
2.0
 43
8.0
 44
3.0
 73
     0
 74
     0
 77
     1
 78
     8
140
5.0
141
2.5
143
0.03937007874016
147
1.0
171
     3
172
     1
271
     2
272
     2
274
     3
283
     0
284
     8
340
50
341
9B
342
9B
  0
ENDTAB
  0
TABLE
  2
BLOCK_RECORD
  5
1
330
0
100
AcDbSymbolTable
 70
    48
  0
BLOCK_RECORD
  5
1F
330
1
100
AcDbSymbolTableRecord
100
AcDbBlockTableRecord
  2
*Model_Space
340
22
  0
BLOCK_RECORD
  5
1B
330
1
100
AcDbSymbolTableRecord
100
AcDbBlockTableRecord
  2
*Paper_Space
340
1E
  0
BLOCK_RECORD
  5
9B
330
1
100
AcDbSymbolTableRecord
100
AcDbBlockTableRecord
  2
_Closed
340
0
102
{BLKREFS
331
3787
331
3788
331
378F
331
3790
331
3796
331
3797
331
37A1
331
37A2
331
37AA
331
37AB
331
37B3
331
37B4
331
37BE
331
37BF
331
37C7
331
37C8
331
37D0
331
37D1
331
3CB2
331
3CB3
331
410A
331
410B
331
4113
331
4114
331
411C
331
411D
331
4128
331
4129
331
4130
331
4131
331
4139
331
413A
331
4144
331
4145
331
414D
331
414E
331
4156
331
4157
331
415F
331
4160
331
416A
331
416B
331
418B
331
418C
331
419A
331
41A0
331
41A1
331
41A9
331
41AA
331
41B2
331
41B3
331
41BB
331
41BC
331
424F
331
4254
331
4259
331
428E
331
428F
331
42B5
331
42B6
331
42D9
331
42DA
331
42EB
331
42EC
331
42F4
331
42F5
331
439E
331
439F
331
43C7
331
43C8
331
43DE
331
43DF
331
43F0
331
43F1
102
}
  0
BLOCK_RECORD
  5
1510
330
1
100
AcDbSymbolTableRecord
100
AcDbBlockTableRecord
  2
A$C10A573AC
340
0
  0
BLOCK_RECORD
  5
2E96
330
1
100
AcDbSymbolTableRecord
100
AcDbBlockTableRecord
  2
*D2
340
0
  0
BLOCK_RECORD
  5
2EA3
330
1
100
AcDbSymbolTableRecord
100
AcDbBlockTableRecord
  2
*D3
340
0
  0
BLOCK_RECORD
  5
2EB0
330
1
100
AcDbSymbolTableRecord
100
AcDbBlockTableRecord
  2
*D4
340
0
  0
BLOCK_RECORD
  5
2EBD
330
1
100
AcDbSymbolTableRecord
100
AcDbBlockTableRecord
  2
*D5
340
0
  0
BLOCK_RECORD
  5
2ED9
330
1
100
AcDbSymbolTableRecord
100
AcDbBlockTableRecord
  2
*D6
340
0
  0
BLOCK_RECORD
  5
2EE6
330
1
100
AcDbSymbolTableRecord
100
AcDbBlockTableRecord
  2
*D7
340
0
  0
BLOCK_RECORD
  5
2F26
330
1
100
AcDbSymbolTableRecord
100
AcDbBlockTableRecord
  2
*D8
340
0
  0
BLOCK_RECORD
  5
2F32
330
1
100
AcDbSymbolTableRecord
100
AcDbBlockTableRecord
  2
*D9
340
0
  0
BLOCK_RECORD
  5
2F4D
330
1
100
AcDbSymbolTableRecord
100
AcDbBlockTableRecord
  2
*D10
340
0
  0
BLOCK_RECORD
  5
341C
330
1
100
AcDbSymbolTableRecord
100
AcDbBlockTableRecord
  2
*D11
340
0
  0
BLOCK_RECORD
  5
3428
330
1
100
AcDbSymbolTableRecord
100
AcDbBlockTableRecord
  2
*D12
340
0
  0
BLOCK_RECORD
  5
3431
330
1
100
AcDbSymbolTableRecord
100
AcDbBlockTableRecord
  2
*D13
340
0
  0
BLOCK_RECORD
  5
343D
330
1
100
AcDbSymbolTableRecord
100
AcDbBlockTableRecord
  2
*D14
340
0
  0
BLOCK_RECORD
  5
3449
330
1
100
AcDbSymbolTableRecord
100
AcDbBlockTableRecord
  2
*D15
340
0
  0
BLOCK_RECORD
  5
3489
330
1
100
AcDbSymbolTableRecord
100
AcDbBlockTableRecord
  2
*D16
340
0
  0
BLOCK_RECORD
  5
3496
330
1
100
AcDbSymbolTableRecord
100
AcDbBlockTableRecord
  2
*D17
340
0
  0
BLOCK_RECORD
  5
384B
330
1
100
AcDbSymbolTableRecord
100
AcDbBlockTableRecord
  2
*D18
340
0
  0
BLOCK_RECORD
  5
38B4
330
1
100
AcDbSymbolTableRecord
100
AcDbBlockTableRecord
  2
*D19
340
0
  0
BLOCK_RECORD
  5
38C0
330
1
100
AcDbSymbolTableRecord
100
AcDbBlockTableRecord
  2
*D20
340
0
  0
BLOCK_RECORD
  5
38CB
330
1
100
AcDbSymbolTableRecord
100
AcDbBlockTableRecord
  2
*D21
340
0
  0
BLOCK_RECORD
  5
38D6
330
1
100
AcDbSymbolTableRecord
100
AcDbBlockTableRecord
  2
*D22
340
0
  0
BLOCK_RECORD
  5
390E
330
1
100
AcDbSymbolTableRecord
100
AcDbBlockTableRecord
  2
*D23
340
0
  0
BLOCK_RECORD
  5
3988
330
1
100
AcDbSymbolTableRecord
100
AcDbBlockTableRecord
  2
*D24
340
0
  0
BLOCK_RECORD
  5
39EE
330
1
100
AcDbSymbolTableRecord
100
AcDbBlockTableRecord
  2
*D25
340
0
  0
BLOCK_RECORD
  5
39FB
330
1
100
AcDbSymbolTableRecord
100
AcDbBlockTableRecord
  2
*D26
340
0
  0
BLOCK_RECORD
  5
3A08
330
1
100
AcDbSymbolTableRecord
100
AcDbBlockTableRecord
  2
*D27
340
0
  0
BLOCK_RECORD
  5
3A15
330
1
100
AcDbSymbolTableRecord
100
AcDbBlockTableRecord
  2
*D28
340
0
  0
BLOCK_RECORD
  5
3A6A
330
1
100
AcDbSymbolTableRecord
100
AcDbBlockTableRecord
  2
*D29
340
0
  0
BLOCK_RECORD
  5
3A92
330
1
100
AcDbSymbolTableRecord
100
AcDbBlockTableRecord
  2
*D30
340
0
  0
BLOCK_RECORD
  5
3AAD
330
1
100
AcDbSymbolTableRecord
100
AcDbBlockTableRecord
  2
*D31
340
0
  0
BLOCK_RECORD
  5
3BC1
330
1
100
AcDbSymbolTableRecord
100
AcDbBlockTableRecord
  2
*D32
340
0
  0
BLOCK_RECORD
  5
3C25
330
1
100
AcDbSymbolTableRecord
100
AcDbBlockTableRecord
  2
*D33
340
0
  0
BLOCK_RECORD
  5
41C8
330
1
100
AcDbSymbolTableRecord
100
AcDbBlockTableRecord
  2
*D34
340
0
  0
BLOCK_RECORD
  5
41D5
330
1
100
AcDbSymbolTableRecord
100
AcDbBlockTableRecord
  2
*D35
340
0
  0
BLOCK_RECORD
  5
41E7
330
1
100
AcDbSymbolTableRecord
100
AcDbBlockTableRecord
  2
*D36
340
0
  0
BLOCK_RECORD
  5
41F9
330
1
100
AcDbSymbolTableRecord
100
AcDbBlockTableRecord
  2
*D37
340
0
  0
BLOCK_RECORD
  5
4264
330
1
100
AcDbSymbolTableRecord
100
AcDbBlockTableRecord
  2
*D38
340
0
  0
BLOCK_RECORD
  5
42A6
330
1
100
AcDbSymbolTableRecord
100
AcDbBlockTableRecord
  2
*D39
340
0
  0
BLOCK_RECORD
  5
42CA
330
1
100
AcDbSymbolTableRecord
100
AcDbBlockTableRecord
  2
*D40
340
0
  0
BLOCK_RECORD
  5
432D
330
1
100
AcDbSymbolTableRecord
100
AcDbBlockTableRecord
  2
*D41
340
0
  0
BLOCK_RECORD
  5
4338
330
1
100
AcDbSymbolTableRecord
100
AcDbBlockTableRecord
  2
*D42
340
0
  0
BLOCK_RECORD
  5
4343
330
1
100
AcDbSymbolTableRecord
100
AcDbBlockTableRecord
  2
*D43
340
0
  0
BLOCK_RECORD
  5
43CD
330
1
100
AcDbSymbolTableRecord
100
AcDbBlockTableRecord
  2
*D46
340
0
  0
BLOCK_RECORD
  5
43D9
330
1
100
AcDbSymbolTableRecord
100
AcDbBlockTableRecord
  2
*D47
340
0
  0
ENDTAB
  0
ENDSEC
  0
SECTION
  2
BLOCKS
  0
BLOCK
  5
20
330
1F
100
AcDbEntity
  8
0
100
AcDbBlockBegin
  2
*Model_Space
 70
     0
 10
0.0
 20
0.0
 30
0.0
  3
*Model_Space
  1

  0
ENDBLK
  5
21
330
1F
100
AcDbEntity
  8
0
100
AcDbBlockEnd
  0
BLOCK
  5
1C
330
1B
100
AcDbEntity
 67
     1
  8
0
100
AcDbBlockBegin
  2
*Paper_Space
 70
     0
 10
0.0
 20
0.0
 30
0.0
  3
*Paper_Space
  1

  0
ENDBLK
  5
1D
330
1B
100
AcDbEntity
 67
     1
  8
0
100
AcDbBlockEnd
  0
BLOCK
  5
A0
330
9B
100
AcDbEntity
  8
0
100
AcDbBlockBegin
  2
_Closed
 70
     0
 10
0.0
 20
0.0
 30
0.0
  3
_Closed
  1

  0
LINE
  5
9C
330
9B
100
AcDbEntity
  8
0
 62
     0
370
    -2
100
AcDbLine
 10
-1.0
 20
0.1666666666666666
 30
0.0
 11
0.0
 21
0.0
 31
0.0
  0
LINE
  5
9D
330
9B
100
AcDbEntity
  8
0
 62
     0
370
    -2
100
AcDbLine
 10
0.0
 20
0.0
 30
0.0
 11
-1.0
 21
-0.1666666666666666
 31
0.0
  0
LINE
  5
9E
330
9B
100
AcDbEntity
  8
0
 62
     0
370
    -2
100
AcDbLine
 10
-1.0
 20
0.1666666666666666
 30
0.0
 11
-1.0
 21
-0.1666666666666666
 31
0.0
  0
LINE
  5
9F
330
9B
100
AcDbEntity
  8
0
 62
     0
370
    -2
100
AcDbLine
 10
0.0
 20
0.0
 30
0.0
 11
-1.0
 21
0.0
 31
0.0
  0
ENDBLK
  5
A1
330
9B
100
AcDbEntity
  8
0
100
AcDbBlockEnd
  0
BLOCK
  5
155B
330
1510
100
AcDbEntity
  8
0
100
AcDbBlockBegin
  2
A$C10A573AC
 70
     0
 10
0.0
 20
0.0
 30
0.0
  3
A$C10A573AC
  1

  0
TEXT
  5
1511
330
1510
100
AcDbEntity
  8
文字
100
AcDbText
 10
0.9844302777919438
 20
5.224957122252135
 30
0.0
 40
3.0
  1
Materal : Steel.
 51
15.0
  7
OKANO
100
AcDbText
  0
TEXT
  5
1512
330
1510
100
AcDbEntity
  8
文字
100
AcDbText
 10
-0.1141909619694843
 20
0.7500001922403499
 30
0.0
 40
3.0
  1
Surface treatment : Electro galvanized.
 51
15.0
  7
OKANO
100
AcDbText
  0
TEXT
  5
1513
330
1510
100
AcDbEntity
  8
文字
100
AcDbText
 10
-0.4901926332574931
 20
9.159967445193728
 30
0.0
 40
3.0
  1
5 TORGUE SCREW  M5-6
 51
15.0
  7
OKANO
100
AcDbText
  0
TEXT
  5
1514
330
1510
100
AcDbEntity
  8
文字
100
AcDbText
 10
1.364713526390005
 20
78.88822913323082
 30
0.0
 40
3.0
  1
Special standard,
 51
15.0
  7
OKANO
100
AcDbText
  0
TEXT
  5
1515
330
1510
100
AcDbEntity
  8
文字
100
AcDbText
 10
92.88160823408942
 20
89.92753849837379
 30
0.0
 40
3.0
  1
Screw Type
 51
15.0
  7
OKANO
100
AcDbText
  0
LINE
  5
1516
330
1510
100
AcDbEntity
  8
太線
100
AcDbLine
 10
113.9464587597784
 20
81.93930390144641
 30
0.0
 11
112.4464587597784
 21
81.93930390144641
 31
0.0
  0
LINE
  5
1517
330
1510
100
AcDbEntity
  8
太線
100
AcDbLine
 10
112.4464587597784
 20
76.9393039014464
 30
0.0
 11
121.4644995438761
 21
76.9393039014464
 31
0.0
  0
TEXT
  5
1518
330
1510
100
AcDbEntity
  8
文字
100
AcDbText
 10
93.46068240437217
 20
77.96976862235396
 30
0.0
 40
2.0
  1
17-30
 51
15.0
  7
OKANO
100
AcDbText
  0
LINE
  5
1519
330
1510
100
AcDbEntity
  8
太線
100
AcDbLine
 10
111.9464587597784
 20
81.43930390144641
 30
0.0
 11
111.9464587597784
 21
77.4393039014464
 31
0.0
  0
LINE
  5
151A
330
1510
100
AcDbEntity
  8
太線
100
AcDbLine
 10
91.94645875977846
 20
81.43930390144641
 30
0.0
 11
91.94645875977846
 21
77.43930390144639
 31
0.0
  0
LINE
  5
151B
330
1510
100
AcDbEntity
  8
太線
100
AcDbLine
 10
101.9644995438761
 20
77.4393039014464
 30
0.0
 11
101.9644995438761
 21
81.43930390144641
 31
0.0
  0
LINE
  5
151C
330
1510
100
AcDbEntity
  8
太線
100
AcDbLine
 10
92.44645875977846
 20
76.9393039014464
 30
0.0
 11
101.4644995438761
 21
76.9393039014464
 31
0.0
  0
ARC
  5
151D
330
1510
100
AcDbEntity
  8
太線
100
AcDbCircle
 10
92.44645875977846
 20
77.43930390144639
 30
0.0
 40
0.5
100
AcDbArc
 50
180.0
 51
270.0
  0
ARC
  5
151E
330
1510
100
AcDbEntity
  8
太線
100
AcDbCircle
 10
101.4644995438761
 20
77.4393039014464
 30
0.0
 40
0.5
100
AcDbArc
 50
270.0
 51
0.0
  0
ARC
  5
151F
330
1510
100
AcDbEntity
  8
太線
100
AcDbCircle
 10
112.4464587597784
 20
77.4393039014464
 30
0.0
 40
0.5
100
AcDbArc
 50
180.0
 51
270.0
  0
LINE
  5
1520
330
1510
100
AcDbEntity
  8
想像線
100
AcDbLine
 10
93.94645875977847
 20
81.93930390144641
 30
0.0
 11
99.96449954387617
 21
81.93930390144641
 31
0.0
  0
LINE
  5
1521
330
1510
100
AcDbEntity
  8
極太線
100
AcDbLine
 10
96.38762957111168
 20
85.43930390144641
 30
0.0
 11
97.50528794844525
 21
85.43930390144641
 31
0.0
  0
CIRCLE
  5
1522
330
1510
100
AcDbEntity
  8
太線
100
AcDbCircle
 10
96.94645875977847
 20
85.43930390144641
 30
0.0
 40
0.5588291886667776
  0
LINE
  5
1523
330
1510
100
AcDbEntity
  8
太線
100
AcDbLine
 10
99.46449954387617
 20
86.93930390144641
 30
0.0
 11
94.44645875977846
 21
86.93930390144641
 31
0.0
  0
LINE
  5
1524
330
1510
100
AcDbEntity
  8
太線
100
AcDbLine
 10
93.94645875977847
 20
86.43930390144641
 30
0.0
 11
93.94645875977847
 21
81.93930390144641
 31
0.0
  0
ARC
  5
1525
330
1510
100
AcDbEntity
  8
太線
100
AcDbCircle
 10
92.44645875977846
 20
81.43930390144641
 30
0.0
 40
0.5
100
AcDbArc
 50
90.0
 51
180.0
  0
LINE
  5
1526
330
1510
100
AcDbEntity
  8
太線
100
AcDbLine
 10
93.94645875977847
 20
81.93930390144641
 30
0.0
 11
92.44645875977846
 21
81.93930390144641
 31
0.0
  0
ARC
  5
1527
330
1510
100
AcDbEntity
  8
太線
100
AcDbCircle
 10
94.44645875977846
 20
86.43930390144641
 30
0.0
 40
0.5
100
AcDbArc
 50
90.0
 51
180.0
  0
LINE
  5
1528
330
1510
100
AcDbEntity
  8
太線
100
AcDbLine
 10
99.96449954387617
 20
81.93930390144641
 30
0.0
 11
99.96449954387617
 21
86.43930390144641
 31
0.0
  0
LINE
  5
1529
330
1510
100
AcDbEntity
  8
太線
100
AcDbLine
 10
101.4644995438761
 20
81.93930390144641
 30
0.0
 11
99.96449954387617
 21
81.93930390144641
 31
0.0
  0
ARC
  5
152A
330
1510
100
AcDbEntity
  8
太線
100
AcDbCircle
 10
101.4644995438761
 20
81.43930390144641
 30
0.0
 40
0.5
100
AcDbArc
 50
0.0
 51
90.0
  0
ARC
  5
152B
330
1510
100
AcDbEntity
  8
太線
100
AcDbCircle
 10
99.46449954387617
 20
86.43930390144641
 30
0.0
 40
0.5
100
AcDbArc
 50
0.0
 51
90.0
  0
LINE
  5
152C
330
1510
100
AcDbEntity
  8
極太線
100
AcDbLine
 10
96.94645875977847
 20
85.99813309011318
 30
0.0
 11
96.94645875977847
 21
84.88047471277964
 31
0.0
  0
ARC
  5
152D
330
1510
100
AcDbEntity
  8
太線
100
AcDbCircle
 10
112.4464587597784
 20
81.43930390144641
 30
0.0
 40
0.5
100
AcDbArc
 50
90.0
 51
180.0
  0
TEXT
  5
152E
330
1510
100
AcDbEntity
  8
文字
100
AcDbText
 10
134.3819212586066
 20
78.16263579228063
 30
0.0
 40
2.0
  1
101
 51
15.0
  7
OKANO
100
AcDbText
  0
TEXT
  5
152F
330
1510
100
AcDbEntity
  8
文字
100
AcDbText
 10
113.3422276612066
 20
77.96976862235396
 30
0.0
 40
2.0
  1
38-83
 51
15.0
  7
OKANO
100
AcDbText
  0
LINE
  5
1530
330
1510
100
AcDbEntity
  8
太線
100
AcDbLine
 10
141.9825403279738
 20
77.4393039014464
 30
0.0
 11
141.9825403279738
 21
81.43930390144641
 31
0.0
  0
LINE
  5
1531
330
1510
100
AcDbEntity
  8
太線
100
AcDbLine
 10
131.9644995438761
 20
81.43930390144641
 30
0.0
 11
131.9644995438761
 21
77.4393039014464
 31
0.0
  0
LINE
  5
1532
330
1510
100
AcDbEntity
  8
太線
100
AcDbLine
 10
121.9644995438761
 20
77.4393039014464
 30
0.0
 11
121.9644995438761
 21
81.43930390144641
 31
0.0
  0
ARC
  5
1533
330
1510
100
AcDbEntity
  8
太線
100
AcDbCircle
 10
121.4644995438761
 20
77.4393039014464
 30
0.0
 40
0.5
100
AcDbArc
 50
270.0
 51
0.0
  0
LINE
  5
1534
330
1510
100
AcDbEntity
  8
太線
100
AcDbLine
 10
132.4644995438761
 20
76.9393039014464
 30
0.0
 11
141.4825403279738
 21
76.9393039014464
 31
0.0
  0
ARC
  5
1535
330
1510
100
AcDbEntity
  8
太線
100
AcDbCircle
 10
132.4644995438761
 20
77.4393039014464
 30
0.0
 40
0.5
100
AcDbArc
 50
180.0
 51
270.0
  0
ARC
  5
1536
330
1510
100
AcDbEntity
  8
太線
100
AcDbCircle
 10
141.4825403279738
 20
77.4393039014464
 30
0.0
 40
0.5
100
AcDbArc
 50
270.0
 51
0.0
  0
ARC
  5
1537
330
1510
100
AcDbEntity
  8
太線
100
AcDbCircle
 10
121.4644995438761
 20
81.43930390144641
 30
0.0
 40
0.5
100
AcDbArc
 50
0.0
 51
90.0
  0
LINE
  5
1538
330
1510
100
AcDbEntity
  8
太線
100
AcDbLine
 10
119.9644995438761
 20
81.93930390144641
 30
0.0
 11
119.9644995438761
 21
86.43930390144641
 31
0.0
  0
LINE
  5
1539
330
1510
100
AcDbEntity
  8
太線
100
AcDbLine
 10
113.9464587597784
 20
86.43930390144641
 30
0.0
 11
113.9464587597784
 21
81.93930390144641
 31
0.0
  0
LINE
  5
153A
330
1510
100
AcDbEntity
  8
想像線
100
AcDbLine
 10
113.9464587597784
 20
81.93930390144641
 30
0.0
 11
119.9644995438761
 21
81.93930390144641
 31
0.0
  0
LINE
  5
153B
330
1510
100
AcDbEntity
  8
太線
100
AcDbLine
 10
121.4644995438761
 20
81.93930390144641
 30
0.0
 11
119.9644995438761
 21
81.93930390144641
 31
0.0
  0
LINE
  5
153C
330
1510
100
AcDbEntity
  8
太線
100
AcDbLine
 10
119.4644995438761
 20
86.93930390144641
 30
0.0
 11
114.4464587597784
 21
86.93930390144641
 31
0.0
  0
ARC
  5
153D
330
1510
100
AcDbEntity
  8
太線
100
AcDbCircle
 10
114.4464587597784
 20
86.43930390144641
 30
0.0
 40
0.5
100
AcDbArc
 50
90.0
 51
180.0
  0
CIRCLE
  5
153E
330
1510
100
AcDbEntity
  8
太線
100
AcDbCircle
 10
115.4464587597784
 20
85.43930390144641
 30
0.0
 40
0.5588291886667776
  0
LINE
  5
153F
330
1510
100
AcDbEntity
  8
極太線
100
AcDbLine
 10
115.4464587597784
 20
85.99813309011318
 30
0.0
 11
115.4464587597784
 21
84.88047471277964
 31
0.0
  0
LINE
  5
1540
330
1510
100
AcDbEntity
  8
極太線
100
AcDbLine
 10
114.8876295711116
 20
85.43930390144641
 30
0.0
 11
116.0052879484452
 21
85.43930390144641
 31
0.0
  0
ARC
  5
1541
330
1510
100
AcDbEntity
  8
太線
100
AcDbCircle
 10
119.4644995438761
 20
86.43930390144641
 30
0.0
 40
0.5
100
AcDbArc
 50
0.0
 51
90.0
  0
LINE
  5
1542
330
1510
100
AcDbEntity
  8
極太線
100
AcDbLine
 10
117.9056703552094
 20
85.43930390144641
 30
0.0
 11
119.0233287325429
 21
85.43930390144641
 31
0.0
  0
LINE
  5
1543
330
1510
100
AcDbEntity
  8
極太線
100
AcDbLine
 10
118.4644995438761
 20
85.99813309011318
 30
0.0
 11
118.4644995438761
 21
84.88047471277964
 31
0.0
  0
CIRCLE
  5
1544
330
1510
100
AcDbEntity
  8
太線
100
AcDbCircle
 10
118.4644995438761
 20
85.43930390144641
 30
0.0
 40
0.5588291886667776
  0
LINE
  5
1545
330
1510
100
AcDbEntity
  8
想像線
100
AcDbLine
 10
133.9644995438761
 20
81.93930390144641
 30
0.0
 11
139.9825403279738
 21
81.93930390144641
 31
0.0
  0
LINE
  5
1546
330
1510
100
AcDbEntity
  8
極太線
100
AcDbLine
 10
137.9237111393071
 20
85.43930390144641
 30
0.0
 11
139.0413695166406
 21
85.43930390144641
 31
0.0
  0
CIRCLE
  5
1547
330
1510
100
AcDbEntity
  8
太線
100
AcDbCircle
 10
138.4825403279738
 20
85.43930390144641
 30
0.0
 40
0.5588291886667776
  0
CIRCLE
  5
1548
330
1510
100
AcDbEntity
  8
太線
100
AcDbCircle
 10
138.4825403279738
 20
83.26342923362075
 30
0.0
 40
0.5588291886667776
  0
LINE
  5
1549
330
1510
100
AcDbEntity
  8
極太線
100
AcDbLine
 10
137.9237111393071
 20
83.26342923362075
 30
0.0
 11
139.0413695166406
 21
83.26342923362075
 31
0.0
  0
LINE
  5
154A
330
1510
100
AcDbEntity
  8
太線
100
AcDbLine
 10
139.4825403279738
 20
86.93930390144641
 30
0.0
 11
134.4644995438761
 21
86.93930390144641
 31
0.0
  0
LINE
  5
154B
330
1510
100
AcDbEntity
  8
太線
100
AcDbLine
 10
133.9644995438761
 20
86.43930390144641
 30
0.0
 11
133.9644995438761
 21
81.93930390144641
 31
0.0
  0
ARC
  5
154C
330
1510
100
AcDbEntity
  8
太線
100
AcDbCircle
 10
132.4644995438761
 20
81.43930390144641
 30
0.0
 40
0.5
100
AcDbArc
 50
90.0
 51
180.0
  0
LINE
  5
154D
330
1510
100
AcDbEntity
  8
太線
100
AcDbLine
 10
133.9644995438761
 20
81.93930390144641
 30
0.0
 11
132.4644995438761
 21
81.93930390144641
 31
0.0
  0
LINE
  5
154E
330
1510
100
AcDbEntity
  8
極太線
100
AcDbLine
 10
134.9056703552093
 20
83.26342923362075
 30
0.0
 11
136.0233287325429
 21
83.26342923362075
 31
0.0
  0
LINE
  5
154F
330
1510
100
AcDbEntity
  8
極太線
100
AcDbLine
 10
135.4644995438761
 20
83.82225842228752
 30
0.0
 11
135.4644995438761
 21
82.70460004495395
 31
0.0
  0
CIRCLE
  5
1550
330
1510
100
AcDbEntity
  8
太線
100
AcDbCircle
 10
135.4644995438761
 20
83.26342923362075
 30
0.0
 40
0.5588291886667776
  0
ARC
  5
1551
330
1510
100
AcDbEntity
  8
太線
100
AcDbCircle
 10
134.4644995438761
 20
86.43930390144641
 30
0.0
 40
0.5
100
AcDbArc
 50
90.0
 51
180.0
  0
CIRCLE
  5
1552
330
1510
100
AcDbEntity
  8
太線
100
AcDbCircle
 10
135.4644995438761
 20
85.43930390144641
 30
0.0
 40
0.5588291886667776
  0
LINE
  5
1553
330
1510
100
AcDbEntity
  8
極太線
100
AcDbLine
 10
135.4644995438761
 20
85.99813309011318
 30
0.0
 11
135.4644995438761
 21
84.88047471277964
 31
0.0
  0
LINE
  5
1554
330
1510
100
AcDbEntity
  8
極太線
100
AcDbLine
 10
134.9056703552093
 20
85.43930390144641
 30
0.0
 11
136.0233287325429
 21
85.43930390144641
 31
0.0
  0
LINE
  5
1555
330
1510
100
AcDbEntity
  8
太線
100
AcDbLine
 10
139.9825403279738
 20
81.93930390144641
 30
0.0
 11
139.9825403279738
 21
86.43930390144641
 31
0.0
  0
ARC
  5
1556
330
1510
100
AcDbEntity
  8
太線
100
AcDbCircle
 10
141.4825403279738
 20
81.43930390144641
 30
0.0
 40
0.5
100
AcDbArc
 50
0.0
 51
90.0
  0
LINE
  5
1557
330
1510
100
AcDbEntity
  8
極太線
100
AcDbLine
 10
138.4825403279738
 20
83.82225842228752
 30
0.0
 11
138.4825403279738
 21
82.70460004495395
 31
0.0
  0
LINE
  5
1558
330
1510
100
AcDbEntity
  8
太線
100
AcDbLine
 10
141.4825403279738
 20
81.93930390144641
 30
0.0
 11
139.9825403279738
 21
81.93930390144641
 31
0.0
  0
ARC
  5
1559
330
1510
100
AcDbEntity
  8
太線
100
AcDbCircle
 10
139.4825403279738
 20
86.43930390144641
 30
0.0
 40
0.5
100
AcDbArc
 50
0.0
 51
90.0
  0
LINE
  5
155A
330
1510
100
AcDbEntity
  8
極太線
100
AcDbLine
 10
138.4825403279738
 20
85.99813309011318
 30
0.0
 11
138.4825403279738
 21
84.88047471277964
 31
0.0
  0
ENDBLK
  5
155C
330
1510
100
AcDbEntity
  8
0
100
AcDbBlockEnd
  0
BLOCK
  5
2EA0
330
2E96
100
AcDbEntity
  8
0
100
AcDbBlockBegin
  2
*D2
 70
     1
 10
0.0
 20
0.0
 30
0.0
  3
*D2
  1

  0
LINE
  5
37CD
330
2E96
100
AcDbEntity
  8
寸法線
 62
     0
370
    -2
100
AcDbLine
 10
105.2663459017367
 20
108.9623356026448
 30
0.0
 11
105.2663459017367
 21
91.57284145329777
 31
0.0
  0
LINE
  5
37CE
330
2E96
100
AcDbEntity
  8
寸法線
 62
     0
370
    -2
100
AcDbLine
 10
70.26634590173671
 20
108.9623356026448
 30
0.0
 11
70.26634590173671
 21
91.57284145329777
 31
0.0
  0
LINE
  5
37CF
330
2E96
100
AcDbEntity
  8
寸法線
 62
     0
370
    -2
100
AcDbLine
 10
102.2663459017367
 20
94.57284145329778
 30
0.0
 11
73.26634590173672
 21
94.57284145329778
 31
0.0
  0
INSERT
  5
37D0
330
2E96
100
AcDbEntity
  8
寸法線
 62
     0
370
    -2
100
AcDbBlockReference
  2
_Closed
 10
105.2663459017367
 20
94.57284145329778
 30
0.0
 41
3.0
 42
3.0
 43
3.0
  0
INSERT
  5
37D1
330
2E96
100
AcDbEntity
  8
寸法線
 62
     0
370
    -2
100
AcDbBlockReference
  2
_Closed
 10
70.26634590173671
 20
94.57284145329778
 30
0.0
 41
3.0
 42
3.0
 43
3.0
 50
180.0
  0
MTEXT
  5
37D2
330
2E96
100
AcDbEntity
  8
寸法線
 62
     0
100
AcDbMText
 10
87.76634590173671
 20
98.07284145329777
 30
0.0
 40
5.0
 41
0.0
 71
     5
 72
     1
  1
35
  7
OKANO
 73
     1
 44
1.0
  0
POINT
  5
37D3
330
2E96
100
AcDbEntity
  8
Defpoints
 62
     0
100
AcDbPoint
 10
105.2663459017367
 20
110.9623356026448
 30
0.0
  0
POINT
  5
37D4
330
2E96
100
AcDbEntity
  8
Defpoints
 62
     0
100
AcDbPoint
 10
70.26634590173671
 20
110.9623356026448
 30
0.0
  0
POINT
  5
37D5
330
2E96
100
AcDbEntity
  8
Defpoints
 62
     0
100
AcDbPoint
 10
70.26634590173671
 20
94.57284145329778
 30
0.0
  0
ENDBLK
  5
2EA1
330
2E96
100
AcDbEntity
  8
0
100
AcDbBlockEnd
  0
BLOCK
  5
2EAD
330
2EA3
100
AcDbEntity
  8
0
100
AcDbBlockBegin
  2
*D3
 70
     1
 10
0.0
 20
0.0
 30
0.0
  3
*D3
  1

  0
LINE
  5
3793
330
2EA3
100
AcDbEntity
  8
寸法線
 62
     0
370
    -2
100
AcDbLine
 10
70.26634590173671
 20
108.9623356026448
 30
0.0
 11
70.26634590173671
 21
91.57284145329777
 31
0.0
  0
LINE
  5
3794
330
2EA3
100
AcDbEntity
  8
寸法線
 62
     0
370
    -2
100
AcDbLine
 10
10.26634590173671
 20
138.9623356026448
 30
0.0
 11
10.26634590173671
 21
91.57284145329777
 31
0.0
  0
LINE
  5
3795
330
2EA3
100
AcDbEntity
  8
寸法線
 62
     0
370
    -2
100
AcDbLine
 10
67.26634590173671
 20
94.57284145329778
 30
0.0
 11
13.26634590173671
 21
94.57284145329778
 31
0.0
  0
INSERT
  5
3796
330
2EA3
100
AcDbEntity
  8
寸法線
 62
     0
370
    -2
100
AcDbBlockReference
  2
_Closed
 10
70.26634590173671
 20
94.57284145329778
 30
0.0
 41
3.0
 42
3.0
 43
3.0
  0
INSERT
  5
3797
330
2EA3
100
AcDbEntity
  8
寸法線
 62
     0
370
    -2
100
AcDbBlockReference
  2
_Closed
 10
10.26634590173671
 20
94.57284145329778
 30
0.0
 41
3.0
 42
3.0
 43
3.0
 50
180.0
  0
MTEXT
  5
3798
330
2EA3
100
AcDbEntity
  8
寸法線
 62
     0
100
AcDbMText
 10
40.26634590173671
 20
98.07284145329777
 30
0.0
 40
5.0
 41
0.0
 71
     5
 72
     1
  1
57.3
  7
OKANO
 73
     1
 44
1.0
  0
POINT
  5
3799
330
2EA3
100
AcDbEntity
  8
Defpoints
 62
     0
100
AcDbPoint
 10
70.26634590173671
 20
110.9623356026448
 30
0.0
  0
POINT
  5
379A
330
2EA3
100
AcDbEntity
  8
Defpoints
 62
     0
100
AcDbPoint
 10
10.26634590173671
 20
140.9623356026448
 30
0.0
  0
POINT
  5
379B
330
2EA3
100
AcDbEntity
  8
Defpoints
 62
     0
100
AcDbPoint
 10
10.26634590173671
 20
94.57284145329778
 30
0.0
  0
ENDBLK
  5
2EAE
330
2EA3
100
AcDbEntity
  8
0
100
AcDbBlockEnd
  0
BLOCK
  5
2EBA
330
2EB0
100
AcDbEntity
  8
0
100
AcDbBlockBegin
  2
*D4
 70
     1
 10
0.0
 20
0.0
 30
0.0
  3
*D4
  1

  0
LINE
  5
37B0
330
2EB0
100
AcDbEntity
  8
寸法線
 62
     0
370
    -2
100
AcDbLine
 10
70.26634590173671
 20
207.9623356026448
 30
0.0
 11
70.26634590173671
 21
217.0411946669846
 31
0.0
  0
LINE
  5
37B1
330
2EB0
100
AcDbEntity
  8
寸法線
 62
     0
370
    -2
100
AcDbLine
 10
95.26634590173671
 20
172.9623356026448
 30
0.0
 11
95.26634590173671
 21
217.0411946669846
 31
0.0
  0
LINE
  5
37B2
330
2EB0
100
AcDbEntity
  8
寸法線
 62
     0
370
    -2
100
AcDbLine
 10
73.26634590173672
 20
214.0411946669846
 30
0.0
 11
92.26634590173672
 21
214.0411946669846
 31
0.0
  0
INSERT
  5
37B3
330
2EB0
100
AcDbEntity
  8
寸法線
 62
     0
370
    -2
100
AcDbBlockReference
  2
_Closed
 10
70.26634590173671
 20
214.0411946669846
 30
0.0
 41
3.0
 42
3.0
 43
3.0
 50
180.0
  0
INSERT
  5
37B4
330
2EB0
100
AcDbEntity
  8
寸法線
 62
     0
370
    -2
100
AcDbBlockReference
  2
_Closed
 10
95.26634590173671
 20
214.0411946669846
 30
0.0
 41
3.0
 42
3.0
 43
3.0
  0
MTEXT
  5
37B5
330
2EB0
100
AcDbEntity
  8
寸法線
 62
     0
100
AcDbMText
 10
82.76634590173671
 20
217.5416867929689
 30
0.0
 40
5.0
 41
0.0
 71
     5
 72
     1
  1
25
  7
OKANO
 73
     1
 44
1.0
  0
POINT
  5
37B6
330
2EB0
100
AcDbEntity
  8
Defpoints
 62
     0
100
AcDbPoint
 10
70.26634590173671
 20
205.9623356026448
 30
0.0
  0
POINT
  5
37B7
330
2EB0
100
AcDbEntity
  8
Defpoints
 62
     0
100
AcDbPoint
 10
95.26634590173671
 20
170.9623356026448
 30
0.0
  0
POINT
  5
37B8
330
2EB0
100
AcDbEntity
  8
Defpoints
 62
     0
100
AcDbPoint
 10
95.26634590173671
 20
214.0411946669846
 30
0.0
  0
ENDBLK
  5
2EBB
330
2EB0
100
AcDbEntity
  8
0
100
AcDbBlockEnd
  0
BLOCK
  5
2EC7
330
2EBD
100
AcDbEntity
  8
0
100
AcDbBlockBegin
  2
*D5
 70
     1
 10
0.0
 20
0.0
 30
0.0
  3
*D5
  1

  0
LINE
  5
37A7
330
2EBD
100
AcDbEntity
  8
寸法線
 62
     0
370
    -2
100
AcDbLine
 10
95.26634590173671
 20
172.9623356026448
 30
0.0
 11
95.26634590173671
 21
217.0411946669846
 31
0.0
  0
LINE
  5
37A8
330
2EBD
100
AcDbEntity
  8
寸法線
 62
     0
370
    -2
100
AcDbLine
 10
105.2663459017367
 20
172.9623356026448
 30
0.0
 11
105.2663459017367
 21
217.0411946669846
 31
0.0
  0
LINE
  5
37A9
330
2EBD
100
AcDbEntity
  8
寸法線
 62
     0
370
    -2
100
AcDbLine
 10
98.26634590173672
 20
214.0411946669846
 30
0.0
 11
102.2663459017367
 21
214.0411946669846
 31
0.0
  0
INSERT
  5
37AA
330
2EBD
100
AcDbEntity
  8
寸法線
 62
     0
370
    -2
100
AcDbBlockReference
  2
_Closed
 10
95.26634590173671
 20
214.0411946669846
 30
0.0
 41
3.0
 42
3.0
 43
3.0
 50
180.0
  0
INSERT
  5
37AB
330
2EBD
100
AcDbEntity
  8
寸法線
 62
     0
370
    -2
100
AcDbBlockReference
  2
_Closed
 10
105.2663459017367
 20
214.0411946669846
 30
0.0
 41
3.0
 42
3.0
 43
3.0
  0
MTEXT
  5
37AC
330
2EBD
100
AcDbEntity
  8
寸法線
 62
     0
100
AcDbMText
 10
100.2663459017367
 20
217.5411946669846
 30
0.0
 40
5.0
 41
0.0
 71
     5
 72
     1
  1
10
  7
OKANO
 73
     1
 44
1.0
  0
POINT
  5
37AD
330
2EBD
100
AcDbEntity
  8
Defpoints
 62
     0
100
AcDbPoint
 10
95.26634590173671
 20
170.9623356026448
 30
0.0
  0
POINT
  5
37AE
330
2EBD
100
AcDbEntity
  8
Defpoints
 62
     0
100
AcDbPoint
 10
105.2663459017367
 20
170.9623356026448
 30
0.0
  0
POINT
  5
37AF
330
2EBD
100
AcDbEntity
  8
Defpoints
 62
     0
100
AcDbPoint
 10
105.2663459017367
 20
214.0411946669846
 30
0.0
  0
ENDBLK
  5
2EC8
330
2EBD
100
AcDbEntity
  8
0
100
AcDbBlockEnd
  0
BLOCK
  5
2EE3
330
2ED9
100
AcDbEntity
  8
0
100
AcDbBlockBegin
  2
*D6
 70
     1
 10
0.0
 20
0.0
 30
0.0
  3
*D6
  1

  0
LINE
  5
37C4
330
2ED9
100
AcDbEntity
  8
寸法線
 62
     0
370
    -2
100
AcDbLine
 10
106.9387422622251
 20
165.9623356026448
 30
0.0
 11
125.9388088226237
 21
165.9623356026448
 31
0.0
  0
LINE
  5
37C5
330
2ED9
100
AcDbEntity
  8
寸法線
 62
     0
370
    -2
100
AcDbLine
 10
107.3177121949704
 20
115.9623356026448
 30
0.0
 11
125.9388088226237
 21
115.9623356026448
 31
0.0
  0
LINE
  5
37C6
330
2ED9
100
AcDbEntity
  8
寸法線
 62
     0
370
    -2
100
AcDbLine
 10
122.9388088226237
 20
162.9623356026448
 30
0.0
 11
122.9388088226237
 21
118.9623356026448
 31
0.0
  0
INSERT
  5
37C7
330
2ED9
100
AcDbEntity
  8
寸法線
 62
     0
370
    -2
100
AcDbBlockReference
  2
_Closed
 10
122.9388088226237
 20
165.9623356026448
 30
0.0
 41
3.0
 42
3.0
 43
3.0
 50
90.0
  0
INSERT
  5
37C8
330
2ED9
100
AcDbEntity
  8
寸法線
 62
     0
370
    -2
100
AcDbBlockReference
  2
_Closed
 10
122.9388088226237
 20
115.9623356026448
 30
0.0
 41
3.0
 42
3.0
 43
3.0
 50
270.0
  0
MTEXT
  5
37C9
330
2ED9
100
AcDbEntity
  8
寸法線
 62
     0
100
AcDbMText
 10
119.4388088226236
 20
140.9623356026448
 30
0.0
 40
5.0
 41
0.0
 71
     5
 72
     1
  1
49.3
  7
OKANO
 11
0.0000000000000001
 21
1.0
 31
0.0
 73
     1
 44
1.0
  0
POINT
  5
37CA
330
2ED9
100
AcDbEntity
  8
Defpoints
 62
     0
100
AcDbPoint
 10
104.9387422622251
 20
165.9623356026448
 30
0.0
  0
POINT
  5
37CB
330
2ED9
100
AcDbEntity
  8
Defpoints
 62
     0
100
AcDbPoint
 10
105.3177121949704
 20
115.9623356026448
 30
0.0
  0
POINT
  5
37CC
330
2ED9
100
AcDbEntity
  8
Defpoints
 62
     0
100
AcDbPoint
 10
122.9388088226237
 20
115.9623356026448
 30
0.0
  0
ENDBLK
  5
2EE4
330
2ED9
100
AcDbEntity
  8
0
100
AcDbBlockEnd
  0
BLOCK
  5
2EF2
330
2EE6
100
AcDbEntity
  8
0
100
AcDbBlockBegin
  2
*D7
 70
     1
 10
0.0
 20
0.0
 30
0.0
  3
*D7
  1

  0
LINE
  5
37B9
330
2EE6
100
AcDbEntity
  8
寸法線
 62
     0
370
    -2
100
AcDbLine
 10
107.3177121949704
 20
115.9623356026448
 30
0.0
 11
125.9388088226237
 21
115.9623356026448
 31
0.0
  0
LINE
  5
37BA
330
2EE6
100
AcDbEntity
  8
寸法線
 62
     0
370
    -2
100
AcDbLine
 10
107.2663459017367
 20
110.9623356026448
 30
0.0
 11
125.9388088226237
 21
110.9623356026448
 31
0.0
  0
LINE
  5
37BB
330
2EE6
100
AcDbEntity
  8
寸法線
 62
     0
370
    -2
100
AcDbLine
 10
122.9388088226237
 20
118.9623356026448
 30
0.0
 11
122.9388088226237
 21
121.9623356026448
 31
0.0
  0
LINE
  5
37BC
330
2EE6
100
AcDbEntity
  8
寸法線
 62
     0
370
    -2
100
AcDbLine
 10
122.9388088226237
 20
107.9623356026448
 30
0.0
 11
122.9388088226237
 21
104.9623356026448
 31
0.0
  0
LINE
  5
37BD
330
2EE6
100
AcDbEntity
  8
寸法線
 62
     0
370
    -2
100
AcDbLine
 10
122.9388088226237
 20
115.9623356026448
 30
0.0
 11
122.9388088226237
 21
110.9623356026448
 31
0.0
  0
INSERT
  5
37BE
330
2EE6
100
AcDbEntity
  8
寸法線
 62
     0
370
    -2
100
AcDbBlockReference
  2
_Closed
 10
122.9388088226237
 20
115.9623356026448
 30
0.0
 41
3.0
 42
3.0
 43
3.0
 50
270.0
  0
INSERT
  5
37BF
330
2EE6
100
AcDbEntity
  8
寸法線
 62
     0
370
    -2
100
AcDbBlockReference
  2
_Closed
 10
122.9388088226237
 20
110.9623356026448
 30
0.0
 41
3.0
 42
3.0
 43
3.0
 50
90.0
  0
MTEXT
  5
37C0
330
2EE6
100
AcDbEntity
  8
寸法線
 62
     0
100
AcDbMText
 10
119.4388088226236
 20
113.4623356026448
 30
0.0
 40
5.0
 41
0.0
 71
     5
 72
     1
  1
4
  7
OKANO
 11
0.0000000000000001
 21
1.0
 31
0.0
 73
     1
 44
1.0
  0
POINT
  5
37C1
330
2EE6
100
AcDbEntity
  8
Defpoints
 62
     0
100
AcDbPoint
 10
105.3177121949704
 20
115.9623356026448
 30
0.0
  0
POINT
  5
37C2
330
2EE6
100
AcDbEntity
  8
Defpoints
 62
     0
100
AcDbPoint
 10
105.2663459017367
 20
110.9623356026448
 30
0.0
  0
POINT
  5
37C3
330
2EE6
100
AcDbEntity
  8
Defpoints
 62
     0
100
AcDbPoint
 10
122.9388088226237
 20
110.9623356026448
 30
0.0
  0
ENDBLK
  5
2EF3
330
2EE6
100
AcDbEntity
  8
0
100
AcDbBlockEnd
  0
BLOCK
  5
2F2F
330
2F26
100
AcDbEntity
  8
0
100
AcDbBlockBegin
  2
*D8
 70
     1
 10
0.0
 20
0.0
 30
0.0
  3
*D8
  1

  0
LINE
  5
378B
330
2F26
100
AcDbEntity
  8
寸法線
 62
     0
370
    -2
100
AcDbLine
 10
-24.42957468704438
 20
176.8474970640969
 30
0.0
 11
28.89805058392341
 21
147.2680363223891
 31
0.0
  0
LINE
  5
378C
330
2F26
100
AcDbEntity
  8
寸法線
 62
     0
370
    -2
100
AcDbLine
 10
51.63464121954995
 20
134.6566348829004
 30
0.0
 11
54.25809398519917
 21
133.201473178344
 31
0.0
  0
MTEXT
  5
378D
330
2F26
100
AcDbEntity
  8
寸法線
 62
     0
100
AcDbMText
 10
-17.07296500463901
 20
176.7698969220559
 30
0.0
 40
5.0
 41
0.0
 71
     5
 72
     1
  1
\U+220520
  7
OKANO
 11
0.8744842552164067
 21
-0.4850539015187966
 31
0.0
 73
     1
 44
1.0
  0
LINE
  5
378E
330
2F26
100
AcDbEntity
  8
寸法線
 62
     0
370
    -2
100
AcDbLine
 10
49.01118845390073
 20
136.1117965874568
 30
0.0
 11
31.52150334957264
 21
145.8128746178327
 31
0.0
  0
INSERT
  5
378F
330
2F26
100
AcDbEntity
  8
寸法線
 62
     0
370
    -2
100
AcDbBlockReference
  2
_Closed
 10
49.01118845390073
 20
136.1117965874568
 30
0.0
 41
3.0
 42
3.0
 43
3.0
 50
150.9839960503935
  0
INSERT
  5
3790
330
2F26
100
AcDbEntity
  8
寸法線
 62
     0
370
    -2
100
AcDbBlockReference
  2
_Closed
 10
31.52150334957264
 20
145.8128746178327
 30
0.0
 41
3.0
 42
3.0
 43
3.0
 50
330.9839960503935
  0
POINT
  5
3791
330
2F26
100
AcDbEntity
  8
Defpoints
 62
     0
100
AcDbPoint
 10
31.52150334957264
 20
145.8128746178327
 30
0.0
  0
POINT
  5
3792
330
2F26
100
AcDbEntity
  8
Defpoints
 62
     0
100
AcDbPoint
 10
49.01118845390073
 20
136.1117965874568
 30
0.0
  0
ENDBLK
  5
2F30
330
2F26
100
AcDbEntity
  8
0
100
AcDbBlockEnd
  0
BLOCK
  5
2F3B
330
2F32
100
AcDbEntity
  8
0
100
AcDbBlockBegin
  2
*D9
 70
     1
 10
0.0
 20
0.0
 30
0.0
  3
*D9
  1

  0
LINE
  5
3783
330
2F32
100
AcDbEntity
  8
寸法線
 62
     0
370
    -2
100
AcDbLine
 10
-21.16783877762981
 20
123.4383594782474
 30
0.0
 11
31.61156508829735
 21
138.4935769932782
 31
0.0
  0
LINE
  5
3784
330
2F32
100
AcDbEntity
  8
寸法線
 62
     0
370
    -2
100
AcDbLine
 10
48.9211267151761
 20
143.4310942120114
 30
0.0
 11
51.80605365298922
 21
144.254013748467
 31
0.0
  0
MTEXT
  5
3785
330
2F32
100
AcDbEntity
  8
寸法線
 62
     0
100
AcDbMText
 10
-16.37563050550109
 20
128.4454457924683
 30
0.0
 40
5.0
 41
0.0
 71
     5
 72
     1
  1
\U+220512
  7
OKANO
 11
0.9616423126043745
 21
0.2743065121518449
 31
0.0
 73
     1
 44
1.0
  0
LINE
  5
3786
330
2F32
100
AcDbEntity
  8
寸法線
 62
     0
370
    -2
100
AcDbLine
 10
46.03619977736298
 20
142.6081746755559
 30
0.0
 11
34.49649202611047
 21
139.3164965297337
 31
0.0
  0
INSERT
  5
3787
330
2F32
100
AcDbEntity
  8
寸法線
 62
     0
370
    -2
100
AcDbBlockReference
  2
_Closed
 10
46.03619977736298
 20
142.6081746755559
 30
0.0
 41
3.0
 42
3.0
 43
3.0
 50
195.9206910873435
  0
INSERT
  5
3788
330
2F32
100
AcDbEntity
  8
寸法線
 62
     0
370
    -2
100
AcDbBlockReference
  2
_Closed
 10
34.49649202611047
 20
139.3164965297337
 30
0.0
 41
3.0
 42
3.0
 43
3.0
 50
15.92069108734356
  0
POINT
  5
3789
330
2F32
100
AcDbEntity
  8
Defpoints
 62
     0
100
AcDbPoint
 10
34.49649202611047
 20
139.3164965297337
 30
0.0
  0
POINT
  5
378A
330
2F32
100
AcDbEntity
  8
Defpoints
 62
     0
100
AcDbPoint
 10
46.03619977736298
 20
142.6081746755559
 30
0.0
  0
ENDBLK
  5
2F3C
330
2F32
100
AcDbEntity
  8
0
100
AcDbBlockEnd
  0
BLOCK
  5
2F59
330
2F4D
100
AcDbEntity
  8
0
100
AcDbBlockBegin
  2
*D10
 70
     1
 10
0.0
 20
0.0
 30
0.0
  3
*D10
  1

  0
LINE
  5
379C
330
2F4D
100
AcDbEntity
  8
寸法線
 62
     0
370
    -2
100
AcDbLine
 10
37.76634590173671
 20
197.9623356026448
 30
0.0
 11
37.76634590173671
 21
201.2514557856363
 31
0.0
  0
LINE
  5
379D
330
2F4D
100
AcDbEntity
  8
寸法線
 62
     0
370
    -2
100
AcDbLine
 10
42.76634590173671
 20
197.9623356026448
 30
0.0
 11
42.76634590173671
 21
201.2514557856363
 31
0.0
  0
LINE
  5
379E
330
2F4D
100
AcDbEntity
  8
寸法線
 62
     0
370
    -2
100
AcDbLine
 10
34.76634590173671
 20
198.2514557856363
 30
0.0
 11
31.76634590173671
 21
198.2514557856363
 31
0.0
  0
LINE
  5
379F
330
2F4D
100
AcDbEntity
  8
寸法線
 62
     0
370
    -2
100
AcDbLine
 10
45.76634590173671
 20
198.2514557856363
 30
0.0
 11
48.76634590173671
 21
198.2514557856363
 31
0.0
  0
LINE
  5
37A0
330
2F4D
100
AcDbEntity
  8
寸法線
 62
     0
370
    -2
100
AcDbLine
 10
37.76634590173671
 20
198.2514557856363
 30
0.0
 11
42.76634590173671
 21
198.2514557856363
 31
0.0
  0
INSERT
  5
37A1
330
2F4D
100
AcDbEntity
  8
寸法線
 62
     0
370
    -2
100
AcDbBlockReference
  2
_Closed
 10
37.76634590173671
 20
198.2514557856363
 30
0.0
 41
3.0
 42
3.0
 43
3.0
  0
INSERT
  5
37A2
330
2F4D
100
AcDbEntity
  8
寸法線
 62
     0
370
    -2
100
AcDbBlockReference
  2
_Closed
 10
42.76634590173671
 20
198.2514557856363
 30
0.0
 41
3.0
 42
3.0
 43
3.0
 50
180.0
  0
MTEXT
  5
37A3
330
2F4D
100
AcDbEntity
  8
寸法線
 62
     0
100
AcDbMText
 10
40.26634590173671
 20
201.7514557856364
 30
0.0
 40
5.0
 41
0.0
 71
     5
 72
     1
  1
4
  7
OKANO
 73
     1
 44
1.0
  0
POINT
  5
37A4
330
2F4D
100
AcDbEntity
  8
Defpoints
 62
     0
100
AcDbPoint
 10
37.76634590173671
 20
195.9623356026448
 30
0.0
  0
POINT
  5
37A5
330
2F4D
100
AcDbEntity
  8
Defpoints
 62
     0
100
AcDbPoint
 10
42.76634590173671
 20
195.9623356026448
 30
0.0
  0
POINT
  5
37A6
330
2F4D
100
AcDbEntity
  8
Defpoints
 62
     0
100
AcDbPoint
 10
42.76634590173671
 20
198.2514557856363
 30
0.0
  0
ENDBLK
  5
2F5A
330
2F4D
100
AcDbEntity
  8
0
100
AcDbBlockEnd
  0
BLOCK
  5
3426
330
341C
100
AcDbEntity
  8
0
100
AcDbBlockBegin
  2
*D11
 70
     1
 10
0.0
 20
0.0
 30
0.0
  3
*D11
  1

  0
LINE
  5
419D
330
341C
100
AcDbEntity
  8
想像線
 62
     0
370
    -2
100
AcDbLine
 10
695.4145982997202
 20
190.9176125572287
 30
0.0
 11
695.4145982997202
 21
261.4901047984476
 31
0.0
  0
LINE
  5
419E
330
341C
100
AcDbEntity
  8
想像線
 62
     0
370
    -2
100
AcDbLine
 10
776.8101092651511
 20
190.9176125572287
 30
0.0
 11
776.8101092651511
 21
261.4901047984476
 31
0.0
  0
LINE
  5
419F
330
341C
100
AcDbEntity
  8
想像線
 62
     0
370
    -2
100
AcDbLine
 10
698.4145982997201
 20
258.4901047984477
 30
0.0
 11
773.8101092651511
 21
258.4901047984477
 31
0.0
  0
INSERT
  5
41A0
330
341C
100
AcDbEntity
  8
想像線
 62
     0
370
    -2
100
AcDbBlockReference
  2
_Closed
 10
695.4145982997202
 20
258.4901047984477
 30
0.0
 41
3.0
 42
3.0
 43
3.0
 50
180.0
  0
INSERT
  5
41A1
330
341C
100
AcDbEntity
  8
想像線
 62
     0
370
    -2
100
AcDbBlockReference
  2
_Closed
 10
776.8101092651511
 20
258.4901047984477
 30
0.0
 41
3.0
 42
3.0
 43
3.0
  0
MTEXT
  5
41A2
330
341C
100
AcDbEntity
  8
想像線
 62
     0
100
AcDbMText
 10
736.1123537824356
 20
261.9905969244319
 30
0.0
 40
5.0
 41
0.0
 71
     5
 72
     1
  1
120
  7
OKANO
 73
     1
 44
1.0
  0
POINT
  5
41A3
330
341C
100
AcDbEntity
  8
Defpoints
 62
     0
100
AcDbPoint
 10
695.4145982997202
 20
188.9176125572287
 30
0.0
  0
POINT
  5
41A4
330
341C
100
AcDbEntity
  8
Defpoints
 62
     0
100
AcDbPoint
 10
776.8101092651511
 20
188.9176125572287
 30
0.0
  0
POINT
  5
41A5
330
341C
100
AcDbEntity
  8
Defpoints
 62
     0
100
AcDbPoint
 10
776.8101092651511
 20
258.4901047984477
 30
0.0
  0
ENDBLK
  5
3427
330
341C
100
AcDbEntity
  8
0
100
AcDbBlockEnd
  0
BLOCK
  5
342F
330
3428
100
AcDbEntity
  8
0
100
AcDbBlockBegin
  2
*D12
 70
     1
 10
0.0
 20
0.0
 30
0.0
  3
*D12
  1

  0
LINE
  5
4197
330
3428
100
AcDbEntity
  8
寸法線
 62
     0
370
    -2
100
AcDbLine
 10
658.7398192472642
 20
214.6934818259726
 30
0.0
 11
676.1316635917132
 21
201.3104886098948
 31
0.0
  0
MTEXT
  5
4198
330
3428
100
AcDbEntity
  8
寸法線
 62
     0
100
AcDbMText
 10
665.8843874891349
 20
213.6126539900733
 30
0.0
 40
5.0
 41
0.0
 71
     5
 72
     1
  1
R20
  7
OKANO
 11
0.7925215445677974
 21
-0.6098439156012569
 31
0.0
 73
     1
 44
1.0
  0
LINE
  5
4199
330
3428
100
AcDbEntity
  8
寸法線
 62
     0
370
    -2
100
AcDbLine
 10
694.3596591167723
 20
187.2840785510658
 30
0.0
 11
678.5092282254165
 21
199.480956863091
 31
0.0
  0
INSERT
  5
419A
330
3428
100
AcDbEntity
  8
寸法線
 62
     0
370
    -2
100
AcDbBlockReference
  2
_Closed
 10
678.5092282254165
 20
199.480956863091
 30
0.0
 41
3.0
 42
3.0
 43
3.0
 50
322.4217820975769
  0
POINT
  5
419B
330
3428
100
AcDbEntity
  8
Defpoints
 62
     0
100
AcDbPoint
 10
678.5092282254165
 20
199.480956863091
 30
0.0
  0
POINT
  5
419C
330
3428
100
AcDbEntity
  8
Defpoints
 62
     0
100
AcDbPoint
 10
694.3596591167723
 20
187.2840785510658
 30
0.0
  0
ENDBLK
  5
3430
330
3428
100
AcDbEntity
  8
0
100
AcDbBlockEnd
  0
BLOCK
  5
343B
330
3431
100
AcDbEntity
  8
0
100
AcDbBlockBegin
  2
*D13
 70
     1
 10
0.0
 20
0.0
 30
0.0
  3
*D13
  1

  0
LINE
  5
41A6
330
3431
100
AcDbEntity
  8
想像線
 62
     0
370
    -2
100
AcDbLine
 10
692.4339321140023
 20
187.937718079723
 30
0.0
 11
648.2845029402795
 21
187.937718079723
 31
0.0
  0
LINE
  5
41A7
330
3431
100
AcDbEntity
  8
想像線
 62
     0
370
    -2
100
AcDbLine
 10
692.4339321140023
 20
105.6266007632669
 30
0.0
 11
648.2845029402795
 21
105.6266007632669
 31
0.0
  0
LINE
  5
41A8
330
3431
100
AcDbEntity
  8
想像線
 62
     0
370
    -2
100
AcDbLine
 10
651.2845029402795
 20
184.937718079723
 30
0.0
 11
651.2845029402795
 21
108.6266007632669
 31
0.0
  0
INSERT
  5
41A9
330
3431
100
AcDbEntity
  8
想像線
 62
     0
370
    -2
100
AcDbBlockReference
  2
_Closed
 10
651.2845029402795
 20
187.937718079723
 30
0.0
 41
3.0
 42
3.0
 43
3.0
 50
90.0
  0
INSERT
  5
41AA
330
3431
100
AcDbEntity
  8
想像線
 62
     0
370
    -2
100
AcDbBlockReference
  2
_Closed
 10
651.2845029402795
 20
105.6266007632669
 30
0.0
 41
3.0
 42
3.0
 43
3.0
 50
270.0
  0
MTEXT
  5
41AB
330
3431
100
AcDbEntity
  8
想像線
 62
     0
100
AcDbMText
 10
647.7840108142952
 20
146.7821594214951
 30
0.0
 40
5.0
 41
0.0
 71
     5
 72
     1
  1
120
  7
OKANO
 11
0.0000000000000001
 21
1.0
 31
0.0
 73
     1
 44
1.0
  0
POINT
  5
41AC
330
3431
100
AcDbEntity
  8
Defpoints
 62
     0
100
AcDbPoint
 10
694.4339321140023
 20
187.937718079723
 30
0.0
  0
POINT
  5
41AD
330
3431
100
AcDbEntity
  8
Defpoints
 62
     0
100
AcDbPoint
 10
694.4339321140023
 20
105.6266007632669
 30
0.0
  0
POINT
  5
41AE
330
3431
100
AcDbEntity
  8
Defpoints
 62
     0
100
AcDbPoint
 10
651.2845029402795
 20
105.6266007632669
 30
0.0
  0
ENDBLK
  5
343C
330
3431
100
AcDbEntity
  8
0
100
AcDbBlockEnd
  0
BLOCK
  5
3447
330
343D
100
AcDbEntity
  8
0
100
AcDbBlockBegin
  2
*D14
 70
     1
 10
0.0
 20
0.0
 30
0.0
  3
*D14
  1

  0
LINE
  5
41AF
330
343D
100
AcDbEntity
  8
寸法線
 62
     0
370
    -2
100
AcDbLine
 10
770.1981416786161
 20
114.1054006717179
 30
0.0
 11
780.0674976728055
 21
124.3641875712035
 31
0.0
  0
LINE
  5
41B0
330
343D
100
AcDbEntity
  8
寸法線
 62
     0
370
    -2
100
AcDbLine
 10
783.4670224941251
 20
101.3402160845133
 30
0.0
 11
793.3363784883145
 21
111.5990029839988
 31
0.0
  0
LINE
  5
41B1
330
343D
100
AcDbEntity
  8
寸法線
 62
     0
370
    -2
100
AcDbLine
 10
780.1495671544819
 20
120.1223407328349
 30
0.0
 11
789.094531649946
 21
111.5169335023224
 31
0.0
  0
INSERT
  5
41B2
330
343D
100
AcDbEntity
  8
寸法線
 62
     0
370
    -2
100
AcDbBlockReference
  2
_Closed
 10
777.9876089944594
 20
122.202229411181
 30
0.0
 41
3.0
 42
3.0
 43
3.0
 50
136.1083965334503
  0
INSERT
  5
41B3
330
343D
100
AcDbEntity
  8
寸法線
 62
     0
370
    -2
100
AcDbBlockReference
  2
_Closed
 10
791.2564898099684
 20
109.4370448239763
 30
0.0
 41
3.0
 42
3.0
 43
3.0
 50
316.1083965334503
  0
MTEXT
  5
41B4
330
343D
100
AcDbEntity
  8
寸法線
 62
     0
100
AcDbMText
 10
787.0489273827054
 20
118.3422762895339
 30
0.0
 40
5.0
 41
0.0
 71
     5
 72
     1
  1
20
  7
OKANO
 11
0.7206527200074976
 21
-0.6932962261153564
 31
0.0
 73
     1
 44
1.0
  0
POINT
  5
41B5
330
343D
100
AcDbEntity
  8
Defpoints
 62
     0
100
AcDbPoint
 10
768.8115492263853
 20
112.664095231703
 30
0.0
  0
POINT
  5
41B6
330
343D
100
AcDbEntity
  8
Defpoints
 62
     0
100
AcDbPoint
 10
782.0804300418942
 20
99.89891064449835
 30
0.0
  0
POINT
  5
41B7
330
343D
100
AcDbEntity
  8
Defpoints
 62
     0
100
AcDbPoint
 10
791.2564898099684
 20
109.4370448239763
 30
0.0
  0
ENDBLK
  5
3448
330
343D
100
AcDbEntity
  8
0
100
AcDbBlockEnd
  0
BLOCK
  5
3453
330
3449
100
AcDbEntity
  8
0
100
AcDbBlockBegin
  2
*D15
 70
     1
 10
0.0
 20
0.0
 30
0.0
  3
*D15
  1

  0
LINE
  5
41B8
330
3449
100
AcDbEntity
  8
寸法線
 62
     0
370
    -2
100
AcDbLine
 10
773.1737237128241
 20
100.4478936242512
 30
0.0
 11
799.6563321747853
 21
73.93985944735828
 31
0.0
  0
LINE
  5
41B9
330
3449
100
AcDbEntity
  8
寸法線
 62
     0
370
    -2
100
AcDbLine
 10
781.5282043151764
 20
108.7943608582498
 30
0.0
 11
808.0108127771378
 21
82.28632668135686
 31
0.0
  0
LINE
  5
41BA
330
3449
100
AcDbEntity
  8
寸法線
 62
     0
370
    -2
100
AcDbLine
 10
799.6583678579716
 20
78.18249964610174
 30
0.0
 11
803.7681725783944
 21
82.28836236454316
 31
0.0
  0
INSERT
  5
41BB
330
3449
100
AcDbEntity
  8
寸法線
 62
     0
370
    -2
100
AcDbBlockReference
  2
_Closed
 10
797.5360299170067
 20
76.06219738832317
 30
0.0
 41
3.0
 42
3.0
 43
3.0
 50
224.972508617138
  0
INSERT
  5
41BC
330
3449
100
AcDbEntity
  8
寸法線
 62
     0
370
    -2
100
AcDbBlockReference
  2
_Closed
 10
805.8905105193591
 20
84.40866462232174
 30
0.0
 41
3.0
 42
3.0
 43
3.0
 50
44.972508617138
  0
MTEXT
  5
41BD
330
3449
100
AcDbEntity
  8
寸法線
 62
     0
100
AcDbMText
 10
799.2392364321627
 20
82.71184008899746
 30
0.0
 40
5.0
 41
0.0
 71
     5
 72
     1
  1
12
  7
OKANO
 11
0.7074459803216251
 21
0.7067674192595291
 31
0.0
 73
     1
 44
1.0
  0
POINT
  5
41BE
330
3449
100
AcDbEntity
  8
Defpoints
 62
     0
100
AcDbPoint
 10
771.7601888743049
 20
101.8627855848944
 30
0.0
  0
POINT
  5
41BF
330
3449
100
AcDbEntity
  8
Defpoints
 62
     0
100
AcDbPoint
 10
780.1146694766573
 20
110.209252818893
 30
0.0
  0
POINT
  5
41C0
330
3449
100
AcDbEntity
  8
Defpoints
 62
     0
100
AcDbPoint
 10
805.8905105193591
 20
84.40866462232174
 30
0.0
  0
ENDBLK
  5
3454
330
3449
100
AcDbEntity
  8
0
100
AcDbBlockEnd
  0
BLOCK
  5
3493
330
3489
100
AcDbEntity
  8
0
100
AcDbBlockBegin
  2
*D16
 70
     1
 10
0.0
 20
0.0
 30
0.0
  3
*D16
  1

  0
LINE
  5
4107
330
3489
100
AcDbEntity
  8
寸法線
 62
     0
370
    -2
100
AcDbLine
 10
625.2952221565829
 20
-183.4603679898747
 30
0.0
 11
631.1782731947489
 21
-183.4603679898747
 31
0.0
  0
LINE
  5
4108
330
3489
100
AcDbEntity
  8
寸法線
 62
     0
370
    -2
100
AcDbLine
 10
602.7952221565828
 20
-43.46036798987472
 30
0.0
 11
631.1782731947489
 21
-43.46036798987473
 31
0.0
  0
LINE
  5
4109
330
3489
100
AcDbEntity
  8
寸法線
 62
     0
370
    -2
100
AcDbLine
 10
628.1782731947489
 20
-180.4603679898747
 30
0.0
 11
628.1782731947489
 21
-46.46036798987473
 31
0.0
  0
INSERT
  5
410A
330
3489
100
AcDbEntity
  8
寸法線
 62
     0
370
    -2
100
AcDbBlockReference
  2
_Closed
 10
628.1782731947489
 20
-183.4603679898747
 30
0.0
 41
3.0
 42
3.0
 43
3.0
 50
270.0
  0
INSERT
  5
410B
330
3489
100
AcDbEntity
  8
寸法線
 62
     0
370
    -2
100
AcDbBlockReference
  2
_Closed
 10
628.1782731947489
 20
-43.46036798987473
 30
0.0
 41
3.0
 42
3.0
 43
3.0
 50
90.0
  0
MTEXT
  5
410C
330
3489
100
AcDbEntity
  8
寸法線
 62
     0
100
AcDbMText
 10
624.6782731947489
 20
-113.4603679898746
 30
0.0
 40
5.0
 41
0.0
 71
     5
 72
     1
  1
140
  7
OKANO
 11
0.0000000000000001
 21
1.0
 31
0.0
 73
     1
 44
1.0
  0
POINT
  5
410D
330
3489
100
AcDbEntity
  8
Defpoints
 62
     0
100
AcDbPoint
 10
623.2952221565828
 20
-183.4603679898747
 30
0.0
  0
POINT
  5
410E
330
3489
100
AcDbEntity
  8
Defpoints
 62
     0
100
AcDbPoint
 10
600.7952221565829
 20
-43.46036798987472
 30
0.0
  0
POINT
  5
410F
330
3489
100
AcDbEntity
  8
Defpoints
 62
     0
100
AcDbPoint
 10
628.1782731947489
 20
-43.46036798987473
 30
0.0
  0
ENDBLK
  5
3494
330
3489
100
AcDbEntity
  8
0
100
AcDbBlockEnd
  0
BLOCK
  5
34A0
330
3496
100
AcDbEntity
  8
0
100
AcDbBlockBegin
  2
*D17
 70
     1
 10
0.0
 20
0.0
 30
0.0
  3
*D17
  1

  0
LINE
  5
4153
330
3496
100
AcDbEntity
  8
寸法線
 62
     0
370
    -2
100
AcDbLine
 10
796.5246368337054
 20
-182.9190081577356
 30
0.0
 11
799.2361512116772
 21
-182.9190081577356
 31
0.0
  0
LINE
  5
4154
330
3496
100
AcDbEntity
  8
寸法線
 62
     0
370
    -2
100
AcDbLine
 10
744.920331069894
 20
-43.46036798987472
 30
0.0
 11
799.2361512116772
 21
-43.46036798987474
 31
0.0
  0
LINE
  5
4155
330
3496
100
AcDbEntity
  8
寸法線
 62
     0
370
    -2
100
AcDbLine
 10
796.2361512116772
 20
-179.9190081577357
 30
0.0
 11
796.2361512116772
 21
-46.46036798987474
 31
0.0
  0
INSERT
  5
4156
330
3496
100
AcDbEntity
  8
寸法線
 62
     0
370
    -2
100
AcDbBlockReference
  2
_Closed
 10
796.2361512116772
 20
-182.9190081577356
 30
0.0
 41
3.0
 42
3.0
 43
3.0
 50
270.0
  0
INSERT
  5
4157
330
3496
100
AcDbEntity
  8
寸法線
 62
     0
370
    -2
100
AcDbBlockReference
  2
_Closed
 10
796.2361512116772
 20
-43.46036798987474
 30
0.0
 41
3.0
 42
3.0
 43
3.0
 50
90.0
  0
MTEXT
  5
4158
330
3496
100
AcDbEntity
  8
寸法線
 62
     0
100
AcDbMText
 10
792.7361512116772
 20
-113.189688073805
 30
0.0
 40
5.0
 41
0.0
 71
     5
 72
     1
  1
140
  7
OKANO
 11
0.0000000000000001
 21
1.0
 31
0.0
 73
     1
 44
1.0
  0
POINT
  5
4159
330
3496
100
AcDbEntity
  8
Defpoints
 62
     0
100
AcDbPoint
 10
794.5246368337055
 20
-182.9190081577356
 30
0.0
  0
POINT
  5
415A
330
3496
100
AcDbEntity
  8
Defpoints
 62
     0
100
AcDbPoint
 10
742.920331069894
 20
-43.46036798987472
 30
0.0
  0
POINT
  5
415B
330
3496
100
AcDbEntity
  8
Defpoints
 62
     0
100
AcDbPoint
 10
796.2361512116772
 20
-43.46036798987474
 30
0.0
  0
ENDBLK
  5
34A1
330
3496
100
AcDbEntity
  8
0
100
AcDbBlockEnd
  0
BLOCK
  5
3855
330
384B
100
AcDbEntity
  8
0
100
AcDbBlockBegin
  2
*D18
 70
     1
 10
0.0
 20
0.0
 30
0.0
  3
*D18
  1

  0
LINE
  5
4110
330
384B
100
AcDbEntity
  8
寸法線
 62
     0
370
    -2
100
AcDbLine
 10
498.3659410809912
 20
-183.4603679898747
 30
0.0
 11
504.2489921191572
 21
-183.4603679898747
 31
0.0
  0
LINE
  5
4111
330
384B
100
AcDbEntity
  8
寸法線
 62
     0
370
    -2
100
AcDbLine
 10
475.8659410809912
 20
-43.46036798987472
 30
0.0
 11
504.2489921191572
 21
-43.46036798987473
 31
0.0
  0
LINE
  5
4112
330
384B
100
AcDbEntity
  8
寸法線
 62
     0
370
    -2
100
AcDbLine
 10
501.2489921191572
 20
-180.4603679898747
 30
0.0
 11
501.2489921191572
 21
-46.46036798987473
 31
0.0
  0
INSERT
  5
4113
330
384B
100
AcDbEntity
  8
寸法線
 62
     0
370
    -2
100
AcDbBlockReference
  2
_Closed
 10
501.2489921191572
 20
-183.4603679898747
 30
0.0
 41
3.0
 42
3.0
 43
3.0
 50
270.0
  0
INSERT
  5
4114
330
384B
100
AcDbEntity
  8
寸法線
 62
     0
370
    -2
100
AcDbBlockReference
  2
_Closed
 10
501.2489921191572
 20
-43.46036798987473
 30
0.0
 41
3.0
 42
3.0
 43
3.0
 50
90.0
  0
MTEXT
  5
4115
330
384B
100
AcDbEntity
  8
寸法線
 62
     0
100
AcDbMText
 10
497.7489921191573
 20
-113.4603679898746
 30
0.0
 40
5.0
 41
0.0
 71
     5
 72
     1
  1
140
  7
OKANO
 11
0.0000000000000001
 21
1.0
 31
0.0
 73
     1
 44
1.0
  0
POINT
  5
4116
330
384B
100
AcDbEntity
  8
Defpoints
 62
     0
100
AcDbPoint
 10
496.3659410809912
 20
-183.4603679898747
 30
0.0
  0
POINT
  5
4117
330
384B
100
AcDbEntity
  8
Defpoints
 62
     0
100
AcDbPoint
 10
473.8659410809912
 20
-43.46036798987472
 30
0.0
  0
POINT
  5
4118
330
384B
100
AcDbEntity
  8
Defpoints
 62
     0
100
AcDbPoint
 10
501.2489921191572
 20
-43.46036798987473
 30
0.0
  0
ENDBLK
  5
3856
330
384B
100
AcDbEntity
  8
0
100
AcDbBlockEnd
  0
BLOCK
  5
38BE
330
38B4
100
AcDbEntity
  8
0
100
AcDbBlockBegin
  2
*D19
 70
     1
 10
0.0
 20
0.0
 30
0.0
  3
*D19
  1

  0
LINE
  5
4170
330
38B4
100
AcDbEntity
  8
寸法線
 62
     0
370
    -2
100
AcDbLine
 10
534.0943594429506
 20
143.0339336344938
 30
0.0
 11
534.0943594429506
 21
107.3939430607754
 31
0.0
  0
LINE
  5
4171
330
38B4
100
AcDbEntity
  8
寸法線
 62
     0
370
    -2
100
AcDbLine
 10
604.0943594429498
 20
143.0339336344931
 30
0.0
 11
604.0943594429498
 21
107.3939430607754
 31
0.0
  0
LINE
  5
4172
330
38B4
100
AcDbEntity
  8
寸法線
 62
     0
370
    -2
100
AcDbLine
 10
536.5943594429507
 20
108.6439430607754
 30
0.0
 11
601.5943594429499
 21
108.6439430607754
 31
0.0
  0
SOLID
  5
4173
330
38B4
100
AcDbEntity
  8
寸法線
 62
     0
100
AcDbTrace
 10
536.5943594429507
 20
109.060609727442
 30
0.0
 11
536.5943594429507
 21
108.2272763941087
 31
0.0
 12
534.0943594429506
 22
108.6439430607754
 32
0.0
 13
534.0943594429506
 23
108.6439430607754
 33
0.0
  0
SOLID
  5
4174
330
38B4
100
AcDbEntity
  8
寸法線
 62
     0
100
AcDbTrace
 10
601.5943594429499
 20
109.060609727442
 30
0.0
 11
601.5943594429499
 21
108.2272763941087
 31
0.0
 12
604.0943594429498
 22
108.6439430607754
 32
0.0
 13
604.0943594429498
 23
108.6439430607754
 33
0.0
  0
MTEXT
  5
4175
330
38B4
100
AcDbEntity
  8
寸法線
 62
     0
370
    25
100
AcDbMText
 10
569.0943594429502
 20
110.5189430607754
 30
0.0
 40
2.5
 41
0.0
 71
     5
 72
     1
  1
70
 73
     1
 44
1.0
  0
POINT
  5
4176
330
38B4
100
AcDbEntity
  8
Defpoints
 62
     0
100
AcDbPoint
 10
534.0943594429506
 20
143.6589336344938
 30
0.0
  0
POINT
  5
4177
330
38B4
100
AcDbEntity
  8
Defpoints
 62
     0
100
AcDbPoint
 10
604.0943594429498
 20
143.6589336344931
 30
0.0
  0
POINT
  5
4178
330
38B4
100
AcDbEntity
  8
Defpoints
 62
     0
100
AcDbPoint
 10
604.0943594429498
 20
108.6439430607754
 30
0.0
  0
ENDBLK
  5
38BF
330
38B4
100
AcDbEntity
  8
0
100
AcDbBlockEnd
  0
BLOCK
  5
38C9
330
38C0
100
AcDbEntity
  8
0
100
AcDbBlockBegin
  2
*D20
 70
     1
 10
0.0
 20
0.0
 30
0.0
  3
*D20
  1

  0
LINE
  5
418F
330
38C0
100
AcDbEntity
  8
寸法線
 62
     0
370
    -2
100
AcDbLine
 10
617.3245454576553
 20
159.0993553405463
 30
0.0
 11
609.4623447521955
 21
149.923694900474
 31
0.0
  0
LINE
  5
4190
330
38C0
100
AcDbEntity
  8
寸法線
 62
     0
370
    -2
100
AcDbLine
 10
598.7263741337056
 20
137.3941723685133
 30
0.0
 11
597.0997119187827
 21
135.4957598636707
 31
0.0
  0
MTEXT
  5
4191
330
38C0
100
AcDbEntity
  8
寸法線
 62
     0
370
    25
100
AcDbMText
 10
612.7829668337549
 20
156.6807280341235
 30
0.0
 40
2.5
 41
0.0
 71
     5
 72
     1
  1
\U+220511.5
 11
0.6506648859690991
 21
0.7593650019370259
 31
0.0
 73
     1
 44
1.0
  0
LINE
  5
4192
330
38C0
100
AcDbEntity
  8
寸法線
 62
     0
370
    -2
100
AcDbLine
 10
600.3530363486283
 20
139.2925848733558
 30
0.0
 11
607.8356825372727
 21
148.0252823956314
 31
0.0
  0
SOLID
  5
4193
330
38C0
100
AcDbEntity
  8
寸法線
 62
     0
100
AcDbTrace
 10
598.4099720495651
 20
137.6652827376671
 30
0.0
 11
599.042776217846
 21
137.1230619993595
 31
0.0
 12
600.3530363486283
 22
139.2925848733558
 32
0.0
 13
600.3530363486283
 23
139.2925848733558
 33
0.0
  0
SOLID
  5
4194
330
38C0
100
AcDbEntity
  8
寸法線
 62
     0
100
AcDbTrace
 10
609.145942668055
 20
150.1948052696278
 30
0.0
 11
609.778746836336
 21
149.6525845313202
 31
0.0
 12
607.8356825372727
 22
148.0252823956314
 32
0.0
 13
607.8356825372727
 23
148.0252823956314
 33
0.0
  0
POINT
  5
4195
330
38C0
100
AcDbEntity
  8
Defpoints
 62
     0
100
AcDbPoint
 10
607.8356825372727
 20
148.0252823956314
 30
0.0
  0
POINT
  5
4196
330
38C0
100
AcDbEntity
  8
Defpoints
 62
     0
100
AcDbPoint
 10
600.3530363486283
 20
139.2925848733558
 30
0.0
  0
ENDBLK
  5
38CA
330
38C0
100
AcDbEntity
  8
0
100
AcDbBlockEnd
  0
BLOCK
  5
38D4
330
38CB
100
AcDbEntity
  8
0
100
AcDbBlockBegin
  2
*D21
 70
     1
 10
0.0
 20
0.0
 30
0.0
  3
*D21
  1

  0
LINE
  5
4179
330
38CB
100
AcDbEntity
  8
寸法線
 62
     0
370
    -2
100
AcDbLine
 10
555.0246068318523
 20
152.8746900077005
 30
0.0
 11
541.4160480325315
 21
146.8827320458706
 31
0.0
  0
LINE
  5
417A
330
38CB
100
AcDbEntity
  8
寸法線
 62
     0
370
    -2
100
AcDbLine
 10
526.7726708533691
 20
140.4351352231166
 30
0.0
 11
524.484643169125
 21
139.4276982195613
 31
0.0
  0
MTEXT
  5
417B
330
38CB
100
AcDbEntity
  8
寸法線
 62
     0
370
    25
100
AcDbMText
 10
551.4089944738806
 20
153.3314145164395
 30
0.0
 40
2.5
 41
0.0
 71
     5
 72
     1
  1
\U+220511
 11
0.9152110736976478
 21
0.4029748014221219
 31
0.0
 73
     1
 44
1.0
  0
LINE
  5
417C
330
38CB
100
AcDbEntity
  8
寸法線
 62
     0
370
    -2
100
AcDbLine
 10
529.0606985376133
 20
141.4425722266719
 30
0.0
 11
539.1280203482875
 21
145.8752950423153
 31
0.0
  0
SOLID
  5
417D
330
38CB
100
AcDbEntity
  8
寸法線
 62
     0
100
AcDbTrace
 10
526.60476468611
 20
140.8164731704907
 30
0.0
 11
526.9405770206284
 21
140.0537972757426
 31
0.0
 12
529.0606985376133
 22
141.4425722266719
 32
0.0
 13
529.0606985376133
 23
141.4425722266719
 33
0.0
  0
SOLID
  5
417E
330
38CB
100
AcDbEntity
  8
寸法線
 62
     0
100
AcDbTrace
 10
541.2481418652723
 20
147.2640699932446
 30
0.0
 11
541.5839541997907
 21
146.5013940984966
 31
0.0
 12
539.1280203482875
 22
145.8752950423153
 32
0.0
 13
539.1280203482875
 23
145.8752950423153
 33
0.0
  0
POINT
  5
417F
330
38CB
100
AcDbEntity
  8
Defpoints
 62
     0
100
AcDbPoint
 10
539.1280203482875
 20
145.8752950423153
 30
0.0
  0
POINT
  5
4180
330
38CB
100
AcDbEntity
  8
Defpoints
 62
     0
100
AcDbPoint
 10
529.0606985376133
 20
141.4425722266719
 30
0.0
  0
ENDBLK
  5
38D5
330
38CB
100
AcDbEntity
  8
0
100
AcDbBlockEnd
  0
BLOCK
  5
38DD
330
38D6
100
AcDbEntity
  8
0
100
AcDbBlockBegin
  2
*D22
 70
     1
 10
0.0
 20
0.0
 30
0.0
  3
*D22
  1

  0
LINE
  5
4181
330
38D6
100
AcDbEntity
  8
寸法線
 62
     0
370
    -2
100
AcDbLine
 10
512.8474469786545
 20
152.9601687860028
 30
0.0
 11
522.0081159085695
 21
148.9499138369393
 31
0.0
  0
MTEXT
  5
4182
330
38D6
100
AcDbEntity
  8
寸法線
 62
     0
370
    25
100
AcDbMText
 10
517.034620630322
 20
153.1739486044631
 30
0.0
 40
2.5
 41
0.0
 71
     5
 72
     1
  1
10.5
 11
0.916066892991509
 21
-0.4010254949063503
 31
0.0
 73
     1
 44
1.0
  0
LINE
  5
4183
330
38D6
100
AcDbEntity
  8
寸法線
 62
     0
370
    -2
100
AcDbLine
 10
534.0943594429501
 20
143.658933634494
 30
0.0
 11
524.2982831410483
 21
147.9473500996734
 31
0.0
  0
SOLID
  5
4184
330
38D6
100
AcDbEntity
  8
寸法線
 62
     0
100
AcDbTrace
 10
522.1752098647804
 20
149.3316083756857
 30
0.0
 11
521.8410219523584
 21
148.5682192981928
 31
0.0
 12
524.2982831410483
 22
147.9473500996734
 32
0.0
 13
524.2982831410483
 23
147.9473500996734
 33
0.0
  0
POINT
  5
4185
330
38D6
100
AcDbEntity
  8
Defpoints
 62
     0
100
AcDbPoint
 10
524.2982831410483
 20
147.9473500996734
 30
0.0
  0
POINT
  5
4186
330
38D6
100
AcDbEntity
  8
Defpoints
 62
     0
100
AcDbPoint
 10
534.0943594429501
 20
143.658933634494
 30
0.0
  0
ENDBLK
  5
38DE
330
38D6
100
AcDbEntity
  8
0
100
AcDbBlockEnd
  0
BLOCK
  5
3917
330
390E
100
AcDbEntity
  8
0
100
AcDbBlockBegin
  2
*D23
 70
     1
 10
0.0
 20
0.0
 30
0.0
  3
*D23
  1

  0
LINE
  5
4187
330
390E
100
AcDbEntity
  8
寸法線
 62
     0
370
    -2
100
AcDbLine
 10
575.5347234061319
 20
181.7318024681533
 30
0.0
 11
598.8437729870361
 21
150.6584937541706
 31
0.0
  0
LINE
  5
4188
330
390E
100
AcDbEntity
  8
寸法線
 62
     0
370
    -2
100
AcDbLine
 10
609.3449458988641
 20
136.6593735148165
 30
0.0
 11
611.1451469694632
 21
134.2595243309273
 31
0.0
  0
MTEXT
  5
4189
330
390E
100
AcDbEntity
  8
寸法線
 62
     0
100
AcDbMText
 10
580.9276534095653
 20
180.3751658638328
 30
0.0
 40
5.0
 41
0.0
 71
     5
 72
     1
  1
30
  7
OKANO
 11
0.6000670235330255
 21
-0.7999497279630862
 31
0.0
 73
     1
 44
1.0
  0
LINE
  5
418A
330
390E
100
AcDbEntity
  8
寸法線
 62
     0
370
    -2
100
AcDbLine
 10
607.544744828265
 20
139.0592226987058
 30
0.0
 11
600.6439740576352
 21
148.2586445702813
 31
0.0
  0
INSERT
  5
418B
330
390E
100
AcDbEntity
  8
寸法線
 62
     0
370
    -2
100
AcDbBlockReference
  2
_Closed
 10
607.544744828265
 20
139.0592226987058
 30
0.0
 41
3.0
 42
3.0
 43
3.0
 50
126.8746980036315
  0
INSERT
  5
418C
330
390E
100
AcDbEntity
  8
寸法線
 62
     0
370
    -2
100
AcDbBlockReference
  2
_Closed
 10
600.6439740576352
 20
148.2586445702813
 30
0.0
 41
3.0
 42
3.0
 43
3.0
 50
306.8746980036316
  0
POINT
  5
418D
330
390E
100
AcDbEntity
  8
Defpoints
 62
     0
100
AcDbPoint
 10
600.6439740576352
 20
148.2586445702813
 30
0.0
  0
POINT
  5
418E
330
390E
100
AcDbEntity
  8
Defpoints
 62
     0
100
AcDbPoint
 10
607.544744828265
 20
139.0592226987058
 30
0.0
  0
ENDBLK
  5
3918
330
390E
100
AcDbEntity
  8
0
100
AcDbBlockEnd
  0
BLOCK
  5
3993
330
3988
100
AcDbEntity
  8
0
100
AcDbBlockBegin
  2
*D24
 70
     1
 10
0.0
 20
0.0
 30
0.0
  3
*D24
  1

  0
LINE
  5
4119
330
3988
100
AcDbEntity
  8
寸法線
 62
     0
370
    -2
100
AcDbLine
 10
530.6515366198145
 20
-177.8098592662668
 30
0.0
 11
530.6515366198145
 21
-166.3767822860327
 31
0.0
  0
LINE
  5
411A
330
3988
100
AcDbEntity
  8
寸法線
 62
     0
370
    -2
100
AcDbLine
 10
541.7858170035096
 20
-177.1143215064946
 30
0.0
 11
541.7858170035096
 21
-166.3767822860327
 31
0.0
  0
LINE
  5
411B
330
3988
100
AcDbEntity
  8
寸法線
 62
     0
370
    -2
100
AcDbLine
 10
533.6515366198145
 20
-169.3767822860327
 30
0.0
 11
538.7858170035096
 21
-169.3767822860327
 31
0.0
  0
INSERT
  5
411C
330
3988
100
AcDbEntity
  8
寸法線
 62
     0
370
    -2
100
AcDbBlockReference
  2
_Closed
 10
530.6515366198145
 20
-169.3767822860327
 30
0.0
 41
3.0
 42
3.0
 43
3.0
 50
180.0
  0
INSERT
  5
411D
330
3988
100
AcDbEntity
  8
寸法線
 62
     0
370
    -2
100
AcDbBlockReference
  2
_Closed
 10
541.7858170035096
 20
-169.3767822860327
 30
0.0
 41
3.0
 42
3.0
 43
3.0
  0
MTEXT
  5
411E
330
3988
100
AcDbEntity
  8
寸法線
 62
     0
100
AcDbMText
 10
536.2186768116621
 20
-165.8767822860327
 30
0.0
 40
5.0
 41
0.0
 71
     5
 72
     1
  1
11
  7
OKANO
 73
     1
 44
1.0
  0
POINT
  5
411F
330
3988
100
AcDbEntity
  8
Defpoints
 62
     0
100
AcDbPoint
 10
530.6515366198145
 20
-179.8098592662668
 30
0.0
  0
POINT
  5
4120
330
3988
100
AcDbEntity
  8
Defpoints
 62
     0
100
AcDbPoint
 10
541.7858170035096
 20
-179.1143215064946
 30
0.0
  0
POINT
  5
4121
330
3988
100
AcDbEntity
  8
Defpoints
 62
     0
100
AcDbPoint
 10
541.7858170035096
 20
-169.3767822860327
 30
0.0
  0
ENDBLK
  5
3994
330
3988
100
AcDbEntity
  8
0
100
AcDbBlockEnd
  0
BLOCK
  5
39F8
330
39EE
100
AcDbEntity
  8
0
100
AcDbBlockBegin
  2
*D25
 70
     1
 10
0.0
 20
0.0
 30
0.0
  3
*D25
  1

  0
LINE
  5
4136
330
39EE
100
AcDbEntity
  8
寸法線
 62
     0
370
    -2
100
AcDbLine
 10
441.3659410809912
 20
-185.4603679898747
 30
0.0
 11
441.3659410809912
 21
-195.8455541521736
 31
0.0
  0
LINE
  5
4137
330
39EE
100
AcDbEntity
  8
寸法線
 62
     0
370
    -2
100
AcDbLine
 10
496.3659410809912
 20
-185.4603679898747
 30
0.0
 11
496.3659410809912
 21
-195.8455541521736
 31
0.0
  0
LINE
  5
4138
330
39EE
100
AcDbEntity
  8
寸法線
 62
     0
370
    -2
100
AcDbLine
 10
444.3659410809912
 20
-192.8455541521737
 30
0.0
 11
493.3659410809911
 21
-192.8455541521737
 31
0.0
  0
INSERT
  5
4139
330
39EE
100
AcDbEntity
  8
寸法線
 62
     0
370
    -2
100
AcDbBlockReference
  2
_Closed
 10
441.3659410809912
 20
-192.8455541521737
 30
0.0
 41
3.0
 42
3.0
 43
3.0
 50
180.0
  0
INSERT
  5
413A
330
39EE
100
AcDbEntity
  8
寸法線
 62
     0
370
    -2
100
AcDbBlockReference
  2
_Closed
 10
496.3659410809912
 20
-192.8455541521737
 30
0.0
 41
3.0
 42
3.0
 43
3.0
  0
MTEXT
  5
413B
330
39EE
100
AcDbEntity
  8
寸法線
 62
     0
100
AcDbMText
 10
468.8659410809911
 20
-189.3455541521736
 30
0.0
 40
5.0
 41
0.0
 71
     5
 72
     1
  1
60
  7
OKANO
 73
     1
 44
1.0
  0
POINT
  5
413C
330
39EE
100
AcDbEntity
  8
Defpoints
 62
     0
100
AcDbPoint
 10
441.3659410809912
 20
-183.4603679898747
 30
0.0
  0
POINT
  5
413D
330
39EE
100
AcDbEntity
  8
Defpoints
 62
     0
100
AcDbPoint
 10
496.3659410809912
 20
-183.4603679898747
 30
0.0
  0
POINT
  5
413E
330
39EE
100
AcDbEntity
  8
Defpoints
 62
     0
100
AcDbPoint
 10
496.3659410809912
 20
-192.8455541521737
 30
0.0
  0
ENDBLK
  5
39F9
330
39EE
100
AcDbEntity
  8
0
100
AcDbBlockEnd
  0
BLOCK
  5
3A05
330
39FB
100
AcDbEntity
  8
0
100
AcDbBlockBegin
  2
*D26
 70
     1
 10
0.0
 20
0.0
 30
0.0
  3
*D26
  1

  0
LINE
  5
414A
330
39FB
100
AcDbEntity
  8
寸法線
 62
     0
370
    -2
100
AcDbLine
 10
623.0434607302718
 20
-185.2544087772012
 30
0.0
 11
623.0434607302718
 21
-193.6901431665139
 31
0.0
  0
LINE
  5
414B
330
39FB
100
AcDbEntity
  8
寸法線
 62
     0
370
    -2
100
AcDbLine
 10
595.7952221565829
 20
-182.5394829303628
 30
0.0
 11
595.7952221565829
 21
-193.6901431665139
 31
0.0
  0
LINE
  5
414C
330
39FB
100
AcDbEntity
  8
寸法線
 62
     0
370
    -2
100
AcDbLine
 10
620.0434607302717
 20
-190.6901431665139
 30
0.0
 11
598.7952221565828
 21
-190.6901431665139
 31
0.0
  0
INSERT
  5
414D
330
39FB
100
AcDbEntity
  8
寸法線
 62
     0
370
    -2
100
AcDbBlockReference
  2
_Closed
 10
623.0434607302718
 20
-190.6901431665139
 30
0.0
 41
3.0
 42
3.0
 43
3.0
  0
INSERT
  5
414E
330
39FB
100
AcDbEntity
  8
寸法線
 62
     0
370
    -2
100
AcDbBlockReference
  2
_Closed
 10
595.7952221565829
 20
-190.6901431665139
 30
0.0
 41
3.0
 42
3.0
 43
3.0
 50
180.0
  0
MTEXT
  5
414F
330
39FB
100
AcDbEntity
  8
寸法線
 62
     0
100
AcDbMText
 10
609.4193414434273
 20
-187.1901431665139
 30
0.0
 40
5.0
 41
0.0
 71
     5
 72
     1
  1
30
  7
OKANO
 73
     1
 44
1.0
  0
POINT
  5
4150
330
39FB
100
AcDbEntity
  8
Defpoints
 62
     0
100
AcDbPoint
 10
623.0434607302718
 20
-183.2544087772012
 30
0.0
  0
POINT
  5
4151
330
39FB
100
AcDbEntity
  8
Defpoints
 62
     0
100
AcDbPoint
 10
595.7952221565829
 20
-180.5394829303628
 30
0.0
  0
POINT
  5
4152
330
39FB
100
AcDbEntity
  8
Defpoints
 62
     0
100
AcDbPoint
 10
595.7952221565829
 20
-190.6901431665139
 30
0.0
  0
ENDBLK
  5
3A06
330
39FB
100
AcDbEntity
  8
0
100
AcDbBlockEnd
  0
BLOCK
  5
3A12
330
3A08
100
AcDbEntity
  8
0
100
AcDbBlockBegin
  2
*D27
 70
     1
 10
0.0
 20
0.0
 30
0.0
  3
*D27
  1

  0
LINE
  5
412D
330
3A08
100
AcDbEntity
  8
寸法線
 62
     0
370
    -2
100
AcDbLine
 10
595.7952221565829
 20
-182.5394829303628
 30
0.0
 11
595.7952221565829
 21
-193.6901431665139
 31
0.0
  0
LINE
  5
412E
330
3A08
100
AcDbEntity
  8
寸法線
 62
     0
370
    -2
100
AcDbLine
 10
535.7149600252401
 20
-190.1754978985486
 30
0.0
 11
535.7149600252401
 21
-193.6901431665139
 31
0.0
  0
LINE
  5
412F
330
3A08
100
AcDbEntity
  8
寸法線
 62
     0
370
    -2
100
AcDbLine
 10
592.7952221565829
 20
-190.6901431665139
 30
0.0
 11
538.71496002524
 21
-190.6901431665139
 31
0.0
  0
INSERT
  5
4130
330
3A08
100
AcDbEntity
  8
寸法線
 62
     0
370
    -2
100
AcDbBlockReference
  2
_Closed
 10
595.7952221565829
 20
-190.6901431665139
 30
0.0
 41
3.0
 42
3.0
 43
3.0
  0
INSERT
  5
4131
330
3A08
100
AcDbEntity
  8
寸法線
 62
     0
370
    -2
100
AcDbBlockReference
  2
_Closed
 10
535.7149600252401
 20
-190.6901431665139
 30
0.0
 41
3.0
 42
3.0
 43
3.0
 50
180.0
  0
MTEXT
  5
4132
330
3A08
100
AcDbEntity
  8
寸法線
 62
     0
100
AcDbMText
 10
565.7550910909114
 20
-187.1901431665139
 30
0.0
 40
5.0
 41
0.0
 71
     5
 72
     1
  1
70
  7
OKANO
 73
     1
 44
1.0
  0
POINT
  5
4133
330
3A08
100
AcDbEntity
  8
Defpoints
 62
     0
100
AcDbPoint
 10
595.7952221565829
 20
-180.5394829303628
 30
0.0
  0
POINT
  5
4134
330
3A08
100
AcDbEntity
  8
Defpoints
 62
     0
100
AcDbPoint
 10
535.7149600252401
 20
-188.1754978985486
 30
0.0
  0
POINT
  5
4135
330
3A08
100
AcDbEntity
  8
Defpoints
 62
     0
100
AcDbPoint
 10
535.7149600252401
 20
-190.6901431665139
 30
0.0
  0
ENDBLK
  5
3A13
330
3A08
100
AcDbEntity
  8
0
100
AcDbBlockEnd
  0
BLOCK
  5
3A21
330
3A15
100
AcDbEntity
  8
0
100
AcDbBlockBegin
  2
*D28
 70
     1
 10
0.0
 20
0.0
 30
0.0
  3
*D28
  1

  0
LINE
  5
4122
330
3A15
100
AcDbEntity
  8
寸法線
 62
     0
370
    -2
100
AcDbLine
 10
535.7149600252401
 20
-190.1754978985486
 30
0.0
 11
535.7149600252401
 21
-193.6901431665139
 31
0.0
  0
LINE
  5
4123
330
3A15
100
AcDbEntity
  8
寸法線
 62
     0
370
    -2
100
AcDbLine
 10
525.6483552851409
 20
-189.8162622932866
 30
0.0
 11
525.6483552851409
 21
-193.6901431665139
 31
0.0
  0
LINE
  5
4124
330
3A15
100
AcDbEntity
  8
寸法線
 62
     0
370
    -2
100
AcDbLine
 10
532.7149600252401
 20
-190.6901431665139
 30
0.0
 11
528.6483552851409
 21
-190.6901431665139
 31
0.0
  0
LINE
  5
4125
330
3A15
100
AcDbEntity
  8
寸法線
 62
     0
370
    -2
100
AcDbLine
 10
530.6816576551905
 20
-190.6901431665139
 30
0.0
 11
534.2816576551905
 21
-202.6901431665139
 31
0.0
  0
LINE
  5
4126
330
3A15
100
AcDbEntity
  8
寸法線
 62
     0
370
    -2
100
AcDbLine
 10
534.2816576551905
 20
-202.6901431665139
 30
0.0
 11
545.7996068476217
 21
-202.6901431665139
 31
0.0
  0
MTEXT
  5
4127
330
3A15
100
AcDbEntity
  8
寸法線
 62
     0
100
AcDbMText
 10
540.0406322514061
 20
-199.1901431665139
 30
0.0
 40
5.0
 41
0.0
 71
     5
 72
     1
  1
10.5
  7
OKANO
 73
     1
 44
1.0
  0
INSERT
  5
4128
330
3A15
100
AcDbEntity
  8
寸法線
 62
     0
370
    -2
100
AcDbBlockReference
  2
_Closed
 10
535.7149600252401
 20
-190.6901431665139
 30
0.0
 41
3.0
 42
3.0
 43
3.0
  0
INSERT
  5
4129
330
3A15
100
AcDbEntity
  8
寸法線
 62
     0
370
    -2
100
AcDbBlockReference
  2
_Closed
 10
525.6483552851409
 20
-190.6901431665139
 30
0.0
 41
3.0
 42
3.0
 43
3.0
 50
180.0
  0
POINT
  5
412A
330
3A15
100
AcDbEntity
  8
Defpoints
 62
     0
100
AcDbPoint
 10
535.7149600252401
 20
-188.1754978985486
 30
0.0
  0
POINT
  5
412B
330
3A15
100
AcDbEntity
  8
Defpoints
 62
     0
100
AcDbPoint
 10
525.6483552851409
 20
-187.8162622932866
 30
0.0
  0
POINT
  5
412C
330
3A15
100
AcDbEntity
  8
Defpoints
 62
     0
100
AcDbPoint
 10
525.6483552851409
 20
-190.6901431665139
 30
0.0
  0
ENDBLK
  5
3A22
330
3A15
100
AcDbEntity
  8
0
100
AcDbBlockEnd
  0
BLOCK
  5
3A76
330
3A6A
100
AcDbEntity
  8
0
100
AcDbBlockBegin
  2
*D29
 70
     1
 10
0.0
 20
0.0
 30
0.0
  3
*D29
  1

  0
LINE
  5
413F
330
3A6A
100
AcDbEntity
  8
寸法線
 62
     0
370
    -2
100
AcDbLine
 10
523.154453665104
 20
-183.2544087772012
 30
0.0
 11
514.2671988840775
 21
-183.2544087772012
 31
0.0
  0
LINE
  5
4140
330
3A6A
100
AcDbEntity
  8
寸法線
 62
     0
370
    -2
100
AcDbLine
 10
523.5434607302718
 20
-181.2544087772008
 30
0.0
 11
514.2671988840775
 21
-181.2544087772008
 31
0.0
  0
LINE
  5
4141
330
3A6A
100
AcDbEntity
  8
寸法線
 62
     0
370
    -2
100
AcDbLine
 10
517.2671988840774
 20
-186.2544087772011
 30
0.0
 11
517.2671988840774
 21
-189.2544087772012
 31
0.0
  0
LINE
  5
4142
330
3A6A
100
AcDbEntity
  8
寸法線
 62
     0
370
    -2
100
AcDbLine
 10
517.2671988840774
 20
-178.2544087772008
 30
0.0
 11
517.2671988840774
 21
-170.0897136264998
 31
0.0
  0
LINE
  5
4143
330
3A6A
100
AcDbEntity
  8
寸法線
 62
     0
370
    -2
100
AcDbLine
 10
517.2671988840774
 20
-183.2544087772012
 30
0.0
 11
517.2671988840774
 21
-181.2544087772008
 31
0.0
  0
INSERT
  5
4144
330
3A6A
100
AcDbEntity
  8
寸法線
 62
     0
370
    -2
100
AcDbBlockReference
  2
_Closed
 10
517.2671988840774
 20
-183.2544087772012
 30
0.0
 41
3.0
 42
3.0
 43
3.0
 50
90.0
  0
INSERT
  5
4145
330
3A6A
100
AcDbEntity
  8
寸法線
 62
     0
370
    -2
100
AcDbBlockReference
  2
_Closed
 10
517.2671988840774
 20
-181.2544087772008
 30
0.0
 41
3.0
 42
3.0
 43
3.0
 50
270.0
  0
MTEXT
  5
4146
330
3A6A
100
AcDbEntity
  8
寸法線
 62
     0
100
AcDbMText
 10
513.7667067580933
 20
-172.6720612018502
 30
0.0
 40
5.0
 41
0.0
 71
     5
 72
     1
  1
2
  7
OKANO
 11
0.0000000000000001
 21
1.0
 31
0.0
 73
     1
 44
1.0
  0
POINT
  5
4147
330
3A6A
100
AcDbEntity
  8
Defpoints
 62
     0
100
AcDbPoint
 10
525.154453665104
 20
-183.2544087772012
 30
0.0
  0
POINT
  5
4148
330
3A6A
100
AcDbEntity
  8
Defpoints
 62
     0
100
AcDbPoint
 10
525.5434607302718
 20
-181.2544087772008
 30
0.0
  0
POINT
  5
4149
330
3A6A
100
AcDbEntity
  8
Defpoints
 62
     0
100
AcDbPoint
 10
517.2671988840774
 20
-181.2544087772008
 30
0.0
  0
ENDBLK
  5
3A77
330
3A6A
100
AcDbEntity
  8
0
100
AcDbBlockEnd
  0
BLOCK
  5
3A9E
330
3A92
100
AcDbEntity
  8
0
100
AcDbBlockBegin
  2
*D30
 70
     1
 10
0.0
 20
0.0
 30
0.0
  3
*D30
  1

  0
LINE
  5
4165
330
3A92
100
AcDbEntity
  8
寸法線
 62
     0
370
    -2
100
AcDbLine
 10
672.5246368337054
 20
-182.9190081577357
 30
0.0
 11
662.8766280711634
 21
-182.9190081577357
 31
0.0
  0
LINE
  5
4166
330
3A92
100
AcDbEntity
  8
寸法線
 62
     0
370
    -2
100
AcDbLine
 10
677.5246368337055
 20
-177.9190081577358
 30
0.0
 11
662.8766280711634
 21
-177.9190081577358
 31
0.0
  0
LINE
  5
4167
330
3A92
100
AcDbEntity
  8
寸法線
 62
     0
370
    -2
100
AcDbLine
 10
665.8766280711634
 20
-185.9190081577357
 30
0.0
 11
665.8766280711634
 21
-188.9190081577357
 31
0.0
  0
LINE
  5
4168
330
3A92
100
AcDbEntity
  8
寸法線
 62
     0
370
    -2
100
AcDbLine
 10
665.8766280711634
 20
-174.9190081577357
 30
0.0
 11
665.8766280711634
 21
-161.9632367917957
 31
0.0
  0
LINE
  5
4169
330
3A92
100
AcDbEntity
  8
寸法線
 62
     0
370
    -2
100
AcDbLine
 10
665.8766280711634
 20
-182.9190081577357
 30
0.0
 11
665.8766280711634
 21
-177.9190081577358
 31
0.0
  0
INSERT
  5
416A
330
3A92
100
AcDbEntity
  8
寸法線
 62
     0
370
    -2
100
AcDbBlockReference
  2
_Closed
 10
665.8766280711634
 20
-182.9190081577357
 30
0.0
 41
3.0
 42
3.0
 43
3.0
 50
90.0
  0
INSERT
  5
416B
330
3A92
100
AcDbEntity
  8
寸法線
 62
     0
370
    -2
100
AcDbBlockReference
  2
_Closed
 10
665.8766280711634
 20
-177.9190081577358
 30
0.0
 41
3.0
 42
3.0
 43
3.0
 50
270.0
  0
MTEXT
  5
416C
330
3A92
100
AcDbEntity
  8
寸法線
 62
     0
100
AcDbMText
 10
662.3766280711634
 20
-166.9411224747656
 30
0.0
 40
5.0
 41
0.0
 71
     5
 72
     1
  1
5.5
  7
OKANO
 11
0.0000000000000001
 21
1.0
 31
0.0
 73
     1
 44
1.0
  0
POINT
  5
416D
330
3A92
100
AcDbEntity
  8
Defpoints
 62
     0
100
AcDbPoint
 10
674.5246368337054
 20
-182.9190081577357
 30
0.0
  0
POINT
  5
416E
330
3A92
100
AcDbEntity
  8
Defpoints
 62
     0
100
AcDbPoint
 10
679.5246368337054
 20
-177.9190081577358
 30
0.0
  0
POINT
  5
416F
330
3A92
100
AcDbEntity
  8
Defpoints
 62
     0
100
AcDbPoint
 10
665.8766280711634
 20
-177.9190081577358
 30
0.0
  0
ENDBLK
  5
3A9F
330
3A92
100
AcDbEntity
  8
0
100
AcDbBlockEnd
  0
BLOCK
  5
3AB7
330
3AAD
100
AcDbEntity
  8
0
100
AcDbBlockBegin
  2
*D31
 70
     1
 10
0.0
 20
0.0
 30
0.0
  3
*D31
  1

  0
LINE
  5
415C
330
3AAD
100
AcDbEntity
  8
寸法線
 62
     0
370
    -2
100
AcDbLine
 10
674.5246368337054
 20
-184.9190081577357
 30
0.0
 11
674.5246368337054
 21
-197.8534065938765
 31
0.0
  0
LINE
  5
415D
330
3AAD
100
AcDbEntity
  8
寸法線
 62
     0
370
    -2
100
AcDbLine
 10
794.5246368337055
 20
-184.9190081577356
 30
0.0
 11
794.5246368337055
 21
-197.8534065938765
 31
0.0
  0
LINE
  5
415E
330
3AAD
100
AcDbEntity
  8
寸法線
 62
     0
370
    -2
100
AcDbLine
 10
677.5246368337055
 20
-194.8534065938765
 30
0.0
 11
791.5246368337054
 21
-194.8534065938765
 31
0.0
  0
INSERT
  5
415F
330
3AAD
100
AcDbEntity
  8
寸法線
 62
     0
370
    -2
100
AcDbBlockReference
  2
_Closed
 10
674.5246368337054
 20
-194.8534065938765
 30
0.0
 41
3.0
 42
3.0
 43
3.0
 50
180.0
  0
INSERT
  5
4160
330
3AAD
100
AcDbEntity
  8
寸法線
 62
     0
370
    -2
100
AcDbBlockReference
  2
_Closed
 10
794.5246368337055
 20
-194.8534065938765
 30
0.0
 41
3.0
 42
3.0
 43
3.0
  0
MTEXT
  5
4161
330
3AAD
100
AcDbEntity
  8
寸法線
 62
     0
100
AcDbMText
 10
734.5246368337054
 20
-191.3534065938765
 30
0.0
 40
5.0
 41
0.0
 71
     5
 72
     1
  1
160
  7
OKANO
 73
     1
 44
1.0
  0
POINT
  5
4162
330
3AAD
100
AcDbEntity
  8
Defpoints
 62
     0
100
AcDbPoint
 10
674.5246368337054
 20
-182.9190081577357
 30
0.0
  0
POINT
  5
4163
330
3AAD
100
AcDbEntity
  8
Defpoints
 62
     0
100
AcDbPoint
 10
794.5246368337055
 20
-182.9190081577356
 30
0.0
  0
POINT
  5
4164
330
3AAD
100
AcDbEntity
  8
Defpoints
 62
     0
100
AcDbPoint
 10
794.5246368337055
 20
-194.8534065938765
 30
0.0
  0
ENDBLK
  5
3AB8
330
3AAD
100
AcDbEntity
  8
0
100
AcDbBlockEnd
  0
BLOCK
  5
3BCB
330
3BC1
100
AcDbEntity
  8
0
100
AcDbBlockBegin
  2
*D32
 70
     1
 10
0.0
 20
0.0
 30
0.0
  3
*D32
  1

  0
LINE
  5
3CAF
330
3BC1
100
AcDbEntity
  8
寸法線
 62
     0
370
    -2
100
AcDbLine
 10
51.75721205461013
 20
-71.4158363683307
 30
0.0
 11
71.67365302414193
 21
-71.4158363683307
 31
0.0
  0
LINE
  5
3CB0
330
3BC1
100
AcDbEntity
  8
寸法線
 62
     0
370
    -2
100
AcDbLine
 10
51.75721205461013
 20
-131.8321743242804
 30
0.0
 11
71.67365302414191
 21
-131.8321743242804
 31
0.0
  0
LINE
  5
3CB1
330
3BC1
100
AcDbEntity
  8
寸法線
 62
     0
370
    -2
100
AcDbLine
 10
68.67365302414192
 20
-74.4158363683307
 30
0.0
 11
68.67365302414191
 21
-128.8321743242804
 31
0.0
  0
INSERT
  5
3CB2
330
3BC1
100
AcDbEntity
  8
寸法線
 62
     0
370
    -2
100
AcDbBlockReference
  2
_Closed
 10
68.67365302414192
 20
-71.4158363683307
 30
0.0
 41
3.0
 42
3.0
 43
3.0
 50
90.0
  0
INSERT
  5
3CB3
330
3BC1
100
AcDbEntity
  8
寸法線
 62
     0
370
    -2
100
AcDbBlockReference
  2
_Closed
 10
68.67365302414191
 20
-131.8321743242804
 30
0.0
 41
3.0
 42
3.0
 43
3.0
 50
270.0
  0
MTEXT
  5
3CB4
330
3BC1
100
AcDbEntity
  8
寸法線
 62
     0
100
AcDbMText
 10
65.17365302414194
 20
-101.6240053463055
 30
0.0
 40
5.0
 41
0.0
 71
     5
 72
     1
  1
85
  7
OKANO
 11
0.0000000000000001
 21
1.0
 31
0.0
 73
     1
 44
1.0
  0
POINT
  5
3CB5
330
3BC1
100
AcDbEntity
  8
Defpoints
 62
     0
100
AcDbPoint
 10
49.75721205461013
 20
-71.4158363683307
 30
0.0
  0
POINT
  5
3CB6
330
3BC1
100
AcDbEntity
  8
Defpoints
 62
     0
100
AcDbPoint
 10
49.75721205461013
 20
-131.8321743242804
 30
0.0
  0
POINT
  5
3CB7
330
3BC1
100
AcDbEntity
  8
Defpoints
 62
     0
100
AcDbPoint
 10
68.67365302414191
 20
-131.8321743242804
 30
0.0
  0
ENDBLK
  5
3BCC
330
3BC1
100
AcDbEntity
  8
0
100
AcDbBlockEnd
  0
BLOCK
  5
3C2F
330
3C25
100
AcDbEntity
  8
0
100
AcDbBlockBegin
  2
*D33
 70
     1
 10
0.0
 20
0.0
 30
0.0
  3
*D33
  1

  0
LINE
  5
42F1
330
3C25
100
AcDbEntity
  8
寸法線
 62
     0
370
    -2
100
AcDbLine
 10
171.5922258477567
 20
-71.4158363683307
 30
0.0
 11
199.1757604225565
 21
-71.4158363683307
 31
0.0
  0
LINE
  5
42F2
330
3C25
100
AcDbEntity
  8
寸法線
 62
     0
370
    -2
100
AcDbLine
 10
171.5922258477567
 20
-182.8735642879613
 30
0.0
 11
199.1757604225565
 21
-182.8735642879614
 31
0.0
  0
LINE
  5
42F3
330
3C25
100
AcDbEntity
  8
寸法線
 62
     0
370
    -2
100
AcDbLine
 10
196.1757604225565
 20
-74.4158363683307
 30
0.0
 11
196.1757604225565
 21
-179.8735642879614
 31
0.0
  0
INSERT
  5
42F4
330
3C25
100
AcDbEntity
  8
寸法線
 62
     0
370
    -2
100
AcDbBlockReference
  2
_Closed
 10
196.1757604225565
 20
-71.4158363683307
 30
0.0
 41
3.0
 42
3.0
 43
3.0
 50
90.0
  0
INSERT
  5
42F5
330
3C25
100
AcDbEntity
  8
寸法線
 62
     0
370
    -2
100
AcDbBlockReference
  2
_Closed
 10
196.1757604225565
 20
-182.8735642879614
 30
0.0
 41
3.0
 42
3.0
 43
3.0
 50
270.0
  0
MTEXT
  5
42F6
330
3C25
100
AcDbEntity
  8
寸法線
 62
     0
100
AcDbMText
 10
192.6757604225565
 20
-127.144700328146
 30
0.0
 40
5.0
 41
0.0
 71
     5
 72
     1
  1
135
  7
OKANO
 11
0.0000000000000001
 21
1.0
 31
0.0
 73
     1
 44
1.0
  0
POINT
  5
42F7
330
3C25
100
AcDbEntity
  8
Defpoints
 62
     0
100
AcDbPoint
 10
169.5922258477567
 20
-71.4158363683307
 30
0.0
  0
POINT
  5
42F8
330
3C25
100
AcDbEntity
  8
Defpoints
 62
     0
100
AcDbPoint
 10
169.5922258477567
 20
-182.8735642879613
 30
0.0
  0
POINT
  5
42F9
330
3C25
100
AcDbEntity
  8
Defpoints
 62
     0
100
AcDbPoint
 10
196.1757604225565
 20
-182.8735642879614
 30
0.0
  0
ENDBLK
  5
3C30
330
3C25
100
AcDbEntity
  8
0
100
AcDbBlockEnd
  0
BLOCK
  5
41D2
330
41C8
100
AcDbEntity
  8
0
100
AcDbBlockBegin
  2
*D34
 70
     1
 10
0.0
 20
0.0
 30
0.0
  3
*D34
  1

  0
LINE
  5
42E8
330
41C8
100
AcDbEntity
  8
寸法線
 62
     0
370
    -2
100
AcDbLine
 10
403.9746009175724
 20
-27.83016101258908
 30
0.0
 11
399.8481248107792
 21
-27.83016101258908
 31
0.0
  0
LINE
  5
42E9
330
41C8
100
AcDbEntity
  8
寸法線
 62
     0
370
    -2
100
AcDbLine
 10
403.9746009175724
 20
-199.6492746486283
 30
0.0
 11
399.8481248107791
 21
-199.6492746486283
 31
0.0
  0
LINE
  5
42EA
330
41C8
100
AcDbEntity
  8
寸法線
 62
     0
370
    -2
100
AcDbLine
 10
402.8481248107792
 20
-30.83016101258909
 30
0.0
 11
402.8481248107791
 21
-196.6492746486283
 31
0.0
  0
INSERT
  5
42EB
330
41C8
100
AcDbEntity
  8
寸法線
 62
     0
370
    -2
100
AcDbBlockReference
  2
_Closed
 10
402.8481248107792
 20
-27.83016101258908
 30
0.0
 41
3.0
 42
3.0
 43
3.0
 50
90.0
  0
INSERT
  5
42EC
330
41C8
100
AcDbEntity
  8
寸法線
 62
     0
370
    -2
100
AcDbBlockReference
  2
_Closed
 10
402.8481248107791
 20
-199.6492746486283
 30
0.0
 41
3.0
 42
3.0
 43
3.0
 50
270.0
  0
MTEXT
  5
42ED
330
41C8
100
AcDbEntity
  8
寸法線
 62
     0
100
AcDbMText
 10
399.3476326847949
 20
-113.7397178306086
 30
0.0
 40
5.0
 41
0.0
 71
     5
 72
     1
  1
210
  7
OKANO
 11
0.0000000000000001
 21
1.0
 31
0.0
 73
     1
 44
1.0
  0
POINT
  5
42EE
330
41C8
100
AcDbEntity
  8
Defpoints
 62
     0
100
AcDbPoint
 10
405.9746009175723
 20
-27.83016101258908
 30
0.0
  0
POINT
  5
42EF
330
41C8
100
AcDbEntity
  8
Defpoints
 62
     0
100
AcDbPoint
 10
405.9746009175723
 20
-199.6492746486283
 30
0.0
  0
POINT
  5
42F0
330
41C8
100
AcDbEntity
  8
Defpoints
 62
     0
100
AcDbPoint
 10
402.8481248107791
 20
-199.6492746486283
 30
0.0
  0
ENDBLK
  5
41D3
330
41C8
100
AcDbEntity
  8
0
100
AcDbBlockEnd
  0
BLOCK
  5
41DB
330
41D5
100
AcDbEntity
  8
0
100
AcDbBlockBegin
  2
*D35
 70
     1
 10
0.0
 20
0.0
 30
0.0
  3
*D35
  1

  0
LINE
  5
424D
330
41D5
100
AcDbEntity
  8
寸法線
 62
     0
370
    -2
100
AcDbLine
 10
231.0095444427935
 20
-186.0901882284882
 30
0.0
 11
354.6432316746858
 21
-91.41729216709725
 31
0.0
  0
MTEXT
  5
424E
330
41D5
100
AcDbEntity
  8
寸法線
 62
     0
100
AcDbMText
 10
232.9327554712277
 20
-180.209180683762
 30
0.0
 40
5.0
 41
0.0
 71
     5
 72
     1
  1
150
  7
OKANO
 11
0.7939564080996849
 21
0.6079746886486697
 31
0.0
 73
     1
 44
1.0
  0
INSERT
  5
424F
330
41D5
100
AcDbEntity
  8
寸法線
 62
     0
370
    -2
100
AcDbBlockReference
  2
_Closed
 10
357.0251008989848
 20
-89.59336810115123
 30
0.0
 41
3.0
 42
3.0
 43
3.0
 50
37.44320339989346
  0
POINT
  5
4250
330
41D5
100
AcDbEntity
  8
Defpoints
 62
     0
100
AcDbPoint
 10
357.0251008989848
 20
-89.59336810115123
 30
0.0
  0
POINT
  5
4251
330
41D5
100
AcDbEntity
  8
Defpoints
 62
     0
100
AcDbPoint
 10
246.9827427363685
 20
-173.8586599478568
 30
0.0
  0
ENDBLK
  5
41DC
330
41D5
100
AcDbEntity
  8
0
100
AcDbBlockEnd
  0
BLOCK
  5
41ED
330
41E7
100
AcDbEntity
  8
0
100
AcDbBlockBegin
  2
*D36
 70
     1
 10
0.0
 20
0.0
 30
0.0
  3
*D36
  1

  0
LINE
  5
4252
330
41E7
100
AcDbEntity
  8
寸法線
 62
     0
370
    -2
100
AcDbLine
 10
80.92637845698657
 20
-179.8259757483426
 30
0.0
 11
168.0296794572638
 21
-113.677913232155
 31
0.0
  0
MTEXT
  5
4253
330
41E7
100
AcDbEntity
  8
寸法線
 62
     0
100
AcDbMText
 10
82.87312124184362
 20
-173.9527157565984
 30
0.0
 40
5.0
 41
0.0
 71
     5
 72
     1
  1
100
  7
OKANO
 11
0.7963843351079735
 21
0.6047908653366311
 31
0.0
 73
     1
 44
1.0
  0
INSERT
  5
4254
330
41E7
100
AcDbEntity
  8
寸法線
 62
     0
370
    -2
100
AcDbBlockReference
  2
_Closed
 10
170.4188324625877
 20
-111.8635406361451
 30
0.0
 41
3.0
 42
3.0
 43
3.0
 50
37.21379420495465
  0
POINT
  5
4255
330
41E7
100
AcDbEntity
  8
Defpoints
 62
     0
100
AcDbPoint
 10
170.4188324625877
 20
-111.8635406361451
 30
0.0
  0
POINT
  5
4256
330
41E7
100
AcDbEntity
  8
Defpoints
 62
     0
100
AcDbPoint
 10
99.64339757928946
 20
-165.6118812559327
 30
0.0
  0
ENDBLK
  5
41EE
330
41E7
100
AcDbEntity
  8
0
100
AcDbBlockEnd
  0
BLOCK
  5
41FF
330
41F9
100
AcDbEntity
  8
0
100
AcDbBlockBegin
  2
*D37
 70
     1
 10
0.0
 20
0.0
 30
0.0
  3
*D37
  1

  0
LINE
  5
4257
330
41F9
100
AcDbEntity
  8
寸法線
 62
     0
370
    -2
100
AcDbLine
 10
-20.62474790053303
 20
-124.2097409489132
 30
0.0
 11
33.75075840321091
 21
-97.4213390890137
 31
0.0
  0
MTEXT
  5
4258
330
41F9
100
AcDbEntity
  8
寸法線
 62
     0
100
AcDbMText
 10
-18.37890941394464
 20
-119.201624851974
 30
0.0
 40
5.0
 41
0.0
 71
     5
 72
     1
  1
65
  7
OKANO
 11
0.8970469430967973
 21
0.4419352688807394
 31
0.0
 73
     1
 44
1.0
  0
INSERT
  5
4259
330
41F9
100
AcDbEntity
  8
寸法線
 62
     0
370
    -2
100
AcDbBlockReference
  2
_Closed
 10
36.4418992325013
 20
-96.09553328237147
 30
0.0
 41
3.0
 42
3.0
 43
3.0
 50
26.22742423924126
  0
POINT
  5
425A
330
41F9
100
AcDbEntity
  8
Defpoints
 62
     0
100
AcDbPoint
 10
36.4418992325013
 20
-96.09553328237147
 30
0.0
  0
POINT
  5
425B
330
41F9
100
AcDbEntity
  8
Defpoints
 62
     0
100
AcDbPoint
 10
-8.410447922338583
 20
-118.1922967264084
 30
0.0
  0
ENDBLK
  5
4200
330
41F9
100
AcDbEntity
  8
0
100
AcDbBlockEnd
  0
BLOCK
  5
426E
330
4264
100
AcDbEntity
  8
0
100
AcDbBlockBegin
  2
*D38
 70
     1
 10
0.0
 20
0.0
 30
0.0
  3
*D38
  1

  0
LINE
  5
428B
330
4264
100
AcDbEntity
  8
寸法線
 62
     0
370
    -2
100
AcDbLine
 10
226.7859270222745
 20
-28.46439797545474
 30
0.0
 11
261.5966577703388
 21
-28.46439797545475
 31
0.0
  0
LINE
  5
428C
330
4264
100
AcDbEntity
  8
寸法線
 62
     0
370
    -2
100
AcDbLine
 10
226.7859270222745
 20
31.53560202454525
 30
0.0
 11
261.5966577703388
 21
31.53560202454524
 31
0.0
  0
LINE
  5
428D
330
4264
100
AcDbEntity
  8
寸法線
 62
     0
370
    -2
100
AcDbLine
 10
258.5966577703388
 20
-25.46439797545475
 30
0.0
 11
258.5966577703388
 21
28.53560202454524
 31
0.0
  0
INSERT
  5
428E
330
4264
100
AcDbEntity
  8
寸法線
 62
     0
370
    -2
100
AcDbBlockReference
  2
_Closed
 10
258.5966577703388
 20
-28.46439797545475
 30
0.0
 41
3.0
 42
3.0
 43
3.0
 50
270.0
  0
INSERT
  5
428F
330
4264
100
AcDbEntity
  8
寸法線
 62
     0
370
    -2
100
AcDbBlockReference
  2
_Closed
 10
258.5966577703388
 20
31.53560202454524
 30
0.0
 41
3.0
 42
3.0
 43
3.0
 50
90.0
  0
MTEXT
  5
4290
330
4264
100
AcDbEntity
  8
寸法線
 62
     0
100
AcDbMText
 10
255.0966577703388
 20
1.535602024545286
 30
0.0
 40
5.0
 41
0.0
 71
     5
 72
     1
  1
58
  7
OKANO
 11
0.0000000000000001
 21
1.0
 31
0.0
 73
     1
 44
1.0
  0
POINT
  5
4291
330
4264
100
AcDbEntity
  8
Defpoints
 62
     0
100
AcDbPoint
 10
224.7859270222745
 20
-28.46439797545474
 30
0.0
  0
POINT
  5
4292
330
4264
100
AcDbEntity
  8
Defpoints
 62
     0
100
AcDbPoint
 10
224.7859270222745
 20
31.53560202454525
 30
0.0
  0
POINT
  5
4293
330
4264
100
AcDbEntity
  8
Defpoints
 62
     0
100
AcDbPoint
 10
258.5966577703388
 20
31.53560202454524
 30
0.0
  0
ENDBLK
  5
426F
330
4264
100
AcDbEntity
  8
0
100
AcDbBlockEnd
  0
BLOCK
  5
42B0
330
42A6
100
AcDbEntity
  8
0
100
AcDbBlockBegin
  2
*D39
 70
     1
 10
0.0
 20
0.0
 30
0.0
  3
*D39
  1

  0
LINE
  5
42B2
330
42A6
100
AcDbEntity
  8
寸法線
 62
     0
370
    -2
100
AcDbLine
 10
439.3659410809911
 20
-183.4603679898747
 30
0.0
 11
434.1755019775441
 21
-183.4603679898747
 31
0.0
  0
LINE
  5
42B3
330
42A6
100
AcDbEntity
  8
寸法線
 62
     0
370
    -2
100
AcDbLine
 10
458.8557186505851
 20
-151.3667175018963
 30
0.0
 11
434.1755019775441
 21
-151.3667175018963
 31
0.0
  0
LINE
  5
42B4
330
42A6
100
AcDbEntity
  8
寸法線
 62
     0
370
    -2
100
AcDbLine
 10
437.1755019775442
 20
-180.4603679898747
 30
0.0
 11
437.1755019775442
 21
-154.3667175018963
 31
0.0
  0
INSERT
  5
42B5
330
42A6
100
AcDbEntity
  8
寸法線
 62
     0
370
    -2
100
AcDbBlockReference
  2
_Closed
 10
437.1755019775442
 20
-183.4603679898747
 30
0.0
 41
3.0
 42
3.0
 43
3.0
 50
270.0
  0
INSERT
  5
42B6
330
42A6
100
AcDbEntity
  8
寸法線
 62
     0
370
    -2
100
AcDbBlockReference
  2
_Closed
 10
437.1755019775442
 20
-151.3667175018963
 30
0.0
 41
3.0
 42
3.0
 43
3.0
 50
90.0
  0
MTEXT
  5
42B7
330
42A6
100
AcDbEntity
  8
寸法線
 62
     0
100
AcDbMText
 10
433.6755019775442
 20
-167.4135427458854
 30
0.0
 40
5.0
 41
0.0
 71
     5
 72
     1
  1
40
  7
OKANO
 11
0.0000000000000001
 21
1.0
 31
0.0
 73
     1
 44
1.0
  0
POINT
  5
42B8
330
42A6
100
AcDbEntity
  8
Defpoints
 62
     0
100
AcDbPoint
 10
441.3659410809912
 20
-183.4603679898747
 30
0.0
  0
POINT
  5
42B9
330
42A6
100
AcDbEntity
  8
Defpoints
 62
     0
100
AcDbPoint
 10
460.855718650585
 20
-151.3667175018963
 30
0.0
  0
POINT
  5
42BA
330
42A6
100
AcDbEntity
  8
Defpoints
 62
     0
100
AcDbPoint
 10
437.1755019775442
 20
-151.3667175018963
 30
0.0
  0
ENDBLK
  5
42B1
330
42A6
100
AcDbEntity
  8
0
100
AcDbBlockEnd
  0
BLOCK
  5
42D4
330
42CA
100
AcDbEntity
  8
0
100
AcDbBlockBegin
  2
*D40
 70
     1
 10
0.0
 20
0.0
 30
0.0
  3
*D40
  1

  0
LINE
  5
42D6
330
42CA
100
AcDbEntity
  8
寸法線
 62
     0
370
    -2
100
AcDbLine
 10
699.1749957161771
 20
-182.9190081577357
 30
0.0
 11
693.857053323984
 21
-182.9190081577357
 31
0.0
  0
LINE
  5
42D7
330
42CA
100
AcDbEntity
  8
寸法線
 62
     0
370
    -2
100
AcDbLine
 10
717.5246368337054
 20
-132.4291716019319
 30
0.0
 11
693.857053323984
 21
-132.4291716019319
 31
0.0
  0
LINE
  5
42D8
330
42CA
100
AcDbEntity
  8
寸法線
 62
     0
370
    -2
100
AcDbLine
 10
696.857053323984
 20
-179.9190081577357
 30
0.0
 11
696.857053323984
 21
-135.4291716019319
 31
0.0
  0
INSERT
  5
42D9
330
42CA
100
AcDbEntity
  8
寸法線
 62
     0
370
    -2
100
AcDbBlockReference
  2
_Closed
 10
696.857053323984
 20
-182.9190081577357
 30
0.0
 41
3.0
 42
3.0
 43
3.0
 50
270.0
  0
INSERT
  5
42DA
330
42CA
100
AcDbEntity
  8
寸法線
 62
     0
370
    -2
100
AcDbBlockReference
  2
_Closed
 10
696.857053323984
 20
-132.4291716019319
 30
0.0
 41
3.0
 42
3.0
 43
3.0
 50
90.0
  0
MTEXT
  5
42DB
330
42CA
100
AcDbEntity
  8
寸法線
 62
     0
100
AcDbMText
 10
693.357053323984
 20
-157.6740898798337
 30
0.0
 40
5.0
 41
0.0
 71
     5
 72
     1
  1
60
  7
OKANO
 11
0.0000000000000001
 21
1.0
 31
0.0
 73
     1
 44
1.0
  0
POINT
  5
42DC
330
42CA
100
AcDbEntity
  8
Defpoints
 62
     0
100
AcDbPoint
 10
701.1749957161771
 20
-182.9190081577357
 30
0.0
  0
POINT
  5
42DD
330
42CA
100
AcDbEntity
  8
Defpoints
 62
     0
100
AcDbPoint
 10
719.5246368337055
 20
-132.4291716019319
 30
0.0
  0
POINT
  5
42DE
330
42CA
100
AcDbEntity
  8
Defpoints
 62
     0
100
AcDbPoint
 10
696.857053323984
 20
-132.4291716019319
 30
0.0
  0
ENDBLK
  5
42D5
330
42CA
100
AcDbEntity
  8
0
100
AcDbBlockEnd
  0
BLOCK
  5
4336
330
432D
100
AcDbEntity
  8
0
100
AcDbBlockBegin
  2
*D41
 70
     1
 10
0.0
 20
0.0
 30
0.0
  3
*D41
  1

  0
LINE
  5
434E
330
432D
100
AcDbEntity
  8
寸法線
 62
     0
370
    -2
100
AcDbLine
 10
520.4898366220966
 20
187.2518380941221
 30
0.0
 11
504.7745186323478
 21
191.1546877922794
 31
0.0
  0
LINE
  5
434F
330
432D
100
AcDbEntity
  8
寸法線
 62
     0
370
    -2
100
AcDbLine
 10
441.6907944060313
 20
206.8213319044709
 30
0.0
 11
439.2644973204038
 21
207.4238951395552
 31
0.0
  0
MTEXT
  5
4350
330
432D
100
AcDbEntity
  8
寸法線
 62
     0
370
    25
100
AcDbMText
 10
517.3023134199685
 20
189.9754057609692
 30
0.0
 40
2.5
 41
0.0
 71
     5
 72
     1
  1
\U+220560
 11
0.9705188342510213
 21
-0.2410252940337152
 31
0.0
 73
     1
 44
1.0
  0
LINE
  5
4351
330
432D
100
AcDbEntity
  8
寸法線
 62
     0
370
    -2
100
AcDbLine
 10
444.1170914916589
 20
206.2187686693866
 30
0.0
 11
502.3482215467203
 21
191.7572510273637
 31
0.0
  0
SOLID
  5
4352
330
432D
100
AcDbEntity
  8
寸法線
 62
     0
100
AcDbTrace
 10
441.7912216118788
 20
207.2257147520755
 30
0.0
 11
441.590367200184
 21
206.4169490568663
 31
0.0
 12
444.1170914916589
 22
206.2187686693866
 32
0.0
 13
444.1170914916589
 23
206.2187686693866
 33
0.0
  0
SOLID
  5
4353
330
432D
100
AcDbEntity
  8
寸法線
 62
     0
100
AcDbTrace
 10
504.8749458381952
 20
191.559070639884
 30
0.0
 11
504.6740914265004
 21
190.7503049446748
 31
0.0
 12
502.3482215467203
 22
191.7572510273637
 32
0.0
 13
502.3482215467203
 23
191.7572510273637
 33
0.0
  0
POINT
  5
4354
330
432D
100
AcDbEntity
  8
Defpoints
 62
     0
100
AcDbPoint
 10
502.3482215467203
 20
191.7572510273637
 30
0.0
  0
POINT
  5
4355
330
432D
100
AcDbEntity
  8
Defpoints
 62
     0
100
AcDbPoint
 10
444.1170914916589
 20
206.2187686693866
 30
0.0
  0
ENDBLK
  5
4337
330
432D
100
AcDbEntity
  8
0
100
AcDbBlockEnd
  0
BLOCK
  5
4341
330
4338
100
AcDbEntity
  8
0
100
AcDbBlockBegin
  2
*D42
 70
     1
 10
0.0
 20
0.0
 30
0.0
  3
*D42
  1

  0
LINE
  5
4356
330
4338
100
AcDbEntity
  8
寸法線
 62
     0
370
    -2
100
AcDbLine
 10
517.7493551447106
 20
214.2176081201696
 30
0.0
 11
496.8867233727147
 21
207.0802976144503
 31
0.0
  0
LINE
  5
4357
330
4338
100
AcDbEntity
  8
寸法線
 62
     0
370
    -2
100
AcDbLine
 10
449.5785896656645
 20
190.8957220823
 30
0.0
 11
447.213182980312
 21
190.0864933056925
 31
0.0
  0
MTEXT
  5
4358
330
4338
100
AcDbEntity
  8
寸法線
 62
     0
370
    25
100
AcDbMText
 10
513.3972063104468
 20
214.7103842378888
 30
0.0
 40
2.5
 41
0.0
 71
     5
 72
     1
  1
\U+220545
 11
0.9461626741410007
 21
0.3236915106430043
 31
0.0
 73
     1
 44
1.0
  0
LINE
  5
4359
330
4338
100
AcDbEntity
  8
寸法線
 62
     0
370
    -2
100
AcDbLine
 10
451.943996351017
 20
191.7049508589075
 30
0.0
 11
494.5213166873622
 21
206.2710688378428
 31
0.0
  0
SOLID
  5
435A
330
4338
100
AcDbEntity
  8
寸法線
 62
     0
100
AcDbTrace
 10
449.4437182028966
 20
191.2899565298587
 30
0.0
 11
449.7134611284324
 21
190.5014876347413
 31
0.0
 12
451.943996351017
 22
191.7049508589075
 32
0.0
 13
451.943996351017
 23
191.7049508589075
 33
0.0
  0
SOLID
  5
435B
330
4338
100
AcDbEntity
  8
寸法線
 62
     0
100
AcDbTrace
 10
496.7518519099467
 20
207.474532062009
 30
0.0
 11
497.0215948354826
 21
206.6860631668915
 31
0.0
 12
494.5213166873622
 22
206.2710688378428
 32
0.0
 13
494.5213166873622
 23
206.2710688378428
 33
0.0
  0
POINT
  5
435C
330
4338
100
AcDbEntity
  8
Defpoints
 62
     0
100
AcDbPoint
 10
494.5213166873622
 20
206.2710688378428
 30
0.0
  0
POINT
  5
435D
330
4338
100
AcDbEntity
  8
Defpoints
 62
     0
100
AcDbPoint
 10
451.943996351017
 20
191.7049508589075
 30
0.0
  0
ENDBLK
  5
4342
330
4338
100
AcDbEntity
  8
0
100
AcDbBlockEnd
  0
BLOCK
  5
434C
330
4343
100
AcDbEntity
  8
0
100
AcDbBlockBegin
  2
*D43
 70
     1
 10
0.0
 20
0.0
 30
0.0
  3
*D43
  1

  0
LINE
  5
435E
330
4343
100
AcDbEntity
  8
寸法線
 62
     0
370
    -2
100
AcDbLine
 10
486.4628425338947
 20
214.428431554428
 30
0.0
 11
478.6006418284348
 21
205.2527711143556
 31
0.0
  0
LINE
  5
435F
330
4343
100
AcDbEntity
  8
寸法線
 62
     0
370
    -2
100
AcDbLine
 10
467.8646712099446
 20
192.7232485823948
 30
0.0
 11
466.2380089950219
 21
190.8248360775523
 31
0.0
  0
MTEXT
  5
4360
330
4343
100
AcDbEntity
  8
寸法線
 62
     0
370
    25
100
AcDbMText
 10
481.9212639099943
 20
212.0098042480051
 30
0.0
 40
2.5
 41
0.0
 71
     5
 72
     1
  1
\U+220511.5
 11
0.6506648859691029
 21
0.7593650019370227
 31
0.0
 73
     1
 44
1.0
  0
LINE
  5
4361
330
4343
100
AcDbEntity
  8
寸法線
 62
     0
370
    -2
100
AcDbLine
 10
469.4913334248674
 20
194.6216610872374
 30
0.0
 11
476.973979613512
 21
203.3543586095131
 31
0.0
  0
SOLID
  5
4362
330
4343
100
AcDbEntity
  8
寸法線
 62
     0
100
AcDbTrace
 10
467.5482691258042
 20
192.9943589515486
 30
0.0
 11
468.181073294085
 21
192.452138213241
 31
0.0
 12
469.4913334248674
 22
194.6216610872374
 32
0.0
 13
469.4913334248674
 23
194.6216610872374
 33
0.0
  0
SOLID
  5
4363
330
4343
100
AcDbEntity
  8
寸法線
 62
     0
100
AcDbTrace
 10
478.2842397442943
 20
205.5238814835094
 30
0.0
 11
478.9170439125752
 21
204.9816607452018
 31
0.0
 12
476.973979613512
 22
203.3543586095131
 32
0.0
 13
476.973979613512
 23
203.3543586095131
 33
0.0
  0
POINT
  5
4364
330
4343
100
AcDbEntity
  8
Defpoints
 62
     0
100
AcDbPoint
 10
476.973979613512
 20
203.3543586095131
 30
0.0
  0
POINT
  5
4365
330
4343
100
AcDbEntity
  8
Defpoints
 62
     0
100
AcDbPoint
 10
469.4913334248674
 20
194.6216610872374
 30
0.0
  0
ENDBLK
  5
434D
330
4343
100
AcDbEntity
  8
0
100
AcDbBlockEnd
  0
BLOCK
  5
43D6
330
43CD
100
AcDbEntity
  8
0
100
AcDbBlockBegin
  2
*D46
 70
     1
 10
0.0
 20
0.0
 30
0.0
  3
*D46
  1

  0
LINE
  5
43EC
330
43CD
100
AcDbEntity
  8
寸法線
 62
     0
370
    -2
100
AcDbLine
 10
201.19466412182
 20
179.0155884984345
 30
0.0
 11
71.0442036966008
 21
142.579852002045
 31
0.0
  0
LINE
  5
43ED
330
43CD
100
AcDbEntity
  8
寸法線
 62
     0
370
    -2
100
AcDbLine
 10
59.48848810687266
 20
139.3448192032446
 30
0.0
 11
56.59955920944063
 21
138.5360610035445
 31
0.0
  0
MTEXT
  5
43EE
330
43CD
100
AcDbEntity
  8
寸法線
 62
     0
100
AcDbMText
 10
195.9102789958338
 20
181.1707852582163
 30
0.0
 40
5.0
 41
0.0
 71
     5
 72
     1
  1
\U+22056
  7
OKANO
 11
0.9629762991440109
 21
0.2695860665666981
 31
0.0
 73
     1
 44
1.0
  0
LINE
  5
43EF
330
43CD
100
AcDbEntity
  8
寸法線
 62
     0
370
    -2
100
AcDbLine
 10
62.37741700430468
 20
140.1535774029447
 30
0.0
 11
68.15527479916878
 21
141.7710938023449
 31
0.0
  0
INSERT
  5
43F0
330
43CD
100
AcDbEntity
  8
寸法線
 62
     0
370
    -2
100
AcDbBlockReference
  2
_Closed
 10
62.37741700430468
 20
140.1535774029447
 30
0.0
 41
3.0
 42
3.0
 43
3.0
 50
15.63963689252869
  0
INSERT
  5
43F1
330
43CD
100
AcDbEntity
  8
寸法線
 62
     0
370
    -2
100
AcDbBlockReference
  2
_Closed
 10
68.15527479916878
 20
141.7710938023449
 30
0.0
 41
3.0
 42
3.0
 43
3.0
 50
195.6396368925286
  0
POINT
  5
43F2
330
43CD
100
AcDbEntity
  8
Defpoints
 62
     0
100
AcDbPoint
 10
68.15527479916878
 20
141.7710938023449
 30
0.0
  0
POINT
  5
43F3
330
43CD
100
AcDbEntity
  8
Defpoints
 62
     0
100
AcDbPoint
 10
62.37741700430468
 20
140.1535774029447
 30
0.0
  0
ENDBLK
  5
43D7
330
43CD
100
AcDbEntity
  8
0
100
AcDbBlockEnd
  0
BLOCK
  5
43E2
330
43D9
100
AcDbEntity
  8
0
100
AcDbBlockBegin
  2
*D47
 70
     1
 10
0.0
 20
0.0
 30
0.0
  3
*D47
  1

  0
LINE
  5
43DA
330
43D9
100
AcDbEntity
  8
寸法線
 62
     0
370
    -2
100
AcDbLine
 10
188.2651782486425
 20
178.6244101600486
 30
0.0
 11
46.24450662795111
 21
166.473798535366
 31
0.0
  0
LINE
  5
43DB
330
43D9
100
AcDbEntity
  8
寸法線
 62
     0
370
    -2
100
AcDbLine
 10
34.28818517552233
 20
165.4508726699235
 30
0.0
 11
31.29910481241513
 21
165.1951412035629
 31
0.0
  0
MTEXT
  5
43DC
330
43D9
100
AcDbEntity
  8
寸法線
 62
     0
100
AcDbMText
 10
183.4755058357765
 20
181.7274147379614
 30
0.0
 40
5.0
 41
0.0
 71
     5
 72
     1
  1
\U+22056
  7
OKANO
 11
0.9963601210357317
 21
0.0852438221202095
 31
0.0
 73
     1
 44
1.0
  0
LINE
  5
43DD
330
43D9
100
AcDbEntity
  8
寸法線
 62
     0
370
    -2
100
AcDbLine
 10
37.27726553862952
 20
165.7066041362841
 30
0.0
 11
43.25542626484391
 21
166.2180670690054
 31
0.0
  0
INSERT
  5
43DE
330
43D9
100
AcDbEntity
  8
寸法線
 62
     0
370
    -2
100
AcDbBlockReference
  2
_Closed
 10
37.27726553862952
 20
165.7066041362841
 30
0.0
 41
3.0
 42
3.0
 43
3.0
 50
4.890045736211758
  0
INSERT
  5
43DF
330
43D9
100
AcDbEntity
  8
寸法線
 62
     0
370
    -2
100
AcDbBlockReference
  2
_Closed
 10
43.25542626484391
 20
166.2180670690054
 30
0.0
 41
3.0
 42
3.0
 43
3.0
 50
184.8900457362118
  0
POINT
  5
43E0
330
43D9
100
AcDbEntity
  8
Defpoints
 62
     0
100
AcDbPoint
 10
43.25542626484391
 20
166.2180670690054
 30
0.0
  0
POINT
  5
43E1
330
43D9
100
AcDbEntity
  8
Defpoints
 62
     0
100
AcDbPoint
 10
37.27726553862952
 20
165.7066041362841
 30
0.0
  0
ENDBLK
  5
43E3
330
43D9
100
AcDbEntity
  8
0
100
AcDbBlockEnd
  0
ENDSEC
  0
SECTION
  2
ENTITIES
  0
LINE
  5
28E3
330
1F
100
AcDbEntity
  8
太線
100
AcDbLine
 10
70.26634590173671
 20
110.9623356026448
 30
0.0
 11
105.2663459017367
 21
110.9623356026448
 31
0.0
  0
LINE
  5
28FC
330
1F
100
AcDbEntity
  8
想像線
100
AcDbLine
 10
70.26634590173671
 20
115.9623356026448
 30
0.0
 11
70.26634590173671
 21
165.9623356026448
 31
0.0
  0
LINE
  5
290E
330
1F
100
AcDbEntity
  8
太線
100
AcDbLine
 10
105.2663459017367
 20
-28.46439797545474
 30
0.0
 11
40.26634590173671
 21
-28.46439797545474
 31
0.0
  0
LINE
  5
2912
330
1F
100
AcDbEntity
  8
想像線
100
AcDbLine
 10
105.2663459017367
 20
26.53560202454525
 30
0.0
 11
70.85612264573706
 21
26.53560202454525
 31
0.0
  0
LINE
  5
2913
330
1F
100
AcDbEntity
  8
想像線
100
AcDbLine
 10
70.85612264573706
 20
26.53560202454525
 30
0.0
 11
70.26634590173671
 21
-23.46439797545474
 31
0.0
  0
LINE
  5
2914
330
1F
100
AcDbEntity
  8
想像線
100
AcDbLine
 10
70.26634590173671
 20
-23.46439797545474
 30
0.0
 11
105.2663459017367
 21
-23.46439797545474
 31
0.0
  0
CIRCLE
  5
29D7
330
1F
100
AcDbEntity
  8
太線
100
AcDbCircle
 10
40.26634590173671
 20
1.535602024545255
 30
0.0
 40
30.0
  0
CIRCLE
  5
29D8
330
1F
100
AcDbEntity
  8
太線
100
AcDbCircle
 10
40.26634590173671
 20
1.535602024545255
 30
0.0
 40
25.0
  0
LINE
  5
29E6
330
1F
100
AcDbEntity
  8
太線
100
AcDbLine
 10
10.35026611863708
 20
66.53560202454525
 30
0.0
 11
10.68594698623863
 21
6.535602024545255
 31
0.0
  0
LINE
  5
29E7
330
1F
100
AcDbEntity
  8
想像線
100
AcDbLine
 10
15.26634590173671
 20
66.53560202454525
 30
0.0
 11
15.26634590173671
 21
31.53560202454525
 31
0.0
  0
LINE
  5
29E8
330
1F
100
AcDbEntity
  8
想像線
100
AcDbLine
 10
15.26634590173671
 20
31.53560202454525
 30
0.0
 11
65.26634590173671
 21
31.53560202454525
 31
0.0
  0
LINE
  5
29E9
330
1F
100
AcDbEntity
  8
想像線
100
AcDbLine
 10
65.26634590173671
 20
31.53560202454525
 30
0.0
 11
65.26634590173671
 21
66.53560202454525
 31
0.0
  0
LINE
  5
29EC
330
1F
100
AcDbEntity
  8
太線
100
AcDbLine
 10
70.26634590173671
 20
31.53560202454525
 30
0.0
 11
105.2663459017367
 21
31.53560202454525
 31
0.0
  0
LINE
  5
2A6B
330
1F
100
AcDbEntity
  8
太線
100
AcDbLine
 10
70.26634590173671
 20
143.4141672205094
 30
0.0
 11
95.26634590173671
 21
143.4623356026448
 31
0.0
  0
LINE
  5
2A6C
330
1F
100
AcDbEntity
  8
太線
100
AcDbLine
 10
95.26634590173671
 20
143.4623356026448
 30
0.0
 11
95.26634590173671
 21
138.5105039847801
 31
0.0
  0
LINE
  5
2A6D
330
1F
100
AcDbEntity
  8
太線
100
AcDbLine
 10
95.26634590173671
 20
138.5105039847801
 30
0.0
 11
70.26634590173671
 21
138.4623356026448
 31
0.0
  0
LINE
  5
2A6E
330
1F
100
AcDbEntity
  8
太線
100
AcDbLine
 10
70.85612264573706
 20
56.53560202454525
 30
0.0
 11
95.26634590173671
 21
31.53560202454525
 31
0.0
  0
LINE
  5
2A6F
330
1F
100
AcDbEntity
  8
太線
100
AcDbLine
 10
37.76634590173671
 20
31.53560202454525
 30
0.0
 11
37.76634590173671
 21
56.53560202454525
 31
0.0
  0
LINE
  5
2A70
330
1F
100
AcDbEntity
  8
太線
100
AcDbLine
 10
37.76634590173671
 20
56.53560202454525
 30
0.0
 11
42.76634590173671
 21
56.53560202454525
 31
0.0
  0
LINE
  5
2A71
330
1F
100
AcDbEntity
  8
太線
100
AcDbLine
 10
42.76634590173671
 20
56.53560202454525
 30
0.0
 11
42.76634590173671
 21
31.53560202454525
 31
0.0
  0
LINE
  5
2A72
330
1F
100
AcDbEntity
  8
太線
100
AcDbLine
 10
70.16199775949022
 20
4.035602024545255
 30
0.0
 11
95.26634590173671
 21
4.035602024545255
 31
0.0
  0
LINE
  5
2A73
330
1F
100
AcDbEntity
  8
太線
100
AcDbLine
 10
95.26634590173671
 20
4.035602024545255
 30
0.0
 11
95.26634590173671
 21
-0.9643979754547444
 31
0.0
  0
LINE
  5
2A74
330
1F
100
AcDbEntity
  8
太線
100
AcDbLine
 10
95.26634590173671
 20
-0.9643979754547444
 30
0.0
 11
70.85612264573706
 21
-0.9643979754547444
 31
0.0
  0
CIRCLE
  5
2A77
330
1F
100
AcDbEntity
  8
太線
100
AcDbCircle
 10
75.7095955227162
 20
36.27940199577165
 30
0.0
 40
3.0
  0
LINE
  5
2A7B
330
1F
100
AcDbEntity
  8
破線
100
AcDbLine
 10
78.49306385225782
 20
-0.9643979754547444
 30
0.0
 11
78.49306385225782
 21
4.035602024545255
 31
0.0
  0
LINE
  5
2A7C
330
1F
100
AcDbEntity
  8
破線
100
AcDbLine
 10
37.76634590173671
 20
39.26612591642561
 30
0.0
 11
42.76634590173671
 21
39.26612591642561
 31
0.0
  0
LINE
  5
2A7E
330
1F
100
AcDbEntity
  8
破線
100
AcDbLine
 10
77.99823750704627
 20
143.4257276322219
 30
0.0
 11
77.99823750704627
 21
138.5105039847801
 31
0.0
  0
LINE
  5
2ABB
330
1F
100
AcDbEntity
  8
破線
100
AcDbLine
 10
72.06032377623069
 20
143.4257276322219
 30
0.0
 11
72.06032377623069
 21
138.5105039847801
 31
0.0
  0
LINE
  5
2ABD
330
1F
100
AcDbEntity
  8
破線
100
AcDbLine
 10
72.06032377623069
 20
-0.9643979754547444
 30
0.0
 11
72.06032377623069
 21
4.035602024545255
 31
0.0
  0
LINE
  5
2ABE
330
1F
100
AcDbEntity
  8
破線
100
AcDbLine
 10
37.76634590173671
 20
33.08568433089613
 30
0.0
 11
42.76634590173671
 21
33.08568433089613
 31
0.0
  0
CIRCLE
  5
2AC8
330
1F
100
AcDbEntity
  8
細線
100
AcDbCircle
 10
40.26634590173671
 20
1.535602024545255
 30
0.0
 40
24.03857690457265
  0
LINE
  5
2AD2
330
1F
100
AcDbEntity
  8
太線
100
AcDbLine
 10
10.35026611863708
 20
66.53560202454525
 30
0.0
 11
70.26634590173671
 21
66.53560202454525
 31
0.0
  0
LINE
  5
2AD3
330
1F
100
AcDbEntity
  8
太線
100
AcDbLine
 10
105.2663459017367
 20
31.53560202454525
 30
0.0
 11
105.2663459017367
 21
-28.46439797545474
 31
0.0
  0
LINE
  5
2AD6
330
1F
100
AcDbEntity
  8
太線
100
AcDbLine
 10
70.26634590173671
 20
66.53560202454525
 30
0.0
 11
70.26634590173671
 21
31.53560202454525
 31
0.0
  0
LINE
  5
2C20
330
1F
100
AcDbEntity
  8
想像線
100
AcDbLine
 10
40.26634590173671
 20
-22.50297488002741
 30
0.0
 11
70.26634590173671
 21
-22.50297488002741
 31
0.0
  0
LINE
  5
2C21
330
1F
100
AcDbEntity
  8
想像線
100
AcDbLine
 10
40.26634590173671
 20
25.57417892911792
 30
0.0
 11
70.84478214608049
 21
25.57417892911792
 31
0.0
  0
LINE
  5
2C22
330
1F
100
AcDbEntity
  8
想像線
100
AcDbLine
 10
64.30492280630938
 20
31.53560202454525
 30
0.0
 11
64.30492280630938
 21
1.535602024545255
 31
0.0
  0
LINE
  5
2C23
330
1F
100
AcDbEntity
  8
想像線
100
AcDbLine
 10
16.22776899716404
 20
31.53560202454525
 30
0.0
 11
16.22776899716404
 21
1.535602024545255
 31
0.0
  0
LINE
  5
2E2B
330
1F
100
AcDbEntity
  8
太線
100
AcDbLine
 10
105.2663459017367
 20
110.9623356026448
 30
0.0
 11
105.2663459017367
 21
170.9623356026448
 31
0.0
  0
LINE
  5
2E2D
330
1F
100
AcDbEntity
  8
想像線
100
AcDbLine
 10
70.26634590173671
 20
165.9623356026448
 30
0.0
 11
104.9387422622251
 21
165.9623356026448
 31
0.0
  0
LINE
  5
2E2E
330
1F
100
AcDbEntity
  8
想像線
100
AcDbLine
 10
70.26634590173671
 20
115.9623356026448
 30
0.0
 11
105.3177121949704
 21
115.9623356026448
 31
0.0
  0
CIRCLE
  5
2E46
330
1F
100
AcDbEntity
  8
太線
100
AcDbCircle
 10
40.26634590173671
 20
140.9623356026448
 30
0.0
 40
10.0
  0
CIRCLE
  5
2E47
330
1F
100
AcDbEntity
  8
太線
100
AcDbCircle
 10
40.26634590173671
 20
140.9623356026448
 30
0.0
 40
6.0
  0
LINE
  5
2E4C
330
1F
100
AcDbEntity
  8
太線
100
AcDbLine
 10
60.26634590173671
 20
160.9623356026448
 30
0.0
 11
40.26634590173671
 21
160.9623356026448
 31
0.0
  0
LINE
  5
2E4D
330
1F
100
AcDbEntity
  8
太線
100
AcDbLine
 10
40.26634590173671
 20
160.9623356026448
 30
0.0
 11
60.26634590173671
 21
160.9623356026448
 31
0.0
  0
LINE
  5
2E4E
330
1F
100
AcDbEntity
  8
太線
100
AcDbLine
 10
60.26634590173671
 20
160.9623356026448
 30
0.0
 11
60.26634590173671
 21
120.9623356026448
 31
0.0
  0
LINE
  5
2E5A
330
1F
100
AcDbEntity
  8
太線
100
AcDbLine
 10
20.26634590173671
 20
-20.82507775045266
 30
0.0
 11
20.26634590173671
 21
-27.46439797545477
 31
0.0
  0
LINE
  5
2E5B
330
1F
100
AcDbEntity
  8
太線
100
AcDbLine
 10
21.26634590173671
 20
-28.46439797545477
 30
0.0
 11
59.26634590173671
 21
-28.46439797545477
 31
0.0
  0
LINE
  5
2E5C
330
1F
100
AcDbEntity
  8
太線
100
AcDbLine
 10
60.26634590173671
 20
-27.46439797545477
 30
0.0
 11
60.26634590173671
 21
-20.82507775045266
 31
0.0
  0
LINE
  5
2E5D
330
1F
100
AcDbEntity
  8
太線
100
AcDbLine
 10
60.26634590173671
 20
-20.82507775045266
 30
0.0
 11
60.26634590173671
 21
-22.50297488002741
 31
0.0
  0
LINE
  5
2E5E
330
1F
100
AcDbEntity
  8
太線
100
AcDbLine
 10
26.9301852999348
 20
-18.46439797545477
 30
0.0
 11
53.60250650353862
 21
-18.46439797545477
 31
0.0
  0
LINE
  5
2E5F
330
1F
100
AcDbEntity
  8
想像線
100
AcDbLine
 10
30.26634590173671
 20
-18.46439797545477
 30
0.0
 11
30.26634590173671
 21
-28.46439797545477
 31
0.0
  0
LINE
  5
2E60
330
1F
100
AcDbEntity
  8
想像線
100
AcDbLine
 10
34.26634590173671
 20
-18.46439797545477
 30
0.0
 11
34.26634590173671
 21
-27.85827488885288
 31
0.0
  0
LINE
  5
2E61
330
1F
100
AcDbEntity
  8
想像線
100
AcDbLine
 10
40.26634590173671
 20
-18.46439797545477
 30
0.0
 11
40.26634590173671
 21
-28.46439797545474
 31
0.0
  0
LINE
  5
2E62
330
1F
100
AcDbEntity
  8
想像線
100
AcDbLine
 10
46.26634590173671
 20
-18.46439797545477
 30
0.0
 11
46.26634590173671
 21
-27.85827488885288
 31
0.0
  0
LINE
  5
2E63
330
1F
100
AcDbEntity
  8
想像線
100
AcDbLine
 10
50.26634590173671
 20
-18.46439797545477
 30
0.0
 11
50.26634590173671
 21
-28.46439797545477
 31
0.0
  0
LINE
  5
2E64
330
1F
100
AcDbEntity
  8
太線
100
AcDbLine
 10
42.76634590173671
 20
195.9623356026448
 30
0.0
 11
42.71817751960134
 21
170.9623356026448
 31
0.0
  0
LINE
  5
2E65
330
1F
100
AcDbEntity
  8
太線
100
AcDbLine
 10
37.76634590173671
 20
170.9623356026448
 30
0.0
 11
37.76634590173671
 21
195.9623356026448
 31
0.0
  0
LINE
  5
2E66
330
1F
100
AcDbEntity
  8
太線
100
AcDbLine
 10
95.26634590173671
 20
170.9623356026448
 30
0.0
 11
70.26634590173671
 21
195.9623356026448
 31
0.0
  0
LINE
  5
2E67
330
1F
100
AcDbEntity
  8
想像線
100
AcDbLine
 10
65.26634590173671
 20
170.9623356026448
 30
0.0
 11
65.26634590173671
 21
205.9623356026448
 31
0.0
  0
LINE
  5
2E68
330
1F
100
AcDbEntity
  8
想像線
100
AcDbLine
 10
15.26634590173671
 20
205.9623356026448
 30
0.0
 11
15.26634590173671
 21
170.9623356026448
 31
0.0
  0
LINE
  5
2E69
330
1F
100
AcDbEntity
  8
太線
100
AcDbLine
 10
70.26634590173671
 20
205.9623356026448
 30
0.0
 11
70.26634590173671
 21
170.9623356026448
 31
0.0
  0
LINE
  5
2E6A
330
1F
100
AcDbEntity
  8
太線
100
AcDbLine
 10
10.26634590173671
 20
140.9623356026448
 30
0.0
 11
10.26634590173671
 21
205.9623356026448
 31
0.0
  0
LINE
  5
2E6B
330
1F
100
AcDbEntity
  8
太線
100
AcDbLine
 10
10.26634590173671
 20
205.9623356026448
 30
0.0
 11
70.26634590173671
 21
205.9623356026448
 31
0.0
  0
LINE
  5
2E6C
330
1F
100
AcDbEntity
  8
太線
100
AcDbLine
 10
37.76634590173671
 20
195.9623356026448
 30
0.0
 11
42.76634590173671
 21
195.9623356026448
 31
0.0
  0
LINE
  5
2E6D
330
1F
100
AcDbEntity
  8
太線
100
AcDbLine
 10
60.26634590173671
 20
160.9623356026448
 30
0.0
 11
20.26634590173671
 21
160.9623356026448
 31
0.0
  0
LINE
  5
2E6E
330
1F
100
AcDbEntity
  8
太線
100
AcDbLine
 10
40.26634590173671
 20
120.9623356026448
 30
0.0
 11
60.26634590173671
 21
120.9623356026448
 31
0.0
  0
LINE
  5
2E6F
330
1F
100
AcDbEntity
  8
太線
100
AcDbLine
 10
60.26634590173671
 20
120.9623356026448
 30
0.0
 11
40.26634590173671
 21
120.9623356026448
 31
0.0
  0
CIRCLE
  5
2E70
330
1F
100
AcDbEntity
  8
太線
100
AcDbCircle
 10
40.26634590173671
 20
140.9623356026448
 30
0.0
 40
10.0
  0
ARC
  5
2E73
330
1F
100
AcDbEntity
  8
太線
100
AcDbCircle
 10
40.26634590173671
 20
140.9623356026448
 30
0.0
 40
20.0
100
AcDbArc
 50
180.0
 51
270.0
  0
CIRCLE
  5
2E74
330
1F
100
AcDbEntity
  8
太線
100
AcDbCircle
 10
40.26634590173671
 20
140.9623356026448
 30
0.0
 40
6.0
  0
ARC
  5
2E75
330
1F
100
AcDbEntity
  8
太線
100
AcDbCircle
 10
40.26634590173671
 20
140.9623356026448
 30
0.0
 40
30.10002455617537
100
AcDbArc
 50
175.3277307595231
 51
277.8724470627564
  0
LINE
  5
2E76
330
1F
100
AcDbEntity
  8
破線
100
AcDbLine
 10
37.76634590173671
 20
178.6928594945251
 30
0.0
 11
42.72973793131384
 21
178.6928594945251
 31
0.0
  0
LINE
  5
2E77
330
1F
100
AcDbEntity
  8
破線
100
AcDbLine
 10
37.76634590173671
 20
173.0068532082901
 30
0.0
 11
42.72973793131384
 21
173.0068532082901
 31
0.0
  0
LINE
  5
2E78
330
1F
100
AcDbEntity
  8
太線
100
AcDbLine
 10
20.26634590173671
 20
160.9623356026448
 30
0.0
 11
20.26634590173671
 21
140.9623356026448
 31
0.0
  0
LINE
  5
2E79
330
1F
100
AcDbEntity
  8
太線
100
AcDbLine
 10
60.26634590173671
 20
120.9623356026448
 30
0.0
 11
60.26634590173671
 21
160.9623356026448
 31
0.0
  0
LINE
  5
2E7A
330
1F
100
AcDbEntity
  8
太線
100
AcDbLine
 10
105.2663459017367
 20
170.9623356026448
 30
0.0
 11
105.2663459017367
 21
110.9623356026448
 31
0.0
  0
LINE
  5
2E7B
330
1F
100
AcDbEntity
  8
想像線
100
AcDbLine
 10
70.26634590173671
 20
165.9623356026448
 30
0.0
 11
70.26634590173671
 21
115.9623356026448
 31
0.0
  0
LINE
  5
2E7C
330
1F
100
AcDbEntity
  8
想像線
100
AcDbLine
 10
70.26634590173671
 20
165.9623356026448
 30
0.0
 11
105.3177121949704
 21
165.9623356026448
 31
0.0
  0
LINE
  5
2E7D
330
1F
100
AcDbEntity
  8
太線
100
AcDbLine
 10
95.26634590173671
 20
143.4141672205094
 30
0.0
 11
70.26634590173671
 21
143.4623356026448
 31
0.0
  0
LINE
  5
2E7E
330
1F
100
AcDbEntity
  8
太線
100
AcDbLine
 10
70.26634590173671
 20
138.5105039847801
 30
0.0
 11
95.26634590173671
 21
138.4623356026448
 31
0.0
  0
LINE
  5
2E7F
330
1F
100
AcDbEntity
  8
太線
100
AcDbLine
 10
70.26634590173671
 20
170.9623356026448
 30
0.0
 11
105.2663459017367
 21
170.9623356026448
 31
0.0
  0
LINE
  5
2E80
330
1F
100
AcDbEntity
  8
太線
100
AcDbLine
 10
70.26634590173671
 20
170.9623356026448
 30
0.0
 11
60.26634590173671
 21
160.9623356026448
 31
0.0
  0
CIRCLE
  5
2E81
330
1F
100
AcDbEntity
  8
太線
100
AcDbCircle
 10
74.66248837003035
 20
175.7061355738712
 30
0.0
 40
3.0
  0
LINE
  5
2E82
330
1F
100
AcDbEntity
  8
破線
100
AcDbLine
 10
72.06032377623069
 20
138.4989435730677
 30
0.0
 11
72.06032377623069
 21
143.4141672205094
 31
0.0
  0
LINE
  5
2E83
330
1F
100
AcDbEntity
  8
破線
100
AcDbLine
 10
77.99823750704627
 20
138.4989435730677
 30
0.0
 11
77.99823750704627
 21
143.4141672205094
 31
0.0
  0
LINE
  5
2E84
330
1F
100
AcDbEntity
  8
太線
100
AcDbLine
 10
95.26634590173671
 20
138.4623356026448
 30
0.0
 11
95.26634590173671
 21
143.4141672205094
 31
0.0
  0
LINE
  5
2E85
330
1F
100
AcDbEntity
  8
想像線
100
AcDbLine
 10
70.26634590173671
 20
115.9623356026448
 30
0.0
 11
104.9387422622251
 21
115.9623356026448
 31
0.0
  0
LINE
  5
2E86
330
1F
100
AcDbEntity
  8
太線
100
AcDbLine
 10
44.38909222327751
 20
111.1459904032313
 30
0.0
 11
70.26634590173671
 21
110.9623356026448
 31
0.0
  0
LINE
  5
2E88
330
1F
100
AcDbEntity
  8
想像線
100
AcDbLine
 10
65.26634590173671
 20
170.9623356026448
 30
0.0
 11
15.26634590173671
 21
170.9623356026448
 31
0.0
  0
ARC
  5
2E89
330
1F
100
AcDbEntity
  8
太線
100
AcDbCircle
 10
20.76634590173671
 20
-27.96439797545477
 30
0.0
 40
0.5
100
AcDbArc
 50
180.0
 51
278.8957952865034
  0
ARC
  5
2E8A
330
1F
100
AcDbEntity
  8
太線
100
AcDbCircle
 10
21.26634590173671
 20
-27.46439797545477
 30
0.0
 40
1.0
100
AcDbArc
 50
262.2979531506369
 51
270.0
  0
ARC
  5
2E8B
330
1F
100
AcDbEntity
  8
太線
100
AcDbCircle
 10
59.26634590173671
 20
-27.46439797545477
 30
0.0
 40
1.0
100
AcDbArc
 50
270.0
 51
0.0
  0
ARC
  5
2E8C
330
1F
100
AcDbEntity
  8
太線
100
AcDbCircle
 10
20.99830272678681
 20
-29.4463548005049
 30
0.0
 40
1.0
100
AcDbArc
 50
82.29795315063654
 51
98.89579528650337
  0
DIMENSION
  5
2E95
330
1F
100
AcDbEntity
  8
寸法線
100
AcDbDimension
  2
*D2
 10
70.26634590173671
 20
94.57284145329778
 30
0.0
 11
87.76634590173671
 21
98.07284145329777
 31
0.0
 70
    32
 71
     5
 42
35.0
  3
sunpo
100
AcDbAlignedDimension
 13
105.2663459017367
 23
110.9623356026448
 33
0.0
 14
70.26634590173671
 24
110.9623356026448
 34
0.0
100
AcDbRotatedDimension
1001
ACAD
1000
DSTYLE
1002
{
1070
    40
1040
1.0
1002
}
  0
DIMENSION
  5
2EA2
330
1F
100
AcDbEntity
  8
寸法線
100
AcDbDimension
  2
*D3
 10
10.26634590173671
 20
94.57284145329778
 30
0.0
 11
40.26634590173671
 21
98.07284145329777
 31
0.0
 70
    32
  1
57.3
 71
     5
 42
60.0
  3
sunpo
100
AcDbAlignedDimension
 13
70.26634590173671
 23
110.9623356026448
 33
0.0
 14
10.26634590173671
 24
140.9623356026448
 34
0.0
100
AcDbRotatedDimension
1001
ACAD
1000
DSTYLE
1002
{
1070
    40
1040
1.0
1070
   279
1070
     1
1002
}
  0
DIMENSION
  5
2EAF
330
1F
100
AcDbEntity
  8
寸法線
100
AcDbDimension
  2
*D4
 10
95.26634590173671
 20
214.0411946669846
 30
0.0
 11
82.76634590173671
 21
217.5416867929689
 31
0.0
 70
    32
 71
     5
 42
25.0
  3
sunpo
100
AcDbAlignedDimension
 13
70.26634590173671
 23
205.9623356026448
 33
0.0
 14
95.26634590173671
 24
170.9623356026448
 34
0.0
100
AcDbRotatedDimension
1001
ACAD
1000
DSTYLE
1002
{
1070
    40
1040
1.0
1002
}
  0
DIMENSION
  5
2EBC
330
1F
100
AcDbEntity
  8
寸法線
100
AcDbDimension
  2
*D5
 10
105.2663459017367
 20
214.0411946669846
 30
0.0
 11
100.2663459017367
 21
217.5411946669846
 31
0.0
 70
    32
 71
     5
 42
10.0
  3
sunpo
100
AcDbAlignedDimension
 13
95.26634590173671
 23
170.9623356026448
 33
0.0
 14
105.2663459017367
 24
170.9623356026448
 34
0.0
100
AcDbRotatedDimension
1001
ACAD
1000
DSTYLE
1002
{
1070
    40
1040
1.0
1070
   279
1070
     1
1002
}
  0
DIMENSION
  5
2ED8
330
1F
100
AcDbEntity
  8
寸法線
100
AcDbDimension
  2
*D6
 10
122.9388088226237
 20
115.9623356026448
 30
0.0
 11
119.4388088226236
 21
140.9623356026448
 31
0.0
 70
    32
  1
49.3
 71
     5
 42
50.0
  3
sunpo
100
AcDbAlignedDimension
 13
104.9387422622251
 23
165.9623356026448
 33
0.0
 14
105.3177121949704
 24
115.9623356026448
 34
0.0
 50
90.0
100
AcDbRotatedDimension
1001
ACAD
1000
DSTYLE
1002
{
1070
    40
1040
1.0
1070
   279
1070
     1
1002
}
  0
DIMENSION
  5
2EE5
330
1F
100
AcDbEntity
  8
寸法線
100
AcDbDimension
  2
*D7
 10
122.9388088226237
 20
110.9623356026448
 30
0.0
 11
119.4388088226236
 21
113.4623356026448
 31
0.0
 70
    32
  1
4
 71
     5
 42
5.0
  3
sunpo
100
AcDbAlignedDimension
 13
105.3177121949704
 23
115.9623356026448
 33
0.0
 14
105.2663459017367
 24
110.9623356026448
 34
0.0
 50
90.0
100
AcDbRotatedDimension
1001
ACAD
1000
DSTYLE
1002
{
1070
    40
1040
1.0
1070
   279
1070
     1
1002
}
  0
DIMENSION
  5
2F25
330
1F
100
AcDbEntity
  8
寸法線
100
AcDbDimension
  2
*D8
 10
49.01118845390073
 20
136.1117965874568
 30
0.0
 11
-18.77089236758351
 21
173.7087716723737
 31
0.0
 70
   163
 71
     5
 42
19.99999999999994
  3
sunpo
100
AcDbDiametricDimension
 15
31.52150334957264
 25
145.8128746178327
 35
0.0
 40
0.0
1001
ACAD
1000
DSTYLE
1002
{
1070
    40
1040
1.0
1070
   288
1070
     1
1002
}
  0
DIMENSION
  5
2F31
330
1F
100
AcDbEntity
  8
寸法線
100
AcDbDimension
  2
*D9
 10
46.03619977736298
 20
142.6081746755559
 30
0.0
 11
-15.41542271960735
 21
125.0792244491834
 31
0.0
 70
   163
 71
     5
 42
12.00000000000001
  3
sunpo
100
AcDbDiametricDimension
 15
34.49649202611047
 25
139.3164965297337
 35
0.0
 40
0.0
1001
ACAD
1000
DSTYLE
1002
{
1070
    40
1040
1.0
1070
   288
1070
     1
1002
}
  0
DIMENSION
  5
2F4C
330
1F
100
AcDbEntity
  8
寸法線
100
AcDbDimension
  2
*D10
 10
42.76634590173671
 20
198.2514557856363
 30
0.0
 11
40.26634590173671
 21
201.7514557856364
 31
0.0
 70
    33
  1
4
 71
     5
 42
5.0
  3
sunpo
100
AcDbAlignedDimension
 13
37.76634590173671
 23
195.9623356026448
 33
0.0
 14
42.76634590173671
 24
195.9623356026448
 34
0.0
1001
ACAD
1000
DSTYLE
1002
{
1070
    40
1040
1.0
1002
}
  0
TEXT
  5
30AA
330
1F
100
AcDbEntity
  8
文字
100
AcDbText
 10
165.752357413869
 20
-196.3963965987631
 30
0.0
 40
5.759999999999999
  1
14-3Y100                                                                                                                  
 51
15.0
  7
OKANO
100
AcDbText
  0
LINE
  5
311A
330
1F
100
AcDbEntity
  8
想像線
100
AcDbLine
 10
184.7859270222745
 20
31.53560202454525
 30
0.0
 11
184.7859270222745
 21
66.53560202454525
 31
0.0
  0
LINE
  5
311B
330
1F
100
AcDbEntity
  8
太線
100
AcDbLine
 10
190.3757037662749
 20
56.53560202454525
 30
0.0
 11
214.7859270222745
 21
31.53560202454525
 31
0.0
  0
LINE
  5
311C
330
1F
100
AcDbEntity
  8
太線
100
AcDbLine
 10
189.7859270222745
 20
66.53560202454525
 30
0.0
 11
189.7859270222745
 21
31.53560202454525
 31
0.0
  0
LINE
  5
311D
330
1F
100
AcDbEntity
  8
太線
100
AcDbLine
 10
129.8698472391749
 20
66.53560202454525
 30
0.0
 11
130.2055281067764
 21
6.535602024545255
 31
0.0
  0
LINE
  5
311E
330
1F
100
AcDbEntity
  8
想像線
100
AcDbLine
 10
134.7859270222745
 20
66.53560202454525
 30
0.0
 11
134.7859270222745
 21
31.53560202454525
 31
0.0
  0
LINE
  5
311F
330
1F
100
AcDbEntity
  8
太線
100
AcDbLine
 10
157.2859270222745
 20
31.53560202454525
 30
0.0
 11
157.2859270222745
 21
56.53560202454525
 31
0.0
  0
LINE
  5
3120
330
1F
100
AcDbEntity
  8
太線
100
AcDbLine
 10
162.2859270222745
 20
56.53560202454525
 30
0.0
 11
162.2859270222745
 21
31.53560202454525
 31
0.0
  0
LINE
  5
3121
330
1F
100
AcDbEntity
  8
太線
100
AcDbLine
 10
224.7859270222745
 20
-28.46439797545474
 30
0.0
 11
159.7859270222745
 21
-28.46439797545474
 31
0.0
  0
CIRCLE
  5
3122
330
1F
100
AcDbEntity
  8
太線
100
AcDbCircle
 10
159.7859270222745
 20
1.535602024545255
 30
0.0
 40
30.0
  0
CIRCLE
  5
3123
330
1F
100
AcDbEntity
  8
太線
100
AcDbCircle
 10
159.7859270222745
 20
1.535602024545255
 30
0.0
 40
25.0
  0
LINE
  5
3124
330
1F
100
AcDbEntity
  8
想像線
100
AcDbLine
 10
134.7859270222745
 20
31.53560202454525
 30
0.0
 11
184.7859270222745
 21
31.53560202454525
 31
0.0
  0
CIRCLE
  5
3125
330
1F
100
AcDbEntity
  8
細線
100
AcDbCircle
 10
159.7859270222745
 20
1.535602024545255
 30
0.0
 40
24.03857690457265
  0
LINE
  5
3126
330
1F
100
AcDbEntity
  8
想像線
100
AcDbLine
 10
159.7859270222745
 20
-22.50297488002741
 30
0.0
 11
189.7859270222745
 21
-22.50297488002741
 31
0.0
  0
LINE
  5
3127
330
1F
100
AcDbEntity
  8
想像線
100
AcDbLine
 10
159.7859270222745
 20
25.57417892911792
 30
0.0
 11
190.3643632666183
 21
25.57417892911792
 31
0.0
  0
LINE
  5
3128
330
1F
100
AcDbEntity
  8
太線
100
AcDbLine
 10
140.7859270222745
 20
-28.46439797545477
 30
0.0
 11
178.7859270222745
 21
-28.46439797545477
 31
0.0
  0
LINE
  5
3129
330
1F
100
AcDbEntity
  8
太線
100
AcDbLine
 10
146.4497664204726
 20
-18.46439797545477
 30
0.0
 11
173.1220876240764
 21
-18.46439797545477
 31
0.0
  0
LINE
  5
312A
330
1F
100
AcDbEntity
  8
想像線
100
AcDbLine
 10
149.7859270222745
 20
-18.46439797545477
 30
0.0
 11
149.7859270222745
 21
-28.46439797545477
 31
0.0
  0
LINE
  5
312B
330
1F
100
AcDbEntity
  8
想像線
100
AcDbLine
 10
153.7859270222745
 20
-18.46439797545477
 30
0.0
 11
153.7859270222745
 21
-27.85827488885288
 31
0.0
  0
LINE
  5
312C
330
1F
100
AcDbEntity
  8
想像線
100
AcDbLine
 10
159.7859270222745
 20
-18.46439797545477
 30
0.0
 11
159.7859270222745
 21
-28.46439797545474
 31
0.0
  0
LINE
  5
312D
330
1F
100
AcDbEntity
  8
太線
100
AcDbLine
 10
139.7859270222745
 20
-20.82507775045266
 30
0.0
 11
139.7859270222745
 21
-27.46439797545477
 31
0.0
  0
ARC
  5
312E
330
1F
100
AcDbEntity
  8
太線
100
AcDbCircle
 10
140.2859270222745
 20
-27.96439797545477
 30
0.0
 40
0.5
100
AcDbArc
 50
180.0
 51
278.8957952865034
  0
ARC
  5
312F
330
1F
100
AcDbEntity
  8
太線
100
AcDbCircle
 10
140.7859270222745
 20
-27.46439797545477
 30
0.0
 40
1.0
100
AcDbArc
 50
262.2979531506369
 51
270.0
  0
ARC
  5
3130
330
1F
100
AcDbEntity
  8
太線
100
AcDbCircle
 10
140.5178838473246
 20
-29.4463548005049
 30
0.0
 40
1.0
100
AcDbArc
 50
82.29795315063654
 51
98.89579528650337
  0
LINE
  5
3131
330
1F
100
AcDbEntity
  8
想像線
100
AcDbLine
 10
135.7473501177018
 20
31.53560202454525
 30
0.0
 11
135.7473501177018
 21
1.535602024545255
 31
0.0
  0
LINE
  5
3132
330
1F
100
AcDbEntity
  8
想像線
100
AcDbLine
 10
190.3757037662749
 20
26.53560202454525
 30
0.0
 11
189.7859270222745
 21
-23.46439797545474
 31
0.0
  0
LINE
  5
3133
330
1F
100
AcDbEntity
  8
太線
100
AcDbLine
 10
224.7859270222745
 20
31.53560202454525
 30
0.0
 11
224.7859270222745
 21
-28.46439797545474
 31
0.0
  0
LINE
  5
3134
330
1F
100
AcDbEntity
  8
想像線
100
AcDbLine
 10
169.7859270222745
 20
-18.46439797545477
 30
0.0
 11
169.7859270222745
 21
-28.46439797545477
 31
0.0
  0
LINE
  5
3135
330
1F
100
AcDbEntity
  8
想像線
100
AcDbLine
 10
165.7859270222745
 20
-18.46439797545477
 30
0.0
 11
165.7859270222745
 21
-27.85827488885288
 31
0.0
  0
LINE
  5
3136
330
1F
100
AcDbEntity
  8
想像線
100
AcDbLine
 10
189.7859270222745
 20
-23.46439797545474
 30
0.0
 11
224.7859270222745
 21
-23.46439797545474
 31
0.0
  0
LINE
  5
3137
330
1F
100
AcDbEntity
  8
太線
100
AcDbLine
 10
179.7859270222745
 20
-27.46439797545477
 30
0.0
 11
179.7859270222745
 21
-20.82507775045266
 31
0.0
  0
ARC
  5
3138
330
1F
100
AcDbEntity
  8
太線
100
AcDbCircle
 10
178.7859270222745
 20
-27.46439797545477
 30
0.0
 40
1.0
100
AcDbArc
 50
270.0
 51
0.0
  0
LINE
  5
3139
330
1F
100
AcDbEntity
  8
太線
100
AcDbLine
 10
179.7859270222745
 20
-20.82507775045266
 30
0.0
 11
179.7859270222745
 21
-22.50297488002741
 31
0.0
  0
LINE
  5
313A
330
1F
100
AcDbEntity
  8
想像線
100
AcDbLine
 10
224.7859270222745
 20
26.53560202454525
 30
0.0
 11
190.3757037662749
 21
26.53560202454525
 31
0.0
  0
LINE
  5
313B
330
1F
100
AcDbEntity
  8
太線
100
AcDbLine
 10
189.7859270222745
 20
31.53560202454525
 30
0.0
 11
224.7859270222745
 21
31.53560202454525
 31
0.0
  0
LINE
  5
313C
330
1F
100
AcDbEntity
  8
太線
100
AcDbLine
 10
189.681578880028
 20
4.035602024545255
 30
0.0
 11
214.7859270222745
 21
4.035602024545255
 31
0.0
  0
LINE
  5
313D
330
1F
100
AcDbEntity
  8
太線
100
AcDbLine
 10
214.7859270222745
 20
-0.9643979754547444
 30
0.0
 11
190.3757037662749
 21
-0.9643979754547444
 31
0.0
  0
LINE
  5
313E
330
1F
100
AcDbEntity
  8
想像線
100
AcDbLine
 10
183.8245039268472
 20
31.53560202454525
 30
0.0
 11
183.8245039268472
 21
1.535602024545255
 31
0.0
  0
LINE
  5
313F
330
1F
100
AcDbEntity
  8
破線
100
AcDbLine
 10
191.5799048967685
 20
-0.9643979754547444
 30
0.0
 11
191.5799048967685
 21
4.035602024545255
 31
0.0
  0
LINE
  5
3140
330
1F
100
AcDbEntity
  8
破線
100
AcDbLine
 10
198.0126449727956
 20
-0.9643979754547444
 30
0.0
 11
198.0126449727956
 21
4.035602024545255
 31
0.0
  0
LINE
  5
3141
330
1F
100
AcDbEntity
  8
太線
100
AcDbLine
 10
214.7859270222745
 20
4.035602024545255
 30
0.0
 11
214.7859270222745
 21
-0.9643979754547444
 31
0.0
  0
LINE
  5
3142
330
1F
100
AcDbEntity
  8
太線
100
AcDbLine
 10
157.2859270222745
 20
56.53560202454525
 30
0.0
 11
162.2859270222745
 21
56.53560202454525
 31
0.0
  0
LINE
  5
3143
330
1F
100
AcDbEntity
  8
破線
100
AcDbLine
 10
157.2859270222745
 20
39.26612591642561
 30
0.0
 11
162.2859270222745
 21
39.26612591642561
 31
0.0
  0
LINE
  5
3144
330
1F
100
AcDbEntity
  8
破線
100
AcDbLine
 10
157.2859270222745
 20
33.08568433089613
 30
0.0
 11
162.2859270222745
 21
33.08568433089613
 31
0.0
  0
LINE
  5
3145
330
1F
100
AcDbEntity
  8
太線
100
AcDbLine
 10
129.8698472391749
 20
66.53560202454525
 30
0.0
 11
189.7859270222745
 21
66.53560202454525
 31
0.0
  0
CIRCLE
  5
3146
330
1F
100
AcDbEntity
  8
太線
100
AcDbCircle
 10
195.229176643254
 20
36.27940199577165
 30
0.0
 40
3.0
  0
TEXT
  5
321C
330
1F
100
AcDbEntity
  8
文字
100
AcDbText
 10
703.8801223092861
 20
-221.5161127079742
 30
0.0
 40
5.759999999999999
  1
水平調整70mm　２ｔ　タイプ                                                                                                                                      
 51
15.0
  7
OKANO
100
AcDbText
  0
TEXT
  5
321D
330
1F
100
AcDbEntity
  8
文字
100
AcDbText
 10
719.7358750367081
 20
-207.2422319816206
 30
0.0
 40
5.759999999999999
  1
15-3Y2000Ｂ                                                                                                                                                                               
 51
15.0
  7
OKANO
100
AcDbText
  0
ARC
  5
3228
330
1F
100
AcDbEntity
  8
破線
100
AcDbCircle
 10
734.8577341544262
 20
-122.9730158347505
 30
0.0
 40
25.31465050611781
100
AcDbArc
 50
253.1602647809359
 51
285.0511046503695
  0
LINE
  5
3229
330
1F
100
AcDbEntity
  8
破線
100
AcDbLine
 10
749.5246368337054
 20
-148.4291716019319
 30
0.0
 11
724.5246368337054
 21
-148.4291716019319
 31
0.0
  0
LINE
  5
322A
330
1F
100
AcDbEntity
  8
破線
100
AcDbLine
 10
719.5246368337055
 20
-132.4291716019319
 30
0.0
 11
749.5246368337054
 21
-132.4291716019319
 31
0.0
  0
LINE
  5
322B
330
1F
100
AcDbEntity
  8
太線
100
AcDbLine
 10
719.5246368337055
 20
-148.4291716019319
 30
0.0
 11
749.5246368337054
 21
-148.4291716019319
 31
0.0
  0
LINE
  5
322C
330
1F
100
AcDbEntity
  8
太線
100
AcDbLine
 10
749.5246368337054
 20
-164.4291716019319
 30
0.0
 11
724.5246368337054
 21
-164.4291716019319
 31
0.0
  0
ARC
  5
322D
330
1F
100
AcDbEntity
  8
太線
100
AcDbCircle
 10
734.8577341544262
 20
-138.9730158347505
 30
0.0
 40
25.31465050611781
100
AcDbArc
 50
253.1602647809359
 51
285.0511046503695
  0
LINE
  5
322E
330
1F
100
AcDbEntity
  8
想像線
100
AcDbLine
 10
749.5246368337054
 20
-179.5092189154203
 30
0.0
 11
724.5246368337054
 21
-179.5092189154203
 31
0.0
  0
ARC
  5
322F
330
1F
100
AcDbEntity
  8
想像線
100
AcDbCircle
 10
734.8577341544262
 20
-154.0530631482389
 30
0.0
 40
25.31465050611781
100
AcDbArc
 50
253.1602647809359
 51
285.0511046503695
  0
LINE
  5
3230
330
1F
100
AcDbEntity
  8
想像線
100
AcDbLine
 10
719.5214719224152
 20
-169.2062603414414
 30
0.0
 11
749.5246368337054
 21
-169.2062603414414
 31
0.0
  0
LINE
  5
3231
330
1F
100
AcDbEntity
  8
太線
100
AcDbLine
 10
794.5246368337055
 20
-182.9190081577357
 30
0.0
 11
674.5246368337054
 21
-182.9190081577357
 31
0.0
  0
LINE
  5
3232
330
1F
100
AcDbEntity
  8
太線
100
AcDbLine
 10
674.5246368337054
 20
-182.9190081577357
 30
0.0
 11
794.5246368337055
 21
-182.9190081577357
 31
0.0
  0
ARC
  5
3233
330
1F
100
AcDbEntity
  8
太線
100
AcDbCircle
 10
734.5246368337054
 20
-198.4702998268125
 30
0.0
 40
33.69174736868501
100
AcDbArc
 50
40.72361606748761
 51
139.2763839325123
  0
LINE
  5
3234
330
1F
100
AcDbEntity
  8
太線
100
AcDbLine
 10
708.9908241680557
 20
-176.4894387993005
 30
0.0
 11
760.0584494993552
 21
-176.4894387993005
 31
0.0
  0
LINE
  5
3235
330
1F
100
AcDbEntity
  8
太線
100
AcDbLine
 10
701.1749957161771
 20
-177.9190081577358
 30
0.0
 11
767.6340728198295
 21
-178.064043097788
 31
0.0
  0
LINE
  5
3236
330
1F
100
AcDbEntity
  8
想像線
100
AcDbLine
 10
719.5246368337055
 20
-179.5092189154203
 30
0.0
 11
719.5246368337055
 21
-169.2062603414414
 31
0.0
  0
LINE
  5
3237
330
1F
100
AcDbEntity
  8
想像線
100
AcDbLine
 10
727.5246368337055
 20
-169.2062603414414
 30
0.0
 11
727.5246368337055
 21
-179.5092189154203
 31
0.0
  0
TEXT
  5
3238
330
1F
100
AcDbEntity
  8
文字
100
AcDbText
 10
429.5679987387257
 20
-216.8047975844162
 30
0.0
 40
5.759999999999999
  1
水平調整85mm　500kタイプ                                                                                                                                      
 51
15.0
  7
OKANO
100
AcDbText
  0
TEXT
  5
3239
330
1F
100
AcDbEntity
  8
文字
100
AcDbText
 10
573.6622584635874
 20
-203.7119827291023
 30
0.0
 40
5.759999999999999
  1
15-3Y500(ｱﾝｶｰ）                                                                                                                                                                                 
 51
15.0
  7
OKANO
100
AcDbText
  0
LINE
  5
323A
330
1F
100
AcDbEntity
  8
太線
100
AcDbLine
 10
679.5246368337054
 20
-177.9190081577358
 30
0.0
 11
701.1749957161771
 21
-177.9190081577358
 31
0.0
  0
ARC
  5
323B
330
1F
100
AcDbEntity
  8
太線
100
AcDbCircle
 10
679.5246368337054
 20
-182.9190081577357
 30
0.0
 40
5.0
100
AcDbArc
 50
90.0
 51
180.0
  0
LINE
  5
323C
330
1F
100
AcDbEntity
  8
太線
100
AcDbLine
 10
674.5246368337054
 20
-182.9190081577357
 30
0.0
 11
674.5246368337054
 21
-182.9190081577357
 31
0.0
  0
LINE
  5
323D
330
1F
100
AcDbEntity
  8
想像線
100
AcDbLine
 10
685.7510477275275
 20
-177.9190081577358
 30
0.0
 11
685.7510477275275
 21
-182.9190081577357
 31
0.0
  0
LINE
  5
323E
330
1F
100
AcDbEntity
  8
想像線
100
AcDbLine
 10
701.1749957161771
 20
-177.9190081577358
 30
0.0
 11
701.1749957161771
 21
-182.9190081577357
 31
0.0
  0
LINE
  5
323F
330
1F
100
AcDbEntity
  8
太線
100
AcDbLine
 10
701.1749957161771
 20
-176.4894387993005
 30
0.0
 11
708.9908241680557
 21
-176.4894387993005
 31
0.0
  0
LINE
  5
3240
330
1F
100
AcDbEntity
  8
太線
100
AcDbLine
 10
701.1749957161771
 20
-176.4894387993005
 30
0.0
 11
701.1749957161771
 21
-177.9190081577358
 31
0.0
  0
LINE
  5
3241
330
1F
100
AcDbEntity
  8
想像線
100
AcDbLine
 10
724.5246368337054
 20
-179.5092189154203
 30
0.0
 11
719.5246368337055
 21
-179.5092189154203
 31
0.0
  0
ARC
  5
3242
330
1F
100
AcDbEntity
  8
想像線
100
AcDbCircle
 10
723.723973789285
 20
-169.808281590652
 30
0.0
 40
9.574652439182898
100
AcDbArc
 50
242.2559248299449
 51
294.8092894638859
  0
LINE
  5
3249
330
1F
100
AcDbEntity
  8
太線
100
AcDbLine
 10
589.7952221565828
 20
-161.4603679898747
 30
0.0
 11
589.7952221565828
 21
-154.6466116048764
 31
0.0
  0
LINE
  5
324A
330
1F
100
AcDbEntity
  8
細線
100
AcDbLine
 10
590.7952221565828
 20
-43.46036798987472
 30
0.0
 11
590.795222156583
 21
-145.020569903078
 31
0.0
  0
LINE
  5
324B
330
1F
100
AcDbEntity
  8
太線
100
AcDbLine
 10
601.7952221565828
 20
-46.16139504737623
 30
0.0
 11
601.7952221565828
 21
-145.020569903078
 31
0.0
  0
LINE
  5
324C
330
1F
100
AcDbEntity
  8
細線
100
AcDbLine
 10
600.7952221565829
 20
-43.46036798987472
 30
0.0
 11
600.795222156583
 21
-145.020569903078
 31
0.0
  0
LINE
  5
324D
330
1F
100
AcDbEntity
  8
太線
100
AcDbLine
 10
590.7849997261767
 20
-145.020569903078
 30
0.0
 11
587.7849997261768
 21
-145.020569903078
 31
0.0
  0
LINE
  5
324E
330
1F
100
AcDbEntity
  8
太線
100
AcDbLine
 10
586.7952221565828
 20
-145.6466116048764
 30
0.0
 11
604.7952221565829
 21
-145.6466116048764
 31
0.0
  0
LINE
  5
324F
330
1F
100
AcDbEntity
  8
太線
100
AcDbLine
 10
590.7952221565828
 20
-153.6466116048764
 30
0.0
 11
587.7952221565829
 21
-154.6466116048764
 31
0.0
  0
LINE
  5
3250
330
1F
100
AcDbEntity
  8
太線
100
AcDbLine
 10
588.5172522453708
 20
-161.3019084413825
 30
0.0
 11
590.8270454974635
 21
-162.9941455566353
 31
0.0
  0
LINE
  5
3251
330
1F
100
AcDbEntity
  8
破線
100
AcDbLine
 10
601.7952221565828
 20
-172.5394829303628
 30
0.0
 11
589.7952221565828
 21
-172.5394829303628
 31
0.0
  0
LINE
  5
3252
330
1F
100
AcDbEntity
  8
太線
100
AcDbLine
 10
605.0083861405938
 20
-169.4603679898746
 30
0.0
 11
586.5820581725719
 21
-169.4603679898747
 31
0.0
  0
LINE
  5
3253
330
1F
100
AcDbEntity
  8
太線
100
AcDbLine
 10
603.7952221565829
 20
-161.4603679898747
 30
0.0
 11
587.7952221565829
 21
-161.4603679898747
 31
0.0
  0
LINE
  5
3254
330
1F
100
AcDbEntity
  8
太線
100
AcDbLine
 10
603.7952221565829
 20
-154.6466116048764
 30
0.0
 11
587.7952221565829
 21
-154.6466116048764
 31
0.0
  0
LINE
  5
3255
330
1F
100
AcDbEntity
  8
破線
100
AcDbLine
 10
603.7952221565829
 20
-180.5394829303628
 30
0.0
 11
587.7952221565829
 21
-180.5394829303628
 31
0.0
  0
LINE
  5
3256
330
1F
100
AcDbEntity
  8
破線
100
AcDbLine
 10
590.7952221565828
 20
-179.5394829303628
 30
0.0
 11
587.7952221565829
 21
-180.5394829303628
 31
0.0
  0
LINE
  5
3258
330
1F
100
AcDbEntity
  8
太線
100
AcDbLine
 10
586.7952221565828
 20
-153.6466116048764
 30
0.0
 11
586.7952221565828
 21
-145.6466116048764
 31
0.0
  0
LINE
  5
3259
330
1F
100
AcDbEntity
  8
太線
100
AcDbLine
 10
586.7952221565828
 20
-162.4603679898747
 30
0.0
 11
586.7952221565828
 21
-169.4603679898747
 31
0.0
  0
LINE
  5
325E
330
1F
100
AcDbEntity
  8
破線
100
AcDbLine
 10
586.7952221565828
 20
-179.5394829303628
 30
0.0
 11
586.7952221565828
 21
-173.5394829303628
 31
0.0
  0
ARC
  5
3260
330
1F
100
AcDbEntity
  8
破線
100
AcDbCircle
 10
587.7952221565829
 20
-179.5394829303628
 30
0.0
 40
1.0
100
AcDbArc
 50
180.0
 51
270.0
  0
LINE
  5
3262
330
1F
100
AcDbEntity
  8
破線
100
AcDbLine
 10
587.7952221565829
 20
-172.5394829303628
 30
0.0
 11
589.7952221565828
 21
-172.5394829303628
 31
0.0
  0
ARC
  5
3263
330
1F
100
AcDbEntity
  8
破線
100
AcDbCircle
 10
587.7952221565829
 20
-173.5394829303628
 30
0.0
 40
1.0
100
AcDbArc
 50
90.0
 51
180.0
  0
LINE
  5
3264
330
1F
100
AcDbEntity
  8
破線
100
AcDbLine
 10
589.7952221565828
 20
-169.4603679898746
 30
0.0
 11
589.7952221565828
 21
-172.5394829303628
 31
0.0
  0
ARC
  5
3265
330
1F
100
AcDbEntity
  8
太線
100
AcDbCircle
 10
587.7952221565829
 20
-162.4603679898747
 30
0.0
 40
1.0
100
AcDbArc
 50
90.0
 51
180.0
  0
ARC
  5
3266
330
1F
100
AcDbEntity
  8
太線
100
AcDbCircle
 10
587.7952221565829
 20
-153.6466116048764
 30
0.0
 40
1.0
100
AcDbArc
 50
180.0
 51
270.0
  0
ARC
  5
3267
330
1F
100
AcDbEntity
  8
太線
100
AcDbCircle
 10
587.7849997261768
 20
-146.020569903078
 30
0.0
 40
1.0
100
AcDbArc
 50
90.0
 51
180.0
  0
LINE
  5
3268
330
1F
100
AcDbEntity
  8
太線
100
AcDbLine
 10
600.7952221565829
 20
-145.6466116048763
 30
0.0
 11
600.7952221565829
 21
-153.6466116048764
 31
0.0
  0
LINE
  5
3269
330
1F
100
AcDbEntity
  8
太線
100
AcDbLine
 10
590.7952221565828
 20
-145.6466116048763
 30
0.0
 11
590.7952221565828
 21
-153.6466116048764
 31
0.0
  0
LINE
  5
326A
330
1F
100
AcDbEntity
  8
太線
100
AcDbLine
 10
604.7952221565829
 20
-145.6466116048764
 30
0.0
 11
604.7952221565829
 21
-153.6466116048764
 31
0.0
  0
LINE
  5
326C
330
1F
100
AcDbEntity
  8
太線
100
AcDbLine
 10
604.7952221565829
 20
-162.4603679898747
 30
0.0
 11
604.7952221565829
 21
-169.4603679898747
 31
0.0
  0
LINE
  5
326D
330
1F
100
AcDbEntity
  8
太線
100
AcDbLine
 10
590.7952221565828
 20
-162.9708306393713
 30
0.0
 11
590.7952221565828
 21
-169.4603679898747
 31
0.0
  0
LINE
  5
326E
330
1F
100
AcDbEntity
  8
太線
100
AcDbLine
 10
600.7952221565829
 20
-162.7738653660019
 30
0.0
 11
600.7952221565829
 21
-169.4603679898747
 31
0.0
  0
LINE
  5
326F
330
1F
100
AcDbEntity
  8
破線
100
AcDbLine
 10
601.7952221565828
 20
-172.5394829303628
 30
0.0
 11
603.7952221565829
 21
-172.5394829303628
 31
0.0
  0
LINE
  5
3270
330
1F
100
AcDbEntity
  8
破線
100
AcDbLine
 10
600.7952221565829
 20
-179.5394829303628
 30
0.0
 11
603.7952221565829
 21
-180.5394829303628
 31
0.0
  0
LINE
  5
3271
330
1F
100
AcDbEntity
  8
破線
100
AcDbLine
 10
600.7952221565829
 20
-172.5394829303628
 30
0.0
 11
600.7952221565829
 21
-179.5394829303628
 31
0.0
  0
LINE
  5
3272
330
1F
100
AcDbEntity
  8
破線
100
AcDbLine
 10
590.7952221565828
 20
-172.5394829303628
 30
0.0
 11
590.7952221565828
 21
-179.5394829303628
 31
0.0
  0
ARC
  5
3273
330
1F
100
AcDbEntity
  8
破線
100
AcDbCircle
 10
595.7952221565829
 20
-167.5394829303628
 30
0.0
 40
13.00000000000004
100
AcDbArc
 50
247.3801350519612
 51
292.6198649480387
  0
LINE
  5
3274
330
1F
100
AcDbEntity
  8
破線
100
AcDbLine
 10
590.7952221565828
 20
-169.4603679898747
 30
0.0
 11
590.7952221565828
 21
-172.5394829303628
 31
0.0
  0
LINE
  5
3275
330
1F
100
AcDbEntity
  8
破線
100
AcDbLine
 10
600.7952221565829
 20
-169.4603679898747
 30
0.0
 11
600.7952221565829
 21
-172.5394829303628
 31
0.0
  0
LINE
  5
3276
330
1F
100
AcDbEntity
  8
破線
100
AcDbLine
 10
601.7952221565828
 20
-169.4603679898746
 30
0.0
 11
601.7952221565828
 21
-172.5394829303628
 31
0.0
  0
LINE
  5
3277
330
1F
100
AcDbEntity
  8
破線
100
AcDbLine
 10
604.7952221565829
 20
-173.5394829303628
 30
0.0
 11
604.7952221565829
 21
-179.5394829303628
 31
0.0
  0
ARC
  5
3279
330
1F
100
AcDbEntity
  8
破線
100
AcDbCircle
 10
603.7952221565829
 20
-179.5394829303628
 30
0.0
 40
1.0
100
AcDbArc
 50
270.0
 51
0.0
  0
ARC
  5
327B
330
1F
100
AcDbEntity
  8
破線
100
AcDbCircle
 10
603.7952221565829
 20
-173.5394829303628
 30
0.0
 40
1.0
100
AcDbArc
 50
0.0
 51
90.0
  0
LINE
  5
327C
330
1F
100
AcDbEntity
  8
太線
100
AcDbLine
 10
600.6821658503367
 20
-162.8403058188849
 30
0.0
 11
603.299931345482
 21
-161.3019084413825
 31
0.0
  0
LINE
  5
327D
330
1F
100
AcDbEntity
  8
太線
100
AcDbLine
 10
600.7952221565829
 20
-153.6466116048764
 30
0.0
 11
603.7952221565829
 21
-154.6466116048764
 31
0.0
  0
LINE
  5
327E
330
1F
100
AcDbEntity
  8
太線
100
AcDbLine
 10
590.8270454974635
 20
-162.9941455566353
 30
0.0
 11
594.830687515544
 21
-161.609587916883
 31
0.0
  0
LINE
  5
327F
330
1F
100
AcDbEntity
  8
太線
100
AcDbLine
 10
598.2183850475194
 20
-161.4557481791326
 30
0.0
 11
600.6821658503367
 21
-162.8403058188849
 31
0.0
  0
ARC
  5
3280
330
1F
100
AcDbEntity
  8
太線
100
AcDbCircle
 10
595.7952221565829
 20
-141.6466116048763
 30
0.0
 40
13.0
100
AcDbArc
 50
247.3801350519612
 51
292.6198649480387
  0
ARC
  5
3281
330
1F
100
AcDbEntity
  8
太線
100
AcDbCircle
 10
603.7952221565829
 20
-162.4603679898747
 30
0.0
 40
1.0
100
AcDbArc
 50
0.0
 51
90.0
  0
ARC
  5
3282
330
1F
100
AcDbEntity
  8
太線
100
AcDbCircle
 10
603.7952221565829
 20
-153.6466116048764
 30
0.0
 40
1.0
100
AcDbArc
 50
270.0
 51
0.0
  0
LINE
  5
3286
330
1F
100
AcDbEntity
  8
太線
100
AcDbLine
 10
601.7849997261768
 20
-145.020569903078
 30
0.0
 11
603.7849997261767
 21
-145.020569903078
 31
0.0
  0
LINE
  5
3287
330
1F
100
AcDbEntity
  8
太線
100
AcDbLine
 10
590.7849997261767
 20
-145.020569903078
 30
0.0
 11
601.7849997261768
 21
-145.020569903078
 31
0.0
  0
ARC
  5
3288
330
1F
100
AcDbEntity
  8
太線
100
AcDbCircle
 10
603.7849997261767
 20
-146.020569903078
 30
0.0
 40
1.0
100
AcDbArc
 50
0.0
 51
90.0
  0
LINE
  5
329A
330
1F
100
AcDbEntity
  8
太線
100
AcDbLine
 10
724.5246368337054
 20
-46.16139504737623
 30
0.0
 11
724.5246368337054
 21
-96.26625302936464
 31
0.0
  0
LINE
  5
329B
330
1F
100
AcDbEntity
  8
太線
100
AcDbLine
 10
725.5246368337055
 20
-43.46036798987472
 30
0.0
 11
725.5246368337053
 21
-96.26625302936464
 31
0.0
  0
LINE
  5
329C
330
1F
100
AcDbEntity
  8
破線
100
AcDbLine
 10
727.5246368337055
 20
-132.4291716019319
 30
0.0
 11
727.5246368337055
 21
-148.4291716019319
 31
0.0
  0
LINE
  5
329D
330
1F
100
AcDbEntity
  8
破線
100
AcDbLine
 10
719.5246368337055
 20
-148.4291716019319
 30
0.0
 11
719.5246368337055
 21
-132.4291716019319
 31
0.0
  0
LINE
  5
329E
330
1F
100
AcDbEntity
  8
太線
100
AcDbLine
 10
719.5246368337055
 20
-164.4291716019319
 30
0.0
 11
719.5246368337055
 21
-148.4291716019319
 31
0.0
  0
LINE
  5
329F
330
1F
100
AcDbEntity
  8
太線
100
AcDbLine
 10
727.5246368337055
 20
-148.4291716019319
 30
0.0
 11
727.5246368337055
 21
-164.4291716019319
 31
0.0
  0
LINE
  5
32A0
330
1F
100
AcDbEntity
  8
太線
100
AcDbLine
 10
724.5246368337054
 20
-164.4291716019319
 30
0.0
 11
719.5246368337055
 21
-164.4291716019319
 31
0.0
  0
ARC
  5
32A1
330
1F
100
AcDbEntity
  8
太線
100
AcDbCircle
 10
723.723973789285
 20
-154.7282342771636
 30
0.0
 40
9.574652439182898
100
AcDbArc
 50
242.2559248299449
 51
294.8092894638859
  0
LINE
  5
32A2
330
1F
100
AcDbEntity
  8
太線
100
AcDbLine
 10
725.5246368337054
 20
-164.4291716019319
 30
0.0
 11
725.5246368337053
 21
-166.0028724455848
 31
0.0
  0
LINE
  5
32A3
330
1F
100
AcDbEntity
  8
太線
100
AcDbLine
 10
724.5246368337054
 20
-164.4291716019319
 30
0.0
 11
724.5246368337054
 21
-166.296803890634
 31
0.0
  0
LINE
  5
32A4
330
1F
100
AcDbEntity
  8
破線
100
AcDbLine
 10
724.5246368337054
 20
-148.4291716019319
 30
0.0
 11
719.5246368337055
 21
-148.4291716019319
 31
0.0
  0
ARC
  5
32A5
330
1F
100
AcDbEntity
  8
破線
100
AcDbCircle
 10
723.723973789285
 20
-138.7282342771636
 30
0.0
 40
9.574652439182898
100
AcDbArc
 50
242.2559248299449
 51
294.8092894638859
  0
LINE
  5
32AC
330
1F
100
AcDbEntity
  8
想像線
100
AcDbLine
 10
741.5246368337054
 20
-169.2062603414414
 30
0.0
 11
741.5246368337054
 21
-179.5092189154203
 31
0.0
  0
LINE
  5
32AD
330
1F
100
AcDbEntity
  8
想像線
100
AcDbLine
 10
749.5246368337054
 20
-169.2062603414414
 30
0.0
 11
749.5246368337054
 21
-179.5092189154203
 31
0.0
  0
LINE
  5
32AE
330
1F
100
AcDbEntity
  8
太線
100
AcDbLine
 10
789.5246368337055
 20
-177.9190081577357
 30
0.0
 11
767.6340728198295
 21
-177.9190081577357
 31
0.0
  0
LINE
  5
32AF
330
1F
100
AcDbEntity
  8
太線
100
AcDbLine
 10
767.6340728198295
 20
-176.4894387993005
 30
0.0
 11
760.0584494993552
 21
-176.4894387993005
 31
0.0
  0
ARC
  5
32B0
330
1F
100
AcDbEntity
  8
想像線
100
AcDbCircle
 10
745.2160786675236
 20
-173.35085945916
 30
0.0
 40
6.350862044312581
100
AcDbArc
 50
230.9396192866367
 51
312.0723616256726
  0
LINE
  5
32B1
330
1F
100
AcDbEntity
  8
想像線
100
AcDbLine
 10
767.6340728198295
 20
-177.9190081577357
 30
0.0
 11
767.6340728198295
 21
-182.9190081577357
 31
0.0
  0
LINE
  5
32B2
330
1F
100
AcDbEntity
  8
太線
100
AcDbLine
 10
767.6340728198295
 20
-178.064043097788
 30
0.0
 11
767.6340728198295
 21
-176.4894387993005
 31
0.0
  0
LINE
  5
32B3
330
1F
100
AcDbEntity
  8
想像線
100
AcDbLine
 10
782.9641810607256
 20
-182.9190081577357
 30
0.0
 11
782.9641810607256
 21
-177.9190081577358
 31
0.0
  0
ARC
  5
32B4
330
1F
100
AcDbEntity
  8
太線
100
AcDbCircle
 10
789.5246368337055
 20
-182.9190081577357
 30
0.0
 40
5.0
100
AcDbArc
 50
0.0
 51
90.0
  0
LINE
  5
32B5
330
1F
100
AcDbEntity
  8
太線
100
AcDbLine
 10
794.5246368337055
 20
-182.9190081577356
 30
0.0
 11
794.5246368337055
 21
-182.9190081577357
 31
0.0
  0
LINE
  5
32B7
330
1F
100
AcDbEntity
  8
太線
100
AcDbLine
 10
744.5246368337055
 20
-132.4291716019319
 30
0.0
 11
744.5246368337053
 21
-112.2662530293646
 31
0.0
  0
LINE
  5
32B8
330
1F
100
AcDbEntity
  8
太線
100
AcDbLine
 10
742.920331069894
 20
-43.46036798987472
 30
0.0
 11
742.9203310698938
 21
-96.26625302936464
 31
0.0
  0
LINE
  5
32B9
330
1F
100
AcDbEntity
  8
破線
100
AcDbLine
 10
749.5246368337054
 20
-132.4291716019319
 30
0.0
 11
749.5246368337054
 21
-148.4291716019319
 31
0.0
  0
LINE
  5
32BA
330
1F
100
AcDbEntity
  8
破線
100
AcDbLine
 10
741.5246368337054
 20
-132.4291716019319
 30
0.0
 11
741.5246368337054
 21
-148.4291716019319
 31
0.0
  0
LINE
  5
32BB
330
1F
100
AcDbEntity
  8
太線
100
AcDbLine
 10
749.5246368337054
 20
-148.4291716019319
 30
0.0
 11
749.5246368337054
 21
-164.4291716019319
 31
0.0
  0
LINE
  5
32BC
330
1F
100
AcDbEntity
  8
太線
100
AcDbLine
 10
741.5246368337054
 20
-148.4291716019319
 30
0.0
 11
741.5246368337054
 21
-164.4291716019319
 31
0.0
  0
ARC
  5
32BD
330
1F
100
AcDbEntity
  8
太線
100
AcDbCircle
 10
745.2160786675236
 20
-158.2708121456716
 30
0.0
 40
6.350862044312581
100
AcDbArc
 50
230.9396192866367
 51
312.0723616256726
  0
LINE
  5
32BE
330
1F
100
AcDbEntity
  8
太線
100
AcDbLine
 10
742.9203310698937
 20
-164.4291716019319
 30
0.0
 11
742.9203310698937
 21
-165.8413838312155
 31
0.0
  0
LINE
  5
32BF
330
1F
100
AcDbEntity
  8
太線
100
AcDbLine
 10
744.5246368337055
 20
-166.296803890634
 30
0.0
 11
744.5246368337055
 21
-164.4291716019319
 31
0.0
  0
ARC
  5
32C0
330
1F
100
AcDbEntity
  8
破線
100
AcDbCircle
 10
745.2160786675236
 20
-142.2708121456716
 30
0.0
 40
6.350862044312581
100
AcDbArc
 50
230.9396192866367
 51
312.0723616256726
  0
CIRCLE
  5
33AA
330
1F
100
AcDbEntity
  8
太線
100
AcDbCircle
 10
734.3596591167722
 20
147.2840785510658
 30
0.0
 40
10.0
  0
LEADER
  5
33AB
330
1F
100
AcDbEntity
  8
寸法線
100
AcDbLeader
  3
sunpo
 76
     2
 10
731.4621080863723
 20
116.5918451124953
 30
0.0
 10
736.8679466409346
 20
82.71500996677337
 30
0.0
1001
ACAD
1000
DSTYLE
1002
{
1070
   147
1040
1.0
1070
    77
1070
     0
1002
}
  0
CIRCLE
  5
33AC
330
1F
100
AcDbEntity
  8
太線
100
AcDbCircle
 10
734.3596591167722
 20
147.2840785510658
 30
0.0
 40
29.5
  0
CIRCLE
  5
33AD
330
1F
100
AcDbEntity
  8
太線
100
AcDbCircle
 10
734.3596591167722
 20
147.2840785510658
 30
0.0
 40
24.5
  0
LINE
  5
33AE
330
1F
100
AcDbEntity
  8
太線
100
AcDbLine
 10
774.3596591167722
 20
207.2840785510657
 30
0.0
 11
694.3596591167723
 21
207.2840785510657
 31
0.0
  0
LINE
  5
33AF
330
1F
100
AcDbEntity
  8
太線
100
AcDbLine
 10
694.3596591167723
 20
87.28407855106581
 30
0.0
 11
774.3596591167723
 21
87.28407855106576
 31
0.0
  0
DIMENSION
  5
33B0
330
1F
100
AcDbEntity
  8
想像線
100
AcDbDimension
  2
*D11
 10
776.8101092651511
 20
258.4901047984477
 30
0.0
 11
736.1123537824356
 21
261.9905969244319
 31
0.0
 70
    32
  1
120
 71
     5
 42
81.39551096543096
  3
sunpo
100
AcDbAlignedDimension
 13
695.4145982997202
 23
188.9176125572287
 33
0.0
 14
776.8101092651511
 24
188.9176125572287
 34
0.0
100
AcDbRotatedDimension
1001
ACAD
1000
DSTYLE
1002
{
1070
    40
1040
1.0
1002
}
  0
ARC
  5
33B1
330
1F
100
AcDbEntity
  8
太線
100
AcDbCircle
 10
691.9835731947025
 20
190.560119057156
 30
0.0
 40
6.0
100
AcDbArc
 50
58.83348738434196
 51
236.3518041728777
  0
LINE
  5
33B2
330
1F
100
AcDbEntity
  8
太線
100
AcDbLine
 10
700.7411943707479
 20
189.7639425441226
 30
0.0
 11
695.0887351368164
 21
195.6941203537323
 31
0.0
  0
ARC
  5
33B3
330
1F
100
AcDbEntity
  8
太線
100
AcDbCircle
 10
694.3596591167723
 20
187.2840785510658
 30
0.0
 40
19.99999999999988
100
AcDbArc
 50
90.0
 51
180.0
  0
DIMENSION
  5
33B4
330
1F
100
AcDbEntity
  8
寸法線
100
AcDbDimension
  2
*D12
 10
694.3596591167723
 20
187.2840785510658
 30
0.0
 11
663.7496336644934
 21
210.8384385636409
 31
0.0
 70
   164
 71
     5
 42
19.99999999999983
  3
sunpo
100
AcDbRadialDimension
 15
678.5092282254165
 25
199.480956863091
 35
0.0
 40
0.0
1001
ACAD
1000
DSTYLE
1002
{
1070
    40
1040
1.0
1070
   288
1070
     1
1002
}
  0
LINE
  5
33B5
330
1F
100
AcDbEntity
  8
想像線
100
AcDbLine
 10
733.0559253835791
 20
117.8129014732336
 30
0.0
 11
733.6165943461189
 21
122.79534941404
 31
0.0
  0
LINE
  5
33B6
330
1F
100
AcDbEntity
  8
想像線
100
AcDbLine
 10
729.0810128449311
 20
118.2601936709058
 30
0.0
 11
729.6416818074708
 21
123.2426416117121
 31
0.0
  0
LINE
  5
33B7
330
1F
100
AcDbEntity
  8
太線
100
AcDbLine
 10
717.1740249616382
 20
123.5591307056901
 30
0.0
 11
714.8032275379075
 21
120.8874895321902
 31
0.0
  0
LINE
  5
33B8
330
1F
100
AcDbEntity
  8
想像線
  6
HIDDEN2
100
AcDbLine
 10
709.8937548598716
 20
121.2924802674065
 30
0.0
 11
711.927138658918
 21
122.0995280460497
 31
0.0
  0
LINE
  5
33B9
330
1F
100
AcDbEntity
  8
想像線
  6
HIDDEN2
100
AcDbLine
 10
711.927138658918
 20
122.0995280460497
 30
0.0
 11
712.6640553991777
 21
121.4455928070508
 31
0.0
  0
ARC
  5
33BA
330
1F
100
AcDbEntity
  8
太線
  6
HIDDEN2
100
AcDbCircle
 10
710.8331669677396
 20
123.0932813674257
 30
0.0
 40
1.970459417374236
100
AcDbArc
 50
138.4143536004886
 51
228.4143536004834
  0
LINE
  5
33BB
330
1F
100
AcDbEntity
  8
太線
  6
HIDDEN2
100
AcDbLine
 10
711.1186438366084
 20
124.1571657271848
 30
0.0
 11
714.8032275379075
 21
120.8874895321902
 31
0.0
  0
LINE
  5
33BC
330
1F
100
AcDbEntity
  8
想像線
  6
HIDDEN2
100
AcDbLine
 10
710.6306716001316
 20
120.6385450284076
 30
0.0
 11
711.927138658918
 21
122.0995280460497
 31
0.0
  0
LINE
  5
33BD
330
1F
100
AcDbEntity
  8
太線
100
AcDbLine
 10
674.3596591167722
 20
187.2840785510657
 30
0.0
 11
674.3596591167722
 21
107.2840785510657
 31
0.0
  0
DIMENSION
  5
33BE
330
1F
100
AcDbEntity
  8
想像線
100
AcDbDimension
  2
*D13
 10
651.2845029402795
 20
105.6266007632669
 30
0.0
 11
647.7840108142952
 21
146.7821594214951
 31
0.0
 70
    32
  1
120
 71
     5
 42
82.31111731645613
  3
sunpo
100
AcDbAlignedDimension
 13
694.4339321140023
 23
187.937718079723
 33
0.0
 14
694.4339321140023
 24
105.6266007632669
 34
0.0
 50
90.0
100
AcDbRotatedDimension
1001
ACAD
1000
DSTYLE
1002
{
1070
    40
1040
1.0
1002
}
  0
ARC
  5
33BF
330
1F
100
AcDbEntity
  8
太線
100
AcDbCircle
 10
694.3596591167723
 20
107.2840785510658
 30
0.0
 40
20.0
100
AcDbArc
 50
180.0
 51
270.0
  0
ARC
  5
33C0
330
1F
100
AcDbEntity
  8
太線
100
AcDbCircle
 10
691.3682156998695
 20
104.619290576781
 30
0.0
 40
6.0
100
AcDbArc
 50
149.216977121707
 51
326.7352939102442
  0
LINE
  5
33C1
330
1F
100
AcDbEntity
  8
太線
  6
HIDDEN2
100
AcDbLine
 10
709.5252964897418
 20
121.619447886906
 30
0.0
 11
712.472963450781
 21
119.0037069309104
 31
0.0
  0
ARC
  5
33C2
330
1F
100
AcDbEntity
  8
太線
100
AcDbCircle
 10
695.2059878975571
 20
108.2339586218611
 30
0.0
 40
6.0
100
AcDbArc
 50
300.362216594388
 51
121.4577023579331
  0
LINE
  5
33C3
330
1F
100
AcDbEntity
  8
太線
100
AcDbLine
 10
696.3850880881757
 20
101.3282434122069
 30
0.0
 11
698.2387771412759
 21
103.056875523901
 31
0.0
  0
LINE
  5
33C4
330
1F
100
AcDbEntity
  8
太線
100
AcDbLine
 10
692.1057586697343
 20
113.3820444858342
 30
0.0
 11
686.2135462142418
 21
107.6900205378714
 31
0.0
  0
ARC
  5
33C5
330
1F
100
AcDbEntity
  8
太線
  6
HIDDEN2
100
AcDbCircle
 10
715.2131766586681
 20
119.8650959230617
 30
0.0
 40
0.4926148543435592
100
AcDbArc
 50
318.4143536004886
 51
48.41435360048346
  0
LINE
  5
33C6
330
1F
100
AcDbEntity
  8
太線
  6
HIDDEN2
100
AcDbLine
 10
715.5816350287978
 20
119.5381283035621
 30
0.0
 11
715.2546674092985
 21
119.1696699334322
 31
0.0
  0
ARC
  5
33C7
330
1F
100
AcDbEntity
  8
太線
  6
HIDDEN2
100
AcDbCircle
 10
713.7808339287789
 20
120.4775404114302
 30
0.0
 40
1.970459417374236
100
AcDbArc
 50
228.4143536004834
 51
318.4143536004886
  0
LINE
  5
33C8
330
1F
100
AcDbEntity
  8
太線
  6
HIDDEN2
100
AcDbLine
 10
714.8032275379075
 20
120.8874895321902
 30
0.0
 11
715.5401442781673
 21
120.2335542931914
 31
0.0
  0
LINE
  5
33C9
330
1F
100
AcDbEntity
  8
想像線
  6
HIDDEN2
100
AcDbLine
 10
711.3675883403913
 20
119.9846097894088
 30
0.0
 11
712.6640553991777
 21
121.4455928070508
 31
0.0
  0
LINE
  5
33CA
330
1F
100
AcDbEntity
  8
想像線
  6
HIDDEN2
100
AcDbLine
 10
712.104505080651
 20
119.3306745504099
 30
0.0
 11
712.6640553991777
 21
121.4455928070508
 31
0.0
  0
LINE
  5
33CB
330
1F
100
AcDbEntity
  8
太線
  6
HIDDEN2
100
AcDbLine
 10
710.3817270963486
 20
124.8111009661836
 30
0.0
 11
711.1186438366084
 21
124.1571657271848
 31
0.0
  0
LINE
  5
33CC
330
1F
100
AcDbEntity
  8
太線
  6
HIDDEN2
100
AcDbLine
 10
709.3593334872199
 20
124.4011518454233
 30
0.0
 11
709.6863011067194
 21
124.7696102155533
 31
0.0
  0
ARC
  5
33CD
330
1F
100
AcDbEntity
  8
太線
  6
HIDDEN2
100
AcDbCircle
 10
710.0547594768492
 20
124.442642596054
 30
0.0
 40
0.4926148543435592
100
AcDbArc
 50
48.41435360048346
 51
138.4143536004886
  0
LINE
  5
33CE
330
1F
100
AcDbEntity
  8
太線
100
AcDbLine
 10
717.578505660208
 20
131.4367555606726
 30
0.0
 11
716.7332474502763
 21
130.4842378072414
 31
0.0
  0
LINE
  5
33CF
330
1F
100
AcDbEntity
  8
太線
  6
HIDDEN2
100
AcDbLine
 10
719.5345455029189
 20
132.8988265093687
 30
0.0
 11
722.4822124639581
 21
130.2830855533731
 31
0.0
  0
LINE
  5
33D0
330
1F
100
AcDbEntity
  8
太線
100
AcDbLine
 10
713.4704593661313
 20
126.8074162877166
 30
0.0
 11
711.1186438366084
 21
124.1571657271848
 31
0.0
  0
LINE
  5
33D1
330
1F
100
AcDbEntity
  8
太線
  6
HIDDEN2
100
AcDbLine
 10
721.3050302098885
 20
128.2143423229707
 30
0.0
 11
722.5237032145886
 21
129.5876595637437
 31
0.0
  0
LINE
  5
33D2
330
1F
100
AcDbEntity
  8
太線
100
AcDbLine
 10
721.3050302098885
 20
128.2143423229707
 30
0.0
 11
720.3552930825192
 21
127.144087737706
 31
0.0
  0
ARC
  5
33D3
330
1F
100
AcDbEntity
  8
太線
  6
HIDDEN2
100
AcDbCircle
 10
719.2075778834195
 20
132.5303681392389
 30
0.0
 40
0.4926148543435592
100
AcDbArc
 50
48.41435360048346
 51
138.4143536004886
  0
LINE
  5
33D4
330
1F
100
AcDbEntity
  8
太線
100
AcDbLine
 10
717.578505660208
 20
131.4367555606726
 30
0.0
 11
718.8391195132894
 21
132.8573357587383
 31
0.0
  0
CIRCLE
  5
33D5
330
1F
100
AcDbEntity
  8
太線
100
AcDbCircle
 10
716.1850648617642
 20
147.284078551066
 30
0.0
 40
4.0
  0
ARC
  5
33D6
330
1F
100
AcDbEntity
  8
太線
100
AcDbCircle
 10
695.5724736483975
 20
186.698239456374
 30
0.0
 40
6.0
100
AcDbArc
 50
209.978726857023
 51
31.07421262056787
  0
LINE
  5
33D7
330
1F
100
AcDbEntity
  8
太線
100
AcDbLine
 10
688.6590212749483
 20
185.5653863783373
 30
0.0
 11
690.3752077247088
 21
183.7001689237703
 31
0.0
  0
LINE
  5
33D8
330
1F
100
AcDbEntity
  8
太線
  6
HIDDEN2
100
AcDbLine
 10
718.1742734188706
 20
177.1867009159811
 30
0.0
 11
718.4583304379042
 21
176.7842322778767
 31
0.0
  0
LINE
  5
33D9
330
1F
100
AcDbEntity
  8
太線
  6
HIDDEN2
100
AcDbLine
 10
715.4281707903183
 20
177.6603473922641
 30
0.0
 11
712.2084216854829
 21
175.3878912399948
 31
0.0
  0
LINE
  5
33DA
330
1F
100
AcDbEntity
  8
想像線
  6
HIDDEN2
100
AcDbLine
 10
715.0257021522138
 20
177.3762903732304
 30
0.0
 11
715.3470860956964
 21
175.2123383977678
 31
0.0
  0
LINE
  5
33DB
330
1F
100
AcDbEntity
  8
太線
100
AcDbLine
 10
723.1470635456994
 20
167.5780657786807
 30
0.0
 11
722.4127353948126
 21
168.6185049546413
 31
0.0
  0
LINE
  5
33DC
330
1F
100
AcDbEntity
  8
太線
  6
HIDDEN2
100
AcDbLine
 10
724.1238252462592
 20
165.3398343550755
 30
0.0
 11
720.9040761414237
 21
163.0673782028063
 31
0.0
  0
LINE
  5
33DD
330
1F
100
AcDbEntity
  8
太線
  6
HIDDEN2
100
AcDbLine
 10
719.1588137768958
 20
164.6858700599358
 30
0.0
 11
720.2175504842855
 21
163.1857898218769
 31
0.0
  0
LINE
  5
33DE
330
1F
100
AcDbEntity
  8
太線
100
AcDbLine
 10
719.1588137768958
 20
164.6858700599358
 30
0.0
 11
718.3337183204125
 21
165.8549136759206
 31
0.0
  0
LINE
  5
33DF
330
1F
100
AcDbEntity
  8
太線
  6
HIDDEN2
100
AcDbLine
 10
717.5349815426247
 20
175.5295925826713
 30
0.0
 11
713.5102951615802
 21
172.6890223923346
 31
0.0
  0
LINE
  5
33E0
330
1F
100
AcDbEntity
  8
想像線
  6
HIDDEN2
100
AcDbLine
 10
715.3470860956964
 20
175.2123383977678
 30
0.0
 11
714.5421488194876
 21
174.6442243597005
 31
0.0
  0
ARC
  5
33E1
330
1F
100
AcDbEntity
  8
太線
  6
HIDDEN2
100
AcDbCircle
 10
712.4213008663381
 20
172.5233769923717
 30
0.0
 40
0.4926148543435592
100
AcDbArc
 50
215.2139355850716
 51
305.21393558507
  0
LINE
  5
33E2
330
1F
100
AcDbEntity
  8
太線
  6
HIDDEN2
100
AcDbLine
 10
713.5102951615802
 20
172.6890223923346
 30
0.0
 11
712.7053578853714
 21
172.1209083542673
 31
0.0
  0
LINE
  5
33E3
330
1F
100
AcDbEntity
  8
太線
  6
HIDDEN2
100
AcDbLine
 10
712.0188322282334
 20
172.239319973338
 30
0.0
 11
711.7347752091998
 21
172.6417886114424
 31
0.0
  0
ARC
  5
33E4
330
1F
100
AcDbEntity
  8
太線
  6
HIDDEN2
100
AcDbCircle
 10
713.3446497616177
 20
173.778016687577
 30
0.0
 40
1.970459417374236
100
AcDbArc
 50
125.21393558507
 51
215.2139355850716
  0
LINE
  5
33E5
330
1F
100
AcDbEntity
  8
太線
100
AcDbLine
 10
715.5699536988647
 20
169.7707774241905
 30
0.0
 11
713.5102951615802
 21
172.6890223923346
 31
0.0
  0
LINE
  5
33E6
330
1F
100
AcDbEntity
  8
想像線
  6
HIDDEN2
100
AcDbLine
 10
712.6108903235873
 20
175.6719482590285
 30
0.0
 11
714.5421488194876
 21
174.6442243597005
 31
0.0
  0
LINE
  5
33E7
330
1F
100
AcDbEntity
  8
想像線
  6
HIDDEN2
100
AcDbLine
 10
714.220764876005
 20
176.808176335163
 30
0.0
 11
715.3470860956964
 21
175.2123383977678
 31
0.0
  0
LINE
  5
33E8
330
1F
100
AcDbEntity
  8
想像線
  6
HIDDEN2
100
AcDbLine
 10
713.4158275997961
 20
176.2400622970957
 30
0.0
 11
714.5421488194876
 21
174.6442243597005
 31
0.0
  0
ARC
  5
33E9
330
1F
100
AcDbEntity
  8
太線
  6
HIDDEN2
100
AcDbCircle
 10
718.0558617998001
 20
176.5001752588431
 30
0.0
 40
0.4926148543435592
100
AcDbArc
 50
305.21393558507
 51
35.21393558507166
  0
LINE
  5
33EA
330
1F
100
AcDbEntity
  8
太線
100
AcDbLine
 10
719.5781493329276
 20
172.6347126716607
 30
0.0
 11
717.5349815426247
 21
175.5295925826713
 31
0.0
  0
LINE
  5
33EB
330
1F
100
AcDbEntity
  8
太線
  6
HIDDEN2
100
AcDbLine
 10
718.3399188188334
 20
176.0977066207387
 30
0.0
 11
717.5349815426247
 21
175.5295925826713
 31
0.0
  0
ARC
  5
33EC
330
1F
100
AcDbEntity
  8
太線
  6
HIDDEN2
100
AcDbCircle
 10
723.8397682272256
 20
165.74230299318
 30
0.0
 40
0.4926148543435592
100
AcDbArc
 50
305.21393558507
 51
35.21393558507166
  0
LINE
  5
33ED
330
1F
100
AcDbEntity
  8
太線
100
AcDbLine
 10
723.1470635456994
 20
167.5780657786807
 30
0.0
 11
724.2422368653299
 21
166.0263600122137
 31
0.0
  0
ARC
  5
33EE
330
1F
100
AcDbEntity
  8
太線
  6
HIDDEN2
100
AcDbCircle
 10
716.5643988664531
 20
176.0504728398464
 30
0.0
 40
1.970459417374236
100
AcDbArc
 50
35.21393558507166
 51
125.21393558507
  0
LINE
  5
33EF
330
1F
100
AcDbEntity
  8
太線
100
AcDbLine
 10
768.1167283438811
 20
189.6538825858318
 30
0.0
 11
773.7885316070357
 21
195.5655618725414
 31
0.0
  0
ARC
  5
33F0
330
1F
100
AcDbEntity
  8
太線
100
AcDbCircle
 10
774.3596591167722
 20
187.2840785510657
 30
0.0
 40
19.99999999999994
100
AcDbArc
 50
0.0
 51
90.0
  0
ARC
  5
33F1
330
1F
100
AcDbEntity
  8
太線
100
AcDbCircle
 10
776.8769039315733
 20
190.4214432517249
 30
0.0
 40
6.0
100
AcDbArc
 50
303.4610072403252
 51
120.9793240288655
  0
LEADER
  5
33F2
330
1F
100
AcDbEntity
  8
寸法線
100
AcDbLeader
  3
sunpo
 76
     2
 10
744.8415485494503
 20
165.0707161512296
 30
0.0
 10
752.2135412480595
 20
229.7768066325953
 30
0.0
1001
ACAD
1000
DSTYLE
1002
{
1070
   147
1040
1.0
1070
    77
1070
     0
1002
}
  0
TEXT
  5
33F3
330
1F
100
AcDbEntity
  8
文字
100
AcDbText
 10
639.4700940712682
 20
75.78852035514728
 30
0.0
 40
5.759999999999999
  1
M5-8mm  ×3　SUS304
 51
15.0
  7
OKANO
100
AcDbText
  0
DIMENSION
  5
33F4
330
1F
100
AcDbEntity
  8
寸法線
100
AcDbDimension
  2
*D14
 10
791.2564898099684
 20
109.4370448239763
 30
0.0
 11
787.0489273827054
 21
118.3422762895339
 31
0.0
 70
    33
  1
20
 71
     5
 42
18.41230935112673
  3
sunpo
100
AcDbAlignedDimension
 13
768.8115492263853
 23
112.664095231703
 33
0.0
 14
782.0804300418942
 24
99.89891064449835
 34
0.0
1001
ACAD
1000
DSTYLE
1002
{
1070
    40
1040
1.0
1002
}
  0
LINE
  5
33F5
330
1F
100
AcDbEntity
  8
太線
100
AcDbLine
 10
794.3596591167723
 20
107.2840785510657
 30
0.0
 11
794.3596591167723
 21
187.2840785510657
 31
0.0
  0
ARC
  5
33F6
330
1F
100
AcDbEntity
  8
太線
100
AcDbCircle
 10
774.3596591167723
 20
107.2840785510656
 30
0.0
 40
20.0
100
AcDbArc
 50
270.0
 51
0.0
  0
ARC
  5
33F7
330
1F
100
AcDbEntity
  8
太線
100
AcDbCircle
 10
777.1880862415184
 20
104.4556514263194
 30
0.0
 40
6.0
100
AcDbArc
 50
213.0462060789197
 51
30.56452286745789
  0
DIMENSION
  5
33F8
330
1F
100
AcDbEntity
  8
寸法線
100
AcDbDimension
  2
*D15
 10
805.8905105193591
 20
84.40866462232174
 30
0.0
 11
799.2392364321627
 21
82.71184008899746
 31
0.0
 70
    33
  1
12
 71
     5
 42
11.80935482671657
  3
sunpo
100
AcDbAlignedDimension
 13
771.7601888743049
 23
101.8627855848945
 33
0.0
 14
780.1146694766573
 24
110.209252818893
 34
0.0
1001
ACAD
1000
DSTYLE
1002
{
1070
    40
1040
1.0
1002
}
  0
TEXT
  5
33F9
330
1F
100
AcDbEntity
  8
文字
100
AcDbText
 10
734.190624150802
 20
75.51308486971248
 30
0.0
 40
5.759999999999999
  1
Φ3.8mm×1
 51
15.0
  7
OKANO
100
AcDbText
  0
ARC
  5
33FA
330
1F
100
AcDbEntity
  8
太線
100
AcDbCircle
 10
773.3641266148017
 20
108.0849286671359
 30
0.0
 40
6.0
100
AcDbArc
 50
58.32379763122862
 51
239.4192833947736
  0
LINE
  5
33FB
330
1F
100
AcDbEntity
  8
太線
100
AcDbLine
 10
772.1586998089251
 20
101.1837602130232
 30
0.0
 11
770.3116164347066
 21
102.9194488636312
 31
0.0
  0
LINE
  5
33FC
330
1F
100
AcDbEntity
  8
太線
100
AcDbLine
 10
776.4839657066306
 20
113.2211542627443
 30
0.0
 11
782.3544285819885
 21
107.5067015440767
 31
0.0
  0
CIRCLE
  5
33FE
330
1F
100
AcDbEntity
  8
太線
100
AcDbCircle
 10
743.4469562442764
 20
131.544418222754
 30
0.0
 40
4.0
  0
LINE
  5
33FF
330
1F
100
AcDbEntity
  8
太線
100
AcDbLine
 10
757.5812027568742
 20
144.9916637363138
 30
0.0
 11
758.8546828360506
 21
144.9916637363138
 31
0.0
  0
LINE
  5
3400
330
1F
100
AcDbEntity
  8
太線
100
AcDbLine
 10
757.5812027568742
 20
144.9916637363138
 30
0.0
 11
755.6819409566696
 21
144.9916637363138
 31
0.0
  0
ARC
  5
3401
330
1F
100
AcDbEntity
  8
太線
  6
HIDDEN2
100
AcDbCircle
 10
755.6819409566696
 20
145.4842785906574
 30
0.0
 40
0.4926148543435592
100
AcDbArc
 50
180.0
 51
270.0
  0
LINE
  5
3402
330
1F
100
AcDbEntity
  8
太線
  6
HIDDEN2
100
AcDbLine
 10
755.1893261023259
 20
145.4842785906574
 30
0.0
 11
755.189326102326
 21
149.4251974254058
 31
0.0
  0
LINE
  5
3403
330
1F
100
AcDbEntity
  8
太線
100
AcDbLine
 10
757.5180139770556
 20
149.9178122797494
 30
0.0
 11
758.948903731154
 21
149.9178122797494
 31
0.0
  0
LINE
  5
3404
330
1F
100
AcDbEntity
  8
太線
  6
HIDDEN2
100
AcDbLine
 10
757.5180139770556
 20
149.9178122797494
 30
0.0
 11
755.6819409566696
 21
149.9178122797494
 31
0.0
  0
ARC
  5
3405
330
1F
100
AcDbEntity
  8
太線
  6
HIDDEN2
100
AcDbCircle
 10
768.2989677428577
 20
149.4251974254058
 30
0.0
 40
1.970459417374236
100
AcDbArc
 50
0.0
 51
90.0
  0
LINE
  5
3406
330
1F
100
AcDbEntity
  8
太線
  6
HIDDEN2
100
AcDbLine
 10
767.3137380341707
 20
144.9916637363138
 30
0.0
 11
767.3137380341707
 21
149.9178122797494
 31
0.0
  0
LINE
  5
3407
330
1F
100
AcDbEntity
  8
太線
100
AcDbLine
 10
763.7704536371029
 20
144.9916637363138
 30
0.0
 11
767.3137380341707
 21
144.9916637363138
 31
0.0
  0
LINE
  5
3408
330
1F
100
AcDbEntity
  8
太線
  6
HIDDEN2
100
AcDbLine
 10
767.3137380341707
 20
144.0064340276267
 30
0.0
 11
767.3137380341707
 21
144.9916637363138
 31
0.0
  0
ARC
  5
3409
330
1F
100
AcDbEntity
  8
太線
  6
HIDDEN2
100
AcDbCircle
 10
767.8063528885141
 20
144.0064340276267
 30
0.0
 40
0.4926148543435592
100
AcDbArc
 50
180.0
 51
270.0
  0
LINE
  5
340A
330
1F
100
AcDbEntity
  8
太線
  6
HIDDEN2
100
AcDbLine
 10
768.2989677428577
 20
143.5138191732832
 30
0.0
 11
767.8063528885141
 21
143.5138191732832
 31
0.0
  0
ARC
  5
340B
330
1F
100
AcDbEntity
  8
太線
  6
HIDDEN2
100
AcDbCircle
 10
768.2989677428577
 20
145.4842785906574
 30
0.0
 40
1.970459417374236
100
AcDbArc
 50
270.0
 51
0.0
  0
LINE
  5
340C
330
1F
100
AcDbEntity
  8
想像線
  6
HIDDEN2
100
AcDbLine
 10
768.316148323927
 20
146.962123153688
 30
0.0
 11
768.316148323927
 21
147.9473528623751
 31
0.0
  0
LINE
  5
340D
330
1F
100
AcDbEntity
  8
想像線
  6
HIDDEN2
100
AcDbLine
 10
770.269427160232
 20
147.9473528623751
 30
0.0
 11
768.316148323927
 21
147.9473528623751
 31
0.0
  0
LINE
  5
340E
330
1F
100
AcDbEntity
  8
想像線
  6
HIDDEN2
100
AcDbLine
 10
770.269427160232
 20
146.962123153688
 30
0.0
 11
768.316148323927
 21
146.962123153688
 31
0.0
  0
LINE
  5
340F
330
1F
100
AcDbEntity
  8
想像線
  6
HIDDEN2
100
AcDbLine
 10
770.269427160232
 20
145.976893445001
 30
0.0
 11
768.316148323927
 21
146.962123153688
 31
0.0
  0
LINE
  5
3410
330
1F
100
AcDbEntity
  8
太線
  6
HIDDEN2
100
AcDbLine
 10
770.269427160232
 20
145.4842785906574
 30
0.0
 11
770.269427160232
 21
149.4251974254058
 31
0.0
  0
LINE
  5
3411
330
1F
100
AcDbEntity
  8
想像線
  6
HIDDEN2
100
AcDbLine
 10
770.269427160232
 20
148.9325825710622
 30
0.0
 11
768.316148323927
 21
147.9473528623751
 31
0.0
  0
LINE
  5
3412
330
1F
100
AcDbEntity
  8
太線
100
AcDbLine
 10
763.741855199543
 20
149.9178122797494
 30
0.0
 11
767.3137380341707
 21
149.9178122797494
 31
0.0
  0
LINE
  5
3413
330
1F
100
AcDbEntity
  8
太線
  6
HIDDEN2
100
AcDbLine
 10
767.8063528885141
 20
151.3956568427801
 30
0.0
 11
768.2989677428577
 21
151.3956568427801
 31
0.0
  0
LINE
  5
3414
330
1F
100
AcDbEntity
  8
太線
  6
HIDDEN2
100
AcDbLine
 10
767.3137380341707
 20
149.9178122797494
 30
0.0
 11
767.3137380341707
 21
150.9030419884365
 31
0.0
  0
ARC
  5
3415
330
1F
100
AcDbEntity
  8
太線
  6
HIDDEN2
100
AcDbCircle
 10
767.8063528885141
 20
150.9030419884365
 30
0.0
 40
0.4926148543435592
100
AcDbArc
 50
90.0
 51
180.0
  0
CIRCLE
  5
3416
330
1F
100
AcDbEntity
  8
太線
100
AcDbCircle
 10
743.4469562442761
 20
163.0237388793776
 30
0.0
 40
4.0
  0
LINE
  5
3417
330
1F
100
AcDbEntity
  8
想像線
100
AcDbLine
 10
739.6383053886133
 20
176.3079634312257
 30
0.0
 11
739.0776364260736
 21
171.3255154904193
 31
0.0
  0
LINE
  5
3418
330
1F
100
AcDbEntity
  8
想像線
100
AcDbLine
 10
735.1027238874255
 20
171.7728076880915
 30
0.0
 11
735.6633928499653
 21
176.7552556288978
 31
0.0
  0
ARC
  5
3419
330
1F
100
AcDbEntity
  8
太線
100
AcDbCircle
 10
773.2754056722549
 20
186.5713093831958
 30
0.0
 40
6.0
100
AcDbArc
 50
148.7385987926347
 51
329.8340845561821
  0
LINE
  5
341A
330
1F
100
AcDbEntity
  8
太線
100
AcDbLine
 10
780.1851200606305
 20
185.415875747091
 30
0.0
 11
778.4628490086565
 21
183.5562751161232
 31
0.0
  0
TEXT
  5
341B
330
1F
100
AcDbEntity
  8
文字
100
AcDbText
 10
741.3475282902283
 20
234.1526835929353
 30
0.0
 40
5.759999999999999
  1
Φ4mm×3
 51
15.0
  7
OKANO
100
AcDbText
  0
LINE
  5
3482
330
1F
100
AcDbEntity
  8
太線
100
AcDbLine
 10
589.7952221565828
 20
-46.16139504737623
 30
0.0
 11
590.7952221565828
 21
-43.46036798987472
 31
0.0
  0
LINE
  5
3483
330
1F
100
AcDbEntity
  8
太線
100
AcDbLine
 10
590.7952221565828
 20
-43.46036798987472
 30
0.0
 11
600.7952221565829
 21
-43.46036798987472
 31
0.0
  0
LINE
  5
3484
330
1F
100
AcDbEntity
  8
太線
100
AcDbLine
 10
600.7952221565829
 20
-43.46036798987472
 30
0.0
 11
601.7952221565828
 21
-46.16139504737623
 31
0.0
  0
LINE
  5
3485
330
1F
100
AcDbEntity
  8
太線
100
AcDbLine
 10
724.5246368337054
 20
-46.16139504737623
 30
0.0
 11
725.5246368337055
 21
-43.46036798987472
 31
0.0
  0
LINE
  5
3486
330
1F
100
AcDbEntity
  8
太線
100
AcDbLine
 10
725.5246368337055
 20
-43.46036798987472
 30
0.0
 11
742.920331069894
 21
-43.46036798987472
 31
0.0
  0
LINE
  5
3487
330
1F
100
AcDbEntity
  8
太線
100
AcDbLine
 10
742.920331069894
 20
-43.46036798987472
 30
0.0
 11
744.5246368337055
 21
-46.16139504737623
 31
0.0
  0
DIMENSION
  5
3488
330
1F
100
AcDbEntity
  8
寸法線
100
AcDbDimension
  2
*D16
 10
628.1782731947489
 20
-43.46036798987473
 30
0.0
 11
624.6782731947489
 21
-113.4603679898746
 31
0.0
 70
    32
 71
     5
 42
140.0
  3
sunpo
100
AcDbAlignedDimension
 13
623.2952221565828
 23
-183.4603679898747
 33
0.0
 14
600.7952221565829
 24
-43.46036798987472
 34
0.0
 50
90.0
100
AcDbRotatedDimension
1001
ACAD
1000
DSTYLE
1002
{
1070
    40
1040
1.0
1002
}
  0
DIMENSION
  5
3495
330
1F
100
AcDbEntity
  8
寸法線
100
AcDbDimension
  2
*D17
 10
796.2361512116772
 20
-43.46036798987474
 30
0.0
 11
792.7361512116772
 21
-113.189688073805
 31
0.0
 70
    32
  1
140
 71
     5
 42
139.4586401678609
  3
sunpo
100
AcDbAlignedDimension
 13
794.5246368337055
 23
-182.9190081577356
 33
0.0
 14
742.920331069894
 24
-43.46036798987472
 34
0.0
 50
90.0
100
AcDbRotatedDimension
1001
ACAD
1000
DSTYLE
1002
{
1070
    40
1040
1.0
1002
}
  0
LINE
  5
34CC
330
1F
100
AcDbEntity
  8
太線
100
AcDbLine
 10
596.0127476447844
 20
55.86013516560218
 30
0.0
 11
596.0127476447844
 21
30.86013516560217
 31
0.0
  0
LINE
  5
34CD
330
1F
100
AcDbEntity
  8
太線
100
AcDbLine
 10
591.0127476447844
 20
30.86013516560217
 30
0.0
 11
591.0127476447844
 21
55.86013516560218
 31
0.0
  0
LINE
  5
34CE
330
1F
100
AcDbEntity
  8
想像線
100
AcDbLine
 10
568.5127476447844
 20
65.86013516560218
 30
0.0
 11
568.5127476447844
 21
30.86013516560217
 31
0.0
  0
LINE
  5
34CF
330
1F
100
AcDbEntity
  8
太線
100
AcDbLine
 10
563.5966678616848
 20
65.86013516560218
 30
0.0
 11
563.9323487292863
 21
5.860135165602173
 31
0.0
  0
LINE
  5
34D0
330
1F
100
AcDbEntity
  8
太線
100
AcDbLine
 10
623.5127476447844
 20
65.86013516560218
 30
0.0
 11
623.5127476447844
 21
30.86013516560217
 31
0.0
  0
LINE
  5
34D1
330
1F
100
AcDbEntity
  8
太線
100
AcDbLine
 10
624.1025243887848
 20
55.86013516560218
 30
0.0
 11
648.5127476447844
 21
30.86013516560217
 31
0.0
  0
LINE
  5
34D2
330
1F
100
AcDbEntity
  8
想像線
100
AcDbLine
 10
618.5127476447844
 20
30.86013516560217
 30
0.0
 11
618.5127476447844
 21
65.86013516560218
 31
0.0
  0
LINE
  5
34D3
330
1F
100
AcDbEntity
  8
太線
100
AcDbLine
 10
580.1765870429825
 20
-19.13986483439785
 30
0.0
 11
606.8489082465863
 21
-19.13986483439785
 31
0.0
  0
LINE
  5
34D4
330
1F
100
AcDbEntity
  8
太線
100
AcDbLine
 10
574.5127476447844
 20
-29.13986483439785
 30
0.0
 11
612.5127476447844
 21
-29.13986483439785
 31
0.0
  0
LINE
  5
34D5
330
1F
100
AcDbEntity
  8
想像線
100
AcDbLine
 10
593.5127476447844
 20
24.89871207017483
 30
0.0
 11
624.0911838891281
 21
24.89871207017483
 31
0.0
  0
LINE
  5
34D6
330
1F
100
AcDbEntity
  8
想像線
100
AcDbLine
 10
593.5127476447844
 20
-23.17844173897049
 30
0.0
 11
623.5127476447844
 21
-23.17844173897049
 31
0.0
  0
CIRCLE
  5
34D7
330
1F
100
AcDbEntity
  8
細線
100
AcDbCircle
 10
593.5127476447844
 20
0.8601351656021734
 30
0.0
 40
24.03857690457265
  0
LINE
  5
34D8
330
1F
100
AcDbEntity
  8
想像線
100
AcDbLine
 10
568.5127476447844
 20
30.86013516560217
 30
0.0
 11
618.5127476447844
 21
30.86013516560217
 31
0.0
  0
CIRCLE
  5
34D9
330
1F
100
AcDbEntity
  8
太線
100
AcDbCircle
 10
593.5127476447844
 20
0.8601351656021734
 30
0.0
 40
25.0
  0
CIRCLE
  5
34DA
330
1F
100
AcDbEntity
  8
太線
100
AcDbCircle
 10
593.5127476447844
 20
0.8601351656021734
 30
0.0
 40
30.0
  0
LINE
  5
34DB
330
1F
100
AcDbEntity
  8
太線
100
AcDbLine
 10
658.5127476447844
 20
-29.13986483439782
 30
0.0
 11
593.5127476447844
 21
-29.13986483439782
 31
0.0
  0
LINE
  5
34DC
330
1F
100
AcDbEntity
  8
想像線
100
AcDbLine
 10
599.5127476447844
 20
-19.13986483439785
 30
0.0
 11
599.5127476447844
 21
-28.53374174779597
 31
0.0
  0
LINE
  5
34DD
330
1F
100
AcDbEntity
  8
想像線
100
AcDbLine
 10
603.5127476447844
 20
-19.13986483439785
 30
0.0
 11
603.5127476447844
 21
-29.13986483439785
 31
0.0
  0
LINE
  5
34DE
330
1F
100
AcDbEntity
  8
想像線
100
AcDbLine
 10
593.5127476447844
 20
-19.13986483439785
 30
0.0
 11
593.5127476447844
 21
-29.13986483439782
 31
0.0
  0
LINE
  5
34DF
330
1F
100
AcDbEntity
  8
想像線
100
AcDbLine
 10
587.5127476447844
 20
-19.13986483439785
 30
0.0
 11
587.5127476447844
 21
-28.53374174779597
 31
0.0
  0
LINE
  5
34E0
330
1F
100
AcDbEntity
  8
想像線
100
AcDbLine
 10
583.5127476447844
 20
-19.13986483439785
 30
0.0
 11
583.5127476447844
 21
-29.13986483439785
 31
0.0
  0
LINE
  5
34E1
330
1F
100
AcDbEntity
  8
太線
100
AcDbLine
 10
573.5127476447844
 20
-21.50054460939574
 30
0.0
 11
573.5127476447844
 21
-28.13986483439785
 31
0.0
  0
ARC
  5
34E2
330
1F
100
AcDbEntity
  8
太線
100
AcDbCircle
 10
574.2447044698345
 20
-30.12182165944798
 30
0.0
 40
1.0
100
AcDbArc
 50
82.29795315063654
 51
98.89579528650337
  0
ARC
  5
34E3
330
1F
100
AcDbEntity
  8
太線
100
AcDbCircle
 10
574.5127476447844
 20
-28.13986483439785
 30
0.0
 40
1.0
100
AcDbArc
 50
262.2979531506369
 51
270.0
  0
ARC
  5
34E4
330
1F
100
AcDbEntity
  8
太線
100
AcDbCircle
 10
574.0127476447844
 20
-28.63986483439785
 30
0.0
 40
0.5
100
AcDbArc
 50
180.0
 51
278.8957952865034
  0
LINE
  5
34E5
330
1F
100
AcDbEntity
  8
想像線
100
AcDbLine
 10
569.4741707402117
 20
30.86013516560217
 30
0.0
 11
569.4741707402117
 21
0.8601351656021734
 31
0.0
  0
LINE
  5
34E6
330
1F
100
AcDbEntity
  8
太線
100
AcDbLine
 10
658.5127476447844
 20
30.86013516560217
 30
0.0
 11
658.5127476447844
 21
-29.13986483439782
 31
0.0
  0
LINE
  5
34E7
330
1F
100
AcDbEntity
  8
想像線
100
AcDbLine
 10
624.1025243887848
 20
25.86013516560217
 30
0.0
 11
623.5127476447844
 21
-24.13986483439782
 31
0.0
  0
LINE
  5
34E8
330
1F
100
AcDbEntity
  8
想像線
100
AcDbLine
 10
623.5127476447844
 20
-24.13986483439782
 30
0.0
 11
658.5127476447844
 21
-24.13986483439782
 31
0.0
  0
LINE
  5
34E9
330
1F
100
AcDbEntity
  8
太線
100
AcDbLine
 10
613.5127476447844
 20
-28.13986483439785
 30
0.0
 11
613.5127476447844
 21
-21.50054460939574
 31
0.0
  0
ARC
  5
34EA
330
1F
100
AcDbEntity
  8
太線
100
AcDbCircle
 10
612.5127476447844
 20
-28.13986483439785
 30
0.0
 40
1.0
100
AcDbArc
 50
270.0
 51
0.0
  0
LINE
  5
34EB
330
1F
100
AcDbEntity
  8
太線
100
AcDbLine
 10
613.5127476447844
 20
-21.50054460939574
 30
0.0
 11
613.5127476447844
 21
-23.17844173897049
 31
0.0
  0
LINE
  5
34EC
330
1F
100
AcDbEntity
  8
太線
100
AcDbLine
 10
648.5127476447844
 20
-1.639864834397826
 30
0.0
 11
624.1025243887848
 21
-1.639864834397826
 31
0.0
  0
LINE
  5
34ED
330
1F
100
AcDbEntity
  8
太線
100
AcDbLine
 10
623.4083995025379
 20
3.360135165602173
 30
0.0
 11
648.5127476447844
 21
3.360135165602173
 31
0.0
  0
LINE
  5
34EE
330
1F
100
AcDbEntity
  8
太線
100
AcDbLine
 10
623.5127476447844
 20
30.86013516560217
 30
0.0
 11
658.5127476447844
 21
30.86013516560217
 31
0.0
  0
LINE
  5
34EF
330
1F
100
AcDbEntity
  8
想像線
100
AcDbLine
 10
658.5127476447844
 20
25.86013516560217
 30
0.0
 11
624.1025243887848
 21
25.86013516560217
 31
0.0
  0
LINE
  5
34F0
330
1F
100
AcDbEntity
  8
想像線
100
AcDbLine
 10
617.551324549357
 20
30.86013516560217
 30
0.0
 11
617.551324549357
 21
0.8601351656021734
 31
0.0
  0
LINE
  5
34F1
330
1F
100
AcDbEntity
  8
破線
100
AcDbLine
 10
625.3067255192783
 20
-1.639864834397826
 30
0.0
 11
625.3067255192783
 21
3.360135165602173
 31
0.0
  0
LINE
  5
34F2
330
1F
100
AcDbEntity
  8
破線
100
AcDbLine
 10
631.7394655953055
 20
-1.639864834397826
 30
0.0
 11
631.7394655953055
 21
3.360135165602173
 31
0.0
  0
LINE
  5
34F3
330
1F
100
AcDbEntity
  8
太線
100
AcDbLine
 10
648.5127476447844
 20
3.360135165602173
 30
0.0
 11
648.5127476447844
 21
-1.639864834397826
 31
0.0
  0
LINE
  5
34F4
330
1F
100
AcDbEntity
  8
太線
100
AcDbLine
 10
563.5966678616848
 20
65.86013516560218
 30
0.0
 11
623.5127476447844
 21
65.86013516560218
 31
0.0
  0
LINE
  5
34F5
330
1F
100
AcDbEntity
  8
破線
100
AcDbLine
 10
591.0127476447844
 20
32.41021747195304
 30
0.0
 11
596.0127476447844
 21
32.41021747195304
 31
0.0
  0
LINE
  5
34F6
330
1F
100
AcDbEntity
  8
破線
100
AcDbLine
 10
591.0127476447844
 20
38.59065905748252
 30
0.0
 11
596.0127476447844
 21
38.59065905748252
 31
0.0
  0
LINE
  5
34F7
330
1F
100
AcDbEntity
  8
太線
100
AcDbLine
 10
591.0127476447844
 20
55.86013516560218
 30
0.0
 11
596.0127476447844
 21
55.86013516560218
 31
0.0
  0
CIRCLE
  5
34F8
330
1F
100
AcDbEntity
  8
太線
100
AcDbCircle
 10
628.9559972657639
 20
35.60393513682857
 30
0.0
 40
3.0
  0
LINE
  5
34F9
330
1F
100
AcDbEntity
  8
想像線
100
AcDbLine
 10
756.8304685025716
 20
30.86013516560217
 30
0.0
 11
756.8304685025716
 21
65.86013516560218
 31
0.0
  0
LINE
  5
34FA
330
1F
100
AcDbEntity
  8
太線
100
AcDbLine
 10
762.420245246572
 20
55.86013516560218
 30
0.0
 11
786.8304685025716
 21
30.86013516560217
 31
0.0
  0
LINE
  5
34FB
330
1F
100
AcDbEntity
  8
太線
100
AcDbLine
 10
761.8304685025716
 20
65.86013516560218
 30
0.0
 11
761.8304685025716
 21
30.86013516560217
 31
0.0
  0
LINE
  5
34FC
330
1F
100
AcDbEntity
  8
太線
100
AcDbLine
 10
701.914388719472
 20
65.86013516560218
 30
0.0
 11
702.2500695870735
 21
5.860135165602173
 31
0.0
  0
LINE
  5
34FD
330
1F
100
AcDbEntity
  8
想像線
100
AcDbLine
 10
706.8304685025716
 20
65.86013516560218
 30
0.0
 11
706.8304685025716
 21
30.86013516560217
 31
0.0
  0
LINE
  5
34FE
330
1F
100
AcDbEntity
  8
太線
100
AcDbLine
 10
729.3304685025717
 20
30.86013516560217
 30
0.0
 11
729.3304685025717
 21
55.86013516560218
 31
0.0
  0
LINE
  5
34FF
330
1F
100
AcDbEntity
  8
太線
100
AcDbLine
 10
734.3304685025716
 20
55.86013516560218
 30
0.0
 11
734.3304685025716
 21
30.86013516560217
 31
0.0
  0
LINE
  5
3500
330
1F
100
AcDbEntity
  8
太線
100
AcDbLine
 10
796.8304685025716
 20
-29.13986483439782
 30
0.0
 11
731.8304685025716
 21
-29.13986483439782
 31
0.0
  0
CIRCLE
  5
3501
330
1F
100
AcDbEntity
  8
太線
100
AcDbCircle
 10
731.8304685025716
 20
0.8601351656021734
 30
0.0
 40
30.0
  0
CIRCLE
  5
3502
330
1F
100
AcDbEntity
  8
太線
100
AcDbCircle
 10
731.8304685025716
 20
0.8601351656021734
 30
0.0
 40
25.0
  0
LINE
  5
3503
330
1F
100
AcDbEntity
  8
想像線
100
AcDbLine
 10
706.8304685025716
 20
30.86013516560217
 30
0.0
 11
756.8304685025716
 21
30.86013516560217
 31
0.0
  0
CIRCLE
  5
3504
330
1F
100
AcDbEntity
  8
細線
100
AcDbCircle
 10
731.8304685025716
 20
0.8601351656021734
 30
0.0
 40
24.03857690457265
  0
LINE
  5
3505
330
1F
100
AcDbEntity
  8
想像線
100
AcDbLine
 10
731.8304685025716
 20
-23.17844173897049
 30
0.0
 11
761.8304685025716
 21
-23.17844173897049
 31
0.0
  0
LINE
  5
3506
330
1F
100
AcDbEntity
  8
想像線
100
AcDbLine
 10
731.8304685025716
 20
24.89871207017483
 30
0.0
 11
762.4089047469153
 21
24.89871207017483
 31
0.0
  0
LINE
  5
3507
330
1F
100
AcDbEntity
  8
太線
100
AcDbLine
 10
712.8304685025717
 20
-29.13986483439785
 30
0.0
 11
750.8304685025716
 21
-29.13986483439785
 31
0.0
  0
LINE
  5
3508
330
1F
100
AcDbEntity
  8
太線
100
AcDbLine
 10
718.4943079007697
 20
-19.13986483439785
 30
0.0
 11
745.1666291043736
 21
-19.13986483439785
 31
0.0
  0
LINE
  5
3509
330
1F
100
AcDbEntity
  8
想像線
100
AcDbLine
 10
721.8304685025716
 20
-19.13986483439785
 30
0.0
 11
721.8304685025716
 21
-29.13986483439785
 31
0.0
  0
LINE
  5
350A
330
1F
100
AcDbEntity
  8
想像線
100
AcDbLine
 10
725.8304685025716
 20
-19.13986483439785
 30
0.0
 11
725.8304685025716
 21
-28.53374174779597
 31
0.0
  0
LINE
  5
350B
330
1F
100
AcDbEntity
  8
想像線
100
AcDbLine
 10
731.8304685025716
 20
-19.13986483439785
 30
0.0
 11
731.8304685025716
 21
-29.13986483439782
 31
0.0
  0
LINE
  5
350C
330
1F
100
AcDbEntity
  8
太線
100
AcDbLine
 10
711.8304685025716
 20
-21.50054460939574
 30
0.0
 11
711.8304685025716
 21
-28.13986483439785
 31
0.0
  0
ARC
  5
350D
330
1F
100
AcDbEntity
  8
太線
100
AcDbCircle
 10
712.3304685025716
 20
-28.63986483439785
 30
0.0
 40
0.5
100
AcDbArc
 50
180.0
 51
278.8957952865034
  0
ARC
  5
350E
330
1F
100
AcDbEntity
  8
太線
100
AcDbCircle
 10
712.8304685025717
 20
-28.13986483439785
 30
0.0
 40
1.0
100
AcDbArc
 50
262.2979531506369
 51
270.0
  0
ARC
  5
350F
330
1F
100
AcDbEntity
  8
太線
100
AcDbCircle
 10
712.5624253276217
 20
-30.12182165944798
 30
0.0
 40
1.0
100
AcDbArc
 50
82.29795315063654
 51
98.89579528650337
  0
LINE
  5
3510
330
1F
100
AcDbEntity
  8
想像線
100
AcDbLine
 10
707.791891597999
 20
30.86013516560217
 30
0.0
 11
707.791891597999
 21
0.8601351656021734
 31
0.0
  0
LINE
  5
3511
330
1F
100
AcDbEntity
  8
想像線
100
AcDbLine
 10
762.420245246572
 20
25.86013516560217
 30
0.0
 11
761.8304685025716
 21
-24.13986483439782
 31
0.0
  0
LINE
  5
3512
330
1F
100
AcDbEntity
  8
太線
100
AcDbLine
 10
796.8304685025716
 20
30.86013516560217
 30
0.0
 11
796.8304685025716
 21
-29.13986483439782
 31
0.0
  0
LINE
  5
3513
330
1F
100
AcDbEntity
  8
想像線
100
AcDbLine
 10
741.8304685025717
 20
-19.13986483439785
 30
0.0
 11
741.8304685025717
 21
-29.13986483439785
 31
0.0
  0
LINE
  5
3514
330
1F
100
AcDbEntity
  8
想像線
100
AcDbLine
 10
737.8304685025717
 20
-19.13986483439785
 30
0.0
 11
737.8304685025717
 21
-28.53374174779597
 31
0.0
  0
LINE
  5
3515
330
1F
100
AcDbEntity
  8
想像線
100
AcDbLine
 10
761.8304685025716
 20
-24.13986483439782
 30
0.0
 11
796.8304685025716
 21
-24.13986483439782
 31
0.0
  0
ARC
  5
3516
330
1F
100
AcDbEntity
  8
太線
100
AcDbCircle
 10
750.8304685025716
 20
-28.13986483439785
 30
0.0
 40
1.0
100
AcDbArc
 50
270.0
 51
0.0
  0
LINE
  5
3517
330
1F
100
AcDbEntity
  8
太線
100
AcDbLine
 10
751.8304685025716
 20
-28.13986483439785
 30
0.0
 11
751.8304685025716
 21
-21.50054460939574
 31
0.0
  0
LINE
  5
3518
330
1F
100
AcDbEntity
  8
太線
100
AcDbLine
 10
751.8304685025716
 20
-21.50054460939574
 30
0.0
 11
751.8304685025716
 21
-23.17844173897049
 31
0.0
  0
LINE
  5
3519
330
1F
100
AcDbEntity
  8
想像線
100
AcDbLine
 10
796.8304685025716
 20
25.86013516560217
 30
0.0
 11
762.420245246572
 21
25.86013516560217
 31
0.0
  0
LINE
  5
351A
330
1F
100
AcDbEntity
  8
太線
100
AcDbLine
 10
761.8304685025716
 20
30.86013516560217
 30
0.0
 11
796.8304685025716
 21
30.86013516560217
 31
0.0
  0
LINE
  5
351B
330
1F
100
AcDbEntity
  8
太線
100
AcDbLine
 10
761.7261203603251
 20
3.360135165602173
 30
0.0
 11
786.8304685025716
 21
3.360135165602173
 31
0.0
  0
LINE
  5
351C
330
1F
100
AcDbEntity
  8
太線
100
AcDbLine
 10
786.8304685025716
 20
-1.639864834397826
 30
0.0
 11
762.420245246572
 21
-1.639864834397826
 31
0.0
  0
LINE
  5
351D
330
1F
100
AcDbEntity
  8
想像線
100
AcDbLine
 10
755.8690454071443
 20
30.86013516560217
 30
0.0
 11
755.8690454071443
 21
0.8601351656021734
 31
0.0
  0
LINE
  5
351E
330
1F
100
AcDbEntity
  8
破線
100
AcDbLine
 10
763.6244463770656
 20
-1.639864834397826
 30
0.0
 11
763.6244463770656
 21
3.360135165602173
 31
0.0
  0
LINE
  5
351F
330
1F
100
AcDbEntity
  8
破線
100
AcDbLine
 10
770.0571864530927
 20
-1.639864834397826
 30
0.0
 11
770.0571864530927
 21
3.360135165602173
 31
0.0
  0
LINE
  5
3520
330
1F
100
AcDbEntity
  8
太線
100
AcDbLine
 10
786.8304685025716
 20
3.360135165602173
 30
0.0
 11
786.8304685025716
 21
-1.639864834397826
 31
0.0
  0
LINE
  5
3521
330
1F
100
AcDbEntity
  8
太線
100
AcDbLine
 10
701.914388719472
 20
65.86013516560218
 30
0.0
 11
761.8304685025716
 21
65.86013516560218
 31
0.0
  0
LINE
  5
3522
330
1F
100
AcDbEntity
  8
破線
100
AcDbLine
 10
729.3304685025717
 20
32.41021747195304
 30
0.0
 11
734.3304685025716
 21
32.41021747195304
 31
0.0
  0
LINE
  5
3523
330
1F
100
AcDbEntity
  8
破線
100
AcDbLine
 10
729.3304685025717
 20
38.59065905748252
 30
0.0
 11
734.3304685025716
 21
38.59065905748252
 31
0.0
  0
LINE
  5
3524
330
1F
100
AcDbEntity
  8
太線
100
AcDbLine
 10
729.3304685025717
 20
55.86013516560218
 30
0.0
 11
734.3304685025716
 21
55.86013516560218
 31
0.0
  0
CIRCLE
  5
3525
330
1F
100
AcDbEntity
  8
太線
100
AcDbCircle
 10
767.2737181235511
 20
35.60393513682857
 30
0.0
 40
3.0
  0
TEXT
  5
3561
330
1F
100
AcDbEntity
  8
文字
100
AcDbText
 10
346.4634927825927
 20
8.559856816244064
 30
0.0
 40
5.759999999999999
  1
M-20                             
 51
15.0
  7
OKANO
100
AcDbText
  0
TEXT
  5
3562
330
1F
100
AcDbEntity
  8
文字
100
AcDbText
 10
566.3748446870663
 20
-88.89765109754421
 30
0.0
 40
5.759999999999999
  1
M-12                          
 51
15.0
  7
OKANO
100
AcDbText
  0
TEXT
  5
3563
330
1F
100
AcDbEntity
  8
文字
100
AcDbText
 10
121.630804944169
 20
-56.55168786107674
 30
0.0
 40
5.759999999999999
  1
M-12                          
 51
15.0
  7
OKANO
100
AcDbText
  0
TEXT
  5
3564
330
1F
100
AcDbEntity
  8
文字
100
AcDbText
 10
7.387211490230129
 20
-63.02973962612373
 30
0.0
 40
5.759999999999999
  1
M-12                          
 51
15.0
  7
OKANO
100
AcDbText
  0
TEXT
  5
3573
330
1F
100
AcDbEntity
  8
文字
100
AcDbText
 10
148.4644374114509
 20
-209.5175906634121
 30
0.0
 40
5.759999999999999
  1
50Ｋストッパー付タイプ                                                                                                                                                                              
 51
15.0
  7
OKANO
100
AcDbText
  0
LWPOLYLINE
  5
358D
330
1F
100
AcDbEntity
  8
太線
100
AcDbPolyline
 90
        4
 70
     1
 43
0.0
 10
12.62841229882387
 20
-224.5299852018734
 10
209.1884122988239
 20
-224.5299852018734
 10
209.1884122988239
 20
-270.3939852018735
 10
12.62841229882387
 20
-270.3939852018735
  0
LINE
  5
358E
330
1F
100
AcDbEntity
  8
太線
100
AcDbLine
 10
12.62841229882389
 20
-239.8179852018734
 30
0.0
 11
209.1884122988239
 21
-239.8179852018734
 31
0.0
  0
TEXT
  5
358F
330
1F
100
AcDbEntity
  8
文字
100
AcDbText
 10
62.53686758936112
 20
-238.1421152780902
 30
0.0
 40
8.736
  1
F-999-20100511 Auto CAD
 51
15.0
  7
OKANO
100
AcDbText
  0
TEXT
  5
3590
330
1F
100
AcDbEntity
  8
文字
100
AcDbText
 10
76.16559727083139
 20
-264.9914314213539
 30
0.0
 40
8.736
  1
joint kogyo T.okano
 51
15.0
  7
OKANO
100
AcDbText
  0
TEXT
  5
3592
330
1F
100
AcDbEntity
  8
文字
100
AcDbText
 10
59.94375699454622
 20
-251.0909592271421
 30
0.0
 40
4.0
  1
14-3Y65・14-3Y100･14-3Ｙ150･15-3Ｙ500･15-3Ｙ500あ・15-3Ｙ2000Ｂ
 51
15.0
  7
OKANO
100
AcDbText
  0
TEXT
  5
3593
330
1F
100
AcDbEntity
  8
文字
100
AcDbText
 10
18.74244184172479
 20
-248.2002881710802
 30
0.0
 40
4.368
  1
DRAWN
 51
15.0
  7
OKANO
100
AcDbText
  0
LINE
  5
3594
330
1F
100
AcDbEntity
  8
太線
100
AcDbLine
 10
56.30841229882392
 20
-224.5299852018734
 30
0.0
 11
56.30841229882392
 21
-270.3939852018734
 31
0.0
  0
TEXT
  5
3595
330
1F
100
AcDbEntity
  8
文字
100
AcDbText
 10
20.14300665692783
 20
-261.2600662546264
 30
0.0
 40
4.368
  1
APPR
 51
15.0
  7
OKANO
100
AcDbText
  0
TEXT
  5
3596
330
1F
100
AcDbEntity
  8
文字
100
AcDbText
 10
19.67615038904855
 20
-267.3235349190944
 30
0.0
 40
4.368
  1
ISSUED
 51
15.0
  7
OKANO
100
AcDbText
  0
TEXT
  5
3597
330
1F
100
AcDbEntity
  8
文字
100
AcDbText
 10
19.67615038904855
 20
-254.7301766757817
 30
0.0
 40
4.368
  1
CHECK
 51
15.0
  7
OKANO
100
AcDbText
  0
TEXT
  5
3598
330
1F
100
AcDbEntity
  8
文字
100
AcDbText
 10
16.40816648498051
 20
-236.5397717565208
 30
0.0
 40
4.368
  1
FILM NAME
 51
15.0
  7
OKANO
100
AcDbText
  0
TEXT
  5
35B1
330
1F
100
AcDbEntity
  8
文字
100
AcDbText
 10
150.3917472198008
 20
297.6983189123434
 30
0.0
 40
10.0
  1
14-3Ｙ65・14-3Ｙ100・14-3Y150/15-3Ｙ500・15-3Y500(ｱﾝｶｰ）・15-3Ｙ2000Ｂ
 51
15.0
  7
OKANO
100
AcDbText
  0
CIRCLE
  5
37D6
330
1F
100
AcDbEntity
  8
太線
100
AcDbCircle
 10
502.0267161901722
 20
35.60393513682857
 30
0.0
 40
3.0
  0
LINE
  5
37D7
330
1F
100
AcDbEntity
  8
想像線
100
AcDbLine
 10
491.5834665691927
 20
30.86013516560217
 30
0.0
 11
491.5834665691927
 21
65.86013516560218
 31
0.0
  0
LINE
  5
37D8
330
1F
100
AcDbEntity
  8
太線
100
AcDbLine
 10
497.1732433131931
 20
55.86013516560218
 30
0.0
 11
521.5834665691927
 21
30.86013516560217
 31
0.0
  0
LINE
  5
37D9
330
1F
100
AcDbEntity
  8
太線
100
AcDbLine
 10
496.5834665691927
 20
65.86013516560218
 30
0.0
 11
496.5834665691927
 21
30.86013516560217
 31
0.0
  0
LINE
  5
37DA
330
1F
100
AcDbEntity
  8
太線
100
AcDbLine
 10
436.6673867860931
 20
65.86013516560218
 30
0.0
 11
437.0030676536946
 21
5.860135165602173
 31
0.0
  0
LINE
  5
37DB
330
1F
100
AcDbEntity
  8
想像線
100
AcDbLine
 10
441.5834665691927
 20
65.86013516560218
 30
0.0
 11
441.5834665691927
 21
30.86013516560217
 31
0.0
  0
LINE
  5
37DC
330
1F
100
AcDbEntity
  8
太線
100
AcDbLine
 10
464.0834665691927
 20
30.86013516560217
 30
0.0
 11
464.0834665691927
 21
55.86013516560218
 31
0.0
  0
LINE
  5
37DD
330
1F
100
AcDbEntity
  8
太線
100
AcDbLine
 10
469.0834665691927
 20
55.86013516560218
 30
0.0
 11
469.0834665691927
 21
30.86013516560217
 31
0.0
  0
DIMENSION
  5
37DE
330
1F
100
AcDbEntity
  8
寸法線
100
AcDbDimension
  2
*D18
 10
501.2489921191572
 20
-43.46036798987473
 30
0.0
 11
497.7489921191573
 21
-113.4603679898746
 31
0.0
 70
    32
 71
     5
 42
140.0
  3
sunpo
100
AcDbAlignedDimension
 13
496.3659410809912
 23
-183.4603679898747
 33
0.0
 14
473.8659410809912
 24
-43.46036798987472
 34
0.0
 50
90.0
100
AcDbRotatedDimension
1001
ACAD
1000
DSTYLE
1002
{
1070
    40
1040
1.0
1002
}
  0
LINE
  5
37DF
330
1F
100
AcDbEntity
  8
細線
100
AcDbLine
 10
473.8659410809912
 20
-43.46036798987472
 30
0.0
 11
473.8659410809912
 21
-132.3219769622039
 31
0.0
  0
LINE
  5
37E0
330
1F
100
AcDbEntity
  8
太線
100
AcDbLine
 10
474.8659410809912
 20
-46.16139504737623
 30
0.0
 11
474.8659410809912
 21
-132.3219769622039
 31
0.0
  0
LINE
  5
37E1
330
1F
100
AcDbEntity
  8
細線
100
AcDbLine
 10
463.8659410809911
 20
-43.46036798987472
 30
0.0
 11
463.8659410809911
 21
-132.3219769622039
 31
0.0
  0
LINE
  5
37E2
330
1F
100
AcDbEntity
  8
太線
100
AcDbLine
 10
462.8659410809912
 20
-161.4603679898747
 30
0.0
 11
462.8659410809912
 21
-141.9480186640023
 31
0.0
  0
LINE
  5
37E3
330
1F
100
AcDbEntity
  8
太線
100
AcDbLine
 10
449.5791050650021
 20
-181.4603679898747
 30
0.0
 11
442.3659410809912
 21
-181.4603679898747
 31
0.0
  0
LINE
  5
37E4
330
1F
100
AcDbEntity
  8
太線
100
AcDbLine
 10
441.3659410809912
 20
-183.4603679898747
 30
0.0
 11
496.3659410809912
 21
-183.4603679898747
 31
0.0
  0
LINE
  5
37E5
330
1F
100
AcDbEntity
  8
太線
100
AcDbLine
 10
441.3659410809912
 20
-182.4603679898747
 30
0.0
 11
441.3659410809912
 21
-183.4603679898747
 31
0.0
  0
ARC
  5
37E6
330
1F
100
AcDbEntity
  8
太線
100
AcDbCircle
 10
442.3659410809912
 20
-182.4603679898747
 30
0.0
 40
1.0
100
AcDbArc
 50
90.0
 51
180.0
  0
LINE
  5
37E7
330
1F
100
AcDbEntity
  8
太線
100
AcDbLine
 10
473.8659410809912
 20
-162.7738653660019
 30
0.0
 11
473.8659410809912
 21
-169.4603679898747
 31
0.0
  0
LINE
  5
37E8
330
1F
100
AcDbEntity
  8
太線
100
AcDbLine
 10
463.8659410809911
 20
-162.9708306393713
 30
0.0
 11
463.8659410809911
 21
-169.4603679898747
 31
0.0
  0
LINE
  5
37E9
330
1F
100
AcDbEntity
  8
太線
100
AcDbLine
 10
477.8659410809912
 20
-162.4603679898747
 30
0.0
 11
477.8659410809912
 21
-169.4603679898747
 31
0.0
  0
LINE
  5
37EA
330
1F
100
AcDbEntity
  8
太線
100
AcDbLine
 10
459.8659410809911
 20
-162.4603679898747
 30
0.0
 11
459.8659410809911
 21
-169.4603679898747
 31
0.0
  0
ARC
  5
37EB
330
1F
100
AcDbEntity
  8
破線
100
AcDbCircle
 10
468.8659410809911
 20
-167.5394829303628
 30
0.0
 40
13.00000000000004
100
AcDbArc
 50
247.3801350519612
 51
292.6198649480387
  0
LINE
  5
37EC
330
1F
100
AcDbEntity
  8
破線
100
AcDbLine
 10
476.8659410809911
 20
-180.5394829303628
 30
0.0
 11
460.8659410809912
 21
-180.5394829303628
 31
0.0
  0
LINE
  5
37ED
330
1F
100
AcDbEntity
  8
太線
100
AcDbLine
 10
478.0791050650021
 20
-169.4603679898746
 30
0.0
 11
459.6527770969802
 21
-169.4603679898747
 31
0.0
  0
LINE
  5
37EE
330
1F
100
AcDbEntity
  8
破線
100
AcDbLine
 10
474.8659410809912
 20
-172.5394829303628
 30
0.0
 11
462.8659410809912
 21
-172.5394829303628
 31
0.0
  0
TEXT
  5
37EF
330
1F
100
AcDbEntity
  8
文字
100
AcDbText
 10
455.1520904959629
 20
-205.0595488556073
 30
0.0
 40
5.759999999999999
  1
15-3Y500                                                                                                                                                                                 
 51
15.0
  7
OKANO
100
AcDbText
  0
ARC
  5
37F0
330
1F
100
AcDbEntity
  8
太線
100
AcDbCircle
 10
459.6527770969802
 20
-172.4603679898747
 30
0.0
 40
3.0
100
AcDbArc
 50
90.0
 51
151.5570713756351
  0
LINE
  5
37F1
330
1F
100
AcDbEntity
  8
太線
100
AcDbLine
 10
457.0149011973699
 20
-171.0315185442524
 30
0.0
 11
452.2169809646124
 21
-179.889217435497
 31
0.0
  0
ARC
  5
37F2
330
1F
100
AcDbEntity
  8
太線
100
AcDbCircle
 10
449.5791050650021
 20
-178.4603679898747
 30
0.0
 40
3.0
100
AcDbArc
 50
270.0
 51
331.5570713756351
  0
LINE
  5
37F3
330
1F
100
AcDbEntity
  8
破線
100
AcDbLine
 10
463.8659410809911
 20
-172.5394829303628
 30
0.0
 11
463.8659410809911
 21
-179.5394829303628
 31
0.0
  0
LINE
  5
37F4
330
1F
100
AcDbEntity
  8
破線
100
AcDbLine
 10
459.8659410809911
 20
-179.5394829303628
 30
0.0
 11
459.8659410809911
 21
-173.5394829303628
 31
0.0
  0
ARC
  5
37F5
330
1F
100
AcDbEntity
  8
破線
100
AcDbCircle
 10
460.8659410809912
 20
-179.5394829303628
 30
0.0
 40
1.0
100
AcDbArc
 50
180.0
 51
270.0
  0
LINE
  5
37F6
330
1F
100
AcDbEntity
  8
破線
100
AcDbLine
 10
463.8659410809911
 20
-179.5394829303628
 30
0.0
 11
460.8659410809912
 21
-180.5394829303628
 31
0.0
  0
LINE
  5
37F7
330
1F
100
AcDbEntity
  8
破線
100
AcDbLine
 10
463.8659410809911
 20
-169.4603679898747
 30
0.0
 11
463.8659410809911
 21
-172.5394829303628
 31
0.0
  0
LINE
  5
37F8
330
1F
100
AcDbEntity
  8
破線
100
AcDbLine
 10
462.8659410809912
 20
-169.4603679898746
 30
0.0
 11
462.8659410809912
 21
-172.5394829303628
 31
0.0
  0
ARC
  5
37F9
330
1F
100
AcDbEntity
  8
破線
100
AcDbCircle
 10
460.8659410809912
 20
-173.5394829303628
 30
0.0
 40
1.0
100
AcDbArc
 50
90.0
 51
180.0
  0
LINE
  5
37FA
330
1F
100
AcDbEntity
  8
破線
100
AcDbLine
 10
460.8659410809912
 20
-172.5394829303628
 30
0.0
 11
462.8659410809912
 21
-172.5394829303628
 31
0.0
  0
LINE
  5
37FB
330
1F
100
AcDbEntity
  8
太線
100
AcDbLine
 10
485.5149011973699
 20
-179.8892174354969
 30
0.0
 11
480.7169809646125
 21
-171.0315185442524
 31
0.0
  0
LINE
  5
37FC
330
1F
100
AcDbEntity
  8
破線
100
AcDbLine
 10
477.8659410809912
 20
-173.5394829303628
 30
0.0
 11
477.8659410809912
 21
-179.5394829303628
 31
0.0
  0
LINE
  5
37FD
330
1F
100
AcDbEntity
  8
破線
100
AcDbLine
 10
473.8659410809912
 20
-172.5394829303628
 30
0.0
 11
473.8659410809912
 21
-179.5394829303628
 31
0.0
  0
ARC
  5
37FE
330
1F
100
AcDbEntity
  8
破線
100
AcDbCircle
 10
476.8659410809911
 20
-179.5394829303628
 30
0.0
 40
1.0
100
AcDbArc
 50
270.0
 51
0.0
  0
LINE
  5
37FF
330
1F
100
AcDbEntity
  8
破線
100
AcDbLine
 10
473.8659410809912
 20
-179.5394829303628
 30
0.0
 11
476.8659410809911
 21
-180.5394829303628
 31
0.0
  0
ARC
  5
3800
330
1F
100
AcDbEntity
  8
破線
100
AcDbCircle
 10
476.8659410809911
 20
-173.5394829303628
 30
0.0
 40
1.0
100
AcDbArc
 50
0.0
 51
90.0
  0
LINE
  5
3801
330
1F
100
AcDbEntity
  8
破線
100
AcDbLine
 10
474.8659410809912
 20
-169.4603679898746
 30
0.0
 11
474.8659410809912
 21
-172.5394829303628
 31
0.0
  0
LINE
  5
3802
330
1F
100
AcDbEntity
  8
破線
100
AcDbLine
 10
473.8659410809912
 20
-169.4603679898747
 30
0.0
 11
473.8659410809912
 21
-172.5394829303628
 31
0.0
  0
LINE
  5
3803
330
1F
100
AcDbEntity
  8
破線
100
AcDbLine
 10
474.8659410809912
 20
-172.5394829303628
 30
0.0
 11
476.8659410809911
 21
-172.5394829303628
 31
0.0
  0
ARC
  5
3804
330
1F
100
AcDbEntity
  8
太線
100
AcDbCircle
 10
478.0791050650021
 20
-172.4603679898747
 30
0.0
 40
3.0
100
AcDbArc
 50
28.4429286243649
 51
90.0
  0
LINE
  5
3805
330
1F
100
AcDbEntity
  8
太線
100
AcDbLine
 10
495.3659410809912
 20
-181.4603679898747
 30
0.0
 11
488.1527770969802
 21
-181.4603679898747
 31
0.0
  0
ARC
  5
3806
330
1F
100
AcDbEntity
  8
太線
100
AcDbCircle
 10
488.1527770969802
 20
-178.4603679898747
 30
0.0
 40
3.0
100
AcDbArc
 50
208.4429286243649
 51
270.0
  0
ARC
  5
3807
330
1F
100
AcDbEntity
  8
太線
100
AcDbCircle
 10
495.3659410809912
 20
-182.4603679898747
 30
0.0
 40
1.0
100
AcDbArc
 50
0.0
 51
90.0
  0
LINE
  5
3808
330
1F
100
AcDbEntity
  8
太線
100
AcDbLine
 10
496.3659410809912
 20
-183.4603679898747
 30
0.0
 11
496.3659410809912
 21
-182.4603679898747
 31
0.0
  0
LINE
  5
3809
330
1F
100
AcDbEntity
  8
破線
100
AcDbLine
 10
463.8557186505851
 20
-151.3667175018963
 30
0.0
 11
474.8557186505851
 21
-151.3667175018963
 31
0.0
  0
ARC
  5
380A
330
1F
100
AcDbEntity
  8
破線
100
AcDbCircle
 10
468.8659410809911
 20
-147.9927592036947
 30
0.0
 40
13.0
100
AcDbArc
 50
247.3801350519612
 51
292.6198649480387
  0
LINE
  5
380B
330
1F
100
AcDbEntity
  8
太線
100
AcDbLine
 10
471.2891039719277
 20
-161.4557481791326
 30
0.0
 11
473.7528847747451
 21
-162.8403058188849
 31
0.0
  0
LINE
  5
380C
330
1F
100
AcDbEntity
  8
破線
100
AcDbLine
 10
476.8659410809911
 20
-160.9927592036947
 30
0.0
 11
460.8659410809912
 21
-160.9927592036947
 31
0.0
  0
LINE
  5
380D
330
1F
100
AcDbEntity
  8
太線
100
AcDbLine
 10
476.8659410809911
 20
-161.4603679898747
 30
0.0
 11
460.8659410809912
 21
-161.4603679898747
 31
0.0
  0
LINE
  5
380E
330
1F
100
AcDbEntity
  8
破線
100
AcDbLine
 10
459.8659410809911
 20
-151.9927592036947
 30
0.0
 11
477.8659410809912
 21
-151.9927592036947
 31
0.0
  0
LINE
  5
380F
330
1F
100
AcDbEntity
  8
破線
100
AcDbLine
 10
463.8659410809911
 20
-151.9927592036947
 30
0.0
 11
463.8659410809911
 21
-159.9927592036947
 31
0.0
  0
LINE
  5
3810
330
1F
100
AcDbEntity
  8
破線
100
AcDbLine
 10
459.8659410809911
 20
-159.9927592036947
 30
0.0
 11
459.8659410809911
 21
-151.9927592036947
 31
0.0
  0
LINE
  5
3811
330
1F
100
AcDbEntity
  8
太線
100
AcDbLine
 10
463.8977644218718
 20
-162.9941455566353
 30
0.0
 11
467.9014064399523
 21
-161.609587916883
 31
0.0
  0
ARC
  5
3812
330
1F
100
AcDbEntity
  8
太線
100
AcDbCircle
 10
460.8659410809912
 20
-162.4603679898747
 30
0.0
 40
1.0
100
AcDbArc
 50
90.0
 51
180.0
  0
LINE
  5
3813
330
1F
100
AcDbEntity
  8
太線
100
AcDbLine
 10
461.5879711697791
 20
-161.3019084413825
 30
0.0
 11
463.8977644218718
 21
-162.9941455566353
 31
0.0
  0
ARC
  5
3814
330
1F
100
AcDbEntity
  8
破線
100
AcDbCircle
 10
460.8659410809912
 20
-159.9927592036947
 30
0.0
 40
1.0
100
AcDbArc
 50
180.0
 51
270.0
  0
LINE
  5
3815
330
1F
100
AcDbEntity
  8
破線
100
AcDbLine
 10
463.8659410809911
 20
-159.9927592036947
 30
0.0
 11
460.8659410809912
 21
-160.9927592036947
 31
0.0
  0
ARC
  5
3816
330
1F
100
AcDbEntity
  8
破線
100
AcDbCircle
 10
460.855718650585
 20
-152.3667175018963
 30
0.0
 40
1.0
100
AcDbArc
 50
90.0
 51
180.0
  0
LINE
  5
3817
330
1F
100
AcDbEntity
  8
破線
100
AcDbLine
 10
463.8557186505851
 20
-151.3667175018963
 30
0.0
 11
460.855718650585
 21
-151.3667175018963
 31
0.0
  0
LINE
  5
3818
330
1F
100
AcDbEntity
  8
破線
100
AcDbLine
 10
477.8659410809912
 20
-151.9927592036947
 30
0.0
 11
477.8659410809912
 21
-159.9927592036947
 31
0.0
  0
LINE
  5
3819
330
1F
100
AcDbEntity
  8
破線
100
AcDbLine
 10
473.8659410809912
 20
-151.9927592036947
 30
0.0
 11
473.8659410809912
 21
-159.9927592036947
 31
0.0
  0
ARC
  5
381A
330
1F
100
AcDbEntity
  8
太線
100
AcDbCircle
 10
476.8659410809911
 20
-162.4603679898747
 30
0.0
 40
1.0
100
AcDbArc
 50
0.0
 51
90.0
  0
LINE
  5
381B
330
1F
100
AcDbEntity
  8
太線
100
AcDbLine
 10
473.7528847747451
 20
-162.8403058188849
 30
0.0
 11
476.3706502698903
 21
-161.3019084413825
 31
0.0
  0
ARC
  5
381C
330
1F
100
AcDbEntity
  8
破線
100
AcDbCircle
 10
476.8659410809911
 20
-159.9927592036947
 30
0.0
 40
1.0
100
AcDbArc
 50
270.0
 51
0.0
  0
LINE
  5
381D
330
1F
100
AcDbEntity
  8
破線
100
AcDbLine
 10
473.8659410809912
 20
-159.9927592036947
 30
0.0
 11
476.8659410809911
 21
-160.9927592036947
 31
0.0
  0
ARC
  5
381E
330
1F
100
AcDbEntity
  8
破線
100
AcDbCircle
 10
476.8557186505851
 20
-152.3667175018963
 30
0.0
 40
1.0
100
AcDbArc
 50
0.0
 51
90.0
  0
LINE
  5
381F
330
1F
100
AcDbEntity
  8
破線
100
AcDbLine
 10
474.8557186505851
 20
-151.3667175018963
 30
0.0
 11
476.8557186505851
 21
-151.3667175018963
 31
0.0
  0
LINE
  5
3822
330
1F
100
AcDbEntity
  8
想像線
100
AcDbLine
 10
531.5834665691927
 20
25.86013516560217
 30
0.0
 11
497.1732433131931
 21
25.86013516560217
 31
0.0
  0
LINE
  5
3823
330
1F
100
AcDbEntity
  8
太線
100
AcDbLine
 10
496.5834665691927
 20
30.86013516560217
 30
0.0
 11
531.5834665691927
 21
30.86013516560217
 31
0.0
  0
LINE
  5
3824
330
1F
100
AcDbEntity
  8
太線
100
AcDbLine
 10
496.4791184269462
 20
3.360135165602173
 30
0.0
 11
521.5834665691927
 21
3.360135165602173
 31
0.0
  0
LINE
  5
3825
330
1F
100
AcDbEntity
  8
太線
100
AcDbLine
 10
521.5834665691927
 20
-1.639864834397826
 30
0.0
 11
497.1732433131931
 21
-1.639864834397826
 31
0.0
  0
LINE
  5
3826
330
1F
100
AcDbEntity
  8
想像線
100
AcDbLine
 10
496.5834665691927
 20
-24.13986483439782
 30
0.0
 11
531.5834665691927
 21
-24.13986483439782
 31
0.0
  0
LINE
  5
3827
330
1F
100
AcDbEntity
  8
太線
100
AcDbLine
 10
531.5834665691927
 20
-29.13986483439782
 30
0.0
 11
466.5834665691927
 21
-29.13986483439782
 31
0.0
  0
LINE
  5
3828
330
1F
100
AcDbEntity
  8
太線
100
AcDbLine
 10
473.8659410809912
 20
-43.46036798987472
 30
0.0
 11
474.8659410809912
 21
-46.16139504737623
 31
0.0
  0
LINE
  5
3829
330
1F
100
AcDbEntity
  8
太線
100
AcDbLine
 10
462.8659410809912
 20
-46.16139504737623
 30
0.0
 11
463.8659410809911
 21
-43.46036798987472
 31
0.0
  0
TEXT
  5
382A
330
1F
100
AcDbEntity
  8
文字
100
AcDbText
 10
439.4455636114746
 20
-88.89765109754421
 30
0.0
 40
5.759999999999999
  1
M-12                          
 51
15.0
  7
OKANO
100
AcDbText
  0
CIRCLE
  5
382B
330
1F
100
AcDbEntity
  8
太線
100
AcDbCircle
 10
466.5834665691927
 20
0.8601351656021734
 30
0.0
 40
30.0
  0
CIRCLE
  5
382C
330
1F
100
AcDbEntity
  8
太線
100
AcDbCircle
 10
466.5834665691927
 20
0.8601351656021734
 30
0.0
 40
25.0
  0
LINE
  5
382D
330
1F
100
AcDbEntity
  8
想像線
100
AcDbLine
 10
441.5834665691927
 20
30.86013516560217
 30
0.0
 11
491.5834665691927
 21
30.86013516560217
 31
0.0
  0
CIRCLE
  5
382E
330
1F
100
AcDbEntity
  8
細線
100
AcDbCircle
 10
466.5834665691927
 20
0.8601351656021734
 30
0.0
 40
24.03857690457265
  0
LINE
  5
382F
330
1F
100
AcDbEntity
  8
想像線
100
AcDbLine
 10
442.5448896646201
 20
30.86013516560217
 30
0.0
 11
442.5448896646201
 21
0.8601351656021734
 31
0.0
  0
LINE
  5
3830
330
1F
100
AcDbEntity
  8
想像線
100
AcDbLine
 10
497.1732433131931
 20
25.86013516560217
 30
0.0
 11
496.5834665691927
 21
-24.13986483439782
 31
0.0
  0
LINE
  5
3831
330
1F
100
AcDbEntity
  8
想像線
100
AcDbLine
 10
466.5834665691927
 20
-23.17844173897049
 30
0.0
 11
496.5834665691927
 21
-23.17844173897049
 31
0.0
  0
LINE
  5
3832
330
1F
100
AcDbEntity
  8
太線
100
AcDbLine
 10
447.5834665691927
 20
-29.13986483439785
 30
0.0
 11
485.5834665691928
 21
-29.13986483439785
 31
0.0
  0
LINE
  5
3833
330
1F
100
AcDbEntity
  8
太線
100
AcDbLine
 10
453.2473059673908
 20
-19.13986483439785
 30
0.0
 11
479.9196271709946
 21
-19.13986483439785
 31
0.0
  0
LINE
  5
3834
330
1F
100
AcDbEntity
  8
太線
100
AcDbLine
 10
463.8659410809911
 20
-43.46036798987472
 30
0.0
 11
473.8659410809912
 21
-43.46036798987472
 31
0.0
  0
LINE
  5
3835
330
1F
100
AcDbEntity
  8
太線
100
AcDbLine
 10
446.5834665691927
 20
-21.50054460939574
 30
0.0
 11
446.5834665691927
 21
-28.13986483439785
 31
0.0
  0
LINE
  5
3836
330
1F
100
AcDbEntity
  8
想像線
100
AcDbLine
 10
456.5834665691927
 20
-19.13986483439785
 30
0.0
 11
456.5834665691927
 21
-29.13986483439785
 31
0.0
  0
LINE
  5
3837
330
1F
100
AcDbEntity
  8
想像線
100
AcDbLine
 10
460.5834665691928
 20
-19.13986483439785
 30
0.0
 11
460.5834665691928
 21
-28.53374174779597
 31
0.0
  0
LINE
  5
3838
330
1F
100
AcDbEntity
  8
想像線
100
AcDbLine
 10
466.5834665691927
 20
-19.13986483439785
 30
0.0
 11
466.5834665691927
 21
-29.13986483439782
 31
0.0
  0
ARC
  5
3839
330
1F
100
AcDbEntity
  8
太線
100
AcDbCircle
 10
447.0834665691927
 20
-28.63986483439785
 30
0.0
 40
0.5
100
AcDbArc
 50
180.0
 51
278.8957952865034
  0
ARC
  5
383A
330
1F
100
AcDbEntity
  8
太線
100
AcDbCircle
 10
447.5834665691927
 20
-28.13986483439785
 30
0.0
 40
1.0
100
AcDbArc
 50
262.2979531506369
 51
270.0
  0
ARC
  5
383B
330
1F
100
AcDbEntity
  8
太線
100
AcDbCircle
 10
447.3154233942429
 20
-30.12182165944798
 30
0.0
 40
1.0
100
AcDbArc
 50
82.29795315063654
 51
98.89579528650337
  0
LINE
  5
383C
330
1F
100
AcDbEntity
  8
太線
100
AcDbLine
 10
486.5834665691927
 20
-28.13986483439785
 30
0.0
 11
486.5834665691927
 21
-21.50054460939574
 31
0.0
  0
LINE
  5
383D
330
1F
100
AcDbEntity
  8
想像線
100
AcDbLine
 10
476.5834665691927
 20
-19.13986483439785
 30
0.0
 11
476.5834665691927
 21
-29.13986483439785
 31
0.0
  0
LINE
  5
383E
330
1F
100
AcDbEntity
  8
想像線
100
AcDbLine
 10
472.5834665691927
 20
-19.13986483439785
 30
0.0
 11
472.5834665691927
 21
-28.53374174779597
 31
0.0
  0
ARC
  5
383F
330
1F
100
AcDbEntity
  8
太線
100
AcDbCircle
 10
485.5834665691928
 20
-28.13986483439785
 30
0.0
 40
1.0
100
AcDbArc
 50
270.0
 51
0.0
  0
LINE
  5
3840
330
1F
100
AcDbEntity
  8
太線
100
AcDbLine
 10
486.5834665691927
 20
-21.50054460939574
 30
0.0
 11
486.5834665691927
 21
-23.17844173897049
 31
0.0
  0
LINE
  5
3841
330
1F
100
AcDbEntity
  8
想像線
100
AcDbLine
 10
466.5834665691927
 20
24.89871207017483
 30
0.0
 11
497.1619028135364
 21
24.89871207017483
 31
0.0
  0
LINE
  5
3842
330
1F
100
AcDbEntity
  8
破線
100
AcDbLine
 10
464.0834665691927
 20
32.41021747195304
 30
0.0
 11
469.0834665691927
 21
32.41021747195304
 31
0.0
  0
LINE
  5
3843
330
1F
100
AcDbEntity
  8
想像線
100
AcDbLine
 10
490.6220434737654
 20
30.86013516560217
 30
0.0
 11
490.6220434737654
 21
0.8601351656021734
 31
0.0
  0
LINE
  5
3844
330
1F
100
AcDbEntity
  8
太線
100
AcDbLine
 10
531.5834665691927
 20
30.86013516560217
 30
0.0
 11
531.5834665691927
 21
-29.13986483439782
 31
0.0
  0
LINE
  5
3845
330
1F
100
AcDbEntity
  8
破線
100
AcDbLine
 10
498.3774444436867
 20
-1.639864834397826
 30
0.0
 11
498.3774444436867
 21
3.360135165602173
 31
0.0
  0
LINE
  5
3846
330
1F
100
AcDbEntity
  8
破線
100
AcDbLine
 10
504.8101845197138
 20
-1.639864834397826
 30
0.0
 11
504.8101845197138
 21
3.360135165602173
 31
0.0
  0
LINE
  5
3847
330
1F
100
AcDbEntity
  8
太線
100
AcDbLine
 10
521.5834665691927
 20
3.360135165602173
 30
0.0
 11
521.5834665691927
 21
-1.639864834397826
 31
0.0
  0
LINE
  5
3848
330
1F
100
AcDbEntity
  8
太線
100
AcDbLine
 10
436.6673867860931
 20
65.86013516560218
 30
0.0
 11
496.5834665691927
 21
65.86013516560218
 31
0.0
  0
LINE
  5
3849
330
1F
100
AcDbEntity
  8
破線
100
AcDbLine
 10
464.0834665691927
 20
38.59065905748252
 30
0.0
 11
469.0834665691927
 21
38.59065905748252
 31
0.0
  0
LINE
  5
384A
330
1F
100
AcDbEntity
  8
太線
100
AcDbLine
 10
464.0834665691927
 20
55.86013516560218
 30
0.0
 11
469.0834665691927
 21
55.86013516560218
 31
0.0
  0
DIMENSION
  5
38A6
330
1F
100
AcDbEntity
  8
寸法線
370
    25
100
AcDbDimension
  2
*D19
 10
604.0943594429498
 20
108.6439430607754
 30
0.0
 11
569.0943594429502
 21
110.5189430607754
 31
0.0
 70
    32
 71
     5
 42
69.9999999999992
  3
ISO-25
100
AcDbAlignedDimension
 13
534.0943594429506
 23
143.6589336344938
 33
0.0
 14
604.0943594429498
 24
143.6589336344931
 34
0.0
100
AcDbRotatedDimension
  0
ARC
  5
38A7
330
1F
100
AcDbEntity
  8
太線
370
    25
100
AcDbCircle
 10
604.0943594429503
 20
143.6589336344936
 30
0.0
 40
29.92684640862699
100
AcDbArc
 50
246.469298145232
 51
109.6483671244479
  0
DIMENSION
  5
38A8
330
1F
100
AcDbEntity
  8
寸法線
370
    25
100
AcDbDimension
  2
*D20
 10
600.3530363486283
 20
139.2925848733558
 30
0.0
 11
612.7829668337549
 21
156.6807280341235
 31
0.0
 70
    35
 71
     5
 42
11.49999999999977
  3
ISO-25
100
AcDbDiametricDimension
 15
607.8356825372727
 25
148.0252823956314
 35
0.0
 40
0.0
1001
ACAD
1000
DSTYLE
1002
{
1070
   288
1070
     1
1002
}
  0
CIRCLE
  5
38A9
330
1F
100
AcDbEntity
  8
太線
370
    25
100
AcDbCircle
 10
604.0943594429503
 20
143.6589336344936
 30
0.0
 40
5.75
  0
CIRCLE
  5
38AA
330
1F
100
AcDbEntity
  8
太線
370
    25
100
AcDbCircle
 10
604.0943594429503
 20
143.6589336344936
 30
0.0
 40
22.5
  0
DIMENSION
  5
38AB
330
1F
100
AcDbEntity
  8
寸法線
370
    25
100
AcDbDimension
  2
*D21
 10
529.0606985376133
 20
141.4425722266719
 30
0.0
 11
552.1645722265471
 21
151.6153937532564
 31
0.0
 70
   163
 71
     5
 42
11.0
  3
ISO-25
100
AcDbDiametricDimension
 15
539.1280203482875
 25
145.8752950423153
 35
0.0
 40
0.0
1001
ACAD
1000
DSTYLE
1002
{
1070
   288
1070
     1
1002
}
  0
DIMENSION
  5
38AC
330
1F
100
AcDbEntity
  8
寸法線
370
    25
100
AcDbDimension
  2
*D22
 10
534.0943594429501
 20
143.658933634494
 30
0.0
 11
517.034620630322
 21
153.1739486044631
 31
0.0
 70
    36
  1
10.5
 71
     5
 42
10.69362551670411
  3
ISO-25
100
AcDbRadialDimension
 15
524.2982831410483
 25
147.9473500996734
 35
0.0
 40
0.0
1001
ACAD
1000
DSTYLE
1002
{
1070
   288
1070
     1
1002
}
  0
ARC
  5
38AD
330
1F
100
AcDbEntity
  8
太線
370
    25
100
AcDbCircle
 10
534.0943594429503
 20
143.6589336344936
 30
0.0
 40
10.69362551670436
100
AcDbArc
 50
94.16865786076614
 51
258.8810334751942
  0
LINE
  5
38AE
330
1F
100
AcDbEntity
  8
太線
370
    25
100
AcDbLine
 10
530.3728175159839
 20
133.6337776567873
 30
0.0
 11
597.8363820770237
 21
114.616670272338
 31
0.0
  0
CIRCLE
  5
38AF
330
1F
100
AcDbEntity
  8
太線
370
    25
100
AcDbCircle
 10
534.0943594429503
 20
143.6589336344936
 30
0.0
 40
5.5
  0
LINE
  5
38B0
330
1F
100
AcDbEntity
  8
太線
370
    25
100
AcDbLine
 10
530.8546991475695
 20
153.6137755131635
 30
0.0
 11
597.5954412612309
 21
172.8716055155946
 31
0.0
  0
ARC
  5
38B1
330
1F
100
AcDbEntity
  8
太線
370
    25
100
AcDbCircle
 10
534.0943594429503
 20
143.6589336344936
 30
0.0
 40
10.46872846427808
100
AcDbArc
 50
104.1639218140664
 51
108.0267342608357
  0
ARC
  5
38B2
330
1F
100
AcDbEntity
  8
太線
370
    25
100
AcDbCircle
 10
604.0943594429503
 20
143.6589336344936
 30
0.0
 40
30.0
100
AcDbArc
 50
104.6493206882397
 51
107.4628139467074
  0
DIMENSION
  5
390D
330
1F
100
AcDbEntity
  8
寸法線
100
AcDbDimension
  2
*D23
 10
607.544744828265
 20
139.0592226987058
 30
0.0
 11
578.1278293616944
 21
178.2749312814672
 31
0.0
 70
   163
  1
30
 71
     5
 42
11.50000000000011
  3
sunpo
100
AcDbDiametricDimension
 15
600.6439740576352
 25
148.2586445702813
 35
0.0
 40
0.0
1001
ACAD
1000
DSTYLE
1002
{
1070
    40
1040
1.0
1070
   288
1070
     1
1002
}
  0
LINE
  5
394D
330
1F
100
AcDbEntity
  8
太線
370
    25
100
AcDbLine
 10
604.7566247142827
 20
-169.2544087772012
 30
0.0
 11
586.3302967462608
 21
-169.2544087772012
 31
0.0
  0
LINE
  5
394E
330
1F
100
AcDbEntity
  8
太線
370
    25
100
AcDbLine
 10
525.5434607302718
 20
-183.2544087772012
 30
0.0
 11
623.0434607302718
 21
-183.2544087772012
 31
0.0
  0
LINE
  5
3952
330
1F
100
AcDbEntity
  8
太線
370
    25
100
AcDbLine
 10
576.2566247142826
 20
-181.2544087772011
 30
0.0
 11
525.5434607302718
 21
-181.2544087772008
 31
0.0
  0
ARC
  5
3953
330
1F
100
AcDbEntity
  8
太線
370
    25
100
AcDbCircle
 10
526.4375469344654
 20
-182.2544087772012
 30
0.0
 40
1.0
100
AcDbArc
 50
90.0
 51
180.0
  0
LINE
  5
3954
330
1F
100
AcDbEntity
  8
太線
370
    25
100
AcDbLine
 10
525.154453665104
 20
-182.2544087772012
 30
0.0
 11
525.154453665104
 21
-183.2544087772012
 31
0.0
  0
LINE
  5
3955
330
1F
100
AcDbEntity
  8
太線
370
    25
100
AcDbLine
 10
530.5434607302718
 20
-181.2544087772008
 30
0.0
 11
530.5434607302718
 21
-183.2544087772012
 31
0.0
  0
LINE
  5
3956
330
1F
100
AcDbEntity
  8
太線
370
    25
100
AcDbLine
 10
541.5434607302718
 20
-181.2544087772009
 30
0.0
 11
541.5434607302718
 21
-183.2544087772012
 31
0.0
  0
LINE
  5
3957
330
1F
100
AcDbEntity
  8
太線
370
    25
100
AcDbLine
 10
583.6924208466505
 20
-170.8255593315789
 30
0.0
 11
578.8945006138931
 21
-179.6832582228234
 31
0.0
  0
ARC
  5
3958
330
1F
100
AcDbEntity
  8
太線
370
    25
100
AcDbCircle
 10
576.2566247142826
 20
-178.2544087772012
 30
0.0
 40
3.0
100
AcDbArc
 50
270.0
 51
331.5570713756365
  0
ARC
  5
395D
330
1F
100
AcDbEntity
  8
太線
370
    25
100
AcDbCircle
 10
586.3302967462608
 20
-172.2544087772012
 30
0.0
 40
3.0
100
AcDbArc
 50
90.0
 51
151.5570713756365
  0
LINE
  5
3966
330
1F
100
AcDbEntity
  8
太線
370
    25
100
AcDbLine
 10
622.0434607302718
 20
-181.2544087772011
 30
0.0
 11
614.8302967462608
 21
-181.2544087772011
 31
0.0
  0
LINE
  5
3967
330
1F
100
AcDbEntity
  8
太線
370
    25
100
AcDbLine
 10
612.1924208466505
 20
-179.6832582228234
 30
0.0
 11
607.3945006138931
 21
-170.8255593315789
 31
0.0
  0
ARC
  5
3969
330
1F
100
AcDbEntity
  8
太線
370
    25
100
AcDbCircle
 10
604.7566247142827
 20
-172.2544087772012
 30
0.0
 40
3.0
100
AcDbArc
 50
28.44292862436347
 51
90.0
  0
ARC
  5
396E
330
1F
100
AcDbEntity
  8
太線
370
    25
100
AcDbCircle
 10
614.8302967462608
 20
-178.2544087772012
 30
0.0
 40
3.0
100
AcDbArc
 50
208.4429286243634
 51
270.0
  0
ARC
  5
396F
330
1F
100
AcDbEntity
  8
太線
370
    25
100
AcDbCircle
 10
622.0434607302718
 20
-182.2544087772012
 30
0.0
 40
1.0
100
AcDbArc
 50
0.0
 51
90.0
  0
LINE
  5
3970
330
1F
100
AcDbEntity
  8
太線
370
    25
100
AcDbLine
 10
623.0434607302718
 20
-183.2544087772012
 30
0.0
 11
623.0434607302718
 21
-182.2544087772012
 31
0.0
  0
TEXT
  5
3986
330
1F
100
AcDbEntity
  8
文字
100
AcDbText
 10
550.2703310726819
 20
-223.3512056735514
 30
0.0
 40
5.759999999999999
  1
水平調整85mm　500kタイプ                                                                                                                                      
 51
15.0
  7
OKANO
100
AcDbText
  0
DIMENSION
  5
3987
330
1F
100
AcDbEntity
  8
寸法線
100
AcDbDimension
  2
*D24
 10
541.7858170035096
 20
-169.3767822860327
 30
0.0
 11
536.2186768116621
 21
-165.8767822860327
 31
0.0
 70
    32
  1
11
 71
     5
 42
11.13428038369511
  3
sunpo
100
AcDbAlignedDimension
 13
530.6515366198145
 23
-179.8098592662668
 33
0.0
 14
541.7858170035096
 24
-179.1143215064946
 34
0.0
100
AcDbRotatedDimension
1001
ACAD
1000
DSTYLE
1002
{
1070
    40
1040
1.0
1002
}
  0
DIMENSION
  5
39ED
330
1F
100
AcDbEntity
  8
寸法線
100
AcDbDimension
  2
*D25
 10
496.3659410809912
 20
-192.8455541521737
 30
0.0
 11
468.8659410809911
 21
-189.3455541521736
 31
0.0
 70
    32
  1
60
 71
     5
 42
55.0
  3
sunpo
100
AcDbAlignedDimension
 13
441.3659410809912
 23
-183.4603679898747
 33
0.0
 14
496.3659410809912
 24
-183.4603679898747
 34
0.0
100
AcDbRotatedDimension
1001
ACAD
1000
DSTYLE
1002
{
1070
    40
1040
1.0
1002
}
  0
DIMENSION
  5
39FA
330
1F
100
AcDbEntity
  8
寸法線
100
AcDbDimension
  2
*D26
 10
595.7952221565829
 20
-190.6901431665139
 30
0.0
 11
609.4193414434273
 21
-187.1901431665139
 31
0.0
 70
    32
  1
30
 71
     5
 42
27.24823857368892
  3
sunpo
100
AcDbAlignedDimension
 13
623.0434607302718
 23
-183.2544087772012
 33
0.0
 14
595.7952221565829
 24
-180.5394829303628
 34
0.0
100
AcDbRotatedDimension
1001
ACAD
1000
DSTYLE
1002
{
1070
    40
1040
1.0
1002
}
  0
DIMENSION
  5
3A07
330
1F
100
AcDbEntity
  8
寸法線
100
AcDbDimension
  2
*D27
 10
535.7149600252401
 20
-190.6901431665139
 30
0.0
 11
565.7550910909114
 21
-187.1901431665139
 31
0.0
 70
    32
  1
70
 71
     5
 42
60.0802621313428
  3
sunpo
100
AcDbAlignedDimension
 13
595.7952221565829
 23
-180.5394829303628
 33
0.0
 14
535.7149600252401
 24
-188.1754978985486
 34
0.0
100
AcDbRotatedDimension
1001
ACAD
1000
DSTYLE
1002
{
1070
    40
1040
1.0
1070
   279
1070
     1
1002
}
  0
DIMENSION
  5
3A14
330
1F
100
AcDbEntity
  8
寸法線
100
AcDbDimension
  2
*D28
 10
525.6483552851409
 20
-190.6901431665139
 30
0.0
 11
535.2816576551905
 21
-199.1901431665139
 31
0.0
 70
    32
  1
10.5
 71
     5
 42
10.06660474009913
  3
sunpo
100
AcDbAlignedDimension
 13
535.7149600252401
 23
-188.1754978985486
 33
0.0
 14
525.6483552851409
 24
-187.8162622932866
 34
0.0
100
AcDbRotatedDimension
1001
ACAD
1000
DSTYLE
1002
{
1070
    40
1040
1.0
1070
   279
1070
     1
1002
}
  0
DIMENSION
  5
3A69
330
1F
100
AcDbEntity
  8
寸法線
100
AcDbDimension
  2
*D29
 10
517.2671988840774
 20
-181.2544087772008
 30
0.0
 11
513.7667067580933
 21
-172.6720612018502
 31
0.0
 70
    32
 71
     5
 42
2.000000000000341
  3
sunpo
100
AcDbAlignedDimension
 13
525.154453665104
 23
-183.2544087772012
 33
0.0
 14
525.5434607302718
 24
-181.2544087772008
 34
0.0
 50
90.0
100
AcDbRotatedDimension
1001
ACAD
1000
DSTYLE
1002
{
1070
    40
1040
1.0
1002
}
  0
DIMENSION
  5
3A91
330
1F
100
AcDbEntity
  8
寸法線
100
AcDbDimension
  2
*D30
 10
665.8766280711634
 20
-177.9190081577358
 30
0.0
 11
662.3766280711634
 21
-166.9411224747656
 31
0.0
 70
    32
  1
5.5
 71
     5
 42
5.0
  3
sunpo
100
AcDbAlignedDimension
 13
674.5246368337054
 23
-182.9190081577357
 33
0.0
 14
679.5246368337054
 24
-177.9190081577358
 34
0.0
 50
90.0
100
AcDbRotatedDimension
1001
ACAD
1000
DSTYLE
1002
{
1070
    40
1040
1.0
1002
}
  0
DIMENSION
  5
3AAC
330
1F
100
AcDbEntity
  8
寸法線
100
AcDbDimension
  2
*D31
 10
794.5246368337055
 20
-194.8534065938765
 30
0.0
 11
734.5246368337054
 21
-191.3534065938765
 31
0.0
 70
    32
  1
160
 71
     5
 42
120.0
  3
sunpo
100
AcDbAlignedDimension
 13
674.5246368337054
 23
-182.9190081577357
 33
0.0
 14
794.5246368337055
 24
-182.9190081577356
 34
0.0
100
AcDbRotatedDimension
1001
ACAD
1000
DSTYLE
1002
{
1070
    40
1040
1.0
1002
}
  0
LEADER
  5
3B7B
330
1F
100
AcDbEntity
  8
寸法線
100
AcDbLeader
  3
sunpo
 76
     2
 10
713.8113964673475
 20
116.747798334401
 30
0.0
 10
692.9680407695983
 20
83.42499605206445
 30
0.0
1001
ACAD
1000
DSTYLE
1002
{
1070
   147
1040
1.0
1070
    77
1070
     0
1002
}
  0
LINE
  5
3B84
330
1F
100
AcDbEntity
  8
想像線
100
AcDbLine
 10
45.01572565508135
 20
-38.14391500438995
 30
0.0
 11
45.01572565508135
 21
-72.14391500438996
 31
0.0
  0
LINE
  5
3B85
330
1F
100
AcDbEntity
  8
想像線
100
AcDbLine
 10
35.01572565508135
 20
-38.14391500438995
 30
0.0
 11
35.01572565508135
 21
-72.14391500438996
 31
0.0
  0
LINE
  5
3B86
330
1F
100
AcDbEntity
  8
太線
100
AcDbLine
 10
34.01572565508135
 20
-39.44462738119545
 30
0.0
 11
34.01572565508135
 21
-72.14391500438996
 31
0.0
  0
LINE
  5
3B87
330
1F
100
AcDbEntity
  8
太線
100
AcDbLine
 10
46.01572565508135
 20
-72.14391500438996
 30
0.0
 11
46.01572565508135
 21
-39.44462738119545
 31
0.0
  0
LINE
  5
3B88
330
1F
100
AcDbEntity
  8
太線
100
AcDbLine
 10
45.01572565508135
 20
-72.14391500438996
 30
0.0
 11
34.01572565508135
 21
-72.14391500438996
 31
0.0
  0
ARC
  5
3B89
330
1F
100
AcDbEntity
  8
細線
100
AcDbCircle
 10
38.26818484582881
 20
-77.03859698015907
 30
0.0
 40
1.040603392511691
100
AcDbArc
 50
207.0324924700558
 51
343.3477876073676
  0
LINE
  5
3B8A
330
1F
100
AcDbEntity
  8
太線
100
AcDbLine
 10
46.01572565508135
 20
-86.14391500438996
 30
0.0
 11
25.44517306503654
 21
-105.547505890298
 31
0.0
  0
LINE
  5
3B8B
330
1F
100
AcDbEntity
  8
太線
100
AcDbLine
 10
59.01572565508136
 20
-82.14391500438996
 30
0.0
 11
25.01572565508132
 21
-82.14391500438996
 31
0.0
  0
LINE
  5
3B8C
330
1F
100
AcDbEntity
  8
太線
100
AcDbLine
 10
56.01572565508135
 20
-78.14391500438995
 30
0.0
 11
24.01572565508135
 21
-78.14391500438995
 31
0.0
  0
LINE
  5
3B8D
330
1F
100
AcDbEntity
  8
細線
100
AcDbLine
 10
56.01572565508135
 20
-77.14391500438996
 30
0.0
 11
24.01572565508135
 21
-77.14391500438996
 31
0.0
  0
LINE
  5
3B8E
330
1F
100
AcDbEntity
  8
太線
100
AcDbLine
 10
49.01572565508136
 20
-75.14391500438995
 30
0.0
 11
31.01572565508135
 21
-75.14391500438995
 31
0.0
  0
ARC
  5
3B8F
330
1F
100
AcDbEntity
  8
太線
100
AcDbCircle
 10
14.01572565508135
 20
-107.1439150043899
 30
0.0
 40
25.0
100
AcDbArc
 50
91.13452041214289
 51
130.8229120270868
  0
DIMENSION
  5
3B90
330
1F
100
AcDbEntity
  8
寸法線
100
AcDbDimension
  2
*D32
 10
68.67365302414191
 20
-131.8321743242804
 30
0.0
 11
65.17365302414194
 21
-101.6240053463055
 31
0.0
 70
    32
  1
85
 71
     5
 42
60.41633795594977
  3
sunpo
100
AcDbAlignedDimension
 13
49.75721205461013
 23
-71.4158363683307
 33
0.0
 14
49.75721205461013
 24
-131.8321743242804
 34
0.0
 50
90.0
100
AcDbRotatedDimension
1001
ACAD
1000
DSTYLE
1002
{
1070
    40
1040
1.0
1002
}
  0
LINE
  5
3B91
330
1F
100
AcDbEntity
  8
太線
100
AcDbLine
 10
49.01572565508136
 20
-73.14391500438995
 30
0.0
 11
49.01572565508136
 21
-75.14391500438995
 31
0.0
  0
ARC
  5
3B92
330
1F
100
AcDbEntity
  8
太線
100
AcDbCircle
 10
55.01572565508135
 20
-76.14391500438995
 30
0.0
 40
1.0
100
AcDbArc
 50
0.000000000000007
 51
90.0
  0
LINE
  5
3B93
330
1F
100
AcDbEntity
  8
想像線
100
AcDbLine
 10
46.01572565508135
 20
-72.14391500438996
 30
0.0
 11
46.01572565508135
 21
-75.14391500438995
 31
0.0
  0
ARC
  5
3B94
330
1F
100
AcDbEntity
  8
細線
100
AcDbCircle
 10
51.54008795150693
 20
-77.03859698015907
 30
0.0
 40
1.040603392511691
100
AcDbArc
 50
207.0324924700558
 51
343.3477876073676
  0
LINE
  5
3B95
330
1F
100
AcDbEntity
  8
太線
100
AcDbLine
 10
49.01572565508136
 20
-75.14391500438995
 30
0.0
 11
55.01572565508135
 21
-75.14391500438995
 31
0.0
  0
LINE
  5
3B96
330
1F
100
AcDbEntity
  8
太線
100
AcDbLine
 10
58.01572565508135
 20
-86.14391500438996
 30
0.0
 11
46.01572565508135
 21
-86.14391500438996
 31
0.0
  0
ARC
  5
3B97
330
1F
100
AcDbEntity
  8
太線
100
AcDbCircle
 10
58.01572565508135
 20
-85.14391500438994
 30
0.0
 40
1.0
100
AcDbArc
 50
270.0
 51
0.000000000000007
  0
LINE
  5
3B98
330
1F
100
AcDbEntity
  8
太線
100
AcDbLine
 10
56.01572565508135
 20
-78.14391500438995
 30
0.0
 11
58.01572565508135
 21
-78.14391500438995
 31
0.0
  0
ARC
  5
3B99
330
1F
100
AcDbEntity
  8
太線
100
AcDbCircle
 10
58.01572565508135
 20
-79.14391500438995
 30
0.0
 40
1.0
100
AcDbArc
 50
0.000000000000007
 51
90.0
  0
LINE
  5
3B9A
330
1F
100
AcDbEntity
  8
太線
100
AcDbLine
 10
59.01572565508136
 20
-79.14391500438995
 30
0.0
 11
59.01572565508136
 21
-85.14391500438994
 31
0.0
  0
LINE
  5
3B9B
330
1F
100
AcDbEntity
  8
太線
100
AcDbLine
 10
56.01572565508135
 20
-76.14391500438995
 30
0.0
 11
56.01572565508135
 21
-78.14391500438995
 31
0.0
  0
ARC
  5
3B9C
330
1F
100
AcDbEntity
  8
細線
100
AcDbCircle
 10
53.99448113962453
 20
-77.03859698015907
 30
0.0
 40
1.040603392511691
100
AcDbArc
 50
207.0324924700558
 51
343.3477876073676
  0
ARC
  5
3B9D
330
1F
100
AcDbEntity
  8
細線
100
AcDbCircle
 10
48.63117756790288
 20
-77.03859698015907
 30
0.0
 40
1.040603392511691
100
AcDbArc
 50
207.0324924700558
 51
343.3477876073676
  0
ARC
  5
3B9E
330
1F
100
AcDbEntity
  8
細線
100
AcDbCircle
 10
46.17678437978528
 20
-77.03859698015907
 30
0.0
 40
1.040603392511691
100
AcDbArc
 50
207.0324924700558
 51
343.3477876073676
  0
ARC
  5
3B9F
330
1F
100
AcDbEntity
  8
細線
100
AcDbCircle
 10
43.63148841755045
 20
-77.03859698015907
 30
0.0
 40
1.040603392511691
100
AcDbArc
 50
207.0324924700558
 51
343.3477876073676
  0
ARC
  5
3BA0
330
1F
100
AcDbEntity
  8
細線
100
AcDbCircle
 10
41.17709522943286
 20
-77.03859698015907
 30
0.0
 40
1.040603392511691
100
AcDbArc
 50
207.0324924700558
 51
343.3477876073676
  0
LINE
  5
3BA2
330
1F
100
AcDbEntity
  8
太線
100
AcDbLine
 10
45.01572565508135
 20
-72.14391500438996
 30
0.0
 11
48.01572565508135
 21
-72.14391500438996
 31
0.0
  0
ARC
  5
3BA3
330
1F
100
AcDbEntity
  8
太線
100
AcDbCircle
 10
48.01572565508135
 20
-73.14391500438995
 30
0.0
 40
1.0
100
AcDbArc
 50
0.000000000000007
 51
90.0
  0
LINE
  5
3BA4
330
1F
100
AcDbEntity
  8
太線
100
AcDbLine
 10
44.89567036934909
 20
-72.53667055959187
 30
0.0
 11
44.89567036934909
 21
-74.82353396490504
 31
0.0
  0
LINE
  5
3BA5
330
1F
100
AcDbEntity
  8
太線
100
AcDbLine
 10
24.01572565508132
 20
-83.14391500438995
 30
0.0
 11
24.01572565508134
 21
-101.7969622022553
 31
0.0
  0
LINE
  5
3BA6
330
1F
100
AcDbEntity
  8
太線
100
AcDbLine
 10
14.01572565508135
 20
-80.14391500438994
 30
0.0
 11
9.956433071870231
 21
-96.58543460343169
 31
0.0
  0
ARC
  5
3BA7
330
1F
100
AcDbEntity
  8
太線
100
AcDbCircle
 10
14.01572565508135
 20
-107.1439150043899
 30
0.0
 40
18.08191140861927
100
AcDbArc
 50
97.10360178722766
 51
124.3072527398775
  0
CIRCLE
  5
3BA9
330
1F
100
AcDbEntity
  8
太線
100
AcDbCircle
 10
14.01572565508135
 20
-107.1439150043899
 30
0.0
 40
2.198751160989681
  0
ARC
  5
3BAC
330
1F
100
AcDbEntity
  8
太線
100
AcDbCircle
 10
25.01572565508135
 20
-76.14391500438995
 30
0.0
 40
1.0
100
AcDbArc
 50
90.0
 51
180.0
  0
LINE
  5
3BAD
330
1F
100
AcDbEntity
  8
太線
100
AcDbLine
 10
31.01572565508135
 20
-73.14391500438995
 30
0.0
 11
31.01572565508135
 21
-75.14391500438995
 31
0.0
  0
LINE
  5
3BAE
330
1F
100
AcDbEntity
  8
想像線
100
AcDbLine
 10
34.01572565508135
 20
-72.14391500438996
 30
0.0
 11
34.01572565508135
 21
-75.14391500438995
 31
0.0
  0
LINE
  5
3BAF
330
1F
100
AcDbEntity
  8
太線
100
AcDbLine
 10
34.97661532872621
 20
-72.53667055959187
 30
0.0
 11
34.97661532872621
 21
-75.20467880553138
 31
0.0
  0
ARC
  5
3BB0
330
1F
100
AcDbEntity
  8
細線
100
AcDbCircle
 10
25.26899172495254
 20
-77.03859698015907
 30
0.0
 40
1.040603392511691
100
AcDbArc
 50
207.0324924700558
 51
343.3477876073676
  0
LINE
  5
3BB1
330
1F
100
AcDbEntity
  8
太線
100
AcDbLine
 10
31.01572565508135
 20
-75.14391500438995
 30
0.0
 11
25.01572565508135
 21
-75.14391500438995
 31
0.0
  0
ARC
  5
3BB2
330
1F
100
AcDbEntity
  8
細線
100
AcDbCircle
 10
33.08668848479177
 20
-77.03859698015907
 30
0.0
 40
1.040603392511691
100
AcDbArc
 50
207.0324924700558
 51
343.3477876073676
  0
ARC
  5
3BB3
330
1F
100
AcDbEntity
  8
細線
100
AcDbCircle
 10
35.81379165771122
 20
-77.03859698015907
 30
0.0
 40
1.040603392511691
100
AcDbArc
 50
207.0324924700558
 51
343.3477876073676
  0
ARC
  5
3BB4
330
1F
100
AcDbEntity
  8
細線
100
AcDbCircle
 10
30.63229529667419
 20
-77.03859698015907
 30
0.0
 40
1.040603392511691
100
AcDbArc
 50
207.0324924700558
 51
343.3477876073676
  0
ARC
  5
3BB5
330
1F
100
AcDbEntity
  8
細線
100
AcDbCircle
 10
27.72338491307013
 20
-77.03859698015907
 30
0.0
 40
1.040603392511691
100
AcDbArc
 50
207.0324924700558
 51
343.3477876073676
  0
LINE
  5
3BB6
330
1F
100
AcDbEntity
  8
太線
100
AcDbLine
 10
21.01572565508135
 20
-78.14391500438995
 30
0.0
 11
14.01572565508135
 21
-80.14391500438994
 31
0.0
  0
LINE
  5
3BB7
330
1F
100
AcDbEntity
  8
太線
100
AcDbLine
 10
24.01572565508135
 20
-76.14391500438995
 30
0.0
 11
24.01572565508135
 21
-78.14391500438995
 31
0.0
  0
LINE
  5
3BB8
330
1F
100
AcDbEntity
  8
太線
100
AcDbLine
 10
24.01572565508135
 20
-78.14391500438995
 30
0.0
 11
21.01572565508135
 21
-78.14391500438995
 31
0.0
  0
ARC
  5
3BB9
330
1F
100
AcDbEntity
  8
太線
100
AcDbCircle
 10
25.01572565508132
 20
-83.14391500438995
 30
0.0
 40
1.0
100
AcDbArc
 50
90.0
 51
180.0
  0
LINE
  5
3BBB
330
1F
100
AcDbEntity
  8
太線
100
AcDbLine
 10
34.01572565508135
 20
-72.14391500438996
 30
0.0
 11
32.01572565508135
 21
-72.14391500438996
 31
0.0
  0
ARC
  5
3BBC
330
1F
100
AcDbEntity
  8
太線
100
AcDbCircle
 10
32.01572565508135
 20
-73.14391500438995
 30
0.0
 40
1.0
100
AcDbArc
 50
90.0
 51
180.0
  0
LINE
  5
3BBD
330
1F
100
AcDbEntity
  8
想像線
100
AcDbLine
 10
30.01572565508135
 20
-62.14391500438996
 30
0.0
 11
30.01572565508135
 21
-61.64391500438995
 31
0.0
  0
LINE
  5
3BBE
330
1F
100
AcDbEntity
  8
太線
100
AcDbLine
 10
45.01572565508135
 20
-38.14391500438995
 30
0.0
 11
35.01572565508135
 21
-38.14391500438995
 31
0.0
  0
LINE
  5
3BBF
330
1F
100
AcDbEntity
  8
太線
100
AcDbLine
 10
46.01572565508135
 20
-39.44462738119545
 30
0.0
 11
45.01572565508135
 21
-38.14391500438995
 31
0.0
  0
LINE
  5
3BC0
330
1F
100
AcDbEntity
  8
太線
100
AcDbLine
 10
35.01572565508135
 20
-38.14391500438995
 30
0.0
 11
34.01572565508135
 21
-39.44462738119545
 31
0.0
  0
DIMENSION
  5
3BEA
330
1F
100
AcDbEntity
  8
寸法線
100
AcDbDimension
  2
*D33
 10
196.1757604225565
 20
-182.8735642879614
 30
0.0
 11
192.6757604225565
 21
-127.144700328146
 31
0.0
 70
    32
  1
135
 71
     5
 42
111.4577279196306
  3
sunpo
100
AcDbAlignedDimension
 13
169.5922258477567
 23
-71.4158363683307
 33
0.0
 14
169.5922258477567
 24
-182.8735642879613
 34
0.0
 50
90.0
100
AcDbRotatedDimension
1001
ACAD
1000
DSTYLE
1002
{
1070
    40
1040
1.0
1002
}
  0
CIRCLE
  5
3BEB
330
1F
100
AcDbEntity
  8
太線
100
AcDbCircle
 10
135.2691945056584
 20
-138.0349421567257
 30
0.0
 40
2.198751160989681
  0
ARC
  5
3BED
330
1F
100
AcDbEntity
  8
太線
100
AcDbCircle
 10
134.5715424728357
 20
-138.2801238995357
 30
0.0
 40
16.79907253088356
100
AcDbArc
 50
171.1353013454613
 51
303.4277270929855
  0
ARC
  5
3BEE
330
1F
100
AcDbEntity
  8
太線
100
AcDbCircle
 10
135.0311150209386
 20
-138.7377109460389
 30
0.0
 40
31.50138819427047
100
AcDbArc
 50
94.81976617207925
 51
120.468943696815
  0
LINE
  5
3BEF
330
1F
100
AcDbEntity
  8
太線
100
AcDbLine
 10
170.7869916533768
 20
-90.46737900394385
 30
0.0
 11
151.5671572699792
 21
-123.2662745914826
 31
0.0
  0
ARC
  5
3BF0
330
1F
100
AcDbEntity
  8
太線
100
AcDbCircle
 10
135.0311150209386
 20
-138.7377109460389
 30
0.0
 40
44.43547654268127
100
AcDbArc
 50
91.57671050712171
 51
128.5662336141981
  0
LINE
  5
3BF2
330
1F
100
AcDbEntity
  8
太線
100
AcDbLine
 10
166.6224896369902
 20
-72.14391500438996
 30
0.0
 11
166.6224896369902
 21
-39.44462738119545
 31
0.0
  0
LINE
  5
3BF3
330
1F
100
AcDbEntity
  8
太線
100
AcDbLine
 10
154.6224896369902
 20
-39.44462738119545
 30
0.0
 11
154.6224896369902
 21
-72.14391500438996
 31
0.0
  0
LINE
  5
3BF4
330
1F
100
AcDbEntity
  8
想像線
100
AcDbLine
 10
155.6224896369902
 20
-38.14391500438995
 30
0.0
 11
155.6224896369902
 21
-72.14391500438996
 31
0.0
  0
LINE
  5
3BF5
330
1F
100
AcDbEntity
  8
想像線
100
AcDbLine
 10
165.6224896369902
 20
-38.14391500438995
 30
0.0
 11
165.6224896369902
 21
-72.14391500438996
 31
0.0
  0
LINE
  5
3BF6
330
1F
100
AcDbEntity
  8
太線
100
AcDbLine
 10
176.6224896369902
 20
-78.66738796628232
 30
0.0
 11
178.6224896369902
 21
-78.66738796628232
 31
0.0
  0
LINE
  5
3BF7
330
1F
100
AcDbEntity
  8
太線
100
AcDbLine
 10
170.7869916533768
 20
-90.46737900394385
 30
0.0
 11
179.6224896369902
 21
-85.66738796628232
 31
0.0
  0
LINE
  5
3BF8
330
1F
100
AcDbEntity
  8
太線
100
AcDbLine
 10
153.9726758979472
 20
-87.88290630688482
 30
0.0
 11
179.1941495310914
 21
-85.94455178409067
 31
0.0
  0
LINE
  5
3BF9
330
1F
100
AcDbEntity
  8
太線
100
AcDbLine
 10
179.6224896369902
 20
-79.66738796628232
 30
0.0
 11
179.6224896369902
 21
-85.66738796628232
 31
0.0
  0
ARC
  5
3BFA
330
1F
100
AcDbEntity
  8
太線
100
AcDbCircle
 10
178.6224896369902
 20
-79.66738796628232
 30
0.0
 40
1.0
100
AcDbArc
 50
0.000000000000007
 51
90.0
  0
LINE
  5
3BFB
330
1F
100
AcDbEntity
  8
太線
100
AcDbLine
 10
135.218245536513
 20
-81.42172456423736
 30
0.0
 11
131.396036448691
 21
-116.3889335658208
 31
0.0
  0
LINE
  5
3BFC
330
1F
100
AcDbEntity
  8
太線
100
AcDbLine
 10
146.8589259525781
 20
-131.8189421568881
 30
0.0
 11
146.9748196351128
 21
-131.1031580725817
 31
0.0
  0
LINE
  5
3BFD
330
1F
100
AcDbEntity
  8
太線
100
AcDbLine
 10
154.6224896369902
 20
-72.14391500438996
 30
0.0
 11
152.6224896369902
 21
-72.14391500438996
 31
0.0
  0
ARC
  5
3BFE
330
1F
100
AcDbEntity
  8
細線
100
AcDbCircle
 10
153.6934524667007
 20
-77.56206994205143
 30
0.0
 40
1.040603392511691
100
AcDbArc
 50
207.0324924700558
 51
343.3477876073676
  0
LINE
  5
3BFF
330
1F
100
AcDbEntity
  8
太線
100
AcDbLine
 10
169.6224896369902
 20
-75.66738796628232
 30
0.0
 11
151.6224896369902
 21
-75.66738796628232
 31
0.0
  0
LINE
  5
3C00
330
1F
100
AcDbEntity
  8
細線
100
AcDbLine
 10
176.6224896369902
 20
-77.66738796628231
 30
0.0
 11
144.6224896369902
 21
-77.66738796628231
 31
0.0
  0
LINE
  5
3C01
330
1F
100
AcDbEntity
  8
太線
100
AcDbLine
 10
176.6224896369902
 20
-78.66738796628232
 30
0.0
 11
144.6224896369902
 21
-78.66738796628232
 31
0.0
  0
LINE
  5
3C02
330
1F
100
AcDbEntity
  8
太線
100
AcDbLine
 10
155.5833793106351
 20
-72.53667055959187
 30
0.0
 11
155.5833793106351
 21
-75.20467880553138
 31
0.0
  0
LINE
  5
3C03
330
1F
100
AcDbEntity
  8
想像線
100
AcDbLine
 10
154.6224896369902
 20
-72.14391500438996
 30
0.0
 11
154.6224896369902
 21
-75.14391500438995
 31
0.0
  0
LINE
  5
3C04
330
1F
100
AcDbEntity
  8
太線
100
AcDbLine
 10
169.6224896369902
 20
-73.14391500438995
 30
0.0
 11
169.6224896369902
 21
-75.14391500438995
 31
0.0
  0
LINE
  5
3C05
330
1F
100
AcDbEntity
  8
想像線
100
AcDbLine
 10
166.6224896369902
 20
-72.14391500438996
 30
0.0
 11
166.6224896369902
 21
-75.14391500438995
 31
0.0
  0
ARC
  5
3C06
330
1F
100
AcDbEntity
  8
細線
100
AcDbCircle
 10
172.1468519334158
 20
-77.56206994205143
 30
0.0
 40
1.040603392511691
100
AcDbArc
 50
207.0324924700558
 51
343.3477876073676
  0
LINE
  5
3C07
330
1F
100
AcDbEntity
  8
太線
100
AcDbLine
 10
169.6224896369902
 20
-75.66738796628232
 30
0.0
 11
175.6224896369902
 21
-75.66738796628232
 31
0.0
  0
ARC
  5
3C08
330
1F
100
AcDbEntity
  8
細線
100
AcDbCircle
 10
174.6012451215334
 20
-77.56206994205143
 30
0.0
 40
1.040603392511691
100
AcDbArc
 50
207.0324924700558
 51
343.3477876073676
  0
LINE
  5
3C09
330
1F
100
AcDbEntity
  8
太線
100
AcDbLine
 10
176.6224896369902
 20
-76.66738796628232
 30
0.0
 11
176.6224896369902
 21
-78.66738796628232
 31
0.0
  0
ARC
  5
3C0A
330
1F
100
AcDbEntity
  8
太線
100
AcDbCircle
 10
175.6224896369902
 20
-76.66738796628232
 30
0.0
 40
1.0
100
AcDbArc
 50
0.000000000000007
 51
90.0
  0
ARC
  5
3C0B
330
1F
100
AcDbEntity
  8
細線
100
AcDbCircle
 10
169.2379415498117
 20
-77.56206994205143
 30
0.0
 40
1.040603392511691
100
AcDbArc
 50
207.0324924700558
 51
343.3477876073676
  0
ARC
  5
3C0C
330
1F
100
AcDbEntity
  8
細線
100
AcDbCircle
 10
166.7835483616942
 20
-77.56206994205143
 30
0.0
 40
1.040603392511691
100
AcDbArc
 50
207.0324924700558
 51
343.3477876073676
  0
ARC
  5
3C0D
330
1F
100
AcDbEntity
  8
細線
100
AcDbCircle
 10
158.8749488277377
 20
-77.56206994205143
 30
0.0
 40
1.040603392511691
100
AcDbArc
 50
207.0324924700558
 51
343.3477876073676
  0
ARC
  5
3C0E
330
1F
100
AcDbEntity
  8
細線
100
AcDbCircle
 10
164.2382523994593
 20
-77.56206994205143
 30
0.0
 40
1.040603392511691
100
AcDbArc
 50
207.0324924700558
 51
343.3477876073676
  0
ARC
  5
3C0F
330
1F
100
AcDbEntity
  8
細線
100
AcDbCircle
 10
161.7838592113417
 20
-77.56206994205143
 30
0.0
 40
1.040603392511691
100
AcDbArc
 50
207.0324924700558
 51
343.3477876073676
  0
ARC
  5
3C10
330
1F
100
AcDbEntity
  8
細線
100
AcDbCircle
 10
156.4205556396201
 20
-77.56206994205143
 30
0.0
 40
1.040603392511691
100
AcDbArc
 50
207.0324924700558
 51
343.3477876073676
  0
LINE
  5
3C11
330
1F
100
AcDbEntity
  8
太線
100
AcDbLine
 10
165.6224896369902
 20
-72.14391500438996
 30
0.0
 11
154.6224896369902
 21
-72.14391500438996
 31
0.0
  0
LINE
  5
3C12
330
1F
100
AcDbEntity
  8
太線
100
AcDbLine
 10
165.6224896369902
 20
-72.14391500438996
 30
0.0
 11
168.6224896369902
 21
-72.14391500438996
 31
0.0
  0
ARC
  5
3C13
330
1F
100
AcDbEntity
  8
太線
100
AcDbCircle
 10
168.6224896369902
 20
-73.14391500438995
 30
0.0
 40
1.0
100
AcDbArc
 50
0.000000000000007
 51
90.0
  0
LINE
  5
3C16
330
1F
100
AcDbEntity
  8
太線
100
AcDbLine
 10
165.502434351258
 20
-72.53667055959187
 30
0.0
 11
165.502434351258
 21
-74.82353396490504
 31
0.0
  0
LINE
  5
3C17
330
1F
100
AcDbEntity
  8
太線
100
AcDbLine
 10
151.6224896369902
 20
-73.14391500438995
 30
0.0
 11
151.6224896369902
 21
-75.14391500438995
 31
0.0
  0
LINE
  5
3C18
330
1F
100
AcDbEntity
  8
太線
100
AcDbLine
 10
141.6224896369902
 20
-78.66738796628232
 30
0.0
 11
134.6224896369902
 21
-80.66738796628232
 31
0.0
  0
ARC
  5
3C19
330
1F
100
AcDbEntity
  8
細線
100
AcDbCircle
 10
145.8757557068614
 20
-77.56206994205143
 30
0.0
 40
1.040603392511691
100
AcDbArc
 50
207.0324924700558
 51
343.3477876073676
  0
LINE
  5
3C1A
330
1F
100
AcDbEntity
  8
太線
100
AcDbLine
 10
151.6224896369902
 20
-75.66738796628232
 30
0.0
 11
145.6224896369902
 21
-75.66738796628232
 31
0.0
  0
ARC
  5
3C1B
330
1F
100
AcDbEntity
  8
細線
100
AcDbCircle
 10
151.2390592785831
 20
-77.56206994205143
 30
0.0
 40
1.040603392511691
100
AcDbArc
 50
207.0324924700558
 51
343.3477876073676
  0
ARC
  5
3C1C
330
1F
100
AcDbEntity
  8
細線
100
AcDbCircle
 10
148.330148894979
 20
-77.56206994205143
 30
0.0
 40
1.040603392511691
100
AcDbArc
 50
207.0324924700558
 51
343.3477876073676
  0
ARC
  5
3C1D
330
1F
100
AcDbEntity
  8
太線
100
AcDbCircle
 10
145.6224896369902
 20
-76.66738796628232
 30
0.0
 40
1.0
100
AcDbArc
 50
90.0
 51
180.0
  0
LINE
  5
3C1E
330
1F
100
AcDbEntity
  8
太線
100
AcDbLine
 10
144.6224896369902
 20
-76.66738796628232
 30
0.0
 11
144.6224896369902
 21
-78.66738796628232
 31
0.0
  0
LINE
  5
3C1F
330
1F
100
AcDbEntity
  8
太線
100
AcDbLine
 10
144.6224896369902
 20
-78.66738796628232
 30
0.0
 11
141.6224896369902
 21
-78.66738796628232
 31
0.0
  0
ARC
  5
3C20
330
1F
100
AcDbEntity
  8
太線
100
AcDbCircle
 10
152.6224896369902
 20
-73.14391500438995
 30
0.0
 40
1.0
100
AcDbArc
 50
90.0
 51
180.0
  0
LINE
  5
3C21
330
1F
100
AcDbEntity
  8
想像線
100
AcDbLine
 10
150.6224896369902
 20
-62.14391500438996
 30
0.0
 11
150.6224896369902
 21
-61.64391500438995
 31
0.0
  0
LINE
  5
3C22
330
1F
100
AcDbEntity
  8
太線
100
AcDbLine
 10
165.6224896369902
 20
-38.14391500438995
 30
0.0
 11
155.6224896369902
 21
-38.14391500438995
 31
0.0
  0
LINE
  5
3C23
330
1F
100
AcDbEntity
  8
太線
100
AcDbLine
 10
166.6224896369902
 20
-39.44462738119545
 30
0.0
 11
165.6224896369902
 21
-38.14391500438995
 31
0.0
  0
LINE
  5
3C24
330
1F
100
AcDbEntity
  8
太線
100
AcDbLine
 10
155.6224896369902
 20
-38.14391500438995
 30
0.0
 11
154.6224896369902
 21
-39.44462738119545
 31
0.0
  0
ARC
  5
3C76
330
1F
100
AcDbEntity
  8
太線
100
AcDbCircle
 10
13.77764617036152
 20
-107.8466837937031
 30
0.0
 40
10.29441497526703
100
AcDbArc
 50
0.8334727907720777
 51
113.3327606800254
  0
ARC
  5
3C77
330
1F
100
AcDbEntity
  8
太線
100
AcDbCircle
 10
13.77764617036152
 20
-107.8466837937031
 30
0.0
 40
11.89190493022338
100
AcDbArc
 50
11.14775259192445
 51
108.7433120461438
  0
LINE
  5
3C7A
330
1F
100
AcDbEntity
  8
太線
100
AcDbLine
 10
-4.713007458946119
 20
-86.68122803158446
 30
0.0
 11
-5.992128947925557
 21
-88.23567709053053
 31
0.0
  0
LINE
  5
3C7B
330
1F
100
AcDbEntity
  8
太線
100
AcDbLine
 10
-5.992128947925557
 20
-88.23567709053053
 30
0.0
 11
9.486373570169991
 21
-98.48933592404225
 31
0.0
  0
LINE
  5
3C7C
330
1F
100
AcDbEntity
  8
太線
100
AcDbLine
 10
-4.713007458946119
 20
-86.68122803158446
 30
0.0
 11
10.37877331408746
 21
-96.45084831856776
 31
0.0
  0
LINE
  5
3C7E
330
1F
100
AcDbEntity
  8
太線
100
AcDbLine
 10
40.11408105345383
 20
-115.6999130975421
 30
0.0
 11
38.86382856238062
 21
-117.2730504181222
 31
0.0
  0
LINE
  5
3C7F
330
1F
100
AcDbEntity
  8
太線
100
AcDbLine
 10
38.86382856238062
 20
-117.2730504181222
 30
0.0
 11
24.07097196074514
 21
-107.6969378220523
 31
0.0
  0
LINE
  5
3C80
330
1F
100
AcDbEntity
  8
太線
100
AcDbLine
 10
25.03241987909631
 20
-105.9368437032606
 30
0.0
 11
40.11408105345383
 21
-115.6999130975421
 31
0.0
  0
ARC
  5
3C81
330
1F
100
AcDbEntity
  8
太線
100
AcDbCircle
 10
7.035750068173673
 20
-91.5797396992508
 30
0.0
 40
13.45021882309577
100
AcDbArc
 50
165.60382972368
 51
257.5871520373372
  0
ARC
  5
3C82
330
1F
100
AcDbEntity
  8
太線
100
AcDbCircle
 10
30.47837889755385
 20
-102.0488630796984
 30
0.0
 40
17.38078381997681
100
AcDbArc
 50
232.8302235075272
 51
298.845878638814
  0
ARC
  5
3C84
330
1F
100
AcDbEntity
  8
太線
100
AcDbCircle
 10
13.77764617036152
 20
-107.8466837937031
 30
0.0
 40
10.29441497526703
100
AcDbArc
 50
162.0781020914777
 51
307.7977419633961
  0
LINE
  5
3C85
330
1F
100
AcDbEntity
  8
太線
100
AcDbLine
 10
25.50003716653691
 20
-105.4655960769855
 30
0.0
 11
25.50003716653691
 21
-106.2553799910517
 31
0.0
  0
ARC
  5
3C86
330
1F
100
AcDbEntity
  8
太線
100
AcDbCircle
 10
14.01572565508135
 20
-107.1439150043899
 30
0.0
 40
18.08191140861927
100
AcDbArc
 50
349.8589807309198
 51
21.64302890254994
  0
ARC
  5
3C88
330
1F
100
AcDbEntity
  8
太線
100
AcDbCircle
 10
14.01572565508135
 20
-107.1439150043899
 30
0.0
 40
25.0
100
AcDbArc
 50
144.6298252566891
 51
333.2031153831637
  0
ARC
  5
3C89
330
1F
100
AcDbEntity
  8
太線
100
AcDbCircle
 10
14.01572565508135
 20
-107.1439150043899
 30
0.0
 40
18.08191140861927
100
AcDbArc
 50
159.0470096184023
 51
318.2895364935149
  0
LINE
  5
3C8A
330
1F
100
AcDbEntity
  8
太線
100
AcDbLine
 10
37.2953158362309
 20
-116.257678277469
 30
0.0
 11
38.86382856238061
 21
-117.2730504181222
 31
0.0
  0
ARC
  5
3C8B
330
1F
100
AcDbEntity
  8
太線
100
AcDbCircle
 10
14.01572565508135
 20
-107.1439150043899
 30
0.0
 40
25.0
100
AcDbArc
 50
343.3433214437106
 51
27.82709275197295
  0
LINE
  5
3C90
330
1F
100
AcDbEntity
  8
太線
100
AcDbLine
 10
157.2407705765527
 20
-136.3042552029622
 30
0.0
 11
187.6453995040575
 21
-155.9866031018338
 31
0.0
  0
LINE
  5
3C91
330
1F
100
AcDbEntity
  8
太線
100
AcDbLine
 10
187.6453995040575
 20
-155.9866031018338
 30
0.0
 11
185.1248904820538
 21
-159.1580479401232
 31
0.0
  0
ARC
  5
3C92
330
1F
100
AcDbEntity
  8
太線
100
AcDbCircle
 10
134.5511467797434
 20
-140.1544928252944
 30
0.0
 40
20.75354059013834
100
AcDbArc
 50
0.8334727907720777
 51
113.3327606800254
  0
ARC
  5
3C93
330
1F
100
AcDbEntity
  8
太線
100
AcDbCircle
 10
134.5511467797434
 20
-140.1544928252944
 30
0.0
 40
23.97408033933034
100
AcDbArc
 50
11.14775259192445
 51
108.7433120461438
  0
LINE
  5
3C95
330
1F
100
AcDbEntity
  8
太線
100
AcDbLine
 10
97.27398906305921
 20
-97.48493400886317
 30
0.0
 11
127.6990191014949
 21
-117.1804885074214
 31
0.0
  0
LINE
  5
3C96
330
1F
100
AcDbEntity
  8
太線
100
AcDbLine
 10
94.69528014127664
 20
-100.6187033116984
 30
0.0
 11
125.8999412177572
 21
-121.290079520058
 31
0.0
  0
CIRCLE
  5
3C99
330
1F
100
AcDbEntity
  8
太線
100
AcDbCircle
 10
135.0311150209386
 20
-138.7377109460389
 30
0.0
 40
4.432682340555196
  0
LINE
  5
3C9A
330
1F
100
AcDbEntity
  8
太線
100
AcDbLine
 10
181.962768826136
 20
-157.1110577045664
 30
0.0
 11
185.1248904820538
 21
-159.1580479401232
 31
0.0
  0
LINE
  5
3C9C
330
1F
100
AcDbEntity
  8
太線
100
AcDbLine
 10
185.1248904820538
 20
-159.1580479401232
 30
0.0
 11
155.3024915731568
 21
-139.8526049464463
 31
0.0
  0
LINE
  5
3C9D
330
1F
100
AcDbEntity
  8
太線
100
AcDbLine
 10
158.183487028033
 20
-135.3542199883917
 30
0.0
 11
158.183487028033
 21
-136.9464243591492
 31
0.0
  0
LINE
  5
3C9F
330
1F
100
AcDbEntity
  8
太線
100
AcDbLine
 10
97.27398906305921
 20
-97.48493400886317
 30
0.0
 11
94.69528014127664
 21
-100.6187033116984
 31
0.0
  0
ARC
  5
3CA1
330
1F
100
AcDbEntity
  8
太線
100
AcDbCircle
 10
135.0311150209386
 20
-138.7377109460389
 30
0.0
 40
12.76811044127669
100
AcDbArc
 50
175.5347774827814
 51
298.4483388205489
  0
ARC
  5
3CA2
330
1F
100
AcDbEntity
  8
太線
100
AcDbCircle
 10
113.0520135072412
 20
-104.1125889576322
 30
0.0
 40
18.68627562613751
100
AcDbArc
 50
169.2236388496548
 51
251.8562829536756
  0
ARC
  5
3CA3
330
1F
100
AcDbEntity
  8
太線
100
AcDbCircle
 10
130.4906103077815
 20
-114.8810990325818
 30
0.0
 40
24.28485361371379
100
AcDbArc
 50
196.7249933994312
 51
250.2936280925077
  0
ARC
  5
3CA4
330
1F
100
AcDbEntity
  8
太線
100
AcDbCircle
 10
174.8398232268746
 20
-141.7359964234278
 30
0.0
 40
20.23142326911166
100
AcDbArc
 50
226.4713641225224
 51
300.5553783261794
  0
ARC
  5
3CA5
330
1F
100
AcDbEntity
  8
太線
100
AcDbCircle
 10
157.2681409359809
 20
-133.9507605306807
 30
0.0
 40
22.74643303521155
100
AcDbArc
 50
224.7480467826318
 51
279.2031384191452
  0
LINE
  5
3CB8
330
1F
100
AcDbEntity
  8
太線
100
AcDbLine
 10
148.6489235188485
 20
-120.7635356768963
 30
0.0
 11
153.9726758979472
 21
-87.88290630688482
 31
0.0
  0
ARC
  5
3CBA
330
1F
100
AcDbEntity
  8
太線
100
AcDbCircle
 10
135.0311150209386
 20
-138.7377109460389
 30
0.0
 40
44.43547654268127
100
AcDbArc
 50
345.5999998565992
 51
51.29053993726113
  0
ARC
  5
3CBB
330
1F
100
AcDbEntity
  8
太線
100
AcDbCircle
 10
135.0311150209386
 20
-138.7377109460389
 30
0.0
 40
31.50138819427047
100
AcDbArc
 50
353.6972897739823
 51
47.82454902256512
  0
ARC
  5
3CBC
330
1F
100
AcDbEntity
  8
太線
100
AcDbCircle
 10
135.0311150209386
 20
-138.7377109460389
 30
0.0
 40
31.50138819427047
100
AcDbArc
 50
150.3412279622816
 51
325.6270000397198
  0
ARC
  5
3CBD
330
1F
100
AcDbEntity
  8
太線
100
AcDbCircle
 10
135.0311150209386
 20
-138.7377109460389
 30
0.0
 40
44.43547654268127
100
AcDbArc
 50
147.2559511148456
 51
328.6131677763223
  0
TEXT
  5
3CBE
330
1F
100
AcDbEntity
  8
文字
100
AcDbText
 10
136.8248995467811
 20
-95.50861266278207
 30
0.0
 40
5.759999999999999
  1
100                       
 51
15.0
  7
OKANO
100
AcDbText
  0
TEXT
  5
3CBF
330
1F
100
AcDbEntity
  8
文字
100
AcDbText
 10
27.07444773485031
 20
-91.09175836462828
 30
0.0
 40
5.759999999999999
  1
65                                                                                                                 
 51
15.0
  7
OKANO
100
AcDbText
  0
LINE
  5
3D92
330
1F
100
AcDbEntity
  8
想像線
100
AcDbLine
 10
378.4407302211598
 20
31.53560319628479
 30
0.0
 11
378.4407302211597
 21
19.48405216556758
 31
0.0
  0
LINE
  5
3D93
330
1F
100
AcDbEntity
  8
太線
100
AcDbLine
 10
419.4021533165871
 20
31.53560319628479
 30
0.0
 11
419.4021533165871
 21
-28.4643968037152
 31
0.0
  0
LINE
  5
3D94
330
1F
100
AcDbEntity
  8
想像線
100
AcDbLine
 10
330.3635764120144
 20
31.53560319628479
 30
0.0
 11
330.3635764120144
 21
19.4840521655675
 31
0.0
  0
CIRCLE
  5
3D95
330
1F
100
AcDbEntity
  8
太線
100
AcDbCircle
 10
354.4021533165871
 20
1.535603196284796
 30
0.0
 40
30.0
  0
LINE
  5
3D96
330
1F
100
AcDbEntity
  8
太線
100
AcDbLine
 10
324.4860735334875
 20
66.53560319628479
 30
0.0
 11
324.821754401089
 21
6.535603196284796
 31
0.0
  0
LINE
  5
3D97
330
1F
100
AcDbEntity
  8
太線
100
AcDbLine
 10
409.4021533165871
 20
-0.9643968037152035
 30
0.0
 11
384.9919300605875
 21
-0.9643968037152035
 31
0.0
  0
LINE
  5
3D98
330
1F
100
AcDbEntity
  8
太線
100
AcDbLine
 10
384.2978051743406
 20
4.035603196284796
 30
0.0
 11
409.4021533165871
 21
4.035603196284796
 31
0.0
  0
LINE
  5
3D99
330
1F
100
AcDbEntity
  8
想像線
100
AcDbLine
 10
419.4021533165871
 20
26.53560319628479
 30
0.0
 11
384.9919300605875
 21
26.53560319628479
 31
0.0
  0
LINE
  5
3D9A
330
1F
100
AcDbEntity
  8
想像線
100
AcDbLine
 10
384.4021533165871
 20
-23.4643968037152
 30
0.0
 11
419.4021533165871
 21
-23.4643968037152
 31
0.0
  0
LINE
  5
3D9B
330
1F
100
AcDbEntity
  8
太線
100
AcDbLine
 10
419.4021533165871
 20
-28.4643968037152
 30
0.0
 11
354.4021533165871
 21
-28.4643968037152
 31
0.0
  0
LINE
  5
3D9C
330
1F
100
AcDbEntity
  8
太線
100
AcDbLine
 10
335.4021533165871
 20
-28.46439680371523
 30
0.0
 11
373.4021533165871
 21
-28.46439680371523
 31
0.0
  0
CIRCLE
  5
3D9D
330
1F
100
AcDbEntity
  8
細線
100
AcDbCircle
 10
354.4021533165871
 20
1.535603196284796
 30
0.0
 40
24.03857690457265
  0
CIRCLE
  5
3D9E
330
1F
100
AcDbEntity
  8
太線
100
AcDbCircle
 10
354.4021533165871
 20
1.535603196284796
 30
0.0
 40
25.0
  0
LINE
  5
3D9F
330
1F
100
AcDbEntity
  8
太線
100
AcDbLine
 10
334.4021533165871
 20
-20.82507657871312
 30
0.0
 11
334.4021533165871
 21
-27.46439680371523
 31
0.0
  0
ARC
  5
3DA0
330
1F
100
AcDbEntity
  8
太線
100
AcDbCircle
 10
335.1341101416372
 20
-29.44635362876536
 30
0.0
 40
1.0
100
AcDbArc
 50
82.29795315063654
 51
98.89579528650337
  0
ARC
  5
3DA1
330
1F
100
AcDbEntity
  8
太線
100
AcDbCircle
 10
335.4021533165871
 20
-27.46439680371523
 30
0.0
 40
1.0
100
AcDbArc
 50
262.2979531506369
 51
270.0
  0
ARC
  5
3DA2
330
1F
100
AcDbEntity
  8
太線
100
AcDbCircle
 10
334.9021533165871
 20
-27.96439680371523
 30
0.0
 40
0.5
100
AcDbArc
 50
180.0
 51
278.8957952865034
  0
LINE
  5
3DA3
330
1F
100
AcDbEntity
  8
想像線
100
AcDbLine
 10
384.9919300605875
 20
26.53560319628479
 30
0.0
 11
384.4021533165871
 21
-23.4643968037152
 31
0.0
  0
LINE
  5
3DA4
330
1F
100
AcDbEntity
  8
太線
100
AcDbLine
 10
341.0659927147852
 20
-18.46439680371523
 30
0.0
 11
367.738313918389
 21
-18.46439680371523
 31
0.0
  0
LINE
  5
3DA5
330
1F
100
AcDbEntity
  8
想像線
100
AcDbLine
 10
374.4021533165871
 20
-22.50297370828787
 30
0.0
 11
384.4021533165871
 21
-22.50297370828787
 31
0.0
  0
ARC
  5
3DAA
330
1F
100
AcDbEntity
  8
太線
100
AcDbCircle
 10
373.4021533165871
 20
-27.46439680371523
 30
0.0
 40
1.0
100
AcDbArc
 50
270.0
 51
0.0
  0
LINE
  5
3DAC
330
1F
100
AcDbEntity
  8
太線
100
AcDbLine
 10
374.4021533165871
 20
-27.46439680371523
 30
0.0
 11
374.4021533165871
 21
-20.82507657871312
 31
0.0
  0
LINE
  5
3DAD
330
1F
100
AcDbEntity
  8
太線
100
AcDbLine
 10
374.4021533165871
 20
-20.82507657871312
 30
0.0
 11
374.4021533165871
 21
-22.50297370828787
 31
0.0
  0
LINE
  5
3DAE
330
1F
100
AcDbEntity
  8
想像線
100
AcDbLine
 10
372.3506022858698
 20
25.57418010085746
 30
0.0
 11
384.9805895609309
 21
25.57418010085746
 31
0.0
  0
LINE
  5
3DAF
330
1F
100
AcDbEntity
  8
破線
100
AcDbLine
 10
386.1961311910811
 20
-0.9643968037152035
 30
0.0
 11
386.1961311910811
 21
4.035603196284796
 31
0.0
  0
LINE
  5
3DB0
330
1F
100
AcDbEntity
  8
破線
100
AcDbLine
 10
392.6288712671082
 20
-0.9643968037152035
 30
0.0
 11
392.6288712671082
 21
4.035603196284796
 31
0.0
  0
LINE
  5
3DB1
330
1F
100
AcDbEntity
  8
太線
100
AcDbLine
 10
409.4021533165871
 20
4.035603196284796
 30
0.0
 11
409.4021533165871
 21
-0.9643968037152035
 31
0.0
  0
CIRCLE
  5
3DB2
330
1F
100
AcDbEntity
  8
太線
100
AcDbCircle
 10
389.8454029375666
 20
36.27940316751119
 30
0.0
 40
3.0
  0
LINE
  5
3DB3
330
1F
100
AcDbEntity
  8
太線
100
AcDbLine
 10
384.4021533165871
 20
31.53560319628479
 30
0.0
 11
419.4021533165871
 21
31.53560319628479
 31
0.0
  0
LINE
  5
3DB4
330
1F
100
AcDbEntity
  8
太線
100
AcDbLine
 10
384.9919300605875
 20
56.53560319628479
 30
0.0
 11
409.4021533165871
 21
31.53560319628479
 31
0.0
  0
LINE
  5
3DB5
330
1F
100
AcDbEntity
  8
太線
100
AcDbLine
 10
324.4860735334875
 20
66.53560319628479
 30
0.0
 11
384.4021533165871
 21
66.53560319628479
 31
0.0
  0
LINE
  5
3DB6
330
1F
100
AcDbEntity
  8
想像線
100
AcDbLine
 10
329.4021533165871
 20
31.53560319628479
 30
0.0
 11
379.4021533165871
 21
31.53560319628479
 31
0.0
  0
LINE
  5
3DB7
330
1F
100
AcDbEntity
  8
想像線
100
AcDbLine
 10
329.4021533165871
 20
66.53560319628479
 30
0.0
 11
329.4021533165871
 21
31.53560319628479
 31
0.0
  0
LINE
  5
3DB8
330
1F
100
AcDbEntity
  8
太線
100
AcDbLine
 10
356.9021533165871
 20
56.53560319628479
 30
0.0
 11
356.9021533165871
 21
31.53560319628479
 31
0.0
  0
LINE
  5
3DB9
330
1F
100
AcDbEntity
  8
太線
100
AcDbLine
 10
351.9021533165871
 20
31.53560319628479
 30
0.0
 11
351.9021533165871
 21
56.53560319628479
 31
0.0
  0
LINE
  5
3DBA
330
1F
100
AcDbEntity
  8
破線
100
AcDbLine
 10
351.9021533165871
 20
33.08568550263567
 30
0.0
 11
356.9021533165871
 21
33.08568550263567
 31
0.0
  0
LINE
  5
3DBB
330
1F
100
AcDbEntity
  8
破線
100
AcDbLine
 10
351.9021533165871
 20
39.26612708816515
 30
0.0
 11
356.9021533165871
 21
39.26612708816515
 31
0.0
  0
LINE
  5
3DBC
330
1F
100
AcDbEntity
  8
太線
100
AcDbLine
 10
351.9021533165871
 20
56.53560319628479
 30
0.0
 11
356.9021533165871
 21
56.53560319628479
 31
0.0
  0
LINE
  5
3DBD
330
1F
100
AcDbEntity
  8
太線
100
AcDbLine
 10
384.4021533165871
 20
66.53560319628479
 30
0.0
 11
384.4021533165871
 21
31.53560319628479
 31
0.0
  0
LINE
  5
3DBE
330
1F
100
AcDbEntity
  8
想像線
100
AcDbLine
 10
379.4021533165871
 20
31.53560319628479
 30
0.0
 11
379.4021533165871
 21
66.53560319628479
 31
0.0
  0
ARC
  5
3EAB
330
1F
100
AcDbEntity
  8
太線
370
    25
100
AcDbCircle
 10
302.0039218176767
 20
-131.726014024504
 30
0.0
 40
69.29999999999999
100
AcDbArc
 50
139.7285373065004
 51
321.2685101183006
  0
ARC
  5
3EAC
330
1F
100
AcDbEntity
  8
太線
370
    25
100
AcDbCircle
 10
302.0039218176767
 20
-131.726014024504
 30
0.0
 40
56.79399025411245
100
AcDbArc
 50
137.4046456189236
 51
319.4218394604528
  0
ARC
  5
3EAD
330
1F
100
AcDbEntity
  8
太線
370
    25
100
AcDbCircle
 10
291.5614616148001
 20
-95.29133199962041
 30
0.0
 40
24.47184618185459
100
AcDbArc
 50
175.4287099076642
 51
238.5737859093245
  0
LINE
  5
3EAE
330
1F
100
AcDbEntity
  8
太線
370
    25
100
AcDbLine
 10
246.0570137904146
 20
-66.23607559925403
 30
0.0
 11
294.8754933031185
 21
-107.9795034931442
 31
0.0
  0
LINE
  5
3EAF
330
1F
100
AcDbEntity
  8
太線
370
    25
100
AcDbLine
 10
247.6383401202716
 20
-63.86623888333923
 30
0.0
 11
295.7430159621842
 21
-104.4855924846108
 31
0.0
  0
ARC
  5
3EB0
330
1F
100
AcDbEntity
  8
太線
370
    25
100
AcDbCircle
 10
302.0039218176767
 20
-131.726014024504
 30
0.0
 40
27.95066202798101
100
AcDbArc
 50
146.1672774633285
 51
242.3066409760148
  0
ARC
  5
3EB1
330
1F
100
AcDbEntity
  8
太線
370
    25
100
AcDbCircle
 10
302.0039218176767
 20
-131.726014024504
 30
0.0
 40
27.95066202798101
100
AcDbArc
 50
146.1672774633285
 51
242.3066409760148
  0
CIRCLE
  5
3EB2
330
1F
100
AcDbEntity
  8
太線
370
    25
100
AcDbCircle
 10
273.8573884607493
 20
-169.4293120407014
 30
0.0
 40
5.943292661901378
  0
ARC
  5
3EB3
330
1F
100
AcDbEntity
  8
太線
370
    25
100
AcDbCircle
 10
302.0039218176767
 20
-131.6730039235721
 30
0.0
 40
33.06860997012282
100
AcDbArc
 50
145.6693984280073
 51
245.0534990903223
  0
ARC
  5
3EB4
330
1F
100
AcDbEntity
  8
太線
370
    25
100
AcDbCircle
 10
302.0039218176767
 20
-131.726014024504
 30
0.0
 40
56.79399025411245
100
AcDbArc
 50
100.4669265523306
 51
122.6442916331788
  0
ARC
  5
3EB5
330
1F
100
AcDbEntity
  8
太線
370
    25
100
AcDbCircle
 10
302.0039218176767
 20
-131.726014024504
 30
0.0
 40
69.29999999999999
100
AcDbArc
 50
105.622839729085
 51
125.8151413634129
  0
CIRCLE
  5
3EB7
330
1F
100
AcDbEntity
  8
太線
370
    25
100
AcDbCircle
 10
260.1837116517468
 20
-150.8473006210414
 30
0.0
 40
2.984652880286199
  0
ARC
  5
3EB8
330
1F
100
AcDbEntity
  8
太線
370
    25
100
AcDbCircle
 10
263.829674620859
 20
-74.14924973334223
 30
0.0
 40
19.4797786585114
100
AcDbArc
 50
156.4209316711254
 51
279.866102722987
  0
CIRCLE
  5
3EB9
330
1F
100
AcDbEntity
  8
太線
370
    25
100
AcDbCircle
 10
257.0080714369199
 20
-127.4730039235722
 30
0.0
 40
5.943292661901378
  0
CIRCLE
  5
3EBA
330
1F
100
AcDbEntity
  8
太線
370
    25
100
AcDbCircle
 10
264.8387957621918
 20
-104.8934903633721
 30
0.0
 40
2.984652880286199
  0
LINE
  5
3EBB
330
1F
100
AcDbEntity
  8
太線
370
    25
100
AcDbLine
 10
245.9762835930959
 20
-66.35706099112195
 30
0.0
 11
247.6383401202716
 21
-63.86623888333923
 31
0.0
  0
ARC
  5
3EBC
330
1F
100
AcDbEntity
  8
太線
370
    25
100
AcDbCircle
 10
302.0039218176767
 20
-131.726014024504
 30
0.0
 40
56.79399025411245
100
AcDbArc
 50
337.0005399087125
 51
39.00098492561957
  0
ARC
  5
3EBD
330
1F
100
AcDbEntity
  8
太線
370
    25
100
AcDbCircle
 10
302.0039218176767
 20
-131.726014024504
 30
0.0
 40
69.29999999999999
100
AcDbArc
 50
333.8296901784771
 51
42.26709966043594
  0
LINE
  5
3EBE
330
1F
100
AcDbEntity
  8
太線
370
    25
100
AcDbLine
 10
326.5693692993461
 20
-135.0801227777353
 30
0.0
 11
374.3699097076846
 21
-175.9531370899737
 31
0.0
  0
LINE
  5
3EBF
330
1F
100
AcDbEntity
  8
太線
370
    25
100
AcDbLine
 10
329.9082600870089
 20
-133.3345579477751
 30
0.0
 11
376.4474756488163
 21
-172.6320445256558
 31
0.0
  0
ARC
  5
3EC1
330
1F
100
AcDbEntity
  8
太線
370
    25
100
AcDbCircle
 10
366.6885462597261
 20
-144.485872665104
 30
0.0
 40
32.39123453658873
100
AcDbArc
 50
214.1493703220059
 51
283.7179952661997
  0
ARC
  5
3EC2
330
1F
100
AcDbEntity
  8
太線
370
    25
100
AcDbCircle
 10
332.089225407874
 20
-144.6037004306336
 30
0.0
 40
19.67431709545192
100
AcDbArc
 50
214.0210774011556
 51
293.3348659098706
  0
CIRCLE
  5
3EC3
330
1F
100
AcDbEntity
  8
太線
370
    25
100
AcDbCircle
 10
318.6172756511051
 20
-175.815529520212
 30
0.0
 40
5.943292661901378
  0
CIRCLE
  5
3EC4
330
1F
100
AcDbEntity
  8
太線
370
    25
100
AcDbCircle
 10
297.3488377072318
 20
-177.328219153971
 30
0.0
 40
2.984652880286199
  0
LINE
  5
3EC5
330
1F
100
AcDbEntity
  8
太線
370
    25
100
AcDbLine
 10
287.5795567238295
 20
-164.237077049175
 30
0.0
 11
307.7452626313381
 21
-167.3074977147264
 31
0.0
  0
LINE
  5
3EC6
330
1F
100
AcDbEntity
  8
太線
370
    25
100
AcDbLine
 10
303.9630476576201
 20
-155.4603672413382
 30
0.0
 11
291.9129831649683
 21
-153.3102864093367
 31
0.0
  0
LINE
  5
3EC7
330
1F
100
AcDbEntity
  8
太線
370
    25
100
AcDbLine
 10
289.2292725954762
 20
-155.3108678241711
 30
0.0
 11
287.5795567238295
 21
-164.237077049175
 31
0.0
  0
ARC
  5
3EC8
330
1F
100
AcDbEntity
  8
太線
370
    25
100
AcDbCircle
 10
291.5441081988725
 20
-155.3776352573515
 30
0.0
 40
2.099999999999999
100
AcDbArc
 50
79.8832374928176
 51
153.416676368777
  0
LINE
  5
3EC9
330
1F
100
AcDbEntity
  8
太線
370
    25
100
AcDbLine
 10
289.6661107013635
 20
-154.4378877384135
 30
0.0
 11
289.2292725954762
 21
-155.3108678241711
 31
0.0
  0
ARC
  5
3ECA
330
1F
100
AcDbEntity
  8
太線
370
    25
100
AcDbCircle
 10
302.0039218176767
 20
-131.6730039235721
 30
0.0
 40
33.06860997012282
100
AcDbArc
 50
278.4820078298612
 51
301.9591848450592
  0
ARC
  5
3ECB
330
1F
100
AcDbEntity
  8
太線
370
    25
100
AcDbCircle
 10
302.0039218176767
 20
-131.726014024504
 30
0.0
 40
27.95066202798101
100
AcDbArc
 50
279.3459000063314
 51
300.0409203135248
  0
LINE
  5
3ECC
330
1F
100
AcDbEntity
  8
太線
370
    25
100
AcDbLine
 10
307.7452626313381
 20
-167.3074977147264
 30
0.0
 11
306.8838884413571
 21
-164.4156686391291
 31
0.0
  0
ARC
  5
3ECD
330
1F
100
AcDbEntity
  8
太線
370
    25
100
AcDbCircle
 10
304.3283998978452
 20
-157.6587235079117
 30
0.0
 40
2.099999999999999
100
AcDbArc
 50
3.817085799385099
 51
79.8832374928176
  0
LINE
  5
3ECE
330
1F
100
AcDbEntity
  8
太線
370
    25
100
AcDbLine
 10
304.6972748639409
 20
-155.5913746598969
 30
0.0
 11
303.9630476576201
 21
-155.4603672413382
 31
0.0
  0
LINE
  5
3ECF
330
1F
100
AcDbEntity
  8
太線
370
    25
100
AcDbLine
 10
306.8838884413571
 20
-164.4156686391291
 30
0.0
 11
306.4237413855701
 21
-157.5189234727949
 31
0.0
  0
LINE
  5
3ED0
330
1F
100
AcDbEntity
  8
太線
370
    25
100
AcDbLine
 10
373.4839469403259
 20
-176.0158194070038
 30
0.0
 11
376.9429083809514
 21
-173.0536861941801
 31
0.0
  0
LINE
  5
3ED1
330
1F
100
AcDbEntity
  8
太線
370
    25
100
AcDbLine
 10
369.2039218176767
 20
-60.91076656171356
 30
0.0
 11
331.9274603737991
 21
-117.5976777946198
 31
0.0
  0
ARC
  5
3ED2
330
1F
100
AcDbEntity
  8
太線
370
    25
100
AcDbCircle
 10
364.1970236188618
 20
-41.35776843802943
 30
0.0
 40
2.185267124274552
100
AcDbArc
 50
207.0324924700536
 51
343.3477876073678
  0
LINE
  5
3ED4
330
1F
100
AcDbEntity
  8
太線
370
    25
100
AcDbLine
 10
390.2039218176767
 20
-41.57893628891429
 30
0.0
 11
323.0039218176767
 21
-41.57893628891429
 31
0.0
  0
LINE
  5
3ED5
330
1F
100
AcDbEntity
  8
太線
370
    25
100
AcDbLine
 10
390.2039218176767
 20
-43.67893628891437
 30
0.0
 11
323.0039218176767
 21
-43.67893628891437
 31
0.0
  0
LINE
  5
3ED7
330
1F
100
AcDbEntity
  8
太線
370
    25
100
AcDbLine
 10
371.3039218176768
 20
-37.3789362889143
 30
0.0
 11
337.7039218176767
 21
-37.3789362889143
 31
0.0
  0
LINE
  5
3ED8
330
1F
100
AcDbEntity
  8
太線
370
    25
100
AcDbLine
 10
293.5987740067778
 20
-103.3950922883824
 30
0.0
 11
291.1264108749175
 21
-67.82145502890279
 31
0.0
  0
LINE
  5
3ED9
330
1F
100
AcDbEntity
  8
太線
370
    25
100
AcDbLine
 10
328.220592785404
 20
-111.4419908765247
 30
0.0
 11
328.220592785404
 21
-48.99316965168236
 31
0.0
  0
LINE
  5
3EDA
330
1F
100
AcDbEntity
  8
太線
370
    25
100
AcDbLine
 10
302.3754845190662
 20
-47.82666946322239
 30
0.0
 11
294.4986139191214
 21
-102.9148011470057
 31
0.0
  0
ARC
  5
3EDB
330
1F
100
AcDbEntity
  8
太線
370
    25
100
AcDbCircle
 10
302.0039218176767
 20
-131.726014024504
 30
0.0
 40
24.79337120085022
100
AcDbArc
 50
352.2250453276531
 51
106.7091503020734
  0
ARC
  5
3EDC
330
1F
100
AcDbEntity
  8
太線
370
    25
100
AcDbCircle
 10
304.3133332898261
 20
-128.6813814740625
 30
0.0
 40
25.66878540014194
100
AcDbArc
 50
349.1585098697644
 51
109.504500789992
  0
CIRCLE
  5
3EDD
330
1F
100
AcDbEntity
  8
太線
370
    25
100
AcDbCircle
 10
302.0039218176767
 20
-131.726014024504
 30
0.0
 40
6.926066157117495
  0
CIRCLE
  5
3EDE
330
1F
100
AcDbEntity
  8
太線
370
    25
100
AcDbCircle
 10
302.0039218176767
 20
-131.726014024504
 30
0.0
 40
4.61737743807833
  0
ARC
  5
3EDF
330
1F
100
AcDbEntity
  8
太線
370
    25
100
AcDbCircle
 10
293.4204464382953
 20
-104.8961022162518
 30
0.0
 40
6.84587681269993
100
AcDbArc
 50
80.07126681834604
 51
121.1492590945551
  0
ARC
  5
3EE0
330
1F
100
AcDbEntity
  8
太線
370
    25
100
AcDbCircle
 10
302.0039218176767
 20
-131.726014024504
 30
0.0
 40
37.23616978930423
100
AcDbArc
 50
109.3258038895588
 51
113.0486645173269
  0
ARC
  5
3EE1
330
1F
100
AcDbEntity
  8
太線
370
    25
100
AcDbCircle
 10
284.9186416034461
 20
-91.90291328595368
 30
0.0
 40
5.943292661901378
100
AcDbArc
 50
293.5542985664574
 51
166.0905329754343
  0
LINE
  5
3EE2
330
1F
100
AcDbEntity
  8
太線
370
    25
100
AcDbLine
 10
305.0696392674335
 20
-99.63437185817804
 30
0.0
 11
304.7518538464002
 21
-103.1272450692152
 31
0.0
  0
LINE
  5
3EE3
330
1F
100
AcDbEntity
  8
太線
370
    25
100
AcDbLine
 10
317.1455494372821
 20
-90.74342087060177
 30
0.0
 11
316.5099721781588
 21
-95.18889453867336
 31
0.0
  0
LINE
  5
3EE4
330
1F
100
AcDbEntity
  8
太線
370
    25
100
AcDbLine
 10
303.4238442166802
 20
-98.93055448841256
 30
0.0
 11
304.9517002049324
 21
-99.235880016296
 31
0.0
  0
LINE
  5
3EE5
330
1F
100
AcDbEntity
  8
太線
370
    25
100
AcDbLine
 10
304.0349853285694
 20
-92.82401106784925
 30
0.0
 11
303.4238442166802
 21
-98.93055448841256
 31
0.0
  0
LINE
  5
3EE6
330
1F
100
AcDbEntity
  8
太線
370
    25
100
AcDbLine
 10
305.8684086642397
 20
-93.43466577504869
 30
0.0
 11
304.0349853285694
 21
-92.82401106784925
 31
0.0
  0
LINE
  5
3EE7
330
1F
100
AcDbEntity
  8
太線
370
    25
100
AcDbLine
 10
317.1745224427339
 20
-101.0678441378948
 30
0.0
 11
315.3410991070636
 21
-100.7625149585788
 31
0.0
  0
LINE
  5
3EE8
330
1F
100
AcDbEntity
  8
太線
370
    25
100
AcDbLine
 10
318.0912309020413
 20
-95.57195542453099
 30
0.0
 11
317.1745224427339
 21
-101.0678441378948
 31
0.0
  0
LINE
  5
3EE9
330
1F
100
AcDbEntity
  8
太線
370
    25
100
AcDbLine
 10
316.2271147900533
 20
-95.18698849062685
 30
0.0
 11
318.0912309020413
 21
-95.57195542453099
 31
0.0
  0
ARC
  5
3EEA
330
1F
100
AcDbEntity
  8
太線
370
    25
100
AcDbCircle
 10
314.9420940547079
 20
-90.27267655599336
 30
0.0
 40
2.099999999999999
100
AcDbArc
 50
351.1123654988787
 51
79.70319271025502
  0
ARC
  5
3EEB
330
1F
100
AcDbEntity
  8
太線
370
    25
100
AcDbCircle
 10
308.3320213211429
 20
-89.07180324554913
 30
0.0
 40
2.099999999999999
100
AcDbArc
 50
79.70319271025502
 51
174.6399248713155
  0
ARC
  5
3EEC
330
1F
100
AcDbEntity
  8
太線
370
    25
100
AcDbCircle
 10
310.0035676119797
 20
-99.6422769004932
 30
0.0
 40
2.730325925043368
100
AcDbArc
 50
185.203185049271
 51
334.2032358544486
  0
LINE
  5
3EED
330
1F
100
AcDbEntity
  8
太線
370
    25
100
AcDbLine
 10
314.8151187383284
 20
-100.3601708548399
 30
0.0
 11
313.4031291036602
 21
-100.3601708548399
 31
0.0
  0
LINE
  5
3EEE
330
1F
100
AcDbEntity
  8
太線
370
    25
100
AcDbLine
 10
304.9311720444813
 20
-98.94930459706968
 30
0.0
 11
306.813827029724
 21
-99.41959456680416
 31
0.0
  0
LINE
  5
3EEF
330
1F
100
AcDbEntity
  8
太線
370
    25
100
AcDbLine
 10
306.3431616791494
 20
-93.77612223285622
 30
0.0
 11
316.2271147900533
 21
-95.18698849062685
 31
0.0
  0
LINE
  5
3EF0
330
1F
100
AcDbEntity
  8
太線
370
    25
100
AcDbLine
 10
315.4250820975093
 20
-100.776501066997
 30
0.0
 11
314.861077689612
 21
-104.3832504003542
 31
0.0
  0
LINE
  5
3EF1
330
1F
100
AcDbEntity
  8
太線
370
    25
100
AcDbLine
 10
308.7073908391175
 20
-87.00562374585036
 30
0.0
 11
315.3174635726825
 21
-88.20649705629449
 31
0.0
  0
LINE
  5
3EF2
330
1F
100
AcDbEntity
  8
太線
370
    25
100
AcDbLine
 10
305.8151187946704
 20
-93.41691662292118
 30
0.0
 11
306.2412039922057
 21
-88.87563266412461
 31
0.0
  0
CIRCLE
  5
3EF3
330
1F
100
AcDbEntity
  8
太線
370
    25
100
AcDbCircle
 10
346.5278458176314
 20
-140.2454388825935
 30
0.0
 40
5.943292661901378
  0
ARC
  5
3EF4
330
1F
100
AcDbEntity
  8
太線
370
    25
100
AcDbCircle
 10
302.0039218176767
 20
-131.6730039235721
 30
0.0
 40
33.06860997012282
100
AcDbArc
 50
350.2211881971295
 51
25.19118575788173
  0
CIRCLE
  5
3EF5
330
1F
100
AcDbEntity
  8
太線
370
    25
100
AcDbCircle
 10
343.8241319836067
 20
-112.9563325561691
 30
0.0
 40
2.984652880286199
  0
LINE
  5
3EF6
330
1F
100
AcDbEntity
  8
太線
370
    25
100
AcDbLine
 10
327.2272932594201
 20
-47.99319210011034
 30
0.0
 11
302.3754845190662
 21
-47.82666946322239
 31
0.0
  0
LINE
  5
3EF7
330
1F
100
AcDbEntity
  8
太線
370
    25
100
AcDbLine
 10
323.0039218176767
 20
-43.67893628891437
 30
0.0
 11
316.7039218176768
 21
-43.67893628891437
 31
0.0
  0
LINE
  5
3EF8
330
1F
100
AcDbEntity
  8
太線
370
    25
100
AcDbLine
 10
283.3369555544195
 20
-58.8795324150077
 30
0.0
 11
302.0048022380481
 21
-54.97542148187119
 31
0.0
  0
ARC
  5
3EF9
330
1F
100
AcDbEntity
  8
太線
370
    25
100
AcDbCircle
 10
283.7668398059709
 20
-60.93506142970642
 30
0.0
 40
2.099999999999999
100
AcDbArc
 50
101.8123351493617
 51
205.0343726300269
  0
ARC
  5
3EFA
330
1F
100
AcDbEntity
  8
太線
370
    25
100
AcDbCircle
 10
286.9233967592817
 20
-70.87509984790194
 30
0.0
 40
5.500149674402688
100
AcDbArc
 50
40.16736151127506
 51
113.8633644315971
  0
LINE
  5
3EFB
330
1F
100
AcDbEntity
  8
太線
370
    25
100
AcDbLine
 10
284.203800522763
 20
-66.83330056836462
 30
0.0
 11
281.864126219725
 21
-61.82370140670276
 31
0.0
  0
LINE
  5
3EFC
330
1F
100
AcDbEntity
  8
太線
370
    25
100
AcDbLine
 10
316.7039218176768
 20
-43.67893628891437
 30
0.0
 11
302.0039218176767
 21
-47.8789362889143
 31
0.0
  0
ARC
  5
3EFD
330
1F
100
AcDbEntity
  8
太線
370
    25
100
AcDbCircle
 10
342.0529437600687
 20
-41.35776843802943
 30
0.0
 40
2.185267124274552
100
AcDbArc
 50
207.0324924700536
 51
343.3477876073678
  0
LINE
  5
3EFF
330
1F
100
AcDbEntity
  8
太線
370
    25
100
AcDbLine
 10
331.8369838541852
 20
-36.86881901735318
 30
0.0
 11
331.8369838541852
 21
-29.41138273423638
 31
0.0
  0
ARC
  5
3F00
330
1F
100
AcDbEntity
  8
太線
370
    25
100
AcDbCircle
 10
325.1039218176767
 20
-39.47893628891438
 30
0.0
 40
2.099999999999999
100
AcDbArc
 50
90.0
 51
180.0
  0
LINE
  5
3F01
330
1F
100
AcDbEntity
  8
太線
370
    25
100
AcDbLine
 10
323.0039218176767
 20
-39.47893628891438
 30
0.0
 11
323.0039218176767
 21
-43.67893628891437
 31
0.0
  0
ARC
  5
3F02
330
1F
100
AcDbEntity
  8
太線
370
    25
100
AcDbCircle
 10
330.7900062594532
 20
-41.35776843802943
 30
0.0
 40
2.185267124274552
100
AcDbArc
 50
207.0324924700536
 51
343.3477876073678
  0
ARC
  5
3F04
330
1F
100
AcDbEntity
  8
太線
370
    25
100
AcDbCircle
 10
336.8987180650217
 20
-41.35776843802943
 30
0.0
 40
2.185267124274552
100
AcDbArc
 50
207.0324924700536
 51
343.3477876073678
  0
ARC
  5
3F05
330
1F
100
AcDbEntity
  8
太線
370
    25
100
AcDbCircle
 10
325.6357805644063
 20
-41.35776843802943
 30
0.0
 40
2.185267124274552
100
AcDbArc
 50
207.0324924700536
 51
343.3477876073678
  0
LINE
  5
3F06
330
1F
100
AcDbEntity
  8
太線
370
    25
100
AcDbLine
 10
337.7039218176767
 20
-37.3789362889143
 30
0.0
 11
325.1039218176767
 21
-37.3789362889143
 31
0.0
  0
ARC
  5
3F08
330
1F
100
AcDbEntity
  8
太線
370
    25
100
AcDbCircle
 10
347.7798604231994
 20
-41.35776843802943
 30
0.0
 40
2.185267124274552
100
AcDbArc
 50
207.0324924700536
 51
343.3477876073678
  0
ARC
  5
3F09
330
1F
100
AcDbEntity
  8
太線
370
    25
100
AcDbCircle
 10
359.0427979238149
 20
-41.35776843802943
 30
0.0
 40
2.185267124274552
100
AcDbArc
 50
207.0324924700536
 51
343.3477876073678
  0
ARC
  5
3F0A
330
1F
100
AcDbEntity
  8
太線
370
    25
100
AcDbCircle
 10
352.9340861182464
 20
-41.35776843802943
 30
0.0
 40
2.185267124274552
100
AcDbArc
 50
207.0324924700536
 51
343.3477876073678
  0
LINE
  5
3F0B
330
1F
100
AcDbEntity
  8
太線
370
    25
100
AcDbLine
 10
396.5039218176768
 20
-46.21076656171356
 30
0.0
 11
396.5039218176768
 21
-58.81076656171365
 31
0.0
  0
LINE
  5
3F0C
330
1F
100
AcDbEntity
  8
太線
370
    25
100
AcDbLine
 10
394.4039218176767
 20
-60.91076656171356
 30
0.0
 11
369.2039218176767
 21
-60.91076656171356
 31
0.0
  0
ARC
  5
3F0D
330
1F
100
AcDbEntity
  8
太線
370
    25
100
AcDbCircle
 10
394.4039218176767
 20
-58.81076656171365
 30
0.0
 40
2.099999999999999
100
AcDbArc
 50
270.0
 51
0.0
  0
ARC
  5
3F0E
330
1F
100
AcDbEntity
  8
太線
370
    25
100
AcDbCircle
 10
385.9593083352174
 20
-41.35776843802943
 30
0.0
 40
2.185267124274552
100
AcDbArc
 50
207.0324924700536
 51
343.3477876073678
  0
LINE
  5
3F0F
330
1F
100
AcDbEntity
  8
太線
370
    25
100
AcDbLine
 10
375.5039218176768
 20
-37.3789362889143
 30
0.0
 11
388.1039218176768
 21
-37.3789362889143
 31
0.0
  0
LINE
  5
3F11
330
1F
100
AcDbEntity
  8
太線
370
    25
100
AcDbLine
 10
383.0024306095623
 20
-29.53320354184723
 30
0.0
 11
383.0024306095623
 21
-36.80018172857751
 31
0.0
  0
LINE
  5
3F12
330
1F
100
AcDbEntity
  8
太線
370
    25
100
AcDbLine
 10
375.5039218176768
 20
-37.3789362889143
 30
0.0
 11
371.3039218176768
 21
-37.3789362889143
 31
0.0
  0
ARC
  5
3F13
330
1F
100
AcDbEntity
  8
太線
370
    25
100
AcDbCircle
 10
374.6963708346019
 20
-41.35776843802943
 30
0.0
 40
2.185267124274552
100
AcDbArc
 50
207.0324924700536
 51
343.3477876073678
  0
ARC
  5
3F14
330
1F
100
AcDbEntity
  8
太線
370
    25
100
AcDbCircle
 10
369.542145139555
 20
-41.35776843802943
 30
0.0
 40
2.185267124274552
100
AcDbArc
 50
207.0324924700536
 51
343.3477876073678
  0
ARC
  5
3F15
330
1F
100
AcDbEntity
  8
太線
370
    25
100
AcDbCircle
 10
380.8050826401705
 20
-41.35776843802943
 30
0.0
 40
2.185267124274552
100
AcDbArc
 50
207.0324924700536
 51
343.3477876073678
  0
LINE
  5
3F16
330
1F
100
AcDbEntity
  8
太線
370
    25
100
AcDbLine
 10
390.2039218176767
 20
-43.67893628891437
 30
0.0
 11
394.4039218176767
 21
-43.67893628891437
 31
0.0
  0
ARC
  5
3F17
330
1F
100
AcDbEntity
  8
太線
370
    25
100
AcDbCircle
 10
388.1039218176768
 20
-39.47893628891438
 30
0.0
 40
2.099999999999999
100
AcDbArc
 50
0.0
 51
90.0
  0
LINE
  5
3F18
330
1F
100
AcDbEntity
  8
太線
370
    25
100
AcDbLine
 10
390.2039218176767
 20
-39.47893628891438
 30
0.0
 11
390.2039218176767
 21
-43.67893628891437
 31
0.0
  0
ARC
  5
3F19
330
1F
100
AcDbEntity
  8
太線
370
    25
100
AcDbCircle
 10
394.4039218176767
 20
-45.77893628891433
 30
0.0
 40
2.099999999999999
100
AcDbArc
 50
0.0
 51
90.0
  0
LINE
  5
40E7
330
1F
100
AcDbEntity
  8
太線
100
AcDbLine
 10
366.6777818241317
 20
4.488609371921926
 30
0.0
 11
346.2876396989796
 21
4.826504729892998
 31
0.0
  0
ARC
  5
40F1
330
1F
100
AcDbEntity
  8
太線
100
AcDbCircle
 10
346.2710704681269
 20
3.826642009021302
 30
0.0
 40
1.0
100
AcDbArc
 50
89.05060955813437
 51
180.0
  0
ARC
  5
40F2
330
1F
100
AcDbEntity
  8
太線
100
AcDbCircle
 10
366.661212593279
 20
3.488746651050231
 30
0.0
 40
1.0
100
AcDbArc
 50
0.0
 51
89.05060955813437
  0
LINE
  5
40F3
330
1F
100
AcDbEntity
  8
太線
100
AcDbLine
 10
367.6612125932791
 20
-18.46439680371523
 30
0.0
 11
367.661212593279
 21
3.488746651050231
 31
0.0
  0
LINE
  5
40F4
330
1F
100
AcDbEntity
  8
太線
100
AcDbLine
 10
345.2710704681269
 20
-18.46439680371523
 30
0.0
 11
345.2710704681269
 21
3.826642009021302
 31
0.0
  0
LINE
  5
40F5
330
1F
100
AcDbEntity
  8
太線
100
AcDbLine
 10
331.8369838541852
 20
-29.41138273423638
 30
0.0
 11
383.0024306095623
 21
-29.53320354184723
 31
0.0
  0
LINE
  5
40F6
330
1F
100
AcDbEntity
  8
太線
100
AcDbLine
 10
367.6612125932791
 20
-29.78425397701812
 30
0.0
 11
367.6612125932791
 21
-29.78425397701812
 31
0.0
  0
LINE
  5
40F7
330
1F
100
AcDbEntity
  8
太線
100
AcDbLine
 10
367.6612125932791
 20
-29.78425397701812
 30
0.0
 11
367.6612125932791
 21
-29.78425397701812
 31
0.0
  0
LINE
  5
40F8
330
1F
100
AcDbEntity
  8
太線
100
AcDbLine
 10
367.6612125932791
 20
-29.78425397701812
 30
0.0
 11
367.6612125932791
 21
-28.60978499972088
 31
0.0
  0
LINE
  5
40F9
330
1F
100
AcDbEntity
  8
太線
100
AcDbLine
 10
345.2813201861877
 20
-29.47622080422616
 30
0.0
 11
345.2813201861877
 21
-28.60978499972088
 31
0.0
  0
LINE
  5
40FA
330
1F
100
AcDbEntity
  8
太線
100
AcDbLine
 10
369.5540771143046
 20
-29.73219434665679
 30
0.0
 11
369.5540771143046
 21
-37.43153227735593
 31
0.0
  0
LINE
  5
40FB
330
1F
100
AcDbEntity
  8
太線
100
AcDbLine
 10
343.985905722578
 20
-29.55721027249092
 30
0.0
 11
343.985905722578
 21
-37.25654703145051
 31
0.0
  0
ARC
  5
40FC
330
1F
100
AcDbEntity
  8
太線
370
    25
100
AcDbCircle
 10
327.2205927854041
 20
-48.99316965168236
 30
0.0
 40
1.0
100
AcDbArc
 50
0.0
 51
89.61608824540061
  0
TEXT
  5
40FD
330
1F
100
AcDbEntity
  8
文字
100
AcDbText
 10
338.0921634469677
 20
-64.48385206511876
 30
0.0
 40
5.759999999999999
  1
150                       
 51
15.0
  7
OKANO
100
AcDbText
  0
TEXT
  5
41C1
330
1F
100
AcDbEntity
  8
文字
100
AcDbText
 10
332.8300604748115
 20
-204.6917808794428
 30
0.0
 40
5.759999999999999
  1
14-3Y150                                                                                                                 
 51
15.0
  7
OKANO
100
AcDbText
  0
TEXT
  5
41C2
330
1F
100
AcDbEntity
  8
文字
100
AcDbText
 10
315.5421404723933
 20
-217.8129749440918
 30
0.0
 40
5.759999999999999
  1
160Ｋストッパー付タイプ                                                                                                                                                                              
 51
15.0
  7
OKANO
100
AcDbText
  0
TEXT
  5
41C3
330
1F
100
AcDbEntity
  8
文字
100
AcDbText
 10
17.35414959110949
 20
-151.8087069689154
 30
0.0
 40
5.759999999999999
  1
14-3Y65                                                                                                                 
 51
15.0
  7
OKANO
100
AcDbText
  0
TEXT
  5
41C4
330
1F
100
AcDbEntity
  8
文字
100
AcDbText
 10
0.0662295886913853
 20
-164.9299010335644
 30
0.0
 40
5.759999999999999
  1
30Ｋストッパー付タイプ                                                                                                                                                                              
 51
15.0
  7
OKANO
100
AcDbText
  0
DIMENSION
  5
41C7
330
1F
100
AcDbEntity
  8
寸法線
100
AcDbDimension
  2
*D34
 10
402.8481248107791
 20
-199.6492746486283
 30
0.0
 11
399.3476326847949
 21
-113.7397178306086
 31
0.0
 70
    32
  1
210
 71
     5
 42
171.8191136360392
  3
sunpo
100
AcDbAlignedDimension
 13
405.9746009175723
 23
-27.83016101258908
 33
0.0
 14
405.9746009175723
 24
-199.6492746486283
 34
0.0
 50
90.0
100
AcDbRotatedDimension
1001
ACAD
1000
DSTYLE
1002
{
1070
    40
1040
1.0
1002
}
  0
DIMENSION
  5
41D4
330
1F
100
AcDbEntity
  8
寸法線
100
AcDbDimension
  2
*D35
 10
246.9827427363685
 20
-173.8586599478568
 30
0.0
 11
235.060666881498
 21
-182.9880281121108
 31
0.0
 70
   163
  1
150
 71
     5
 42
138.6
  3
sunpo
100
AcDbDiametricDimension
 15
357.0251008989848
 25
-89.59336810115123
 35
0.0
 40
0.0
1001
ACAD
1000
DSTYLE
1002
{
1070
    40
1040
1.0
1070
   279
1070
     1
1070
   288
1070
     1
1002
}
  0
DIMENSION
  5
41E6
330
1F
100
AcDbEntity
  8
寸法線
100
AcDbDimension
  2
*D36
 10
99.64339757928946
 20
-165.6118812559327
 30
0.0
 11
84.98988927052183
 21
-176.7400609294763
 31
0.0
 70
   163
  1
100
 71
     5
 42
88.87095308536254
  3
sunpo
100
AcDbDiametricDimension
 15
170.4188324625877
 25
-111.8635406361451
 35
0.0
 40
0.0
1001
ACAD
1000
DSTYLE
1002
{
1070
    40
1040
1.0
1070
   279
1070
     1
1070
   288
1070
     1
1002
}
  0
DIMENSION
  5
41F8
330
1F
100
AcDbEntity
  8
寸法線
100
AcDbDimension
  2
*D37
 10
-8.410447922338583
 20
-118.1922967264084
 30
0.0
 11
-16.83213597286205
 21
-122.3412891528128
 31
0.0
 70
   163
  1
65
 71
     5
 42
50.00000000000002
  3
sunpo
100
AcDbDiametricDimension
 15
36.4418992325013
 25
-96.09553328237147
 35
0.0
 40
0.0
1001
ACAD
1000
DSTYLE
1002
{
1070
    40
1040
1.0
1070
   279
1070
     1
1070
   288
1070
     1
1002
}
  0
DIMENSION
  5
4263
330
1F
100
AcDbEntity
  8
寸法線
100
AcDbDimension
  2
*D38
 10
258.5966577703388
 20
31.53560202454524
 30
0.0
 11
255.0966577703388
 21
1.535602024545286
 31
0.0
 70
    32
  1
58
 71
     5
 42
60.0
  3
sunpo
100
AcDbAlignedDimension
 13
224.7859270222745
 23
-28.46439797545474
 33
0.0
 14
224.7859270222745
 24
31.53560202454525
 34
0.0
 50
90.0
100
AcDbRotatedDimension
1001
ACAD
1000
DSTYLE
1002
{
1070
    40
1040
1.0
1002
}
  0
ARC
  5
4294
330
1F
100
AcDbEntity
  8
太線
370
    25
100
AcDbCircle
 10
476.8659410809911
 20
-140.9480186640023
 30
0.0
 40
1.0
100
AcDbArc
 50
270.0
 51
0.0
  0
ARC
  5
4295
330
1F
100
AcDbEntity
  8
太線
370
    25
100
AcDbCircle
 10
476.8557186505851
 20
-133.3219769622039
 30
0.0
 40
1.0
100
AcDbArc
 50
0.0
 51
90.0
  0
LINE
  5
4296
330
1F
100
AcDbEntity
  8
太線
370
    25
100
AcDbLine
 10
476.8659410809911
 20
-141.9480186640023
 30
0.0
 11
460.8659410809912
 21
-141.9480186640023
 31
0.0
  0
LINE
  5
4297
330
1F
100
AcDbEntity
  8
太線
370
    25
100
AcDbLine
 10
459.8659410809911
 20
-132.9480186640023
 30
0.0
 11
477.8659410809912
 21
-132.9480186640023
 31
0.0
  0
LINE
  5
4298
330
1F
100
AcDbEntity
  8
太線
370
    25
100
AcDbLine
 10
463.8659410809911
 20
-140.9480186640023
 30
0.0
 11
460.8659410809912
 21
-141.9480186640023
 31
0.0
  0
LINE
  5
4299
330
1F
100
AcDbEntity
  8
太線
370
    25
100
AcDbLine
 10
463.8557186505851
 20
-132.3219769622039
 30
0.0
 11
460.855718650585
 21
-132.3219769622039
 31
0.0
  0
ARC
  5
429B
330
1F
100
AcDbEntity
  8
太線
370
    25
100
AcDbCircle
 10
460.855718650585
 20
-133.3219769622039
 30
0.0
 40
1.0
100
AcDbArc
 50
90.0
 51
180.0
  0
ARC
  5
429C
330
1F
100
AcDbEntity
  8
太線
370
    25
100
AcDbCircle
 10
460.8659410809912
 20
-140.9480186640023
 30
0.0
 40
1.0
100
AcDbArc
 50
180.0
 51
270.0
  0
LINE
  5
429D
330
1F
100
AcDbEntity
  8
太線
370
    25
100
AcDbLine
 10
459.8659410809911
 20
-140.9480186640023
 30
0.0
 11
459.8659410809911
 21
-132.9480186640023
 31
0.0
  0
ARC
  5
429E
330
1F
100
AcDbEntity
  8
太線
370
    25
100
AcDbCircle
 10
468.8659410809911
 20
-128.9480186640023
 30
0.0
 40
13.0
100
AcDbArc
 50
247.3801350519612
 51
292.6198649480387
  0
LINE
  5
42A0
330
1F
100
AcDbEntity
  8
太線
370
    25
100
AcDbLine
 10
473.8659410809912
 20
-140.9480186640023
 30
0.0
 11
476.8659410809911
 21
-141.9480186640023
 31
0.0
  0
LINE
  5
42A1
330
1F
100
AcDbEntity
  8
太線
370
    25
100
AcDbLine
 10
477.8659410809912
 20
-132.9480186640023
 30
0.0
 11
477.8659410809912
 21
-140.9480186640023
 31
0.0
  0
LINE
  5
42A2
330
1F
100
AcDbEntity
  8
太線
370
    25
100
AcDbLine
 10
473.8659410809912
 20
-132.9480186640023
 30
0.0
 11
473.8659410809912
 21
-140.9480186640023
 31
0.0
  0
LINE
  5
42A3
330
1F
100
AcDbEntity
  8
太線
370
    25
100
AcDbLine
 10
463.8557186505851
 20
-132.3219769622039
 30
0.0
 11
474.8557186505851
 21
-132.3219769622039
 31
0.0
  0
LINE
  5
42A4
330
1F
100
AcDbEntity
  8
太線
370
    25
100
AcDbLine
 10
474.8557186505851
 20
-132.3219769622039
 30
0.0
 11
476.8557186505851
 21
-132.3219769622039
 31
0.0
  0
DIMENSION
  5
42A5
330
1F
100
AcDbEntity
  8
寸法線
100
AcDbDimension
  2
*D39
 10
437.1755019775442
 20
-151.3667175018963
 30
0.0
 11
433.6755019775442
 21
-167.4135427458854
 31
0.0
 70
    32
  1
40
 71
     5
 42
32.0936504879784
  3
sunpo
100
AcDbAlignedDimension
 13
441.3659410809912
 23
-183.4603679898747
 33
0.0
 14
460.855718650585
 24
-151.3667175018963
 34
0.0
 50
90.0
100
AcDbRotatedDimension
1001
ACAD
1000
DSTYLE
1002
{
1070
    40
1040
1.0
1002
}
  0
ARC
  5
42BB
330
1F
100
AcDbEntity
  8
太線
100
AcDbCircle
 10
745.2160786675236
 20
-106.1078935731043
 30
0.0
 40
6.350862044312581
100
AcDbArc
 50
230.9396192866367
 51
312.0723616256726
  0
LINE
  5
42BC
330
1F
100
AcDbEntity
  8
太線
100
AcDbLine
 10
719.5246368337055
 20
-96.26625302936464
 30
0.0
 11
749.5246368337054
 21
-96.26625302936464
 31
0.0
  0
LINE
  5
42BD
330
1F
100
AcDbEntity
  8
太線
100
AcDbLine
 10
749.5246368337054
 20
-112.2662530293646
 30
0.0
 11
724.5246368337054
 21
-112.2662530293646
 31
0.0
  0
LINE
  5
42BE
330
1F
100
AcDbEntity
  8
太線
100
AcDbLine
 10
741.5246368337054
 20
-96.26625302936464
 30
0.0
 11
741.5246368337054
 21
-112.2662530293646
 31
0.0
  0
ARC
  5
42BF
330
1F
100
AcDbEntity
  8
太線
100
AcDbCircle
 10
723.723973789285
 20
-102.5653157045962
 30
0.0
 40
9.574652439182898
100
AcDbArc
 50
242.2559248299449
 51
294.8092894638859
  0
LINE
  5
42C0
330
1F
100
AcDbEntity
  8
太線
100
AcDbLine
 10
719.5246368337055
 20
-112.2662530293646
 30
0.0
 11
719.5246368337055
 21
-96.26625302936464
 31
0.0
  0
LINE
  5
42C1
330
1F
100
AcDbEntity
  8
太線
100
AcDbLine
 10
727.5246368337055
 20
-96.26625302936464
 30
0.0
 11
727.5246368337055
 21
-112.2662530293646
 31
0.0
  0
ARC
  5
42C2
330
1F
100
AcDbEntity
  8
太線
100
AcDbCircle
 10
734.8577341544262
 20
-86.8100972621832
 30
0.0
 40
25.31465050611781
100
AcDbArc
 50
253.1602647809359
 51
285.0511046503695
  0
LINE
  5
42C3
330
1F
100
AcDbEntity
  8
太線
100
AcDbLine
 10
724.5246368337054
 20
-112.2662530293646
 30
0.0
 11
719.5246368337055
 21
-112.2662530293646
 31
0.0
  0
LINE
  5
42C4
330
1F
100
AcDbEntity
  8
太線
100
AcDbLine
 10
749.5246368337054
 20
-96.26625302936464
 30
0.0
 11
749.5246368337054
 21
-112.2662530293646
 31
0.0
  0
LINE
  5
42C5
330
1F
100
AcDbEntity
  8
太線
100
AcDbLine
 10
744.5246368337053
 20
-96.26625302936464
 30
0.0
 11
744.5246368337055
 21
-46.16139504737623
 31
0.0
  0
LINE
  5
42C6
330
1F
100
AcDbEntity
  8
太線
100
AcDbLine
 10
742.9203310698937
 20
-112.2662530293646
 30
0.0
 11
742.9203310698937
 21
-132.4291716019319
 31
0.0
  0
LINE
  5
42C7
330
1F
100
AcDbEntity
  8
太線
100
AcDbLine
 10
725.5246368337052
 20
-112.2662530293646
 30
0.0
 11
725.5246368337052
 21
-132.4291716019319
 31
0.0
  0
LINE
  5
42C8
330
1F
100
AcDbEntity
  8
太線
100
AcDbLine
 10
724.5246368337054
 20
-112.2662530293646
 30
0.0
 11
724.5246368337054
 21
-132.4291716019319
 31
0.0
  0
DIMENSION
  5
42C9
330
1F
100
AcDbEntity
  8
寸法線
100
AcDbDimension
  2
*D40
 10
696.857053323984
 20
-132.4291716019319
 30
0.0
 11
693.357053323984
 21
-157.6740898798337
 31
0.0
 70
    32
  1
60
 71
     5
 42
50.48983655580386
  3
sunpo
100
AcDbAlignedDimension
 13
701.1749957161771
 23
-182.9190081577357
 33
0.0
 14
719.5246368337055
 24
-132.4291716019319
 34
0.0
 50
90.0
100
AcDbRotatedDimension
1001
ACAD
1000
DSTYLE
1002
{
1070
    40
1040
1.0
1002
}
  0
LINE
  5
42DF
330
1F
100
AcDbEntity
  8
太線
100
AcDbLine
 10
474.8659410809912
 20
-141.9480186640023
 30
0.0
 11
474.8659410809912
 21
-161.4603679898747
 31
0.0
  0
LINE
  5
42E0
330
1F
100
AcDbEntity
  8
細線
100
AcDbLine
 10
473.8659410809912
 20
-141.9480186640023
 30
0.0
 11
473.8659410809912
 21
-161.4603679898747
 31
0.0
  0
LINE
  5
42E1
330
1F
100
AcDbEntity
  8
細線
100
AcDbLine
 10
463.8659410809911
 20
-141.9480186640023
 30
0.0
 11
463.8659410809911
 21
-161.4603679898747
 31
0.0
  0
LINE
  5
42E2
330
1F
100
AcDbEntity
  8
太線
100
AcDbLine
 10
462.8659410809912
 20
-132.3219769622039
 30
0.0
 11
462.8659410809912
 21
-46.16139504737623
 31
0.0
  0
LINE
  5
42E3
330
1F
100
AcDbEntity
  8
太線
100
AcDbLine
 10
463.8659410809911
 20
-140.9480186640023
 30
0.0
 11
463.8659410809911
 21
-133.1394029625844
 31
0.0
  0
LINE
  5
42E4
330
1F
100
AcDbEntity
  8
太線
100
AcDbLine
 10
601.7952221565828
 20
-154.6466116048764
 30
0.0
 11
601.7952221565828
 21
-161.4603679898747
 31
0.0
  0
LINE
  5
42E5
330
1F
100
AcDbEntity
  8
細線
100
AcDbLine
 10
600.795222156583
 20
-154.6466116048764
 30
0.0
 11
600.7952221565829
 21
-161.4603679898747
 31
0.0
  0
LINE
  5
42E6
330
1F
100
AcDbEntity
  8
太線
100
AcDbLine
 10
589.7952221565827
 20
-145.020569903078
 30
0.0
 11
589.7952221565828
 21
-46.16139504737623
 31
0.0
  0
LINE
  5
42E7
330
1F
100
AcDbEntity
  8
細線
100
AcDbLine
 10
590.795222156583
 20
-154.6466116048764
 30
0.0
 11
590.7952221565828
 21
-161.4603679898747
 31
0.0
  0
DIMENSION
  5
4327
330
1F
100
AcDbEntity
  8
寸法線
370
    25
100
AcDbDimension
  2
*D41
 10
444.1170914916589
 20
206.2187686693866
 30
0.0
 11
516.8503909936553
 21
188.1556829467485
 31
0.0
 70
   163
 71
     5
 42
60.00000000000011
  3
ISO-25
100
AcDbDiametricDimension
 15
502.3482215467203
 25
191.7572510273637
 35
0.0
 40
0.0
1001
ACAD
1000
DSTYLE
1002
{
1070
   288
1070
     1
1002
}
  0
DIMENSION
  5
4328
330
1F
100
AcDbEntity
  8
寸法線
370
    25
100
AcDbDimension
  2
*D42
 10
451.943996351017
 20
191.7049508589075
 30
0.0
 11
514.0041278929023
 21
212.9363292238744
 31
0.0
 70
   163
 71
     5
 42
45.00000000000011
  3
ISO-25
100
AcDbDiametricDimension
 15
494.5213166873622
 25
206.2710688378428
 35
0.0
 40
0.0
1001
ACAD
1000
DSTYLE
1002
{
1070
   288
1070
     1
1002
}
  0
CIRCLE
  5
4329
330
1F
100
AcDbEntity
  8
太線
370
    25
100
AcDbCircle
 10
473.2326565191896
 20
198.9880098483752
 30
0.0
 40
30.0
  0
CIRCLE
  5
432A
330
1F
100
AcDbEntity
  8
太線
370
    25
100
AcDbCircle
 10
473.2326565191896
 20
198.9880098483752
 30
0.0
 40
22.5
  0
DIMENSION
  5
432B
330
1F
100
AcDbEntity
  8
寸法線
370
    25
100
AcDbDimension
  2
*D43
 10
469.4913334248674
 20
194.6216610872374
 30
0.0
 11
481.9212639099943
 21
212.0098042480051
 31
0.0
 70
    35
 71
     5
 42
11.49999999999988
  3
ISO-25
100
AcDbDiametricDimension
 15
476.973979613512
 25
203.3543586095131
 35
0.0
 40
0.0
1001
ACAD
1000
DSTYLE
1002
{
1070
   288
1070
     1
1002
}
  0
CIRCLE
  5
432C
330
1F
100
AcDbEntity
  8
太線
370
    25
100
AcDbCircle
 10
473.2326565191896
 20
198.9880098483752
 30
0.0
 40
5.75
  0
XLINE
  5
436D
330
1F
100
AcDbEntity
  8
構築線
100
AcDbXline
 10
40.26634590173668
 20
140.9623356026448
 30
0.0
 11
1.0
 21
0.0
 31
0.0
  0
XLINE
  5
436E
330
1F
100
AcDbEntity
  8
構築線
100
AcDbXline
 10
40.26634590173673
 20
140.9623356026448
 30
0.0
 11
0.0
 21
1.0
 31
0.0
  0
CIRCLE
  5
4376
330
1F
100
AcDbEntity
  8
太線
100
AcDbCircle
 10
40.26634590173673
 20
165.9623356026448
 30
0.0
 40
3.0
  0
CIRCLE
  5
4377
330
1F
100
AcDbEntity
  8
太線
100
AcDbCircle
 10
65.26634590173671
 20
140.9623356026448
 30
0.0
 40
3.0
  0
LINE
  5
437A
330
1F
100
AcDbEntity
  8
想像線
100
AcDbLine
 10
68.26634590173672
 20
-22.50297488002741
 30
0.0
 11
68.26634590173672
 21
-28.46439797545474
 31
0.0
  0
LINE
  5
437B
330
1F
100
AcDbEntity
  8
想像線
100
AcDbLine
 10
62.26634590173671
 20
-22.50297488002741
 30
0.0
 11
62.26634590173671
 21
-28.46439797545474
 31
0.0
  0
LINE
  5
437F
330
1F
100
AcDbEntity
  8
想像線
100
AcDbLine
 10
43.26634590173672
 20
-22.50297488002741
 30
0.0
 11
43.32059380151074
 21
-28.30851916819094
 31
0.0
  0
LINE
  5
4380
330
1F
100
AcDbEntity
  8
想像線
100
AcDbLine
 10
37.26634590173672
 20
-22.31504114491778
 30
0.0
 11
37.26634590173672
 21
-28.31402108865335
 31
0.0
  0
LINE
  5
4381
330
1F
100
AcDbEntity
  8
想像線
100
AcDbLine
 10
181.7859270222745
 20
-22.50297488002741
 30
0.0
 11
181.7859270222745
 21
-28.46439797545474
 31
0.0
  0
LINE
  5
4382
330
1F
100
AcDbEntity
  8
想像線
100
AcDbLine
 10
187.7859270222745
 20
-22.50297488002741
 30
0.0
 11
187.7859270222745
 21
-28.46439797545474
 31
0.0
  0
LINE
  5
4383
330
1F
100
AcDbEntity
  8
想像線
100
AcDbLine
 10
382.4021533165871
 20
-22.50297370828787
 30
0.0
 11
382.4021533165871
 21
-28.4643968037152
 31
0.0
  0
LINE
  5
4384
330
1F
100
AcDbEntity
  8
想像線
100
AcDbLine
 10
376.4021533165871
 20
-22.50297370828787
 30
0.0
 11
376.4021533165871
 21
-28.4643968037152
 31
0.0
  0
LINE
  5
4385
330
1F
100
AcDbEntity
  8
想像線
100
AcDbLine
 10
488.5834665691927
 20
-23.17844173897049
 30
0.0
 11
488.5834665691927
 21
-29.13986483439782
 31
0.0
  0
LINE
  5
4386
330
1F
100
AcDbEntity
  8
想像線
100
AcDbLine
 10
494.5834665691927
 20
-23.17844173897049
 30
0.0
 11
494.5834665691927
 21
-29.13986483439782
 31
0.0
  0
LINE
  5
4387
330
1F
100
AcDbEntity
  8
想像線
100
AcDbLine
 10
615.5127476447844
 20
-23.17844173897049
 30
0.0
 11
615.5127476447844
 21
-29.13986483439782
 31
0.0
  0
LINE
  5
4388
330
1F
100
AcDbEntity
  8
想像線
100
AcDbLine
 10
621.5127476447844
 20
-23.17844173897049
 30
0.0
 11
621.5127476447844
 21
-29.13986483439782
 31
0.0
  0
LINE
  5
4389
330
1F
100
AcDbEntity
  8
想像線
100
AcDbLine
 10
759.8304685025716
 20
-23.17844173897049
 30
0.0
 11
759.8304685025716
 21
-29.13986483439782
 31
0.0
  0
LINE
  5
438A
330
1F
100
AcDbEntity
  8
想像線
100
AcDbLine
 10
753.8304685025716
 20
-23.17844173897049
 30
0.0
 11
753.8304685025716
 21
-29.13986483439782
 31
0.0
  0
LINE
  5
438D
330
1F
100
AcDbEntity
  8
想像線
100
AcDbLine
 10
156.7859270222745
 20
-22.31504114491778
 30
0.0
 11
156.7859270222745
 21
-28.31402108865335
 31
0.0
  0
LINE
  5
438E
330
1F
100
AcDbEntity
  8
想像線
100
AcDbLine
 10
162.7859270222745
 20
-22.50297488002741
 30
0.0
 11
162.8401749220485
 21
-28.30851916819094
 31
0.0
  0
LINE
  5
438F
330
1F
100
AcDbEntity
  8
想像線
100
AcDbLine
 10
351.4021533165871
 20
-22.31503997317824
 30
0.0
 11
351.4021533165871
 21
-28.31401991691381
 31
0.0
  0
LINE
  5
4390
330
1F
100
AcDbEntity
  8
想像線
100
AcDbLine
 10
357.4021533165871
 20
-22.50297370828787
 30
0.0
 11
357.4564012163611
 21
-28.3085179964514
 31
0.0
  0
LINE
  5
4391
330
1F
100
AcDbEntity
  8
想像線
100
AcDbLine
 10
463.5834665691927
 20
-22.99050800386087
 30
0.0
 11
463.5834665691927
 21
-28.98948794759643
 31
0.0
  0
LINE
  5
4392
330
1F
100
AcDbEntity
  8
想像線
100
AcDbLine
 10
469.5834665691927
 20
-23.17844173897049
 30
0.0
 11
469.6377144689668
 21
-28.98398602713402
 31
0.0
  0
LINE
  5
4393
330
1F
100
AcDbEntity
  8
想像線
100
AcDbLine
 10
590.5127476447844
 20
-22.99050800386087
 30
0.0
 11
590.5127476447844
 21
-28.98948794759643
 31
0.0
  0
LINE
  5
4394
330
1F
100
AcDbEntity
  8
想像線
100
AcDbLine
 10
596.5127476447844
 20
-23.17844173897049
 30
0.0
 11
596.5669955445584
 21
-28.98398602713402
 31
0.0
  0
LINE
  5
4395
330
1F
100
AcDbEntity
  8
想像線
100
AcDbLine
 10
728.8304685025716
 20
-22.99050800386087
 30
0.0
 11
728.8304685025716
 21
-28.98948794759643
 31
0.0
  0
LINE
  5
4396
330
1F
100
AcDbEntity
  8
想像線
100
AcDbLine
 10
734.8304685025716
 20
-23.17844173897049
 30
0.0
 11
734.8847164023457
 21
-28.98398602713402
 31
0.0
  0
TEXT
  5
43B0
330
1F
100
AcDbEntity
  8
寸法線
100
AcDbText
 10
168.5997025739907
 20
187.1273309476473
 30
0.0
 40
13.0
  1
水抜き6×2固
 51
15.0
  7
OKANO
100
AcDbText
  0
DIMENSION
  5
43CC
330
1F
100
AcDbEntity
  8
寸法線
100
AcDbDimension
  2
*D46
 10
62.37741700430468
 20
140.1535774029447
 30
0.0
 11
196.8538302288173
 21
177.8003682112123
 31
0.0
 70
   163
 71
     5
 42
6.000000000000014
  3
sunpo
100
AcDbDiametricDimension
 15
68.15527479916878
 25
141.7710938023449
 35
0.0
 40
0.0
1001
ACAD
1000
DSTYLE
1002
{
1070
    40
1040
1.0
1070
   288
1070
     1
1002
}
  0
DIMENSION
  5
43D8
330
1F
100
AcDbEntity
  8
寸法線
100
AcDbDimension
  2
*D47
 10
37.27726553862952
 20
165.7066041362841
 30
0.0
 11
183.7738592131972
 21
178.2401543143363
 31
0.0
 70
   163
 71
     5
 42
6.000000000000007
  3
sunpo
100
AcDbDiametricDimension
 15
43.25542626484391
 25
166.2180670690054
 35
0.0
 40
0.0
1001
ACAD
1000
DSTYLE
1002
{
1070
    40
1040
1.0
1070
   288
1070
     1
1002
}
  0
VIEWPORT
  5
2E
330
1B
100
AcDbEntity
 67
     1
  8
0
100
AcDbViewport
 10
240.217746142324
 20
108.4856578538652
 30
0.0
 40
674.002607272527
 41
322.9144324231721
 68
     2
 69
     1
 12
240.217746142324
 22
108.4856578538652
 13
0.0
 23
0.0
 14
10.0
 24
10.0
 15
10.0
 25
10.0
 16
0.0
 26
0.0
 36
1.0
 17
0.0
 27
0.0
 37
0.0
 42
50.0
 43
0.0
 44
0.0
 45
322.9144324231721
 50
0.0
 51
0.0
 72
   100
 90
    32800
  1

281
     0
 71
     1
 74
     0
110
0.0
120
0.0
130
0.0
111
1.0
121
0.0
131
0.0
112
0.0
122
1.0
132
0.0
 79
     0
146
0.0
  0
VIEWPORT
  5
30
330
1B
100
AcDbEntity
 67
     1
  8
70-0-CON
100
AcDbViewport
 10
141.8594093064315
 20
100.3480256368386
 30
0.0
 40
261.6199023344245
 41
192.6196987113174
 68
     1
 69
     2
 12
379.8091320004822
 22
38.36602999397518
 13
0.0
 23
0.0
 14
5.0
 24
5.0
 15
10.0
 25
10.0
 16
0.0
 26
0.0
 36
1.0
 17
0.0
 27
0.0
 37
0.0
 42
50.0
 43
0.0
 44
0.0
 45
686.5967269121254
 50
0.0
 51
0.0
 72
   100
 90
    32864
  1

281
     0
 71
     1
 74
     0
110
0.0
120
0.0
130
0.0
111
1.0
121
0.0
131
0.0
112
0.0
122
1.0
132
0.0
 79
     0
146
0.0
  0
LWPOLYLINE
  5
45
330
1B
100
AcDbEntity
 67
     1
  8
50-0-CON
100
AcDbPolyline
 90
        4
 70
     1
 43
0.0
 10
11.04945813921926
 20
4.038176281179858
 10
272.2125713060605
 20
4.033520706629644
 10
273.4987754093466
 20
195.9297862125246
 10
11.04945813921926
 20
196.6578749924973
  0
LINE
  5
4A
330
1B
100
AcDbEntity
 67
     1
  8
50-0-CON
100
AcDbLine
 10
10.38768783662635
 20
100.3480256368386
 30
0.0
 11
-4.391850629656119
 21
100.3480256368386
 31
0.0
  0
LINE
  5
4B
330
1B
100
AcDbEntity
 67
     1
  8
50-0-CON
100
AcDbLine
 10
141.8594093064315
 20
197.098652626247
 30
0.0
 11
141.8594093064315
 21
202.387980773708
 31
0.0
  0
LINE
  5
4C
330
1B
100
AcDbEntity
 67
     1
  8
50-0-CON
100
AcDbLine
 10
272.4487699456857
 20
100.7888032705883
 30
0.0
 11
278.8458837249377
 21
100.7888032705883
 31
0.0
  0
LINE
  5
4D
330
1B
100
AcDbEntity
 67
     1
  8
50-0-CON
100
AcDbLine
 10
140.9770484758805
 20
4.038176281179858
 30
0.0
 11
140.9770484758805
 21
-3.455038652015446
 31
0.0
  0
ENDSEC
  0
SECTION
  2
OBJECTS
  0
DICTIONARY
  5
C
330
0
100
AcDbDictionary
281
     1
  3
ACAD_GROUP
350
D
  3
ACAD_LAYOUT
350
1A
  3
ACAD_MLINESTYLE
350
17
  3
ACAD_PLOTSETTINGS
350
19
  3
ACAD_PLOTSTYLENAME
350
E
  3
AcadDim
350
43CB
  3
AcDbVariableDictionary
350
6AD
  3
DWGPROPS
350
30F
  0
DICTIONARY
  5
D
102
{ACAD_REACTORS
330
C
102
}
330
C
100
AcDbDictionary
281
     1
  0
DICTIONARY
  5
1A
102
{ACAD_REACTORS
330
C
102
}
330
C
100
AcDbDictionary
281
     1
  3
A4
350
1E
  3
Model
350
22
  0
DICTIONARY
  5
17
102
{ACAD_REACTORS
330
C
102
}
330
C
100
AcDbDictionary
281
     1
  3
Standard
350
18
  0
DICTIONARY
  5
19
102
{ACAD_REACTORS
330
C
102
}
330
C
100
AcDbDictionary
281
     1
  0
ACDBDICTIONARYWDFLT
  5
E
102
{ACAD_REACTORS
330
C
102
}
330
C
100
AcDbDictionary
281
     1
  3
Normal
350
F
100
AcDbDictionaryWithDefault
340
F
  0
XRECORD
  5
43CB
102
{ACAD_REACTORS
330
C
102
}
330
C
100
AcDbXrecord
280
     1
 90
   990106
  3

 60
     0
 61
     0
 62
     1
 63
     3
 64
     0
 65
     0
 66
     0
 67
     3
 68
     1
 69
     0
 70
     0
 71
     0
 72
     0
 40
0.9821740024764281
170
     0
  0
DICTIONARY
  5
6AD
102
{ACAD_REACTORS
330
C
102
}
330
C
100
AcDbDictionary
281
     1
  3
SORTENTS
350
6AE
  0
XRECORD
  5
30F
102
{ACAD_REACTORS
330
C
102
}
330
C
100
AcDbXrecord
280
     1
  1
DWGPROPS COOKIE
  2

  3

  4

  6

  7

  8

  9

300
=
301
=
302
=
303
=
304
=
305
=
306
=
307
=
308
=
309
=
 40
0.3303803125
 41
2452362.482225463
 42
2452370.969861285
  1

 90
        0
  0
LAYOUT
  5
1E
102
{ACAD_REACTORS
330
1A
102
}
330
1A
100
AcDbPlotSettings
  1

  2
EPSON PM-920C
  4
A4
  6

 40
3.757083177566528
 41
14.7637300491333
 42
3.757080078125
 43
3.757080078125
 44
209.9733276367187
 45
296.9683227539062
 46
0.0
 47
0.0
 48
0.0
 49
0.0
140
0.0
141
0.0
142
1.0
143
1.0
 70
   688
 72
     1
 73
     1
 74
     5
  7
joint.ctb
 75
    16
147
1.0
148
0.0
149
0.0
100
AcDbLayout
  1
A4
 70
     1
 71
     1
 10
-3.757080078125
 20
-3.757083177566528
 11
293.2112426757812
 21
206.2162444591522
 12
0.0
 22
0.0
 32
0.0
 14
-4.391850629656119
 24
-3.455038652015446
 34
0.0
 15
278.8458837249377
 25
202.387980773708
 35
0.0
146
0.0
 13
0.0
 23
0.0
 33
0.0
 16
1.0
 26
0.0
 36
0.0
 17
0.0
 27
1.0
 37
0.0
 76
     0
330
1B
331
30
  0
LAYOUT
  5
22
102
{ACAD_REACTORS
330
1A
102
}
330
1A
100
AcDbPlotSettings
  1

  2
EPSON PM-920C
  4
A4
  6

 40
3.757083177566528
 41
14.7637300491333
 42
3.757080078125
 43
3.757080078125
 44
209.9733276367187
 45
296.9683227539062
 46
0.0
 47
0.0
 48
0.0
 49
0.0
140
0.0
141
0.0
142
1.0
143
1.0
 70
 11952
 72
     1
 73
     1
 74
     0
  7

 75
     0
147
1.0
148
-45.64199848979289
149
-84.48806419330498
100
AcDbLayout
  1
Model
 70
     1
 71
     0
 10
0.0
 20
0.0
 11
12.0
 21
9.0
 12
0.0
 22
0.0
 32
0.0
 14
0.0
 24
0.0
 34
0.0
 15
0.0
 25
0.0
 35
0.0
146
0.0
 13
0.0
 23
0.0
 33
0.0
 16
1.0
 26
0.0
 36
0.0
 17
0.0
 27
1.0
 37
0.0
 76
     0
330
1F
  0
MLINESTYLE
  5
18
102
{ACAD_REACTORS
330
17
102
}
330
17
100
AcDbMlineStyle
  2
STANDARD
 70
     0
  3

 62
   256
 51
90.0
 52
90.0
 71
     2
 49
0.5
 62
   256
  6
BYLAYER
 49
-0.5
 62
   256
  6
BYLAYER
  0
ACDBPLACEHOLDER
  5
F
102
{ACAD_REACTORS
330
E
102
}
330
E
  0
DICTIONARYVAR
  5
6AE
102
{ACAD_REACTORS
330
6AD
102
}
330
6AD
100
DictionaryVariables
280
     0
  1
96
  0
ENDSEC
  0
EOF
