  0
SECTION
  2
HEADER
  9
$ACADVER
  1
AC1015
  9
$ACADMAINTVER
 70
     6
  9
$DWGCODEPAGE
  3
ANSI_932
  9
$INSBASE
 10
0.0
 20
0.0
 30
0.0
  9
$EXTMIN
 10
14.85236221693921
 20
-70.26906705939786
 30
0.0
  9
$EXTMAX
 10
517.5524860280546
 20
340.6816459838627
 30
0.0
  9
$LIMMIN
 10
0.0
 20
0.0
  9
$LIMMAX
 10
420.0
 20
297.0
  9
$ORTHOMODE
 70
     1
  9
$REGENMODE
 70
     1
  9
$FILLMODE
 70
     1
  9
$QTEXTMODE
 70
     0
  9
$MIRRTEXT
 70
     1
  9
$LTSCALE
 40
1.0
  9
$ATTMODE
 70
     1
  9
$TEXTSIZE
 40
5.0
  9
$TRACEWID
 40
1.0
  9
$TEXTSTYLE
  7
OKANO
  9
$CLAYER
  8
太線
  9
$CELTYPE
  6
ByLayer
  9
$CECOLOR
 62
   256
  9
$CELTSCALE
 40
1.0
  9
$DISPSILH
 70
     0
  9
$DIMSCALE
 40
0.0
  9
$DIMASZ
 40
3.0
  9
$DIMEXO
 40
2.0
  9
$DIMDLI
 40
8.0
  9
$DIMRND
 40
0.0
  9
$DIMDLE
 40
0.0
  9
$DIMEXE
 40
3.0
  9
$DIMTP
 40
0.0
  9
$DIMTM
 40
0.0
  9
$DIMTXT
 40
5.0
  9
$DIMCEN
 40
2.5
  9
$DIMTSZ
 40
0.0
  9
$DIMTOL
 70
     0
  9
$DIMLIM
 70
     0
  9
$DIMTIH
 70
     0
  9
$DIMTOH
 70
     0
  9
$DIMSE1
 70
     0
  9
$DIMSE2
 70
     0
  9
$DIMTAD
 70
     1
  9
$DIMZIN
 70
     8
  9
$DIMBLK
  1
Closed
  9
$DIMASO
 70
     1
  9
$DIMSHO
 70
     1
  9
$DIMPOST
  1

  9
$DIMAPOST
  1

  9
$DIMALT
 70
     0
  9
$DIMALTD
 70
     3
  9
$DIMALTF
 40
0.03937007874016
  9
$DIMLFAC
 40
1.0
  9
$DIMTOFL
 70
     1
  9
$DIMTVP
 40
0.0
  9
$DIMTIX
 70
     0
  9
$DIMSOXD
 70
     0
  9
$DIMSAH
 70
     0
  9
$DIMBLK1
  1

  9
$DIMBLK2
  1

  9
$DIMSTYLE
  2
sunpo
  9
$DIMCLRD
 70
     0
  9
$DIMCLRE
 70
     0
  9
$DIMCLRT
 70
     0
  9
$DIMTFAC
 40
1.0
  9
$DIMGAP
 40
1.0
  9
$DIMJUST
 70
     0
  9
$DIMSD1
 70
     0
  9
$DIMSD2
 70
     0
  9
$DIMTOLJ
 70
     0
  9
$DIMTZIN
 70
     8
  9
$DIMALTZ
 70
     0
  9
$DIMALTTZ
 70
     0
  9
$DIMUPT
 70
     0
  9
$DIMDEC
 70
     2
  9
$DIMTDEC
 70
     2
  9
$DIMALTU
 70
     2
  9
$DIMALTTD
 70
     3
  9
$DIMTXSTY
  7
OKANO
  9
$DIMAUNIT
 70
     0
  9
$DIMADEC
 70
     0
  9
$DIMALTRND
 40
0.0
  9
$DIMAZIN
 70
     0
  9
$DIMDSEP
 70
    46
  9
$DIMATFIT
 70
     3
  9
$DIMFRAC
 70
     0
  9
$DIMLDRBLK
  1
Closed
  9
$DIMLUNIT
 70
     2
  9
$DIMLWD
 70
    -2
  9
$DIMLWE
 70
    -2
  9
$DIMTMOVE
 70
     0
  9
$LUNITS
 70
     2
  9
$LUPREC
 70
     2
  9
$SKETCHINC
 40
1.0
  9
$FILLETRAD
 40
0.5
  9
$AUNITS
 70
     0
  9
$AUPREC
 70
     0
  9
$MENU
  1
.
  9
$ELEVATION
 40
0.0
  9
$PELEVATION
 40
0.0
  9
$THICKNESS
 40
0.0
  9
$LIMCHECK
 70
     0
  9
$CHAMFERA
 40
10.0
  9
$CHAMFERB
 40
10.0
  9
$CHAMFERC
 40
20.0
  9
$CHAMFERD
 40
0.0
  9
$SKPOLY
 70
     0
  9
$TDCREATE
 40
2452362.482225463
  9
$TDUCREATE
 40
2452362.107225463
  9
$TDUPDATE
 40
2455968.406710382
  9
$TDUUPDATE
 40
2455968.031710382
  9
$TDINDWG
 40
2.3335814468
  9
$TDUSRTIMER
 40
2.3335814468
  9
$USRTIMER
 70
     1
  9
$ANGBASE
 50
0.0
  9
$ANGDIR
 70
     0
  9
$PDMODE
 70
     0
  9
$PDSIZE
 40
0.0
  9
$PLINEWID
 40
0.0
  9
$SPLFRAME
 70
     0
  9
$SPLINETYPE
 70
     6
  9
$SPLINESEGS
 70
     8
  9
$HANDSEED
  5
3BDA
  9
$SURFTAB1
 70
     6
  9
$SURFTAB2
 70
     6
  9
$SURFTYPE
 70
     6
  9
$SURFU
 70
     6
  9
$SURFV
 70
     6
  9
$UCSBASE
  2

  9
$UCSNAME
  2

  9
$UCSORG
 10
0.0
 20
0.0
 30
0.0
  9
$UCSXDIR
 10
1.0
 20
0.0
 30
0.0
  9
$UCSYDIR
 10
0.0
 20
1.0
 30
0.0
  9
$UCSORTHOREF
  2

  9
$UCSORTHOVIEW
 70
     0
  9
$UCSORGTOP
 10
0.0
 20
0.0
 30
0.0
  9
$UCSORGBOTTOM
 10
0.0
 20
0.0
 30
0.0
  9
$UCSORGLEFT
 10
0.0
 20
0.0
 30
0.0
  9
$UCSORGRIGHT
 10
0.0
 20
0.0
 30
0.0
  9
$UCSORGFRONT
 10
0.0
 20
0.0
 30
0.0
  9
$UCSORGBACK
 10
0.0
 20
0.0
 30
0.0
  9
$PUCSBASE
  2

  9
$PUCSNAME
  2

  9
$PUCSORG
 10
0.0
 20
0.0
 30
0.0
  9
$PUCSXDIR
 10
1.0
 20
0.0
 30
0.0
  9
$PUCSYDIR
 10
0.0
 20
1.0
 30
0.0
  9
$PUCSORTHOREF
  2

  9
$PUCSORTHOVIEW
 70
     0
  9
$PUCSORGTOP
 10
0.0
 20
0.0
 30
0.0
  9
$PUCSORGBOTTOM
 10
0.0
 20
0.0
 30
0.0
  9
$PUCSORGLEFT
 10
0.0
 20
0.0
 30
0.0
  9
$PUCSORGRIGHT
 10
0.0
 20
0.0
 30
0.0
  9
$PUCSORGFRONT
 10
0.0
 20
0.0
 30
0.0
  9
$PUCSORGBACK
 10
0.0
 20
0.0
 30
0.0
  9
$USERI1
 70
     0
  9
$USERI2
 70
     0
  9
$USERI3
 70
     0
  9
$USERI4
 70
     0
  9
$USERI5
 70
     0
  9
$USERR1
 40
0.0
  9
$USERR2
 40
0.0
  9
$USERR3
 40
0.0
  9
$USERR4
 40
0.0
  9
$USERR5
 40
0.0
  9
$WORLDVIEW
 70
     1
  9
$SHADEDGE
 70
     3
  9
$SHADEDIF
 70
    70
  9
$TILEMODE
 70
     0
  9
$MAXACTVP
 70
    64
  9
$PINSBASE
 10
0.0
 20
0.0
 30
0.0
  9
$PLIMCHECK
 70
     0
  9
$PEXTMIN
 10
-4.391850629656119
 20
-3.455038652015446
 30
0.0
  9
$PEXTMAX
 10
278.8458837249377
 20
202.387980773708
 30
0.0
  9
$PLIMMIN
 10
-3.757080078125
 20
-3.757083177566528
  9
$PLIMMAX
 10
293.2112426757812
 20
206.2162444591522
  9
$UNITMODE
 70
     0
  9
$VISRETAIN
 70
     1
  9
$PLINEGEN
 70
     0
  9
$PSLTSCALE
 70
     1
  9
$TREEDEPTH
 70
  3020
  9
$CMLSTYLE
  2
Standard
  9
$CMLJUST
 70
     0
  9
$CMLSCALE
 40
20.0
  9
$PROXYGRAPHICS
 70
     1
  9
$MEASUREMENT
 70
     1
  9
$CELWEIGHT
370
    -1
  9
$ENDCAPS
280
     0
  9
$JOINSTYLE
280
     0
  9
$LWDISPLAY
290
     0
  9
$INSUNITS
 70
     4
  9
$HYPERLINKBASE
  1

  9
$STYLESHEET
  1

  9
$XEDIT
290
     1
  9
$CEPSNTYPE
380
     0
  9
$PSTYLEMODE
290
     1
  9
$FINGERPRINTGUID
  2
{FF7F33C3-4233-11D6-AEE0-0000F45FD7F4}
  9
$VERSIONGUID
  2
{9606DFD9-B286-4639-ACE9-488622997179}
  9
$EXTNAMES
290
     1
  9
$PSVPSCALE
 40
0.0
  9
$OLESTARTUP
290
     0
  0
ENDSEC
  0
SECTION
  2
CLASSES
  0
CLASS
  1
ACDBDICTIONARYWDFLT
  2
AcDbDictionaryWithDefault
  3
AutoCAD 2000
 90
        0
280
     0
281
     0
  0
CLASS
  1
ACDBPLACEHOLDER
  2
AcDbPlaceHolder
  3
AutoCAD 2000
 90
        0
280
     0
281
     0
  0
CLASS
  1
LAYOUT
  2
AcDbLayout
  3
AutoCAD 2000
 90
        0
280
     0
281
     0
  0
CLASS
  1
DICTIONARYVAR
  2
AcDbDictionaryVar
  3
AutoCAD 2000
 90
        0
280
     0
281
     0
  0
ENDSEC
  0
SECTION
  2
TABLES
  0
TABLE
  2
VPORT
  5
8
330
0
100
AcDbSymbolTable
 70
     2
  0
VPORT
  5
3BD9
330
8
100
AcDbSymbolTableRecord
100
AcDbViewportTableRecord
  2
*Active
 70
     0
 10
0.0
 20
0.0
 11
1.0
 21
1.0
 12
481.1879348584801
 22
121.937238953536
 13
0.0
 23
0.0
 14
5.0
 24
5.0
 15
10.0
 25
10.0
 16
0.0
 26
0.0
 36
1.0
 17
0.0
 27
0.0
 37
0.0
 40
579.4144772187491
 41
1.968879668049792
 42
50.0
 43
0.0
 44
0.0
 50
0.0
 51
0.0
 71
     0
 72
   100
 73
     1
 74
     3
 75
     0
 76
     0
 77
     0
 78
     0
281
     0
 65
     1
110
0.0
120
0.0
130
0.0
111
1.0
121
0.0
131
0.0
112
0.0
122
1.0
132
0.0
 79
     0
146
0.0
  0
ENDTAB
  0
TABLE
  2
LTYPE
  5
5
330
0
100
AcDbSymbolTable
 70
     5
  0
LTYPE
  5
14
330
5
100
AcDbSymbolTableRecord
100
AcDbLinetypeTableRecord
  2
ByBlock
 70
     0
  3

 72
    65
 73
     0
 40
0.0
  0
LTYPE
  5
15
330
5
100
AcDbSymbolTableRecord
100
AcDbLinetypeTableRecord
  2
ByLayer
 70
     0
  3

 72
    65
 73
     0
 40
0.0
  0
LTYPE
  5
16
330
5
100
AcDbSymbolTableRecord
100
AcDbLinetypeTableRecord
  2
Continuous
 70
     0
  3
Solid line
 72
    65
 73
     0
 40
0.0
  0
LTYPE
  5
33
330
5
100
AcDbSymbolTableRecord
100
AcDbLinetypeTableRecord
  2
DASHED2
 70
     0
  3
Dashed (.5x) _ _ _ _ _ _ _ _ _ _ _ _ _ _ _ _ _
 72
    65
 73
     2
 40
9.524999999999998
 49
6.349999999999999
 74
     0
 49
-3.174999999999999
 74
     0
  0
LTYPE
  5
34
330
5
100
AcDbSymbolTableRecord
100
AcDbLinetypeTableRecord
  2
CENTER2
 70
     0
  3
Center (.5x) ___ _ ___ _ ___ _ ___ _ ___ _ ___
 72
    65
 73
     4
 40
28.57499999999999
 49
19.05
 74
     0
 49
-3.174999999999999
 74
     0
 49
3.174999999999999
 74
     0
 49
-3.174999999999999
 74
     0
  0
LTYPE
  5
35
330
5
100
AcDbSymbolTableRecord
100
AcDbLinetypeTableRecord
  2
PHANTOM2
 70
     0
  3
Phantom (.5x) ___ _ _ ___ _ _ ___ _ _ ___ _ _
 72
    65
 73
     6
 40
31.75
 49
15.875
 74
     0
 49
-3.174999999999999
 74
     0
 49
3.174999999999999
 74
     0
 49
-3.174999999999999
 74
     0
 49
3.174999999999999
 74
     0
 49
-3.174999999999999
 74
     0
  0
LTYPE
  5
36
330
5
100
AcDbSymbolTableRecord
100
AcDbLinetypeTableRecord
  2
HIDDEN2
 70
     0
  3
Hidden (.5x) _ _ _ _ _ _ _ _ _ _ _ _ _ _ _ _ _
 72
    65
 73
     2
 40
4.762499999999999
 49
3.174999999999999
 74
     0
 49
-1.587499999999999
 74
     0
  0
ENDTAB
  0
TABLE
  2
LAYER
  5
2
330
0
100
AcDbSymbolTable
 70
    13
  0
LAYER
  5
10
330
2
100
AcDbSymbolTableRecord
100
AcDbLayerTableRecord
  2
0
 70
     0
 62
     7
  6
Continuous
370
    -3
390
F
  0
LAYER
  5
40
330
2
100
AcDbSymbolTableRecord
100
AcDbLayerTableRecord
  2
50-0-CON
 70
     0
 62
     4
  6
Continuous
370
    50
390
F
  0
LAYER
  5
41
330
2
100
AcDbSymbolTableRecord
100
AcDbLayerTableRecord
  2
70-0-CON
 70
     0
 62
   202
  6
Continuous
370
    70
390
F
  0
LAYER
  5
4E
330
2
100
AcDbSymbolTableRecord
100
AcDbLayerTableRecord
  2
極太線
 70
     0
 62
     7
  6
Continuous
370
    70
390
F
  0
LAYER
  5
4F
330
2
100
AcDbSymbolTableRecord
100
AcDbLayerTableRecord
  2
細線
 70
     0
 62
     8
  6
Continuous
370
    18
390
F
  0
LAYER
  5
AB
330
2
100
AcDbSymbolTableRecord
100
AcDbLayerTableRecord
  2
構築線
 70
     0
 62
    -2
  6
Continuous
370
    18
390
F
  0
LAYER
  5
B8
330
2
100
AcDbSymbolTableRecord
100
AcDbLayerTableRecord
  2
太線
 70
     0
 62
     7
  6
Continuous
370
    35
390
F
  0
LAYER
  5
B9
330
2
100
AcDbSymbolTableRecord
100
AcDbLayerTableRecord
  2
寸法線
 70
     0
 62
     5
  6
Continuous
370
    18
390
F
  0
LAYER
  5
BA
330
2
100
AcDbSymbolTableRecord
100
AcDbLayerTableRecord
  2
破線
 70
     0
 62
     8
  6
HIDDEN2
370
    18
390
F
  0
LAYER
  5
BB
330
2
100
AcDbSymbolTableRecord
100
AcDbLayerTableRecord
  2
中心線
 70
     0
 62
     1
  6
CENTER2
370
    18
390
F
  0
LAYER
  5
BC
330
2
100
AcDbSymbolTableRecord
100
AcDbLayerTableRecord
  2
想像線
 70
     0
 62
     8
  6
PHANTOM2
370
    18
390
F
  0
LAYER
  5
BD
330
2
100
AcDbSymbolTableRecord
100
AcDbLayerTableRecord
  2
文字
 70
     0
 62
     7
  6
Continuous
370
    18
390
F
  0
LAYER
  5
180
330
2
100
AcDbSymbolTableRecord
100
AcDbLayerTableRecord
  2
Defpoints
 70
     0
 62
     7
  6
Continuous
290
     0
370
    -3
390
F
  0
ENDTAB
  0
TABLE
  2
STYLE
  5
3
330
0
100
AcDbSymbolTable
 70
     3
  0
STYLE
  5
11
330
3
100
AcDbSymbolTableRecord
100
AcDbTextStyleTableRecord
  2
Standard
 70
     0
 40
0.0
 41
1.0
 50
0.0
 71
     0
 42
3.0
  3
txt
  4

  0
STYLE
  5
32
330
3
100
AcDbSymbolTableRecord
100
AcDbTextStyleTableRecord
  2

 70
     1
 40
0.0
 41
1.0
 50
0.0
 71
     0
 42
2.5
  3
ltypeshp.shx
  4

  0
STYLE
  5
50
330
3
100
AcDbSymbolTableRecord
100
AcDbTextStyleTableRecord
  2
OKANO
 70
     0
 40
0.0
 41
1.0
 50
15.0
 71
     0
 42
5.0
  3
isocp.shx
  4
bigfont.shx
  0
ENDTAB
  0
TABLE
  2
VIEW
  5
6
330
0
100
AcDbSymbolTable
 70
     0
  0
ENDTAB
  0
TABLE
  2
UCS
  5
7
330
0
100
AcDbSymbolTable
 70
     0
  0
ENDTAB
  0
TABLE
  2
APPID
  5
9
330
0
100
AcDbSymbolTable
 70
     1
  0
APPID
  5
12
330
9
100
AcDbSymbolTableRecord
100
AcDbRegAppTableRecord
  2
ACAD
 70
     0
  0
ENDTAB
  0
TABLE
  2
DIMSTYLE
  5
A
330
0
100
AcDbSymbolTable
 70
     2
100
AcDbDimStyleTable
 71
     2
340
A2
340
27
  0
DIMSTYLE
105
27
102
{ACAD_REACTORS
330
35CF
330
35D1
330
35D2
330
35D8
330
3B83
330
3B86
330
3B87
102
}
330
A
100
AcDbSymbolTableRecord
100
AcDbDimStyleTableRecord
  2
ISO-25
 70
     0
 41
2.5
 42
0.625
 43
3.75
 44
1.25
 73
     0
 74
     0
 77
     1
 78
     8
140
2.5
141
2.5
143
0.03937007874016
147
0.625
171
     3
172
     1
271
     2
272
     2
274
     3
283
     0
284
     8
340
11
  0
DIMSTYLE
105
A2
102
{ACAD_REACTORS
330
2E07
330
335D
330
350A
330
350B
330
35D0
330
36FC
330
36FD
330
36FE
330
3700
330
370E
330
3723
330
38C7
330
3A47
330
3A5F
330
3AE5
330
3B41
102
}
330
A
100
AcDbSymbolTableRecord
100
AcDbDimStyleTableRecord
  2
sunpo
 70
     0
 40
0.0
 41
3.0
 42
2.0
 43
8.0
 44
3.0
 73
     0
 74
     0
 77
     1
 78
     8
140
5.0
141
2.5
143
0.03937007874016
147
1.0
171
     3
172
     1
271
     2
272
     2
274
     3
283
     0
284
     8
340
50
341
9B
342
9B
  0
ENDTAB
  0
TABLE
  2
BLOCK_RECORD
  5
1
330
0
100
AcDbSymbolTable
 70
    28
  0
BLOCK_RECORD
  5
1F
330
1
100
AcDbSymbolTableRecord
100
AcDbBlockTableRecord
  2
*Model_Space
340
22
  0
BLOCK_RECORD
  5
1B
330
1
100
AcDbSymbolTableRecord
100
AcDbBlockTableRecord
  2
*Paper_Space
340
1E
  0
BLOCK_RECORD
  5
9B
330
1
100
AcDbSymbolTableRecord
100
AcDbBlockTableRecord
  2
_Closed
340
0
102
{BLKREFS
331
33E4
331
33E5
331
354A
331
354B
331
357D
331
357E
331
382E
331
382F
331
383A
331
383B
331
3842
331
3843
331
384B
331
384C
331
3856
331
3857
331
3886
331
3887
331
38AF
331
38B0
331
3917
331
3918
331
3ACE
331
3ACF
331
3AF5
331
3AF6
331
3AFE
331
3AFF
331
3B10
331
3B11
331
3B27
331
3B28
331
3B51
331
3B52
102
}
  0
BLOCK_RECORD
  5
1510
330
1
100
AcDbSymbolTableRecord
100
AcDbBlockTableRecord
  2
A$C10A573AC
340
0
  0
BLOCK_RECORD
  5
2E08
330
1
100
AcDbSymbolTableRecord
100
AcDbBlockTableRecord
  2
*D2
340
0
  0
BLOCK_RECORD
  5
3080
330
1
100
AcDbSymbolTableRecord
100
AcDbBlockTableRecord
  2
_Open30
340
0
  0
BLOCK_RECORD
  5
33B2
330
1
100
AcDbSymbolTableRecord
100
AcDbBlockTableRecord
  2
*D4
340
0
  0
BLOCK_RECORD
  5
33DE
330
1
100
AcDbSymbolTableRecord
100
AcDbBlockTableRecord
  2
*D5
340
0
  0
BLOCK_RECORD
  5
33EC
330
1
100
AcDbSymbolTableRecord
100
AcDbBlockTableRecord
  2
A$C37FB2AA7
340
0
  0
BLOCK_RECORD
  5
3526
330
1
100
AcDbSymbolTableRecord
100
AcDbBlockTableRecord
  2
*D7
340
0
  0
BLOCK_RECORD
  5
3532
330
1
100
AcDbSymbolTableRecord
100
AcDbBlockTableRecord
  2
*D8
340
0
  0
BLOCK_RECORD
  5
35D9
330
1
100
AcDbSymbolTableRecord
100
AcDbBlockTableRecord
  2
*D9
340
0
  0
BLOCK_RECORD
  5
35E5
330
1
100
AcDbSymbolTableRecord
100
AcDbBlockTableRecord
  2
*D10
340
0
  0
BLOCK_RECORD
  5
35F0
330
1
100
AcDbSymbolTableRecord
100
AcDbBlockTableRecord
  2
*D11
340
0
  0
BLOCK_RECORD
  5
35FB
330
1
100
AcDbSymbolTableRecord
100
AcDbBlockTableRecord
  2
*D12
340
0
  0
BLOCK_RECORD
  5
3604
330
1
100
AcDbSymbolTableRecord
100
AcDbBlockTableRecord
  2
*D13
340
0
  0
BLOCK_RECORD
  5
374B
330
1
100
AcDbSymbolTableRecord
100
AcDbBlockTableRecord
  2
*D14
340
0
  0
BLOCK_RECORD
  5
3757
330
1
100
AcDbSymbolTableRecord
100
AcDbBlockTableRecord
  2
*D15
340
0
  0
BLOCK_RECORD
  5
3765
330
1
100
AcDbSymbolTableRecord
100
AcDbBlockTableRecord
  2
*D16
340
0
  0
BLOCK_RECORD
  5
3771
330
1
100
AcDbSymbolTableRecord
100
AcDbBlockTableRecord
  2
*D17
340
0
  0
BLOCK_RECORD
  5
377F
330
1
100
AcDbSymbolTableRecord
100
AcDbBlockTableRecord
  2
*D18
340
0
  0
BLOCK_RECORD
  5
378B
330
1
100
AcDbSymbolTableRecord
100
AcDbBlockTableRecord
  2
*D19
340
0
  0
BLOCK_RECORD
  5
38C8
330
1
100
AcDbSymbolTableRecord
100
AcDbBlockTableRecord
  2
*D20
340
0
  0
BLOCK_RECORD
  5
3AA1
330
1
100
AcDbSymbolTableRecord
100
AcDbBlockTableRecord
  2
*D21
340
0
  0
BLOCK_RECORD
  5
3AAD
330
1
100
AcDbSymbolTableRecord
100
AcDbBlockTableRecord
  2
*D22
340
0
  0
BLOCK_RECORD
  5
3AE6
330
1
100
AcDbSymbolTableRecord
100
AcDbBlockTableRecord
  2
*D23
340
0
  0
BLOCK_RECORD
  5
3B42
330
1
100
AcDbSymbolTableRecord
100
AcDbBlockTableRecord
  2
*D24
340
0
  0
BLOCK_RECORD
  5
3B88
330
1
100
AcDbSymbolTableRecord
100
AcDbBlockTableRecord
  2
*D25
340
0
  0
BLOCK_RECORD
  5
3B93
330
1
100
AcDbSymbolTableRecord
100
AcDbBlockTableRecord
  2
*D26
340
0
  0
BLOCK_RECORD
  5
3B9E
330
1
100
AcDbSymbolTableRecord
100
AcDbBlockTableRecord
  2
*D27
340
0
  0
ENDTAB
  0
ENDSEC
  0
SECTION
  2
BLOCKS
  0
BLOCK
  5
20
330
1F
100
AcDbEntity
  8
0
100
AcDbBlockBegin
  2
*Model_Space
 70
     0
 10
0.0
 20
0.0
 30
0.0
  3
*Model_Space
  1

  0
ENDBLK
  5
21
330
1F
100
AcDbEntity
  8
0
100
AcDbBlockEnd
  0
BLOCK
  5
1C
330
1B
100
AcDbEntity
 67
     1
  8
0
100
AcDbBlockBegin
  2
*Paper_Space
 70
     0
 10
0.0
 20
0.0
 30
0.0
  3
*Paper_Space
  1

  0
ENDBLK
  5
1D
330
1B
100
AcDbEntity
 67
     1
  8
0
100
AcDbBlockEnd
  0
BLOCK
  5
A0
330
9B
100
AcDbEntity
  8
0
100
AcDbBlockBegin
  2
_Closed
 70
     0
 10
0.0
 20
0.0
 30
0.0
  3
_Closed
  1

  0
LINE
  5
9C
330
9B
100
AcDbEntity
  8
0
 62
     0
370
    -2
100
AcDbLine
 10
-1.0
 20
0.1666666666666666
 30
0.0
 11
0.0
 21
0.0
 31
0.0
  0
LINE
  5
9D
330
9B
100
AcDbEntity
  8
0
 62
     0
370
    -2
100
AcDbLine
 10
0.0
 20
0.0
 30
0.0
 11
-1.0
 21
-0.1666666666666666
 31
0.0
  0
LINE
  5
9E
330
9B
100
AcDbEntity
  8
0
 62
     0
370
    -2
100
AcDbLine
 10
-1.0
 20
0.1666666666666666
 30
0.0
 11
-1.0
 21
-0.1666666666666666
 31
0.0
  0
LINE
  5
9F
330
9B
100
AcDbEntity
  8
0
 62
     0
370
    -2
100
AcDbLine
 10
0.0
 20
0.0
 30
0.0
 11
-1.0
 21
0.0
 31
0.0
  0
ENDBLK
  5
A1
330
9B
100
AcDbEntity
  8
0
100
AcDbBlockEnd
  0
BLOCK
  5
155B
330
1510
100
AcDbEntity
  8
0
100
AcDbBlockBegin
  2
A$C10A573AC
 70
     0
 10
0.0
 20
0.0
 30
0.0
  3
A$C10A573AC
  1

  0
TEXT
  5
1511
330
1510
100
AcDbEntity
  8
文字
100
AcDbText
 10
0.9844302777919438
 20
5.224957122252135
 30
0.0
 40
3.0
  1
Materal : Steel.
 51
15.0
  7
OKANO
100
AcDbText
  0
TEXT
  5
1512
330
1510
100
AcDbEntity
  8
文字
100
AcDbText
 10
-0.1141909619694843
 20
0.7500001922403499
 30
0.0
 40
3.0
  1
Surface treatment : Electro galvanized.
 51
15.0
  7
OKANO
100
AcDbText
  0
TEXT
  5
1513
330
1510
100
AcDbEntity
  8
文字
100
AcDbText
 10
-0.4901926332574931
 20
9.159967445193728
 30
0.0
 40
3.0
  1
5 TORGUE SCREW  M5-6
 51
15.0
  7
OKANO
100
AcDbText
  0
TEXT
  5
1514
330
1510
100
AcDbEntity
  8
文字
100
AcDbText
 10
1.364713526390005
 20
78.88822913323082
 30
0.0
 40
3.0
  1
Special standard,
 51
15.0
  7
OKANO
100
AcDbText
  0
TEXT
  5
1515
330
1510
100
AcDbEntity
  8
文字
100
AcDbText
 10
92.88160823408942
 20
89.92753849837379
 30
0.0
 40
3.0
  1
Screw Type
 51
15.0
  7
OKANO
100
AcDbText
  0
LINE
  5
1516
330
1510
100
AcDbEntity
  8
太線
100
AcDbLine
 10
113.9464587597784
 20
81.93930390144641
 30
0.0
 11
112.4464587597784
 21
81.93930390144641
 31
0.0
  0
LINE
  5
1517
330
1510
100
AcDbEntity
  8
太線
100
AcDbLine
 10
112.4464587597784
 20
76.9393039014464
 30
0.0
 11
121.4644995438761
 21
76.9393039014464
 31
0.0
  0
TEXT
  5
1518
330
1510
100
AcDbEntity
  8
文字
100
AcDbText
 10
93.46068240437217
 20
77.96976862235396
 30
0.0
 40
2.0
  1
17-30
 51
15.0
  7
OKANO
100
AcDbText
  0
LINE
  5
1519
330
1510
100
AcDbEntity
  8
太線
100
AcDbLine
 10
111.9464587597784
 20
81.43930390144641
 30
0.0
 11
111.9464587597784
 21
77.4393039014464
 31
0.0
  0
LINE
  5
151A
330
1510
100
AcDbEntity
  8
太線
100
AcDbLine
 10
91.94645875977846
 20
81.43930390144641
 30
0.0
 11
91.94645875977846
 21
77.43930390144639
 31
0.0
  0
LINE
  5
151B
330
1510
100
AcDbEntity
  8
太線
100
AcDbLine
 10
101.9644995438761
 20
77.4393039014464
 30
0.0
 11
101.9644995438761
 21
81.43930390144641
 31
0.0
  0
LINE
  5
151C
330
1510
100
AcDbEntity
  8
太線
100
AcDbLine
 10
92.44645875977846
 20
76.9393039014464
 30
0.0
 11
101.4644995438761
 21
76.9393039014464
 31
0.0
  0
ARC
  5
151D
330
1510
100
AcDbEntity
  8
太線
100
AcDbCircle
 10
92.44645875977846
 20
77.43930390144639
 30
0.0
 40
0.5
100
AcDbArc
 50
180.0
 51
270.0
  0
ARC
  5
151E
330
1510
100
AcDbEntity
  8
太線
100
AcDbCircle
 10
101.4644995438761
 20
77.4393039014464
 30
0.0
 40
0.5
100
AcDbArc
 50
270.0
 51
0.0
  0
ARC
  5
151F
330
1510
100
AcDbEntity
  8
太線
100
AcDbCircle
 10
112.4464587597784
 20
77.4393039014464
 30
0.0
 40
0.5
100
AcDbArc
 50
180.0
 51
270.0
  0
LINE
  5
1520
330
1510
100
AcDbEntity
  8
想像線
100
AcDbLine
 10
93.94645875977847
 20
81.93930390144641
 30
0.0
 11
99.96449954387617
 21
81.93930390144641
 31
0.0
  0
LINE
  5
1521
330
1510
100
AcDbEntity
  8
極太線
100
AcDbLine
 10
96.38762957111168
 20
85.43930390144641
 30
0.0
 11
97.50528794844525
 21
85.43930390144641
 31
0.0
  0
CIRCLE
  5
1522
330
1510
100
AcDbEntity
  8
太線
100
AcDbCircle
 10
96.94645875977847
 20
85.43930390144641
 30
0.0
 40
0.5588291886667776
  0
LINE
  5
1523
330
1510
100
AcDbEntity
  8
太線
100
AcDbLine
 10
99.46449954387617
 20
86.93930390144641
 30
0.0
 11
94.44645875977846
 21
86.93930390144641
 31
0.0
  0
LINE
  5
1524
330
1510
100
AcDbEntity
  8
太線
100
AcDbLine
 10
93.94645875977847
 20
86.43930390144641
 30
0.0
 11
93.94645875977847
 21
81.93930390144641
 31
0.0
  0
ARC
  5
1525
330
1510
100
AcDbEntity
  8
太線
100
AcDbCircle
 10
92.44645875977846
 20
81.43930390144641
 30
0.0
 40
0.5
100
AcDbArc
 50
90.0
 51
180.0
  0
LINE
  5
1526
330
1510
100
AcDbEntity
  8
太線
100
AcDbLine
 10
93.94645875977847
 20
81.93930390144641
 30
0.0
 11
92.44645875977846
 21
81.93930390144641
 31
0.0
  0
ARC
  5
1527
330
1510
100
AcDbEntity
  8
太線
100
AcDbCircle
 10
94.44645875977846
 20
86.43930390144641
 30
0.0
 40
0.5
100
AcDbArc
 50
90.0
 51
180.0
  0
LINE
  5
1528
330
1510
100
AcDbEntity
  8
太線
100
AcDbLine
 10
99.96449954387617
 20
81.93930390144641
 30
0.0
 11
99.96449954387617
 21
86.43930390144641
 31
0.0
  0
LINE
  5
1529
330
1510
100
AcDbEntity
  8
太線
100
AcDbLine
 10
101.4644995438761
 20
81.93930390144641
 30
0.0
 11
99.96449954387617
 21
81.93930390144641
 31
0.0
  0
ARC
  5
152A
330
1510
100
AcDbEntity
  8
太線
100
AcDbCircle
 10
101.4644995438761
 20
81.43930390144641
 30
0.0
 40
0.5
100
AcDbArc
 50
0.0
 51
90.0
  0
ARC
  5
152B
330
1510
100
AcDbEntity
  8
太線
100
AcDbCircle
 10
99.46449954387617
 20
86.43930390144641
 30
0.0
 40
0.5
100
AcDbArc
 50
0.0
 51
90.0
  0
LINE
  5
152C
330
1510
100
AcDbEntity
  8
極太線
100
AcDbLine
 10
96.94645875977847
 20
85.99813309011318
 30
0.0
 11
96.94645875977847
 21
84.88047471277964
 31
0.0
  0
ARC
  5
152D
330
1510
100
AcDbEntity
  8
太線
100
AcDbCircle
 10
112.4464587597784
 20
81.43930390144641
 30
0.0
 40
0.5
100
AcDbArc
 50
90.0
 51
180.0
  0
TEXT
  5
152E
330
1510
100
AcDbEntity
  8
文字
100
AcDbText
 10
134.3819212586066
 20
78.16263579228063
 30
0.0
 40
2.0
  1
101
 51
15.0
  7
OKANO
100
AcDbText
  0
TEXT
  5
152F
330
1510
100
AcDbEntity
  8
文字
100
AcDbText
 10
113.3422276612066
 20
77.96976862235396
 30
0.0
 40
2.0
  1
38-83
 51
15.0
  7
OKANO
100
AcDbText
  0
LINE
  5
1530
330
1510
100
AcDbEntity
  8
太線
100
AcDbLine
 10
141.9825403279738
 20
77.4393039014464
 30
0.0
 11
141.9825403279738
 21
81.43930390144641
 31
0.0
  0
LINE
  5
1531
330
1510
100
AcDbEntity
  8
太線
100
AcDbLine
 10
131.9644995438761
 20
81.43930390144641
 30
0.0
 11
131.9644995438761
 21
77.4393039014464
 31
0.0
  0
LINE
  5
1532
330
1510
100
AcDbEntity
  8
太線
100
AcDbLine
 10
121.9644995438761
 20
77.4393039014464
 30
0.0
 11
121.9644995438761
 21
81.43930390144641
 31
0.0
  0
ARC
  5
1533
330
1510
100
AcDbEntity
  8
太線
100
AcDbCircle
 10
121.4644995438761
 20
77.4393039014464
 30
0.0
 40
0.5
100
AcDbArc
 50
270.0
 51
0.0
  0
LINE
  5
1534
330
1510
100
AcDbEntity
  8
太線
100
AcDbLine
 10
132.4644995438761
 20
76.9393039014464
 30
0.0
 11
141.4825403279738
 21
76.9393039014464
 31
0.0
  0
ARC
  5
1535
330
1510
100
AcDbEntity
  8
太線
100
AcDbCircle
 10
132.4644995438761
 20
77.4393039014464
 30
0.0
 40
0.5
100
AcDbArc
 50
180.0
 51
270.0
  0
ARC
  5
1536
330
1510
100
AcDbEntity
  8
太線
100
AcDbCircle
 10
141.4825403279738
 20
77.4393039014464
 30
0.0
 40
0.5
100
AcDbArc
 50
270.0
 51
0.0
  0
ARC
  5
1537
330
1510
100
AcDbEntity
  8
太線
100
AcDbCircle
 10
121.4644995438761
 20
81.43930390144641
 30
0.0
 40
0.5
100
AcDbArc
 50
0.0
 51
90.0
  0
LINE
  5
1538
330
1510
100
AcDbEntity
  8
太線
100
AcDbLine
 10
119.9644995438761
 20
81.93930390144641
 30
0.0
 11
119.9644995438761
 21
86.43930390144641
 31
0.0
  0
LINE
  5
1539
330
1510
100
AcDbEntity
  8
太線
100
AcDbLine
 10
113.9464587597784
 20
86.43930390144641
 30
0.0
 11
113.9464587597784
 21
81.93930390144641
 31
0.0
  0
LINE
  5
153A
330
1510
100
AcDbEntity
  8
想像線
100
AcDbLine
 10
113.9464587597784
 20
81.93930390144641
 30
0.0
 11
119.9644995438761
 21
81.93930390144641
 31
0.0
  0
LINE
  5
153B
330
1510
100
AcDbEntity
  8
太線
100
AcDbLine
 10
121.4644995438761
 20
81.93930390144641
 30
0.0
 11
119.9644995438761
 21
81.93930390144641
 31
0.0
  0
LINE
  5
153C
330
1510
100
AcDbEntity
  8
太線
100
AcDbLine
 10
119.4644995438761
 20
86.93930390144641
 30
0.0
 11
114.4464587597784
 21
86.93930390144641
 31
0.0
  0
ARC
  5
153D
330
1510
100
AcDbEntity
  8
太線
100
AcDbCircle
 10
114.4464587597784
 20
86.43930390144641
 30
0.0
 40
0.5
100
AcDbArc
 50
90.0
 51
180.0
  0
CIRCLE
  5
153E
330
1510
100
AcDbEntity
  8
太線
100
AcDbCircle
 10
115.4464587597784
 20
85.43930390144641
 30
0.0
 40
0.5588291886667776
  0
LINE
  5
153F
330
1510
100
AcDbEntity
  8
極太線
100
AcDbLine
 10
115.4464587597784
 20
85.99813309011318
 30
0.0
 11
115.4464587597784
 21
84.88047471277964
 31
0.0
  0
LINE
  5
1540
330
1510
100
AcDbEntity
  8
極太線
100
AcDbLine
 10
114.8876295711116
 20
85.43930390144641
 30
0.0
 11
116.0052879484452
 21
85.43930390144641
 31
0.0
  0
ARC
  5
1541
330
1510
100
AcDbEntity
  8
太線
100
AcDbCircle
 10
119.4644995438761
 20
86.43930390144641
 30
0.0
 40
0.5
100
AcDbArc
 50
0.0
 51
90.0
  0
LINE
  5
1542
330
1510
100
AcDbEntity
  8
極太線
100
AcDbLine
 10
117.9056703552094
 20
85.43930390144641
 30
0.0
 11
119.0233287325429
 21
85.43930390144641
 31
0.0
  0
LINE
  5
1543
330
1510
100
AcDbEntity
  8
極太線
100
AcDbLine
 10
118.4644995438761
 20
85.99813309011318
 30
0.0
 11
118.4644995438761
 21
84.88047471277964
 31
0.0
  0
CIRCLE
  5
1544
330
1510
100
AcDbEntity
  8
太線
100
AcDbCircle
 10
118.4644995438761
 20
85.43930390144641
 30
0.0
 40
0.5588291886667776
  0
LINE
  5
1545
330
1510
100
AcDbEntity
  8
想像線
100
AcDbLine
 10
133.9644995438761
 20
81.93930390144641
 30
0.0
 11
139.9825403279738
 21
81.93930390144641
 31
0.0
  0
LINE
  5
1546
330
1510
100
AcDbEntity
  8
極太線
100
AcDbLine
 10
137.9237111393071
 20
85.43930390144641
 30
0.0
 11
139.0413695166406
 21
85.43930390144641
 31
0.0
  0
CIRCLE
  5
1547
330
1510
100
AcDbEntity
  8
太線
100
AcDbCircle
 10
138.4825403279738
 20
85.43930390144641
 30
0.0
 40
0.5588291886667776
  0
CIRCLE
  5
1548
330
1510
100
AcDbEntity
  8
太線
100
AcDbCircle
 10
138.4825403279738
 20
83.26342923362075
 30
0.0
 40
0.5588291886667776
  0
LINE
  5
1549
330
1510
100
AcDbEntity
  8
極太線
100
AcDbLine
 10
137.9237111393071
 20
83.26342923362075
 30
0.0
 11
139.0413695166406
 21
83.26342923362075
 31
0.0
  0
LINE
  5
154A
330
1510
100
AcDbEntity
  8
太線
100
AcDbLine
 10
139.4825403279738
 20
86.93930390144641
 30
0.0
 11
134.4644995438761
 21
86.93930390144641
 31
0.0
  0
LINE
  5
154B
330
1510
100
AcDbEntity
  8
太線
100
AcDbLine
 10
133.9644995438761
 20
86.43930390144641
 30
0.0
 11
133.9644995438761
 21
81.93930390144641
 31
0.0
  0
ARC
  5
154C
330
1510
100
AcDbEntity
  8
太線
100
AcDbCircle
 10
132.4644995438761
 20
81.43930390144641
 30
0.0
 40
0.5
100
AcDbArc
 50
90.0
 51
180.0
  0
LINE
  5
154D
330
1510
100
AcDbEntity
  8
太線
100
AcDbLine
 10
133.9644995438761
 20
81.93930390144641
 30
0.0
 11
132.4644995438761
 21
81.93930390144641
 31
0.0
  0
LINE
  5
154E
330
1510
100
AcDbEntity
  8
極太線
100
AcDbLine
 10
134.9056703552093
 20
83.26342923362075
 30
0.0
 11
136.0233287325429
 21
83.26342923362075
 31
0.0
  0
LINE
  5
154F
330
1510
100
AcDbEntity
  8
極太線
100
AcDbLine
 10
135.4644995438761
 20
83.82225842228752
 30
0.0
 11
135.4644995438761
 21
82.70460004495395
 31
0.0
  0
CIRCLE
  5
1550
330
1510
100
AcDbEntity
  8
太線
100
AcDbCircle
 10
135.4644995438761
 20
83.26342923362075
 30
0.0
 40
0.5588291886667776
  0
ARC
  5
1551
330
1510
100
AcDbEntity
  8
太線
100
AcDbCircle
 10
134.4644995438761
 20
86.43930390144641
 30
0.0
 40
0.5
100
AcDbArc
 50
90.0
 51
180.0
  0
CIRCLE
  5
1552
330
1510
100
AcDbEntity
  8
太線
100
AcDbCircle
 10
135.4644995438761
 20
85.43930390144641
 30
0.0
 40
0.5588291886667776
  0
LINE
  5
1553
330
1510
100
AcDbEntity
  8
極太線
100
AcDbLine
 10
135.4644995438761
 20
85.99813309011318
 30
0.0
 11
135.4644995438761
 21
84.88047471277964
 31
0.0
  0
LINE
  5
1554
330
1510
100
AcDbEntity
  8
極太線
100
AcDbLine
 10
134.9056703552093
 20
85.43930390144641
 30
0.0
 11
136.0233287325429
 21
85.43930390144641
 31
0.0
  0
LINE
  5
1555
330
1510
100
AcDbEntity
  8
太線
100
AcDbLine
 10
139.9825403279738
 20
81.93930390144641
 30
0.0
 11
139.9825403279738
 21
86.43930390144641
 31
0.0
  0
ARC
  5
1556
330
1510
100
AcDbEntity
  8
太線
100
AcDbCircle
 10
141.4825403279738
 20
81.43930390144641
 30
0.0
 40
0.5
100
AcDbArc
 50
0.0
 51
90.0
  0
LINE
  5
1557
330
1510
100
AcDbEntity
  8
極太線
100
AcDbLine
 10
138.4825403279738
 20
83.82225842228752
 30
0.0
 11
138.4825403279738
 21
82.70460004495395
 31
0.0
  0
LINE
  5
1558
330
1510
100
AcDbEntity
  8
太線
100
AcDbLine
 10
141.4825403279738
 20
81.93930390144641
 30
0.0
 11
139.9825403279738
 21
81.93930390144641
 31
0.0
  0
ARC
  5
1559
330
1510
100
AcDbEntity
  8
太線
100
AcDbCircle
 10
139.4825403279738
 20
86.43930390144641
 30
0.0
 40
0.5
100
AcDbArc
 50
0.0
 51
90.0
  0
LINE
  5
155A
330
1510
100
AcDbEntity
  8
極太線
100
AcDbLine
 10
138.4825403279738
 20
85.99813309011318
 30
0.0
 11
138.4825403279738
 21
84.88047471277964
 31
0.0
  0
ENDBLK
  5
155C
330
1510
100
AcDbEntity
  8
0
100
AcDbBlockEnd
  0
BLOCK
  5
2E12
330
2E08
100
AcDbEntity
  8
0
100
AcDbBlockBegin
  2
*D2
 70
     1
 10
0.0
 20
0.0
 30
0.0
  3
*D2
  1

  0
LINE
  5
3AFB
330
2E08
100
AcDbEntity
  8
寸法線
 62
     0
370
    -2
100
AcDbLine
 10
51.96670811017657
 20
143.5536210066474
 30
0.0
 11
51.96670811017657
 21
123.7409606273646
 31
0.0
  0
LINE
  5
3AFC
330
2E08
100
AcDbEntity
  8
寸法線
 62
     0
370
    -2
100
AcDbLine
 10
142.9667081101765
 20
143.0536210066474
 30
0.0
 11
142.9667081101765
 21
123.7409606273646
 31
0.0
  0
LINE
  5
3AFD
330
2E08
100
AcDbEntity
  8
寸法線
 62
     0
370
    -2
100
AcDbLine
 10
54.96670811017657
 20
126.7409606273646
 30
0.0
 11
139.9667081101765
 21
126.7409606273646
 31
0.0
  0
INSERT
  5
3AFE
330
2E08
100
AcDbEntity
  8
寸法線
 62
     0
370
    -2
100
AcDbBlockReference
  2
_Closed
 10
51.96670811017657
 20
126.7409606273646
 30
0.0
 41
3.0
 42
3.0
 43
3.0
 50
180.0
  0
INSERT
  5
3AFF
330
2E08
100
AcDbEntity
  8
寸法線
 62
     0
370
    -2
100
AcDbBlockReference
  2
_Closed
 10
142.9667081101765
 20
126.7409606273646
 30
0.0
 41
3.0
 42
3.0
 43
3.0
  0
MTEXT
  5
3B00
330
2E08
100
AcDbEntity
  8
寸法線
 62
     0
100
AcDbMText
 10
97.46670811017658
 20
130.2409606273646
 30
0.0
 40
5.0
 41
0.0
 71
     5
 72
     1
  1
88
  7
OKANO
 73
     1
 44
1.0
  0
POINT
  5
3B01
330
2E08
100
AcDbEntity
  8
Defpoints
 62
     0
100
AcDbPoint
 10
51.96670811017657
 20
145.5536210066474
 30
0.0
  0
POINT
  5
3B02
330
2E08
100
AcDbEntity
  8
Defpoints
 62
     0
100
AcDbPoint
 10
142.9667081101765
 20
145.0536210066474
 30
0.0
  0
POINT
  5
3B03
330
2E08
100
AcDbEntity
  8
Defpoints
 62
     0
100
AcDbPoint
 10
142.9667081101765
 20
126.7409606273646
 30
0.0
  0
ENDBLK
  5
2E13
330
2E08
100
AcDbEntity
  8
0
100
AcDbBlockEnd
  0
BLOCK
  5
3084
330
3080
100
AcDbEntity
  8
0
100
AcDbBlockBegin
  2
_Open30
 70
     0
 10
0.0
 20
0.0
 30
0.0
  3
_Open30
  1

  0
LINE
  5
3081
330
3080
100
AcDbEntity
  8
太線
 62
     0
370
    -2
100
AcDbLine
 10
-1.0
 20
0.26794919
 30
0.0
 11
0.0
 21
0.0
 31
0.0
  0
LINE
  5
3082
330
3080
100
AcDbEntity
  8
太線
 62
     0
370
    -2
100
AcDbLine
 10
0.0
 20
0.0
 30
0.0
 11
-1.0
 21
-0.26794919
 31
0.0
  0
LINE
  5
3083
330
3080
100
AcDbEntity
  8
太線
 62
     0
370
    -2
100
AcDbLine
 10
0.0
 20
0.0
 30
0.0
 11
-1.0
 21
0.0
 31
0.0
  0
ENDBLK
  5
3085
330
3080
100
AcDbEntity
  8
0
100
AcDbBlockEnd
  0
BLOCK
  5
33BC
330
33B2
100
AcDbEntity
  8
0
100
AcDbBlockBegin
  2
*D4
 70
     1
 10
0.0
 20
0.0
 30
0.0
  3
*D4
  1

  0
LINE
  5
357A
330
33B2
100
AcDbEntity
  8
寸法線
 62
     0
370
    -2
100
AcDbLine
 10
320.3795387012608
 20
29.71163252420842
 30
0.0
 11
329.3521150353085
 21
29.71163252420842
 31
0.0
  0
LINE
  5
357B
330
33B2
100
AcDbEntity
  8
寸法線
 62
     0
370
    -2
100
AcDbLine
 10
297.8795387012608
 20
112.0864082557694
 30
0.0
 11
329.3521150353085
 21
112.0864082557694
 31
0.0
  0
LINE
  5
357C
330
33B2
100
AcDbEntity
  8
寸法線
 62
     0
370
    -2
100
AcDbLine
 10
326.3521150353085
 20
32.71163252420842
 30
0.0
 11
326.3521150353085
 21
109.0864082557694
 31
0.0
  0
INSERT
  5
357D
330
33B2
100
AcDbEntity
  8
寸法線
 62
     0
370
    -2
100
AcDbBlockReference
  2
_Closed
 10
326.3521150353085
 20
29.71163252420842
 30
0.0
 41
3.0
 42
3.0
 43
3.0
 50
270.0
  0
INSERT
  5
357E
330
33B2
100
AcDbEntity
  8
寸法線
 62
     0
370
    -2
100
AcDbBlockReference
  2
_Closed
 10
326.3521150353085
 20
112.0864082557694
 30
0.0
 41
3.0
 42
3.0
 43
3.0
 50
90.0
  0
MTEXT
  5
357F
330
33B2
100
AcDbEntity
  8
寸法線
 62
     0
100
AcDbMText
 10
322.8521150353085
 20
70.899020389989
 30
0.0
 40
5.0
 41
0.0
 71
     5
 72
     1
  1
85
  7
OKANO
 11
0.0000000000000001
 21
1.0
 31
0.0
 73
     1
 44
1.0
  0
POINT
  5
3580
330
33B2
100
AcDbEntity
  8
Defpoints
 62
     0
100
AcDbPoint
 10
318.3795387012608
 20
29.71163252420842
 30
0.0
  0
POINT
  5
3581
330
33B2
100
AcDbEntity
  8
Defpoints
 62
     0
100
AcDbPoint
 10
295.8795387012608
 20
112.0864082557694
 30
0.0
  0
POINT
  5
3582
330
33B2
100
AcDbEntity
  8
Defpoints
 62
     0
100
AcDbPoint
 10
326.3521150353085
 20
112.0864082557694
 30
0.0
  0
ENDBLK
  5
33BD
330
33B2
100
AcDbEntity
  8
0
100
AcDbBlockEnd
  0
BLOCK
  5
33EA
330
33DE
100
AcDbEntity
  8
0
100
AcDbBlockBegin
  2
*D5
 70
     1
 10
0.0
 20
0.0
 30
0.0
  3
*D5
  1

  0
LINE
  5
33DF
330
33DE
100
AcDbEntity
  8
寸法線
 62
     0
370
    -2
100
AcDbLine
 10
41.66551188203061
 20
-197.4333959417628
 30
0.0
 11
60.33797480291764
 21
-197.4333959417628
 31
0.0
  0
LINE
  5
33E0
330
33DE
100
AcDbEntity
  8
寸法線
 62
     0
370
    -2
100
AcDbLine
 10
41.337908242519
 20
-202.4333959417628
 30
0.0
 11
60.33797480291764
 21
-202.4333959417628
 31
0.0
  0
LINE
  5
33E1
330
33DE
100
AcDbEntity
  8
寸法線
 62
     0
370
    -2
100
AcDbLine
 10
57.33797480291764
 20
-194.4333959417628
 30
0.0
 11
57.33797480291764
 21
-191.4333959417628
 31
0.0
  0
LINE
  5
33E2
330
33DE
100
AcDbEntity
  8
寸法線
 62
     0
370
    -2
100
AcDbLine
 10
57.33797480291764
 20
-205.4333959417628
 30
0.0
 11
57.33797480291763
 21
-208.4333959417628
 31
0.0
  0
LINE
  5
33E3
330
33DE
100
AcDbEntity
  8
寸法線
 62
     0
370
    -2
100
AcDbLine
 10
57.33797480291764
 20
-197.4333959417628
 30
0.0
 11
57.33797480291764
 21
-202.4333959417628
 31
0.0
  0
INSERT
  5
33E4
330
33DE
100
AcDbEntity
  8
寸法線
 62
     0
370
    -2
100
AcDbBlockReference
  2
_Closed
 10
57.33797480291764
 20
-197.4333959417628
 30
0.0
 41
3.0
 42
3.0
 43
3.0
 50
270.0
  0
INSERT
  5
33E5
330
33DE
100
AcDbEntity
  8
寸法線
 62
     0
370
    -2
100
AcDbBlockReference
  2
_Closed
 10
57.33797480291764
 20
-202.4333959417628
 30
0.0
 41
3.0
 42
3.0
 43
3.0
 50
90.0
  0
MTEXT
  5
33E6
330
33DE
100
AcDbEntity
  8
寸法線
 62
     0
100
AcDbMText
 10
53.83797480291767
 20
-199.9333959417628
 30
0.0
 40
5.0
 41
0.0
 71
     5
 72
     1
  1
4
  7
OKANO
 11
0.0000000000000001
 21
1.0
 31
0.0
 73
     1
 44
1.0
  0
POINT
  5
33E7
330
33DE
100
AcDbEntity
  8
Defpoints
 62
     0
100
AcDbPoint
 10
39.66551188203061
 20
-197.4333959417628
 30
0.0
  0
POINT
  5
33E8
330
33DE
100
AcDbEntity
  8
Defpoints
 62
     0
100
AcDbPoint
 10
39.337908242519
 20
-202.4333959417628
 30
0.0
  0
POINT
  5
33E9
330
33DE
100
AcDbEntity
  8
Defpoints
 62
     0
100
AcDbPoint
 10
57.33797480291764
 20
-202.4333959417628
 30
0.0
  0
ENDBLK
  5
33EB
330
33DE
100
AcDbEntity
  8
0
100
AcDbBlockEnd
  0
BLOCK
  5
33F9
330
33EC
100
AcDbEntity
  8
0
100
AcDbBlockBegin
  2
A$C37FB2AA7
 70
     0
 10
0.0
 20
0.0
 30
0.0
  3
A$C37FB2AA7
  1

  0
TEXT
  5
33ED
330
33EC
100
AcDbEntity
  8
文字
100
AcDbText
 10
38.02386570758653
 20
14.41292334896979
 30
0.0
 40
4.0
  1
14-3Ｙ65・14-3Ｙ100・15-3Ｙ500・15-3Ｙ2000
 51
15.0
  7
OKANO
100
AcDbText
  0
TEXT
  5
33EE
330
33EC
100
AcDbEntity
  8
文字
100
AcDbText
 10
39.10072062519702
 20
24.80913138833926
 30
0.0
 40
6.719999999999999
  1
F-999-20070524 Auto CAD
 51
15.0
  7
OKANO
100
AcDbText
  0
LWPOLYLINE
  5
33EF
330
33EC
100
AcDbEntity
  8
太線
100
AcDbPolyline
 90
        4
 70
     1
 43
0.0
 10
0.7096011709376171
 20
35.28000067773678
 10
151.9096011709376
 20
35.28000067773678
 10
151.9096011709376
 20
0.0000006777367503
 10
0.7096011709376171
 20
0.0000006777367503
  0
LINE
  5
33F0
330
33EC
100
AcDbEntity
  8
太線
100
AcDbLine
 10
0.7096011709376171
 20
23.52000067773678
 30
0.0
 11
151.9096011709376
 21
23.52000067773678
 31
0.0
  0
TEXT
  5
33F1
330
33EC
100
AcDbEntity
  8
文字
100
AcDbText
 10
49.58435884171263
 20
4.155811278136354
 30
0.0
 40
6.719999999999999
  1
joint kogyo T.okano
 51
15.0
  7
OKANO
100
AcDbText
  0
LINE
  5
33F2
330
33EC
100
AcDbEntity
  8
太線
100
AcDbLine
 10
34.30960117093764
 20
35.28000067773678
 30
0.0
 11
34.30960117093764
 21
0.0000006777367503
 31
0.0
  0
DIMENSION
  5
33F3
330
33EC
100
AcDbEntity
  8
寸法線
100
AcDbDimension
  2
*D5
 10
18.00006768161642
 20
20.36016901099316
 30
0.0
 11
14.50006768161645
 21
22.86016901099316
 31
0.0
 12
-39.33790712130121
 22
222.793564952756
 32
0.0
  1
4
 71
     5
 42
5.0
  3
sunpo
100
AcDbAlignedDimension
 13
0.3276047607294004
 23
25.36016901099316
 33
0.0
 14
0.0000011212177924
 24
20.36016901099316
 34
0.0
 50
90.0
100
AcDbRotatedDimension
1001
ACAD
1000
DSTYLE
1002
{
1070
    40
1040
1.0
1002
}
  0
TEXT
  5
33F4
330
33EC
100
AcDbEntity
  8
文字
100
AcDbText
 10
6.130938163418136
 20
12.04908415934579
 30
0.0
 40
3.359999999999999
  1
CHECK
 51
15.0
  7
OKANO
100
AcDbText
  0
TEXT
  5
33F5
330
33EC
100
AcDbEntity
  8
文字
100
AcDbText
 10
6.130938163418136
 20
2.361885510643674
 30
0.0
 40
3.359999999999999
  1
ISSUED
 51
15.0
  7
OKANO
100
AcDbText
  0
TEXT
  5
33F6
330
33EC
100
AcDbEntity
  8
文字
100
AcDbText
 10
6.490058369479129
 20
7.026092175619055
 30
0.0
 40
3.359999999999999
  1
APPR
 51
15.0
  7
OKANO
100
AcDbText
  0
TEXT
  5
33F7
330
33EC
100
AcDbEntity
  8
文字
100
AcDbText
 10
3.617104391058092
 20
26.041703328008
 30
0.0
 40
3.359999999999999
  1
FILM NAME
 51
15.0
  7
OKANO
100
AcDbText
  0
TEXT
  5
33F8
330
33EC
100
AcDbEntity
  8
文字
100
AcDbText
 10
5.412700819322935
 20
17.07207531680848
 30
0.0
 40
3.359999999999999
  1
DRAWN
 51
15.0
  7
OKANO
100
AcDbText
  0
ENDBLK
  5
33FA
330
33EC
100
AcDbEntity
  8
0
100
AcDbBlockEnd
  0
BLOCK
  5
3530
330
3526
100
AcDbEntity
  8
0
100
AcDbBlockBegin
  2
*D7
 70
     1
 10
0.0
 20
0.0
 30
0.0
  3
*D7
  1

  0
LINE
  5
3B0D
330
3526
100
AcDbEntity
  8
寸法線
 62
     0
370
    -2
100
AcDbLine
 10
75.32316938965391
 20
274.4878613786279
 30
0.0
 11
75.32316938965391
 21
231.9567548719557
 31
0.0
  0
LINE
  5
3B0E
330
3526
100
AcDbEntity
  8
寸法線
 62
     0
370
    -2
100
AcDbLine
 10
132.063760277555
 20
274.4878613786279
 30
0.0
 11
132.063760277555
 21
231.9567548719557
 31
0.0
  0
LINE
  5
3B0F
330
3526
100
AcDbEntity
  8
寸法線
 62
     0
370
    -2
100
AcDbLine
 10
78.32316938965391
 20
234.9567548719558
 30
0.0
 11
129.063760277555
 21
234.9567548719558
 31
0.0
  0
INSERT
  5
3B10
330
3526
100
AcDbEntity
  8
寸法線
 62
     0
370
    -2
100
AcDbBlockReference
  2
_Closed
 10
75.32316938965391
 20
234.9567548719558
 30
0.0
 41
3.0
 42
3.0
 43
3.0
 50
180.0
  0
INSERT
  5
3B11
330
3526
100
AcDbEntity
  8
寸法線
 62
     0
370
    -2
100
AcDbBlockReference
  2
_Closed
 10
132.063760277555
 20
234.9567548719558
 30
0.0
 41
3.0
 42
3.0
 43
3.0
  0
MTEXT
  5
3B12
330
3526
100
AcDbEntity
  8
寸法線
 62
     0
100
AcDbMText
 10
103.6934648336044
 20
238.4567548719558
 30
0.0
 40
5.0
 41
0.0
 71
     5
 72
     1
  1
57
  7
OKANO
 73
     1
 44
1.0
  0
POINT
  5
3B13
330
3526
100
AcDbEntity
  8
Defpoints
 62
     0
100
AcDbPoint
 10
75.32316938965391
 20
276.4878613786279
 30
0.0
  0
POINT
  5
3B14
330
3526
100
AcDbEntity
  8
Defpoints
 62
     0
100
AcDbPoint
 10
132.063760277555
 20
276.4878613786279
 30
0.0
  0
POINT
  5
3B15
330
3526
100
AcDbEntity
  8
Defpoints
 62
     0
100
AcDbPoint
 10
132.063760277555
 20
234.9567548719558
 30
0.0
  0
ENDBLK
  5
3531
330
3526
100
AcDbEntity
  8
0
100
AcDbBlockEnd
  0
BLOCK
  5
353C
330
3532
100
AcDbEntity
  8
0
100
AcDbBlockBegin
  2
*D8
 70
     1
 10
0.0
 20
0.0
 30
0.0
  3
*D8
  1

  0
LINE
  5
3547
330
3532
100
AcDbEntity
  8
寸法線
 62
     0
370
    -2
100
AcDbLine
 10
79.26770251704533
 20
282.1256230736526
 30
0.0
 11
79.26770251704533
 21
320.7158213150043
 31
0.0
  0
LINE
  5
3548
330
3532
100
AcDbEntity
  8
寸法線
 62
     0
370
    -2
100
AcDbLine
 10
127.8158017292794
 20
282.1256230736526
 30
0.0
 11
127.8158017292794
 21
320.7158213150043
 31
0.0
  0
LINE
  5
3549
330
3532
100
AcDbEntity
  8
寸法線
 62
     0
370
    -2
100
AcDbLine
 10
82.26770251704534
 20
317.7158213150042
 30
0.0
 11
124.8158017292794
 21
317.7158213150042
 31
0.0
  0
INSERT
  5
354A
330
3532
100
AcDbEntity
  8
寸法線
 62
     0
370
    -2
100
AcDbBlockReference
  2
_Closed
 10
79.26770251704533
 20
317.7158213150042
 30
0.0
 41
3.0
 42
3.0
 43
3.0
 50
180.0
  0
INSERT
  5
354B
330
3532
100
AcDbEntity
  8
寸法線
 62
     0
370
    -2
100
AcDbBlockReference
  2
_Closed
 10
127.8158017292794
 20
317.7158213150042
 30
0.0
 41
3.0
 42
3.0
 43
3.0
  0
MTEXT
  5
354C
330
3532
100
AcDbEntity
  8
寸法線
 62
     0
100
AcDbMText
 10
103.5417521231623
 20
321.2158213150043
 30
0.0
 40
5.0
 41
0.0
 71
     5
 72
     1
  1
49.3
  7
OKANO
 73
     1
 44
1.0
  0
POINT
  5
354D
330
3532
100
AcDbEntity
  8
Defpoints
 62
     0
100
AcDbPoint
 10
79.26770251704533
 20
280.1256230736526
 30
0.0
  0
POINT
  5
354E
330
3532
100
AcDbEntity
  8
Defpoints
 62
     0
100
AcDbPoint
 10
127.8158017292794
 20
280.1256230736526
 30
0.0
  0
POINT
  5
354F
330
3532
100
AcDbEntity
  8
Defpoints
 62
     0
100
AcDbPoint
 10
127.8158017292794
 20
317.7158213150042
 30
0.0
  0
ENDBLK
  5
353D
330
3532
100
AcDbEntity
  8
0
100
AcDbBlockEnd
  0
BLOCK
  5
35E3
330
35D9
100
AcDbEntity
  8
0
100
AcDbBlockBegin
  2
*D9
 70
     1
 10
0.0
 20
0.0
 30
0.0
  3
*D9
  1

  0
LINE
  5
3894
330
35D9
100
AcDbEntity
  8
寸法線
 62
     0
370
    -2
100
AcDbLine
 10
395.2386067323807
 20
268.8719555849785
 30
0.0
 11
395.2386067323807
 21
233.2319650112601
 31
0.0
  0
LINE
  5
3895
330
35D9
100
AcDbEntity
  8
寸法線
 62
     0
370
    -2
100
AcDbLine
 10
465.2386067323799
 20
268.8719555849778
 30
0.0
 11
465.2386067323799
 21
233.2319650112601
 31
0.0
  0
LINE
  5
3896
330
35D9
100
AcDbEntity
  8
寸法線
 62
     0
370
    -2
100
AcDbLine
 10
397.7386067323807
 20
234.4819650112601
 30
0.0
 11
462.7386067323799
 21
234.4819650112601
 31
0.0
  0
SOLID
  5
3897
330
35D9
100
AcDbEntity
  8
寸法線
 62
     0
100
AcDbTrace
 10
397.7386067323807
 20
234.8986316779268
 30
0.0
 11
397.7386067323807
 21
234.0652983445935
 31
0.0
 12
395.2386067323807
 22
234.4819650112601
 32
0.0
 13
395.2386067323807
 23
234.4819650112601
 33
0.0
  0
SOLID
  5
3898
330
35D9
100
AcDbEntity
  8
寸法線
 62
     0
100
AcDbTrace
 10
462.7386067323799
 20
234.8986316779268
 30
0.0
 11
462.7386067323799
 21
234.0652983445935
 31
0.0
 12
465.2386067323799
 22
234.4819650112601
 32
0.0
 13
465.2386067323799
 23
234.4819650112601
 33
0.0
  0
MTEXT
  5
3899
330
35D9
100
AcDbEntity
  8
寸法線
 62
     0
370
    25
100
AcDbMText
 10
430.2386067323803
 20
236.3569650112601
 30
0.0
 40
2.5
 41
0.0
 71
     5
 72
     1
  1
70
 73
     1
 44
1.0
  0
POINT
  5
389A
330
35D9
100
AcDbEntity
  8
Defpoints
 62
     0
100
AcDbPoint
 10
395.2386067323807
 20
269.4969555849785
 30
0.0
  0
POINT
  5
389B
330
35D9
100
AcDbEntity
  8
Defpoints
 62
     0
100
AcDbPoint
 10
465.2386067323799
 20
269.4969555849778
 30
0.0
  0
POINT
  5
389C
330
35D9
100
AcDbEntity
  8
Defpoints
 62
     0
100
AcDbPoint
 10
465.2386067323799
 20
234.4819650112601
 30
0.0
  0
ENDBLK
  5
35E4
330
35D9
100
AcDbEntity
  8
0
100
AcDbBlockEnd
  0
BLOCK
  5
35EE
330
35E5
100
AcDbEntity
  8
0
100
AcDbBlockBegin
  2
*D10
 70
     1
 10
0.0
 20
0.0
 30
0.0
  3
*D10
  1

  0
LINE
  5
38AB
330
35E5
100
AcDbEntity
  8
寸法線
 62
     0
370
    -2
100
AcDbLine
 10
436.678970695562
 20
307.569824418638
 30
0.0
 11
459.9880202764665
 21
276.4965157046554
 31
0.0
  0
LINE
  5
38AC
330
35E5
100
AcDbEntity
  8
寸法線
 62
     0
370
    -2
100
AcDbLine
 10
470.4891931882946
 20
262.4973954653014
 30
0.0
 11
472.2893942588937
 21
260.0975462814121
 31
0.0
  0
MTEXT
  5
38AD
330
35E5
100
AcDbEntity
  8
寸法線
 62
     0
100
AcDbMText
 10
442.0719006989953
 20
306.2131878143176
 30
0.0
 40
5.0
 41
0.0
 71
     5
 72
     1
  1
30
  7
OKANO
 11
0.6000670235330312
 21
-0.7999497279630818
 31
0.0
 73
     1
 44
1.0
  0
LINE
  5
38AE
330
35E5
100
AcDbEntity
  8
寸法線
 62
     0
370
    -2
100
AcDbLine
 10
468.6889921176955
 20
264.8972446491906
 30
0.0
 11
461.7882213470656
 21
274.0966665207662
 31
0.0
  0
INSERT
  5
38AF
330
35E5
100
AcDbEntity
  8
寸法線
 62
     0
370
    -2
100
AcDbBlockReference
  2
_Closed
 10
468.6889921176955
 20
264.8972446491906
 30
0.0
 41
3.0
 42
3.0
 43
3.0
 50
126.874698003632
  0
INSERT
  5
38B0
330
35E5
100
AcDbEntity
  8
寸法線
 62
     0
370
    -2
100
AcDbBlockReference
  2
_Closed
 10
461.7882213470656
 20
274.0966665207662
 30
0.0
 41
3.0
 42
3.0
 43
3.0
 50
306.8746980036319
  0
POINT
  5
38B1
330
35E5
100
AcDbEntity
  8
Defpoints
 62
     0
100
AcDbPoint
 10
461.7882213470656
 20
274.0966665207662
 30
0.0
  0
POINT
  5
38B2
330
35E5
100
AcDbEntity
  8
Defpoints
 62
     0
100
AcDbPoint
 10
468.6889921176955
 20
264.8972446491906
 30
0.0
  0
ENDBLK
  5
35EF
330
35E5
100
AcDbEntity
  8
0
100
AcDbBlockEnd
  0
BLOCK
  5
35F9
330
35F0
100
AcDbEntity
  8
0
100
AcDbBlockBegin
  2
*D11
 70
     1
 10
0.0
 20
0.0
 30
0.0
  3
*D11
  1

  0
LINE
  5
389D
330
35F0
100
AcDbEntity
  8
寸法線
 62
     0
370
    -2
100
AcDbLine
 10
416.1688541212823
 20
278.7127119581851
 30
0.0
 11
402.5602953219617
 21
272.7207539963553
 31
0.0
  0
LINE
  5
389E
330
35F0
100
AcDbEntity
  8
寸法線
 62
     0
370
    -2
100
AcDbLine
 10
387.916918142799
 20
266.2731571736014
 30
0.0
 11
385.6288904585549
 21
265.2657201700461
 31
0.0
  0
MTEXT
  5
389F
330
35F0
100
AcDbEntity
  8
寸法線
 62
     0
370
    25
100
AcDbMText
 10
412.5532417633108
 20
279.1694364669241
 30
0.0
 40
2.5
 41
0.0
 71
     5
 72
     1
  1
\U+220511
 11
0.915211073697651
 21
0.4029748014221145
 31
0.0
 73
     1
 44
1.0
  0
LINE
  5
38A0
330
35F0
100
AcDbEntity
  8
寸法線
 62
     0
370
    -2
100
AcDbLine
 10
390.2049458270432
 20
267.2805941771567
 30
0.0
 11
400.2722676377175
 21
271.7133169928001
 31
0.0
  0
SOLID
  5
38A1
330
35F0
100
AcDbEntity
  8
寸法線
 62
     0
100
AcDbTrace
 10
387.7490119755398
 20
266.6544951209755
 30
0.0
 11
388.0848243100583
 21
265.8918192262274
 31
0.0
 12
390.2049458270432
 22
267.2805941771567
 32
0.0
 13
390.2049458270432
 23
267.2805941771567
 33
0.0
  0
SOLID
  5
38A2
330
35F0
100
AcDbEntity
  8
寸法線
 62
     0
100
AcDbTrace
 10
402.3923891547025
 20
273.1020919437294
 30
0.0
 11
402.7282014892209
 21
272.3394160489813
 31
0.0
 12
400.2722676377175
 22
271.7133169928001
 32
0.0
 13
400.2722676377175
 23
271.7133169928001
 33
0.0
  0
POINT
  5
38A3
330
35F0
100
AcDbEntity
  8
Defpoints
 62
     0
100
AcDbPoint
 10
400.2722676377175
 20
271.7133169928001
 30
0.0
  0
POINT
  5
38A4
330
35F0
100
AcDbEntity
  8
Defpoints
 62
     0
100
AcDbPoint
 10
390.2049458270432
 20
267.2805941771567
 30
0.0
  0
ENDBLK
  5
35FA
330
35F0
100
AcDbEntity
  8
0
100
AcDbBlockEnd
  0
BLOCK
  5
3602
330
35FB
100
AcDbEntity
  8
0
100
AcDbBlockBegin
  2
*D12
 70
     1
 10
0.0
 20
0.0
 30
0.0
  3
*D12
  1

  0
LINE
  5
38A5
330
35FB
100
AcDbEntity
  8
寸法線
 62
     0
370
    -2
100
AcDbLine
 10
373.9916942680845
 20
278.7981907364875
 30
0.0
 11
383.1523631979996
 21
274.787935787424
 31
0.0
  0
MTEXT
  5
38A6
330
35FB
100
AcDbEntity
  8
寸法線
 62
     0
370
    25
100
AcDbMText
 10
378.1788679197521
 20
279.0119705549478
 30
0.0
 40
2.5
 41
0.0
 71
     5
 72
     1
  1
10.5
 11
0.9160668929915079
 21
-0.4010254949063528
 31
0.0
 73
     1
 44
1.0
  0
LINE
  5
38A7
330
35FB
100
AcDbEntity
  8
寸法線
 62
     0
370
    -2
100
AcDbLine
 10
395.2386067323804
 20
269.4969555849786
 30
0.0
 11
385.4425304304784
 21
273.7853720501581
 31
0.0
  0
SOLID
  5
38A8
330
35FB
100
AcDbEntity
  8
寸法線
 62
     0
100
AcDbTrace
 10
383.3194571542106
 20
275.1696303261705
 30
0.0
 11
382.9852692417887
 21
274.4062412486775
 31
0.0
 12
385.4425304304784
 22
273.7853720501581
 32
0.0
 13
385.4425304304784
 23
273.7853720501581
 33
0.0
  0
POINT
  5
38A9
330
35FB
100
AcDbEntity
  8
Defpoints
 62
     0
100
AcDbPoint
 10
385.4425304304784
 20
273.7853720501581
 30
0.0
  0
POINT
  5
38AA
330
35FB
100
AcDbEntity
  8
Defpoints
 62
     0
100
AcDbPoint
 10
395.2386067323804
 20
269.4969555849786
 30
0.0
  0
ENDBLK
  5
3603
330
35FB
100
AcDbEntity
  8
0
100
AcDbBlockEnd
  0
BLOCK
  5
360D
330
3604
100
AcDbEntity
  8
0
100
AcDbBlockBegin
  2
*D13
 70
     1
 10
0.0
 20
0.0
 30
0.0
  3
*D13
  1

  0
LINE
  5
388C
330
3604
100
AcDbEntity
  8
寸法線
 62
     0
370
    -2
100
AcDbLine
 10
478.4687927470856
 20
284.9373772910312
 30
0.0
 11
470.6065920416257
 21
275.7617168509589
 31
0.0
  0
LINE
  5
388D
330
3604
100
AcDbEntity
  8
寸法線
 62
     0
370
    -2
100
AcDbLine
 10
459.8706214231354
 20
263.232194318998
 30
0.0
 11
458.2439592082125
 21
261.3337818141554
 31
0.0
  0
MTEXT
  5
388E
330
3604
100
AcDbEntity
  8
寸法線
 62
     0
370
    25
100
AcDbMText
 10
473.9272141231851
 20
282.5187499846084
 30
0.0
 40
2.5
 41
0.0
 71
     5
 72
     1
  1
\U+220511.5
 11
0.6506648859691066
 21
0.7593650019370195
 31
0.0
 73
     1
 44
1.0
  0
LINE
  5
388F
330
3604
100
AcDbEntity
  8
寸法線
 62
     0
370
    -2
100
AcDbLine
 10
461.497283638058
 20
265.1306068238405
 30
0.0
 11
468.9799298267029
 21
273.8633043461163
 31
0.0
  0
SOLID
  5
3890
330
3604
100
AcDbEntity
  8
寸法線
 62
     0
100
AcDbTrace
 10
459.5542193389949
 20
263.5033046881517
 30
0.0
 11
460.1870235072758
 21
262.9610839498442
 31
0.0
 12
461.497283638058
 22
265.1306068238405
 32
0.0
 13
461.497283638058
 23
265.1306068238405
 33
0.0
  0
SOLID
  5
3891
330
3604
100
AcDbEntity
  8
寸法線
 62
     0
100
AcDbTrace
 10
470.2901899574852
 20
276.0328272201127
 30
0.0
 11
470.9229941257661
 21
275.4906064818051
 31
0.0
 12
468.9799298267029
 22
273.8633043461163
 32
0.0
 13
468.9799298267029
 23
273.8633043461163
 33
0.0
  0
POINT
  5
3892
330
3604
100
AcDbEntity
  8
Defpoints
 62
     0
100
AcDbPoint
 10
468.9799298267029
 20
273.8633043461163
 30
0.0
  0
POINT
  5
3893
330
3604
100
AcDbEntity
  8
Defpoints
 62
     0
100
AcDbPoint
 10
461.497283638058
 20
265.1306068238405
 30
0.0
  0
ENDBLK
  5
360E
330
3604
100
AcDbEntity
  8
0
100
AcDbBlockEnd
  0
BLOCK
  5
3755
330
374B
100
AcDbEntity
  8
0
100
AcDbBlockBegin
  2
*D14
 70
     1
 10
0.0
 20
0.0
 30
0.0
  3
*D14
  1

  0
LINE
  5
382B
330
374B
100
AcDbEntity
  8
寸法線
 62
     0
370
    -2
100
AcDbLine
 10
494.4615054859627
 20
33.13151618794245
 30
0.0
 11
494.4615054859627
 21
24.69578179862969
 31
0.0
  0
LINE
  5
382C
330
374B
100
AcDbEntity
  8
寸法線
 62
     0
370
    -2
100
AcDbLine
 10
467.2132669122738
 20
35.8464420347808
 30
0.0
 11
467.2132669122738
 21
24.69578179862969
 31
0.0
  0
LINE
  5
382D
330
374B
100
AcDbEntity
  8
寸法線
 62
     0
370
    -2
100
AcDbLine
 10
491.4615054859628
 20
27.69578179862969
 30
0.0
 11
470.2132669122739
 21
27.69578179862969
 31
0.0
  0
INSERT
  5
382E
330
374B
100
AcDbEntity
  8
寸法線
 62
     0
370
    -2
100
AcDbBlockReference
  2
_Closed
 10
494.4615054859627
 20
27.69578179862969
 30
0.0
 41
3.0
 42
3.0
 43
3.0
  0
INSERT
  5
382F
330
374B
100
AcDbEntity
  8
寸法線
 62
     0
370
    -2
100
AcDbBlockReference
  2
_Closed
 10
467.2132669122738
 20
27.69578179862969
 30
0.0
 41
3.0
 42
3.0
 43
3.0
 50
180.0
  0
MTEXT
  5
3830
330
374B
100
AcDbEntity
  8
寸法線
 62
     0
100
AcDbMText
 10
480.8373861991183
 20
31.19578179862969
 30
0.0
 40
5.0
 41
0.0
 71
     5
 72
     1
  1
30
  7
OKANO
 73
     1
 44
1.0
  0
POINT
  5
3831
330
374B
100
AcDbEntity
  8
Defpoints
 62
     0
100
AcDbPoint
 10
494.4615054859627
 20
35.13151618794245
 30
0.0
  0
POINT
  5
3832
330
374B
100
AcDbEntity
  8
Defpoints
 62
     0
100
AcDbPoint
 10
467.2132669122738
 20
37.8464420347808
 30
0.0
  0
POINT
  5
3833
330
374B
100
AcDbEntity
  8
Defpoints
 62
     0
100
AcDbPoint
 10
467.2132669122738
 20
27.69578179862969
 30
0.0
  0
ENDBLK
  5
3756
330
374B
100
AcDbEntity
  8
0
100
AcDbBlockEnd
  0
BLOCK
  5
3763
330
3757
100
AcDbEntity
  8
0
100
AcDbBlockBegin
  2
*D15
 70
     1
 10
0.0
 20
0.0
 30
0.0
  3
*D15
  1

  0
LINE
  5
3851
330
3757
100
AcDbEntity
  8
寸法線
 62
     0
370
    -2
100
AcDbLine
 10
394.572498420795
 20
35.13151618794245
 30
0.0
 11
385.6852436397685
 21
35.13151618794245
 31
0.0
  0
LINE
  5
3852
330
3757
100
AcDbEntity
  8
寸法線
 62
     0
370
    -2
100
AcDbLine
 10
394.9615054859627
 20
37.13151618794279
 30
0.0
 11
385.6852436397685
 21
37.13151618794279
 31
0.0
  0
LINE
  5
3853
330
3757
100
AcDbEntity
  8
寸法線
 62
     0
370
    -2
100
AcDbLine
 10
388.6852436397684
 20
32.13151618794245
 30
0.0
 11
388.6852436397684
 21
29.13151618794245
 31
0.0
  0
LINE
  5
3854
330
3757
100
AcDbEntity
  8
寸法線
 62
     0
370
    -2
100
AcDbLine
 10
388.6852436397684
 20
40.13151618794279
 30
0.0
 11
388.6852436397684
 21
48.29621133864382
 31
0.0
  0
LINE
  5
3855
330
3757
100
AcDbEntity
  8
寸法線
 62
     0
370
    -2
100
AcDbLine
 10
388.6852436397684
 20
35.13151618794245
 30
0.0
 11
388.6852436397684
 21
37.13151618794279
 31
0.0
  0
INSERT
  5
3856
330
3757
100
AcDbEntity
  8
寸法線
 62
     0
370
    -2
100
AcDbBlockReference
  2
_Closed
 10
388.6852436397684
 20
35.13151618794245
 30
0.0
 41
3.0
 42
3.0
 43
3.0
 50
90.0
  0
INSERT
  5
3857
330
3757
100
AcDbEntity
  8
寸法線
 62
     0
370
    -2
100
AcDbBlockReference
  2
_Closed
 10
388.6852436397684
 20
37.13151618794279
 30
0.0
 41
3.0
 42
3.0
 43
3.0
 50
270.0
  0
MTEXT
  5
3858
330
3757
100
AcDbEntity
  8
寸法線
 62
     0
100
AcDbMText
 10
385.1847515137842
 20
45.71386376329336
 30
0.0
 40
5.0
 41
0.0
 71
     5
 72
     1
  1
2
  7
OKANO
 11
0.0000000000000001
 21
1.0
 31
0.0
 73
     1
 44
1.0
  0
POINT
  5
3859
330
3757
100
AcDbEntity
  8
Defpoints
 62
     0
100
AcDbPoint
 10
396.572498420795
 20
35.13151618794245
 30
0.0
  0
POINT
  5
385A
330
3757
100
AcDbEntity
  8
Defpoints
 62
     0
100
AcDbPoint
 10
396.9615054859628
 20
37.13151618794279
 30
0.0
  0
POINT
  5
385B
330
3757
100
AcDbEntity
  8
Defpoints
 62
     0
100
AcDbPoint
 10
388.6852436397684
 20
37.13151618794279
 30
0.0
  0
ENDBLK
  5
3764
330
3757
100
AcDbEntity
  8
0
100
AcDbBlockEnd
  0
BLOCK
  5
376F
330
3765
100
AcDbEntity
  8
0
100
AcDbBlockBegin
  2
*D16
 70
     1
 10
0.0
 20
0.0
 30
0.0
  3
*D16
  1

  0
LINE
  5
383F
330
3765
100
AcDbEntity
  8
寸法線
 62
     0
370
    -2
100
AcDbLine
 10
467.2132669122738
 20
35.8464420347808
 30
0.0
 11
467.2132669122738
 21
24.69578179862969
 31
0.0
  0
LINE
  5
3840
330
3765
100
AcDbEntity
  8
寸法線
 62
     0
370
    -2
100
AcDbLine
 10
407.133004780931
 20
28.210427066595
 30
0.0
 11
407.133004780931
 21
24.69578179862969
 31
0.0
  0
LINE
  5
3841
330
3765
100
AcDbEntity
  8
寸法線
 62
     0
370
    -2
100
AcDbLine
 10
464.2132669122738
 20
27.69578179862969
 30
0.0
 11
410.1330047809311
 21
27.69578179862969
 31
0.0
  0
INSERT
  5
3842
330
3765
100
AcDbEntity
  8
寸法線
 62
     0
370
    -2
100
AcDbBlockReference
  2
_Closed
 10
467.2132669122738
 20
27.69578179862969
 30
0.0
 41
3.0
 42
3.0
 43
3.0
  0
INSERT
  5
3843
330
3765
100
AcDbEntity
  8
寸法線
 62
     0
370
    -2
100
AcDbBlockReference
  2
_Closed
 10
407.133004780931
 20
27.69578179862969
 30
0.0
 41
3.0
 42
3.0
 43
3.0
 50
180.0
  0
MTEXT
  5
3844
330
3765
100
AcDbEntity
  8
寸法線
 62
     0
100
AcDbMText
 10
437.1731358466024
 20
31.19578179862969
 30
0.0
 40
5.0
 41
0.0
 71
     5
 72
     1
  1
70
  7
OKANO
 73
     1
 44
1.0
  0
POINT
  5
3845
330
3765
100
AcDbEntity
  8
Defpoints
 62
     0
100
AcDbPoint
 10
467.2132669122738
 20
37.8464420347808
 30
0.0
  0
POINT
  5
3846
330
3765
100
AcDbEntity
  8
Defpoints
 62
     0
100
AcDbPoint
 10
407.133004780931
 20
30.210427066595
 30
0.0
  0
POINT
  5
3847
330
3765
100
AcDbEntity
  8
Defpoints
 62
     0
100
AcDbPoint
 10
407.133004780931
 20
27.69578179862969
 30
0.0
  0
ENDBLK
  5
3770
330
3765
100
AcDbEntity
  8
0
100
AcDbBlockEnd
  0
BLOCK
  5
377D
330
3771
100
AcDbEntity
  8
0
100
AcDbBlockBegin
  2
*D17
 70
     1
 10
0.0
 20
0.0
 30
0.0
  3
*D17
  1

  0
LINE
  5
3834
330
3771
100
AcDbEntity
  8
寸法線
 62
     0
370
    -2
100
AcDbLine
 10
407.133004780931
 20
28.210427066595
 30
0.0
 11
407.133004780931
 21
24.69578179862969
 31
0.0
  0
LINE
  5
3835
330
3771
100
AcDbEntity
  8
寸法線
 62
     0
370
    -2
100
AcDbLine
 10
397.0664000408319
 20
28.56966267185703
 30
0.0
 11
397.0664000408319
 21
24.69578179862969
 31
0.0
  0
LINE
  5
3836
330
3771
100
AcDbEntity
  8
寸法線
 62
     0
370
    -2
100
AcDbLine
 10
404.133004780931
 20
27.69578179862969
 30
0.0
 11
400.0664000408319
 21
27.69578179862969
 31
0.0
  0
LINE
  5
3837
330
3771
100
AcDbEntity
  8
寸法線
 62
     0
370
    -2
100
AcDbLine
 10
402.0997024108814
 20
27.69578179862969
 30
0.0
 11
405.6997024108815
 21
15.69578179862969
 31
0.0
  0
LINE
  5
3838
330
3771
100
AcDbEntity
  8
寸法線
 62
     0
370
    -2
100
AcDbLine
 10
405.6997024108815
 20
15.69578179862969
 30
0.0
 11
417.2176516033125
 21
15.69578179862969
 31
0.0
  0
MTEXT
  5
3839
330
3771
100
AcDbEntity
  8
寸法線
 62
     0
100
AcDbMText
 10
411.458677007097
 20
19.19578179862969
 30
0.0
 40
5.0
 41
0.0
 71
     5
 72
     1
  1
10.5
  7
OKANO
 73
     1
 44
1.0
  0
INSERT
  5
383A
330
3771
100
AcDbEntity
  8
寸法線
 62
     0
370
    -2
100
AcDbBlockReference
  2
_Closed
 10
407.133004780931
 20
27.69578179862969
 30
0.0
 41
3.0
 42
3.0
 43
3.0
  0
INSERT
  5
383B
330
3771
100
AcDbEntity
  8
寸法線
 62
     0
370
    -2
100
AcDbBlockReference
  2
_Closed
 10
397.0664000408319
 20
27.69578179862969
 30
0.0
 41
3.0
 42
3.0
 43
3.0
 50
180.0
  0
POINT
  5
383C
330
3771
100
AcDbEntity
  8
Defpoints
 62
     0
100
AcDbPoint
 10
407.133004780931
 20
30.210427066595
 30
0.0
  0
POINT
  5
383D
330
3771
100
AcDbEntity
  8
Defpoints
 62
     0
100
AcDbPoint
 10
397.0664000408319
 20
30.56966267185703
 30
0.0
  0
POINT
  5
383E
330
3771
100
AcDbEntity
  8
Defpoints
 62
     0
100
AcDbPoint
 10
397.0664000408319
 20
27.69578179862969
 30
0.0
  0
ENDBLK
  5
377E
330
3771
100
AcDbEntity
  8
0
100
AcDbBlockEnd
  0
BLOCK
  5
3789
330
377F
100
AcDbEntity
  8
0
100
AcDbBlockBegin
  2
*D18
 70
     1
 10
0.0
 20
0.0
 30
0.0
  3
*D18
  1

  0
LINE
  5
3848
330
377F
100
AcDbEntity
  8
寸法線
 62
     0
370
    -2
100
AcDbLine
 10
402.0695813755055
 20
40.57606569887684
 30
0.0
 11
402.0695813755055
 21
52.00914267911094
 31
0.0
  0
LINE
  5
3849
330
377F
100
AcDbEntity
  8
寸法線
 62
     0
370
    -2
100
AcDbLine
 10
413.2038617592006
 20
41.271603458649
 30
0.0
 11
413.2038617592006
 21
52.00914267911094
 31
0.0
  0
LINE
  5
384A
330
377F
100
AcDbEntity
  8
寸法線
 62
     0
370
    -2
100
AcDbLine
 10
405.0695813755055
 20
49.00914267911094
 30
0.0
 11
410.2038617592006
 21
49.00914267911094
 31
0.0
  0
INSERT
  5
384B
330
377F
100
AcDbEntity
  8
寸法線
 62
     0
370
    -2
100
AcDbBlockReference
  2
_Closed
 10
402.0695813755055
 20
49.00914267911094
 30
0.0
 41
3.0
 42
3.0
 43
3.0
 50
180.0
  0
INSERT
  5
384C
330
377F
100
AcDbEntity
  8
寸法線
 62
     0
370
    -2
100
AcDbBlockReference
  2
_Closed
 10
413.2038617592006
 20
49.00914267911094
 30
0.0
 41
3.0
 42
3.0
 43
3.0
  0
MTEXT
  5
384D
330
377F
100
AcDbEntity
  8
寸法線
 62
     0
100
AcDbMText
 10
407.636721567353
 20
52.50914267911094
 30
0.0
 40
5.0
 41
0.0
 71
     5
 72
     1
  1
11
  7
OKANO
 73
     1
 44
1.0
  0
POINT
  5
384E
330
377F
100
AcDbEntity
  8
Defpoints
 62
     0
100
AcDbPoint
 10
402.0695813755055
 20
38.57606569887684
 30
0.0
  0
POINT
  5
384F
330
377F
100
AcDbEntity
  8
Defpoints
 62
     0
100
AcDbPoint
 10
413.2038617592006
 20
39.271603458649
 30
0.0
  0
POINT
  5
3850
330
377F
100
AcDbEntity
  8
Defpoints
 62
     0
100
AcDbPoint
 10
413.2038617592006
 20
49.00914267911094
 30
0.0
  0
ENDBLK
  5
378A
330
377F
100
AcDbEntity
  8
0
100
AcDbBlockEnd
  0
BLOCK
  5
3795
330
378B
100
AcDbEntity
  8
0
100
AcDbBlockBegin
  2
*D19
 70
     1
 10
0.0
 20
0.0
 30
0.0
  3
*D19
  1

  0
LINE
  5
3883
330
378B
100
AcDbEntity
  8
寸法線
 62
     0
370
    -2
100
AcDbLine
 10
492.4073386403883
 20
34.79676402737664
 30
0.0
 11
490.1013053689162
 21
34.79676402737664
 31
0.0
  0
LINE
  5
3884
330
378B
100
AcDbEntity
  8
寸法線
 62
     0
370
    -2
100
AcDbLine
 10
473.9073386403884
 20
117.1715397589376
 30
0.0
 11
496.1013053689161
 21
117.1715397589376
 31
0.0
  0
LINE
  5
3885
330
378B
100
AcDbEntity
  8
寸法線
 62
     0
370
    -2
100
AcDbLine
 10
493.1013053689162
 20
37.79676402737663
 30
0.0
 11
493.1013053689162
 21
114.1715397589376
 31
0.0
  0
INSERT
  5
3886
330
378B
100
AcDbEntity
  8
寸法線
 62
     0
370
    -2
100
AcDbBlockReference
  2
_Closed
 10
493.1013053689162
 20
34.79676402737664
 30
0.0
 41
3.0
 42
3.0
 43
3.0
 50
270.0
  0
INSERT
  5
3887
330
378B
100
AcDbEntity
  8
寸法線
 62
     0
370
    -2
100
AcDbBlockReference
  2
_Closed
 10
493.1013053689162
 20
117.1715397589376
 30
0.0
 41
3.0
 42
3.0
 43
3.0
 50
90.0
  0
MTEXT
  5
3888
330
378B
100
AcDbEntity
  8
寸法線
 62
     0
100
AcDbMText
 10
489.6013053689162
 20
75.98415189315723
 30
0.0
 40
5.0
 41
0.0
 71
     5
 72
     1
  1
85
  7
OKANO
 11
0.0000000000000001
 21
1.0
 31
0.0
 73
     1
 44
1.0
  0
POINT
  5
3889
330
378B
100
AcDbEntity
  8
Defpoints
 62
     0
100
AcDbPoint
 10
494.4073386403884
 20
34.79676402737664
 30
0.0
  0
POINT
  5
388A
330
378B
100
AcDbEntity
  8
Defpoints
 62
     0
100
AcDbPoint
 10
471.9073386403883
 20
117.1715397589376
 30
0.0
  0
POINT
  5
388B
330
378B
100
AcDbEntity
  8
Defpoints
 62
     0
100
AcDbPoint
 10
493.1013053689162
 20
117.1715397589376
 30
0.0
  0
ENDBLK
  5
3796
330
378B
100
AcDbEntity
  8
0
100
AcDbBlockEnd
  0
BLOCK
  5
38D2
330
38C8
100
AcDbEntity
  8
0
100
AcDbBlockBegin
  2
*D20
 70
     1
 10
0.0
 20
0.0
 30
0.0
  3
*D20
  1

  0
LINE
  5
3914
330
38C8
100
AcDbEntity
  8
寸法線
 62
     0
370
    -2
100
AcDbLine
 10
263.4894825611338
 20
27.94157639853642
 30
0.0
 11
263.4894825611338
 21
12.4157602164521
 31
0.0
  0
LINE
  5
3915
330
38C8
100
AcDbEntity
  8
寸法線
 62
     0
370
    -2
100
AcDbLine
 10
318.4787695335483
 20
27.94157639853642
 30
0.0
 11
318.4787695335483
 21
12.4157602164521
 31
0.0
  0
LINE
  5
3916
330
38C8
100
AcDbEntity
  8
寸法線
 62
     0
370
    -2
100
AcDbLine
 10
266.4894825611338
 20
15.4157602164521
 30
0.0
 11
315.4787695335483
 21
15.4157602164521
 31
0.0
  0
INSERT
  5
3917
330
38C8
100
AcDbEntity
  8
寸法線
 62
     0
370
    -2
100
AcDbBlockReference
  2
_Closed
 10
263.4894825611338
 20
15.4157602164521
 30
0.0
 41
3.0
 42
3.0
 43
3.0
 50
180.0
  0
INSERT
  5
3918
330
38C8
100
AcDbEntity
  8
寸法線
 62
     0
370
    -2
100
AcDbBlockReference
  2
_Closed
 10
318.4787695335483
 20
15.4157602164521
 30
0.0
 41
3.0
 42
3.0
 43
3.0
  0
MTEXT
  5
3919
330
38C8
100
AcDbEntity
  8
寸法線
 62
     0
100
AcDbMText
 10
290.984126047341
 20
18.91576021645209
 30
0.0
 40
5.0
 41
0.0
 71
     5
 72
     1
  1
60
  7
OKANO
 73
     1
 44
1.0
  0
POINT
  5
391A
330
38C8
100
AcDbEntity
  8
Defpoints
 62
     0
100
AcDbPoint
 10
263.4894825611338
 20
29.94157639853643
 30
0.0
  0
POINT
  5
391B
330
38C8
100
AcDbEntity
  8
Defpoints
 62
     0
100
AcDbPoint
 10
318.4787695335483
 20
29.94157639853643
 30
0.0
  0
POINT
  5
391C
330
38C8
100
AcDbEntity
  8
Defpoints
 62
     0
100
AcDbPoint
 10
318.4787695335483
 20
15.4157602164521
 30
0.0
  0
ENDBLK
  5
38D3
330
38C8
100
AcDbEntity
  8
0
100
AcDbBlockEnd
  0
BLOCK
  5
3AAB
330
3AA1
100
AcDbEntity
  8
0
100
AcDbBlockBegin
  2
*D21
 70
     1
 10
0.0
 20
0.0
 30
0.0
  3
*D21
  1

  0
LINE
  5
3ACB
330
3AA1
100
AcDbEntity
  8
寸法線
 62
     0
370
    -2
100
AcDbLine
 10
77.59384861646799
 20
90.95379411950773
 30
0.0
 11
97.51028958599979
 21
90.95379411950771
 31
0.0
  0
LINE
  5
3ACC
330
3AA1
100
AcDbEntity
  8
寸法線
 62
     0
370
    -2
100
AcDbLine
 10
77.59384861646799
 20
30.53745616355797
 30
0.0
 11
97.51028958599977
 21
30.53745616355797
 31
0.0
  0
LINE
  5
3ACD
330
3AA1
100
AcDbEntity
  8
寸法線
 62
     0
370
    -2
100
AcDbLine
 10
94.51028958599978
 20
87.95379411950774
 30
0.0
 11
94.51028958599978
 21
33.53745616355797
 31
0.0
  0
INSERT
  5
3ACE
330
3AA1
100
AcDbEntity
  8
寸法線
 62
     0
370
    -2
100
AcDbBlockReference
  2
_Closed
 10
94.51028958599978
 20
90.95379411950773
 30
0.0
 41
3.0
 42
3.0
 43
3.0
 50
90.0
  0
INSERT
  5
3ACF
330
3AA1
100
AcDbEntity
  8
寸法線
 62
     0
370
    -2
100
AcDbBlockReference
  2
_Closed
 10
94.51028958599977
 20
30.53745616355797
 30
0.0
 41
3.0
 42
3.0
 43
3.0
 50
270.0
  0
MTEXT
  5
3AD0
330
3AA1
100
AcDbEntity
  8
寸法線
 62
     0
100
AcDbMText
 10
91.01028958599977
 20
60.74562514153286
 30
0.0
 40
5.0
 41
0.0
 71
     5
 72
     1
  1
85
  7
OKANO
 11
0.0000000000000001
 21
1.0
 31
0.0
 73
     1
 44
1.0
  0
POINT
  5
3AD1
330
3AA1
100
AcDbEntity
  8
Defpoints
 62
     0
100
AcDbPoint
 10
75.59384861646799
 20
90.95379411950773
 30
0.0
  0
POINT
  5
3AD2
330
3AA1
100
AcDbEntity
  8
Defpoints
 62
     0
100
AcDbPoint
 10
75.59384861646799
 20
30.53745616355797
 30
0.0
  0
POINT
  5
3AD3
330
3AA1
100
AcDbEntity
  8
Defpoints
 62
     0
100
AcDbPoint
 10
94.51028958599977
 20
30.53745616355797
 30
0.0
  0
ENDBLK
  5
3AAC
330
3AA1
100
AcDbEntity
  8
0
100
AcDbBlockEnd
  0
BLOCK
  5
3AB7
330
3AAD
100
AcDbEntity
  8
0
100
AcDbBlockBegin
  2
*D22
 70
     1
 10
0.0
 20
0.0
 30
0.0
  3
*D22
  1

  0
LINE
  5
3B24
330
3AAD
100
AcDbEntity
  8
寸法線
 62
     0
370
    -2
100
AcDbLine
 10
188.06993607933
 20
108.8462872724517
 30
0.0
 11
215.6534706541299
 21
108.8462872724517
 31
0.0
  0
LINE
  5
3B25
330
3AAD
100
AcDbEntity
  8
寸法線
 62
     0
370
    -2
100
AcDbLine
 10
188.06993607933
 20
-2.611440647178938
 30
0.0
 11
215.6534706541299
 21
-2.611440647178946
 31
0.0
  0
LINE
  5
3B26
330
3AAD
100
AcDbEntity
  8
寸法線
 62
     0
370
    -2
100
AcDbLine
 10
212.6534706541299
 20
105.8462872724517
 30
0.0
 11
212.6534706541299
 21
0.3885593528210543
 31
0.0
  0
INSERT
  5
3B27
330
3AAD
100
AcDbEntity
  8
寸法線
 62
     0
370
    -2
100
AcDbBlockReference
  2
_Closed
 10
212.6534706541299
 20
108.8462872724517
 30
0.0
 41
3.0
 42
3.0
 43
3.0
 50
90.0
  0
INSERT
  5
3B28
330
3AAD
100
AcDbEntity
  8
寸法線
 62
     0
370
    -2
100
AcDbBlockReference
  2
_Closed
 10
212.6534706541299
 20
-2.611440647178945
 30
0.0
 41
3.0
 42
3.0
 43
3.0
 50
270.0
  0
MTEXT
  5
3B29
330
3AAD
100
AcDbEntity
  8
寸法線
 62
     0
100
AcDbMText
 10
209.1534706541299
 20
53.11742331263642
 30
0.0
 40
5.0
 41
0.0
 71
     5
 72
     1
  1
135
  7
OKANO
 11
0.0000000000000001
 21
1.0
 31
0.0
 73
     1
 44
1.0
  0
POINT
  5
3B2A
330
3AAD
100
AcDbEntity
  8
Defpoints
 62
     0
100
AcDbPoint
 10
186.06993607933
 20
108.8462872724517
 30
0.0
  0
POINT
  5
3B2B
330
3AAD
100
AcDbEntity
  8
Defpoints
 62
     0
100
AcDbPoint
 10
186.06993607933
 20
-2.611440647178937
 30
0.0
  0
POINT
  5
3B2C
330
3AAD
100
AcDbEntity
  8
Defpoints
 62
     0
100
AcDbPoint
 10
212.6534706541299
 20
-2.611440647178945
 30
0.0
  0
ENDBLK
  5
3AB8
330
3AAD
100
AcDbEntity
  8
0
100
AcDbBlockEnd
  0
BLOCK
  5
3AF0
330
3AE6
100
AcDbEntity
  8
0
100
AcDbBlockBegin
  2
*D23
 70
     1
 10
0.0
 20
0.0
 30
0.0
  3
*D23
  1

  0
LINE
  5
3AF2
330
3AE6
100
AcDbEntity
  8
寸法線
 62
     0
370
    -2
100
AcDbLine
 10
306.7502993761231
 20
143.4092768469882
 30
0.0
 11
306.7502993761231
 21
125.7976929665554
 31
0.0
  0
LINE
  5
3AF3
330
3AE6
100
AcDbEntity
  8
寸法線
 62
     0
370
    -2
100
AcDbLine
 10
368.9126969935077
 20
142.6870333623638
 30
0.0
 11
368.9126969935077
 21
125.7976929665554
 31
0.0
  0
LINE
  5
3AF4
330
3AE6
100
AcDbEntity
  8
寸法線
 62
     0
370
    -2
100
AcDbLine
 10
309.7502993761231
 20
128.7976929665554
 30
0.0
 11
365.9126969935077
 21
128.7976929665554
 31
0.0
  0
INSERT
  5
3AF5
330
3AE6
100
AcDbEntity
  8
寸法線
 62
     0
370
    -2
100
AcDbBlockReference
  2
_Closed
 10
306.7502993761231
 20
128.7976929665554
 30
0.0
 41
3.0
 42
3.0
 43
3.0
 50
180.0
  0
INSERT
  5
3AF6
330
3AE6
100
AcDbEntity
  8
寸法線
 62
     0
370
    -2
100
AcDbBlockReference
  2
_Closed
 10
368.9126969935077
 20
128.7976929665554
 30
0.0
 41
3.0
 42
3.0
 43
3.0
  0
MTEXT
  5
3AF7
330
3AE6
100
AcDbEntity
  8
寸法線
 62
     0
100
AcDbMText
 10
337.8314981848154
 20
132.2976929665554
 30
0.0
 40
5.0
 41
0.0
 71
     5
 72
     1
  1
50
  7
OKANO
 73
     1
 44
1.0
  0
POINT
  5
3AF8
330
3AE6
100
AcDbEntity
  8
Defpoints
 62
     0
100
AcDbPoint
 10
306.7502993761231
 20
145.4092768469883
 30
0.0
  0
POINT
  5
3AF9
330
3AE6
100
AcDbEntity
  8
Defpoints
 62
     0
100
AcDbPoint
 10
368.9126969935077
 20
144.6870333623638
 30
0.0
  0
POINT
  5
3AFA
330
3AE6
100
AcDbEntity
  8
Defpoints
 62
     0
100
AcDbPoint
 10
368.9126969935077
 20
128.7976929665554
 30
0.0
  0
ENDBLK
  5
3AF1
330
3AE6
100
AcDbEntity
  8
0
100
AcDbBlockEnd
  0
BLOCK
  5
3B4C
330
3B42
100
AcDbEntity
  8
0
100
AcDbBlockBegin
  2
*D24
 70
     1
 10
0.0
 20
0.0
 30
0.0
  3
*D24
  1

  0
LINE
  5
3B4E
330
3B42
100
AcDbEntity
  8
寸法線
 62
     0
370
    -2
100
AcDbLine
 10
261.3795387012607
 20
29.71163252420842
 30
0.0
 11
252.0170941426085
 21
29.71163252420842
 31
0.0
  0
LINE
  5
3B4F
330
3B42
100
AcDbEntity
  8
寸法線
 62
     0
370
    -2
100
AcDbLine
 10
280.8693162708546
 20
61.53265748836327
 30
0.0
 11
252.0170941426085
 21
61.53265748836328
 31
0.0
  0
LINE
  5
3B50
330
3B42
100
AcDbEntity
  8
寸法線
 62
     0
370
    -2
100
AcDbLine
 10
255.0170941426086
 20
32.71163252420842
 30
0.0
 11
255.0170941426086
 21
58.53265748836328
 31
0.0
  0
INSERT
  5
3B51
330
3B42
100
AcDbEntity
  8
寸法線
 62
     0
370
    -2
100
AcDbBlockReference
  2
_Closed
 10
255.0170941426086
 20
29.71163252420842
 30
0.0
 41
3.0
 42
3.0
 43
3.0
 50
270.0
  0
INSERT
  5
3B52
330
3B42
100
AcDbEntity
  8
寸法線
 62
     0
370
    -2
100
AcDbBlockReference
  2
_Closed
 10
255.0170941426086
 20
61.53265748836328
 30
0.0
 41
3.0
 42
3.0
 43
3.0
 50
90.0
  0
MTEXT
  5
3B53
330
3B42
100
AcDbEntity
  8
寸法線
 62
     0
100
AcDbMText
 10
251.5170941426085
 20
45.62214500628589
 30
0.0
 40
5.0
 41
0.0
 71
     5
 72
     1
  1
40
  7
OKANO
 11
0.0000000000000001
 21
1.0
 31
0.0
 73
     1
 44
1.0
  0
POINT
  5
3B54
330
3B42
100
AcDbEntity
  8
Defpoints
 62
     0
100
AcDbPoint
 10
263.3795387012607
 20
29.71163252420842
 30
0.0
  0
POINT
  5
3B55
330
3B42
100
AcDbEntity
  8
Defpoints
 62
     0
100
AcDbPoint
 10
282.8693162708546
 20
61.53265748836327
 30
0.0
  0
POINT
  5
3B56
330
3B42
100
AcDbEntity
  8
Defpoints
 62
     0
100
AcDbPoint
 10
255.0170941426086
 20
61.53265748836328
 30
0.0
  0
ENDBLK
  5
3B4D
330
3B42
100
AcDbEntity
  8
0
100
AcDbBlockEnd
  0
BLOCK
  5
3B91
330
3B88
100
AcDbEntity
  8
0
100
AcDbBlockBegin
  2
*D25
 70
     1
 10
0.0
 20
0.0
 30
0.0
  3
*D25
  1

  0
LINE
  5
3BA9
330
3B88
100
AcDbEntity
  8
寸法線
 62
     0
370
    -2
100
AcDbLine
 10
311.1072602417344
 20
284.0504865437899
 30
0.0
 11
303.2450595362744
 21
274.8748261037174
 31
0.0
  0
LINE
  5
3BAA
330
3B88
100
AcDbEntity
  8
寸法線
 62
     0
370
    -2
100
AcDbLine
 10
292.5090889177843
 20
262.3453035717566
 30
0.0
 11
290.8824267028616
 21
260.4468910669141
 31
0.0
  0
MTEXT
  5
3BAB
330
3B88
100
AcDbEntity
  8
寸法線
 62
     0
370
    25
100
AcDbMText
 10
306.5656816178338
 20
281.631859237367
 30
0.0
 40
2.5
 41
0.0
 71
     5
 72
     1
  1
\U+220511.5
 11
0.6506648859691003
 21
0.7593650019370252
 31
0.0
 73
     1
 44
1.0
  0
LINE
  5
3BAC
330
3B88
100
AcDbEntity
  8
寸法線
 62
     0
370
    -2
100
AcDbLine
 10
294.1357511327071
 20
264.2437160765992
 30
0.0
 11
301.6183973213517
 21
272.9764135988749
 31
0.0
  0
SOLID
  5
3BAD
330
3B88
100
AcDbEntity
  8
寸法線
 62
     0
100
AcDbTrace
 10
292.1926868336439
 20
262.6164139409104
 30
0.0
 11
292.8254910019247
 21
262.0741932026029
 31
0.0
 12
294.1357511327071
 22
264.2437160765992
 32
0.0
 13
294.1357511327071
 23
264.2437160765992
 33
0.0
  0
SOLID
  5
3BAE
330
3B88
100
AcDbEntity
  8
寸法線
 62
     0
100
AcDbTrace
 10
302.928657452134
 20
275.1459364728713
 30
0.0
 11
303.5614616204148
 21
274.6037157345637
 31
0.0
 12
301.6183973213517
 22
272.9764135988749
 32
0.0
 13
301.6183973213517
 23
272.9764135988749
 33
0.0
  0
POINT
  5
3BAF
330
3B88
100
AcDbEntity
  8
Defpoints
 62
     0
100
AcDbPoint
 10
301.6183973213517
 20
272.9764135988749
 30
0.0
  0
POINT
  5
3BB0
330
3B88
100
AcDbEntity
  8
Defpoints
 62
     0
100
AcDbPoint
 10
294.1357511327071
 20
264.2437160765992
 30
0.0
  0
ENDBLK
  5
3B92
330
3B88
100
AcDbEntity
  8
0
100
AcDbBlockEnd
  0
BLOCK
  5
3B9C
330
3B93
100
AcDbEntity
  8
0
100
AcDbBlockBegin
  2
*D26
 70
     1
 10
0.0
 20
0.0
 30
0.0
  3
*D26
  1

  0
LINE
  5
3BB1
330
3B93
100
AcDbEntity
  8
寸法線
 62
     0
370
    -2
100
AcDbLine
 10
342.3937728525501
 20
283.8396631095314
 30
0.0
 11
321.5311410805544
 21
276.7023526038121
 31
0.0
  0
LINE
  5
3BB2
330
3B93
100
AcDbEntity
  8
寸法線
 62
     0
370
    -2
100
AcDbLine
 10
274.2230073735042
 20
260.5177770716618
 30
0.0
 11
271.8576006881517
 21
259.7085482950544
 31
0.0
  0
MTEXT
  5
3BB3
330
3B93
100
AcDbEntity
  8
寸法線
 62
     0
370
    25
100
AcDbMText
 10
338.0416240182864
 20
284.3324392272506
 30
0.0
 40
2.5
 41
0.0
 71
     5
 72
     1
  1
\U+220545
 11
0.9461626741410007
 21
0.3236915106430043
 31
0.0
 73
     1
 44
1.0
  0
LINE
  5
3BB4
330
3B93
100
AcDbEntity
  8
寸法線
 62
     0
370
    -2
100
AcDbLine
 10
276.5884140588567
 20
261.3270058482694
 30
0.0
 11
319.1657343952019
 21
275.8931238272046
 31
0.0
  0
SOLID
  5
3BB5
330
3B93
100
AcDbEntity
  8
寸法線
 62
     0
100
AcDbTrace
 10
274.0881359107362
 20
260.9120115192206
 30
0.0
 11
274.3578788362721
 21
260.1235426241031
 31
0.0
 12
276.5884140588567
 22
261.3270058482694
 32
0.0
 13
276.5884140588567
 23
261.3270058482694
 33
0.0
  0
SOLID
  5
3BB6
330
3B93
100
AcDbEntity
  8
寸法線
 62
     0
100
AcDbTrace
 10
321.3962696177865
 20
277.0965870513709
 30
0.0
 11
321.6660125433223
 21
276.3081181562534
 31
0.0
 12
319.1657343952019
 22
275.8931238272046
 32
0.0
 13
319.1657343952019
 23
275.8931238272046
 33
0.0
  0
POINT
  5
3BB7
330
3B93
100
AcDbEntity
  8
Defpoints
 62
     0
100
AcDbPoint
 10
319.1657343952019
 20
275.8931238272046
 30
0.0
  0
POINT
  5
3BB8
330
3B93
100
AcDbEntity
  8
Defpoints
 62
     0
100
AcDbPoint
 10
276.5884140588567
 20
261.3270058482694
 30
0.0
  0
ENDBLK
  5
3B9D
330
3B93
100
AcDbEntity
  8
0
100
AcDbBlockEnd
  0
BLOCK
  5
3BA7
330
3B9E
100
AcDbEntity
  8
0
100
AcDbBlockBegin
  2
*D27
 70
     1
 10
0.0
 20
0.0
 30
0.0
  3
*D27
  1

  0
LINE
  5
3BB9
330
3B9E
100
AcDbEntity
  8
寸法線
 62
     0
370
    -2
100
AcDbLine
 10
345.1342543299363
 20
256.8738930834841
 30
0.0
 11
329.4189363401875
 21
260.7767427816414
 31
0.0
  0
LINE
  5
3BBA
330
3B9E
100
AcDbEntity
  8
寸法線
 62
     0
370
    -2
100
AcDbLine
 10
266.3352121138711
 20
276.4433868938329
 30
0.0
 11
263.9089150282435
 21
277.0459501289172
 31
0.0
  0
MTEXT
  5
3BBB
330
3B9E
100
AcDbEntity
  8
寸法線
 62
     0
370
    25
100
AcDbMText
 10
341.9467311278082
 20
259.5974607503312
 30
0.0
 40
2.5
 41
0.0
 71
     5
 72
     1
  1
\U+220560
 11
0.970518834251021
 21
-0.241025294033716
 31
0.0
 73
     1
 44
1.0
  0
LINE
  5
3BBC
330
3B9E
100
AcDbEntity
  8
寸法線
 62
     0
370
    -2
100
AcDbLine
 10
268.7615091994986
 20
275.8408236587486
 30
0.0
 11
326.9926392545599
 21
261.3793060167257
 31
0.0
  0
SOLID
  5
3BBD
330
3B9E
100
AcDbEntity
  8
寸法線
 62
     0
100
AcDbTrace
 10
266.4356393197185
 20
276.8477697414375
 30
0.0
 11
266.2347849080237
 21
276.0390040462283
 31
0.0
 12
268.7615091994986
 22
275.8408236587486
 32
0.0
 13
268.7615091994986
 23
275.8408236587486
 33
0.0
  0
SOLID
  5
3BBE
330
3B9E
100
AcDbEntity
  8
寸法線
 62
     0
100
AcDbTrace
 10
329.5193635460349
 20
261.181125629246
 30
0.0
 11
329.3185091343401
 21
260.3723599340368
 31
0.0
 12
326.9926392545599
 22
261.3793060167257
 32
0.0
 13
326.9926392545599
 23
261.3793060167257
 33
0.0
  0
POINT
  5
3BBF
330
3B9E
100
AcDbEntity
  8
Defpoints
 62
     0
100
AcDbPoint
 10
326.9926392545599
 20
261.3793060167257
 30
0.0
  0
POINT
  5
3BC0
330
3B9E
100
AcDbEntity
  8
Defpoints
 62
     0
100
AcDbPoint
 10
268.7615091994986
 20
275.8408236587486
 30
0.0
  0
ENDBLK
  5
3BA8
330
3B9E
100
AcDbEntity
  8
0
100
AcDbBlockEnd
  0
ENDSEC
  0
SECTION
  2
ENTITIES
  0
LINE
  5
2DAC
330
1F
100
AcDbEntity
  8
太線
100
AcDbLine
 10
51.96670811017657
 20
202.0536210066474
 30
0.0
 11
92.89799522501342
 21
202.0536210066474
 31
0.0
  0
LINE
  5
2DAD
330
1F
100
AcDbEntity
  8
太線
100
AcDbLine
 10
143.4667081101765
 20
201.5536210066474
 30
0.0
 11
143.4667081101765
 21
198.0536210066474
 31
0.0
  0
LINE
  5
2DAE
330
1F
100
AcDbEntity
  8
太線
100
AcDbLine
 10
143.4667081101765
 20
198.0536210066474
 30
0.0
 11
143.4667081101765
 21
145.5536210066474
 31
0.0
  0
LINE
  5
2DAF
330
1F
100
AcDbEntity
  8
太線
100
AcDbLine
 10
142.9667081101765
 20
145.0536210066474
 30
0.0
 11
102.5542897063198
 21
145.0536210066474
 31
0.0
  0
LINE
  5
2DB0
330
1F
100
AcDbEntity
  8
太線
100
AcDbLine
 10
51.46670811017656
 20
145.5536210066474
 30
0.0
 11
51.46670811017656
 21
201.5536210066474
 31
0.0
  0
LINE
  5
2DB1
330
1F
100
AcDbEntity
  8
太線
100
AcDbLine
 10
55.46670811017657
 20
198.0536210066475
 30
0.0
 11
143.4667081101765
 21
198.0536210066474
 31
0.0
  0
LINE
  5
2DB2
330
1F
100
AcDbEntity
  8
太線
100
AcDbLine
 10
51.46670811017656
 20
173.5536210066474
 30
0.0
 11
143.4667081101765
 21
173.5536210066474
 31
0.0
  0
ARC
  5
2DC6
330
1F
100
AcDbEntity
  8
太線
100
AcDbCircle
 10
131.4667081101765
 20
207.273965670941
 30
0.0
 40
10.625
100
AcDbArc
 50
66.73017604155141
 51
113.2698239584485
  0
LINE
  5
2DC7
330
1F
100
AcDbEntity
  8
太線
100
AcDbLine
 10
135.9667081101765
 20
216.5753432570838
 30
0.0
 11
135.9667081101765
 21
214.898965670941
 31
0.0
  0
LINE
  5
2DC8
330
1F
100
AcDbEntity
  8
太線
100
AcDbLine
 10
135.9667081101765
 20
214.898965670941
 30
0.0
 11
133.9667081101765
 21
214.898965670941
 31
0.0
  0
LINE
  5
2DC9
330
1F
100
AcDbEntity
  8
太線
100
AcDbLine
 10
133.9667081101765
 20
214.898965670941
 30
0.0
 11
133.9667081101765
 21
209.398965670941
 31
0.0
  0
LINE
  5
2DCA
330
1F
100
AcDbEntity
  8
太線
100
AcDbLine
 10
133.4667081101765
 20
208.898965670941
 30
0.0
 11
129.4667081101765
 21
208.898965670941
 31
0.0
  0
LINE
  5
2DCB
330
1F
100
AcDbEntity
  8
太線
100
AcDbLine
 10
128.9667081101765
 20
209.398965670941
 30
0.0
 11
128.9667081101765
 21
214.898965670941
 31
0.0
  0
LINE
  5
2DCC
330
1F
100
AcDbEntity
  8
太線
100
AcDbLine
 10
128.9667081101765
 20
214.898965670941
 30
0.0
 11
126.9667081101765
 21
214.898965670941
 31
0.0
  0
LINE
  5
2DCD
330
1F
100
AcDbEntity
  8
太線
100
AcDbLine
 10
126.9667081101765
 20
214.898965670941
 30
0.0
 11
126.9667081101765
 21
216.5753432570838
 31
0.0
  0
ARC
  5
2DCE
330
1F
100
AcDbEntity
  8
太線
100
AcDbCircle
 10
127.4667081101765
 20
216.5753432570838
 30
0.0
 40
0.5
100
AcDbArc
 50
113.2698239584475
 51
180.0
  0
ARC
  5
2DCF
330
1F
100
AcDbEntity
  8
太線
100
AcDbCircle
 10
135.4667081101765
 20
216.5753432570838
 30
0.0
 40
0.5
100
AcDbArc
 50
0.0
 51
66.73017604155245
  0
ARC
  5
2DD0
330
1F
100
AcDbEntity
  8
太線
100
AcDbCircle
 10
129.4667081101765
 20
209.398965670941
 30
0.0
 40
0.5
100
AcDbArc
 50
180.0
 51
270.0
  0
ARC
  5
2DD1
330
1F
100
AcDbEntity
  8
太線
100
AcDbCircle
 10
133.4667081101765
 20
209.398965670941
 30
0.0
 40
0.5
100
AcDbArc
 50
270.0000000000003
 51
0.0
  0
LINE
  5
2DE7
330
1F
100
AcDbEntity
  8
太線
100
AcDbLine
 10
133.9667081101765
 20
202.0536210066474
 30
0.0
 11
133.9667081101765
 21
198.0536210066474
 31
0.0
  0
LINE
  5
2DE8
330
1F
100
AcDbEntity
  8
太線
100
AcDbLine
 10
128.9667081101765
 20
202.0536210066474
 30
0.0
 11
128.9667081101765
 21
198.0536210066474
 31
0.0
  0
LINE
  5
2DEB
330
1F
100
AcDbEntity
  8
細線
100
AcDbLine
 10
133.4667081101765
 20
198.0536210066474
 30
0.0
 11
133.4667081101765
 21
202.0536210066474
 31
0.0
  0
LINE
  5
2DEC
330
1F
100
AcDbEntity
  8
細線
100
AcDbLine
 10
129.4667081101765
 20
202.0536210066474
 30
0.0
 11
129.4667081101765
 21
198.0536210066474
 31
0.0
  0
LINE
  5
2DED
330
1F
100
AcDbEntity
  8
細線
100
AcDbLine
 10
129.4667081101765
 20
214.898965670941
 30
0.0
 11
129.4667081101765
 21
208.898965670941
 31
0.0
  0
LINE
  5
2DEE
330
1F
100
AcDbEntity
  8
細線
100
AcDbLine
 10
133.4667081101765
 20
214.898965670941
 30
0.0
 11
133.4667081101765
 21
208.898965670941
 31
0.0
  0
ARC
  5
2DF5
330
1F
100
AcDbEntity
  8
太線
100
AcDbCircle
 10
51.96670811017657
 20
201.5536210066474
 30
0.0
 40
0.5
100
AcDbArc
 50
90.0
 51
180.0
  0
ARC
  5
2DF6
330
1F
100
AcDbEntity
  8
太線
100
AcDbCircle
 10
142.9667081101765
 20
201.5536210066474
 30
0.0
 40
0.5
100
AcDbArc
 50
0.0
 51
90.0
  0
ARC
  5
2DF7
330
1F
100
AcDbEntity
  8
太線
100
AcDbCircle
 10
142.9667081101765
 20
145.5536210066474
 30
0.0
 40
0.5
100
AcDbArc
 50
270.0
 51
0.0
  0
ARC
  5
2DF8
330
1F
100
AcDbEntity
  8
太線
100
AcDbCircle
 10
51.96670811017657
 20
145.5536210066474
 30
0.0
 40
0.5
100
AcDbArc
 50
180.0
 51
270.0
  0
DIMENSION
  5
2E07
330
1F
100
AcDbEntity
  8
寸法線
100
AcDbDimension
  2
*D2
 10
142.9667081101765
 20
126.7409606273646
 30
0.0
 11
97.46670811017658
 21
130.2409606273646
 31
0.0
 70
    32
  1
88
 71
     5
 42
91.0
  3
sunpo
100
AcDbAlignedDimension
 13
51.96670811017657
 23
145.5536210066474
 33
0.0
 14
142.9667081101765
 24
145.0536210066474
 34
0.0
100
AcDbRotatedDimension
1001
ACAD
1000
DSTYLE
1002
{
1070
    40
1040
1.0
1002
}
  0
LINE
  5
313B
330
1F
100
AcDbEntity
  8
太線
100
AcDbLine
 10
92.55428970631987
 20
145.0536210066474
 30
0.0
 11
51.96670811017657
 21
145.0536210066474
 31
0.0
  0
LINE
  5
3143
330
1F
100
AcDbEntity
  8
太線
100
AcDbLine
 10
102.1900002208552
 20
202.0536210066474
 30
0.0
 11
142.9667081101765
 21
202.0536210066474
 31
0.0
  0
LINE
  5
3156
330
1F
100
AcDbEntity
  8
太線
100
AcDbLine
 10
102.5542897063198
 20
145.0536210066474
 30
0.0
 11
98.99253060957381
 21
145.0536210066474
 31
0.0
  0
LINE
  5
315B
330
1F
100
AcDbEntity
  8
太線
100
AcDbLine
 10
95.9925306095738
 20
145.0536210066474
 30
0.0
 11
92.55428970631987
 21
145.0536210066474
 31
0.0
  0
LINE
  5
3198
330
1F
100
AcDbEntity
  8
太線
100
AcDbLine
 10
92.89799522501342
 20
202.0536210066474
 30
0.0
 11
102.1900002208552
 21
202.0536210066474
 31
0.0
  0
LINE
  5
3199
330
1F
100
AcDbEntity
  8
太線
100
AcDbLine
 10
98.99253060957381
 20
145.0536210066474
 30
0.0
 11
95.9925306095738
 21
145.0536210066474
 31
0.0
  0
LINE
  5
319C
330
1F
100
AcDbEntity
  8
太線
100
AcDbLine
 10
55.46670811017657
 20
198.0536210066474
 30
0.0
 11
55.46670811017657
 21
173.5536210066474
 31
0.0
  0
LINE
  5
31A3
330
1F
100
AcDbEntity
  8
想像線
100
AcDbLine
 10
55.46670811017657
 20
155.3536210066474
 30
0.0
 11
81.46670811017656
 21
155.3536210066474
 31
0.0
  0
LINE
  5
31A4
330
1F
100
AcDbEntity
  8
想像線
100
AcDbLine
 10
81.46670811017656
 20
155.3536210066474
 30
0.0
 11
81.46670811017656
 21
145.3536210066474
 31
0.0
  0
LINE
  5
31A5
330
1F
100
AcDbEntity
  8
想像線
100
AcDbLine
 10
60.46670811017657
 20
155.3536210066474
 30
0.0
 11
60.46670811017657
 21
145.3536210066474
 31
0.0
  0
LINE
  5
31A6
330
1F
100
AcDbEntity
  8
想像線
100
AcDbLine
 10
72.46670811017657
 20
155.3536210066474
 30
0.0
 11
72.46670811017657
 21
145.3536210066474
 31
0.0
  0
LINE
  5
31BB
330
1F
100
AcDbEntity
  8
構築線
100
AcDbLine
 10
55.46670811017657
 20
173.5536210066474
 30
0.0
 11
55.46670811017657
 21
145.3536210066474
 31
0.0
  0
LINE
  5
31BC
330
1F
100
AcDbEntity
  8
構築線
100
AcDbLine
 10
55.46670811017657
 20
145.3536210066474
 30
0.0
 11
163.4319461531386
 21
145.3536210066474
 31
0.0
  0
LINE
  5
31BD
330
1F
100
AcDbEntity
  8
想像線
100
AcDbLine
 10
55.46670811017657
 20
173.5536210066474
 30
0.0
 11
55.46670811017657
 21
155.3536210066474
 31
0.0
  0
LINE
  5
31BF
330
1F
100
AcDbEntity
  8
想像線
100
AcDbLine
 10
55.46670811017657
 20
155.3536210066474
 30
0.0
 11
55.46670811017657
 21
145.3536210066474
 31
0.0
  0
TEXT
  5
32C1
330
1F
100
AcDbEntity
  8
文字
100
AcDbText
 10
133.4196970924133
 20
-30.17500257674942
 30
0.0
 40
5.759999999999999
  1
50Ｋストッパー付タイプ                                                                                                                                                                              
 51
15.0
  7
OKANO
100
AcDbText
  0
TEXT
  5
32CB
330
1F
100
AcDbEntity
  8
文字
100
AcDbText
 10
22.98436713773958
 20
9.101174101150604
 30
0.0
 40
5.759999999999999
  1
30Ｋストッパー付タイプ                                                                                                                                                                              
 51
15.0
  7
OKANO
100
AcDbText
  0
TEXT
  5
32CD
330
1F
100
AcDbEntity
  8
文字
100
AcDbText
 10
154.0093339050115
 20
-18.32980646933538
 30
0.0
 40
5.759999999999999
  1
14-1R100                                                                                                                  
 51
15.0
  7
OKANO
100
AcDbText
  0
TEXT
  5
3356
330
1F
100
AcDbEntity
  8
文字
100
AcDbText
 10
263.4894825611338
 20
-10.47808638048332
 30
0.0
 40
5.759999999999999
  1
水平調整30mm　500kタイプ                                                                                                                                      
 51
15.0
  7
OKANO
100
AcDbText
  0
TEXT
  5
3357
330
1F
100
AcDbEntity
  8
文字
100
AcDbText
 10
276.7627586553455
 20
2.784615966939554
 30
0.0
 40
5.759999999999999
  1
15-1R500                                                                                                                                                                                 
 51
15.0
  7
OKANO
100
AcDbText
  0
DIMENSION
  5
335D
330
1F
100
AcDbEntity
  8
寸法線
100
AcDbDimension
  2
*D4
 10
326.3521150353085
 20
112.0864082557694
 30
0.0
 11
322.8521150353085
 21
70.899020389989
 31
0.0
 70
    32
  1
85
 71
     5
 42
82.37477573156104
  3
sunpo
100
AcDbAlignedDimension
 13
318.3795387012608
 23
29.71163252420842
 33
0.0
 14
295.8795387012608
 24
112.0864082557694
 34
0.0
 50
90.0
100
AcDbRotatedDimension
1001
ACAD
1000
DSTYLE
1002
{
1070
    40
1040
1.0
1002
}
  0
LINE
  5
335E
330
1F
100
AcDbEntity
  8
太線
100
AcDbLine
 10
284.8795387012609
 20
61.53265748836327
 30
0.0
 11
284.8795387012608
 21
72.36701928620232
 31
0.0
  0
LINE
  5
335F
330
1F
100
AcDbEntity
  8
細線
100
AcDbLine
 10
285.8795387012607
 20
112.0864082557694
 30
0.0
 11
285.8795387012608
 21
81.9930609880007
 31
0.0
  0
LINE
  5
3360
330
1F
100
AcDbEntity
  8
太線
100
AcDbLine
 10
296.8795387012608
 20
110.5044089621736
 30
0.0
 11
296.8795387012608
 21
81.9930609880007
 31
0.0
  0
LINE
  5
3361
330
1F
100
AcDbEntity
  8
細線
100
AcDbLine
 10
295.8795387012608
 20
112.0864082557694
 30
0.0
 11
295.8795387012608
 21
81.9930609880007
 31
0.0
  0
LINE
  5
3362
330
1F
100
AcDbEntity
  8
破線
100
AcDbLine
 10
285.8693162708547
 20
61.53265748836327
 30
0.0
 11
282.8693162708546
 21
61.53265748836327
 31
0.0
  0
LINE
  5
3363
330
1F
100
AcDbEntity
  8
破線
100
AcDbLine
 10
281.8795387012607
 20
60.90661578656488
 30
0.0
 11
299.8795387012608
 21
60.90661578656488
 31
0.0
  0
LINE
  5
3364
330
1F
100
AcDbEntity
  8
破線
100
AcDbLine
 10
285.8795387012607
 20
52.90661578656489
 30
0.0
 11
282.8795387012608
 21
51.90661578656488
 31
0.0
  0
LINE
  5
3365
330
1F
100
AcDbEntity
  8
太線
100
AcDbLine
 10
283.6015687900487
 20
51.87009207270057
 30
0.0
 11
285.9113620421414
 21
50.17785495744783
 31
0.0
  0
LINE
  5
3366
330
1F
100
AcDbEntity
  8
破線
100
AcDbLine
 10
296.8795387012608
 20
40.6325175837203
 30
0.0
 11
284.8795387012608
 21
40.6325175837203
 31
0.0
  0
LINE
  5
3367
330
1F
100
AcDbEntity
  8
太線
100
AcDbLine
 10
300.0927026852717
 20
43.71163252420845
 30
0.0
 11
281.6663747172498
 21
43.71163252420842
 31
0.0
  0
LINE
  5
3368
330
1F
100
AcDbEntity
  8
太線
100
AcDbLine
 10
298.8795387012608
 20
51.71163252420843
 30
0.0
 11
282.8795387012608
 21
51.71163252420843
 31
0.0
  0
LINE
  5
3369
330
1F
100
AcDbEntity
  8
破線
100
AcDbLine
 10
298.8795387012608
 20
51.90661578656488
 30
0.0
 11
282.8795387012608
 21
51.90661578656488
 31
0.0
  0
LINE
  5
336A
330
1F
100
AcDbEntity
  8
破線
100
AcDbLine
 10
298.8795387012608
 20
32.6325175837203
 30
0.0
 11
282.8795387012608
 21
32.6325175837203
 31
0.0
  0
LINE
  5
336B
330
1F
100
AcDbEntity
  8
破線
100
AcDbLine
 10
285.8795387012607
 20
33.6325175837203
 30
0.0
 11
282.8795387012608
 21
32.6325175837203
 31
0.0
  0
LINE
  5
336C
330
1F
100
AcDbEntity
  8
太線
100
AcDbLine
 10
263.3795387012607
 20
29.71163252420842
 30
0.0
 11
318.3795387012608
 21
29.71163252420842
 31
0.0
  0
LINE
  5
336D
330
1F
100
AcDbEntity
  8
破線
100
AcDbLine
 10
281.8795387012607
 20
52.90661578656489
 30
0.0
 11
281.8795387012607
 21
60.90661578656488
 31
0.0
  0
LINE
  5
336E
330
1F
100
AcDbEntity
  8
太線
100
AcDbLine
 10
281.8795387012607
 20
50.71163252420842
 30
0.0
 11
281.8795387012607
 21
43.71163252420842
 31
0.0
  0
ARC
  5
336F
330
1F
100
AcDbEntity
  8
太線
100
AcDbCircle
 10
271.5927026852717
 20
34.7116325242084
 30
0.0
 40
3.0
100
AcDbArc
 50
270.0
 51
331.5570713756371
  0
LINE
  5
3370
330
1F
100
AcDbEntity
  8
太線
100
AcDbLine
 10
271.5927026852717
 20
31.71163252420839
 30
0.0
 11
264.3795387012608
 21
31.71163252420845
 31
0.0
  0
ARC
  5
3371
330
1F
100
AcDbEntity
  8
太線
100
AcDbCircle
 10
264.3795387012608
 20
30.71163252420845
 30
0.0
 40
1.0
100
AcDbArc
 50
90.0
 51
180.0
  0
LINE
  5
3372
330
1F
100
AcDbEntity
  8
太線
100
AcDbLine
 10
263.3795387012607
 20
30.71163252420845
 30
0.0
 11
263.3795387012607
 21
29.71163252420842
 31
0.0
  0
LINE
  5
3373
330
1F
100
AcDbEntity
  8
破線
100
AcDbLine
 10
281.8795387012607
 20
33.6325175837203
 30
0.0
 11
281.8795387012607
 21
39.6325175837203
 31
0.0
  0
LINE
  5
3374
330
1F
100
AcDbEntity
  8
太線
100
AcDbLine
 10
279.0284988176395
 20
42.14048196983068
 30
0.0
 11
274.230578584882
 21
33.28278307858613
 31
0.0
  0
ARC
  5
3375
330
1F
100
AcDbEntity
  8
破線
100
AcDbCircle
 10
282.8795387012608
 20
33.6325175837203
 30
0.0
 40
1.0
100
AcDbArc
 50
180.0
 51
270.0
  0
ARC
  5
3376
330
1F
100
AcDbEntity
  8
太線
100
AcDbCircle
 10
281.6663747172498
 20
40.71163252420842
 30
0.0
 40
3.0
100
AcDbArc
 50
90.0
 51
151.557071375637
  0
LINE
  5
3377
330
1F
100
AcDbEntity
  8
破線
100
AcDbLine
 10
282.8795387012608
 20
40.6325175837203
 30
0.0
 11
284.8795387012608
 21
40.6325175837203
 31
0.0
  0
ARC
  5
3378
330
1F
100
AcDbEntity
  8
破線
100
AcDbCircle
 10
282.8795387012608
 20
39.6325175837203
 30
0.0
 40
1.0
100
AcDbArc
 50
90.0
 51
180.0
  0
LINE
  5
3379
330
1F
100
AcDbEntity
  8
破線
100
AcDbLine
 10
284.8795387012608
 20
43.71163252420845
 30
0.0
 11
284.8795387012608
 21
40.6325175837203
 31
0.0
  0
ARC
  5
337A
330
1F
100
AcDbEntity
  8
太線
100
AcDbCircle
 10
282.8795387012608
 20
50.71163252420842
 30
0.0
 40
1.0
100
AcDbArc
 50
90.0
 51
180.0
  0
ARC
  5
337B
330
1F
100
AcDbEntity
  8
破線
100
AcDbCircle
 10
282.8795387012608
 20
52.90661578656489
 30
0.0
 40
1.0
100
AcDbArc
 50
180.0
 51
270.0
  0
ARC
  5
337C
330
1F
100
AcDbEntity
  8
破線
100
AcDbCircle
 10
282.8693162708546
 20
60.53265748836327
 30
0.0
 40
1.0
100
AcDbArc
 50
90.0
 51
180.0
  0
TEXT
  5
337D
330
1F
100
AcDbEntity
  8
文字
100
AcDbText
 10
264.0816392103165
 20
87.29703031752842
 30
0.0
 40
5.759999999999999
  1
M-12                                                                        
 51
15.0
  7
OKANO
100
AcDbText
  0
LINE
  5
337E
330
1F
100
AcDbEntity
  8
破線
100
AcDbLine
 10
295.8795387012608
 20
60.90661578656491
 30
0.0
 11
295.8795387012608
 21
52.90661578656489
 31
0.0
  0
LINE
  5
337F
330
1F
100
AcDbEntity
  8
破線
100
AcDbLine
 10
285.8795387012607
 20
60.90661578656491
 30
0.0
 11
285.8795387012607
 21
52.90661578656489
 31
0.0
  0
LINE
  5
3380
330
1F
100
AcDbEntity
  8
破線
100
AcDbLine
 10
299.8795387012608
 20
60.90661578656488
 30
0.0
 11
299.8795387012608
 21
52.90661578656489
 31
0.0
  0
ARC
  5
3381
330
1F
100
AcDbEntity
  8
太線
100
AcDbCircle
 10
310.1663747172498
 20
34.71163252420842
 30
0.0
 40
3.0
100
AcDbArc
 50
208.4429286243628
 51
270.0
  0
LINE
  5
3382
330
1F
100
AcDbEntity
  8
太線
100
AcDbLine
 10
299.8795387012608
 20
50.71163252420842
 30
0.0
 11
299.8795387012608
 21
43.71163252420842
 31
0.0
  0
LINE
  5
3383
330
1F
100
AcDbEntity
  8
太線
100
AcDbLine
 10
285.8795387012608
 20
50.20116987471187
 30
0.0
 11
285.8795387012608
 21
43.71163252420842
 31
0.0
  0
LINE
  5
3384
330
1F
100
AcDbEntity
  8
太線
100
AcDbLine
 10
295.8795387012608
 20
50.39813514808122
 30
0.0
 11
295.8795387012608
 21
43.71163252420842
 31
0.0
  0
LINE
  5
3385
330
1F
100
AcDbEntity
  8
破線
100
AcDbLine
 10
296.8795387012608
 20
40.6325175837203
 30
0.0
 11
298.8795387012608
 21
40.6325175837203
 31
0.0
  0
LINE
  5
3386
330
1F
100
AcDbEntity
  8
破線
100
AcDbLine
 10
295.8795387012608
 20
33.6325175837203
 30
0.0
 11
298.8795387012608
 21
32.6325175837203
 31
0.0
  0
LINE
  5
3387
330
1F
100
AcDbEntity
  8
破線
100
AcDbLine
 10
295.8795387012608
 20
40.6325175837203
 30
0.0
 11
295.8795387012608
 21
33.6325175837203
 31
0.0
  0
LINE
  5
3388
330
1F
100
AcDbEntity
  8
破線
100
AcDbLine
 10
285.8795387012607
 20
40.6325175837203
 30
0.0
 11
285.8795387012607
 21
33.6325175837203
 31
0.0
  0
ARC
  5
3389
330
1F
100
AcDbEntity
  8
破線
100
AcDbCircle
 10
290.8795387012608
 20
45.63251758372035
 30
0.0
 40
13.00000000000004
100
AcDbArc
 50
247.3801350519612
 51
292.6198649480387
  0
LINE
  5
338A
330
1F
100
AcDbEntity
  8
破線
100
AcDbLine
 10
285.8795387012608
 20
43.71163252420842
 30
0.0
 11
285.8795387012607
 21
40.6325175837203
 31
0.0
  0
LINE
  5
338B
330
1F
100
AcDbEntity
  8
破線
100
AcDbLine
 10
295.8795387012608
 20
43.71163252420842
 30
0.0
 11
295.8795387012608
 21
40.6325175837203
 31
0.0
  0
LINE
  5
338C
330
1F
100
AcDbEntity
  8
破線
100
AcDbLine
 10
296.8795387012608
 20
43.71163252420845
 30
0.0
 11
296.8795387012608
 21
40.6325175837203
 31
0.0
  0
LINE
  5
338D
330
1F
100
AcDbEntity
  8
破線
100
AcDbLine
 10
299.8795387012608
 20
39.6325175837203
 30
0.0
 11
299.8795387012608
 21
33.6325175837203
 31
0.0
  0
LINE
  5
338E
330
1F
100
AcDbEntity
  8
太線
100
AcDbLine
 10
307.5284988176395
 20
33.28278307858616
 30
0.0
 11
302.730578584882
 21
42.14048196983071
 31
0.0
  0
ARC
  5
338F
330
1F
100
AcDbEntity
  8
破線
100
AcDbCircle
 10
298.8795387012608
 20
33.6325175837203
 30
0.0
 40
1.0
100
AcDbArc
 50
270.0
 51
0.0
  0
ARC
  5
3390
330
1F
100
AcDbEntity
  8
太線
100
AcDbCircle
 10
300.0927026852717
 20
40.71163252420845
 30
0.0
 40
3.0
100
AcDbArc
 50
28.44292862436288
 51
90.0
  0
ARC
  5
3391
330
1F
100
AcDbEntity
  8
破線
100
AcDbCircle
 10
298.8795387012608
 20
39.6325175837203
 30
0.0
 40
1.0
100
AcDbArc
 50
0.0
 51
90.0
  0
LINE
  5
3392
330
1F
100
AcDbEntity
  8
太線
100
AcDbLine
 10
295.7664823950146
 20
50.33169469519816
 30
0.0
 11
298.3842478901599
 21
51.87009207270057
 31
0.0
  0
LINE
  5
3393
330
1F
100
AcDbEntity
  8
破線
100
AcDbLine
 10
295.8795387012608
 20
52.90661578656489
 30
0.0
 11
298.8795387012608
 21
51.90661578656488
 31
0.0
  0
LINE
  5
3394
330
1F
100
AcDbEntity
  8
太線
100
AcDbLine
 10
285.9113620421414
 20
50.17785495744783
 30
0.0
 11
289.9150040602219
 21
51.56241259720014
 31
0.0
  0
LINE
  5
3395
330
1F
100
AcDbEntity
  8
太線
100
AcDbLine
 10
293.3027015921973
 20
51.71625233495046
 30
0.0
 11
295.7664823950146
 21
50.33169469519816
 31
0.0
  0
ARC
  5
3396
330
1F
100
AcDbEntity
  8
破線
100
AcDbCircle
 10
290.8795387012608
 20
64.90661578656489
 30
0.0
 40
13.0
100
AcDbArc
 50
247.3801350519612
 51
292.6198649480387
  0
ARC
  5
3397
330
1F
100
AcDbEntity
  8
太線
100
AcDbCircle
 10
298.8795387012608
 20
50.71163252420842
 30
0.0
 40
1.0
100
AcDbArc
 50
0.0
 51
90.0
  0
ARC
  5
3398
330
1F
100
AcDbEntity
  8
破線
100
AcDbCircle
 10
298.8795387012608
 20
52.90661578656489
 30
0.0
 40
1.0
100
AcDbArc
 50
270.0
 51
0.0
  0
LINE
  5
3399
330
1F
100
AcDbEntity
  8
太線
100
AcDbLine
 10
317.3795387012607
 20
31.71163252420842
 30
0.0
 11
310.1663747172498
 21
31.71163252420842
 31
0.0
  0
LINE
  5
339A
330
1F
100
AcDbEntity
  8
太線
100
AcDbLine
 10
318.3795387012608
 20
29.71163252420842
 30
0.0
 11
318.3795387012608
 21
30.71163252420842
 31
0.0
  0
ARC
  5
339B
330
1F
100
AcDbEntity
  8
太線
100
AcDbCircle
 10
317.3795387012607
 20
30.71163252420842
 30
0.0
 40
1.0
100
AcDbArc
 50
0.0
 51
90.0
  0
LINE
  5
339C
330
1F
100
AcDbEntity
  8
破線
100
AcDbLine
 10
296.8693162708547
 20
61.53265748836327
 30
0.0
 11
298.8693162708547
 21
61.53265748836327
 31
0.0
  0
LINE
  5
339D
330
1F
100
AcDbEntity
  8
破線
100
AcDbLine
 10
285.8693162708547
 20
61.53265748836327
 30
0.0
 11
296.8693162708547
 21
61.53265748836327
 31
0.0
  0
ARC
  5
339E
330
1F
100
AcDbEntity
  8
破線
100
AcDbCircle
 10
298.8693162708547
 20
60.53265748836327
 30
0.0
 40
1.0
100
AcDbArc
 50
0.0
 51
90.0
  0
LINE
  5
33A3
330
1F
100
AcDbEntity
  8
太線
100
AcDbLine
 10
284.8795387012608
 20
110.5044089621736
 30
0.0
 11
285.8795387012607
 21
112.0864082557694
 31
0.0
  0
LINE
  5
33AA
330
1F
100
AcDbEntity
  8
太線
100
AcDbLine
 10
295.8795387012608
 20
112.0864082557694
 30
0.0
 11
296.8795387012608
 21
110.5044089621736
 31
0.0
  0
LINE
  5
33AB
330
1F
100
AcDbEntity
  8
太線
100
AcDbLine
 10
285.8795387012607
 20
112.0864082557694
 30
0.0
 11
295.8795387012608
 21
112.0864082557694
 31
0.0
  0
TEXT
  5
33FC
330
1F
100
AcDbEntity
  8
文字
100
AcDbText
 10
403.6667505647035
 20
-55.85614438816481
 30
0.0
 40
4.0
  1
14-1R65・14-1R100・15-1R500・15-1R500A
 51
15.0
  7
OKANO
100
AcDbText
  0
TEXT
  5
33FD
330
1F
100
AcDbEntity
  8
文字
100
AcDbText
 10
404.743605482314
 20
-45.45993634879534
 30
0.0
 40
6.719999999999999
  1
F-999-2010511 Auto CAD
 51
15.0
  7
OKANO
100
AcDbText
  0
LWPOLYLINE
  5
33FE
330
1F
100
AcDbEntity
  8
太線
100
AcDbPolyline
 90
        4
 70
     1
 43
0.0
 10
366.3524860280546
 20
-34.98906705939782
 10
517.5524860280546
 20
-34.98906705939782
 10
517.5524860280546
 20
-70.26906705939786
 10
366.3524860280546
 20
-70.26906705939786
  0
LINE
  5
33FF
330
1F
100
AcDbEntity
  8
太線
100
AcDbLine
 10
366.3524860280546
 20
-46.74906705939782
 30
0.0
 11
517.5524860280546
 21
-46.74906705939782
 31
0.0
  0
TEXT
  5
3400
330
1F
100
AcDbEntity
  8
文字
100
AcDbText
 10
415.2272436988296
 20
-66.11325645899825
 30
0.0
 40
6.719999999999999
  1
joint kogyo T.okano
 51
15.0
  7
OKANO
100
AcDbText
  0
LINE
  5
3401
330
1F
100
AcDbEntity
  8
太線
100
AcDbLine
 10
399.9524860280546
 20
-34.98906705939782
 30
0.0
 11
399.9524860280546
 21
-70.26906705939786
 31
0.0
  0
TEXT
  5
3403
330
1F
100
AcDbEntity
  8
文字
100
AcDbText
 10
371.7738230205351
 20
-58.2199835777888
 30
0.0
 40
3.359999999999999
  1
CHECK
 51
15.0
  7
OKANO
100
AcDbText
  0
TEXT
  5
3404
330
1F
100
AcDbEntity
  8
文字
100
AcDbText
 10
371.7738230205351
 20
-67.90718222649093
 30
0.0
 40
3.359999999999999
  1
ISSUED
 51
15.0
  7
OKANO
100
AcDbText
  0
TEXT
  5
3405
330
1F
100
AcDbEntity
  8
文字
100
AcDbText
 10
372.1329432265961
 20
-63.24297556151555
 30
0.0
 40
3.359999999999999
  1
APPR
 51
15.0
  7
OKANO
100
AcDbText
  0
TEXT
  5
3406
330
1F
100
AcDbEntity
  8
文字
100
AcDbText
 10
369.2599892481751
 20
-44.2273644091266
 30
0.0
 40
3.359999999999999
  1
FILM NAME
 51
15.0
  7
OKANO
100
AcDbText
  0
TEXT
  5
3407
330
1F
100
AcDbEntity
  8
文字
100
AcDbText
 10
371.0555856764399
 20
-53.19699242032612
 30
0.0
 40
3.359999999999999
  1
DRAWN
 51
15.0
  7
OKANO
100
AcDbText
  0
LINE
  5
3452
330
1F
100
AcDbEntity
  8
想像線
100
AcDbLine
 10
165.2133398340593
 20
155.3536210066474
 30
0.0
 11
191.2133398340593
 21
155.3536210066474
 31
0.0
  0
LINE
  5
3453
330
1F
100
AcDbEntity
  8
太線
100
AcDbLine
 10
202.3009214302025
 20
145.0536210066474
 30
0.0
 11
161.7133398340593
 21
145.0536210066474
 31
0.0
  0
LINE
  5
3455
330
1F
100
AcDbEntity
  8
太線
100
AcDbLine
 10
161.2133398340592
 20
173.5536210066474
 30
0.0
 11
253.2133398340592
 21
173.5536210066474
 31
0.0
  0
LINE
  5
3456
330
1F
100
AcDbEntity
  8
太線
100
AcDbLine
 10
165.2133398340593
 20
198.0536210066475
 30
0.0
 11
253.2133398340592
 21
198.0536210066474
 31
0.0
  0
LINE
  5
3457
330
1F
100
AcDbEntity
  8
太線
100
AcDbLine
 10
161.7133398340593
 20
202.0536210066474
 30
0.0
 11
202.6446269488961
 21
202.0536210066474
 31
0.0
  0
LINE
  5
3458
330
1F
100
AcDbEntity
  8
太線
100
AcDbLine
 10
165.2133398340593
 20
198.0536210066474
 30
0.0
 11
165.2133398340593
 21
173.5536210066474
 31
0.0
  0
LINE
  5
3459
330
1F
100
AcDbEntity
  8
太線
100
AcDbLine
 10
161.2133398340592
 20
145.5536210066474
 30
0.0
 11
161.2133398340592
 21
201.5536210066474
 31
0.0
  0
LINE
  5
345A
330
1F
100
AcDbEntity
  8
想像線
100
AcDbLine
 10
165.2133398340593
 20
155.3536210066474
 30
0.0
 11
165.2133398340593
 21
145.3536210066474
 31
0.0
  0
LINE
  5
345B
330
1F
100
AcDbEntity
  8
想像線
100
AcDbLine
 10
182.2133398340593
 20
155.3536210066474
 30
0.0
 11
182.2133398340593
 21
145.3536210066474
 31
0.0
  0
LINE
  5
345C
330
1F
100
AcDbEntity
  8
想像線
100
AcDbLine
 10
170.2133398340593
 20
155.3536210066474
 30
0.0
 11
170.2133398340593
 21
145.3536210066474
 31
0.0
  0
ARC
  5
345D
330
1F
100
AcDbEntity
  8
太線
100
AcDbCircle
 10
161.7133398340593
 20
145.5536210066474
 30
0.0
 40
0.5
100
AcDbArc
 50
180.0
 51
270.0
  0
LINE
  5
345E
330
1F
100
AcDbEntity
  8
想像線
100
AcDbLine
 10
165.2133398340593
 20
173.5536210066474
 30
0.0
 11
165.2133398340593
 21
155.3536210066474
 31
0.0
  0
ARC
  5
345F
330
1F
100
AcDbEntity
  8
太線
100
AcDbCircle
 10
161.7133398340593
 20
201.5536210066474
 30
0.0
 40
0.5
100
AcDbArc
 50
90.0
 51
180.0
  0
LINE
  5
3460
330
1F
100
AcDbEntity
  8
太線
100
AcDbLine
 10
253.2133398340592
 20
198.0536210066474
 30
0.0
 11
253.2133398340592
 21
145.5536210066474
 31
0.0
  0
LINE
  5
3461
330
1F
100
AcDbEntity
  8
太線
100
AcDbLine
 10
252.7133398340593
 20
145.0536210066474
 30
0.0
 11
212.3009214302026
 21
145.0536210066474
 31
0.0
  0
LINE
  5
3462
330
1F
100
AcDbEntity
  8
想像線
100
AcDbLine
 10
191.2133398340593
 20
155.3536210066474
 30
0.0
 11
191.2133398340593
 21
145.3536210066474
 31
0.0
  0
LINE
  5
3463
330
1F
100
AcDbEntity
  8
太線
100
AcDbLine
 10
205.7391623334565
 20
145.0536210066474
 30
0.0
 11
202.3009214302025
 21
145.0536210066474
 31
0.0
  0
LINE
  5
3464
330
1F
100
AcDbEntity
  8
太線
100
AcDbLine
 10
212.3009214302026
 20
145.0536210066474
 30
0.0
 11
208.7391623334565
 21
145.0536210066474
 31
0.0
  0
LINE
  5
3465
330
1F
100
AcDbEntity
  8
太線
100
AcDbLine
 10
208.7391623334565
 20
145.0536210066474
 30
0.0
 11
205.7391623334565
 21
145.0536210066474
 31
0.0
  0
ARC
  5
3466
330
1F
100
AcDbEntity
  8
太線
100
AcDbCircle
 10
252.7133398340593
 20
145.5536210066474
 30
0.0
 40
0.5
100
AcDbArc
 50
270.0
 51
0.0
  0
LINE
  5
3467
330
1F
100
AcDbEntity
  8
太線
100
AcDbLine
 10
211.9366319447379
 20
202.0536210066474
 30
0.0
 11
252.7133398340593
 21
202.0536210066474
 31
0.0
  0
LINE
  5
3468
330
1F
100
AcDbEntity
  8
太線
100
AcDbLine
 10
202.6446269488961
 20
202.0536210066474
 30
0.0
 11
211.9366319447379
 21
202.0536210066474
 31
0.0
  0
LINE
  5
3469
330
1F
100
AcDbEntity
  8
細線
100
AcDbLine
 10
239.2133398340593
 20
202.0536210066474
 30
0.0
 11
239.2133398340593
 21
198.0536210066474
 31
0.0
  0
LINE
  5
346A
330
1F
100
AcDbEntity
  8
太線
100
AcDbLine
 10
238.7133398340592
 20
202.0536210066474
 30
0.0
 11
238.7133398340592
 21
198.0536210066474
 31
0.0
  0
LINE
  5
346B
330
1F
100
AcDbEntity
  8
細線
100
AcDbLine
 10
243.2133398340592
 20
198.0536210066474
 30
0.0
 11
243.2133398340592
 21
202.0536210066474
 31
0.0
  0
LINE
  5
346C
330
1F
100
AcDbEntity
  8
太線
100
AcDbLine
 10
243.7133398340593
 20
202.0536210066474
 30
0.0
 11
243.7133398340593
 21
198.0536210066474
 31
0.0
  0
ARC
  5
346D
330
1F
100
AcDbEntity
  8
太線
100
AcDbCircle
 10
252.7133398340593
 20
201.5536210066474
 30
0.0
 40
0.5
100
AcDbArc
 50
0.0
 51
90.0
  0
LINE
  5
346E
330
1F
100
AcDbEntity
  8
太線
100
AcDbLine
 10
253.2133398340592
 20
201.5536210066474
 30
0.0
 11
253.2133398340592
 21
198.0536210066474
 31
0.0
  0
LINE
  5
346F
330
1F
100
AcDbEntity
  8
太線
100
AcDbLine
 10
238.7133398340592
 20
214.898965670941
 30
0.0
 11
236.7133398340592
 21
214.898965670941
 31
0.0
  0
ARC
  5
3470
330
1F
100
AcDbEntity
  8
太線
100
AcDbCircle
 10
241.2133398340592
 20
207.273965670941
 30
0.0
 40
10.625
100
AcDbArc
 50
66.73017604155141
 51
113.2698239584485
  0
ARC
  5
3471
330
1F
100
AcDbEntity
  8
太線
100
AcDbCircle
 10
237.2133398340593
 20
216.5753432570838
 30
0.0
 40
0.5
100
AcDbArc
 50
113.2698239584475
 51
180.0
  0
LINE
  5
3472
330
1F
100
AcDbEntity
  8
太線
100
AcDbLine
 10
236.7133398340592
 20
214.898965670941
 30
0.0
 11
236.7133398340592
 21
216.5753432570838
 31
0.0
  0
ARC
  5
3473
330
1F
100
AcDbEntity
  8
太線
100
AcDbCircle
 10
245.2133398340592
 20
216.5753432570838
 30
0.0
 40
0.5
100
AcDbArc
 50
0.0
 51
66.73017604155245
  0
LINE
  5
3474
330
1F
100
AcDbEntity
  8
細線
100
AcDbLine
 10
243.2133398340592
 20
214.898965670941
 30
0.0
 11
243.2133398340592
 21
208.898965670941
 31
0.0
  0
LINE
  5
3475
330
1F
100
AcDbEntity
  8
細線
100
AcDbLine
 10
239.2133398340593
 20
214.898965670941
 30
0.0
 11
239.2133398340593
 21
208.898965670941
 31
0.0
  0
LINE
  5
3476
330
1F
100
AcDbEntity
  8
太線
100
AcDbLine
 10
238.7133398340592
 20
209.398965670941
 30
0.0
 11
238.7133398340592
 21
214.898965670941
 31
0.0
  0
LINE
  5
3477
330
1F
100
AcDbEntity
  8
太線
100
AcDbLine
 10
243.7133398340593
 20
214.898965670941
 30
0.0
 11
243.7133398340593
 21
209.398965670941
 31
0.0
  0
LINE
  5
3478
330
1F
100
AcDbEntity
  8
太線
100
AcDbLine
 10
243.2133398340592
 20
208.898965670941
 30
0.0
 11
239.2133398340593
 21
208.898965670941
 31
0.0
  0
ARC
  5
3479
330
1F
100
AcDbEntity
  8
太線
100
AcDbCircle
 10
239.2133398340593
 20
209.398965670941
 30
0.0
 40
0.5
100
AcDbArc
 50
180.0
 51
270.0
  0
ARC
  5
347A
330
1F
100
AcDbEntity
  8
太線
100
AcDbCircle
 10
243.2133398340592
 20
209.398965670941
 30
0.0
 40
0.5
100
AcDbArc
 50
270.0000000000003
 51
0.0
  0
LINE
  5
347B
330
1F
100
AcDbEntity
  8
太線
100
AcDbLine
 10
245.7133398340593
 20
214.898965670941
 30
0.0
 11
243.7133398340593
 21
214.898965670941
 31
0.0
  0
LINE
  5
347C
330
1F
100
AcDbEntity
  8
太線
100
AcDbLine
 10
245.7133398340593
 20
216.5753432570838
 30
0.0
 11
245.7133398340593
 21
214.898965670941
 31
0.0
  0
LINE
  5
3506
330
1F
100
AcDbEntity
  8
太線
100
AcDbLine
 10
118.6203254593331
 20
252.9631221106467
 30
0.0
 11
88.62032545933312
 21
252.9631221106467
 31
0.0
  0
LINE
  5
3507
330
1F
100
AcDbEntity
  8
太線
100
AcDbLine
 10
88.62032545933312
 20
262.9631221106467
 30
0.0
 11
118.6203254593331
 21
262.9631221106467
 31
0.0
  0
CIRCLE
  5
3508
330
1F
100
AcDbEntity
  8
太線
100
AcDbCircle
 10
103.6203254593331
 20
281.1631221106467
 30
0.0
 40
28.5
  0
CIRCLE
  5
3509
330
1F
100
AcDbEntity
  8
太線
100
AcDbCircle
 10
103.6203254593331
 20
281.1631221106467
 30
0.0
 40
24.5
  0
DIMENSION
  5
350A
330
1F
100
AcDbEntity
  8
寸法線
100
AcDbDimension
  2
*D7
 10
132.063760277555
 20
234.9567548719558
 30
0.0
 11
103.6934648336044
 21
238.4567548719558
 31
0.0
 70
    32
  1
57
 71
     5
 42
56.74059088790113
  3
sunpo
100
AcDbAlignedDimension
 13
75.32316938965391
 23
276.4878613786279
 33
0.0
 14
132.063760277555
 24
276.4878613786279
 34
0.0
100
AcDbRotatedDimension
1001
ACAD
1000
DSTYLE
1002
{
1070
    40
1040
1.0
1002
}
  0
DIMENSION
  5
350B
330
1F
100
AcDbEntity
  8
寸法線
100
AcDbDimension
  2
*D8
 10
127.8158017292794
 20
317.7158213150042
 30
0.0
 11
103.5417521231623
 21
321.2158213150043
 31
0.0
 70
    32
  1
49.3
 71
     5
 42
48.54809921223409
  3
sunpo
100
AcDbAlignedDimension
 13
79.26770251704533
 23
280.1256230736526
 33
0.0
 14
127.8158017292794
 24
280.1256230736526
 34
0.0
100
AcDbRotatedDimension
1001
ACAD
1000
DSTYLE
1002
{
1070
    40
1040
1.0
1002
}
  0
LINE
  5
350C
330
1F
100
AcDbEntity
  8
太線
100
AcDbLine
 10
88.62032545933312
 20
252.9631221106467
 30
0.0
 11
88.62032545933312
 21
256.9298804785414
 31
0.0
  0
LINE
  5
350D
330
1F
100
AcDbEntity
  8
想像線
100
AcDbLine
 10
109.6203254593331
 20
262.9631221106467
 30
0.0
 11
109.6203254593331
 21
253.3018586791366
 31
0.0
  0
LINE
  5
350E
330
1F
100
AcDbEntity
  8
想像線
100
AcDbLine
 10
97.62032545933312
 20
262.9631221106467
 30
0.0
 11
97.62032545933312
 21
253.3018586791366
 31
0.0
  0
LINE
  5
350F
330
1F
100
AcDbEntity
  8
太線
100
AcDbLine
 10
88.62032545933312
 20
262.9631221106467
 30
0.0
 11
88.62032545933312
 21
261.7917514828362
 31
0.0
  0
LINE
  5
3510
330
1F
100
AcDbEntity
  8
太線
100
AcDbLine
 10
101.1203254593331
 20
309.5532612438034
 30
0.0
 11
101.1203254593331
 21
305.6631221106467
 31
0.0
  0
LINE
  5
3511
330
1F
100
AcDbEntity
  8
細線
100
AcDbLine
 10
101.6203254593331
 20
309.5928600623057
 30
0.0
 11
101.6203254593331
 21
305.6631221106467
 31
0.0
  0
LINE
  5
3512
330
1F
100
AcDbEntity
  8
太線
100
AcDbLine
 10
101.1203254593331
 20
305.6631221106467
 30
0.0
 11
101.1203254593331
 21
305.5352373245546
 31
0.0
  0
LINE
  5
3513
330
1F
100
AcDbEntity
  8
太線
100
AcDbLine
 10
106.1203254593331
 20
309.5532612438034
 30
0.0
 11
106.1203254593331
 21
305.6631221106467
 31
0.0
  0
LINE
  5
3514
330
1F
100
AcDbEntity
  8
細線
100
AcDbLine
 10
105.6203254593331
 20
309.5928600623057
 30
0.0
 11
105.6203254593331
 21
305.5813530047962
 31
0.0
  0
LINE
  5
3515
330
1F
100
AcDbEntity
  8
太線
100
AcDbLine
 10
106.1203254593331
 20
305.6631221106467
 30
0.0
 11
106.1203254593331
 21
305.5352373245546
 31
0.0
  0
ARC
  5
3516
330
1F
100
AcDbEntity
  8
太線
100
AcDbCircle
 10
102.9627985846807
 20
324.3631230195853
 30
0.0
 40
10.625
100
AcDbArc
 50
66.73017604155141
 51
113.2698239584485
  0
LINE
  5
3517
330
1F
100
AcDbEntity
  8
太線
100
AcDbLine
 10
100.4627985846807
 20
331.9881230195854
 30
0.0
 11
98.46279858468074
 21
331.9881230195854
 31
0.0
  0
ARC
  5
3518
330
1F
100
AcDbEntity
  8
太線
100
AcDbCircle
 10
98.96279858468075
 20
333.6645006057282
 30
0.0
 40
0.5
100
AcDbArc
 50
113.2698239584475
 51
180.0
  0
LINE
  5
3519
330
1F
100
AcDbEntity
  8
太線
100
AcDbLine
 10
98.46279858468074
 20
331.9881230195854
 30
0.0
 11
98.46279858468074
 21
333.6645006057282
 31
0.0
  0
ARC
  5
351A
330
1F
100
AcDbEntity
  8
太線
100
AcDbCircle
 10
106.9627985846807
 20
333.6645006057282
 30
0.0
 40
0.5
100
AcDbArc
 50
0.0
 51
66.73017604155245
  0
LINE
  5
351B
330
1F
100
AcDbEntity
  8
太線
100
AcDbLine
 10
107.4627985846807
 20
331.9881230195854
 30
0.0
 11
105.4627985846807
 21
331.9881230195854
 31
0.0
  0
LINE
  5
351C
330
1F
100
AcDbEntity
  8
細線
100
AcDbLine
 10
104.9627985846807
 20
331.9881230195854
 30
0.0
 11
104.9627985846807
 21
325.9881230195853
 31
0.0
  0
LINE
  5
351D
330
1F
100
AcDbEntity
  8
細線
100
AcDbLine
 10
100.9627985846807
 20
331.9881230195854
 30
0.0
 11
100.9627985846807
 21
325.9881230195853
 31
0.0
  0
LINE
  5
351E
330
1F
100
AcDbEntity
  8
太線
100
AcDbLine
 10
100.4627985846807
 20
326.4881230195853
 30
0.0
 11
100.4627985846807
 21
331.9881230195854
 31
0.0
  0
LINE
  5
351F
330
1F
100
AcDbEntity
  8
太線
100
AcDbLine
 10
105.4627985846807
 20
331.9881230195854
 30
0.0
 11
105.4627985846807
 21
326.4881230195853
 31
0.0
  0
LINE
  5
3520
330
1F
100
AcDbEntity
  8
太線
100
AcDbLine
 10
104.9627985846807
 20
325.9881230195853
 30
0.0
 11
100.9627985846807
 21
325.9881230195853
 31
0.0
  0
ARC
  5
3521
330
1F
100
AcDbEntity
  8
太線
100
AcDbCircle
 10
100.9627985846807
 20
326.4881230195853
 30
0.0
 40
0.5
100
AcDbArc
 50
180.0
 51
270.0
  0
ARC
  5
3522
330
1F
100
AcDbEntity
  8
太線
100
AcDbCircle
 10
104.9627985846807
 20
326.4881230195853
 30
0.0
 40
0.5
100
AcDbArc
 50
270.0000000000003
 51
0.0
  0
LINE
  5
3523
330
1F
100
AcDbEntity
  8
太線
100
AcDbLine
 10
107.4627985846807
 20
333.6645006057282
 30
0.0
 11
107.4627985846807
 21
331.9881230195854
 31
0.0
  0
LINE
  5
3524
330
1F
100
AcDbEntity
  8
太線
100
AcDbLine
 10
118.6203254593331
 20
256.9298804785414
 30
0.0
 11
118.6203254593331
 21
252.9631221106467
 31
0.0
  0
LINE
  5
3525
330
1F
100
AcDbEntity
  8
太線
100
AcDbLine
 10
118.6203254593331
 20
262.9631221106467
 30
0.0
 11
118.6203254593331
 21
261.7917514828362
 31
0.0
  0
ARC
  5
3550
330
1F
100
AcDbEntity
  8
太線
100
AcDbCircle
 10
357.1139908344248
 20
207.273965670941
 30
0.0
 40
10.625
100
AcDbArc
 50
66.73017604155141
 51
113.2698239584485
  0
ARC
  5
3551
330
1F
100
AcDbEntity
  8
太線
100
AcDbCircle
 10
359.1139908344248
 20
209.398965670941
 30
0.0
 40
0.5
100
AcDbArc
 50
270.0000000000003
 51
0.0
  0
LINE
  5
3552
330
1F
100
AcDbEntity
  8
太線
100
AcDbLine
 10
361.6139908344248
 20
214.898965670941
 30
0.0
 11
359.6139908344248
 21
214.898965670941
 31
0.0
  0
LINE
  5
3553
330
1F
100
AcDbEntity
  8
太線
100
AcDbLine
 10
277.1139908344248
 20
173.5536210066474
 30
0.0
 11
369.1139908344248
 21
173.5536210066474
 31
0.0
  0
LINE
  5
3554
330
1F
100
AcDbEntity
  8
太線
100
AcDbLine
 10
281.1139908344248
 20
198.0536210066475
 30
0.0
 11
369.1139908344248
 21
198.0536210066474
 31
0.0
  0
LINE
  5
3555
330
1F
100
AcDbEntity
  8
太線
100
AcDbLine
 10
368.6139908344248
 20
145.0536210066474
 30
0.0
 11
328.2015724305681
 21
145.0536210066474
 31
0.0
  0
LINE
  5
3556
330
1F
100
AcDbEntity
  8
太線
100
AcDbLine
 10
327.8372829451035
 20
202.0536210066474
 30
0.0
 11
368.6139908344248
 21
202.0536210066474
 31
0.0
  0
LINE
  5
3557
330
1F
100
AcDbEntity
  8
想像線
100
AcDbLine
 10
281.1139908344248
 20
155.3536210066474
 30
0.0
 11
307.1139908344248
 21
155.3536210066474
 31
0.0
  0
LINE
  5
3558
330
1F
100
AcDbEntity
  8
太線
100
AcDbLine
 10
318.2015724305681
 20
145.0536210066474
 30
0.0
 11
277.6139908344248
 21
145.0536210066474
 31
0.0
  0
LINE
  5
3559
330
1F
100
AcDbEntity
  8
太線
100
AcDbLine
 10
277.6139908344248
 20
202.0536210066474
 30
0.0
 11
318.5452779492616
 21
202.0536210066474
 31
0.0
  0
LINE
  5
355A
330
1F
100
AcDbEntity
  8
太線
100
AcDbLine
 10
281.1139908344248
 20
198.0536210066474
 30
0.0
 11
281.1139908344248
 21
173.5536210066474
 31
0.0
  0
LINE
  5
355B
330
1F
100
AcDbEntity
  8
太線
100
AcDbLine
 10
277.1139908344248
 20
145.5536210066474
 30
0.0
 11
277.1139908344248
 21
201.5536210066474
 31
0.0
  0
LINE
  5
355C
330
1F
100
AcDbEntity
  8
想像線
100
AcDbLine
 10
281.1139908344248
 20
155.3536210066474
 30
0.0
 11
281.1139908344248
 21
145.3536210066474
 31
0.0
  0
LINE
  5
355D
330
1F
100
AcDbEntity
  8
想像線
100
AcDbLine
 10
286.1139908344248
 20
155.3536210066474
 30
0.0
 11
286.1139908344248
 21
145.3536210066474
 31
0.0
  0
ARC
  5
355E
330
1F
100
AcDbEntity
  8
太線
100
AcDbCircle
 10
277.6139908344248
 20
145.5536210066474
 30
0.0
 40
0.5
100
AcDbArc
 50
180.0
 51
270.0
  0
LINE
  5
355F
330
1F
100
AcDbEntity
  8
想像線
100
AcDbLine
 10
281.1139908344248
 20
173.5536210066474
 30
0.0
 11
281.1139908344248
 21
155.3536210066474
 31
0.0
  0
ARC
  5
3560
330
1F
100
AcDbEntity
  8
太線
100
AcDbCircle
 10
277.6139908344248
 20
201.5536210066474
 30
0.0
 40
0.5
100
AcDbArc
 50
90.0
 51
180.0
  0
LINE
  5
3561
330
1F
100
AcDbEntity
  8
太線
100
AcDbLine
 10
328.2015724305681
 20
145.0536210066474
 30
0.0
 11
324.6398133338221
 21
145.0536210066474
 31
0.0
  0
LINE
  5
3562
330
1F
100
AcDbEntity
  8
想像線
100
AcDbLine
 10
298.1139908344248
 20
155.3536210066474
 30
0.0
 11
298.1139908344248
 21
145.3536210066474
 31
0.0
  0
LINE
  5
3563
330
1F
100
AcDbEntity
  8
想像線
100
AcDbLine
 10
307.1139908344248
 20
155.3536210066474
 30
0.0
 11
307.1139908344248
 21
145.3536210066474
 31
0.0
  0
LINE
  5
3564
330
1F
100
AcDbEntity
  8
太線
100
AcDbLine
 10
321.639813333822
 20
145.0536210066474
 30
0.0
 11
318.2015724305681
 21
145.0536210066474
 31
0.0
  0
LINE
  5
3565
330
1F
100
AcDbEntity
  8
太線
100
AcDbLine
 10
324.6398133338221
 20
145.0536210066474
 30
0.0
 11
321.639813333822
 21
145.0536210066474
 31
0.0
  0
LINE
  5
3566
330
1F
100
AcDbEntity
  8
太線
100
AcDbLine
 10
318.5452779492616
 20
202.0536210066474
 30
0.0
 11
327.8372829451035
 21
202.0536210066474
 31
0.0
  0
LINE
  5
3567
330
1F
100
AcDbEntity
  8
細線
100
AcDbLine
 10
355.1139908344248
 20
202.0536210066474
 30
0.0
 11
355.1139908344248
 21
198.0536210066474
 31
0.0
  0
LINE
  5
3568
330
1F
100
AcDbEntity
  8
太線
100
AcDbLine
 10
354.6139908344248
 20
202.0536210066474
 30
0.0
 11
354.6139908344248
 21
198.0536210066474
 31
0.0
  0
LINE
  5
3569
330
1F
100
AcDbEntity
  8
細線
100
AcDbLine
 10
359.1139908344248
 20
198.0536210066474
 30
0.0
 11
359.1139908344248
 21
202.0536210066474
 31
0.0
  0
LINE
  5
356A
330
1F
100
AcDbEntity
  8
太線
100
AcDbLine
 10
359.6139908344248
 20
202.0536210066474
 30
0.0
 11
359.6139908344248
 21
198.0536210066474
 31
0.0
  0
ARC
  5
356B
330
1F
100
AcDbEntity
  8
太線
100
AcDbCircle
 10
353.1139908344248
 20
216.5753432570838
 30
0.0
 40
0.5
100
AcDbArc
 50
113.2698239584475
 51
180.0
  0
LINE
  5
356C
330
1F
100
AcDbEntity
  8
細線
100
AcDbLine
 10
359.1139908344248
 20
214.898965670941
 30
0.0
 11
359.1139908344248
 21
208.898965670941
 31
0.0
  0
LINE
  5
356D
330
1F
100
AcDbEntity
  8
細線
100
AcDbLine
 10
355.1139908344248
 20
214.898965670941
 30
0.0
 11
355.1139908344248
 21
208.898965670941
 31
0.0
  0
LINE
  5
356E
330
1F
100
AcDbEntity
  8
太線
100
AcDbLine
 10
354.6139908344248
 20
209.398965670941
 30
0.0
 11
354.6139908344248
 21
214.898965670941
 31
0.0
  0
LINE
  5
356F
330
1F
100
AcDbEntity
  8
太線
100
AcDbLine
 10
359.6139908344248
 20
214.898965670941
 30
0.0
 11
359.6139908344248
 21
209.398965670941
 31
0.0
  0
LINE
  5
3570
330
1F
100
AcDbEntity
  8
太線
100
AcDbLine
 10
359.1139908344248
 20
208.898965670941
 30
0.0
 11
355.1139908344248
 21
208.898965670941
 31
0.0
  0
ARC
  5
3571
330
1F
100
AcDbEntity
  8
太線
100
AcDbCircle
 10
355.1139908344248
 20
209.398965670941
 30
0.0
 40
0.5
100
AcDbArc
 50
180.0
 51
270.0
  0
LINE
  5
3572
330
1F
100
AcDbEntity
  8
太線
100
AcDbLine
 10
354.6139908344248
 20
214.898965670941
 30
0.0
 11
352.6139908344248
 21
214.898965670941
 31
0.0
  0
LINE
  5
3573
330
1F
100
AcDbEntity
  8
太線
100
AcDbLine
 10
352.6139908344248
 20
214.898965670941
 30
0.0
 11
352.6139908344248
 21
216.5753432570838
 31
0.0
  0
LINE
  5
3574
330
1F
100
AcDbEntity
  8
太線
100
AcDbLine
 10
369.1139908344248
 20
198.0536210066474
 30
0.0
 11
369.1139908344248
 21
145.5536210066474
 31
0.0
  0
ARC
  5
3575
330
1F
100
AcDbEntity
  8
太線
100
AcDbCircle
 10
368.6139908344248
 20
145.5536210066474
 30
0.0
 40
0.5
100
AcDbArc
 50
270.0
 51
0.0
  0
LINE
  5
3576
330
1F
100
AcDbEntity
  8
太線
100
AcDbLine
 10
369.1139908344248
 20
201.5536210066474
 30
0.0
 11
369.1139908344248
 21
198.0536210066474
 31
0.0
  0
ARC
  5
3577
330
1F
100
AcDbEntity
  8
太線
100
AcDbCircle
 10
368.6139908344248
 20
201.5536210066474
 30
0.0
 40
0.5
100
AcDbArc
 50
0.0
 51
90.0
  0
ARC
  5
3578
330
1F
100
AcDbEntity
  8
太線
100
AcDbCircle
 10
361.1139908344248
 20
216.5753432570838
 30
0.0
 40
0.5
100
AcDbArc
 50
0.0
 51
66.73017604155245
  0
LINE
  5
3579
330
1F
100
AcDbEntity
  8
太線
100
AcDbLine
 10
361.6139908344248
 20
216.5753432570838
 30
0.0
 11
361.6139908344248
 21
214.898965670941
 31
0.0
  0
ARC
  5
35CB
330
1F
100
AcDbEntity
  8
太線
370
    25
100
AcDbCircle
 10
465.2386067323804
 20
269.4969555849784
 30
0.0
 40
29.92684640862699
100
AcDbArc
 50
246.469298145232
 51
109.6483671244479
  0
CIRCLE
  5
35CC
330
1F
100
AcDbEntity
  8
太線
370
    25
100
AcDbCircle
 10
465.2386067323804
 20
269.4969555849784
 30
0.0
 40
22.5
  0
LINE
  5
35CD
330
1F
100
AcDbEntity
  8
太線
370
    25
100
AcDbLine
 10
391.517064805414
 20
259.471799607272
 30
0.0
 11
458.9806293664537
 21
240.4546922228228
 31
0.0
  0
LINE
  5
35CE
330
1F
100
AcDbEntity
  8
太線
370
    25
100
AcDbLine
 10
391.9989464369996
 20
279.4517974636482
 30
0.0
 11
458.7396885506609
 21
298.7096274660793
 31
0.0
  0
DIMENSION
  5
35CF
330
1F
100
AcDbEntity
  8
寸法線
370
    25
100
AcDbDimension
  2
*D9
 10
465.2386067323799
 20
234.4819650112601
 30
0.0
 11
430.2386067323803
 21
236.3569650112601
 31
0.0
 70
    32
 71
     5
 42
69.9999999999992
  3
ISO-25
100
AcDbAlignedDimension
 13
395.2386067323807
 23
269.4969555849785
 33
0.0
 14
465.2386067323799
 24
269.4969555849778
 34
0.0
100
AcDbRotatedDimension
  0
DIMENSION
  5
35D0
330
1F
100
AcDbEntity
  8
寸法線
100
AcDbDimension
  2
*D10
 10
468.6889921176955
 20
264.8972446491906
 30
0.0
 11
439.2720766511246
 21
304.112953231952
 31
0.0
 70
   163
  1
30
 71
     5
 42
11.50000000000014
  3
sunpo
100
AcDbDiametricDimension
 15
461.7882213470656
 25
274.0966665207662
 35
0.0
 40
0.0
1001
ACAD
1000
DSTYLE
1002
{
1070
    40
1040
1.0
1070
   288
1070
     1
1002
}
  0
DIMENSION
  5
35D1
330
1F
100
AcDbEntity
  8
寸法線
370
    25
100
AcDbDimension
  2
*D11
 10
390.2049458270432
 20
267.2805941771567
 30
0.0
 11
413.3088195159772
 21
277.453415703741
 31
0.0
 70
   163
 71
     5
 42
11.00000000000028
  3
ISO-25
100
AcDbDiametricDimension
 15
400.2722676377175
 25
271.7133169928001
 35
0.0
 40
0.0
1001
ACAD
1000
DSTYLE
1002
{
1070
   288
1070
     1
1002
}
  0
DIMENSION
  5
35D2
330
1F
100
AcDbEntity
  8
寸法線
370
    25
100
AcDbDimension
  2
*D12
 10
395.2386067323804
 20
269.4969555849786
 30
0.0
 11
378.1788679197521
 21
279.0119705549478
 31
0.0
 70
    36
  1
10.5
 71
     5
 42
10.6936255167042
  3
ISO-25
100
AcDbRadialDimension
 15
385.4425304304784
 25
273.7853720501581
 35
0.0
 40
0.0
1001
ACAD
1000
DSTYLE
1002
{
1070
   288
1070
     1
1002
}
  0
CIRCLE
  5
35D3
330
1F
100
AcDbEntity
  8
太線
370
    25
100
AcDbCircle
 10
395.2386067323804
 20
269.4969555849784
 30
0.0
 40
5.5
  0
ARC
  5
35D4
330
1F
100
AcDbEntity
  8
太線
370
    25
100
AcDbCircle
 10
395.2386067323804
 20
269.4969555849784
 30
0.0
 40
10.69362551670436
100
AcDbArc
 50
94.16865786076614
 51
258.8810334751943
  0
ARC
  5
35D5
330
1F
100
AcDbEntity
  8
太線
370
    25
100
AcDbCircle
 10
395.2386067323804
 20
269.4969555849784
 30
0.0
 40
10.46872846427808
100
AcDbArc
 50
104.1639218140662
 51
108.0267342608357
  0
ARC
  5
35D6
330
1F
100
AcDbEntity
  8
太線
370
    25
100
AcDbCircle
 10
465.2386067323804
 20
269.4969555849784
 30
0.0
 40
30.0
100
AcDbArc
 50
104.6493206882395
 51
107.4628139467076
  0
CIRCLE
  5
35D7
330
1F
100
AcDbEntity
  8
太線
370
    25
100
AcDbCircle
 10
465.2386067323804
 20
269.4969555849784
 30
0.0
 40
5.75
  0
DIMENSION
  5
35D8
330
1F
100
AcDbEntity
  8
寸法線
370
    25
100
AcDbDimension
  2
*D13
 10
461.497283638058
 20
265.1306068238405
 30
0.0
 11
473.9272141231851
 21
282.5187499846084
 31
0.0
 70
    35
 71
     5
 42
11.50000000000017
  3
ISO-25
100
AcDbDiametricDimension
 15
468.9799298267029
 25
273.8633043461163
 35
0.0
 40
0.0
1001
ACAD
1000
DSTYLE
1002
{
1070
   288
1070
     1
1002
}
  0
DIMENSION
  5
36FC
330
1F
100
AcDbEntity
  8
寸法線
100
AcDbDimension
  2
*D14
 10
467.2132669122738
 20
27.69578179862969
 30
0.0
 11
480.8373861991183
 21
31.19578179862969
 31
0.0
 70
    32
  1
30
 71
     5
 42
27.24823857368892
  3
sunpo
100
AcDbAlignedDimension
 13
494.4615054859627
 23
35.13151618794245
 33
0.0
 14
467.2132669122738
 24
37.8464420347808
 34
0.0
100
AcDbRotatedDimension
1001
ACAD
1000
DSTYLE
1002
{
1070
    40
1040
1.0
1002
}
  0
DIMENSION
  5
36FD
330
1F
100
AcDbEntity
  8
寸法線
100
AcDbDimension
  2
*D15
 10
388.6852436397684
 20
37.13151618794279
 30
0.0
 11
385.1847515137842
 21
45.71386376329336
 31
0.0
 70
    32
 71
     5
 42
2.000000000000341
  3
sunpo
100
AcDbAlignedDimension
 13
396.572498420795
 23
35.13151618794245
 33
0.0
 14
396.9615054859628
 24
37.13151618794279
 34
0.0
 50
90.0
100
AcDbRotatedDimension
1001
ACAD
1000
DSTYLE
1002
{
1070
    40
1040
1.0
1002
}
  0
DIMENSION
  5
36FE
330
1F
100
AcDbEntity
  8
寸法線
100
AcDbDimension
  2
*D16
 10
407.133004780931
 20
27.69578179862969
 30
0.0
 11
437.1731358466024
 21
31.19578179862969
 31
0.0
 70
    32
  1
70
 71
     5
 42
60.0802621313428
  3
sunpo
100
AcDbAlignedDimension
 13
467.2132669122738
 23
37.8464420347808
 33
0.0
 14
407.133004780931
 24
30.210427066595
 34
0.0
100
AcDbRotatedDimension
1001
ACAD
1000
DSTYLE
1002
{
1070
    40
1040
1.0
1070
   279
1070
     1
1002
}
  0
TEXT
  5
36FF
330
1F
100
AcDbEntity
  8
文字
100
AcDbText
 10
438.0916784303249
 20
13.7703689461639
 30
0.0
 40
5.759999999999999
  1
15-1Ｒ500A(ｱﾝｶｰ）                                                                                                                                                                                 
 51
15.0
  7
OKANO
100
AcDbText
  0
DIMENSION
  5
3700
330
1F
100
AcDbEntity
  8
寸法線
100
AcDbDimension
  2
*D17
 10
397.0664000408319
 20
27.69578179862969
 30
0.0
 11
406.6997024108815
 21
19.19578179862969
 31
0.0
 70
    32
  1
10.5
 71
     5
 42
10.06660474009913
  3
sunpo
100
AcDbAlignedDimension
 13
407.133004780931
 23
30.210427066595
 33
0.0
 14
397.0664000408319
 24
30.56966267185703
 34
0.0
100
AcDbRotatedDimension
1001
ACAD
1000
DSTYLE
1002
{
1070
    40
1040
1.0
1070
   279
1070
     1
1002
}
  0
LINE
  5
3701
330
1F
100
AcDbEntity
  8
太線
100
AcDbLine
 10
461.8971162099823
 20
73.23656211417335
 30
0.0
 11
458.8971162099823
 21
73.23656211417335
 31
0.0
  0
LINE
  5
3702
330
1F
100
AcDbEntity
  8
太線
100
AcDbLine
 10
457.9073386403884
 20
72.61052041237497
 30
0.0
 11
475.9073386403883
 21
72.61052041237497
 31
0.0
  0
LINE
  5
3703
330
1F
100
AcDbEntity
  8
太線
100
AcDbLine
 10
461.9073386403884
 20
64.61052041237497
 30
0.0
 11
458.9073386403883
 21
63.61052041237497
 31
0.0
  0
LINE
  5
3704
330
1F
100
AcDbEntity
  8
太線
100
AcDbLine
 10
474.9073386403884
 20
56.79676402737665
 30
0.0
 11
458.9073386403883
 21
56.79676402737665
 31
0.0
  0
LINE
  5
3705
330
1F
100
AcDbEntity
  8
太線
100
AcDbLine
 10
474.9073386403884
 20
63.61052041237497
 30
0.0
 11
458.9073386403883
 21
63.61052041237497
 31
0.0
  0
LINE
  5
3706
330
1F
100
AcDbEntity
  8
破線
100
AcDbLine
 10
459.2132669122738
 20
45.8464420347808
 30
0.0
 11
461.2132669122738
 21
45.8464420347808
 31
0.0
  0
LINE
  5
3707
330
1F
100
AcDbEntity
  8
破線
100
AcDbLine
 10
462.2132669122739
 20
38.8464420347808
 30
0.0
 11
459.2132669122738
 21
37.8464420347808
 31
0.0
  0
LINE
  5
3708
330
1F
100
AcDbEntity
  8
破線
100
AcDbLine
 10
475.2132669122739
 20
37.8464420347808
 30
0.0
 11
459.2132669122738
 21
37.8464420347808
 31
0.0
  0
LINE
  5
3709
330
1F
100
AcDbEntity
  8
太線
370
    25
100
AcDbLine
 10
476.1746694699737
 20
49.13151618794245
 30
0.0
 11
457.7483415019518
 21
49.13151618794245
 31
0.0
  0
LINE
  5
370A
330
1F
100
AcDbEntity
  8
太線
100
AcDbLine
 10
476.4264308962848
 20
48.92555697526896
 30
0.0
 11
458.0001029282628
 21
48.92555697526893
 31
0.0
  0
LINE
  5
370B
330
1F
100
AcDbEntity
  8
太線
100
AcDbLine
 10
476.1205026243993
 20
48.79676402737667
 30
0.0
 11
457.6941746563774
 21
48.79676402737664
 31
0.0
  0
LINE
  5
370C
330
1F
100
AcDbEntity
  8
太線
370
    25
100
AcDbLine
 10
396.9615054859628
 20
35.13151618794245
 30
0.0
 11
494.4615054859627
 21
35.13151618794245
 31
0.0
  0
LINE
  5
370D
330
1F
100
AcDbEntity
  8
太線
370
    25
100
AcDbLine
 10
447.6746694699737
 20
37.13151618794245
 30
0.0
 11
396.9615054859628
 21
37.13151618794279
 31
0.0
  0
DIMENSION
  5
370E
330
1F
100
AcDbEntity
  8
寸法線
100
AcDbDimension
  2
*D18
 10
413.2038617592006
 20
49.00914267911094
 30
0.0
 11
407.636721567353
 21
52.50914267911094
 31
0.0
 70
    32
  1
11
 71
     5
 42
11.13428038369511
  3
sunpo
100
AcDbAlignedDimension
 13
402.0695813755055
 23
38.57606569887684
 33
0.0
 14
413.2038617592006
 24
39.271603458649
 34
0.0
100
AcDbRotatedDimension
1001
ACAD
1000
DSTYLE
1002
{
1070
    40
1040
1.0
1002
}
  0
ARC
  5
370F
330
1F
100
AcDbEntity
  8
太線
370
    25
100
AcDbCircle
 10
397.8555916901564
 20
36.13151618794245
 30
0.0
 40
1.0
100
AcDbArc
 50
90.0
 51
180.0
  0
LINE
  5
3710
330
1F
100
AcDbEntity
  8
太線
370
    25
100
AcDbLine
 10
396.572498420795
 20
36.13151618794245
 30
0.0
 11
396.572498420795
 21
35.13151618794245
 31
0.0
  0
LINE
  5
3711
330
1F
100
AcDbEntity
  8
太線
370
    25
100
AcDbLine
 10
401.9615054859627
 20
37.13151618794279
 30
0.0
 11
401.9615054859627
 21
35.13151618794245
 31
0.0
  0
LINE
  5
3712
330
1F
100
AcDbEntity
  8
太線
100
AcDbLine
 10
457.9073386403884
 20
64.61052041237497
 30
0.0
 11
457.9073386403884
 21
72.61052041237497
 31
0.0
  0
LINE
  5
3713
330
1F
100
AcDbEntity
  8
太線
370
    25
100
AcDbLine
 10
412.9615054859628
 20
37.13151618794268
 30
0.0
 11
412.9615054859628
 21
35.13151618794245
 31
0.0
  0
LINE
  5
3714
330
1F
100
AcDbEntity
  8
太線
100
AcDbLine
 10
457.9073386403884
 20
55.79676402737664
 30
0.0
 11
457.9073386403884
 21
48.79676402737664
 31
0.0
  0
LINE
  5
3715
330
1F
100
AcDbEntity
  8
破線
100
AcDbLine
 10
458.2132669122739
 20
38.8464420347808
 30
0.0
 11
458.2132669122739
 21
44.8464420347808
 31
0.0
  0
LINE
  5
3716
330
1F
100
AcDbEntity
  8
太線
370
    25
100
AcDbLine
 10
455.1104656023414
 20
47.56036563356474
 30
0.0
 11
450.312545369584
 21
38.70266674232016
 31
0.0
  0
ARC
  5
3717
330
1F
100
AcDbEntity
  8
太線
370
    25
100
AcDbCircle
 10
447.6746694699737
 20
40.13151618794245
 30
0.0
 40
3.0
100
AcDbArc
 50
270.0
 51
331.5570713756354
  0
ARC
  5
3718
330
1F
100
AcDbEntity
  8
破線
100
AcDbCircle
 10
459.2132669122738
 20
38.8464420347808
 30
0.0
 40
1.0
100
AcDbArc
 50
180.0
 51
270.0
  0
ARC
  5
3719
330
1F
100
AcDbEntity
  8
破線
100
AcDbCircle
 10
459.2132669122738
 20
44.8464420347808
 30
0.0
 40
1.0
100
AcDbArc
 50
90.0
 51
180.0
  0
ARC
  5
371A
330
1F
100
AcDbEntity
  8
太線
370
    25
100
AcDbCircle
 10
457.7483415019518
 20
46.13151618794245
 30
0.0
 40
3.0
100
AcDbArc
 50
90.0
 51
151.5570713756354
  0
ARC
  5
371B
330
1F
100
AcDbEntity
  8
太線
100
AcDbCircle
 10
458.9073386403883
 20
55.79676402737664
 30
0.0
 40
1.0
100
AcDbArc
 50
90.0
 51
180.0
  0
ARC
  5
371C
330
1F
100
AcDbEntity
  8
太線
100
AcDbCircle
 10
458.9073386403883
 20
64.61052041237497
 30
0.0
 40
1.0
100
AcDbArc
 50
180.0
 51
270.0
  0
ARC
  5
371D
330
1F
100
AcDbEntity
  8
太線
100
AcDbCircle
 10
458.8971162099823
 20
72.23656211417335
 30
0.0
 40
1.0
100
AcDbArc
 50
90.0
 51
180.0
  0
TEXT
  5
371E
330
1F
100
AcDbEntity
  8
文字
100
AcDbText
 10
440.1094391494441
 20
92.38216182069663
 30
0.0
 40
5.759999999999999
  1
M-12                                                                        
 51
15.0
  7
OKANO
100
AcDbText
  0
LINE
  5
371F
330
1F
100
AcDbEntity
  8
太線
100
AcDbLine
 10
472.9073386403883
 20
115.5895404653418
 30
0.0
 11
472.9073386403883
 21
56.79676402737665
 31
0.0
  0
LINE
  5
3720
330
1F
100
AcDbEntity
  8
細線
100
AcDbLine
 10
471.9073386403883
 20
117.1715397589376
 30
0.0
 11
471.9073386403883
 21
56.79676402737665
 31
0.0
  0
LINE
  5
3721
330
1F
100
AcDbEntity
  8
太線
100
AcDbLine
 10
460.9073386403884
 20
56.79676402737665
 30
0.0
 11
460.9073386403884
 21
115.5895404653418
 31
0.0
  0
LINE
  5
3722
330
1F
100
AcDbEntity
  8
細線
100
AcDbLine
 10
461.9073386403884
 20
117.1715397589376
 30
0.0
 11
461.9073386403884
 21
56.79676402737665
 31
0.0
  0
DIMENSION
  5
3723
330
1F
100
AcDbEntity
  8
寸法線
100
AcDbDimension
  2
*D19
 10
493.1013053689162
 20
117.1715397589376
 30
0.0
 11
489.6013053689162
 21
75.98415189315723
 31
0.0
 70
    32
  1
85
 71
     5
 42
82.37477573156104
  3
sunpo
100
AcDbAlignedDimension
 13
494.4073386403884
 23
34.79676402737664
 33
0.0
 14
471.9073386403883
 24
117.1715397589376
 34
0.0
 50
90.0
100
AcDbRotatedDimension
1001
ACAD
1000
DSTYLE
1002
{
1070
    40
1040
1.0
1002
}
  0
LINE
  5
3724
330
1F
100
AcDbEntity
  8
太線
100
AcDbLine
 10
475.9073386403883
 20
72.61052041237497
 30
0.0
 11
475.9073386403883
 21
64.61052041237497
 31
0.0
  0
LINE
  5
3725
330
1F
100
AcDbEntity
  8
太線
100
AcDbLine
 10
471.9073386403883
 20
72.61052041237499
 30
0.0
 11
471.9073386403883
 21
64.61052041237497
 31
0.0
  0
LINE
  5
3726
330
1F
100
AcDbEntity
  8
太線
100
AcDbLine
 10
461.9073386403884
 20
72.61052041237499
 30
0.0
 11
461.9073386403884
 21
64.61052041237497
 31
0.0
  0
LINE
  5
3727
330
1F
100
AcDbEntity
  8
太線
370
    25
100
AcDbLine
 10
493.4615054859627
 20
37.13151618794245
 30
0.0
 11
486.2483415019518
 21
37.13151618794245
 31
0.0
  0
LINE
  5
3728
330
1F
100
AcDbEntity
  8
太線
100
AcDbLine
 10
475.9073386403883
 20
55.79676402737664
 30
0.0
 11
475.9073386403883
 21
48.79676402737664
 31
0.0
  0
LINE
  5
3729
330
1F
100
AcDbEntity
  8
太線
100
AcDbLine
 10
471.9073386403883
 20
55.48326665124944
 30
0.0
 11
471.9073386403883
 21
48.79676402737664
 31
0.0
  0
LINE
  5
372A
330
1F
100
AcDbEntity
  8
太線
100
AcDbLine
 10
461.9073386403884
 20
55.28630137788009
 30
0.0
 11
461.9073386403884
 21
48.79676402737664
 31
0.0
  0
LINE
  5
372B
330
1F
100
AcDbEntity
  8
破線
100
AcDbLine
 10
473.2132669122738
 20
45.8464420347808
 30
0.0
 11
461.2132669122738
 21
45.8464420347808
 31
0.0
  0
LINE
  5
372C
330
1F
100
AcDbEntity
  8
破線
100
AcDbLine
 10
472.2132669122738
 20
38.8464420347808
 30
0.0
 11
475.2132669122739
 21
37.8464420347808
 31
0.0
  0
LINE
  5
372D
330
1F
100
AcDbEntity
  8
破線
100
AcDbLine
 10
472.2132669122738
 20
45.8464420347808
 30
0.0
 11
472.2132669122738
 21
38.8464420347808
 31
0.0
  0
LINE
  5
372E
330
1F
100
AcDbEntity
  8
破線
100
AcDbLine
 10
462.2132669122739
 20
45.8464420347808
 30
0.0
 11
462.2132669122739
 21
38.8464420347808
 31
0.0
  0
ARC
  5
372F
330
1F
100
AcDbEntity
  8
破線
100
AcDbCircle
 10
467.2132669122738
 20
50.84644203478086
 30
0.0
 40
13.00000000000004
100
AcDbArc
 50
247.3801350519612
 51
292.6198649480387
  0
LINE
  5
3730
330
1F
100
AcDbEntity
  8
破線
100
AcDbLine
 10
462.2132669122739
 20
48.92555697526893
 30
0.0
 11
462.2132669122739
 21
45.8464420347808
 31
0.0
  0
LINE
  5
3731
330
1F
100
AcDbEntity
  8
破線
100
AcDbLine
 10
461.2132669122738
 20
48.92555697526896
 30
0.0
 11
461.2132669122738
 21
45.8464420347808
 31
0.0
  0
LINE
  5
3732
330
1F
100
AcDbEntity
  8
破線
100
AcDbLine
 10
472.2132669122738
 20
48.92555697526893
 30
0.0
 11
472.2132669122738
 21
45.8464420347808
 31
0.0
  0
LINE
  5
3733
330
1F
100
AcDbEntity
  8
破線
100
AcDbLine
 10
476.2132669122738
 20
44.8464420347808
 30
0.0
 11
476.2132669122738
 21
38.8464420347808
 31
0.0
  0
LINE
  5
3734
330
1F
100
AcDbEntity
  8
太線
370
    25
100
AcDbLine
 10
483.6104656023414
 20
38.70266674232016
 30
0.0
 11
478.812545369584
 21
47.56036563356474
 31
0.0
  0
ARC
  5
3735
330
1F
100
AcDbEntity
  8
破線
100
AcDbCircle
 10
475.2132669122739
 20
38.8464420347808
 30
0.0
 40
1.0
100
AcDbArc
 50
270.0
 51
0.0
  0
ARC
  5
3736
330
1F
100
AcDbEntity
  8
太線
370
    25
100
AcDbCircle
 10
486.2483415019518
 20
40.13151618794245
 30
0.0
 40
3.0
100
AcDbArc
 50
208.4429286243645
 51
270.0
  0
ARC
  5
3737
330
1F
100
AcDbEntity
  8
太線
370
    25
100
AcDbCircle
 10
476.1746694699737
 20
46.13151618794245
 30
0.0
 40
3.0
100
AcDbArc
 50
28.44292862436454
 51
90.0
  0
LINE
  5
3738
330
1F
100
AcDbEntity
  8
破線
100
AcDbLine
 10
473.2132669122738
 20
48.92555697526896
 30
0.0
 11
473.2132669122738
 21
45.8464420347808
 31
0.0
  0
LINE
  5
3739
330
1F
100
AcDbEntity
  8
破線
100
AcDbLine
 10
473.2132669122738
 20
45.8464420347808
 30
0.0
 11
475.2132669122739
 21
45.8464420347808
 31
0.0
  0
ARC
  5
373A
330
1F
100
AcDbEntity
  8
破線
100
AcDbCircle
 10
475.2132669122739
 20
44.8464420347808
 30
0.0
 40
1.0
100
AcDbArc
 50
0.0
 51
90.0
  0
LINE
  5
373B
330
1F
100
AcDbEntity
  8
太線
100
AcDbLine
 10
471.7942823341423
 20
55.41682619836638
 30
0.0
 11
474.4120478292875
 21
56.95522357586879
 31
0.0
  0
LINE
  5
373C
330
1F
100
AcDbEntity
  8
太線
100
AcDbLine
 10
471.9073386403883
 20
64.61052041237497
 30
0.0
 11
474.9073386403884
 21
63.61052041237497
 31
0.0
  0
LINE
  5
373D
330
1F
100
AcDbEntity
  8
太線
100
AcDbLine
 10
459.6293687291763
 20
56.95522357586879
 30
0.0
 11
461.9391619812691
 21
55.26298646061605
 31
0.0
  0
LINE
  5
373E
330
1F
100
AcDbEntity
  8
太線
100
AcDbLine
 10
461.9391619812691
 20
55.26298646061605
 30
0.0
 11
465.9428039993494
 21
56.64754410036835
 31
0.0
  0
LINE
  5
373F
330
1F
100
AcDbEntity
  8
太線
100
AcDbLine
 10
469.3305015313248
 20
56.80138383811868
 30
0.0
 11
471.7942823341423
 21
55.41682619836638
 31
0.0
  0
ARC
  5
3740
330
1F
100
AcDbEntity
  8
太線
100
AcDbCircle
 10
466.9073386403884
 20
76.61052041237496
 30
0.0
 40
13.0
100
AcDbArc
 50
247.3801350519612
 51
292.6198649480387
  0
ARC
  5
3741
330
1F
100
AcDbEntity
  8
太線
100
AcDbCircle
 10
474.9073386403884
 20
55.79676402737664
 30
0.0
 40
1.0
100
AcDbArc
 50
0.0
 51
90.0
  0
ARC
  5
3742
330
1F
100
AcDbEntity
  8
太線
100
AcDbCircle
 10
474.9073386403884
 20
64.61052041237497
 30
0.0
 40
1.0
100
AcDbArc
 50
270.0
 51
0.0
  0
LINE
  5
3743
330
1F
100
AcDbEntity
  8
太線
370
    25
100
AcDbLine
 10
494.4615054859627
 20
35.13151618794245
 30
0.0
 11
494.4615054859627
 21
36.13151618794245
 31
0.0
  0
ARC
  5
3744
330
1F
100
AcDbEntity
  8
太線
370
    25
100
AcDbCircle
 10
493.4615054859627
 20
36.13151618794245
 30
0.0
 40
1.0
100
AcDbArc
 50
0.0
 51
90.0
  0
LINE
  5
3745
330
1F
100
AcDbEntity
  8
太線
100
AcDbLine
 10
472.8971162099822
 20
73.23656211417335
 30
0.0
 11
474.8971162099823
 21
73.23656211417335
 31
0.0
  0
LINE
  5
3746
330
1F
100
AcDbEntity
  8
太線
100
AcDbLine
 10
461.8971162099823
 20
73.23656211417335
 30
0.0
 11
472.8971162099822
 21
73.23656211417335
 31
0.0
  0
ARC
  5
3747
330
1F
100
AcDbEntity
  8
太線
100
AcDbCircle
 10
474.8971162099823
 20
72.23656211417335
 30
0.0
 40
1.0
100
AcDbArc
 50
0.0
 51
90.0
  0
LINE
  5
3748
330
1F
100
AcDbEntity
  8
太線
100
AcDbLine
 10
471.9073386403883
 20
117.1715397589376
 30
0.0
 11
472.9073386403883
 21
115.5895404653418
 31
0.0
  0
LINE
  5
3749
330
1F
100
AcDbEntity
  8
太線
100
AcDbLine
 10
460.9073386403884
 20
115.5895404653418
 30
0.0
 11
461.9073386403884
 21
117.1715397589376
 31
0.0
  0
LINE
  5
374A
330
1F
100
AcDbEntity
  8
太線
100
AcDbLine
 10
461.9073386403884
 20
117.1715397589376
 30
0.0
 11
471.9073386403883
 21
117.1715397589376
 31
0.0
  0
LINE
  5
37F8
330
1F
100
AcDbEntity
  8
太線
100
AcDbLine
 10
431.2545038854989
 20
202.0536210066474
 30
0.0
 11
390.4777959961775
 21
202.0536210066474
 31
0.0
  0
LINE
  5
37F9
330
1F
100
AcDbEntity
  8
太線
100
AcDbLine
 10
390.4777959961775
 20
145.0536210066474
 30
0.0
 11
430.8902144000342
 21
145.0536210066474
 31
0.0
  0
LINE
  5
37FA
330
1F
100
AcDbEntity
  8
太線
100
AcDbLine
 10
477.9777959961775
 20
198.0536210066475
 30
0.0
 11
389.9777959961775
 21
198.0536210066474
 31
0.0
  0
LINE
  5
37FB
330
1F
100
AcDbEntity
  8
太線
100
AcDbLine
 10
481.9777959961775
 20
173.5536210066474
 30
0.0
 11
389.9777959961775
 21
173.5536210066474
 31
0.0
  0
LINE
  5
37FC
330
1F
100
AcDbEntity
  8
太線
100
AcDbLine
 10
481.4777959961775
 20
202.0536210066474
 30
0.0
 11
440.5465088813407
 21
202.0536210066474
 31
0.0
  0
LINE
  5
37FD
330
1F
100
AcDbEntity
  8
太線
100
AcDbLine
 10
440.8902144000342
 20
145.0536210066474
 30
0.0
 11
481.4777959961775
 21
145.0536210066474
 31
0.0
  0
LINE
  5
37FE
330
1F
100
AcDbEntity
  8
想像線
100
AcDbLine
 10
477.9777959961775
 20
155.3536210066474
 30
0.0
 11
451.9777959961775
 21
155.3536210066474
 31
0.0
  0
LINE
  5
37FF
330
1F
100
AcDbEntity
  8
太線
100
AcDbLine
 10
481.9777959961775
 20
145.5536210066474
 30
0.0
 11
481.9777959961775
 21
201.5536210066474
 31
0.0
  0
LINE
  5
3800
330
1F
100
AcDbEntity
  8
太線
100
AcDbLine
 10
477.9777959961775
 20
198.0536210066474
 30
0.0
 11
477.9777959961775
 21
173.5536210066474
 31
0.0
  0
LINE
  5
3801
330
1F
100
AcDbEntity
  8
想像線
100
AcDbLine
 10
477.9777959961775
 20
155.3536210066474
 30
0.0
 11
477.9777959961775
 21
145.3536210066474
 31
0.0
  0
ARC
  5
3802
330
1F
100
AcDbEntity
  8
太線
100
AcDbCircle
 10
481.4777959961775
 20
145.5536210066474
 30
0.0
 40
0.5
100
AcDbArc
 50
270.0
 51
0.000000000000007
  0
LINE
  5
3803
330
1F
100
AcDbEntity
  8
想像線
100
AcDbLine
 10
477.9777959961775
 20
173.5536210066474
 30
0.0
 11
477.9777959961775
 21
155.3536210066474
 31
0.0
  0
ARC
  5
3804
330
1F
100
AcDbEntity
  8
太線
100
AcDbCircle
 10
481.4777959961775
 20
201.5536210066474
 30
0.0
 40
0.5
100
AcDbArc
 50
0.000000000000007
 51
90.0
  0
LINE
  5
3805
330
1F
100
AcDbEntity
  8
想像線
100
AcDbLine
 10
451.9777959961775
 20
155.3536210066474
 30
0.0
 11
451.9777959961775
 21
145.3536210066474
 31
0.0
  0
LINE
  5
3806
330
1F
100
AcDbEntity
  8
想像線
100
AcDbLine
 10
460.9777959961775
 20
155.3536210066474
 30
0.0
 11
460.9777959961775
 21
145.3536210066474
 31
0.0
  0
LINE
  5
3807
330
1F
100
AcDbEntity
  8
想像線
100
AcDbLine
 10
472.9777959961775
 20
155.3536210066474
 30
0.0
 11
472.9777959961775
 21
145.3536210066474
 31
0.0
  0
LINE
  5
3808
330
1F
100
AcDbEntity
  8
太線
100
AcDbLine
 10
434.4519734967803
 20
145.0536210066474
 30
0.0
 11
437.4519734967803
 21
145.0536210066474
 31
0.0
  0
LINE
  5
3809
330
1F
100
AcDbEntity
  8
太線
100
AcDbLine
 10
437.4519734967803
 20
145.0536210066474
 30
0.0
 11
440.8902144000342
 21
145.0536210066474
 31
0.0
  0
LINE
  5
380A
330
1F
100
AcDbEntity
  8
太線
100
AcDbLine
 10
430.8902144000342
 20
145.0536210066474
 30
0.0
 11
434.4519734967803
 21
145.0536210066474
 31
0.0
  0
LINE
  5
380B
330
1F
100
AcDbEntity
  8
太線
100
AcDbLine
 10
440.5465088813407
 20
202.0536210066474
 30
0.0
 11
431.2545038854989
 21
202.0536210066474
 31
0.0
  0
LINE
  5
380C
330
1F
100
AcDbEntity
  8
太線
100
AcDbLine
 10
389.9777959961775
 20
198.0536210066474
 30
0.0
 11
389.9777959961775
 21
145.5536210066474
 31
0.0
  0
ARC
  5
380D
330
1F
100
AcDbEntity
  8
太線
100
AcDbCircle
 10
390.4777959961775
 20
145.5536210066474
 30
0.0
 40
0.5
100
AcDbArc
 50
180.0
 51
270.0
  0
LINE
  5
380E
330
1F
100
AcDbEntity
  8
太線
100
AcDbLine
 10
404.4777959961775
 20
202.0536210066474
 30
0.0
 11
404.4777959961775
 21
198.0536210066474
 31
0.0
  0
LINE
  5
380F
330
1F
100
AcDbEntity
  8
細線
100
AcDbLine
 10
403.9777959961774
 20
202.0536210066474
 30
0.0
 11
403.9777959961774
 21
198.0536210066474
 31
0.0
  0
LINE
  5
3810
330
1F
100
AcDbEntity
  8
太線
100
AcDbLine
 10
399.4777959961775
 20
202.0536210066474
 30
0.0
 11
399.4777959961775
 21
198.0536210066474
 31
0.0
  0
LINE
  5
3811
330
1F
100
AcDbEntity
  8
細線
100
AcDbLine
 10
399.9777959961775
 20
198.0536210066474
 30
0.0
 11
399.9777959961775
 21
202.0536210066474
 31
0.0
  0
ARC
  5
3812
330
1F
100
AcDbEntity
  8
太線
100
AcDbCircle
 10
390.4777959961775
 20
201.5536210066474
 30
0.0
 40
0.5
100
AcDbArc
 50
90.0
 51
180.0
  0
LINE
  5
3813
330
1F
100
AcDbEntity
  8
太線
100
AcDbLine
 10
389.9777959961775
 20
201.5536210066474
 30
0.0
 11
389.9777959961775
 21
198.0536210066474
 31
0.0
  0
ARC
  5
3814
330
1F
100
AcDbEntity
  8
太線
100
AcDbCircle
 10
397.9777959961775
 20
216.5753432570838
 30
0.0
 40
0.5
100
AcDbArc
 50
113.2698239584475
 51
180.0
  0
ARC
  5
3815
330
1F
100
AcDbEntity
  8
太線
100
AcDbCircle
 10
405.9777959961775
 20
216.5753432570838
 30
0.0
 40
0.5
100
AcDbArc
 50
0.000000000000007
 51
66.73017604155245
  0
LINE
  5
3816
330
1F
100
AcDbEntity
  8
太線
100
AcDbLine
 10
399.9777959961775
 20
208.898965670941
 30
0.0
 11
403.9777959961774
 21
208.898965670941
 31
0.0
  0
LINE
  5
3817
330
1F
100
AcDbEntity
  8
太線
100
AcDbLine
 10
404.4777959961775
 20
209.398965670941
 30
0.0
 11
404.4777959961775
 21
214.898965670941
 31
0.0
  0
LINE
  5
3818
330
1F
100
AcDbEntity
  8
細線
100
AcDbLine
 10
403.9777959961774
 20
214.898965670941
 30
0.0
 11
403.9777959961774
 21
208.898965670941
 31
0.0
  0
ARC
  5
3819
330
1F
100
AcDbEntity
  8
太線
100
AcDbCircle
 10
403.9777959961774
 20
209.398965670941
 30
0.0
 40
0.5
100
AcDbArc
 50
270.0
 51
0.000000000000007
  0
LINE
  5
381A
330
1F
100
AcDbEntity
  8
太線
100
AcDbLine
 10
406.4777959961775
 20
214.898965670941
 30
0.0
 11
406.4777959961775
 21
216.5753432570838
 31
0.0
  0
LINE
  5
381B
330
1F
100
AcDbEntity
  8
太線
100
AcDbLine
 10
404.4777959961775
 20
214.898965670941
 30
0.0
 11
406.4777959961775
 21
214.898965670941
 31
0.0
  0
LINE
  5
381C
330
1F
100
AcDbEntity
  8
太線
100
AcDbLine
 10
399.4777959961775
 20
214.898965670941
 30
0.0
 11
399.4777959961775
 21
209.398965670941
 31
0.0
  0
LINE
  5
381D
330
1F
100
AcDbEntity
  8
細線
100
AcDbLine
 10
399.9777959961775
 20
214.898965670941
 30
0.0
 11
399.9777959961775
 21
208.898965670941
 31
0.0
  0
ARC
  5
381E
330
1F
100
AcDbEntity
  8
太線
100
AcDbCircle
 10
399.9777959961775
 20
209.398965670941
 30
0.0
 40
0.5
100
AcDbArc
 50
180.0
 51
269.9999999999996
  0
LINE
  5
381F
330
1F
100
AcDbEntity
  8
太線
100
AcDbLine
 10
397.4777959961775
 20
214.898965670941
 30
0.0
 11
399.4777959961775
 21
214.898965670941
 31
0.0
  0
LINE
  5
3820
330
1F
100
AcDbEntity
  8
太線
100
AcDbLine
 10
397.4777959961775
 20
216.5753432570838
 30
0.0
 11
397.4777959961775
 21
214.898965670941
 31
0.0
  0
ARC
  5
3821
330
1F
100
AcDbEntity
  8
太線
100
AcDbCircle
 10
401.9777959961775
 20
207.273965670941
 30
0.0
 40
10.625
100
AcDbArc
 50
66.73017604155145
 51
113.2698239584485
  0
TEXT
  5
38C5
330
1F
100
AcDbEntity
  8
文字
100
AcDbText
 10
142.2013925402661
 20
330.6816459838632
 30
0.0
 40
10.0
  1
14-1Ｒ65・14-1Ｒ100・15-1Ｒ500・15-1Ｒ500（ｱﾝｶｰ）
 51
15.0
  7
OKANO
100
AcDbText
  0
DIMENSION
  5
38C7
330
1F
100
AcDbEntity
  8
寸法線
100
AcDbDimension
  2
*D20
 10
318.4787695335483
 20
15.4157602164521
 30
0.0
 11
290.984126047341
 21
18.91576021645209
 31
0.0
 70
    32
  1
60
 71
     5
 42
54.98928697241445
  3
sunpo
100
AcDbAlignedDimension
 13
263.4894825611338
 23
29.94157639853643
 33
0.0
 14
318.4787695335483
 24
29.94157639853643
 34
0.0
100
AcDbRotatedDimension
1001
ACAD
1000
DSTYLE
1002
{
1070
    40
1040
1.0
1002
}
  0
TEXT
  5
3913
330
1F
100
AcDbEntity
  8
文字
100
AcDbText
 10
408.2313957923259
 20
-10.47808638048332
 30
0.0
 40
5.759999999999999
  1
水平調整30mmｱﾝｶｰ　500kタイプ                                                                                                                                      
 51
15.0
  7
OKANO
100
AcDbText
  0
LINE
  5
3A05
330
1F
100
AcDbEntity
  8
太線
100
AcDbLine
 10
113.7516992946326
 20
82.77718963191926
 30
0.0
 11
111.17299037285
 21
79.64342032908395
 31
0.0
  0
LINE
  5
3A06
330
1F
100
AcDbEntity
  8
太線
100
AcDbLine
 10
111.17299037285
 20
79.64342032908395
 30
0.0
 11
142.3776514493306
 21
58.97204412072435
 31
0.0
  0
ARC
  5
3A07
330
1F
100
AcDbEntity
  8
太線
100
AcDbCircle
 10
151.5088252525119
 20
41.52441269474343
 30
0.0
 40
31.50138819427047
100
AcDbArc
 50
150.3412279622814
 51
325.6270000397202
  0
ARC
  5
3A08
330
1F
100
AcDbEntity
  8
太線
100
AcDbCircle
 10
129.5297237388146
 20
76.14953468315015
 30
0.0
 40
18.68627562613751
100
AcDbArc
 50
169.2236388496545
 51
251.8562829536757
  0
ARC
  5
3A09
330
1F
100
AcDbEntity
  8
太線
100
AcDbCircle
 10
151.5088252525119
 20
41.52441269474343
 30
0.0
 40
44.43547654268127
100
AcDbArc
 50
147.2559511148464
 51
328.613167776323
  0
TEXT
  5
3A0B
330
1F
100
AcDbEntity
  8
文字
100
AcDbText
 10
37.31363860835176
 20
19.95483205903781
 30
0.0
 40
5.759999999999999
  1
14-1R65                                                                                                                 
 51
15.0
  7
OKANO
100
AcDbText
  0
ARC
  5
3A0C
330
1F
100
AcDbEntity
  8
太線
100
AcDbCircle
 10
32.87238663003153
 20
70.78989078858763
 30
0.0
 40
13.45021882309577
100
AcDbArc
 50
165.6038297236795
 51
257.5871520373368
  0
LINE
  5
3A0D
330
1F
100
AcDbEntity
  8
太線
100
AcDbLine
 10
21.12362910291173
 20
75.68840245625397
 30
0.0
 11
36.21540987594532
 21
65.91878216927068
 31
0.0
  0
LINE
  5
3A0E
330
1F
100
AcDbEntity
  8
太線
100
AcDbLine
 10
19.8445076139323
 20
74.1339533973079
 30
0.0
 11
35.32301013202785
 21
63.88029456379618
 31
0.0
  0
ARC
  5
3A0F
330
1F
100
AcDbEntity
  8
太線
100
AcDbCircle
 10
39.85236221693921
 20
55.22571548344848
 30
0.0
 40
18.08191140861927
100
AcDbArc
 50
159.0470096184017
 51
318.2895364935146
  0
ARC
  5
3A10
330
1F
100
AcDbEntity
  8
太線
100
AcDbCircle
 10
39.85236221693921
 20
55.22571548344848
 30
0.0
 40
25.0
100
AcDbArc
 50
144.6298252566882
 51
333.2031153831637
  0
LINE
  5
3A11
330
1F
100
AcDbEntity
  8
太線
100
AcDbLine
 10
21.12362910291173
 20
75.68840245625397
 30
0.0
 11
19.8445076139323
 21
74.1339533973079
 31
0.0
  0
LINE
  5
3A12
330
1F
100
AcDbEntity
  8
想像線
100
AcDbLine
 10
70.85236221693921
 20
124.2257154834484
 30
0.0
 11
70.85236221693921
 21
90.22571548344847
 31
0.0
  0
LINE
  5
3A13
330
1F
100
AcDbEntity
  8
想像線
100
AcDbLine
 10
60.85236221693921
 20
124.2257154834484
 30
0.0
 11
60.85236221693921
 21
90.22571548344847
 31
0.0
  0
LINE
  5
3A14
330
1F
100
AcDbEntity
  8
太線
100
AcDbLine
 10
59.85236221693921
 20
122.9250031066429
 30
0.0
 11
59.85236221693921
 21
90.22571548344847
 31
0.0
  0
LINE
  5
3A15
330
1F
100
AcDbEntity
  8
太線
100
AcDbLine
 10
71.85236221693921
 20
90.22571548344847
 30
0.0
 11
71.85236221693921
 21
122.9250031066429
 31
0.0
  0
LINE
  5
3A16
330
1F
100
AcDbEntity
  8
太線
100
AcDbLine
 10
70.85236221693921
 20
90.22571548344847
 30
0.0
 11
73.85236221693921
 21
90.22571548344847
 31
0.0
  0
ARC
  5
3A17
330
1F
100
AcDbEntity
  8
細線
100
AcDbCircle
 10
72.01342094164314
 20
85.33103350767936
 30
0.0
 40
1.040603392511691
100
AcDbArc
 50
207.0324924700556
 51
343.3477876073676
  0
LINE
  5
3A18
330
1F
100
AcDbEntity
  8
太線
100
AcDbLine
 10
83.8523622169392
 20
76.22571548344848
 30
0.0
 11
71.85236221693921
 21
76.22571548344848
 31
0.0
  0
LINE
  5
3A19
330
1F
100
AcDbEntity
  8
太線
100
AcDbLine
 10
74.85236221693921
 20
87.22571548344848
 30
0.0
 11
56.85236221693921
 21
87.22571548344848
 31
0.0
  0
LINE
  5
3A1A
330
1F
100
AcDbEntity
  8
太線
100
AcDbLine
 10
84.85236221693922
 20
80.22571548344847
 30
0.0
 11
50.85236221693918
 21
80.22571548344847
 31
0.0
  0
LINE
  5
3A1B
330
1F
100
AcDbEntity
  8
太線
100
AcDbLine
 10
81.85236221693921
 20
84.22571548344848
 30
0.0
 11
49.85236221693921
 21
84.22571548344848
 31
0.0
  0
LINE
  5
3A1C
330
1F
100
AcDbEntity
  8
細線
100
AcDbLine
 10
81.85236221693921
 20
85.22571548344847
 30
0.0
 11
49.85236221693921
 21
85.22571548344847
 31
0.0
  0
LINE
  5
3A1D
330
1F
100
AcDbEntity
  8
太線
100
AcDbLine
 10
49.85236221693918
 20
79.22571548344848
 30
0.0
 11
49.8523622169392
 21
60.57266828558311
 31
0.0
  0
ARC
  5
3A1E
330
1F
100
AcDbEntity
  8
太線
100
AcDbCircle
 10
39.61428273221938
 20
54.52294669413527
 30
0.0
 40
10.29441497526703
100
AcDbArc
 50
0.8334727907713087
 51
113.3327606800254
  0
LINE
  5
3A1F
330
1F
100
AcDbEntity
  8
太線
100
AcDbLine
 10
39.85236221693921
 20
82.22571548344848
 30
0.0
 11
35.79306963372808
 21
65.78419588440674
 31
0.0
  0
ARC
  5
3A20
330
1F
100
AcDbEntity
  8
太線
100
AcDbCircle
 10
39.61428273221938
 20
54.52294669413527
 30
0.0
 40
11.89190493022338
100
AcDbArc
 50
11.1477525919248
 51
108.7433120461435
  0
ARC
  5
3A21
330
1F
100
AcDbEntity
  8
太線
100
AcDbCircle
 10
39.85236221693921
 20
55.22571548344848
 30
0.0
 40
25.0
100
AcDbArc
 50
343.3433214437099
 51
27.82709275197293
  0
LINE
  5
3A22
330
1F
100
AcDbEntity
  8
太線
100
AcDbLine
 10
71.85236221693921
 20
76.22571548344848
 30
0.0
 11
51.2818096268944
 21
56.82212459754038
 31
0.0
  0
ARC
  5
3A23
330
1F
100
AcDbEntity
  8
太線
100
AcDbCircle
 10
56.31501545941171
 20
60.32076740814003
 30
0.0
 40
17.38078381997681
100
AcDbArc
 50
232.8302235075271
 51
298.8458786388136
  0
ARC
  5
3A24
330
1F
100
AcDbEntity
  8
太線
100
AcDbCircle
 10
39.61428273221938
 20
54.52294669413527
 30
0.0
 40
10.29441497526703
100
AcDbArc
 50
162.0781020914772
 51
307.7977419633966
  0
CIRCLE
  5
3A25
330
1F
100
AcDbEntity
  8
太線
100
AcDbCircle
 10
39.85236221693921
 20
55.22571548344848
 30
0.0
 40
2.198751160989681
  0
LINE
  5
3A26
330
1F
100
AcDbEntity
  8
太線
100
AcDbLine
 10
63.13195239808876
 20
46.11195221036939
 30
0.0
 11
64.70046512423846
 21
45.09658006971619
 31
0.0
  0
LINE
  5
3A27
330
1F
100
AcDbEntity
  8
太線
100
AcDbLine
 10
65.95071761531169
 20
46.66971739029628
 30
0.0
 11
64.70046512423848
 21
45.09658006971619
 31
0.0
  0
LINE
  5
3A28
330
1F
100
AcDbEntity
  8
太線
100
AcDbLine
 10
64.70046512423848
 20
45.09658006971619
 30
0.0
 11
49.907608522603
 21
54.67269266578611
 31
0.0
  0
LINE
  5
3A29
330
1F
100
AcDbEntity
  8
太線
100
AcDbLine
 10
50.86905644095417
 20
56.43278678457784
 30
0.0
 11
65.95071761531169
 21
46.66971739029628
 31
0.0
  0
ARC
  5
3A2A
330
1F
100
AcDbEntity
  8
太線
100
AcDbCircle
 10
39.85236221693921
 20
55.22571548344848
 30
0.0
 40
18.08191140861927
100
AcDbArc
 50
349.8589807309192
 51
21.64302890255008
  0
LINE
  5
3A2B
330
1F
100
AcDbEntity
  8
太線
100
AcDbLine
 10
51.33667372839477
 20
56.90403441085289
 30
0.0
 11
51.33667372839477
 21
56.11425049678667
 31
0.0
  0
LINE
  5
3A2C
330
1F
100
AcDbEntity
  8
太線
100
AcDbLine
 10
49.85236221693921
 20
84.22571548344848
 30
0.0
 11
46.85236221693921
 21
84.22571548344848
 31
0.0
  0
TEXT
  5
3A2D
330
1F
100
AcDbEntity
  8
文字
100
AcDbText
 10
33.22384805208798
 20
99.33989086171472
 30
0.0
 40
5.759999999999999
  1
M-12                          
 51
15.0
  7
OKANO
100
AcDbText
  0
ARC
  5
3A2E
330
1F
100
AcDbEntity
  8
太線
100
AcDbCircle
 10
39.85236221693921
 20
55.22571548344848
 30
0.0
 40
18.08191140861927
100
AcDbArc
 50
97.10360178722766
 51
124.3072527398773
  0
ARC
  5
3A2F
330
1F
100
AcDbEntity
  8
太線
100
AcDbCircle
 10
39.85236221693921
 20
55.22571548344848
 30
0.0
 40
25.0
100
AcDbArc
 50
91.13452041214289
 51
130.8229120270864
  0
LINE
  5
3A30
330
1F
100
AcDbEntity
  8
太線
100
AcDbLine
 10
46.85236221693921
 20
84.22571548344848
 30
0.0
 11
39.85236221693921
 21
82.22571548344848
 31
0.0
  0
LINE
  5
3A31
330
1F
100
AcDbEntity
  8
想像線
100
AcDbLine
 10
71.85236221693921
 20
90.22571548344847
 30
0.0
 11
71.85236221693921
 21
87.22571548344848
 31
0.0
  0
LINE
  5
3A32
330
1F
100
AcDbEntity
  8
太線
100
AcDbLine
 10
56.85236221693921
 20
89.22571548344848
 30
0.0
 11
56.85236221693921
 21
87.22571548344848
 31
0.0
  0
LINE
  5
3A33
330
1F
100
AcDbEntity
  8
想像線
100
AcDbLine
 10
59.85236221693921
 20
90.22571548344847
 30
0.0
 11
59.85236221693921
 21
87.22571548344848
 31
0.0
  0
LINE
  5
3A34
330
1F
100
AcDbEntity
  8
太線
100
AcDbLine
 10
60.81325189058407
 20
89.83295992824656
 30
0.0
 11
60.81325189058407
 21
87.16495168230705
 31
0.0
  0
ARC
  5
3A35
330
1F
100
AcDbEntity
  8
太線
100
AcDbCircle
 10
50.85236221693921
 20
86.22571548344849
 30
0.0
 40
1.0
100
AcDbArc
 50
90.0
 51
180.0
  0
TEXT
  5
3A36
330
1F
100
AcDbEntity
  8
文字
100
AcDbText
 10
52.91108429670817
 20
71.27787212321016
 30
0.0
 40
5.759999999999999
  1
65                                                                                                                 
 51
15.0
  7
OKANO
100
AcDbText
  0
ARC
  5
3A37
330
1F
100
AcDbEntity
  8
細線
100
AcDbCircle
 10
53.56002147492799
 20
85.33103350767936
 30
0.0
 40
1.040603392511691
100
AcDbArc
 50
207.0324924700556
 51
343.3477876073676
  0
LINE
  5
3A38
330
1F
100
AcDbEntity
  8
太線
100
AcDbLine
 10
56.85236221693921
 20
87.22571548344848
 30
0.0
 11
50.85236221693921
 21
87.22571548344848
 31
0.0
  0
LINE
  5
3A39
330
1F
100
AcDbEntity
  8
太線
100
AcDbLine
 10
49.85236221693921
 20
86.22571548344849
 30
0.0
 11
49.85236221693921
 21
84.22571548344848
 31
0.0
  0
ARC
  5
3A3A
330
1F
100
AcDbEntity
  8
太線
100
AcDbCircle
 10
50.85236221693918
 20
79.22571548344848
 30
0.0
 40
1.0
100
AcDbArc
 50
90.0
 51
180.0
  0
ARC
  5
3A3B
330
1F
100
AcDbEntity
  8
細線
100
AcDbCircle
 10
51.1056282868104
 20
85.33103350767936
 30
0.0
 40
1.040603392511691
100
AcDbArc
 50
207.0324924700556
 51
343.3477876073676
  0
ARC
  5
3A3C
330
1F
100
AcDbEntity
  8
細線
100
AcDbCircle
 10
56.46893185853205
 20
85.33103350767936
 30
0.0
 40
1.040603392511691
100
AcDbArc
 50
207.0324924700556
 51
343.3477876073676
  0
ARC
  5
3A3D
330
1F
100
AcDbEntity
  8
細線
100
AcDbCircle
 10
58.92332504664963
 20
85.33103350767936
 30
0.0
 40
1.040603392511691
100
AcDbArc
 50
207.0324924700556
 51
343.3477876073676
  0
ARC
  5
3A3E
330
1F
100
AcDbEntity
  8
細線
100
AcDbCircle
 10
67.01373179129072
 20
85.33103350767936
 30
0.0
 40
1.040603392511691
100
AcDbArc
 50
207.0324924700556
 51
343.3477876073676
  0
ARC
  5
3A3F
330
1F
100
AcDbEntity
  8
細線
100
AcDbCircle
 10
64.10482140768667
 20
85.33103350767936
 30
0.0
 40
1.040603392511691
100
AcDbArc
 50
207.0324924700556
 51
343.3477876073676
  0
ARC
  5
3A40
330
1F
100
AcDbEntity
  8
細線
100
AcDbCircle
 10
61.65042821956908
 20
85.33103350767936
 30
0.0
 40
1.040603392511691
100
AcDbArc
 50
207.0324924700556
 51
343.3477876073676
  0
ARC
  5
3A41
330
1F
100
AcDbEntity
  8
細線
100
AcDbCircle
 10
69.46812497940832
 20
85.33103350767936
 30
0.0
 40
1.040603392511691
100
AcDbArc
 50
207.0324924700556
 51
343.3477876073676
  0
LINE
  5
3A42
330
1F
100
AcDbEntity
  8
太線
100
AcDbLine
 10
70.85236221693921
 20
90.22571548344847
 30
0.0
 11
59.85236221693921
 21
90.22571548344847
 31
0.0
  0
ARC
  5
3A43
330
1F
100
AcDbEntity
  8
太線
100
AcDbCircle
 10
57.85236221693921
 20
89.22571548344848
 30
0.0
 40
1.0
100
AcDbArc
 50
90.0
 51
180.0
  0
LINE
  5
3A44
330
1F
100
AcDbEntity
  8
太線
100
AcDbLine
 10
59.85236221693921
 20
90.22571548344847
 30
0.0
 11
57.85236221693921
 21
90.22571548344847
 31
0.0
  0
LINE
  5
3A45
330
1F
100
AcDbEntity
  8
想像線
100
AcDbLine
 10
55.85236221693921
 20
100.2257154834484
 30
0.0
 11
55.85236221693921
 21
100.7257154834484
 31
0.0
  0
LINE
  5
3A46
330
1F
100
AcDbEntity
  8
太線
100
AcDbLine
 10
70.73230693120695
 20
89.83295992824656
 30
0.0
 11
70.73230693120695
 21
87.54609652293339
 31
0.0
  0
DIMENSION
  5
3A47
330
1F
100
AcDbEntity
  8
寸法線
100
AcDbDimension
  2
*D21
 10
94.51028958599977
 20
30.53745616355797
 30
0.0
 11
91.01028958599977
 21
60.74562514153286
 31
0.0
 70
    32
  1
85
 71
     5
 42
60.41633795594975
  3
sunpo
100
AcDbAlignedDimension
 13
75.59384861646799
 23
90.95379411950773
 33
0.0
 14
75.59384861646799
 24
30.53745616355797
 34
0.0
 50
90.0
100
AcDbRotatedDimension
1001
ACAD
1000
DSTYLE
1002
{
1070
    40
1040
1.0
1002
}
  0
ARC
  5
3A48
330
1F
100
AcDbEntity
  8
太線
100
AcDbCircle
 10
80.85236221693921
 20
86.22571548344849
 30
0.0
 40
1.0
100
AcDbArc
 50
0.0
 51
90.0
  0
LINE
  5
3A49
330
1F
100
AcDbEntity
  8
太線
100
AcDbLine
 10
74.85236221693921
 20
89.22571548344848
 30
0.0
 11
74.85236221693921
 21
87.22571548344848
 31
0.0
  0
ARC
  5
3A4A
330
1F
100
AcDbEntity
  8
太線
100
AcDbCircle
 10
83.8523622169392
 20
77.22571548344848
 30
0.0
 40
1.0
100
AcDbArc
 50
270.0
 51
0.0
  0
ARC
  5
3A4B
330
1F
100
AcDbEntity
  8
細線
100
AcDbCircle
 10
79.83111770148238
 20
85.33103350767936
 30
0.0
 40
1.040603392511691
100
AcDbArc
 50
207.0324924700556
 51
343.3477876073676
  0
LINE
  5
3A4C
330
1F
100
AcDbEntity
  8
太線
100
AcDbLine
 10
74.85236221693921
 20
87.22571548344848
 30
0.0
 11
80.85236221693921
 21
87.22571548344848
 31
0.0
  0
ARC
  5
3A4D
330
1F
100
AcDbEntity
  8
細線
100
AcDbCircle
 10
77.37672451336479
 20
85.33103350767936
 30
0.0
 40
1.040603392511691
100
AcDbArc
 50
207.0324924700556
 51
343.3477876073676
  0
ARC
  5
3A4E
330
1F
100
AcDbEntity
  8
細線
100
AcDbCircle
 10
74.46781412976074
 20
85.33103350767936
 30
0.0
 40
1.040603392511691
100
AcDbArc
 50
207.0324924700556
 51
343.3477876073676
  0
LINE
  5
3A4F
330
1F
100
AcDbEntity
  8
太線
100
AcDbLine
 10
84.85236221693922
 20
83.22571548344848
 30
0.0
 11
84.85236221693922
 21
77.22571548344848
 31
0.0
  0
ARC
  5
3A50
330
1F
100
AcDbEntity
  8
太線
100
AcDbCircle
 10
83.8523622169392
 20
83.22571548344848
 30
0.0
 40
1.0
100
AcDbArc
 50
0.0
 51
90.0
  0
LINE
  5
3A51
330
1F
100
AcDbEntity
  8
太線
100
AcDbLine
 10
81.85236221693921
 20
86.22571548344849
 30
0.0
 11
81.85236221693921
 21
84.22571548344848
 31
0.0
  0
LINE
  5
3A52
330
1F
100
AcDbEntity
  8
太線
100
AcDbLine
 10
81.85236221693921
 20
84.22571548344848
 30
0.0
 11
83.8523622169392
 21
84.22571548344848
 31
0.0
  0
ARC
  5
3A53
330
1F
100
AcDbEntity
  8
太線
100
AcDbCircle
 10
73.85236221693921
 20
89.22571548344848
 30
0.0
 40
1.0
100
AcDbArc
 50
0.0
 51
90.0
  0
LINE
  5
3A54
330
1F
100
AcDbEntity
  8
太線
100
AcDbLine
 10
60.85236221693921
 20
124.2257154834484
 30
0.0
 11
59.85236221693921
 21
122.9250031066429
 31
0.0
  0
LINE
  5
3A55
330
1F
100
AcDbEntity
  8
太線
100
AcDbLine
 10
70.85236221693921
 20
124.2257154834484
 30
0.0
 11
60.85236221693921
 21
124.2257154834484
 31
0.0
  0
LINE
  5
3A56
330
1F
100
AcDbEntity
  8
太線
100
AcDbLine
 10
71.85236221693921
 20
122.9250031066429
 30
0.0
 11
70.85236221693921
 21
124.2257154834484
 31
0.0
  0
ARC
  5
3A57
330
1F
100
AcDbEntity
  8
太線
100
AcDbCircle
 10
151.5088252525119
 20
41.52441269474343
 30
0.0
 40
31.50138819427047
100
AcDbArc
 50
353.6972897739831
 51
47.82454902256542
  0
ARC
  5
3A58
330
1F
100
AcDbEntity
  8
太線
100
AcDbCircle
 10
151.5088252525119
 20
41.52441269474343
 30
0.0
 40
44.43547654268127
100
AcDbArc
 50
345.5999998565997
 51
51.29053993726112
  0
ARC
  5
3A59
330
1F
100
AcDbEntity
  8
太線
100
AcDbCircle
 10
151.0492527044091
 20
41.98199974124668
 30
0.0
 40
16.79907253088356
100
AcDbArc
 50
171.1353013454614
 51
303.4277270929846
  0
CIRCLE
  5
3A5A
330
1F
100
AcDbEntity
  8
太線
100
AcDbCircle
 10
151.5088252525119
 20
41.52441269474343
 30
0.0
 40
4.432682340555196
  0
ARC
  5
3A5B
330
1F
100
AcDbEntity
  8
太線
100
AcDbCircle
 10
151.0288570113168
 20
40.10763081548799
 30
0.0
 40
20.75354059013834
100
AcDbArc
 50
0.8334727907713087
 51
113.3327606800254
  0
LINE
  5
3A5C
330
1F
100
AcDbEntity
  8
太線
100
AcDbLine
 10
173.7184808081261
 20
43.95786843782019
 30
0.0
 11
204.1231097356309
 21
24.2755205389486
 31
0.0
  0
ARC
  5
3A5D
330
1F
100
AcDbEntity
  8
太線
100
AcDbCircle
 10
151.5088252525119
 20
41.52441269474343
 30
0.0
 40
12.76811044127669
100
AcDbArc
 50
175.5347774827815
 51
298.4483388205487
  0
ARC
  5
3A5E
330
1F
100
AcDbEntity
  8
太線
100
AcDbCircle
 10
146.9683205393549
 20
65.38102460820062
 30
0.0
 40
24.28485361371379
100
AcDbArc
 50
196.7249933994304
 51
250.293628092508
  0
DIMENSION
  5
3A5F
330
1F
100
AcDbEntity
  8
寸法線
100
AcDbDimension
  2
*D22
 10
212.6534706541299
 20
-2.611440647178945
 30
0.0
 11
209.1534706541299
 21
53.11742331263642
 31
0.0
 70
    32
  1
135
 71
     5
 42
111.4577279196306
  3
sunpo
100
AcDbAlignedDimension
 13
186.06993607933
 23
108.8462872724517
 33
0.0
 14
186.06993607933
 24
-2.611440647178937
 34
0.0
 50
90.0
100
AcDbRotatedDimension
1001
ACAD
1000
DSTYLE
1002
{
1070
    40
1040
1.0
1002
}
  0
CIRCLE
  5
3A60
330
1F
100
AcDbEntity
  8
太線
100
AcDbCircle
 10
151.7469047372318
 20
42.22718148405664
 30
0.0
 40
2.198751160989681
  0
ARC
  5
3A62
330
1F
100
AcDbEntity
  8
太線
100
AcDbCircle
 10
173.7458511675543
 20
46.31136311010163
 30
0.0
 40
22.74643303521155
100
AcDbArc
 50
224.7480467826327
 51
279.2031384191455
  0
ARC
  5
3A63
330
1F
100
AcDbEntity
  8
太線
100
AcDbCircle
 10
191.3175334584479
 20
38.52612721735463
 30
0.0
 40
20.23142326911166
100
AcDbArc
 50
226.4713641225226
 51
300.5553783261789
  0
LINE
  5
3A64
330
1F
100
AcDbEntity
  8
太線
100
AcDbLine
 10
201.6026007136273
 20
21.10407570065913
 30
0.0
 11
171.7802018047301
 21
40.40951869433607
 31
0.0
  0
LINE
  5
3A65
330
1F
100
AcDbEntity
  8
太線
100
AcDbLine
 10
204.1231097356309
 20
24.2755205389486
 30
0.0
 11
201.6026007136273
 21
21.10407570065913
 31
0.0
  0
LINE
  5
3A66
330
1F
100
AcDbEntity
  8
太線
100
AcDbLine
 10
198.4404790577094
 20
23.15106593621595
 30
0.0
 11
201.6026007136273
 21
21.10407570065913
 31
0.0
  0
LINE
  5
3A67
330
1F
100
AcDbEntity
  8
太線
100
AcDbLine
 10
183.1001998685636
 20
108.1182086363924
 30
0.0
 11
183.1001998685636
 21
140.8174962595869
 31
0.0
  0
LINE
  5
3A68
330
1F
100
AcDbEntity
  8
太線
100
AcDbLine
 10
171.1001998685636
 20
140.8174962595869
 30
0.0
 11
171.1001998685636
 21
108.1182086363924
 31
0.0
  0
LINE
  5
3A69
330
1F
100
AcDbEntity
  8
想像線
100
AcDbLine
 10
172.1001998685636
 20
142.1182086363924
 30
0.0
 11
172.1001998685636
 21
108.1182086363924
 31
0.0
  0
LINE
  5
3A6A
330
1F
100
AcDbEntity
  8
想像線
100
AcDbLine
 10
182.1001998685636
 20
142.1182086363924
 30
0.0
 11
182.1001998685636
 21
108.1182086363924
 31
0.0
  0
TEXT
  5
3A6B
330
1F
100
AcDbEntity
  8
文字
100
AcDbText
 10
187.9757749356461
 20
123.273432302631
 30
0.0
 40
5.759999999999999
  1
M-12                          
 51
15.0
  7
OKANO
100
AcDbText
  0
LINE
  5
3A6C
330
1F
100
AcDbEntity
  8
太線
100
AcDbLine
 10
168.1001998685636
 20
104.5947356745001
 30
0.0
 11
162.1001998685636
 21
104.5947356745001
 31
0.0
  0
LINE
  5
3A6D
330
1F
100
AcDbEntity
  8
細線
100
AcDbLine
 10
193.1001998685636
 20
102.5947356745001
 30
0.0
 11
161.1001998685636
 21
102.5947356745001
 31
0.0
  0
LINE
  5
3A6E
330
1F
100
AcDbEntity
  8
太線
100
AcDbLine
 10
193.1001998685636
 20
101.5947356745001
 30
0.0
 11
161.1001998685636
 21
101.5947356745001
 31
0.0
  0
TEXT
  5
3A6F
330
1F
100
AcDbEntity
  8
文字
100
AcDbText
 10
153.3026097783545
 20
84.75351097800034
 30
0.0
 40
5.759999999999999
  1
100                       
 51
15.0
  7
OKANO
100
AcDbText
  0
ARC
  5
3A70
330
1F
100
AcDbEntity
  8
太線
100
AcDbCircle
 10
151.0288570113168
 20
40.10763081548799
 30
0.0
 40
23.97408033933034
100
AcDbArc
 50
11.1477525919248
 51
108.7433120461435
  0
LINE
  5
3A71
330
1F
100
AcDbEntity
  8
太線
100
AcDbLine
 10
151.6959557680863
 20
98.84039907654505
 30
0.0
 11
147.8737466802643
 21
63.87319007496159
 31
0.0
  0
ARC
  5
3A72
330
1F
100
AcDbEntity
  8
太線
100
AcDbCircle
 10
151.5088252525119
 20
41.52441269474343
 30
0.0
 40
44.43547654268127
100
AcDbArc
 50
91.57671050712171
 51
128.5662336141979
  0
ARC
  5
3A73
330
1F
100
AcDbEntity
  8
太線
100
AcDbCircle
 10
151.5088252525119
 20
41.52441269474343
 30
0.0
 40
31.50138819427047
100
AcDbArc
 50
94.81976617207925
 51
120.4689436968146
  0
LINE
  5
3A74
330
1F
100
AcDbEntity
  8
太線
100
AcDbLine
 10
113.7516992946326
 20
82.77718963191926
 30
0.0
 11
144.1767293330682
 21
63.08163513336094
 31
0.0
  0
LINE
  5
3A75
330
1F
100
AcDbEntity
  8
太線
100
AcDbLine
 10
163.3366361841515
 20
48.44318148389425
 30
0.0
 11
163.4525298666861
 21
49.15896556820064
 31
0.0
  0
LINE
  5
3A76
330
1F
100
AcDbEntity
  8
太線
100
AcDbLine
 10
158.1001998685636
 20
101.5947356745001
 30
0.0
 11
151.1001998685636
 21
99.59473567450011
 31
0.0
  0
ARC
  5
3A77
330
1F
100
AcDbEntity
  8
太線
100
AcDbCircle
 10
162.1001998685636
 20
103.5947356745001
 30
0.0
 40
1.0
100
AcDbArc
 50
90.0
 51
180.0
  0
LINE
  5
3A78
330
1F
100
AcDbEntity
  8
太線
100
AcDbLine
 10
161.1001998685636
 20
103.5947356745001
 30
0.0
 11
161.1001998685636
 21
101.5947356745001
 31
0.0
  0
ARC
  5
3A79
330
1F
100
AcDbEntity
  8
細線
100
AcDbCircle
 10
162.3534659384348
 20
102.7000536987309
 30
0.0
 40
1.040603392511691
100
AcDbArc
 50
207.0324924700556
 51
343.3477876073676
  0
LINE
  5
3A7A
330
1F
100
AcDbEntity
  8
太線
100
AcDbLine
 10
161.1001998685636
 20
101.5947356745001
 30
0.0
 11
158.1001998685636
 21
101.5947356745001
 31
0.0
  0
LINE
  5
3A7B
330
1F
100
AcDbEntity
  8
太線
100
AcDbLine
 10
187.2647018849502
 20
89.79474463683857
 30
0.0
 11
168.0448675015526
 21
56.99584904929972
 31
0.0
  0
LINE
  5
3A7C
330
1F
100
AcDbEntity
  8
太線
100
AcDbLine
 10
165.1266337504219
 20
59.49858796388608
 30
0.0
 11
170.4503861295206
 21
92.37921733389759
 31
0.0
  0
LINE
  5
3A7D
330
1F
100
AcDbEntity
  8
太線
100
AcDbLine
 10
174.6611972596063
 20
44.9079036523907
 30
0.0
 11
174.6611972596063
 21
43.31569928163318
 31
0.0
  0
ARC
  5
3A7E
330
1F
100
AcDbEntity
  8
細線
100
AcDbCircle
 10
188.6245621649892
 20
102.7000536987309
 30
0.0
 40
1.040603392511691
100
AcDbArc
 50
207.0324924700556
 51
343.3477876073676
  0
LINE
  5
3A7F
330
1F
100
AcDbEntity
  8
太線
100
AcDbLine
 10
186.1001998685636
 20
104.5947356745001
 30
0.0
 11
192.1001998685636
 21
104.5947356745001
 31
0.0
  0
LINE
  5
3A80
330
1F
100
AcDbEntity
  8
太線
100
AcDbLine
 10
187.2647018849502
 20
89.79474463683857
 30
0.0
 11
196.1001998685636
 21
94.59473567450009
 31
0.0
  0
LINE
  5
3A81
330
1F
100
AcDbEntity
  8
太線
100
AcDbLine
 10
170.4503861295206
 20
92.37921733389759
 30
0.0
 11
195.6718597626647
 21
94.31757185669175
 31
0.0
  0
LINE
  5
3A82
330
1F
100
AcDbEntity
  8
太線
100
AcDbLine
 10
186.1001998685636
 20
107.1182086363924
 30
0.0
 11
186.1001998685636
 21
105.1182086363924
 31
0.0
  0
LINE
  5
3A83
330
1F
100
AcDbEntity
  8
想像線
100
AcDbLine
 10
183.1001998685636
 20
108.1182086363924
 30
0.0
 11
183.1001998685636
 21
105.1182086363924
 31
0.0
  0
LINE
  5
3A84
330
1F
100
AcDbEntity
  8
太線
100
AcDbLine
 10
172.0610895422084
 20
107.7254530811905
 30
0.0
 11
172.0610895422084
 21
105.057444835251
 31
0.0
  0
LINE
  5
3A85
330
1F
100
AcDbEntity
  8
想像線
100
AcDbLine
 10
171.1001998685636
 20
108.1182086363924
 30
0.0
 11
171.1001998685636
 21
105.1182086363924
 31
0.0
  0
LINE
  5
3A86
330
1F
100
AcDbEntity
  8
太線
100
AcDbLine
 10
168.1001998685636
 20
107.1182086363924
 30
0.0
 11
168.1001998685636
 21
105.1182086363924
 31
0.0
  0
ARC
  5
3A87
330
1F
100
AcDbEntity
  8
細線
100
AcDbCircle
 10
175.3526590593111
 20
102.7000536987309
 30
0.0
 40
1.040603392511691
100
AcDbArc
 50
207.0324924700556
 51
343.3477876073676
  0
LINE
  5
3A88
330
1F
100
AcDbEntity
  8
太線
100
AcDbLine
 10
186.1001998685636
 20
104.5947356745001
 30
0.0
 11
168.1001998685636
 21
104.5947356745001
 31
0.0
  0
ARC
  5
3A89
330
1F
100
AcDbEntity
  8
細線
100
AcDbCircle
 10
170.171162698274
 20
102.7000536987309
 30
0.0
 40
1.040603392511691
100
AcDbArc
 50
207.0324924700556
 51
343.3477876073676
  0
ARC
  5
3A8A
330
1F
100
AcDbEntity
  8
細線
100
AcDbCircle
 10
167.7167695101565
 20
102.7000536987309
 30
0.0
 40
1.040603392511691
100
AcDbArc
 50
207.0324924700556
 51
343.3477876073676
  0
ARC
  5
3A8B
330
1F
100
AcDbEntity
  8
細線
100
AcDbCircle
 10
164.8078591265524
 20
102.7000536987309
 30
0.0
 40
1.040603392511691
100
AcDbArc
 50
207.0324924700556
 51
343.3477876073676
  0
ARC
  5
3A8C
330
1F
100
AcDbEntity
  8
細線
100
AcDbCircle
 10
172.8982658711935
 20
102.7000536987309
 30
0.0
 40
1.040603392511691
100
AcDbArc
 50
207.0324924700556
 51
343.3477876073676
  0
ARC
  5
3A8D
330
1F
100
AcDbEntity
  8
細線
100
AcDbCircle
 10
183.2612585932676
 20
102.7000536987309
 30
0.0
 40
1.040603392511691
100
AcDbArc
 50
207.0324924700556
 51
343.3477876073676
  0
ARC
  5
3A8E
330
1F
100
AcDbEntity
  8
細線
100
AcDbCircle
 10
180.7159626310327
 20
102.7000536987309
 30
0.0
 40
1.040603392511691
100
AcDbArc
 50
207.0324924700556
 51
343.3477876073676
  0
ARC
  5
3A8F
330
1F
100
AcDbEntity
  8
細線
100
AcDbCircle
 10
178.2615694429151
 20
102.7000536987309
 30
0.0
 40
1.040603392511691
100
AcDbArc
 50
207.0324924700556
 51
343.3477876073676
  0
ARC
  5
3A90
330
1F
100
AcDbEntity
  8
細線
100
AcDbCircle
 10
185.7156517813851
 20
102.7000536987309
 30
0.0
 40
1.040603392511691
100
AcDbArc
 50
207.0324924700556
 51
343.3477876073676
  0
LINE
  5
3A91
330
1F
100
AcDbEntity
  8
太線
100
AcDbLine
 10
182.1001998685636
 20
108.1182086363924
 30
0.0
 11
171.1001998685636
 21
108.1182086363924
 31
0.0
  0
LINE
  5
3A92
330
1F
100
AcDbEntity
  8
太線
100
AcDbLine
 10
171.1001998685636
 20
108.1182086363924
 30
0.0
 11
169.1001998685636
 21
108.1182086363924
 31
0.0
  0
ARC
  5
3A93
330
1F
100
AcDbEntity
  8
太線
100
AcDbCircle
 10
169.1001998685636
 20
107.1182086363924
 30
0.0
 40
1.0
100
AcDbArc
 50
90.0
 51
180.0
  0
LINE
  5
3A94
330
1F
100
AcDbEntity
  8
想像線
100
AcDbLine
 10
167.1001998685636
 20
118.1182086363924
 30
0.0
 11
167.1001998685636
 21
118.6182086363924
 31
0.0
  0
LINE
  5
3A95
330
1F
100
AcDbEntity
  8
太線
100
AcDbLine
 10
182.1001998685636
 20
108.1182086363924
 30
0.0
 11
185.1001998685636
 21
108.1182086363924
 31
0.0
  0
LINE
  5
3A96
330
1F
100
AcDbEntity
  8
太線
100
AcDbLine
 10
181.9801445828313
 20
107.7254530811905
 30
0.0
 11
181.9801445828313
 21
105.4385896758773
 31
0.0
  0
ARC
  5
3A97
330
1F
100
AcDbEntity
  8
太線
100
AcDbCircle
 10
185.1001998685636
 20
107.1182086363924
 30
0.0
 40
1.0
100
AcDbArc
 50
0.0
 51
90.0
  0
LINE
  5
3A98
330
1F
100
AcDbEntity
  8
太線
100
AcDbLine
 10
196.1001998685636
 20
100.5947356745001
 30
0.0
 11
196.1001998685636
 21
94.59473567450009
 31
0.0
  0
LINE
  5
3A99
330
1F
100
AcDbEntity
  8
太線
100
AcDbLine
 10
193.1001998685636
 20
101.5947356745001
 30
0.0
 11
195.1001998685636
 21
101.5947356745001
 31
0.0
  0
LINE
  5
3A9A
330
1F
100
AcDbEntity
  8
太線
100
AcDbLine
 10
193.1001998685636
 20
103.5947356745001
 30
0.0
 11
193.1001998685636
 21
101.5947356745001
 31
0.0
  0
ARC
  5
3A9B
330
1F
100
AcDbEntity
  8
太線
100
AcDbCircle
 10
192.1001998685636
 20
103.5947356745001
 30
0.0
 40
1.0
100
AcDbArc
 50
0.0
 51
90.0
  0
ARC
  5
3A9C
330
1F
100
AcDbEntity
  8
細線
100
AcDbCircle
 10
191.0789553531068
 20
102.7000536987309
 30
0.0
 40
1.040603392511691
100
AcDbArc
 50
207.0324924700556
 51
343.3477876073676
  0
ARC
  5
3A9D
330
1F
100
AcDbEntity
  8
太線
100
AcDbCircle
 10
195.1001998685636
 20
100.5947356745001
 30
0.0
 40
1.0
100
AcDbArc
 50
0.0
 51
90.0
  0
LINE
  5
3A9E
330
1F
100
AcDbEntity
  8
太線
100
AcDbLine
 10
182.1001998685636
 20
142.1182086363924
 30
0.0
 11
172.1001998685636
 21
142.1182086363924
 31
0.0
  0
LINE
  5
3A9F
330
1F
100
AcDbEntity
  8
太線
100
AcDbLine
 10
172.1001998685636
 20
142.1182086363924
 30
0.0
 11
171.1001998685636
 21
140.8174962595869
 31
0.0
  0
LINE
  5
3AA0
330
1F
100
AcDbEntity
  8
太線
100
AcDbLine
 10
183.1001998685636
 20
140.8174962595869
 30
0.0
 11
182.1001998685636
 21
142.1182086363924
 31
0.0
  0
DIMENSION
  5
3AE5
330
1F
100
AcDbEntity
  8
寸法線
100
AcDbDimension
  2
*D23
 10
368.9126969935077
 20
128.7976929665554
 30
0.0
 11
337.8314981848154
 21
132.2976929665554
 31
0.0
 70
    32
  1
50
 71
     5
 42
62.16239761738461
  3
sunpo
100
AcDbAlignedDimension
 13
306.7502993761231
 23
145.4092768469883
 33
0.0
 14
368.9126969935077
 24
144.6870333623638
 34
0.0
100
AcDbRotatedDimension
1001
ACAD
1000
DSTYLE
1002
{
1070
    40
1040
1.0
1002
}
  0
ARC
  5
3B2D
330
1F
100
AcDbEntity
  8
太線
100
AcDbCircle
 10
298.8693162708547
 20
80.9930609880007
 30
0.0
 40
1.0
100
AcDbArc
 50
0.0
 51
90.0
  0
ARC
  5
3B2E
330
1F
100
AcDbEntity
  8
太線
100
AcDbCircle
 10
298.8795387012608
 20
73.36701928620232
 30
0.0
 40
1.0
100
AcDbArc
 50
270.0
 51
0.0
  0
LINE
  5
3B2F
330
1F
100
AcDbEntity
  8
太線
100
AcDbLine
 10
281.8795387012607
 20
81.36701928620231
 30
0.0
 11
299.8795387012608
 21
81.36701928620231
 31
0.0
  0
LINE
  5
3B30
330
1F
100
AcDbEntity
  8
太線
100
AcDbLine
 10
285.8693162708547
 20
81.9930609880007
 30
0.0
 11
296.8693162708547
 21
81.9930609880007
 31
0.0
  0
ARC
  5
3B31
330
1F
100
AcDbEntity
  8
太線
100
AcDbCircle
 10
290.8795387012608
 20
85.36701928620232
 30
0.0
 40
13.0
100
AcDbArc
 50
247.3801350519612
 51
292.6198649480387
  0
LINE
  5
3B32
330
1F
100
AcDbEntity
  8
太線
100
AcDbLine
 10
298.8795387012608
 20
72.36701928620232
 30
0.0
 11
282.8795387012608
 21
72.36701928620232
 31
0.0
  0
LINE
  5
3B33
330
1F
100
AcDbEntity
  8
太線
100
AcDbLine
 10
285.8795387012607
 20
81.36701928620235
 30
0.0
 11
285.8795387012607
 21
73.36701928620232
 31
0.0
  0
LINE
  5
3B34
330
1F
100
AcDbEntity
  8
太線
100
AcDbLine
 10
281.8795387012607
 20
73.36701928620232
 30
0.0
 11
281.8795387012607
 21
81.36701928620231
 31
0.0
  0
LINE
  5
3B35
330
1F
100
AcDbEntity
  8
太線
100
AcDbLine
 10
285.8795387012607
 20
73.36701928620232
 30
0.0
 11
282.8795387012608
 21
72.36701928620232
 31
0.0
  0
ARC
  5
3B36
330
1F
100
AcDbEntity
  8
太線
100
AcDbCircle
 10
282.8795387012608
 20
73.36701928620232
 30
0.0
 40
1.0
100
AcDbArc
 50
180.0
 51
270.0
  0
LINE
  5
3B37
330
1F
100
AcDbEntity
  8
太線
100
AcDbLine
 10
285.8693162708547
 20
81.9930609880007
 30
0.0
 11
282.8693162708546
 21
81.9930609880007
 31
0.0
  0
ARC
  5
3B38
330
1F
100
AcDbEntity
  8
太線
100
AcDbCircle
 10
282.8693162708546
 20
80.9930609880007
 30
0.0
 40
1.0
100
AcDbArc
 50
90.0
 51
180.0
  0
LINE
  5
3B39
330
1F
100
AcDbEntity
  8
太線
100
AcDbLine
 10
295.8795387012608
 20
81.36701928620235
 30
0.0
 11
295.8795387012608
 21
73.36701928620232
 31
0.0
  0
LINE
  5
3B3A
330
1F
100
AcDbEntity
  8
太線
100
AcDbLine
 10
295.8795387012608
 20
73.36701928620232
 30
0.0
 11
298.8795387012608
 21
72.36701928620232
 31
0.0
  0
LINE
  5
3B3B
330
1F
100
AcDbEntity
  8
太線
100
AcDbLine
 10
296.8693162708547
 20
81.9930609880007
 30
0.0
 11
298.8693162708547
 21
81.9930609880007
 31
0.0
  0
LINE
  5
3B3C
330
1F
100
AcDbEntity
  8
太線
100
AcDbLine
 10
299.8795387012608
 20
81.36701928620231
 30
0.0
 11
299.8795387012608
 21
73.36701928620232
 31
0.0
  0
LINE
  5
3B3D
330
1F
100
AcDbEntity
  8
太線
100
AcDbLine
 10
296.8795387012608
 20
72.36701928620232
 30
0.0
 11
296.8795387012608
 21
61.53265748836327
 31
0.0
  0
LINE
  5
3B3E
330
1F
100
AcDbEntity
  8
細線
100
AcDbLine
 10
295.8795387012608
 20
72.36701928620232
 30
0.0
 11
295.8795387012608
 21
61.53265748836328
 31
0.0
  0
LINE
  5
3B3F
330
1F
100
AcDbEntity
  8
細線
100
AcDbLine
 10
285.8795387012607
 20
72.36701928620232
 30
0.0
 11
285.8795387012607
 21
61.53265748836328
 31
0.0
  0
LINE
  5
3B40
330
1F
100
AcDbEntity
  8
太線
100
AcDbLine
 10
284.8795387012608
 20
81.9930609880007
 30
0.0
 11
284.8795387012608
 21
110.5044089621736
 31
0.0
  0
DIMENSION
  5
3B41
330
1F
100
AcDbEntity
  8
寸法線
100
AcDbDimension
  2
*D24
 10
255.0170941426086
 20
61.53265748836328
 30
0.0
 11
251.5170941426085
 21
45.62214500628589
 31
0.0
 70
    32
  1
40
 71
     5
 42
31.82102496415485
  3
sunpo
100
AcDbAlignedDimension
 13
263.3795387012607
 23
29.71163252420842
 33
0.0
 14
282.8693162708546
 24
61.53265748836327
 34
0.0
 50
90.0
100
AcDbRotatedDimension
1001
ACAD
1000
DSTYLE
1002
{
1070
    40
1040
1.0
1002
}
  0
CIRCLE
  5
3B82
330
1F
100
AcDbEntity
  8
太線
370
    25
100
AcDbCircle
 10
297.8770742270293
 20
268.6100648377371
 30
0.0
 40
5.75
  0
DIMENSION
  5
3B83
330
1F
100
AcDbEntity
  8
寸法線
370
    25
100
AcDbDimension
  2
*D25
 10
294.1357511327071
 20
264.2437160765992
 30
0.0
 11
306.5656816178338
 21
281.631859237367
 31
0.0
 70
    35
 71
     5
 42
11.49999999999988
  3
ISO-25
100
AcDbDiametricDimension
 15
301.6183973213517
 25
272.9764135988749
 35
0.0
 40
0.0
1001
ACAD
1000
DSTYLE
1002
{
1070
   288
1070
     1
1002
}
  0
CIRCLE
  5
3B84
330
1F
100
AcDbEntity
  8
太線
370
    25
100
AcDbCircle
 10
297.8770742270293
 20
268.6100648377371
 30
0.0
 40
22.5
  0
CIRCLE
  5
3B85
330
1F
100
AcDbEntity
  8
太線
370
    25
100
AcDbCircle
 10
297.8770742270293
 20
268.6100648377371
 30
0.0
 40
30.0
  0
DIMENSION
  5
3B86
330
1F
100
AcDbEntity
  8
寸法線
370
    25
100
AcDbDimension
  2
*D26
 10
276.5884140588567
 20
261.3270058482694
 30
0.0
 11
338.648545600742
 21
282.5583842132363
 31
0.0
 70
   163
 71
     5
 42
45.00000000000016
  3
ISO-25
100
AcDbDiametricDimension
 15
319.1657343952019
 25
275.8931238272046
 35
0.0
 40
0.0
1001
ACAD
1000
DSTYLE
1002
{
1070
   288
1070
     1
1002
}
  0
DIMENSION
  5
3B87
330
1F
100
AcDbEntity
  8
寸法線
370
    25
100
AcDbDimension
  2
*D27
 10
268.7615091994986
 20
275.8408236587486
 30
0.0
 11
341.494808701495
 21
257.7777379361106
 31
0.0
 70
   163
 71
     5
 42
60.00000000000008
  3
ISO-25
100
AcDbDiametricDimension
 15
326.9926392545599
 25
261.3793060167257
 35
0.0
 40
0.0
1001
ACAD
1000
DSTYLE
1002
{
1070
   288
1070
     1
1002
}
  0
TEXT
  5
3BC8
330
1F
100
AcDbEntity
  8
文字
100
AcDbText
 10
57.12655974021209
 20
-56.83017886628113
 30
0.0
 40
10.0
  1
注意　本体仮穴よりドリルビス等で補強をして下さい
 51
15.0
  7
OKANO
100
AcDbText
  0
TEXT
  5
3BC9
330
1F
100
AcDbEntity
  8
文字
100
AcDbText
 10
394.775706422592
 20
121.6864675043618
 30
0.0
 40
5.759999999999999
  1
下部仮穴Φ3.8ｍｍ
 51
15.0
  7
OKANO
100
AcDbText
  0
LEADER
  5
3BCA
330
1F
100
AcDbEntity
  8
寸法線
100
AcDbLeader
  3
sunpo
 76
     2
 10
401.1663298304533
 20
144.3934569481721
 30
0.0
 10
414.6576489441436
 20
129.4919945415724
 30
0.0
1001
ACAD
1000
DSTYLE
1002
{
1070
   147
1040
1.0
1070
    77
1070
     0
1002
}
  0
XLINE
  5
3BD8
330
1F
100
AcDbEntity
  8
構築線
100
AcDbXline
 10
51.46670811017656
 20
173.5536210066474
 30
0.0
 11
1.0
 21
0.0
 31
0.0
  0
VIEWPORT
  5
2E
330
1B
100
AcDbEntity
 67
     1
  8
0
100
AcDbViewport
 10
301.9064160221607
 20
157.3611070782957
 30
0.0
 40
764.9880889844396
 41
388.5397880827185
 68
     2
 69
     1
 12
301.9064160221607
 22
157.3611070782957
 13
0.0
 23
0.0
 14
10.0
 24
10.0
 15
10.0
 25
10.0
 16
0.0
 26
0.0
 36
1.0
 17
0.0
 27
0.0
 37
0.0
 42
50.0
 43
0.0
 44
0.0
 45
388.5397880827185
 50
0.0
 51
0.0
 72
   100
 90
    32800
  1

281
     0
 71
     1
 74
     0
110
0.0
120
0.0
130
0.0
111
1.0
121
0.0
131
0.0
112
0.0
122
1.0
132
0.0
 79
     0
146
0.0
  0
VIEWPORT
  5
30
330
1B
100
AcDbEntity
 67
     1
  8
70-0-CON
100
AcDbViewport
 10
141.8594093064315
 20
100.3480256368386
 30
0.0
 40
261.6199023344245
 41
192.6196987113174
 68
     1
 69
     2
 12
258.1096372015958
 22
137.9501155605572
 13
0.0
 23
0.0
 14
5.0
 24
5.0
 15
10.0
 25
10.0
 16
0.0
 26
0.0
 36
1.0
 17
0.0
 27
0.0
 37
0.0
 42
50.0
 43
0.0
 44
0.0
 45
442.269847242548
 50
0.0
 51
0.0
 72
   100
 90
    32864
  1

281
     0
 71
     1
 74
     0
110
0.0
120
0.0
130
0.0
111
1.0
121
0.0
131
0.0
112
0.0
122
1.0
132
0.0
 79
     0
146
0.0
  0
LWPOLYLINE
  5
45
330
1B
100
AcDbEntity
 67
     1
  8
50-0-CON
100
AcDbPolyline
 90
        4
 70
     1
 43
0.0
 10
11.04945813921926
 20
4.038176281179858
 10
272.2125713060605
 20
4.033520706629644
 10
273.4987754093466
 20
195.9297862125246
 10
11.04945813921926
 20
196.6578749924973
  0
LINE
  5
4A
330
1B
100
AcDbEntity
 67
     1
  8
50-0-CON
100
AcDbLine
 10
10.38768783662635
 20
100.3480256368386
 30
0.0
 11
-4.391850629656119
 21
100.3480256368386
 31
0.0
  0
LINE
  5
4B
330
1B
100
AcDbEntity
 67
     1
  8
50-0-CON
100
AcDbLine
 10
141.8594093064315
 20
197.098652626247
 30
0.0
 11
141.8594093064315
 21
202.387980773708
 31
0.0
  0
LINE
  5
4C
330
1B
100
AcDbEntity
 67
     1
  8
50-0-CON
100
AcDbLine
 10
272.4487699456857
 20
100.7888032705883
 30
0.0
 11
278.8458837249377
 21
100.7888032705883
 31
0.0
  0
LINE
  5
4D
330
1B
100
AcDbEntity
 67
     1
  8
50-0-CON
100
AcDbLine
 10
140.9770484758805
 20
4.038176281179858
 30
0.0
 11
140.9770484758805
 21
-3.455038652015446
 31
0.0
  0
ENDSEC
  0
SECTION
  2
OBJECTS
  0
DICTIONARY
  5
C
330
0
100
AcDbDictionary
281
     1
  3
ACAD_GROUP
350
D
  3
ACAD_LAYOUT
350
1A
  3
ACAD_MLINESTYLE
350
17
  3
ACAD_PLOTSETTINGS
350
19
  3
ACAD_PLOTSTYLENAME
350
E
  3
AcadDim
350
3113
  3
AcDbVariableDictionary
350
6AD
  3
DWGPROPS
350
30F
  0
DICTIONARY
  5
D
102
{ACAD_REACTORS
330
C
102
}
330
C
100
AcDbDictionary
281
     1
  0
DICTIONARY
  5
1A
102
{ACAD_REACTORS
330
C
102
}
330
C
100
AcDbDictionary
281
     1
  3
A4
350
1E
  3
Model
350
22
  0
DICTIONARY
  5
17
102
{ACAD_REACTORS
330
C
102
}
330
C
100
AcDbDictionary
281
     1
  3
Standard
350
18
  0
DICTIONARY
  5
19
102
{ACAD_REACTORS
330
C
102
}
330
C
100
AcDbDictionary
281
     1
  0
ACDBDICTIONARYWDFLT
  5
E
102
{ACAD_REACTORS
330
C
102
}
330
C
100
AcDbDictionary
281
     1
  3
Normal
350
F
100
AcDbDictionaryWithDefault
340
F
  0
XRECORD
  5
3113
102
{ACAD_REACTORS
330
C
102
}
330
C
100
AcDbXrecord
280
     1
 90
   990106
  3

 60
     0
 61
     0
 62
     1
 63
     3
 64
     0
 65
     0
 66
     0
 67
     3
 68
     1
 69
     0
 70
     0
 71
     0
 72
     0
 40
0.0
170
     0
  0
DICTIONARY
  5
6AD
102
{ACAD_REACTORS
330
C
102
}
330
C
100
AcDbDictionary
281
     1
  3
SORTENTS
350
6AE
  0
XRECORD
  5
30F
102
{ACAD_REACTORS
330
C
102
}
330
C
100
AcDbXrecord
280
     1
  1
DWGPROPS COOKIE
  2

  3

  4

  6

  7

  8

  9

300
=
301
=
302
=
303
=
304
=
305
=
306
=
307
=
308
=
309
=
 40
0.3303803125
 41
2452362.482225463
 42
2452370.969861285
  1

 90
        0
  0
LAYOUT
  5
1E
102
{ACAD_REACTORS
330
1A
102
}
330
1A
100
AcDbPlotSettings
  1

  2
EPSON PM-920C
  4
A4
  6

 40
3.757083177566528
 41
14.7637300491333
 42
3.757080078125
 43
3.757080078125
 44
209.9733276367187
 45
296.9683227539062
 46
0.0
 47
0.0
 48
0.0
 49
0.0
140
0.0
141
0.0
142
1.0
143
1.0
 70
   688
 72
     1
 73
     1
 74
     5
  7
joint.ctb
 75
    16
147
1.0
148
0.0
149
0.0
100
AcDbLayout
  1
A4
 70
     1
 71
     1
 10
-3.757080078125
 20
-3.757083177566528
 11
293.2112426757812
 21
206.2162444591522
 12
0.0
 22
0.0
 32
0.0
 14
-4.391850629656119
 24
-3.455038652015446
 34
0.0
 15
278.8458837249377
 25
202.387980773708
 35
0.0
146
0.0
 13
0.0
 23
0.0
 33
0.0
 16
1.0
 26
0.0
 36
0.0
 17
0.0
 27
1.0
 37
0.0
 76
     0
330
1B
331
30
  0
LAYOUT
  5
22
102
{ACAD_REACTORS
330
1A
102
}
330
1A
100
AcDbPlotSettings
  1

  2
EPSON PM-920C
  4
A4
  6

 40
3.757083177566528
 41
14.7637300491333
 42
3.757080078125
 43
3.757080078125
 44
209.9733276367187
 45
296.9683227539062
 46
0.0
 47
0.0
 48
0.0
 49
0.0
140
0.0
141
0.0
142
1.0
143
1.0
 70
 11952
 72
     1
 73
     1
 74
     0
  7

 75
     0
147
1.0
148
-45.64199848979289
149
-84.48806419330498
100
AcDbLayout
  1
Model
 70
     1
 71
     0
 10
0.0
 20
0.0
 11
12.0
 21
9.0
 12
0.0
 22
0.0
 32
0.0
 14
0.0
 24
0.0
 34
0.0
 15
0.0
 25
0.0
 35
0.0
146
0.0
 13
0.0
 23
0.0
 33
0.0
 16
1.0
 26
0.0
 36
0.0
 17
0.0
 27
1.0
 37
0.0
 76
     0
330
1F
  0
MLINESTYLE
  5
18
102
{ACAD_REACTORS
330
17
102
}
330
17
100
AcDbMlineStyle
  2
STANDARD
 70
     0
  3

 62
   256
 51
90.0
 52
90.0
 71
     2
 49
0.5
 62
   256
  6
BYLAYER
 49
-0.5
 62
   256
  6
BYLAYER
  0
ACDBPLACEHOLDER
  5
F
102
{ACAD_REACTORS
330
E
102
}
330
E
  0
DICTIONARYVAR
  5
6AE
102
{ACAD_REACTORS
330
6AD
102
}
330
6AD
100
DictionaryVariables
280
     0
  1
96
  0
ENDSEC
  0
EOF
