  0
SECTION
  2
HEADER
  9
$ACADVER
  1
AC1015
  9
$ACADMAINTVER
 70
     6
  9
$DWGCODEPAGE
  3
ANSI_932
  9
$INSBASE
 10
0.0
 20
0.0
 30
0.0
  9
$EXTMIN
 10
-681.467014689437
 20
-389.7205666915974
 30
0.0
  9
$EXTMAX
 10
224.1390570074909
 20
89.93357121188662
 30
0.0
  9
$LIMMIN
 10
0.0
 20
0.0
  9
$LIMMAX
 10
420.0
 20
297.0
  9
$ORTHOMODE
 70
     0
  9
$REGENMODE
 70
     1
  9
$FILLMODE
 70
     1
  9
$QTEXTMODE
 70
     0
  9
$MIRRTEXT
 70
     1
  9
$LTSCALE
 40
1.0
  9
$ATTMODE
 70
     1
  9
$TEXTSIZE
 40
5.0
  9
$TRACEWID
 40
1.0
  9
$TEXTSTYLE
  7
OKANO
  9
$CLAYER
  8
太線
  9
$CELTYPE
  6
ByLayer
  9
$CECOLOR
 62
   256
  9
$CELTSCALE
 40
1.0
  9
$DISPSILH
 70
     0
  9
$DIMSCALE
 40
1.0
  9
$DIMASZ
 40
2.5
  9
$DIMEXO
 40
0.625
  9
$DIMDLI
 40
3.75
  9
$DIMRND
 40
0.0
  9
$DIMDLE
 40
0.0
  9
$DIMEXE
 40
1.25
  9
$DIMTP
 40
0.0
  9
$DIMTM
 40
0.0
  9
$DIMTXT
 40
2.5
  9
$DIMCEN
 40
2.5
  9
$DIMTSZ
 40
0.0
  9
$DIMTOL
 70
     0
  9
$DIMLIM
 70
     0
  9
$DIMTIH
 70
     0
  9
$DIMTOH
 70
     0
  9
$DIMSE1
 70
     0
  9
$DIMSE2
 70
     0
  9
$DIMTAD
 70
     1
  9
$DIMZIN
 70
     8
  9
$DIMBLK
  1

  9
$DIMASO
 70
     1
  9
$DIMSHO
 70
     1
  9
$DIMPOST
  1

  9
$DIMAPOST
  1

  9
$DIMALT
 70
     0
  9
$DIMALTD
 70
     3
  9
$DIMALTF
 40
0.03937007874016
  9
$DIMLFAC
 40
1.0
  9
$DIMTOFL
 70
     1
  9
$DIMTVP
 40
0.0
  9
$DIMTIX
 70
     0
  9
$DIMSOXD
 70
     0
  9
$DIMSAH
 70
     0
  9
$DIMBLK1
  1

  9
$DIMBLK2
  1

  9
$DIMSTYLE
  2
ISO-25
  9
$DIMCLRD
 70
     0
  9
$DIMCLRE
 70
     0
  9
$DIMCLRT
 70
     0
  9
$DIMTFAC
 40
1.0
  9
$DIMGAP
 40
0.625
  9
$DIMJUST
 70
     0
  9
$DIMSD1
 70
     0
  9
$DIMSD2
 70
     0
  9
$DIMTOLJ
 70
     0
  9
$DIMTZIN
 70
     8
  9
$DIMALTZ
 70
     0
  9
$DIMALTTZ
 70
     0
  9
$DIMUPT
 70
     0
  9
$DIMDEC
 70
     2
  9
$DIMTDEC
 70
     2
  9
$DIMALTU
 70
     2
  9
$DIMALTTD
 70
     3
  9
$DIMTXSTY
  7
Standard
  9
$DIMAUNIT
 70
     0
  9
$DIMADEC
 70
     0
  9
$DIMALTRND
 40
0.0
  9
$DIMAZIN
 70
     0
  9
$DIMDSEP
 70
    46
  9
$DIMATFIT
 70
     3
  9
$DIMFRAC
 70
     0
  9
$DIMLDRBLK
  1

  9
$DIMLUNIT
 70
     2
  9
$DIMLWD
 70
    -2
  9
$DIMLWE
 70
    -2
  9
$DIMTMOVE
 70
     0
  9
$LUNITS
 70
     2
  9
$LUPREC
 70
     2
  9
$SKETCHINC
 40
1.0
  9
$FILLETRAD
 40
1.0
  9
$AUNITS
 70
     0
  9
$AUPREC
 70
     0
  9
$MENU
  1
.
  9
$ELEVATION
 40
0.0
  9
$PELEVATION
 40
0.0
  9
$THICKNESS
 40
0.0
  9
$LIMCHECK
 70
     0
  9
$CHAMFERA
 40
10.0
  9
$CHAMFERB
 40
10.0
  9
$CHAMFERC
 40
20.0
  9
$CHAMFERD
 40
0.0
  9
$SKPOLY
 70
     0
  9
$TDCREATE
 40
2452362.482225463
  9
$TDUCREATE
 40
2452362.107225463
  9
$TDUPDATE
 40
2455957.629879919
  9
$TDUUPDATE
 40
2455957.254879919
  9
$TDINDWG
 40
3.2527875926
  9
$TDUSRTIMER
 40
3.2527875926
  9
$USRTIMER
 70
     1
  9
$ANGBASE
 50
0.0
  9
$ANGDIR
 70
     0
  9
$PDMODE
 70
     0
  9
$PDSIZE
 40
0.0
  9
$PLINEWID
 40
0.0
  9
$SPLFRAME
 70
     0
  9
$SPLINETYPE
 70
     6
  9
$SPLINESEGS
 70
     8
  9
$HANDSEED
  5
6427
  9
$SURFTAB1
 70
     6
  9
$SURFTAB2
 70
     6
  9
$SURFTYPE
 70
     6
  9
$SURFU
 70
     6
  9
$SURFV
 70
     6
  9
$UCSBASE
  2

  9
$UCSNAME
  2

  9
$UCSORG
 10
0.0
 20
0.0
 30
0.0
  9
$UCSXDIR
 10
1.0
 20
0.0
 30
0.0
  9
$UCSYDIR
 10
0.0
 20
1.0
 30
0.0
  9
$UCSORTHOREF
  2

  9
$UCSORTHOVIEW
 70
     0
  9
$UCSORGTOP
 10
0.0
 20
0.0
 30
0.0
  9
$UCSORGBOTTOM
 10
0.0
 20
0.0
 30
0.0
  9
$UCSORGLEFT
 10
0.0
 20
0.0
 30
0.0
  9
$UCSORGRIGHT
 10
0.0
 20
0.0
 30
0.0
  9
$UCSORGFRONT
 10
0.0
 20
0.0
 30
0.0
  9
$UCSORGBACK
 10
0.0
 20
0.0
 30
0.0
  9
$PUCSBASE
  2

  9
$PUCSNAME
  2

  9
$PUCSORG
 10
0.0
 20
0.0
 30
0.0
  9
$PUCSXDIR
 10
1.0
 20
0.0
 30
0.0
  9
$PUCSYDIR
 10
0.0
 20
1.0
 30
0.0
  9
$PUCSORTHOREF
  2

  9
$PUCSORTHOVIEW
 70
     0
  9
$PUCSORGTOP
 10
0.0
 20
0.0
 30
0.0
  9
$PUCSORGBOTTOM
 10
0.0
 20
0.0
 30
0.0
  9
$PUCSORGLEFT
 10
0.0
 20
0.0
 30
0.0
  9
$PUCSORGRIGHT
 10
0.0
 20
0.0
 30
0.0
  9
$PUCSORGFRONT
 10
0.0
 20
0.0
 30
0.0
  9
$PUCSORGBACK
 10
0.0
 20
0.0
 30
0.0
  9
$USERI1
 70
     0
  9
$USERI2
 70
     0
  9
$USERI3
 70
     0
  9
$USERI4
 70
     0
  9
$USERI5
 70
     0
  9
$USERR1
 40
0.0
  9
$USERR2
 40
0.0
  9
$USERR3
 40
0.0
  9
$USERR4
 40
0.0
  9
$USERR5
 40
0.0
  9
$WORLDVIEW
 70
     1
  9
$SHADEDGE
 70
     3
  9
$SHADEDIF
 70
    70
  9
$TILEMODE
 70
     0
  9
$MAXACTVP
 70
    64
  9
$PINSBASE
 10
0.0
 20
0.0
 30
0.0
  9
$PLIMCHECK
 70
     0
  9
$PEXTMIN
 10
-4.391850629656119
 20
-3.455038652015446
 30
0.0
  9
$PEXTMAX
 10
278.8458837249377
 20
202.387980773708
 30
0.0
  9
$PLIMMIN
 10
-3.757080078125
 20
-3.757083177566528
  9
$PLIMMAX
 10
293.2112426757812
 20
206.2162444591522
  9
$UNITMODE
 70
     0
  9
$VISRETAIN
 70
     1
  9
$PLINEGEN
 70
     0
  9
$PSLTSCALE
 70
     1
  9
$TREEDEPTH
 70
  3020
  9
$CMLSTYLE
  2
Standard
  9
$CMLJUST
 70
     0
  9
$CMLSCALE
 40
20.0
  9
$PROXYGRAPHICS
 70
     1
  9
$MEASUREMENT
 70
     1
  9
$CELWEIGHT
370
    25
  9
$ENDCAPS
280
     0
  9
$JOINSTYLE
280
     0
  9
$LWDISPLAY
290
     1
  9
$INSUNITS
 70
     4
  9
$HYPERLINKBASE
  1

  9
$STYLESHEET
  1

  9
$XEDIT
290
     1
  9
$CEPSNTYPE
380
     0
  9
$PSTYLEMODE
290
     1
  9
$FINGERPRINTGUID
  2
{FF7F33C3-4233-11D6-AEE0-0000F45FD7F4}
  9
$VERSIONGUID
  2
{60A288BA-5230-40A7-B600-9AE48FDB03BF}
  9
$EXTNAMES
290
     1
  9
$PSVPSCALE
 40
0.0
  9
$OLESTARTUP
290
     0
  0
ENDSEC
  0
SECTION
  2
CLASSES
  0
CLASS
  1
ACDBDICTIONARYWDFLT
  2
AcDbDictionaryWithDefault
  3
AutoCAD 2000
 90
        0
280
     0
281
     0
  0
CLASS
  1
ACDBPLACEHOLDER
  2
AcDbPlaceHolder
  3
AutoCAD 2000
 90
        0
280
     0
281
     0
  0
CLASS
  1
LAYOUT
  2
AcDbLayout
  3
AutoCAD 2000
 90
        0
280
     0
281
     0
  0
CLASS
  1
DICTIONARYVAR
  2
AcDbDictionaryVar
  3
AutoCAD 2000
 90
        0
280
     0
281
     0
  0
ENDSEC
  0
SECTION
  2
TABLES
  0
TABLE
  2
VPORT
  5
8
330
0
100
AcDbSymbolTable
 70
     7
  0
VPORT
  5
6426
330
8
100
AcDbSymbolTableRecord
100
AcDbViewportTableRecord
  2
*Active
 70
     0
 10
0.0
 20
0.0
 11
1.0
 21
1.0
 12
-16.59459152775093
 22
-329.9198447248905
 13
0.0
 23
0.0
 14
5.0
 24
5.0
 15
10.0
 25
10.0
 16
0.0
 26
0.0
 36
1.0
 17
0.0
 27
0.0
 37
0.0
 40
327.5618517659691
 41
2.08724832214765
 42
50.0
 43
0.0
 44
0.0
 50
0.0
 51
0.0
 71
     0
 72
   100
 73
     1
 74
     3
 75
     0
 76
     0
 77
     0
 78
     0
281
     0
 65
     1
110
0.0
120
0.0
130
0.0
111
1.0
121
0.0
131
0.0
112
0.0
122
1.0
132
0.0
 79
     0
146
0.0
  0
ENDTAB
  0
TABLE
  2
LTYPE
  5
5
330
0
100
AcDbSymbolTable
 70
     5
  0
LTYPE
  5
14
330
5
100
AcDbSymbolTableRecord
100
AcDbLinetypeTableRecord
  2
ByBlock
 70
     0
  3

 72
    65
 73
     0
 40
0.0
  0
LTYPE
  5
15
330
5
100
AcDbSymbolTableRecord
100
AcDbLinetypeTableRecord
  2
ByLayer
 70
     0
  3

 72
    65
 73
     0
 40
0.0
  0
LTYPE
  5
16
330
5
100
AcDbSymbolTableRecord
100
AcDbLinetypeTableRecord
  2
Continuous
 70
     0
  3
Solid line
 72
    65
 73
     0
 40
0.0
  0
LTYPE
  5
33
330
5
100
AcDbSymbolTableRecord
100
AcDbLinetypeTableRecord
  2
DASHED2
 70
     0
  3
Dashed (.5x) _ _ _ _ _ _ _ _ _ _ _ _ _ _ _ _ _
 72
    65
 73
     2
 40
9.524999999999998
 49
6.349999999999999
 74
     0
 49
-3.174999999999999
 74
     0
  0
LTYPE
  5
34
330
5
100
AcDbSymbolTableRecord
100
AcDbLinetypeTableRecord
  2
CENTER2
 70
     0
  3
Center (.5x) ___ _ ___ _ ___ _ ___ _ ___ _ ___
 72
    65
 73
     4
 40
28.57499999999999
 49
19.05
 74
     0
 49
-3.174999999999999
 74
     0
 49
3.174999999999999
 74
     0
 49
-3.174999999999999
 74
     0
  0
LTYPE
  5
35
330
5
100
AcDbSymbolTableRecord
100
AcDbLinetypeTableRecord
  2
PHANTOM2
 70
     0
  3
Phantom (.5x) ___ _ _ ___ _ _ ___ _ _ ___ _ _
 72
    65
 73
     6
 40
31.75
 49
15.875
 74
     0
 49
-3.174999999999999
 74
     0
 49
3.174999999999999
 74
     0
 49
-3.174999999999999
 74
     0
 49
3.174999999999999
 74
     0
 49
-3.174999999999999
 74
     0
  0
LTYPE
  5
36
330
5
100
AcDbSymbolTableRecord
100
AcDbLinetypeTableRecord
  2
HIDDEN2
 70
     0
  3
Hidden (.5x) _ _ _ _ _ _ _ _ _ _ _ _ _ _ _ _ _
 72
    65
 73
     2
 40
4.762499999999999
 49
3.174999999999999
 74
     0
 49
-1.587499999999999
 74
     0
  0
ENDTAB
  0
TABLE
  2
LAYER
  5
2
330
0
100
AcDbSymbolTable
 70
    13
  0
LAYER
  5
10
330
2
100
AcDbSymbolTableRecord
100
AcDbLayerTableRecord
  2
0
 70
     0
 62
     7
  6
Continuous
370
    -3
390
F
  0
LAYER
  5
40
330
2
100
AcDbSymbolTableRecord
100
AcDbLayerTableRecord
  2
50-0-CON
 70
     0
 62
     4
  6
Continuous
370
    50
390
F
  0
LAYER
  5
41
330
2
100
AcDbSymbolTableRecord
100
AcDbLayerTableRecord
  2
70-0-CON
 70
     0
 62
   202
  6
Continuous
370
    70
390
F
  0
LAYER
  5
4E
330
2
100
AcDbSymbolTableRecord
100
AcDbLayerTableRecord
  2
極太線
 70
     0
 62
     7
  6
Continuous
370
    70
390
F
  0
LAYER
  5
4F
330
2
100
AcDbSymbolTableRecord
100
AcDbLayerTableRecord
  2
細線
 70
     0
 62
     8
  6
Continuous
370
    18
390
F
  0
LAYER
  5
AB
330
2
100
AcDbSymbolTableRecord
100
AcDbLayerTableRecord
  2
構築線
 70
     0
 62
    -2
  6
Continuous
370
    18
390
F
  0
LAYER
  5
B8
330
2
100
AcDbSymbolTableRecord
100
AcDbLayerTableRecord
  2
太線
 70
     0
 62
     7
  6
Continuous
370
    35
390
F
  0
LAYER
  5
B9
330
2
100
AcDbSymbolTableRecord
100
AcDbLayerTableRecord
  2
寸法線
 70
     0
 62
     5
  6
Continuous
370
    18
390
F
  0
LAYER
  5
BA
330
2
100
AcDbSymbolTableRecord
100
AcDbLayerTableRecord
  2
破線
 70
     0
 62
     8
  6
HIDDEN2
370
    18
390
F
  0
LAYER
  5
BB
330
2
100
AcDbSymbolTableRecord
100
AcDbLayerTableRecord
  2
中心線
 70
     0
 62
     1
  6
CENTER2
370
    18
390
F
  0
LAYER
  5
BC
330
2
100
AcDbSymbolTableRecord
100
AcDbLayerTableRecord
  2
想像線
 70
     0
 62
     8
  6
PHANTOM2
370
    18
390
F
  0
LAYER
  5
BD
330
2
100
AcDbSymbolTableRecord
100
AcDbLayerTableRecord
  2
文字
 70
     0
 62
     7
  6
Continuous
370
    18
390
F
  0
LAYER
  5
180
330
2
100
AcDbSymbolTableRecord
100
AcDbLayerTableRecord
  2
Defpoints
 70
     0
 62
     7
  6
Continuous
290
     0
370
    -3
390
F
  0
ENDTAB
  0
TABLE
  2
STYLE
  5
3
330
0
100
AcDbSymbolTable
 70
     3
  0
STYLE
  5
11
330
3
100
AcDbSymbolTableRecord
100
AcDbTextStyleTableRecord
  2
Standard
 70
     0
 40
0.0
 41
1.0
 50
0.0
 71
     0
 42
3.0
  3
txt
  4

  0
STYLE
  5
32
330
3
100
AcDbSymbolTableRecord
100
AcDbTextStyleTableRecord
  2

 70
     1
 40
0.0
 41
1.0
 50
0.0
 71
     0
 42
2.5
  3
ltypeshp.shx
  4

  0
STYLE
  5
50
330
3
100
AcDbSymbolTableRecord
100
AcDbTextStyleTableRecord
  2
OKANO
 70
     0
 40
0.0
 41
1.0
 50
15.0
 71
     0
 42
5.0
  3
isocp.shx
  4
bigfont.shx
  0
ENDTAB
  0
TABLE
  2
VIEW
  5
6
330
0
100
AcDbSymbolTable
 70
     0
  0
ENDTAB
  0
TABLE
  2
UCS
  5
7
330
0
100
AcDbSymbolTable
 70
     0
  0
ENDTAB
  0
TABLE
  2
APPID
  5
9
330
0
100
AcDbSymbolTable
 70
     1
  0
APPID
  5
12
330
9
100
AcDbSymbolTableRecord
100
AcDbRegAppTableRecord
  2
ACAD
 70
     0
  0
ENDTAB
  0
TABLE
  2
DIMSTYLE
  5
A
330
0
100
AcDbSymbolTable
 70
     2
100
AcDbDimStyleTable
 71
     2
340
27
340
A2
  0
DIMSTYLE
105
27
102
{ACAD_REACTORS
330
4CB2
330
5BAC
330
5BCB
330
5C12
330
5C31
330
5C68
330
5C7B
330
5CA7
330
5DDA
330
5DE6
330
5DF2
330
5DFE
330
602F
330
6033
330
6038
330
604A
330
6052
330
609E
330
60A3
330
60A7
102
}
330
A
100
AcDbSymbolTableRecord
100
AcDbDimStyleTableRecord
  2
ISO-25
 70
     0
 41
2.5
 42
0.625
 43
3.75
 44
1.25
 73
     0
 74
     0
 77
     1
 78
     8
140
2.5
141
2.5
143
0.03937007874016
147
0.625
171
     3
172
     1
271
     2
272
     2
274
     3
283
     0
284
     8
340
11
  0
DIMSTYLE
105
A2
102
{ACAD_REACTORS
330
4C39
330
4C3A
330
6031
330
6034
330
6040
330
604B
330
609F
330
60AB
330
60B7
330
60C0
330
60C2
330
60C7
102
}
330
A
100
AcDbSymbolTableRecord
100
AcDbDimStyleTableRecord
  2
sunpo
 70
     0
 40
0.0
 41
3.0
 42
2.0
 43
8.0
 44
3.0
 73
     0
 74
     0
 77
     1
 78
     8
140
5.0
141
2.5
143
0.03937007874016
147
1.0
171
     3
172
     1
271
     2
272
     2
274
     3
283
     0
284
     8
340
50
341
9B
342
9B
  0
ENDTAB
  0
TABLE
  2
BLOCK_RECORD
  5
1
330
0
100
AcDbSymbolTable
 70
    60
  0
BLOCK_RECORD
  5
1F
330
1
100
AcDbSymbolTableRecord
100
AcDbBlockTableRecord
  2
*Model_Space
340
22
  0
BLOCK_RECORD
  5
1B
330
1
100
AcDbSymbolTableRecord
100
AcDbBlockTableRecord
  2
*Paper_Space
340
1E
  0
BLOCK_RECORD
  5
9B
330
1
100
AcDbSymbolTableRecord
100
AcDbBlockTableRecord
  2
_Closed
340
0
102
{BLKREFS
331
4D42
331
4D43
331
5BA6
331
5BA7
331
5EAE
331
5EAF
331
5F23
331
5F24
331
5E94
331
5E95
331
5E88
331
5E89
331
5EF9
331
5EFA
331
5EA0
331
5EA1
331
5EE0
331
5EE1
331
5EBA
331
5EBB
331
5EC9
331
5ECA
331
5ED4
331
5ED5
331
6120
331
6121
331
6136
331
6137
331
614B
331
614C
331
6163
331
6164
331
6187
331
6188
331
61A8
331
61A9
331
61B4
331
61B5
331
61C0
331
61C1
331
61CF
331
61D0
331
61DA
331
61DB
331
61F0
331
61F1
331
6200
331
6201
331
620F
331
6210
331
6221
331
6222
331
623C
331
623D
331
6254
331
6255
331
625D
331
625E
331
6266
331
6267
331
6272
331
6273
331
627A
331
627B
331
632A
331
632B
331
6334
331
6335
331
634C
331
634D
331
635E
331
635F
331
6367
331
6368
331
6389
331
638A
331
6395
331
6396
331
639D
331
639E
331
63A7
331
63A8
331
63B6
331
63B7
331
63BF
331
63C0
331
63CA
331
63CB
331
63D3
331
63D4
331
63DD
331
63DE
331
63ED
331
63EE
331
6407
331
6408
331
6417
331
6418
102
}
  0
BLOCK_RECORD
  5
1510
330
1
100
AcDbSymbolTableRecord
100
AcDbBlockTableRecord
  2
A$C10A573AC
340
0
  0
BLOCK_RECORD
  5
4BF6
330
1
100
AcDbSymbolTableRecord
100
AcDbBlockTableRecord
  2
A$C368717B1
340
0
  0
BLOCK_RECORD
  5
4C3C
330
1
100
AcDbSymbolTableRecord
100
AcDbBlockTableRecord
  2
*D3
340
0
  0
BLOCK_RECORD
  5
4C48
330
1
100
AcDbSymbolTableRecord
100
AcDbBlockTableRecord
  2
*D4
340
0
  0
BLOCK_RECORD
  5
4CB3
330
1
100
AcDbSymbolTableRecord
100
AcDbBlockTableRecord
  2
*D5
340
0
  0
BLOCK_RECORD
  5
5BAD
330
1
100
AcDbSymbolTableRecord
100
AcDbBlockTableRecord
  2
*D6
340
0
  0
BLOCK_RECORD
  5
5BCC
330
1
100
AcDbSymbolTableRecord
100
AcDbBlockTableRecord
  2
*D7
340
0
  0
BLOCK_RECORD
  5
5C13
330
1
100
AcDbSymbolTableRecord
100
AcDbBlockTableRecord
  2
*D8
340
0
  0
BLOCK_RECORD
  5
5C32
330
1
100
AcDbSymbolTableRecord
100
AcDbBlockTableRecord
  2
*D9
340
0
  0
BLOCK_RECORD
  5
5C69
330
1
100
AcDbSymbolTableRecord
100
AcDbBlockTableRecord
  2
*D10
340
0
  0
BLOCK_RECORD
  5
5C7C
330
1
100
AcDbSymbolTableRecord
100
AcDbBlockTableRecord
  2
*D11
340
0
  0
BLOCK_RECORD
  5
5CA8
330
1
100
AcDbSymbolTableRecord
100
AcDbBlockTableRecord
  2
*D12
340
0
  0
BLOCK_RECORD
  5
5DDB
330
1
100
AcDbSymbolTableRecord
100
AcDbBlockTableRecord
  2
*D19
340
0
  0
BLOCK_RECORD
  5
5DE7
330
1
100
AcDbSymbolTableRecord
100
AcDbBlockTableRecord
  2
*D20
340
0
  0
BLOCK_RECORD
  5
5DF3
330
1
100
AcDbSymbolTableRecord
100
AcDbBlockTableRecord
  2
*D21
340
0
  0
BLOCK_RECORD
  5
5DFF
330
1
100
AcDbSymbolTableRecord
100
AcDbBlockTableRecord
  2
*D22
340
0
  0
BLOCK_RECORD
  5
5E78
330
1
100
AcDbSymbolTableRecord
100
AcDbBlockTableRecord
  2
*D23
340
0
  0
BLOCK_RECORD
  5
5E84
330
1
100
AcDbSymbolTableRecord
100
AcDbBlockTableRecord
  2
*D24
340
0
  0
BLOCK_RECORD
  5
5E90
330
1
100
AcDbSymbolTableRecord
100
AcDbBlockTableRecord
  2
*D25
340
0
  0
BLOCK_RECORD
  5
5E9C
330
1
100
AcDbSymbolTableRecord
100
AcDbBlockTableRecord
  2
*D26
340
0
  0
BLOCK_RECORD
  5
5EA8
330
1
100
AcDbSymbolTableRecord
100
AcDbBlockTableRecord
  2
*D27
340
0
  0
BLOCK_RECORD
  5
5EB6
330
1
100
AcDbSymbolTableRecord
100
AcDbBlockTableRecord
  2
*D28
340
0
  0
BLOCK_RECORD
  5
5EC2
330
1
100
AcDbSymbolTableRecord
100
AcDbBlockTableRecord
  2
*D29
340
0
  0
BLOCK_RECORD
  5
5ED0
330
1
100
AcDbSymbolTableRecord
100
AcDbBlockTableRecord
  2
*D30
340
0
  0
BLOCK_RECORD
  5
5EDC
330
1
100
AcDbSymbolTableRecord
100
AcDbBlockTableRecord
  2
*D31
340
0
  0
BLOCK_RECORD
  5
5EE8
330
1
100
AcDbSymbolTableRecord
100
AcDbBlockTableRecord
  2
*D32
340
0
  0
BLOCK_RECORD
  5
5EF4
330
1
100
AcDbSymbolTableRecord
100
AcDbBlockTableRecord
  2
*D33
340
0
  0
BLOCK_RECORD
  5
5EFF
330
1
100
AcDbSymbolTableRecord
100
AcDbBlockTableRecord
  2
*D34
340
0
  0
BLOCK_RECORD
  5
5F08
330
1
100
AcDbSymbolTableRecord
100
AcDbBlockTableRecord
  2
*D35
340
0
  0
BLOCK_RECORD
  5
5F13
330
1
100
AcDbSymbolTableRecord
100
AcDbBlockTableRecord
  2
*D36
340
0
  0
BLOCK_RECORD
  5
5F1E
330
1
100
AcDbSymbolTableRecord
100
AcDbBlockTableRecord
  2
*D37
340
0
  0
BLOCK_RECORD
  5
5F29
330
1
100
AcDbSymbolTableRecord
100
AcDbBlockTableRecord
  2
*D38
340
0
  0
BLOCK_RECORD
  5
5F34
330
1
100
AcDbSymbolTableRecord
100
AcDbBlockTableRecord
  2
*D39
340
0
  0
BLOCK_RECORD
  5
5F40
330
1
100
AcDbSymbolTableRecord
100
AcDbBlockTableRecord
  2
*D40
340
0
  0
BLOCK_RECORD
  5
610E
330
1
100
AcDbSymbolTableRecord
100
AcDbBlockTableRecord
  2
*D42
340
0
  0
BLOCK_RECORD
  5
611A
330
1
100
AcDbSymbolTableRecord
100
AcDbBlockTableRecord
  2
*D43
340
0
  0
BLOCK_RECORD
  5
6128
330
1
100
AcDbSymbolTableRecord
100
AcDbBlockTableRecord
  2
*D44
340
0
  0
BLOCK_RECORD
  5
6131
330
1
100
AcDbSymbolTableRecord
100
AcDbBlockTableRecord
  2
*D45
340
0
  0
BLOCK_RECORD
  5
613C
330
1
100
AcDbSymbolTableRecord
100
AcDbBlockTableRecord
  2
*D46
340
0
  0
BLOCK_RECORD
  5
6147
330
1
100
AcDbSymbolTableRecord
100
AcDbBlockTableRecord
  2
*D47
340
0
  0
BLOCK_RECORD
  5
6153
330
1
100
AcDbSymbolTableRecord
100
AcDbBlockTableRecord
  2
*D48
340
0
  0
BLOCK_RECORD
  5
615F
330
1
100
AcDbSymbolTableRecord
100
AcDbBlockTableRecord
  2
*D49
340
0
  0
BLOCK_RECORD
  5
616B
330
1
100
AcDbSymbolTableRecord
100
AcDbBlockTableRecord
  2
*D50
340
0
  0
BLOCK_RECORD
  5
6177
330
1
100
AcDbSymbolTableRecord
100
AcDbBlockTableRecord
  2
*D51
340
0
  0
BLOCK_RECORD
  5
6182
330
1
100
AcDbSymbolTableRecord
100
AcDbBlockTableRecord
  2
*D52
340
0
  0
BLOCK_RECORD
  5
618D
330
1
100
AcDbSymbolTableRecord
100
AcDbBlockTableRecord
  2
*D53
340
0
  0
BLOCK_RECORD
  5
6199
330
1
100
AcDbSymbolTableRecord
100
AcDbBlockTableRecord
  2
*D54
340
0
  0
BLOCK_RECORD
  5
61A4
330
1
100
AcDbSymbolTableRecord
100
AcDbBlockTableRecord
  2
*D55
340
0
  0
BLOCK_RECORD
  5
61B0
330
1
100
AcDbSymbolTableRecord
100
AcDbBlockTableRecord
  2
*D56
340
0
  0
BLOCK_RECORD
  5
61BC
330
1
100
AcDbSymbolTableRecord
100
AcDbBlockTableRecord
  2
*D57
340
0
  0
BLOCK_RECORD
  5
61C8
330
1
100
AcDbSymbolTableRecord
100
AcDbBlockTableRecord
  2
*D58
340
0
  0
BLOCK_RECORD
  5
61D6
330
1
100
AcDbSymbolTableRecord
100
AcDbBlockTableRecord
  2
*D59
340
0
  0
ENDTAB
  0
ENDSEC
  0
SECTION
  2
BLOCKS
  0
BLOCK
  5
20
330
1F
100
AcDbEntity
  8
0
100
AcDbBlockBegin
  2
*Model_Space
 70
     0
 10
0.0
 20
0.0
 30
0.0
  3
*Model_Space
  1

  0
ENDBLK
  5
21
330
1F
100
AcDbEntity
  8
0
100
AcDbBlockEnd
  0
BLOCK
  5
1C
330
1B
100
AcDbEntity
 67
     1
  8
0
100
AcDbBlockBegin
  2
*Paper_Space
 70
     0
 10
0.0
 20
0.0
 30
0.0
  3
*Paper_Space
  1

  0
ENDBLK
  5
1D
330
1B
100
AcDbEntity
 67
     1
  8
0
100
AcDbBlockEnd
  0
BLOCK
  5
A0
330
9B
100
AcDbEntity
  8
0
100
AcDbBlockBegin
  2
_Closed
 70
     0
 10
0.0
 20
0.0
 30
0.0
  3
_Closed
  1

  0
LINE
  5
9C
330
9B
100
AcDbEntity
  8
0
 62
     0
370
    -2
100
AcDbLine
 10
-1.0
 20
0.1666666666666666
 30
0.0
 11
0.0
 21
0.0
 31
0.0
  0
LINE
  5
9D
330
9B
100
AcDbEntity
  8
0
 62
     0
370
    -2
100
AcDbLine
 10
0.0
 20
0.0
 30
0.0
 11
-1.0
 21
-0.1666666666666666
 31
0.0
  0
LINE
  5
9E
330
9B
100
AcDbEntity
  8
0
 62
     0
370
    -2
100
AcDbLine
 10
-1.0
 20
0.1666666666666666
 30
0.0
 11
-1.0
 21
-0.1666666666666666
 31
0.0
  0
LINE
  5
9F
330
9B
100
AcDbEntity
  8
0
 62
     0
370
    -2
100
AcDbLine
 10
0.0
 20
0.0
 30
0.0
 11
-1.0
 21
0.0
 31
0.0
  0
ENDBLK
  5
A1
330
9B
100
AcDbEntity
  8
0
100
AcDbBlockEnd
  0
BLOCK
  5
155B
330
1510
100
AcDbEntity
  8
0
100
AcDbBlockBegin
  2
A$C10A573AC
 70
     0
 10
0.0
 20
0.0
 30
0.0
  3
A$C10A573AC
  1

  0
TEXT
  5
1511
330
1510
100
AcDbEntity
  8
文字
100
AcDbText
 10
0.9844302777919438
 20
5.224957122252135
 30
0.0
 40
3.0
  1
Materal : Steel.
 51
15.0
  7
OKANO
100
AcDbText
  0
TEXT
  5
1512
330
1510
100
AcDbEntity
  8
文字
100
AcDbText
 10
-0.1141909619694843
 20
0.7500001922403499
 30
0.0
 40
3.0
  1
Surface treatment : Electro galvanized.
 51
15.0
  7
OKANO
100
AcDbText
  0
TEXT
  5
1513
330
1510
100
AcDbEntity
  8
文字
100
AcDbText
 10
-0.4901926332574931
 20
9.159967445193728
 30
0.0
 40
3.0
  1
5 TORGUE SCREW  M5-6
 51
15.0
  7
OKANO
100
AcDbText
  0
TEXT
  5
1514
330
1510
100
AcDbEntity
  8
文字
100
AcDbText
 10
1.364713526390005
 20
78.88822913323082
 30
0.0
 40
3.0
  1
Special standard,
 51
15.0
  7
OKANO
100
AcDbText
  0
TEXT
  5
1515
330
1510
100
AcDbEntity
  8
文字
100
AcDbText
 10
92.88160823408942
 20
89.92753849837379
 30
0.0
 40
3.0
  1
Screw Type
 51
15.0
  7
OKANO
100
AcDbText
  0
LINE
  5
1516
330
1510
100
AcDbEntity
  8
太線
100
AcDbLine
 10
113.9464587597784
 20
81.93930390144641
 30
0.0
 11
112.4464587597784
 21
81.93930390144641
 31
0.0
  0
LINE
  5
1517
330
1510
100
AcDbEntity
  8
太線
100
AcDbLine
 10
112.4464587597784
 20
76.9393039014464
 30
0.0
 11
121.4644995438761
 21
76.9393039014464
 31
0.0
  0
TEXT
  5
1518
330
1510
100
AcDbEntity
  8
文字
100
AcDbText
 10
93.46068240437217
 20
77.96976862235396
 30
0.0
 40
2.0
  1
17-30
 51
15.0
  7
OKANO
100
AcDbText
  0
LINE
  5
1519
330
1510
100
AcDbEntity
  8
太線
100
AcDbLine
 10
111.9464587597784
 20
81.43930390144641
 30
0.0
 11
111.9464587597784
 21
77.4393039014464
 31
0.0
  0
LINE
  5
151A
330
1510
100
AcDbEntity
  8
太線
100
AcDbLine
 10
91.94645875977846
 20
81.43930390144641
 30
0.0
 11
91.94645875977846
 21
77.43930390144639
 31
0.0
  0
LINE
  5
151B
330
1510
100
AcDbEntity
  8
太線
100
AcDbLine
 10
101.9644995438761
 20
77.4393039014464
 30
0.0
 11
101.9644995438761
 21
81.43930390144641
 31
0.0
  0
LINE
  5
151C
330
1510
100
AcDbEntity
  8
太線
100
AcDbLine
 10
92.44645875977846
 20
76.9393039014464
 30
0.0
 11
101.4644995438761
 21
76.9393039014464
 31
0.0
  0
ARC
  5
151D
330
1510
100
AcDbEntity
  8
太線
100
AcDbCircle
 10
92.44645875977846
 20
77.43930390144639
 30
0.0
 40
0.5
100
AcDbArc
 50
180.0
 51
270.0
  0
ARC
  5
151E
330
1510
100
AcDbEntity
  8
太線
100
AcDbCircle
 10
101.4644995438761
 20
77.4393039014464
 30
0.0
 40
0.5
100
AcDbArc
 50
270.0
 51
0.0
  0
ARC
  5
151F
330
1510
100
AcDbEntity
  8
太線
100
AcDbCircle
 10
112.4464587597784
 20
77.4393039014464
 30
0.0
 40
0.5
100
AcDbArc
 50
180.0
 51
270.0
  0
LINE
  5
1520
330
1510
100
AcDbEntity
  8
想像線
100
AcDbLine
 10
93.94645875977847
 20
81.93930390144641
 30
0.0
 11
99.96449954387617
 21
81.93930390144641
 31
0.0
  0
LINE
  5
1521
330
1510
100
AcDbEntity
  8
極太線
100
AcDbLine
 10
96.38762957111168
 20
85.43930390144641
 30
0.0
 11
97.50528794844525
 21
85.43930390144641
 31
0.0
  0
CIRCLE
  5
1522
330
1510
100
AcDbEntity
  8
太線
100
AcDbCircle
 10
96.94645875977847
 20
85.43930390144641
 30
0.0
 40
0.5588291886667776
  0
LINE
  5
1523
330
1510
100
AcDbEntity
  8
太線
100
AcDbLine
 10
99.46449954387617
 20
86.93930390144641
 30
0.0
 11
94.44645875977846
 21
86.93930390144641
 31
0.0
  0
LINE
  5
1524
330
1510
100
AcDbEntity
  8
太線
100
AcDbLine
 10
93.94645875977847
 20
86.43930390144641
 30
0.0
 11
93.94645875977847
 21
81.93930390144641
 31
0.0
  0
ARC
  5
1525
330
1510
100
AcDbEntity
  8
太線
100
AcDbCircle
 10
92.44645875977846
 20
81.43930390144641
 30
0.0
 40
0.5
100
AcDbArc
 50
90.0
 51
180.0
  0
LINE
  5
1526
330
1510
100
AcDbEntity
  8
太線
100
AcDbLine
 10
93.94645875977847
 20
81.93930390144641
 30
0.0
 11
92.44645875977846
 21
81.93930390144641
 31
0.0
  0
ARC
  5
1527
330
1510
100
AcDbEntity
  8
太線
100
AcDbCircle
 10
94.44645875977846
 20
86.43930390144641
 30
0.0
 40
0.5
100
AcDbArc
 50
90.0
 51
180.0
  0
LINE
  5
1528
330
1510
100
AcDbEntity
  8
太線
100
AcDbLine
 10
99.96449954387617
 20
81.93930390144641
 30
0.0
 11
99.96449954387617
 21
86.43930390144641
 31
0.0
  0
LINE
  5
1529
330
1510
100
AcDbEntity
  8
太線
100
AcDbLine
 10
101.4644995438761
 20
81.93930390144641
 30
0.0
 11
99.96449954387617
 21
81.93930390144641
 31
0.0
  0
ARC
  5
152A
330
1510
100
AcDbEntity
  8
太線
100
AcDbCircle
 10
101.4644995438761
 20
81.43930390144641
 30
0.0
 40
0.5
100
AcDbArc
 50
0.0
 51
90.0
  0
ARC
  5
152B
330
1510
100
AcDbEntity
  8
太線
100
AcDbCircle
 10
99.46449954387617
 20
86.43930390144641
 30
0.0
 40
0.5
100
AcDbArc
 50
0.0
 51
90.0
  0
LINE
  5
152C
330
1510
100
AcDbEntity
  8
極太線
100
AcDbLine
 10
96.94645875977847
 20
85.99813309011318
 30
0.0
 11
96.94645875977847
 21
84.88047471277964
 31
0.0
  0
ARC
  5
152D
330
1510
100
AcDbEntity
  8
太線
100
AcDbCircle
 10
112.4464587597784
 20
81.43930390144641
 30
0.0
 40
0.5
100
AcDbArc
 50
90.0
 51
180.0
  0
TEXT
  5
152E
330
1510
100
AcDbEntity
  8
文字
100
AcDbText
 10
134.3819212586066
 20
78.16263579228063
 30
0.0
 40
2.0
  1
101
 51
15.0
  7
OKANO
100
AcDbText
  0
TEXT
  5
152F
330
1510
100
AcDbEntity
  8
文字
100
AcDbText
 10
113.3422276612066
 20
77.96976862235396
 30
0.0
 40
2.0
  1
38-83
 51
15.0
  7
OKANO
100
AcDbText
  0
LINE
  5
1530
330
1510
100
AcDbEntity
  8
太線
100
AcDbLine
 10
141.9825403279738
 20
77.4393039014464
 30
0.0
 11
141.9825403279738
 21
81.43930390144641
 31
0.0
  0
LINE
  5
1531
330
1510
100
AcDbEntity
  8
太線
100
AcDbLine
 10
131.9644995438761
 20
81.43930390144641
 30
0.0
 11
131.9644995438761
 21
77.4393039014464
 31
0.0
  0
LINE
  5
1532
330
1510
100
AcDbEntity
  8
太線
100
AcDbLine
 10
121.9644995438761
 20
77.4393039014464
 30
0.0
 11
121.9644995438761
 21
81.43930390144641
 31
0.0
  0
ARC
  5
1533
330
1510
100
AcDbEntity
  8
太線
100
AcDbCircle
 10
121.4644995438761
 20
77.4393039014464
 30
0.0
 40
0.5
100
AcDbArc
 50
270.0
 51
0.0
  0
LINE
  5
1534
330
1510
100
AcDbEntity
  8
太線
100
AcDbLine
 10
132.4644995438761
 20
76.9393039014464
 30
0.0
 11
141.4825403279738
 21
76.9393039014464
 31
0.0
  0
ARC
  5
1535
330
1510
100
AcDbEntity
  8
太線
100
AcDbCircle
 10
132.4644995438761
 20
77.4393039014464
 30
0.0
 40
0.5
100
AcDbArc
 50
180.0
 51
270.0
  0
ARC
  5
1536
330
1510
100
AcDbEntity
  8
太線
100
AcDbCircle
 10
141.4825403279738
 20
77.4393039014464
 30
0.0
 40
0.5
100
AcDbArc
 50
270.0
 51
0.0
  0
ARC
  5
1537
330
1510
100
AcDbEntity
  8
太線
100
AcDbCircle
 10
121.4644995438761
 20
81.43930390144641
 30
0.0
 40
0.5
100
AcDbArc
 50
0.0
 51
90.0
  0
LINE
  5
1538
330
1510
100
AcDbEntity
  8
太線
100
AcDbLine
 10
119.9644995438761
 20
81.93930390144641
 30
0.0
 11
119.9644995438761
 21
86.43930390144641
 31
0.0
  0
LINE
  5
1539
330
1510
100
AcDbEntity
  8
太線
100
AcDbLine
 10
113.9464587597784
 20
86.43930390144641
 30
0.0
 11
113.9464587597784
 21
81.93930390144641
 31
0.0
  0
LINE
  5
153A
330
1510
100
AcDbEntity
  8
想像線
100
AcDbLine
 10
113.9464587597784
 20
81.93930390144641
 30
0.0
 11
119.9644995438761
 21
81.93930390144641
 31
0.0
  0
LINE
  5
153B
330
1510
100
AcDbEntity
  8
太線
100
AcDbLine
 10
121.4644995438761
 20
81.93930390144641
 30
0.0
 11
119.9644995438761
 21
81.93930390144641
 31
0.0
  0
LINE
  5
153C
330
1510
100
AcDbEntity
  8
太線
100
AcDbLine
 10
119.4644995438761
 20
86.93930390144641
 30
0.0
 11
114.4464587597784
 21
86.93930390144641
 31
0.0
  0
ARC
  5
153D
330
1510
100
AcDbEntity
  8
太線
100
AcDbCircle
 10
114.4464587597784
 20
86.43930390144641
 30
0.0
 40
0.5
100
AcDbArc
 50
90.0
 51
180.0
  0
CIRCLE
  5
153E
330
1510
100
AcDbEntity
  8
太線
100
AcDbCircle
 10
115.4464587597784
 20
85.43930390144641
 30
0.0
 40
0.5588291886667776
  0
LINE
  5
153F
330
1510
100
AcDbEntity
  8
極太線
100
AcDbLine
 10
115.4464587597784
 20
85.99813309011318
 30
0.0
 11
115.4464587597784
 21
84.88047471277964
 31
0.0
  0
LINE
  5
1540
330
1510
100
AcDbEntity
  8
極太線
100
AcDbLine
 10
114.8876295711116
 20
85.43930390144641
 30
0.0
 11
116.0052879484452
 21
85.43930390144641
 31
0.0
  0
ARC
  5
1541
330
1510
100
AcDbEntity
  8
太線
100
AcDbCircle
 10
119.4644995438761
 20
86.43930390144641
 30
0.0
 40
0.5
100
AcDbArc
 50
0.0
 51
90.0
  0
LINE
  5
1542
330
1510
100
AcDbEntity
  8
極太線
100
AcDbLine
 10
117.9056703552094
 20
85.43930390144641
 30
0.0
 11
119.0233287325429
 21
85.43930390144641
 31
0.0
  0
LINE
  5
1543
330
1510
100
AcDbEntity
  8
極太線
100
AcDbLine
 10
118.4644995438761
 20
85.99813309011318
 30
0.0
 11
118.4644995438761
 21
84.88047471277964
 31
0.0
  0
CIRCLE
  5
1544
330
1510
100
AcDbEntity
  8
太線
100
AcDbCircle
 10
118.4644995438761
 20
85.43930390144641
 30
0.0
 40
0.5588291886667776
  0
LINE
  5
1545
330
1510
100
AcDbEntity
  8
想像線
100
AcDbLine
 10
133.9644995438761
 20
81.93930390144641
 30
0.0
 11
139.9825403279738
 21
81.93930390144641
 31
0.0
  0
LINE
  5
1546
330
1510
100
AcDbEntity
  8
極太線
100
AcDbLine
 10
137.9237111393071
 20
85.43930390144641
 30
0.0
 11
139.0413695166406
 21
85.43930390144641
 31
0.0
  0
CIRCLE
  5
1547
330
1510
100
AcDbEntity
  8
太線
100
AcDbCircle
 10
138.4825403279738
 20
85.43930390144641
 30
0.0
 40
0.5588291886667776
  0
CIRCLE
  5
1548
330
1510
100
AcDbEntity
  8
太線
100
AcDbCircle
 10
138.4825403279738
 20
83.26342923362075
 30
0.0
 40
0.5588291886667776
  0
LINE
  5
1549
330
1510
100
AcDbEntity
  8
極太線
100
AcDbLine
 10
137.9237111393071
 20
83.26342923362075
 30
0.0
 11
139.0413695166406
 21
83.26342923362075
 31
0.0
  0
LINE
  5
154A
330
1510
100
AcDbEntity
  8
太線
100
AcDbLine
 10
139.4825403279738
 20
86.93930390144641
 30
0.0
 11
134.4644995438761
 21
86.93930390144641
 31
0.0
  0
LINE
  5
154B
330
1510
100
AcDbEntity
  8
太線
100
AcDbLine
 10
133.9644995438761
 20
86.43930390144641
 30
0.0
 11
133.9644995438761
 21
81.93930390144641
 31
0.0
  0
ARC
  5
154C
330
1510
100
AcDbEntity
  8
太線
100
AcDbCircle
 10
132.4644995438761
 20
81.43930390144641
 30
0.0
 40
0.5
100
AcDbArc
 50
90.0
 51
180.0
  0
LINE
  5
154D
330
1510
100
AcDbEntity
  8
太線
100
AcDbLine
 10
133.9644995438761
 20
81.93930390144641
 30
0.0
 11
132.4644995438761
 21
81.93930390144641
 31
0.0
  0
LINE
  5
154E
330
1510
100
AcDbEntity
  8
極太線
100
AcDbLine
 10
134.9056703552093
 20
83.26342923362075
 30
0.0
 11
136.0233287325429
 21
83.26342923362075
 31
0.0
  0
LINE
  5
154F
330
1510
100
AcDbEntity
  8
極太線
100
AcDbLine
 10
135.4644995438761
 20
83.82225842228752
 30
0.0
 11
135.4644995438761
 21
82.70460004495395
 31
0.0
  0
CIRCLE
  5
1550
330
1510
100
AcDbEntity
  8
太線
100
AcDbCircle
 10
135.4644995438761
 20
83.26342923362075
 30
0.0
 40
0.5588291886667776
  0
ARC
  5
1551
330
1510
100
AcDbEntity
  8
太線
100
AcDbCircle
 10
134.4644995438761
 20
86.43930390144641
 30
0.0
 40
0.5
100
AcDbArc
 50
90.0
 51
180.0
  0
CIRCLE
  5
1552
330
1510
100
AcDbEntity
  8
太線
100
AcDbCircle
 10
135.4644995438761
 20
85.43930390144641
 30
0.0
 40
0.5588291886667776
  0
LINE
  5
1553
330
1510
100
AcDbEntity
  8
極太線
100
AcDbLine
 10
135.4644995438761
 20
85.99813309011318
 30
0.0
 11
135.4644995438761
 21
84.88047471277964
 31
0.0
  0
LINE
  5
1554
330
1510
100
AcDbEntity
  8
極太線
100
AcDbLine
 10
134.9056703552093
 20
85.43930390144641
 30
0.0
 11
136.0233287325429
 21
85.43930390144641
 31
0.0
  0
LINE
  5
1555
330
1510
100
AcDbEntity
  8
太線
100
AcDbLine
 10
139.9825403279738
 20
81.93930390144641
 30
0.0
 11
139.9825403279738
 21
86.43930390144641
 31
0.0
  0
ARC
  5
1556
330
1510
100
AcDbEntity
  8
太線
100
AcDbCircle
 10
141.4825403279738
 20
81.43930390144641
 30
0.0
 40
0.5
100
AcDbArc
 50
0.0
 51
90.0
  0
LINE
  5
1557
330
1510
100
AcDbEntity
  8
極太線
100
AcDbLine
 10
138.4825403279738
 20
83.82225842228752
 30
0.0
 11
138.4825403279738
 21
82.70460004495395
 31
0.0
  0
LINE
  5
1558
330
1510
100
AcDbEntity
  8
太線
100
AcDbLine
 10
141.4825403279738
 20
81.93930390144641
 30
0.0
 11
139.9825403279738
 21
81.93930390144641
 31
0.0
  0
ARC
  5
1559
330
1510
100
AcDbEntity
  8
太線
100
AcDbCircle
 10
139.4825403279738
 20
86.43930390144641
 30
0.0
 40
0.5
100
AcDbArc
 50
0.0
 51
90.0
  0
LINE
  5
155A
330
1510
100
AcDbEntity
  8
極太線
100
AcDbLine
 10
138.4825403279738
 20
85.99813309011318
 30
0.0
 11
138.4825403279738
 21
84.88047471277964
 31
0.0
  0
ENDBLK
  5
155C
330
1510
100
AcDbEntity
  8
0
100
AcDbBlockEnd
  0
BLOCK
  5
4BF8
330
4BF6
100
AcDbEntity
  8
0
370
    25
100
AcDbBlockBegin
  2
A$C368717B1
 70
     0
 10
0.0
 20
0.0
 30
0.0
  3
A$C368717B1
  1

  0
XLINE
  5
4BF7
330
4BF6
100
AcDbEntity
  8
構築線
370
     5
100
AcDbXline
 10
86.55187578123673
 20
174.9505965364342
 30
0.0
 11
1.0
 21
0.0
 31
0.0
  0
ENDBLK
  5
4BF9
330
4BF6
100
AcDbEntity
  8
0
370
    25
100
AcDbBlockEnd
  0
BLOCK
  5
4C46
330
4C3C
100
AcDbEntity
  8
0
370
    25
100
AcDbBlockBegin
  2
*D3
 70
     1
 10
0.0
 20
0.0
 30
0.0
  3
*D3
  1

  0
LINE
  5
5BA3
330
4C3C
100
AcDbEntity
  8
寸法線
 62
     0
370
    -2
100
AcDbLine
 10
-139.4857773385774
 20
-43.44365680202156
 30
0.0
 11
-139.4857773385774
 21
-24.1772248714677
 31
0.0
  0
LINE
  5
5BA4
330
4C3C
100
AcDbEntity
  8
寸法線
 62
     0
370
    -2
100
AcDbLine
 10
-199.4857773385774
 20
-43.44365680202153
 30
0.0
 11
-199.4857773385774
 21
-24.1772248714677
 31
0.0
  0
LINE
  5
5BA5
330
4C3C
100
AcDbEntity
  8
寸法線
 62
     0
370
    -2
100
AcDbLine
 10
-142.4857773385774
 20
-27.1772248714677
 30
0.0
 11
-196.4857773385774
 21
-27.1772248714677
 31
0.0
  0
INSERT
  5
5BA6
330
4C3C
100
AcDbEntity
  8
寸法線
 62
     0
370
    -2
100
AcDbBlockReference
  2
_Closed
 10
-139.4857773385774
 20
-27.1772248714677
 30
0.0
 41
3.0
 42
3.0
 43
3.0
  0
INSERT
  5
5BA7
330
4C3C
100
AcDbEntity
  8
寸法線
 62
     0
370
    -2
100
AcDbBlockReference
  2
_Closed
 10
-199.4857773385774
 20
-27.1772248714677
 30
0.0
 41
3.0
 42
3.0
 43
3.0
 50
180.0
  0
MTEXT
  5
5BA8
330
4C3C
100
AcDbEntity
  8
寸法線
 62
     0
100
AcDbMText
 10
-169.4857773385774
 20
-22.1772248714677
 30
0.0
 40
8.0
 41
0.0
 71
     5
 72
     1
  1
58
  7
OKANO
 73
     1
 44
1.0
  0
POINT
  5
5BA9
330
4C3C
100
AcDbEntity
  8
Defpoints
 62
     0
370
    25
100
AcDbPoint
 10
-139.4857773385774
 20
-45.44365680202156
 30
0.0
  0
POINT
  5
5BAA
330
4C3C
100
AcDbEntity
  8
Defpoints
 62
     0
370
    25
100
AcDbPoint
 10
-199.4857773385774
 20
-45.44365680202154
 30
0.0
  0
POINT
  5
5BAB
330
4C3C
100
AcDbEntity
  8
Defpoints
 62
     0
370
    25
100
AcDbPoint
 10
-199.4857773385774
 20
-27.1772248714677
 30
0.0
  0
ENDBLK
  5
4C47
330
4C3C
100
AcDbEntity
  8
0
370
    25
100
AcDbBlockEnd
  0
BLOCK
  5
4C54
330
4C48
100
AcDbEntity
  8
0
370
    25
100
AcDbBlockBegin
  2
*D4
 70
     1
 10
0.0
 20
0.0
 30
0.0
  3
*D4
  1

  0
LINE
  5
4D3D
330
4C48
100
AcDbEntity
  8
寸法線
 62
     0
370
    -2
100
AcDbLine
 10
-166.9857773385774
 20
-53.44365680202156
 30
0.0
 11
-166.9857773385774
 21
-43.96426016222784
 31
0.0
  0
LINE
  5
4D3E
330
4C48
100
AcDbEntity
  8
寸法線
 62
     0
370
    -2
100
AcDbLine
 10
-171.9857773385774
 20
-53.44365680202156
 30
0.0
 11
-171.9857773385774
 21
-43.96426016222784
 31
0.0
  0
LINE
  5
4D3F
330
4C48
100
AcDbEntity
  8
寸法線
 62
     0
370
    -2
100
AcDbLine
 10
-163.9857773385774
 20
-46.96426016222784
 30
0.0
 11
-160.9857773385774
 21
-46.96426016222784
 31
0.0
  0
LINE
  5
4D40
330
4C48
100
AcDbEntity
  8
寸法線
 62
     0
370
    -2
100
AcDbLine
 10
-174.9857773385774
 20
-46.96426016222784
 30
0.0
 11
-177.9857773385774
 21
-46.96426016222784
 31
0.0
  0
LINE
  5
4D41
330
4C48
100
AcDbEntity
  8
寸法線
 62
     0
370
    -2
100
AcDbLine
 10
-166.9857773385774
 20
-46.96426016222784
 30
0.0
 11
-171.9857773385774
 21
-46.96426016222784
 31
0.0
  0
INSERT
  5
4D42
330
4C48
100
AcDbEntity
  8
寸法線
 62
     0
370
    -2
100
AcDbBlockReference
  2
_Closed
 10
-166.9857773385774
 20
-46.96426016222784
 30
0.0
 41
3.0
 42
3.0
 43
3.0
 50
180.0
  0
INSERT
  5
4D43
330
4C48
100
AcDbEntity
  8
寸法線
 62
     0
370
    -2
100
AcDbBlockReference
  2
_Closed
 10
-171.9857773385774
 20
-46.96426016222784
 30
0.0
 41
3.0
 42
3.0
 43
3.0
  0
MTEXT
  5
4D44
330
4C48
100
AcDbEntity
  8
寸法線
 62
     0
100
AcDbMText
 10
-169.4857773385774
 20
-43.46426016222785
 30
0.0
 40
5.0
 41
0.0
 71
     5
 72
     1
  1
4
  7
OKANO
 73
     1
 44
1.0
  0
POINT
  5
4D45
330
4C48
100
AcDbEntity
  8
Defpoints
 62
     0
370
    25
100
AcDbPoint
 10
-166.9857773385774
 20
-55.44365680202156
 30
0.0
  0
POINT
  5
4D46
330
4C48
100
AcDbEntity
  8
Defpoints
 62
     0
370
    25
100
AcDbPoint
 10
-171.9857773385774
 20
-55.44365680202156
 30
0.0
  0
POINT
  5
4D47
330
4C48
100
AcDbEntity
  8
Defpoints
 62
     0
370
    25
100
AcDbPoint
 10
-171.9857773385774
 20
-46.96426016222784
 30
0.0
  0
ENDBLK
  5
4C55
330
4C48
100
AcDbEntity
  8
0
370
    25
100
AcDbBlockEnd
  0
BLOCK
  5
4CBD
330
4CB3
100
AcDbEntity
  8
0
370
    25
100
AcDbBlockBegin
  2
*D5
 70
     1
 10
0.0
 20
0.0
 30
0.0
  3
*D5
  1

  0
LINE
  5
5D66
330
4CB3
100
AcDbEntity
  8
寸法線
 62
     0
370
    -2
100
AcDbLine
 10
-443.1580798947759
 20
-40.78520681803482
 30
0.0
 11
-443.1580798947759
 21
-24.76733698554676
 31
0.0
  0
LINE
  5
5D67
330
4CB3
100
AcDbEntity
  8
寸法線
 62
     0
370
    -2
100
AcDbLine
 10
-348.1580798947759
 20
-80.78520681803485
 30
0.0
 11
-348.1580798947759
 21
-24.76733698554676
 31
0.0
  0
LINE
  5
5D68
330
4CB3
100
AcDbEntity
  8
寸法線
 62
     0
370
    -2
100
AcDbLine
 10
-440.6580798947759
 20
-26.01733698554676
 30
0.0
 11
-350.6580798947759
 21
-26.01733698554676
 31
0.0
  0
SOLID
  5
5D69
330
4CB3
100
AcDbEntity
  8
寸法線
 62
     0
370
    25
100
AcDbTrace
 10
-440.6580798947759
 20
-25.60067031888009
 30
0.0
 11
-440.6580798947759
 21
-26.43400365221343
 31
0.0
 12
-443.1580798947759
 22
-26.01733698554676
 32
0.0
 13
-443.1580798947759
 23
-26.01733698554676
 33
0.0
  0
SOLID
  5
5D6A
330
4CB3
100
AcDbEntity
  8
寸法線
 62
     0
370
    25
100
AcDbTrace
 10
-350.6580798947759
 20
-25.60067031888009
 30
0.0
 11
-350.6580798947759
 21
-26.43400365221343
 31
0.0
 12
-348.1580798947759
 22
-26.01733698554676
 32
0.0
 13
-348.1580798947759
 23
-26.01733698554676
 33
0.0
  0
MTEXT
  5
5D6B
330
4CB3
100
AcDbEntity
  8
寸法線
 62
     0
370
    25
100
AcDbMText
 10
-395.6580798947759
 20
-21.39233698554676
 30
0.0
 40
8.0
 41
0.0
 71
     5
 72
     1
  1
92
 73
     1
 44
1.0
  0
POINT
  5
5D6C
330
4CB3
100
AcDbEntity
  8
Defpoints
 62
     0
370
    25
100
AcDbPoint
 10
-443.1580798947759
 20
-41.41020681803482
 30
0.0
  0
POINT
  5
5D6D
330
4CB3
100
AcDbEntity
  8
Defpoints
 62
     0
370
    25
100
AcDbPoint
 10
-348.1580798947759
 20
-81.41020681803485
 30
0.0
  0
POINT
  5
5D6E
330
4CB3
100
AcDbEntity
  8
Defpoints
 62
     0
370
    25
100
AcDbPoint
 10
-348.1580798947759
 20
-26.01733698554676
 30
0.0
  0
ENDBLK
  5
4CBE
330
4CB3
100
AcDbEntity
  8
0
370
    25
100
AcDbBlockEnd
  0
BLOCK
  5
5BB7
330
5BAD
100
AcDbEntity
  8
0
370
    25
100
AcDbBlockBegin
  2
*D6
 70
     1
 10
0.0
 20
0.0
 30
0.0
  3
*D6
  1

  0
LINE
  5
5BC2
330
5BAD
100
AcDbEntity
  8
寸法線
 62
     0
370
    -2
100
AcDbLine
 10
-138.8607773385774
 20
-45.44365680202156
 30
0.0
 11
-116.4697268430572
 21
-45.44365680202156
 31
0.0
  0
LINE
  5
5BC3
330
5BAD
100
AcDbEntity
  8
寸法線
 62
     0
370
    -2
100
AcDbLine
 10
-168.8607773385774
 20
-140.4436568020215
 30
0.0
 11
-116.4697268430572
 21
-140.4436568020215
 31
0.0
  0
LINE
  5
5BC4
330
5BAD
100
AcDbEntity
  8
寸法線
 62
     0
370
    -2
100
AcDbLine
 10
-117.7197268430572
 20
-47.94365680202156
 30
0.0
 11
-117.7197268430572
 21
-137.9436568020215
 31
0.0
  0
SOLID
  5
5BC5
330
5BAD
100
AcDbEntity
  8
寸法線
 62
     0
370
    25
100
AcDbTrace
 10
-118.1363935097239
 20
-47.94365680202156
 30
0.0
 11
-117.3030601763906
 21
-47.94365680202156
 31
0.0
 12
-117.7197268430572
 22
-45.44365680202156
 32
0.0
 13
-117.7197268430572
 23
-45.44365680202156
 33
0.0
  0
SOLID
  5
5BC6
330
5BAD
100
AcDbEntity
  8
寸法線
 62
     0
370
    25
100
AcDbTrace
 10
-118.1363935097239
 20
-137.9436568020215
 30
0.0
 11
-117.3030601763906
 21
-137.9436568020215
 31
0.0
 12
-117.7197268430572
 22
-140.4436568020215
 32
0.0
 13
-117.7197268430572
 23
-140.4436568020215
 33
0.0
  0
MTEXT
  5
5BC7
330
5BAD
100
AcDbEntity
  8
寸法線
 62
     0
370
    25
100
AcDbMText
 10
-122.3447268430572
 20
-92.94365680202158
 30
0.0
 40
8.0
 41
0.0
 71
     5
 72
     1
  1
92
 11
0.0000000000000001
 21
1.0
 31
0.0
 73
     1
 44
1.0
  0
POINT
  5
5BC8
330
5BAD
100
AcDbEntity
  8
Defpoints
 62
     0
370
    25
100
AcDbPoint
 10
-139.4857773385774
 20
-45.44365680202156
 30
0.0
  0
POINT
  5
5BC9
330
5BAD
100
AcDbEntity
  8
Defpoints
 62
     0
370
    25
100
AcDbPoint
 10
-169.4857773385774
 20
-140.4436568020215
 30
0.0
  0
POINT
  5
5BCA
330
5BAD
100
AcDbEntity
  8
Defpoints
 62
     0
370
    25
100
AcDbPoint
 10
-117.7197268430572
 20
-140.4436568020215
 30
0.0
  0
ENDBLK
  5
5BB8
330
5BAD
100
AcDbEntity
  8
0
370
    25
100
AcDbBlockEnd
  0
BLOCK
  5
5BD6
330
5BCC
100
AcDbEntity
  8
0
370
    25
100
AcDbBlockBegin
  2
*D7
 70
     1
 10
0.0
 20
0.0
 30
0.0
  3
*D7
  1

  0
LINE
  5
5D2B
330
5BCC
100
AcDbEntity
  8
寸法線
 62
     0
370
    -2
100
AcDbLine
 10
-488.7981927109713
 20
-131.4102068180348
 30
0.0
 11
-519.2397071071963
 21
-131.4102068180348
 31
0.0
  0
LINE
  5
5D2C
330
5BCC
100
AcDbEntity
  8
寸法線
 62
     0
370
    -2
100
AcDbLine
 10
-607.8104373826781
 20
-312.8927409748897
 30
0.0
 11
-516.7397071071964
 21
-312.8927409748897
 31
0.0
  0
LINE
  5
5D2D
330
5BCC
100
AcDbEntity
  8
寸法線
 62
     0
370
    -2
100
AcDbLine
 10
-517.9897071071962
 20
-133.9102068180348
 30
0.0
 11
-517.9897071071963
 21
-310.3927409748897
 31
0.0
  0
SOLID
  5
5D2E
330
5BCC
100
AcDbEntity
  8
寸法線
 62
     0
370
    25
100
AcDbTrace
 10
-518.4063737738629
 20
-133.9102068180348
 30
0.0
 11
-517.5730404405296
 21
-133.9102068180348
 31
0.0
 12
-517.9897071071962
 22
-131.4102068180348
 32
0.0
 13
-517.9897071071962
 23
-131.4102068180348
 33
0.0
  0
SOLID
  5
5D2F
330
5BCC
100
AcDbEntity
  8
寸法線
 62
     0
370
    25
100
AcDbTrace
 10
-518.406373773863
 20
-310.3927409748897
 30
0.0
 11
-517.5730404405298
 21
-310.3927409748897
 31
0.0
 12
-517.9897071071963
 22
-312.8927409748897
 32
0.0
 13
-517.9897071071963
 23
-312.8927409748897
 33
0.0
  0
MTEXT
  5
5D30
330
5BCC
100
AcDbEntity
  8
寸法線
 62
     0
370
    25
100
AcDbMText
 10
-522.6147071071962
 20
-222.1514738964623
 30
0.0
 40
8.0
 41
0.0
 71
     5
 72
     1
  1
210
 11
0.0000000000000001
 21
1.0
 31
0.0
 73
     1
 44
1.0
  0
POINT
  5
5D31
330
5BCC
100
AcDbEntity
  8
Defpoints
 62
     0
370
    25
100
AcDbPoint
 10
-488.1731927109712
 20
-131.4102068180348
 30
0.0
  0
POINT
  5
5D32
330
5BCC
100
AcDbEntity
  8
Defpoints
 62
     0
370
    25
100
AcDbPoint
 10
-608.4354373826782
 20
-312.8927409748897
 30
0.0
  0
POINT
  5
5D33
330
5BCC
100
AcDbEntity
  8
Defpoints
 62
     0
370
    25
100
AcDbPoint
 10
-517.9897071071963
 20
-312.8927409748897
 30
0.0
  0
ENDBLK
  5
5BD7
330
5BCC
100
AcDbEntity
  8
0
370
    25
100
AcDbBlockEnd
  0
BLOCK
  5
5C1D
330
5C13
100
AcDbEntity
  8
0
370
    25
100
AcDbBlockBegin
  2
*D8
 70
     1
 10
0.0
 20
0.0
 30
0.0
  3
*D8
  1

  0
LINE
  5
5D41
330
5C13
100
AcDbEntity
  8
寸法線
 62
     0
370
    -2
100
AcDbLine
 10
-412.5330798947759
 20
-136.4102068180348
 30
0.0
 11
-381.1298302006263
 21
-136.4102068180348
 31
0.0
  0
LINE
  5
5D42
330
5C13
100
AcDbEntity
  8
寸法線
 62
     0
370
    -2
100
AcDbLine
 10
-412.5330798947759
 20
-256.0090170948774
 30
0.0
 11
-381.1298302006263
 21
-256.0090170948774
 31
0.0
  0
LINE
  5
5D43
330
5C13
100
AcDbEntity
  8
寸法線
 62
     0
370
    -2
100
AcDbLine
 10
-382.3798302006263
 20
-138.9102068180348
 30
0.0
 11
-382.3798302006263
 21
-253.5090170948774
 31
0.0
  0
SOLID
  5
5D44
330
5C13
100
AcDbEntity
  8
寸法線
 62
     0
370
    25
100
AcDbTrace
 10
-382.796496867293
 20
-138.9102068180348
 30
0.0
 11
-381.9631635339596
 21
-138.9102068180348
 31
0.0
 12
-382.3798302006263
 22
-136.4102068180348
 32
0.0
 13
-382.3798302006263
 23
-136.4102068180348
 33
0.0
  0
SOLID
  5
5D45
330
5C13
100
AcDbEntity
  8
寸法線
 62
     0
370
    25
100
AcDbTrace
 10
-382.796496867293
 20
-253.5090170948774
 30
0.0
 11
-381.9631635339596
 21
-253.5090170948774
 31
0.0
 12
-382.3798302006263
 22
-256.0090170948774
 32
0.0
 13
-382.3798302006263
 23
-256.0090170948774
 33
0.0
  0
MTEXT
  5
5D46
330
5C13
100
AcDbEntity
  8
寸法線
 62
     0
370
    25
100
AcDbMText
 10
-387.0048302006262
 20
-196.2096119564562
 30
0.0
 40
8.0
 41
0.0
 71
     5
 72
     1
  1
135
 11
0.0000000000000001
 21
1.0
 31
0.0
 73
     1
 44
1.0
  0
POINT
  5
5D47
330
5C13
100
AcDbEntity
  8
Defpoints
 62
     0
370
    25
100
AcDbPoint
 10
-413.1580798947759
 20
-136.4102068180348
 30
0.0
  0
POINT
  5
5D48
330
5C13
100
AcDbEntity
  8
Defpoints
 62
     0
370
    25
100
AcDbPoint
 10
-413.1580798947759
 20
-256.0090170948774
 30
0.0
  0
POINT
  5
5D49
330
5C13
100
AcDbEntity
  8
Defpoints
 62
     0
370
    25
100
AcDbPoint
 10
-382.3798302006263
 20
-256.0090170948774
 30
0.0
  0
ENDBLK
  5
5C1E
330
5C13
100
AcDbEntity
  8
0
370
    25
100
AcDbBlockEnd
  0
BLOCK
  5
5C3C
330
5C32
100
AcDbEntity
  8
0
370
    25
100
AcDbBlockBegin
  2
*D9
 70
     1
 10
0.0
 20
0.0
 30
0.0
  3
*D9
  1

  0
LINE
  5
5D5D
330
5C32
100
AcDbEntity
  8
寸法線
 62
     0
370
    -2
100
AcDbLine
 10
-238.0076431246519
 20
-136.4102068180348
 30
0.0
 11
-248.5737884174459
 21
-136.4102068180348
 31
0.0
  0
LINE
  5
5D5E
330
5C32
100
AcDbEntity
  8
寸法線
 62
     0
370
    -2
100
AcDbLine
 10
-284.2443403628331
 20
-223.7880800905627
 30
0.0
 11
-246.0737884174459
 21
-223.7880800905627
 31
0.0
  0
LINE
  5
5D5F
330
5C32
100
AcDbEntity
  8
寸法線
 62
     0
370
    -2
100
AcDbLine
 10
-247.3237884174459
 20
-138.9102068180348
 30
0.0
 11
-247.3237884174459
 21
-221.2880800905627
 31
0.0
  0
SOLID
  5
5D60
330
5C32
100
AcDbEntity
  8
寸法線
 62
     0
370
    25
100
AcDbTrace
 10
-247.7404550841125
 20
-138.9102068180348
 30
0.0
 11
-246.9071217507792
 21
-138.9102068180348
 31
0.0
 12
-247.3237884174459
 22
-136.4102068180348
 32
0.0
 13
-247.3237884174459
 23
-136.4102068180348
 33
0.0
  0
SOLID
  5
5D61
330
5C32
100
AcDbEntity
  8
寸法線
 62
     0
370
    25
100
AcDbTrace
 10
-247.7404550841125
 20
-221.2880800905627
 30
0.0
 11
-246.9071217507792
 21
-221.2880800905627
 31
0.0
 12
-247.3237884174459
 22
-223.7880800905627
 32
0.0
 13
-247.3237884174459
 23
-223.7880800905627
 33
0.0
  0
MTEXT
  5
5D62
330
5C32
100
AcDbEntity
  8
寸法線
 62
     0
370
    25
100
AcDbMText
 10
-251.9487884174458
 20
-180.0991434542988
 30
0.0
 40
8.0
 41
0.0
 71
     5
 72
     1
  1
85
 11
0.0000000000000001
 21
1.0
 31
0.0
 73
     1
 44
1.0
  0
POINT
  5
5D63
330
5C32
100
AcDbEntity
  8
Defpoints
 62
     0
370
    25
100
AcDbPoint
 10
-237.3826431246519
 20
-136.4102068180348
 30
0.0
  0
POINT
  5
5D64
330
5C32
100
AcDbEntity
  8
Defpoints
 62
     0
370
    25
100
AcDbPoint
 10
-284.8693403628331
 20
-223.7880800905627
 30
0.0
  0
POINT
  5
5D65
330
5C32
100
AcDbEntity
  8
Defpoints
 62
     0
370
    25
100
AcDbPoint
 10
-247.3237884174459
 20
-223.7880800905627
 30
0.0
  0
ENDBLK
  5
5C3D
330
5C32
100
AcDbEntity
  8
0
370
    25
100
AcDbBlockEnd
  0
BLOCK
  5
5C6F
330
5C69
100
AcDbEntity
  8
0
370
    25
100
AcDbBlockBegin
  2
*D10
 70
     1
 10
0.0
 20
0.0
 30
0.0
  3
*D10
  1

  0
LINE
  5
5D13
330
5C69
100
AcDbEntity
  8
寸法線
 62
     0
370
    -2
100
AcDbLine
 10
-543.8130476970382
 20
-339.8170168197691
 30
0.0
 11
-648.36071493218
 21
-184.7400531780663
 31
0.0
  0
MTEXT
  5
5D14
330
5C69
100
AcDbEntity
  8
寸法線
 62
     0
370
    25
100
AcDbMText
 10
-545.172162628037
 20
-329.5272888812481
 30
0.0
 40
8.0
 41
0.0
 71
     5
 72
     1
  1
150
 11
0.5589978781454647
 21
-0.8291690854276152
 31
0.0
 73
     1
 44
1.0
  0
SOLID
  5
5D15
330
5C69
100
AcDbEntity
  8
寸法線
 62
     0
370
    25
100
AcDbTrace
 10
-648.015227813252
 20
-184.5071373955057
 30
0.0
 11
-648.7062020511082
 21
-184.9729689606269
 31
0.0
 12
-649.7582096275436
 22
-182.6671304644973
 32
0.0
 13
-649.7582096275436
 23
-182.6671304644973
 33
0.0
  0
POINT
  5
5D16
330
5C69
100
AcDbEntity
  8
Defpoints
 62
     0
370
    25
100
AcDbPoint
 10
-649.7582096275436
 20
-182.6671304644973
 30
0.0
  0
POINT
  5
5D17
330
5C69
100
AcDbEntity
  8
Defpoints
 62
     0
370
    25
100
AcDbPoint
 10
-569.3724070668339
 20
-301.9044746414708
 30
0.0
  0
ENDBLK
  5
5C70
330
5C69
100
AcDbEntity
  8
0
370
    25
100
AcDbBlockEnd
  0
BLOCK
  5
5C82
330
5C7C
100
AcDbEntity
  8
0
370
    25
100
AcDbBlockBegin
  2
*D11
 70
     1
 10
0.0
 20
0.0
 30
0.0
  3
*D11
  1

  0
LINE
  5
5D3C
330
5C7C
100
AcDbEntity
  8
寸法線
 62
     0
370
    -2
100
AcDbLine
 10
-416.146556322531
 20
-286.6275405004592
 30
0.0
 11
-471.2837361276507
 21
-162.9570683343463
 31
0.0
  0
MTEXT
  5
5D3D
330
5C7C
100
AcDbEntity
  8
寸法線
 62
     0
370
    25
100
AcDbMText
 10
-415.4344865329383
 20
-276.8666897888282
 30
0.0
 40
8.0
 41
0.0
 71
     5
 72
     1
  1
100
 11
0.4072021675020576
 21
-0.9133380506590242
 31
0.0
 73
     1
 44
1.0
  0
SOLID
  5
5D3E
330
5C7C
100
AcDbEntity
  8
寸法線
 62
     0
370
    25
100
AcDbTrace
 10
-470.9031786065428
 20
-162.7874007645537
 30
0.0
 11
-471.6642936487586
 21
-163.1267359041388
 31
0.0
 12
-472.3017415464059
 22
-160.6737232076987
 32
0.0
 13
-472.3017415464059
 23
-160.6737232076987
 33
0.0
  0
POINT
  5
5D3F
330
5C7C
100
AcDbEntity
  8
Defpoints
 62
     0
370
    25
100
AcDbPoint
 10
-472.3017415464059
 20
-160.6737232076987
 30
0.0
  0
POINT
  5
5D40
330
5C7C
100
AcDbEntity
  8
Defpoints
 62
     0
370
    25
100
AcDbPoint
 10
-419.6586750172363
 20
-278.7499998135252
 30
0.0
  0
ENDBLK
  5
5C83
330
5C7C
100
AcDbEntity
  8
0
370
    25
100
AcDbBlockEnd
  0
BLOCK
  5
5CAE
330
5CA8
100
AcDbEntity
  8
0
370
    25
100
AcDbBlockBegin
  2
*D12
 70
     1
 10
0.0
 20
0.0
 30
0.0
  3
*D12
  1

  0
LINE
  5
5D4E
330
5CA8
100
AcDbEntity
  8
寸法線
 62
     0
370
    -2
100
AcDbLine
 10
-307.8224341382978
 20
-240.9179174161745
 30
0.0
 11
-344.532710827052
 21
-157.7918836129271
 31
0.0
  0
MTEXT
  5
5D4F
330
5CA8
100
AcDbEntity
  8
寸法線
 62
     0
370
    25
100
AcDbMText
 10
-306.5373321857959
 20
-232.3793261535918
 30
0.0
 40
8.0
 41
0.0
 71
     5
 72
     1
  1
65
 11
0.4039812537375263
 21
-0.9147672636406795
 31
0.0
 73
     1
 44
1.0
  0
SOLID
  5
5D50
330
5CA8
100
AcDbEntity
  8
寸法線
 62
     0
370
    25
100
AcDbTrace
 10
-344.1515578005351
 20
-157.6235580905365
 30
0.0
 11
-344.913863853569
 21
-157.9602091353178
 31
0.0
 12
-345.5426639613958
 22
-155.5049654538254
 32
0.0
 13
-345.5426639613958
 23
-155.5049654538254
 33
0.0
  0
POINT
  5
5D51
330
5CA8
100
AcDbEntity
  8
Defpoints
 62
     0
370
    25
100
AcDbPoint
 10
-345.5426639613958
 20
-155.5049654538254
 30
0.0
  0
POINT
  5
5D52
330
5CA8
100
AcDbEntity
  8
Defpoints
 62
     0
370
    25
100
AcDbPoint
 10
-316.4560136922939
 20
-221.3682084359543
 30
0.0
  0
ENDBLK
  5
5CAF
330
5CA8
100
AcDbEntity
  8
0
370
    25
100
AcDbBlockEnd
  0
BLOCK
  5
5DE4
330
5DDB
100
AcDbEntity
  8
0
370
    25
100
AcDbBlockBegin
  2
*D19
 70
     1
 10
0.0
 20
0.0
 30
0.0
  3
*D19
  1

  0
LINE
  5
5E42
330
5DDB
100
AcDbEntity
  8
寸法線
 62
     0
370
    -2
100
AcDbLine
 10
-520.2835745556379
 20
75.28123002942621
 30
0.0
 11
-546.5892703606323
 21
32.82750070252879
 31
0.0
  0
LINE
  5
5E43
330
5DDB
100
AcDbEntity
  8
寸法線
 62
     0
370
    -2
100
AcDbLine
 10
-559.7571150613101
 20
11.57643329548224
 30
0.0
 11
-561.0738995313779
 21
9.451326554777608
 31
0.0
  0
MTEXT
  5
5E44
330
5DDB
100
AcDbEntity
  8
寸法線
 62
     0
370
    25
100
AcDbMText
 10
-525.2443308041373
 20
73.20827382077775
 30
0.0
 40
5.0
 41
0.0
 71
     5
 72
     1
  1
20
 11
0.5267137880271112
 21
0.8500426962818581
 31
0.0
 73
     1
 44
1.0
  0
LINE
  5
5E45
330
5DDB
100
AcDbEntity
  8
寸法線
 62
     0
370
    -2
100
AcDbLine
 10
-558.4403305912424
 20
13.70154003618688
 30
0.0
 11
-547.9060548307001
 21
30.70239396182415
 31
0.0
  0
SOLID
  5
5E46
330
5DDB
100
AcDbEntity
  8
寸法線
 62
     0
370
    25
100
AcDbTrace
 10
-560.1112995180942
 20
11.7958973738269
 30
0.0
 11
-559.4029306045261
 21
11.35696921713761
 31
0.0
 12
-558.4403305912424
 22
13.70154003618688
 32
0.0
 13
-558.4403305912424
 23
13.70154003618688
 33
0.0
  0
SOLID
  5
5E47
330
5DDB
100
AcDbEntity
  8
寸法線
 62
     0
370
    25
100
AcDbTrace
 10
-546.9434548174165
 20
33.04696478087345
 30
0.0
 11
-546.2350859038482
 21
32.60803662418416
 31
0.0
 12
-547.9060548307001
 22
30.70239396182415
 32
0.0
 13
-547.9060548307001
 23
30.70239396182415
 33
0.0
  0
POINT
  5
5E48
330
5DDB
100
AcDbEntity
  8
Defpoints
 62
     0
370
    25
100
AcDbPoint
 10
-547.9060548307001
 20
30.70239396182415
 30
0.0
  0
POINT
  5
5E49
330
5DDB
100
AcDbEntity
  8
Defpoints
 62
     0
370
    25
100
AcDbPoint
 10
-558.4403305912424
 20
13.70154003618688
 30
0.0
  0
ENDBLK
  5
5DE5
330
5DDB
100
AcDbEntity
  8
0
370
    25
100
AcDbBlockEnd
  0
BLOCK
  5
5DF0
330
5DE7
100
AcDbEntity
  8
0
370
    25
100
AcDbBlockBegin
  2
*D20
 70
     1
 10
0.0
 20
0.0
 30
0.0
  3
*D20
  1

  0
LINE
  5
5E4A
330
5DE7
100
AcDbEntity
  8
寸法線
 62
     0
370
    -2
100
AcDbLine
 10
-505.6939305472243
 20
64.19614409476432
 30
0.0
 11
-530.1616684400396
 21
26.80421879194239
 31
0.0
  0
LINE
  5
5E4B
330
5DE7
100
AcDbEntity
  8
寸法線
 62
     0
370
    -2
100
AcDbLine
 10
-536.184716981903
 20
17.59971520606893
 30
0.0
 11
-537.5535916505084
 21
15.50778257291588
 31
0.0
  0
MTEXT
  5
5E4C
330
5DE7
100
AcDbEntity
  8
寸法線
 62
     0
370
    25
100
AcDbMText
 10
-510.9325227868258
 20
61.89769988364435
 30
0.0
 40
5.0
 41
0.0
 71
     5
 72
     1
  1
\U+22056
 11
0.5475498674421329
 21
0.8367730532612188
 31
0.0
 73
     1
 44
1.0
  0
LINE
  5
5E4D
330
5DE7
100
AcDbEntity
  8
寸法線
 62
     0
370
    -2
100
AcDbLine
 10
-534.8158423132977
 20
19.69164783922198
 30
0.0
 11
-531.5305431086449
 21
24.71228615878934
 31
0.0
  0
SOLID
  5
5E4E
330
5DE7
100
AcDbEntity
  8
寸法線
 62
     0
370
    25
100
AcDbTrace
 10
-536.5333724207618
 20
17.82786098416983
 30
0.0
 11
-535.8360615430442
 21
17.37156942796804
 31
0.0
 12
-534.8158423132977
 22
19.69164783922198
 32
0.0
 13
-534.8158423132977
 23
19.69164783922198
 33
0.0
  0
SOLID
  5
5E4F
330
5DE7
100
AcDbEntity
  8
寸法線
 62
     0
370
    25
100
AcDbTrace
 10
-530.5103238788984
 20
27.03236457004328
 30
0.0
 11
-529.8130130011807
 21
26.57607301384149
 31
0.0
 12
-531.5305431086449
 22
24.71228615878934
 32
0.0
 13
-531.5305431086449
 23
24.71228615878934
 33
0.0
  0
POINT
  5
5E50
330
5DE7
100
AcDbEntity
  8
Defpoints
 62
     0
370
    25
100
AcDbPoint
 10
-531.5305431086449
 20
24.71228615878934
 30
0.0
  0
POINT
  5
5E51
330
5DE7
100
AcDbEntity
  8
Defpoints
 62
     0
370
    25
100
AcDbPoint
 10
-534.8158423132977
 20
19.69164783922198
 30
0.0
  0
ENDBLK
  5
5DF1
330
5DE7
100
AcDbEntity
  8
0
370
    25
100
AcDbBlockEnd
  0
BLOCK
  5
5DFC
330
5DF3
100
AcDbEntity
  8
0
370
    25
100
AcDbBlockBegin
  2
*D21
 70
     1
 10
0.0
 20
0.0
 30
0.0
  3
*D21
  1

  0
LINE
  5
5E5A
330
5DF3
100
AcDbEntity
  8
寸法線
 62
     0
370
    -2
100
AcDbLine
 10
-387.5055014584141
 20
62.57900932080975
 30
0.0
 11
-408.5999390038438
 21
29.37646012524194
 31
0.0
  0
LINE
  5
5E5B
330
5DF3
100
AcDbEntity
  8
寸法線
 62
     0
370
    -2
100
AcDbLine
 10
-417.7162207857082
 20
15.02747387276937
 30
0.0
 11
-419.0568504595118
 21
12.91732883564105
 31
0.0
  0
MTEXT
  5
5E5C
330
5DF3
100
AcDbEntity
  8
寸法線
 62
     0
370
    25
100
AcDbMText
 10
-392.2658464050134
 20
60.91373343761103
 30
0.0
 40
5.0
 41
0.0
 71
     5
 72
     1
  1
12
 11
0.5362518695214364
 21
0.844058014851328
 31
0.0
 73
     1
 44
1.0
  0
LINE
  5
5E5D
330
5DF3
100
AcDbEntity
  8
寸法線
 62
     0
370
    -2
100
AcDbLine
 10
-416.3755911119046
 20
17.13761890989769
 30
0.0
 11
-409.9405686776473
 21
27.26631508811363
 31
0.0
  0
SOLID
  5
5E5E
330
5DF3
100
AcDbEntity
  8
寸法線
 62
     0
370
    25
100
AcDbTrace
 10
-418.0679116252296
 20
15.25091215173665
 30
0.0
 11
-417.3645299461868
 21
14.80403559380209
 31
0.0
 12
-416.3755911119046
 22
17.13761890989769
 32
0.0
 13
-416.3755911119046
 23
17.13761890989769
 33
0.0
  0
SOLID
  5
5E5F
330
5DF3
100
AcDbEntity
  8
寸法線
 62
     0
370
    25
100
AcDbTrace
 10
-408.9516298433651
 20
29.59989840420922
 30
0.0
 11
-408.2482481643224
 21
29.15302184627467
 31
0.0
 12
-409.9405686776473
 22
27.26631508811363
 32
0.0
 13
-409.9405686776473
 23
27.26631508811363
 33
0.0
  0
POINT
  5
5E60
330
5DF3
100
AcDbEntity
  8
Defpoints
 62
     0
370
    25
100
AcDbPoint
 10
-409.9405686776473
 20
27.26631508811363
 30
0.0
  0
POINT
  5
5E61
330
5DF3
100
AcDbEntity
  8
Defpoints
 62
     0
370
    25
100
AcDbPoint
 10
-416.3755911119046
 20
17.13761890989769
 30
0.0
  0
ENDBLK
  5
5DFD
330
5DF3
100
AcDbEntity
  8
0
370
    25
100
AcDbBlockEnd
  0
BLOCK
  5
5E08
330
5DFF
100
AcDbEntity
  8
0
370
    25
100
AcDbBlockBegin
  2
*D22
 70
     1
 10
0.0
 20
0.0
 30
0.0
  3
*D22
  1

  0
LINE
  5
5E62
330
5DFF
100
AcDbEntity
  8
寸法線
 62
     0
370
    -2
100
AcDbLine
 10
-369.6673935522848
 20
62.91395815694579
 30
0.0
 11
-390.4093431019598
 21
26.96583580952284
 31
0.0
  0
LINE
  5
5E63
330
5DFF
100
AcDbEntity
  8
寸法線
 62
     0
370
    -2
100
AcDbLine
 10
-395.9068166875921
 20
17.43809818848845
 30
0.0
 11
-397.1562425025085
 21
15.27270327461698
 31
0.0
  0
MTEXT
  5
5E64
330
5DFF
100
AcDbEntity
  8
寸法線
 62
     0
370
    25
100
AcDbMText
 10
-374.7688700065472
 20
60.32540017400442
 30
0.0
 40
5.0
 41
0.0
 71
     5
 72
     1
  1
\U+22056
 11
0.4997703259665753
 21
0.8661579655485846
 31
0.0
 73
     1
 44
1.0
  0
LINE
  5
5E65
330
5DFF
100
AcDbEntity
  8
寸法線
 62
     0
370
    -2
100
AcDbLine
 10
-394.6573908726757
 20
19.60349310235992
 30
0.0
 11
-391.6587689168762
 21
24.80044089565137
 31
0.0
  0
SOLID
  5
5E66
330
5DFF
100
AcDbEntity
  8
寸法線
 62
     0
370
    25
100
AcDbTrace
 10
-396.2677158399041
 20
17.64633582430787
 30
0.0
 11
-395.5459175352802
 21
17.22986055266903
 31
0.0
 12
-394.6573908726757
 22
19.60349310235992
 32
0.0
 13
-394.6573908726757
 23
19.60349310235992
 33
0.0
  0
SOLID
  5
5E67
330
5DFF
100
AcDbEntity
  8
寸法線
 62
     0
370
    25
100
AcDbTrace
 10
-390.7702422542718
 20
27.17407344534226
 30
0.0
 11
-390.0484439496479
 21
26.75759817370343
 31
0.0
 12
-391.6587689168762
 22
24.80044089565137
 32
0.0
 13
-391.6587689168762
 23
24.80044089565137
 33
0.0
  0
POINT
  5
5E68
330
5DFF
100
AcDbEntity
  8
Defpoints
 62
     0
370
    25
100
AcDbPoint
 10
-391.6587689168762
 20
24.80044089565137
 30
0.0
  0
POINT
  5
5E69
330
5DFF
100
AcDbEntity
  8
Defpoints
 62
     0
370
    25
100
AcDbPoint
 10
-394.6573908726757
 20
19.60349310235992
 30
0.0
  0
ENDBLK
  5
5E09
330
5DFF
100
AcDbEntity
  8
0
370
    25
100
AcDbBlockEnd
  0
BLOCK
  5
5E82
330
5E78
100
AcDbEntity
  8
0
370
    25
100
AcDbBlockBegin
  2
*D23
 70
     1
 10
0.0
 20
0.0
 30
0.0
  3
*D23
  1

  0
LINE
  5
5E79
330
5E78
100
AcDbEntity
  8
寸法線
 62
     0
370
    -2
100
AcDbLine
 10
-603.6589977235292
 20
-40.78520681803482
 30
0.0
 11
-603.6589977235292
 21
-1.910788141809007
 31
0.0
  0
LINE
  5
5E7A
330
5E78
100
AcDbEntity
  8
寸法線
 62
     0
370
    -2
100
AcDbLine
 10
-508.6589977235291
 20
-80.78520681803485
 30
0.0
 11
-508.6589977235291
 21
-1.910788141809007
 31
0.0
  0
LINE
  5
5E7B
330
5E78
100
AcDbEntity
  8
寸法線
 62
     0
370
    -2
100
AcDbLine
 10
-601.1589977235291
 20
-3.160788141809007
 30
0.0
 11
-511.1589977235292
 21
-3.160788141809007
 31
0.0
  0
SOLID
  5
5E7C
330
5E78
100
AcDbEntity
  8
寸法線
 62
     0
370
    25
100
AcDbTrace
 10
-601.1589977235291
 20
-2.74412147514234
 30
0.0
 11
-601.1589977235291
 21
-3.577454808475673
 31
0.0
 12
-603.6589977235292
 22
-3.160788141809007
 32
0.0
 13
-603.6589977235292
 23
-3.160788141809007
 33
0.0
  0
SOLID
  5
5E7D
330
5E78
100
AcDbEntity
  8
寸法線
 62
     0
370
    25
100
AcDbTrace
 10
-511.1589977235292
 20
-2.74412147514234
 30
0.0
 11
-511.1589977235292
 21
-3.577454808475673
 31
0.0
 12
-508.6589977235291
 22
-3.160788141809007
 32
0.0
 13
-508.6589977235291
 23
-3.160788141809007
 33
0.0
  0
MTEXT
  5
5E7E
330
5E78
100
AcDbEntity
  8
寸法線
 62
     0
370
    25
100
AcDbMText
 10
-556.1589977235292
 20
1.464211858190992
 30
0.0
 40
8.0
 41
0.0
 71
     5
 72
     1
  1
92
 73
     1
 44
1.0
  0
POINT
  5
5E7F
330
5E78
100
AcDbEntity
  8
Defpoints
 62
     0
370
    25
100
AcDbPoint
 10
-603.6589977235292
 20
-41.41020681803482
 30
0.0
  0
POINT
  5
5E80
330
5E78
100
AcDbEntity
  8
Defpoints
 62
     0
370
    25
100
AcDbPoint
 10
-508.6589977235291
 20
-81.41020681803485
 30
0.0
  0
POINT
  5
5E81
330
5E78
100
AcDbEntity
  8
Defpoints
 62
     0
370
    25
100
AcDbPoint
 10
-508.6589977235291
 20
-3.160788141809007
 30
0.0
  0
ENDBLK
  5
5E83
330
5E78
100
AcDbEntity
  8
0
370
    25
100
AcDbBlockEnd
  0
BLOCK
  5
5E8E
330
5E84
100
AcDbEntity
  8
0
370
    25
100
AcDbBlockBegin
  2
*D24
 70
     1
 10
0.0
 20
0.0
 30
0.0
  3
*D24
  1

  0
LINE
  5
5E85
330
5E84
100
AcDbEntity
  8
寸法線
 62
     0
370
    -2
100
AcDbLine
 10
-531.4799728392797
 20
-177.7428678023094
 30
0.0
 11
-525.5969218011137
 21
-177.7428678023094
 31
0.0
  0
LINE
  5
5E86
330
5E84
100
AcDbEntity
  8
寸法線
 62
     0
370
    -2
100
AcDbLine
 10
-553.9799728392797
 20
-37.74286780230943
 30
0.0
 11
-525.5969218011137
 21
-37.74286780230944
 31
0.0
  0
LINE
  5
5E87
330
5E84
100
AcDbEntity
  8
寸法線
 62
     0
370
    -2
100
AcDbLine
 10
-528.5969218011136
 20
-174.7428678023094
 30
0.0
 11
-528.5969218011136
 21
-40.74286780230943
 31
0.0
  0
INSERT
  5
5E88
330
5E84
100
AcDbEntity
  8
寸法線
 62
     0
370
    -2
100
AcDbBlockReference
  2
_Closed
 10
-528.5969218011136
 20
-177.7428678023094
 30
0.0
 41
3.0
 42
3.0
 43
3.0
 50
270.0
  0
INSERT
  5
5E89
330
5E84
100
AcDbEntity
  8
寸法線
 62
     0
370
    -2
100
AcDbBlockReference
  2
_Closed
 10
-528.5969218011136
 20
-37.74286780230943
 30
0.0
 41
3.0
 42
3.0
 43
3.0
 50
90.0
  0
MTEXT
  5
5E8A
330
5E84
100
AcDbEntity
  8
寸法線
 62
     0
100
AcDbMText
 10
-532.0969218011136
 20
-107.7428678023095
 30
0.0
 40
5.0
 41
0.0
 71
     5
 72
     1
  1
140
  7
OKANO
 11
0.0000000000000001
 21
1.0
 31
0.0
 73
     1
 44
1.0
  0
POINT
  5
5E8B
330
5E84
100
AcDbEntity
  8
Defpoints
 62
     0
370
    25
100
AcDbPoint
 10
-533.4799728392797
 20
-177.7428678023094
 30
0.0
  0
POINT
  5
5E8C
330
5E84
100
AcDbEntity
  8
Defpoints
 62
     0
370
    25
100
AcDbPoint
 10
-555.9799728392797
 20
-37.74286780230943
 30
0.0
  0
POINT
  5
5E8D
330
5E84
100
AcDbEntity
  8
Defpoints
 62
     0
370
    25
100
AcDbPoint
 10
-528.5969218011136
 20
-37.74286780230943
 30
0.0
  0
ENDBLK
  5
5E8F
330
5E84
100
AcDbEntity
  8
0
370
    25
100
AcDbBlockEnd
  0
BLOCK
  5
5E9A
330
5E90
100
AcDbEntity
  8
0
370
    25
100
AcDbBlockBegin
  2
*D25
 70
     1
 10
0.0
 20
0.0
 30
0.0
  3
*D25
  1

  0
LINE
  5
5E91
330
5E90
100
AcDbEntity
  8
寸法線
 62
     0
370
    -2
100
AcDbLine
 10
-588.4799728392797
 20
-179.7428678023094
 30
0.0
 11
-588.4799728392797
 21
-190.1280539646084
 31
0.0
  0
LINE
  5
5E92
330
5E90
100
AcDbEntity
  8
寸法線
 62
     0
370
    -2
100
AcDbLine
 10
-533.4799728392797
 20
-179.7428678023094
 30
0.0
 11
-533.4799728392797
 21
-190.1280539646084
 31
0.0
  0
LINE
  5
5E93
330
5E90
100
AcDbEntity
  8
寸法線
 62
     0
370
    -2
100
AcDbLine
 10
-585.4799728392797
 20
-187.1280539646084
 30
0.0
 11
-536.4799728392797
 21
-187.1280539646084
 31
0.0
  0
INSERT
  5
5E94
330
5E90
100
AcDbEntity
  8
寸法線
 62
     0
370
    -2
100
AcDbBlockReference
  2
_Closed
 10
-588.4799728392797
 20
-187.1280539646084
 30
0.0
 41
3.0
 42
3.0
 43
3.0
 50
180.0
  0
INSERT
  5
5E95
330
5E90
100
AcDbEntity
  8
寸法線
 62
     0
370
    -2
100
AcDbBlockReference
  2
_Closed
 10
-533.4799728392797
 20
-187.1280539646084
 30
0.0
 41
3.0
 42
3.0
 43
3.0
  0
MTEXT
  5
5E96
330
5E90
100
AcDbEntity
  8
寸法線
 62
     0
100
AcDbMText
 10
-560.9799728392797
 20
-183.6280539646083
 30
0.0
 40
5.0
 41
0.0
 71
     5
 72
     1
  1
60
  7
OKANO
 73
     1
 44
1.0
  0
POINT
  5
5E97
330
5E90
100
AcDbEntity
  8
Defpoints
 62
     0
370
    25
100
AcDbPoint
 10
-588.4799728392797
 20
-177.7428678023094
 30
0.0
  0
POINT
  5
5E98
330
5E90
100
AcDbEntity
  8
Defpoints
 62
     0
370
    25
100
AcDbPoint
 10
-533.4799728392797
 20
-177.7428678023094
 30
0.0
  0
POINT
  5
5E99
330
5E90
100
AcDbEntity
  8
Defpoints
 62
     0
370
    25
100
AcDbPoint
 10
-533.4799728392797
 20
-187.1280539646084
 30
0.0
  0
ENDBLK
  5
5E9B
330
5E90
100
AcDbEntity
  8
0
370
    25
100
AcDbBlockEnd
  0
BLOCK
  5
5EA6
330
5E9C
100
AcDbEntity
  8
0
370
    25
100
AcDbBlockBegin
  2
*D26
 70
     1
 10
0.0
 20
0.0
 30
0.0
  3
*D26
  1

  0
LINE
  5
5E9D
330
5E9C
100
AcDbEntity
  8
寸法線
 62
     0
370
    -2
100
AcDbLine
 10
-316.797916996245
 20
-177.1588234301149
 30
0.0
 11
-310.914865958079
 21
-177.1588234301149
 31
0.0
  0
LINE
  5
5E9E
330
5E9C
100
AcDbEntity
  8
寸法線
 62
     0
370
    -2
100
AcDbLine
 10
-339.297916996245
 20
-37.15882343011492
 30
0.0
 11
-310.9148659580789
 21
-37.15882343011493
 31
0.0
  0
LINE
  5
5E9F
330
5E9C
100
AcDbEntity
  8
寸法線
 62
     0
370
    -2
100
AcDbLine
 10
-313.914865958079
 20
-174.1588234301149
 30
0.0
 11
-313.9148659580789
 21
-40.15882343011493
 31
0.0
  0
INSERT
  5
5EA0
330
5E9C
100
AcDbEntity
  8
寸法線
 62
     0
370
    -2
100
AcDbBlockReference
  2
_Closed
 10
-313.914865958079
 20
-177.1588234301149
 30
0.0
 41
3.0
 42
3.0
 43
3.0
 50
270.0
  0
INSERT
  5
5EA1
330
5E9C
100
AcDbEntity
  8
寸法線
 62
     0
370
    -2
100
AcDbBlockReference
  2
_Closed
 10
-313.9148659580789
 20
-37.15882343011493
 30
0.0
 41
3.0
 42
3.0
 43
3.0
 50
90.0
  0
MTEXT
  5
5EA2
330
5E9C
100
AcDbEntity
  8
寸法線
 62
     0
100
AcDbMText
 10
-317.4148659580789
 20
-107.1588234301149
 30
0.0
 40
5.0
 41
0.0
 71
     5
 72
     1
  1
140
  7
OKANO
 11
0.0000000000000001
 21
1.0
 31
0.0
 73
     1
 44
1.0
  0
POINT
  5
5EA3
330
5E9C
100
AcDbEntity
  8
Defpoints
 62
     0
370
    25
100
AcDbPoint
 10
-318.797916996245
 20
-177.1588234301149
 30
0.0
  0
POINT
  5
5EA4
330
5E9C
100
AcDbEntity
  8
Defpoints
 62
     0
370
    25
100
AcDbPoint
 10
-341.297916996245
 20
-37.15882343011492
 30
0.0
  0
POINT
  5
5EA5
330
5E9C
100
AcDbEntity
  8
Defpoints
 62
     0
370
    25
100
AcDbPoint
 10
-313.9148659580789
 20
-37.15882343011493
 30
0.0
  0
ENDBLK
  5
5EA7
330
5E9C
100
AcDbEntity
  8
0
370
    25
100
AcDbBlockEnd
  0
BLOCK
  5
5EB4
330
5EA8
100
AcDbEntity
  8
0
370
    25
100
AcDbBlockBegin
  2
*D27
 70
     1
 10
0.0
 20
0.0
 30
0.0
  3
*D27
  1

  0
LINE
  5
5EA9
330
5EA8
100
AcDbEntity
  8
寸法線
 62
     0
370
    -2
100
AcDbLine
 10
-418.9386854877239
 20
-176.9528642174414
 30
0.0
 11
-427.8259402687504
 21
-176.9528642174414
 31
0.0
  0
LINE
  5
5EAA
330
5EA8
100
AcDbEntity
  8
寸法線
 62
     0
370
    -2
100
AcDbLine
 10
-418.5496784225561
 20
-174.952864217441
 30
0.0
 11
-427.8259402687504
 21
-174.952864217441
 31
0.0
  0
LINE
  5
5EAB
330
5EA8
100
AcDbEntity
  8
寸法線
 62
     0
370
    -2
100
AcDbLine
 10
-424.8259402687503
 20
-179.9528642174414
 30
0.0
 11
-424.8259402687503
 21
-182.9528642174414
 31
0.0
  0
LINE
  5
5EAC
330
5EA8
100
AcDbEntity
  8
寸法線
 62
     0
370
    -2
100
AcDbLine
 10
-424.8259402687503
 20
-171.952864217441
 30
0.0
 11
-424.8259402687503
 21
-163.78816906674
 31
0.0
  0
LINE
  5
5EAD
330
5EA8
100
AcDbEntity
  8
寸法線
 62
     0
370
    -2
100
AcDbLine
 10
-424.8259402687503
 20
-176.9528642174414
 30
0.0
 11
-424.8259402687503
 21
-174.952864217441
 31
0.0
  0
INSERT
  5
5EAE
330
5EA8
100
AcDbEntity
  8
寸法線
 62
     0
370
    -2
100
AcDbBlockReference
  2
_Closed
 10
-424.8259402687503
 20
-176.9528642174414
 30
0.0
 41
3.0
 42
3.0
 43
3.0
 50
90.0
  0
INSERT
  5
5EAF
330
5EA8
100
AcDbEntity
  8
寸法線
 62
     0
370
    -2
100
AcDbBlockReference
  2
_Closed
 10
-424.8259402687503
 20
-174.952864217441
 30
0.0
 41
3.0
 42
3.0
 43
3.0
 50
270.0
  0
MTEXT
  5
5EB0
330
5EA8
100
AcDbEntity
  8
寸法線
 62
     0
100
AcDbMText
 10
-428.3264323947346
 20
-166.3705166420905
 30
0.0
 40
5.0
 41
0.0
 71
     5
 72
     1
  1
2
  7
OKANO
 11
0.0000000000000001
 21
1.0
 31
0.0
 73
     1
 44
1.0
  0
POINT
  5
5EB1
330
5EA8
100
AcDbEntity
  8
Defpoints
 62
     0
370
    25
100
AcDbPoint
 10
-416.9386854877238
 20
-176.9528642174414
 30
0.0
  0
POINT
  5
5EB2
330
5EA8
100
AcDbEntity
  8
Defpoints
 62
     0
370
    25
100
AcDbPoint
 10
-416.5496784225561
 20
-174.952864217441
 30
0.0
  0
POINT
  5
5EB3
330
5EA8
100
AcDbEntity
  8
Defpoints
 62
     0
370
    25
100
AcDbPoint
 10
-424.8259402687503
 20
-174.952864217441
 30
0.0
  0
ENDBLK
  5
5EB5
330
5EA8
100
AcDbEntity
  8
0
370
    25
100
AcDbBlockEnd
  0
BLOCK
  5
5EC0
330
5EB6
100
AcDbEntity
  8
0
370
    25
100
AcDbBlockBegin
  2
*D28
 70
     1
 10
0.0
 20
0.0
 30
0.0
  3
*D28
  1

  0
LINE
  5
5EB7
330
5EB6
100
AcDbEntity
  8
寸法線
 62
     0
370
    -2
100
AcDbLine
 10
-346.297916996245
 20
-176.237938370603
 30
0.0
 11
-346.297916996245
 21
-187.3885986067541
 31
0.0
  0
LINE
  5
5EB8
330
5EB6
100
AcDbEntity
  8
寸法線
 62
     0
370
    -2
100
AcDbLine
 10
-406.3781791275878
 20
-183.8739533387888
 30
0.0
 11
-406.3781791275878
 21
-187.3885986067541
 31
0.0
  0
LINE
  5
5EB9
330
5EB6
100
AcDbEntity
  8
寸法線
 62
     0
370
    -2
100
AcDbLine
 10
-349.297916996245
 20
-184.3885986067541
 30
0.0
 11
-403.3781791275877
 21
-184.3885986067541
 31
0.0
  0
INSERT
  5
5EBA
330
5EB6
100
AcDbEntity
  8
寸法線
 62
     0
370
    -2
100
AcDbBlockReference
  2
_Closed
 10
-346.297916996245
 20
-184.3885986067541
 30
0.0
 41
3.0
 42
3.0
 43
3.0
  0
INSERT
  5
5EBB
330
5EB6
100
AcDbEntity
  8
寸法線
 62
     0
370
    -2
100
AcDbBlockReference
  2
_Closed
 10
-406.3781791275878
 20
-184.3885986067541
 30
0.0
 41
3.0
 42
3.0
 43
3.0
 50
180.0
  0
MTEXT
  5
5EBC
330
5EB6
100
AcDbEntity
  8
寸法線
 62
     0
100
AcDbMText
 10
-376.3380480619164
 20
-180.8885986067541
 30
0.0
 40
5.0
 41
0.0
 71
     5
 72
     1
  1
70
  7
OKANO
 73
     1
 44
1.0
  0
POINT
  5
5EBD
330
5EB6
100
AcDbEntity
  8
Defpoints
 62
     0
370
    25
100
AcDbPoint
 10
-346.297916996245
 20
-174.237938370603
 30
0.0
  0
POINT
  5
5EBE
330
5EB6
100
AcDbEntity
  8
Defpoints
 62
     0
370
    25
100
AcDbPoint
 10
-406.3781791275878
 20
-181.8739533387888
 30
0.0
  0
POINT
  5
5EBF
330
5EB6
100
AcDbEntity
  8
Defpoints
 62
     0
370
    25
100
AcDbPoint
 10
-406.3781791275878
 20
-184.3885986067541
 30
0.0
  0
ENDBLK
  5
5EC1
330
5EB6
100
AcDbEntity
  8
0
370
    25
100
AcDbBlockEnd
  0
BLOCK
  5
5ECE
330
5EC2
100
AcDbEntity
  8
0
370
    25
100
AcDbBlockBegin
  2
*D29
 70
     1
 10
0.0
 20
0.0
 30
0.0
  3
*D29
  1

  0
LINE
  5
5EC3
330
5EC2
100
AcDbEntity
  8
寸法線
 62
     0
370
    -2
100
AcDbLine
 10
-406.3781791275878
 20
-183.8739533387888
 30
0.0
 11
-406.3781791275878
 21
-187.3885986067541
 31
0.0
  0
LINE
  5
5EC4
330
5EC2
100
AcDbEntity
  8
寸法線
 62
     0
370
    -2
100
AcDbLine
 10
-416.4447838676869
 20
-183.5147177335268
 30
0.0
 11
-416.4447838676869
 21
-187.3885986067541
 31
0.0
  0
LINE
  5
5EC5
330
5EC2
100
AcDbEntity
  8
寸法線
 62
     0
370
    -2
100
AcDbLine
 10
-409.3781791275878
 20
-184.3885986067541
 30
0.0
 11
-413.4447838676869
 21
-184.3885986067541
 31
0.0
  0
LINE
  5
5EC6
330
5EC2
100
AcDbEntity
  8
寸法線
 62
     0
370
    -2
100
AcDbLine
 10
-411.4114814976374
 20
-184.3885986067541
 30
0.0
 11
-407.8114814976373
 21
-196.3885986067541
 31
0.0
  0
LINE
  5
5EC7
330
5EC2
100
AcDbEntity
  8
寸法線
 62
     0
370
    -2
100
AcDbLine
 10
-407.8114814976373
 20
-196.3885986067541
 30
0.0
 11
-396.2935323052062
 21
-196.3885986067541
 31
0.0
  0
MTEXT
  5
5EC8
330
5EC2
100
AcDbEntity
  8
寸法線
 62
     0
100
AcDbMText
 10
-402.0525069014217
 20
-192.8885986067541
 30
0.0
 40
5.0
 41
0.0
 71
     5
 72
     1
  1
10.5
  7
OKANO
 73
     1
 44
1.0
  0
INSERT
  5
5EC9
330
5EC2
100
AcDbEntity
  8
寸法線
 62
     0
370
    -2
100
AcDbBlockReference
  2
_Closed
 10
-406.3781791275878
 20
-184.3885986067541
 30
0.0
 41
3.0
 42
3.0
 43
3.0
  0
INSERT
  5
5ECA
330
5EC2
100
AcDbEntity
  8
寸法線
 62
     0
370
    -2
100
AcDbBlockReference
  2
_Closed
 10
-416.4447838676869
 20
-184.3885986067541
 30
0.0
 41
3.0
 42
3.0
 43
3.0
 50
180.0
  0
POINT
  5
5ECB
330
5EC2
100
AcDbEntity
  8
Defpoints
 62
     0
370
    25
100
AcDbPoint
 10
-406.3781791275878
 20
-181.8739533387888
 30
0.0
  0
POINT
  5
5ECC
330
5EC2
100
AcDbEntity
  8
Defpoints
 62
     0
370
    25
100
AcDbPoint
 10
-416.4447838676869
 20
-181.5147177335268
 30
0.0
  0
POINT
  5
5ECD
330
5EC2
100
AcDbEntity
  8
Defpoints
 62
     0
370
    25
100
AcDbPoint
 10
-416.4447838676869
 20
-184.3885986067541
 30
0.0
  0
ENDBLK
  5
5ECF
330
5EC2
100
AcDbEntity
  8
0
370
    25
100
AcDbBlockEnd
  0
BLOCK
  5
5EDA
330
5ED0
100
AcDbEntity
  8
0
370
    25
100
AcDbBlockBegin
  2
*D30
 70
     1
 10
0.0
 20
0.0
 30
0.0
  3
*D30
  1

  0
LINE
  5
5ED1
330
5ED0
100
AcDbEntity
  8
寸法線
 62
     0
370
    -2
100
AcDbLine
 10
-411.4416025330133
 20
-171.508314706507
 30
0.0
 11
-411.4416025330133
 21
-160.0752377262729
 31
0.0
  0
LINE
  5
5ED2
330
5ED0
100
AcDbEntity
  8
寸法線
 62
     0
370
    -2
100
AcDbLine
 10
-400.3073221493182
 20
-170.8127769467348
 30
0.0
 11
-400.3073221493182
 21
-160.0752377262729
 31
0.0
  0
LINE
  5
5ED3
330
5ED0
100
AcDbEntity
  8
寸法線
 62
     0
370
    -2
100
AcDbLine
 10
-408.4416025330133
 20
-163.0752377262729
 30
0.0
 11
-403.3073221493181
 21
-163.0752377262729
 31
0.0
  0
INSERT
  5
5ED4
330
5ED0
100
AcDbEntity
  8
寸法線
 62
     0
370
    -2
100
AcDbBlockReference
  2
_Closed
 10
-411.4416025330133
 20
-163.0752377262729
 30
0.0
 41
3.0
 42
3.0
 43
3.0
 50
180.0
  0
INSERT
  5
5ED5
330
5ED0
100
AcDbEntity
  8
寸法線
 62
     0
370
    -2
100
AcDbBlockReference
  2
_Closed
 10
-400.3073221493182
 20
-163.0752377262729
 30
0.0
 41
3.0
 42
3.0
 43
3.0
  0
MTEXT
  5
5ED6
330
5ED0
100
AcDbEntity
  8
寸法線
 62
     0
100
AcDbMText
 10
-405.8744623411658
 20
-159.5752377262729
 30
0.0
 40
5.0
 41
0.0
 71
     5
 72
     1
  1
11
  7
OKANO
 73
     1
 44
1.0
  0
POINT
  5
5ED7
330
5ED0
100
AcDbEntity
  8
Defpoints
 62
     0
370
    25
100
AcDbPoint
 10
-411.4416025330133
 20
-173.508314706507
 30
0.0
  0
POINT
  5
5ED8
330
5ED0
100
AcDbEntity
  8
Defpoints
 62
     0
370
    25
100
AcDbPoint
 10
-400.3073221493182
 20
-172.8127769467348
 30
0.0
  0
POINT
  5
5ED9
330
5ED0
100
AcDbEntity
  8
Defpoints
 62
     0
370
    25
100
AcDbPoint
 10
-400.3073221493182
 20
-163.0752377262729
 30
0.0
  0
ENDBLK
  5
5EDB
330
5ED0
100
AcDbEntity
  8
0
370
    25
100
AcDbBlockEnd
  0
BLOCK
  5
5EE6
330
5EDC
100
AcDbEntity
  8
0
370
    25
100
AcDbBlockBegin
  2
*D31
 70
     1
 10
0.0
 20
0.0
 30
0.0
  3
*D31
  1

  0
LINE
  5
5EDD
330
5EDC
100
AcDbEntity
  8
寸法線
 62
     0
370
    -2
100
AcDbLine
 10
-319.049678422556
 20
-178.9528642174414
 30
0.0
 11
-319.049678422556
 21
-187.3885986067541
 31
0.0
  0
LINE
  5
5EDE
330
5EDC
100
AcDbEntity
  8
寸法線
 62
     0
370
    -2
100
AcDbLine
 10
-346.297916996245
 20
-176.237938370603
 30
0.0
 11
-346.297916996245
 21
-187.3885986067541
 31
0.0
  0
LINE
  5
5EDF
330
5EDC
100
AcDbEntity
  8
寸法線
 62
     0
370
    -2
100
AcDbLine
 10
-322.0496784225561
 20
-184.3885986067541
 30
0.0
 11
-343.297916996245
 21
-184.3885986067541
 31
0.0
  0
INSERT
  5
5EE0
330
5EDC
100
AcDbEntity
  8
寸法線
 62
     0
370
    -2
100
AcDbBlockReference
  2
_Closed
 10
-319.049678422556
 20
-184.3885986067541
 30
0.0
 41
3.0
 42
3.0
 43
3.0
  0
INSERT
  5
5EE1
330
5EDC
100
AcDbEntity
  8
寸法線
 62
     0
370
    -2
100
AcDbBlockReference
  2
_Closed
 10
-346.297916996245
 20
-184.3885986067541
 30
0.0
 41
3.0
 42
3.0
 43
3.0
 50
180.0
  0
MTEXT
  5
5EE2
330
5EDC
100
AcDbEntity
  8
寸法線
 62
     0
100
AcDbMText
 10
-332.6737977094005
 20
-180.8885986067541
 30
0.0
 40
5.0
 41
0.0
 71
     5
 72
     1
  1
30
  7
OKANO
 73
     1
 44
1.0
  0
POINT
  5
5EE3
330
5EDC
100
AcDbEntity
  8
Defpoints
 62
     0
370
    25
100
AcDbPoint
 10
-319.049678422556
 20
-176.9528642174414
 30
0.0
  0
POINT
  5
5EE4
330
5EDC
100
AcDbEntity
  8
Defpoints
 62
     0
370
    25
100
AcDbPoint
 10
-346.297916996245
 20
-174.237938370603
 30
0.0
  0
POINT
  5
5EE5
330
5EDC
100
AcDbEntity
  8
Defpoints
 62
     0
370
    25
100
AcDbPoint
 10
-346.297916996245
 20
-184.3885986067541
 30
0.0
  0
ENDBLK
  5
5EE7
330
5EDC
100
AcDbEntity
  8
0
370
    25
100
AcDbBlockEnd
  0
BLOCK
  5
5EF2
330
5EE8
100
AcDbEntity
  8
0
370
    25
100
AcDbBlockBegin
  2
*D32
 70
     1
 10
0.0
 20
0.0
 30
0.0
  3
*D32
  1

  0
LINE
  5
5EE9
330
5EE8
100
AcDbEntity
  8
寸法線
 62
     0
370
    -2
100
AcDbLine
 10
-406.0700172647632
 20
-239.9433452763074
 30
0.0
 11
-406.0700172647632
 21
-275.5833358500258
 31
0.0
  0
LINE
  5
5EEA
330
5EE8
100
AcDbEntity
  8
寸法線
 62
     0
370
    -2
100
AcDbLine
 10
-336.070017264764
 20
-239.9433452763081
 30
0.0
 11
-336.070017264764
 21
-275.5833358500258
 31
0.0
  0
LINE
  5
5EEB
330
5EE8
100
AcDbEntity
  8
寸法線
 62
     0
370
    -2
100
AcDbLine
 10
-403.5700172647632
 20
-274.3333358500258
 30
0.0
 11
-338.570017264764
 21
-274.3333358500258
 31
0.0
  0
SOLID
  5
5EEC
330
5EE8
100
AcDbEntity
  8
寸法線
 62
     0
370
    25
100
AcDbTrace
 10
-403.5700172647632
 20
-273.9166691833591
 30
0.0
 11
-403.5700172647632
 21
-274.7500025166925
 31
0.0
 12
-406.0700172647632
 22
-274.3333358500258
 32
0.0
 13
-406.0700172647632
 23
-274.3333358500258
 33
0.0
  0
SOLID
  5
5EED
330
5EE8
100
AcDbEntity
  8
寸法線
 62
     0
370
    25
100
AcDbTrace
 10
-338.570017264764
 20
-273.9166691833591
 30
0.0
 11
-338.570017264764
 21
-274.7500025166925
 31
0.0
 12
-336.070017264764
 22
-274.3333358500258
 32
0.0
 13
-336.070017264764
 23
-274.3333358500258
 33
0.0
  0
MTEXT
  5
5EEE
330
5EE8
100
AcDbEntity
  8
寸法線
 62
     0
370
    25
100
AcDbMText
 10
-371.0700172647636
 20
-272.4583358500258
 30
0.0
 40
2.5
 41
0.0
 71
     5
 72
     1
  1
70
 73
     1
 44
1.0
  0
POINT
  5
5EEF
330
5EE8
100
AcDbEntity
  8
Defpoints
 62
     0
370
    25
100
AcDbPoint
 10
-406.0700172647632
 20
-239.3183452763074
 30
0.0
  0
POINT
  5
5EF0
330
5EE8
100
AcDbEntity
  8
Defpoints
 62
     0
370
    25
100
AcDbPoint
 10
-336.070017264764
 20
-239.3183452763081
 30
0.0
  0
POINT
  5
5EF1
330
5EE8
100
AcDbEntity
  8
Defpoints
 62
     0
370
    25
100
AcDbPoint
 10
-336.070017264764
 20
-274.3333358500258
 30
0.0
  0
ENDBLK
  5
5EF3
330
5EE8
100
AcDbEntity
  8
0
370
    25
100
AcDbBlockEnd
  0
BLOCK
  5
5EFD
330
5EF4
100
AcDbEntity
  8
0
370
    25
100
AcDbBlockBegin
  2
*D33
 70
     1
 10
0.0
 20
0.0
 30
0.0
  3
*D33
  1

  0
LINE
  5
5EF5
330
5EF4
100
AcDbEntity
  8
寸法線
 62
     0
370
    -2
100
AcDbLine
 10
-364.6296533015819
 20
-201.2454764426479
 30
0.0
 11
-341.3206037206777
 21
-232.3187851566306
 31
0.0
  0
LINE
  5
5EF6
330
5EF4
100
AcDbEntity
  8
寸法線
 62
     0
370
    -2
100
AcDbLine
 10
-330.8194308088497
 20
-246.3179053959847
 30
0.0
 11
-329.0192297382507
 21
-248.7177545798739
 31
0.0
  0
MTEXT
  5
5EF7
330
5EF4
100
AcDbEntity
  8
寸法線
 62
     0
100
AcDbMText
 10
-359.2367232981485
 20
-202.6021130469684
 30
0.0
 40
5.0
 41
0.0
 71
     5
 72
     1
  1
30
  7
OKANO
 11
0.6000670235330248
 21
-0.7999497279630866
 31
0.0
 73
     1
 44
1.0
  0
LINE
  5
5EF8
330
5EF4
100
AcDbEntity
  8
寸法線
 62
     0
370
    -2
100
AcDbLine
 10
-332.6196318794488
 20
-243.9180562120954
 30
0.0
 11
-339.5204026500786
 21
-234.7186343405198
 31
0.0
  0
INSERT
  5
5EF9
330
5EF4
100
AcDbEntity
  8
寸法線
 62
     0
370
    -2
100
AcDbBlockReference
  2
_Closed
 10
-332.6196318794488
 20
-243.9180562120954
 30
0.0
 41
3.0
 42
3.0
 43
3.0
 50
126.8746980036315
  0
INSERT
  5
5EFA
330
5EF4
100
AcDbEntity
  8
寸法線
 62
     0
370
    -2
100
AcDbBlockReference
  2
_Closed
 10
-339.5204026500786
 20
-234.7186343405198
 30
0.0
 41
3.0
 42
3.0
 43
3.0
 50
306.8746980036315
  0
POINT
  5
5EFB
330
5EF4
100
AcDbEntity
  8
Defpoints
 62
     0
370
    25
100
AcDbPoint
 10
-339.5204026500786
 20
-234.7186343405198
 30
0.0
  0
POINT
  5
5EFC
330
5EF4
100
AcDbEntity
  8
Defpoints
 62
     0
370
    25
100
AcDbPoint
 10
-332.6196318794488
 20
-243.9180562120954
 30
0.0
  0
ENDBLK
  5
5EFE
330
5EF4
100
AcDbEntity
  8
0
370
    25
100
AcDbBlockEnd
  0
BLOCK
  5
5F06
330
5EFF
100
AcDbEntity
  8
0
370
    25
100
AcDbBlockBegin
  2
*D34
 70
     1
 10
0.0
 20
0.0
 30
0.0
  3
*D34
  1

  0
LINE
  5
5F00
330
5EFF
100
AcDbEntity
  8
寸法線
 62
     0
370
    -2
100
AcDbLine
 10
-427.3169297290594
 20
-230.0171101247983
 30
0.0
 11
-418.1562607991443
 21
-234.0273650738619
 31
0.0
  0
MTEXT
  5
5F01
330
5EFF
100
AcDbEntity
  8
寸法線
 62
     0
370
    25
100
AcDbMText
 10
-423.1297560773919
 20
-229.803330306338
 30
0.0
 40
2.5
 41
0.0
 71
     5
 72
     1
  1
10.5
 11
0.9160668929915065
 21
-0.4010254949063561
 31
0.0
 73
     1
 44
1.0
  0
LINE
  5
5F02
330
5EFF
100
AcDbEntity
  8
寸法線
 62
     0
370
    -2
100
AcDbLine
 10
-406.0700172647639
 20
-239.3183452763072
 30
0.0
 11
-415.8660935666656
 21
-235.0299288111277
 31
0.0
  0
SOLID
  5
5F03
330
5EFF
100
AcDbEntity
  8
寸法線
 62
     0
370
    25
100
AcDbTrace
 10
-417.9891668429333
 20
-233.6456705351154
 30
0.0
 11
-418.3233547553554
 21
-234.4090596126084
 31
0.0
 12
-415.8660935666656
 22
-235.0299288111277
 32
0.0
 13
-415.8660935666656
 23
-235.0299288111277
 33
0.0
  0
POINT
  5
5F04
330
5EFF
100
AcDbEntity
  8
Defpoints
 62
     0
370
    25
100
AcDbPoint
 10
-415.8660935666656
 20
-235.0299288111277
 30
0.0
  0
POINT
  5
5F05
330
5EFF
100
AcDbEntity
  8
Defpoints
 62
     0
370
    25
100
AcDbPoint
 10
-406.0700172647639
 20
-239.3183452763072
 30
0.0
  0
ENDBLK
  5
5F07
330
5EFF
100
AcDbEntity
  8
0
370
    25
100
AcDbBlockEnd
  0
BLOCK
  5
5F11
330
5F08
100
AcDbEntity
  8
0
370
    25
100
AcDbBlockBegin
  2
*D35
 70
     1
 10
0.0
 20
0.0
 30
0.0
  3
*D35
  1

  0
LINE
  5
5F09
330
5F08
100
AcDbEntity
  8
寸法線
 62
     0
370
    -2
100
AcDbLine
 10
-385.1397698758617
 20
-230.1025889031004
 30
0.0
 11
-398.7483286751824
 21
-236.0945468649306
 31
0.0
  0
LINE
  5
5F0A
330
5F08
100
AcDbEntity
  8
寸法線
 62
     0
370
    -2
100
AcDbLine
 10
-413.3917058543447
 20
-242.5421436876848
 30
0.0
 11
-415.6797335385888
 21
-243.5495806912401
 31
0.0
  0
MTEXT
  5
5F0B
330
5F08
100
AcDbEntity
  8
寸法線
 62
     0
370
    25
100
AcDbMText
 10
-388.7553822338332
 20
-229.6458643943615
 30
0.0
 40
2.5
 41
0.0
 71
     5
 72
     1
  1
\U+220511
 11
0.9152110736976425
 21
0.4029748014221341
 31
0.0
 73
     1
 44
1.0
  0
LINE
  5
5F0C
330
5F08
100
AcDbEntity
  8
寸法線
 62
     0
370
    -2
100
AcDbLine
 10
-411.1036781701007
 20
-241.5347066841294
 30
0.0
 11
-401.0363563594266
 21
-237.1019838684859
 31
0.0
  0
SOLID
  5
5F0D
330
5F08
100
AcDbEntity
  8
寸法線
 62
     0
370
    25
100
AcDbTrace
 10
-413.559612021604
 20
-242.1608057403108
 30
0.0
 11
-413.2237996870855
 21
-242.9234816350588
 31
0.0
 12
-411.1036781701007
 22
-241.5347066841294
 32
0.0
 13
-411.1036781701007
 23
-241.5347066841294
 33
0.0
  0
SOLID
  5
5F0E
330
5F08
100
AcDbEntity
  8
寸法線
 62
     0
370
    25
100
AcDbTrace
 10
-398.9162348424416
 20
-235.7132089175566
 30
0.0
 11
-398.5804225079232
 21
-236.4758848123046
 31
0.0
 12
-401.0363563594266
 22
-237.1019838684859
 32
0.0
 13
-401.0363563594266
 23
-237.1019838684859
 33
0.0
  0
POINT
  5
5F0F
330
5F08
100
AcDbEntity
  8
Defpoints
 62
     0
370
    25
100
AcDbPoint
 10
-401.0363563594266
 20
-237.1019838684859
 30
0.0
  0
POINT
  5
5F10
330
5F08
100
AcDbEntity
  8
Defpoints
 62
     0
370
    25
100
AcDbPoint
 10
-411.1036781701007
 20
-241.5347066841294
 30
0.0
  0
ENDBLK
  5
5F12
330
5F08
100
AcDbEntity
  8
0
370
    25
100
AcDbBlockEnd
  0
BLOCK
  5
5F1C
330
5F13
100
AcDbEntity
  8
0
370
    25
100
AcDbBlockBegin
  2
*D36
 70
     1
 10
0.0
 20
0.0
 30
0.0
  3
*D36
  1

  0
LINE
  5
5F14
330
5F13
100
AcDbEntity
  8
寸法線
 62
     0
370
    -2
100
AcDbLine
 10
-322.8398312500583
 20
-223.8779235702547
 30
0.0
 11
-330.7020319555184
 21
-233.0535840103272
 31
0.0
  0
LINE
  5
5F15
330
5F13
100
AcDbEntity
  8
寸法線
 62
     0
370
    -2
100
AcDbLine
 10
-341.4380025740084
 20
-245.5831065422879
 30
0.0
 11
-343.0646647889311
 21
-247.4815190471305
 31
0.0
  0
MTEXT
  5
5F16
330
5F13
100
AcDbEntity
  8
寸法線
 62
     0
370
    25
100
AcDbMText
 10
-327.3814098739589
 20
-226.2965508766776
 30
0.0
 40
2.5
 41
0.0
 71
     5
 72
     1
  1
\U+220511.5
 11
0.6506648859690991
 21
0.7593650019370259
 31
0.0
 73
     1
 44
1.0
  0
LINE
  5
5F17
330
5F13
100
AcDbEntity
  8
寸法線
 62
     0
370
    -2
100
AcDbLine
 10
-339.8113403590856
 20
-243.6846940374454
 30
0.0
 11
-332.3286941704411
 21
-234.9519965151698
 31
0.0
  0
SOLID
  5
5F18
330
5F13
100
AcDbEntity
  8
寸法線
 62
     0
370
    25
100
AcDbTrace
 10
-341.7544046581488
 20
-245.3119961731341
 30
0.0
 11
-341.1216004898679
 21
-245.8542169114417
 31
0.0
 12
-339.8113403590856
 22
-243.6846940374454
 32
0.0
 13
-339.8113403590856
 23
-243.6846940374454
 33
0.0
  0
SOLID
  5
5F19
330
5F13
100
AcDbEntity
  8
寸法線
 62
     0
370
    25
100
AcDbTrace
 10
-331.0184340396588
 20
-232.7824736411733
 30
0.0
 11
-330.3856298713779
 21
-233.324694379481
 31
0.0
 12
-332.3286941704411
 22
-234.9519965151698
 32
0.0
 13
-332.3286941704411
 23
-234.9519965151698
 33
0.0
  0
POINT
  5
5F1A
330
5F13
100
AcDbEntity
  8
Defpoints
 62
     0
370
    25
100
AcDbPoint
 10
-332.3286941704411
 20
-234.9519965151698
 30
0.0
  0
POINT
  5
5F1B
330
5F13
100
AcDbEntity
  8
Defpoints
 62
     0
370
    25
100
AcDbPoint
 10
-339.8113403590856
 20
-243.6846940374454
 30
0.0
  0
ENDBLK
  5
5F1D
330
5F13
100
AcDbEntity
  8
0
370
    25
100
AcDbBlockEnd
  0
BLOCK
  5
5F27
330
5F1E
100
AcDbEntity
  8
0
370
    25
100
AcDbBlockBegin
  2
*D37
 70
     1
 10
0.0
 20
0.0
 30
0.0
  3
*D37
  1

  0
LINE
  5
5F1F
330
5F1E
100
AcDbEntity
  8
寸法線
 62
     0
370
    -2
100
AcDbLine
 10
-591.3067696370156
 20
-203.5624535024395
 30
0.0
 11
-567.9977200561113
 21
-234.6357622164222
 31
0.0
  0
LINE
  5
5F20
330
5F1E
100
AcDbEntity
  8
寸法線
 62
     0
370
    -2
100
AcDbLine
 10
-557.4965471442833
 20
-248.6348824557763
 30
0.0
 11
-555.6963460736842
 21
-251.0347316396656
 31
0.0
  0
MTEXT
  5
5F21
330
5F1E
100
AcDbEntity
  8
寸法線
 62
     0
100
AcDbMText
 10
-585.9138396335821
 20
-204.9190901067599
 30
0.0
 40
5.0
 41
0.0
 71
     5
 72
     1
  1
30
  7
OKANO
 11
0.6000670235330248
 21
-0.7999497279630866
 31
0.0
 73
     1
 44
1.0
  0
LINE
  5
5F22
330
5F1E
100
AcDbEntity
  8
寸法線
 62
     0
370
    -2
100
AcDbLine
 10
-559.2967482148824
 20
-246.2350332718871
 30
0.0
 11
-566.1975189855122
 21
-237.0356114003115
 31
0.0
  0
INSERT
  5
5F23
330
5F1E
100
AcDbEntity
  8
寸法線
 62
     0
370
    -2
100
AcDbBlockReference
  2
_Closed
 10
-559.2967482148824
 20
-246.2350332718871
 30
0.0
 41
3.0
 42
3.0
 43
3.0
 50
126.8746980036315
  0
INSERT
  5
5F24
330
5F1E
100
AcDbEntity
  8
寸法線
 62
     0
370
    -2
100
AcDbBlockReference
  2
_Closed
 10
-566.1975189855122
 20
-237.0356114003115
 30
0.0
 41
3.0
 42
3.0
 43
3.0
 50
306.8746980036315
  0
POINT
  5
5F25
330
5F1E
100
AcDbEntity
  8
Defpoints
 62
     0
370
    25
100
AcDbPoint
 10
-566.1975189855122
 20
-237.0356114003115
 30
0.0
  0
POINT
  5
5F26
330
5F1E
100
AcDbEntity
  8
Defpoints
 62
     0
370
    25
100
AcDbPoint
 10
-559.2967482148824
 20
-246.2350332718871
 30
0.0
  0
ENDBLK
  5
5F28
330
5F1E
100
AcDbEntity
  8
0
370
    25
100
AcDbBlockEnd
  0
BLOCK
  5
5F32
330
5F29
100
AcDbEntity
  8
0
370
    25
100
AcDbBlockBegin
  2
*D38
 70
     1
 10
0.0
 20
0.0
 30
0.0
  3
*D38
  1

  0
LINE
  5
5F2A
330
5F29
100
AcDbEntity
  8
寸法線
 62
     0
370
    -2
100
AcDbLine
 10
-549.5169475854919
 20
-226.1949006300464
 30
0.0
 11
-557.3791482909519
 21
-235.3705610701187
 31
0.0
  0
LINE
  5
5F2B
330
5F29
100
AcDbEntity
  8
寸法線
 62
     0
370
    -2
100
AcDbLine
 10
-568.1151189094419
 20
-247.9000836020795
 30
0.0
 11
-569.7417811243647
 21
-249.798496106922
 31
0.0
  0
MTEXT
  5
5F2C
330
5F29
100
AcDbEntity
  8
寸法線
 62
     0
370
    25
100
AcDbMText
 10
-554.0585262093925
 20
-228.6135279364692
 30
0.0
 40
2.5
 41
0.0
 71
     5
 72
     1
  1
\U+220511.5
 11
0.6506648859691039
 21
0.7593650019370218
 31
0.0
 73
     1
 44
1.0
  0
LINE
  5
5F2D
330
5F29
100
AcDbEntity
  8
寸法線
 62
     0
370
    -2
100
AcDbLine
 10
-566.4884566945192
 20
-246.0016710972369
 30
0.0
 11
-559.0058105058747
 21
-237.2689735749613
 31
0.0
  0
SOLID
  5
5F2E
330
5F29
100
AcDbEntity
  8
寸法線
 62
     0
370
    25
100
AcDbTrace
 10
-568.4315209935824
 20
-247.6289732329257
 30
0.0
 11
-567.7987168253016
 21
-248.1711939712333
 31
0.0
 12
-566.4884566945192
 22
-246.0016710972369
 32
0.0
 13
-566.4884566945192
 23
-246.0016710972369
 33
0.0
  0
SOLID
  5
5F2F
330
5F29
100
AcDbEntity
  8
寸法線
 62
     0
370
    25
100
AcDbTrace
 10
-557.6955503750923
 20
-235.0994507009649
 30
0.0
 11
-557.0627462068114
 21
-235.6416714392725
 31
0.0
 12
-559.0058105058747
 22
-237.2689735749613
 32
0.0
 13
-559.0058105058747
 23
-237.2689735749613
 33
0.0
  0
POINT
  5
5F30
330
5F29
100
AcDbEntity
  8
Defpoints
 62
     0
370
    25
100
AcDbPoint
 10
-559.0058105058747
 20
-237.2689735749613
 30
0.0
  0
POINT
  5
5F31
330
5F29
100
AcDbEntity
  8
Defpoints
 62
     0
370
    25
100
AcDbPoint
 10
-566.4884566945192
 20
-246.0016710972369
 30
0.0
  0
ENDBLK
  5
5F33
330
5F29
100
AcDbEntity
  8
0
370
    25
100
AcDbBlockEnd
  0
BLOCK
  5
5F3E
330
5F34
100
AcDbEntity
  8
0
370
    25
100
AcDbBlockBegin
  2
*D39
 70
     1
 10
0.0
 20
0.0
 30
0.0
  3
*D39
  1

  0
LINE
  5
5F35
330
5F34
100
AcDbEntity
  8
寸法線
 62
     0
370
    -2
100
AcDbLine
 10
-553.8576233141102
 20
-145.5151540244653
 30
0.0
 11
-490.2562789156122
 21
-145.5151540244653
 31
0.0
  0
LINE
  5
5F36
330
5F34
100
AcDbEntity
  8
寸法線
 62
     0
370
    -2
100
AcDbLine
 10
-533.0307999152378
 20
-178.2094095549684
 30
0.0
 11
-490.2562789156122
 21
-178.2094095549684
 31
0.0
  0
LINE
  5
5F37
330
5F34
100
AcDbEntity
  8
寸法線
 62
     0
370
    -2
100
AcDbLine
 10
-491.5062789156122
 20
-148.0151540244653
 30
0.0
 11
-491.5062789156122
 21
-175.7094095549684
 31
0.0
  0
SOLID
  5
5F38
330
5F34
100
AcDbEntity
  8
寸法線
 62
     0
370
    25
100
AcDbTrace
 10
-491.9229455822789
 20
-148.0151540244653
 30
0.0
 11
-491.0896122489456
 21
-148.0151540244653
 31
0.0
 12
-491.5062789156122
 22
-145.5151540244653
 32
0.0
 13
-491.5062789156122
 23
-145.5151540244653
 33
0.0
  0
SOLID
  5
5F39
330
5F34
100
AcDbEntity
  8
寸法線
 62
     0
370
    25
100
AcDbTrace
 10
-491.9229455822789
 20
-175.7094095549684
 30
0.0
 11
-491.0896122489456
 21
-175.7094095549684
 31
0.0
 12
-491.5062789156122
 22
-178.2094095549684
 32
0.0
 13
-491.5062789156122
 23
-178.2094095549684
 33
0.0
  0
MTEXT
  5
5F3A
330
5F34
100
AcDbEntity
  8
寸法線
 62
     0
370
    25
100
AcDbMText
 10
-494.6312789156122
 20
-161.8622817897169
 30
0.0
 40
5.0
 41
0.0
 71
     5
 72
     1
  1
40
 11
0.0000000000000001
 21
1.0
 31
0.0
 73
     1
 44
1.0
  0
POINT
  5
5F3B
330
5F34
100
AcDbEntity
  8
Defpoints
 62
     0
370
    25
100
AcDbPoint
 10
-554.4826233141102
 20
-145.5151540244653
 30
0.0
  0
POINT
  5
5F3C
330
5F34
100
AcDbEntity
  8
Defpoints
 62
     0
370
    25
100
AcDbPoint
 10
-533.6557999152378
 20
-178.2094095549684
 30
0.0
  0
POINT
  5
5F3D
330
5F34
100
AcDbEntity
  8
Defpoints
 62
     0
370
    25
100
AcDbPoint
 10
-491.5062789156122
 20
-178.2094095549684
 30
0.0
  0
ENDBLK
  5
5F3F
330
5F34
100
AcDbEntity
  8
0
370
    25
100
AcDbBlockEnd
  0
BLOCK
  5
5F4A
330
5F40
100
AcDbEntity
  8
0
370
    25
100
AcDbBlockBegin
  2
*D40
 70
     1
 10
0.0
 20
0.0
 30
0.0
  3
*D40
  1

  0
LINE
  5
5F41
330
5F40
100
AcDbEntity
  8
寸法線
 62
     0
370
    -2
100
AcDbLine
 10
-508.0339977235292
 20
-136.4102068180348
 30
0.0
 11
-488.6222444169503
 21
-136.4102068180348
 31
0.0
  0
LINE
  5
5F42
330
5F40
100
AcDbEntity
  8
寸法線
 62
     0
370
    -2
100
AcDbLine
 10
-508.0339977235292
 20
-76.41020681803485
 30
0.0
 11
-488.6222444169503
 21
-76.41020681803485
 31
0.0
  0
LINE
  5
5F43
330
5F40
100
AcDbEntity
  8
寸法線
 62
     0
370
    -2
100
AcDbLine
 10
-489.8722444169503
 20
-133.9102068180348
 30
0.0
 11
-489.8722444169502
 21
-78.91020681803485
 31
0.0
  0
SOLID
  5
5F44
330
5F40
100
AcDbEntity
  8
寸法線
 62
     0
370
    25
100
AcDbTrace
 10
-490.2889110836169
 20
-133.9102068180348
 30
0.0
 11
-489.4555777502836
 21
-133.9102068180348
 31
0.0
 12
-489.8722444169503
 22
-136.4102068180348
 32
0.0
 13
-489.8722444169503
 23
-136.4102068180348
 33
0.0
  0
SOLID
  5
5F45
330
5F40
100
AcDbEntity
  8
寸法線
 62
     0
370
    25
100
AcDbTrace
 10
-490.2889110836169
 20
-78.91020681803485
 30
0.0
 11
-489.4555777502835
 21
-78.91020681803485
 31
0.0
 12
-489.8722444169502
 22
-76.41020681803485
 32
0.0
 13
-489.8722444169502
 23
-76.41020681803485
 33
0.0
  0
MTEXT
  5
5F46
330
5F40
100
AcDbEntity
  8
寸法線
 62
     0
370
    25
100
AcDbMText
 10
-492.9972444169502
 20
-106.4102068180349
 30
0.0
 40
5.0
 41
0.0
 71
     5
 72
     1
  1
58
 11
0.0000000000000001
 21
1.0
 31
0.0
 73
     1
 44
1.0
  0
POINT
  5
5F47
330
5F40
100
AcDbEntity
  8
Defpoints
 62
     0
370
    25
100
AcDbPoint
 10
-508.6589977235291
 20
-136.4102068180348
 30
0.0
  0
POINT
  5
5F48
330
5F40
100
AcDbEntity
  8
Defpoints
 62
     0
370
    25
100
AcDbPoint
 10
-508.6589977235291
 20
-76.41020681803485
 30
0.0
  0
POINT
  5
5F49
330
5F40
100
AcDbEntity
  8
Defpoints
 62
     0
370
    25
100
AcDbPoint
 10
-489.8722444169502
 20
-76.41020681803485
 30
0.0
  0
ENDBLK
  5
5F4B
330
5F40
100
AcDbEntity
  8
0
370
    25
100
AcDbBlockEnd
  0
BLOCK
  5
6118
330
610E
100
AcDbEntity
  8
0
370
    25
100
AcDbBlockBegin
  2
*D42
 70
     1
 10
0.0
 20
0.0
 30
0.0
  3
*D42
  1

  0
LINE
  5
631E
330
610E
100
AcDbEntity
  8
寸法線
 62
     0
370
    -2
100
AcDbLine
 10
-84.38967361968048
 20
-38.87815702545472
 30
0.0
 11
-84.38967361968048
 21
-0.0037383492289109
 31
0.0
  0
LINE
  5
631F
330
610E
100
AcDbEntity
  8
寸法線
 62
     0
370
    -2
100
AcDbLine
 10
10.61032638031952
 20
-78.87815702545475
 30
0.0
 11
10.61032638031952
 21
-0.0037383492289109
 31
0.0
  0
LINE
  5
6320
330
610E
100
AcDbEntity
  8
寸法線
 62
     0
370
    -2
100
AcDbLine
 10
-81.88967361968048
 20
-1.25373834922891
 30
0.0
 11
8.110326380319525
 21
-1.25373834922891
 31
0.0
  0
SOLID
  5
6321
330
610E
100
AcDbEntity
  8
寸法線
 62
     0
370
    25
100
AcDbTrace
 10
-81.88967361968048
 20
-0.8370716825622443
 30
0.0
 11
-81.88967361968048
 21
-1.670405015895577
 31
0.0
 12
-84.38967361968048
 22
-1.25373834922891
 32
0.0
 13
-84.38967361968048
 23
-1.25373834922891
 33
0.0
  0
SOLID
  5
6322
330
610E
100
AcDbEntity
  8
寸法線
 62
     0
370
    25
100
AcDbTrace
 10
8.110326380319525
 20
-0.8370716825622443
 30
0.0
 11
8.110326380319525
 21
-1.670405015895577
 31
0.0
 12
10.61032638031952
 22
-1.25373834922891
 32
0.0
 13
10.61032638031952
 23
-1.25373834922891
 33
0.0
  0
MTEXT
  5
6323
330
610E
100
AcDbEntity
  8
寸法線
 62
     0
370
    25
100
AcDbMText
 10
-36.88967361968048
 20
3.371261650771089
 30
0.0
 40
8.0
 41
0.0
 71
     5
 72
     1
  1
92
 73
     1
 44
1.0
  0
POINT
  5
6324
330
610E
100
AcDbEntity
  8
Defpoints
 62
     0
370
    25
100
AcDbPoint
 10
-84.38967361968048
 20
-39.50315702545472
 30
0.0
  0
POINT
  5
6325
330
610E
100
AcDbEntity
  8
Defpoints
 62
     0
370
    25
100
AcDbPoint
 10
10.61032638031952
 20
-79.50315702545475
 30
0.0
  0
POINT
  5
6326
330
610E
100
AcDbEntity
  8
Defpoints
 62
     0
370
    25
100
AcDbPoint
 10
10.61032638031952
 20
-1.25373834922891
 30
0.0
  0
ENDBLK
  5
6119
330
610E
100
AcDbEntity
  8
0
370
    25
100
AcDbBlockEnd
  0
BLOCK
  5
6126
330
611A
100
AcDbEntity
  8
0
370
    25
100
AcDbBlockBegin
  2
*D43
 70
     1
 10
0.0
 20
0.0
 30
0.0
  3
*D43
  1

  0
LINE
  5
63C5
330
611A
100
AcDbEntity
  8
寸法線
 62
     0
370
    -2
100
AcDbLine
 10
46.40212815956329
 20
-175.0458144248613
 30
0.0
 11
37.51487337853677
 21
-175.0458144248613
 31
0.0
  0
LINE
  5
63C6
330
611A
100
AcDbEntity
  8
寸法線
 62
     0
370
    -2
100
AcDbLine
 10
46.79113522473108
 20
-173.0458144248609
 30
0.0
 11
37.51487337853677
 21
-173.0458144248609
 31
0.0
  0
LINE
  5
63C7
330
611A
100
AcDbEntity
  8
寸法線
 62
     0
370
    -2
100
AcDbLine
 10
40.51487337853677
 20
-178.0458144248613
 30
0.0
 11
40.51487337853677
 21
-181.0458144248613
 31
0.0
  0
LINE
  5
63C8
330
611A
100
AcDbEntity
  8
寸法線
 62
     0
370
    -2
100
AcDbLine
 10
40.51487337853678
 20
-170.0458144248609
 30
0.0
 11
40.51487337853678
 21
-161.8811192741599
 31
0.0
  0
LINE
  5
63C9
330
611A
100
AcDbEntity
  8
寸法線
 62
     0
370
    -2
100
AcDbLine
 10
40.51487337853678
 20
-175.0458144248613
 30
0.0
 11
40.51487337853678
 21
-173.0458144248609
 31
0.0
  0
INSERT
  5
63CA
330
611A
100
AcDbEntity
  8
寸法線
 62
     0
370
    -2
100
AcDbBlockReference
  2
_Closed
 10
40.51487337853678
 20
-175.0458144248613
 30
0.0
 41
3.0
 42
3.0
 43
3.0
 50
90.0
  0
INSERT
  5
63CB
330
611A
100
AcDbEntity
  8
寸法線
 62
     0
370
    -2
100
AcDbBlockReference
  2
_Closed
 10
40.51487337853678
 20
-173.0458144248609
 30
0.0
 41
3.0
 42
3.0
 43
3.0
 50
270.0
  0
MTEXT
  5
63CC
330
611A
100
AcDbEntity
  8
寸法線
 62
     0
100
AcDbMText
 10
37.01438125255255
 20
-164.4634668495104
 30
0.0
 40
5.0
 41
0.0
 71
     5
 72
     1
  1
2
  7
OKANO
 11
0.0000000000000001
 21
1.0
 31
0.0
 73
     1
 44
1.0
  0
POINT
  5
63CD
330
611A
100
AcDbEntity
  8
Defpoints
 62
     0
370
    25
100
AcDbPoint
 10
48.40212815956329
 20
-175.0458144248613
 30
0.0
  0
POINT
  5
63CE
330
611A
100
AcDbEntity
  8
Defpoints
 62
     0
370
    25
100
AcDbPoint
 10
48.79113522473108
 20
-173.0458144248609
 30
0.0
  0
POINT
  5
63CF
330
611A
100
AcDbEntity
  8
Defpoints
 62
     0
370
    25
100
AcDbPoint
 10
40.51487337853678
 20
-173.0458144248609
 30
0.0
  0
ENDBLK
  5
6127
330
611A
100
AcDbEntity
  8
0
370
    25
100
AcDbBlockEnd
  0
BLOCK
  5
612F
330
6128
100
AcDbEntity
  8
0
370
    25
100
AcDbBlockBegin
  2
*D44
 70
     1
 10
0.0
 20
0.0
 30
0.0
  3
*D44
  1

  0
LINE
  5
63F3
330
6128
100
AcDbEntity
  8
寸法線
 62
     0
370
    -2
100
AcDbLine
 10
38.02388391822788
 20
-228.110060332218
 30
0.0
 11
47.18455284814291
 21
-232.1203152812817
 31
0.0
  0
MTEXT
  5
63F4
330
6128
100
AcDbEntity
  8
寸法線
 62
     0
370
    25
100
AcDbMText
 10
42.21105756989544
 20
-227.8962805137578
 30
0.0
 40
2.5
 41
0.0
 71
     5
 72
     1
  1
10.5
 11
0.9160668929915026
 21
-0.4010254949063651
 31
0.0
 73
     1
 44
1.0
  0
LINE
  5
63F5
330
6128
100
AcDbEntity
  8
寸法線
 62
     0
370
    -2
100
AcDbLine
 10
59.27079638252327
 20
-237.4112954837271
 30
0.0
 11
49.47472008062167
 21
-233.1228790185476
 31
0.0
  0
SOLID
  5
63F6
330
6128
100
AcDbEntity
  8
寸法線
 62
     0
370
    25
100
AcDbTrace
 10
47.35164680435389
 20
-231.7386207425352
 30
0.0
 11
47.01745889193192
 21
-232.5020098200281
 31
0.0
 12
49.47472008062167
 22
-233.1228790185476
 32
0.0
 13
49.47472008062167
 23
-233.1228790185476
 33
0.0
  0
POINT
  5
63F7
330
6128
100
AcDbEntity
  8
Defpoints
 62
     0
370
    25
100
AcDbPoint
 10
49.47472008062167
 20
-233.1228790185476
 30
0.0
  0
POINT
  5
63F8
330
6128
100
AcDbEntity
  8
Defpoints
 62
     0
370
    25
100
AcDbPoint
 10
59.27079638252327
 20
-237.4112954837271
 30
0.0
  0
ENDBLK
  5
6130
330
6128
100
AcDbEntity
  8
0
370
    25
100
AcDbBlockEnd
  0
BLOCK
  5
613A
330
6131
100
AcDbEntity
  8
0
370
    25
100
AcDbBlockBegin
  2
*D45
 70
     1
 10
0.0
 20
0.0
 30
0.0
  3
*D45
  1

  0
LINE
  5
6330
330
6131
100
AcDbEntity
  8
寸法線
 62
     0
370
    -2
100
AcDbLine
 10
-72.03744553316669
 20
-201.6554037098593
 30
0.0
 11
-48.7283959522626
 21
-232.7287124238421
 31
0.0
  0
LINE
  5
6331
330
6131
100
AcDbEntity
  8
寸法線
 62
     0
370
    -2
100
AcDbLine
 10
-38.22722304043463
 20
-246.7278326631963
 30
0.0
 11
-36.42702196983556
 21
-249.1276818470855
 31
0.0
  0
MTEXT
  5
6332
330
6131
100
AcDbEntity
  8
寸法線
 62
     0
100
AcDbMText
 10
-66.64451552973329
 20
-203.0120403141797
 30
0.0
 40
5.0
 41
0.0
 71
     5
 72
     1
  1
30
  7
OKANO
 11
0.6000670235330219
 21
-0.7999497279630888
 31
0.0
 73
     1
 44
1.0
  0
LINE
  5
6333
330
6131
100
AcDbEntity
  8
寸法線
 62
     0
370
    -2
100
AcDbLine
 10
-40.02742411103369
 20
-244.327983479307
 30
0.0
 11
-46.92819488166354
 21
-235.1285616077313
 31
0.0
  0
INSERT
  5
6334
330
6131
100
AcDbEntity
  8
寸法線
 62
     0
370
    -2
100
AcDbBlockReference
  2
_Closed
 10
-40.02742411103369
 20
-244.327983479307
 30
0.0
 41
3.0
 42
3.0
 43
3.0
 50
126.8746980036313
  0
INSERT
  5
6335
330
6131
100
AcDbEntity
  8
寸法線
 62
     0
370
    -2
100
AcDbBlockReference
  2
_Closed
 10
-46.92819488166354
 20
-235.1285616077313
 30
0.0
 41
3.0
 42
3.0
 43
3.0
 50
306.8746980036313
  0
POINT
  5
6336
330
6131
100
AcDbEntity
  8
Defpoints
 62
     0
370
    25
100
AcDbPoint
 10
-46.92819488166354
 20
-235.1285616077313
 30
0.0
  0
POINT
  5
6337
330
6131
100
AcDbEntity
  8
Defpoints
 62
     0
370
    25
100
AcDbPoint
 10
-40.02742411103369
 20
-244.327983479307
 30
0.0
  0
ENDBLK
  5
613B
330
6131
100
AcDbEntity
  8
0
370
    25
100
AcDbBlockEnd
  0
BLOCK
  5
6145
330
613C
100
AcDbEntity
  8
0
370
    25
100
AcDbBlockBegin
  2
*D46
 70
     1
 10
0.0
 20
0.0
 30
0.0
  3
*D46
  1

  0
LINE
  5
6338
330
613C
100
AcDbEntity
  8
寸法線
 62
     0
370
    -2
100
AcDbLine
 10
-30.24762348164333
 20
-224.2878508374664
 30
0.0
 11
-38.10982418710328
 21
-233.4635112775387
 31
0.0
  0
LINE
  5
6339
330
613C
100
AcDbEntity
  8
寸法線
 62
     0
370
    -2
100
AcDbLine
 10
-48.84579480559335
 20
-245.9930338094995
 30
0.0
 11
-50.47245702051611
 21
-247.8914463143421
 31
0.0
  0
MTEXT
  5
633A
330
613C
100
AcDbEntity
  8
寸法線
 62
     0
370
    25
100
AcDbMText
 10
-34.78920210554383
 20
-226.7064781438892
 30
0.0
 40
2.5
 41
0.0
 71
     5
 72
     1
  1
\U+220511.5
 11
0.6506648859691015
 21
0.7593650019370238
 31
0.0
 73
     1
 44
1.0
  0
LINE
  5
633B
330
613C
100
AcDbEntity
  8
寸法線
 62
     0
370
    -2
100
AcDbLine
 10
-47.21913259067062
 20
-244.0946213046569
 30
0.0
 11
-39.73648640202604
 21
-235.3619237823813
 31
0.0
  0
SOLID
  5
633C
330
613C
100
AcDbEntity
  8
寸法線
 62
     0
370
    25
100
AcDbTrace
 10
-49.16219688973379
 20
-245.7219234403457
 30
0.0
 11
-48.52939272145292
 21
-246.2641441786533
 31
0.0
 12
-47.21913259067062
 22
-244.0946213046569
 32
0.0
 13
-47.21913259067062
 23
-244.0946213046569
 33
0.0
  0
SOLID
  5
633D
330
613C
100
AcDbEntity
  8
寸法線
 62
     0
370
    25
100
AcDbTrace
 10
-38.42622627124372
 20
-233.1924009083849
 30
0.0
 11
-37.79342210296286
 21
-233.7346216466925
 31
0.0
 12
-39.73648640202604
 22
-235.3619237823813
 32
0.0
 13
-39.73648640202604
 23
-235.3619237823813
 33
0.0
  0
POINT
  5
633E
330
613C
100
AcDbEntity
  8
Defpoints
 62
     0
370
    25
100
AcDbPoint
 10
-39.73648640202604
 20
-235.3619237823813
 30
0.0
  0
POINT
  5
633F
330
613C
100
AcDbEntity
  8
Defpoints
 62
     0
370
    25
100
AcDbPoint
 10
-47.21913259067062
 20
-244.0946213046569
 30
0.0
  0
ENDBLK
  5
6146
330
613C
100
AcDbEntity
  8
0
370
    25
100
AcDbBlockEnd
  0
BLOCK
  5
6151
330
6147
100
AcDbEntity
  8
0
370
    25
100
AcDbBlockBegin
  2
*D47
 70
     1
 10
0.0
 20
0.0
 30
0.0
  3
*D47
  1

  0
LINE
  5
6349
330
6147
100
AcDbEntity
  8
寸法線
 62
     0
370
    -2
100
AcDbLine
 10
-69.21064873543105
 20
-177.8358180097293
 30
0.0
 11
-69.21064873543105
 21
-188.2210041720282
 31
0.0
  0
LINE
  5
634A
330
6147
100
AcDbEntity
  8
寸法線
 62
     0
370
    -2
100
AcDbLine
 10
-14.21064873543105
 20
-177.8358180097293
 30
0.0
 11
-14.21064873543105
 21
-188.2210041720282
 31
0.0
  0
LINE
  5
634B
330
6147
100
AcDbEntity
  8
寸法線
 62
     0
370
    -2
100
AcDbLine
 10
-66.21064873543105
 20
-185.2210041720283
 30
0.0
 11
-17.21064873543105
 21
-185.2210041720283
 31
0.0
  0
INSERT
  5
634C
330
6147
100
AcDbEntity
  8
寸法線
 62
     0
370
    -2
100
AcDbBlockReference
  2
_Closed
 10
-69.21064873543105
 20
-185.2210041720283
 30
0.0
 41
3.0
 42
3.0
 43
3.0
 50
180.0
  0
INSERT
  5
634D
330
6147
100
AcDbEntity
  8
寸法線
 62
     0
370
    -2
100
AcDbBlockReference
  2
_Closed
 10
-14.21064873543105
 20
-185.2210041720283
 30
0.0
 41
3.0
 42
3.0
 43
3.0
  0
MTEXT
  5
634E
330
6147
100
AcDbEntity
  8
寸法線
 62
     0
100
AcDbMText
 10
-41.71064873543104
 20
-181.7210041720283
 30
0.0
 40
5.0
 41
0.0
 71
     5
 72
     1
  1
60
  7
OKANO
 73
     1
 44
1.0
  0
POINT
  5
634F
330
6147
100
AcDbEntity
  8
Defpoints
 62
     0
370
    25
100
AcDbPoint
 10
-69.21064873543105
 20
-175.8358180097293
 30
0.0
  0
POINT
  5
6350
330
6147
100
AcDbEntity
  8
Defpoints
 62
     0
370
    25
100
AcDbPoint
 10
-14.21064873543105
 20
-175.8358180097293
 30
0.0
  0
POINT
  5
6351
330
6147
100
AcDbEntity
  8
Defpoints
 62
     0
370
    25
100
AcDbPoint
 10
-14.21064873543105
 20
-185.2210041720283
 30
0.0
  0
ENDBLK
  5
6152
330
6147
100
AcDbEntity
  8
0
370
    25
100
AcDbBlockEnd
  0
BLOCK
  5
615D
330
6153
100
AcDbEntity
  8
0
370
    25
100
AcDbBlockBegin
  2
*D48
 70
     1
 10
0.0
 20
0.0
 30
0.0
  3
*D48
  1

  0
LINE
  5
6352
330
6153
100
AcDbEntity
  8
寸法線
 62
     0
370
    -2
100
AcDbLine
 10
11.23532638031952
 20
-134.5031570254547
 30
0.0
 11
30.64707968689843
 21
-134.5031570254547
 31
0.0
  0
LINE
  5
6353
330
6153
100
AcDbEntity
  8
寸法線
 62
     0
370
    -2
100
AcDbLine
 10
11.23532638031952
 20
-74.50315702545475
 30
0.0
 11
30.64707968689845
 21
-74.50315702545475
 31
0.0
  0
LINE
  5
6354
330
6153
100
AcDbEntity
  8
寸法線
 62
     0
370
    -2
100
AcDbLine
 10
29.39707968689844
 20
-132.0031570254547
 30
0.0
 11
29.39707968689845
 21
-77.00315702545475
 31
0.0
  0
SOLID
  5
6355
330
6153
100
AcDbEntity
  8
寸法線
 62
     0
370
    25
100
AcDbTrace
 10
28.98041302023177
 20
-132.0031570254547
 30
0.0
 11
29.81374635356511
 21
-132.0031570254547
 31
0.0
 12
29.39707968689844
 22
-134.5031570254547
 32
0.0
 13
29.39707968689844
 23
-134.5031570254547
 33
0.0
  0
SOLID
  5
6356
330
6153
100
AcDbEntity
  8
寸法線
 62
     0
370
    25
100
AcDbTrace
 10
28.98041302023178
 20
-77.00315702545475
 30
0.0
 11
29.81374635356512
 21
-77.00315702545475
 31
0.0
 12
29.39707968689845
 22
-74.50315702545475
 32
0.0
 13
29.39707968689845
 23
-74.50315702545475
 33
0.0
  0
MTEXT
  5
6357
330
6153
100
AcDbEntity
  8
寸法線
 62
     0
370
    25
100
AcDbMText
 10
26.27207968689846
 20
-104.5031570254547
 30
0.0
 40
5.0
 41
0.0
 71
     5
 72
     1
  1
58
 11
0.0000000000000001
 21
1.0
 31
0.0
 73
     1
 44
1.0
  0
POINT
  5
6358
330
6153
100
AcDbEntity
  8
Defpoints
 62
     0
370
    25
100
AcDbPoint
 10
10.61032638031952
 20
-134.5031570254547
 30
0.0
  0
POINT
  5
6359
330
6153
100
AcDbEntity
  8
Defpoints
 62
     0
370
    25
100
AcDbPoint
 10
10.61032638031952
 20
-74.50315702545475
 30
0.0
  0
POINT
  5
635A
330
6153
100
AcDbEntity
  8
Defpoints
 62
     0
370
    25
100
AcDbPoint
 10
29.39707968689845
 20
-74.50315702545475
 30
0.0
  0
ENDBLK
  5
615E
330
6153
100
AcDbEntity
  8
0
370
    25
100
AcDbBlockEnd
  0
BLOCK
  5
6169
330
615F
100
AcDbEntity
  8
0
370
    25
100
AcDbBlockBegin
  2
*D49
 70
     1
 10
0.0
 20
0.0
 30
0.0
  3
*D49
  1

  0
LINE
  5
6327
330
615F
100
AcDbEntity
  8
寸法線
 62
     0
370
    -2
100
AcDbLine
 10
-12.21064873543105
 20
-175.8358180097293
 30
0.0
 11
-6.327597697265023
 21
-175.8358180097293
 31
0.0
  0
LINE
  5
6328
330
615F
100
AcDbEntity
  8
寸法線
 62
     0
370
    -2
100
AcDbLine
 10
-34.71064873543105
 20
-35.83581800972933
 30
0.0
 11
-6.327597697264992
 21
-35.83581800972934
 31
0.0
  0
LINE
  5
6329
330
615F
100
AcDbEntity
  8
寸法線
 62
     0
370
    -2
100
AcDbLine
 10
-9.327597697265023
 20
-172.8358180097293
 30
0.0
 11
-9.327597697264993
 21
-38.83581800972934
 31
0.0
  0
INSERT
  5
632A
330
615F
100
AcDbEntity
  8
寸法線
 62
     0
370
    -2
100
AcDbBlockReference
  2
_Closed
 10
-9.327597697265023
 20
-175.8358180097293
 30
0.0
 41
3.0
 42
3.0
 43
3.0
 50
270.0
  0
INSERT
  5
632B
330
615F
100
AcDbEntity
  8
寸法線
 62
     0
370
    -2
100
AcDbBlockReference
  2
_Closed
 10
-9.327597697264991
 20
-35.83581800972934
 30
0.0
 41
3.0
 42
3.0
 43
3.0
 50
90.0
  0
MTEXT
  5
632C
330
615F
100
AcDbEntity
  8
寸法線
 62
     0
100
AcDbMText
 10
-12.82759769726499
 20
-105.8358180097293
 30
0.0
 40
5.0
 41
0.0
 71
     5
 72
     1
  1
140
  7
OKANO
 11
0.0000000000000001
 21
1.0
 31
0.0
 73
     1
 44
1.0
  0
POINT
  5
632D
330
615F
100
AcDbEntity
  8
Defpoints
 62
     0
370
    25
100
AcDbPoint
 10
-14.21064873543105
 20
-175.8358180097293
 30
0.0
  0
POINT
  5
632E
330
615F
100
AcDbEntity
  8
Defpoints
 62
     0
370
    25
100
AcDbPoint
 10
-36.71064873543105
 20
-35.83581800972933
 30
0.0
  0
POINT
  5
632F
330
615F
100
AcDbEntity
  8
Defpoints
 62
     0
370
    25
100
AcDbPoint
 10
-9.327597697264991
 20
-35.83581800972934
 30
0.0
  0
ENDBLK
  5
616A
330
615F
100
AcDbEntity
  8
0
370
    25
100
AcDbBlockEnd
  0
BLOCK
  5
6175
330
616B
100
AcDbEntity
  8
0
370
    25
100
AcDbBlockBegin
  2
*D50
 70
     1
 10
0.0
 20
0.0
 30
0.0
  3
*D50
  1

  0
LINE
  5
6340
330
616B
100
AcDbEntity
  8
寸法線
 62
     0
370
    -2
100
AcDbLine
 10
-34.58829921026154
 20
-143.6081042318852
 30
0.0
 11
29.01304518823645
 21
-143.6081042318852
 31
0.0
  0
LINE
  5
6341
330
616B
100
AcDbEntity
  8
寸法線
 62
     0
370
    -2
100
AcDbLine
 10
-13.76147581138911
 20
-176.3023597623883
 30
0.0
 11
29.01304518823645
 21
-176.3023597623883
 31
0.0
  0
LINE
  5
6342
330
616B
100
AcDbEntity
  8
寸法線
 62
     0
370
    -2
100
AcDbLine
 10
27.76304518823645
 20
-146.1081042318852
 30
0.0
 11
27.76304518823645
 21
-173.8023597623883
 31
0.0
  0
SOLID
  5
6343
330
616B
100
AcDbEntity
  8
寸法線
 62
     0
370
    25
100
AcDbTrace
 10
27.34637852156978
 20
-146.1081042318852
 30
0.0
 11
28.17971185490312
 21
-146.1081042318852
 31
0.0
 12
27.76304518823645
 22
-143.6081042318852
 32
0.0
 13
27.76304518823645
 23
-143.6081042318852
 33
0.0
  0
SOLID
  5
6344
330
616B
100
AcDbEntity
  8
寸法線
 62
     0
370
    25
100
AcDbTrace
 10
27.34637852156978
 20
-173.8023597623883
 30
0.0
 11
28.17971185490311
 21
-173.8023597623883
 31
0.0
 12
27.76304518823645
 22
-176.3023597623883
 32
0.0
 13
27.76304518823645
 23
-176.3023597623883
 33
0.0
  0
MTEXT
  5
6345
330
616B
100
AcDbEntity
  8
寸法線
 62
     0
370
    25
100
AcDbMText
 10
24.63804518823647
 20
-159.9552319971368
 30
0.0
 40
5.0
 41
0.0
 71
     5
 72
     1
  1
40
 11
0.0000000000000001
 21
1.0
 31
0.0
 73
     1
 44
1.0
  0
POINT
  5
6346
330
616B
100
AcDbEntity
  8
Defpoints
 62
     0
370
    25
100
AcDbPoint
 10
-35.21329921026154
 20
-143.6081042318852
 30
0.0
  0
POINT
  5
6347
330
616B
100
AcDbEntity
  8
Defpoints
 62
     0
370
    25
100
AcDbPoint
 10
-14.38647581138911
 20
-176.3023597623883
 30
0.0
  0
POINT
  5
6348
330
616B
100
AcDbEntity
  8
Defpoints
 62
     0
370
    25
100
AcDbPoint
 10
27.76304518823645
 20
-176.3023597623883
 30
0.0
  0
ENDBLK
  5
6176
330
616B
100
AcDbEntity
  8
0
370
    25
100
AcDbBlockEnd
  0
BLOCK
  5
6180
330
6177
100
AcDbEntity
  8
0
370
    25
100
AcDbBlockBegin
  2
*D51
 70
     1
 10
0.0
 20
0.0
 30
0.0
  3
*D51
  1

  0
LINE
  5
640C
330
6177
100
AcDbEntity
  8
寸法線
 62
     0
370
    -2
100
AcDbLine
 10
142.5009823972286
 20
-221.9708737776747
 30
0.0
 11
134.6387816917687
 21
-231.1465342177471
 31
0.0
  0
LINE
  5
640D
330
6177
100
AcDbEntity
  8
寸法線
 62
     0
370
    -2
100
AcDbLine
 10
123.9028110732788
 20
-243.6760567497079
 30
0.0
 11
122.276148858356
 21
-245.5744692545504
 31
0.0
  0
MTEXT
  5
640E
330
6177
100
AcDbEntity
  8
寸法線
 62
     0
370
    25
100
AcDbMText
 10
137.9594037733281
 20
-224.3895010840976
 30
0.0
 40
2.5
 41
0.0
 71
     5
 72
     1
  1
\U+220511.5
 11
0.6506648859690981
 21
0.7593650019370268
 31
0.0
 73
     1
 44
1.0
  0
LINE
  5
640F
330
6177
100
AcDbEntity
  8
寸法線
 62
     0
370
    -2
100
AcDbLine
 10
125.5294732882015
 20
-241.7776442448653
 30
0.0
 11
133.012119476846
 21
-233.0449467225897
 31
0.0
  0
SOLID
  5
6410
330
6177
100
AcDbEntity
  8
寸法線
 62
     0
370
    25
100
AcDbTrace
 10
123.5864089891383
 20
-243.404946380554
 30
0.0
 11
124.2192131574192
 21
-243.9471671188616
 31
0.0
 12
125.5294732882015
 22
-241.7776442448653
 32
0.0
 13
125.5294732882015
 23
-241.7776442448653
 33
0.0
  0
SOLID
  5
6411
330
6177
100
AcDbEntity
  8
寸法線
 62
     0
370
    25
100
AcDbTrace
 10
134.3223796076283
 20
-230.8754238485933
 30
0.0
 11
134.9551837759091
 21
-231.4176445869009
 31
0.0
 12
133.012119476846
 22
-233.0449467225897
 32
0.0
 13
133.012119476846
 23
-233.0449467225897
 33
0.0
  0
POINT
  5
6412
330
6177
100
AcDbEntity
  8
Defpoints
 62
     0
370
    25
100
AcDbPoint
 10
133.012119476846
 20
-233.0449467225897
 30
0.0
  0
POINT
  5
6413
330
6177
100
AcDbEntity
  8
Defpoints
 62
     0
370
    25
100
AcDbPoint
 10
125.5294732882015
 20
-241.7776442448653
 30
0.0
  0
ENDBLK
  5
6181
330
6177
100
AcDbEntity
  8
0
370
    25
100
AcDbBlockEnd
  0
BLOCK
  5
618B
330
6182
100
AcDbEntity
  8
0
370
    25
100
AcDbBlockBegin
  2
*D52
 70
     1
 10
0.0
 20
0.0
 30
0.0
  3
*D52
  1

  0
LINE
  5
63D9
330
6182
100
AcDbEntity
  8
寸法線
 62
     0
370
    -2
100
AcDbLine
 10
100.7111603457051
 20
-199.338426650068
 30
0.0
 11
124.0202099266094
 21
-230.4117353640505
 31
0.0
  0
LINE
  5
63DA
330
6182
100
AcDbEntity
  8
寸法線
 62
     0
370
    -2
100
AcDbLine
 10
134.5213828384374
 20
-244.4108556034046
 30
0.0
 11
136.3215839090365
 21
-246.8107047872939
 31
0.0
  0
MTEXT
  5
63DB
330
6182
100
AcDbEntity
  8
寸法線
 62
     0
100
AcDbMText
 10
106.1040903491385
 20
-200.6950632543884
 30
0.0
 40
5.0
 41
0.0
 71
     5
 72
     1
  1
30
  7
OKANO
 11
0.6000670235330277
 21
-0.7999497279630848
 31
0.0
 73
     1
 44
1.0
  0
LINE
  5
63DC
330
6182
100
AcDbEntity
  8
寸法線
 62
     0
370
    -2
100
AcDbLine
 10
132.7211817678384
 20
-242.0110064195154
 30
0.0
 11
125.8204109972085
 21
-232.8115845479398
 31
0.0
  0
INSERT
  5
63DD
330
6182
100
AcDbEntity
  8
寸法線
 62
     0
370
    -2
100
AcDbBlockReference
  2
_Closed
 10
132.7211817678384
 20
-242.0110064195154
 30
0.0
 41
3.0
 42
3.0
 43
3.0
 50
126.8746980036317
  0
INSERT
  5
63DE
330
6182
100
AcDbEntity
  8
寸法線
 62
     0
370
    -2
100
AcDbBlockReference
  2
_Closed
 10
125.8204109972085
 20
-232.8115845479398
 30
0.0
 41
3.0
 42
3.0
 43
3.0
 50
306.8746980036317
  0
POINT
  5
63DF
330
6182
100
AcDbEntity
  8
Defpoints
 62
     0
370
    25
100
AcDbPoint
 10
125.8204109972085
 20
-232.8115845479398
 30
0.0
  0
POINT
  5
63E0
330
6182
100
AcDbEntity
  8
Defpoints
 62
     0
370
    25
100
AcDbPoint
 10
132.7211817678384
 20
-242.0110064195154
 30
0.0
  0
ENDBLK
  5
618C
330
6182
100
AcDbEntity
  8
0
370
    25
100
AcDbBlockEnd
  0
BLOCK
  5
6197
330
618D
100
AcDbEntity
  8
0
370
    25
100
AcDbBlockBegin
  2
*D53
 70
     1
 10
0.0
 20
0.0
 30
0.0
  3
*D53
  1

  0
LINE
  5
63E1
330
618D
100
AcDbEntity
  8
寸法線
 62
     0
370
    -2
100
AcDbLine
 10
59.27079638252394
 20
-238.0362954837273
 30
0.0
 11
59.27079638252394
 21
-273.6762860574457
 31
0.0
  0
LINE
  5
63E2
330
618D
100
AcDbEntity
  8
寸法線
 62
     0
370
    -2
100
AcDbLine
 10
129.2707963825231
 20
-238.036295483728
 30
0.0
 11
129.2707963825231
 21
-273.6762860574457
 31
0.0
  0
LINE
  5
63E3
330
618D
100
AcDbEntity
  8
寸法線
 62
     0
370
    -2
100
AcDbLine
 10
61.77079638252394
 20
-272.4262860574457
 30
0.0
 11
126.7707963825231
 21
-272.4262860574457
 31
0.0
  0
SOLID
  5
63E4
330
618D
100
AcDbEntity
  8
寸法線
 62
     0
370
    25
100
AcDbTrace
 10
61.77079638252394
 20
-272.009619390779
 30
0.0
 11
61.77079638252394
 21
-272.8429527241124
 31
0.0
 12
59.27079638252394
 22
-272.4262860574457
 32
0.0
 13
59.27079638252394
 23
-272.4262860574457
 33
0.0
  0
SOLID
  5
63E5
330
618D
100
AcDbEntity
  8
寸法線
 62
     0
370
    25
100
AcDbTrace
 10
126.7707963825231
 20
-272.009619390779
 30
0.0
 11
126.7707963825231
 21
-272.8429527241124
 31
0.0
 12
129.2707963825231
 22
-272.4262860574457
 32
0.0
 13
129.2707963825231
 23
-272.4262860574457
 33
0.0
  0
MTEXT
  5
63E6
330
618D
100
AcDbEntity
  8
寸法線
 62
     0
370
    25
100
AcDbMText
 10
94.27079638252354
 20
-270.5512860574457
 30
0.0
 40
2.5
 41
0.0
 71
     5
 72
     1
  1
70
 73
     1
 44
1.0
  0
POINT
  5
63E7
330
618D
100
AcDbEntity
  8
Defpoints
 62
     0
370
    25
100
AcDbPoint
 10
59.27079638252394
 20
-237.4112954837273
 30
0.0
  0
POINT
  5
63E8
330
618D
100
AcDbEntity
  8
Defpoints
 62
     0
370
    25
100
AcDbPoint
 10
129.2707963825231
 20
-237.411295483728
 30
0.0
  0
POINT
  5
63E9
330
618D
100
AcDbEntity
  8
Defpoints
 62
     0
370
    25
100
AcDbPoint
 10
129.2707963825231
 20
-272.4262860574457
 30
0.0
  0
ENDBLK
  5
6198
330
618D
100
AcDbEntity
  8
0
370
    25
100
AcDbBlockEnd
  0
BLOCK
  5
61A2
330
6199
100
AcDbEntity
  8
0
370
    25
100
AcDbBlockBegin
  2
*D54
 70
     1
 10
0.0
 20
0.0
 30
0.0
  3
*D54
  1

  0
LINE
  5
63F9
330
6199
100
AcDbEntity
  8
寸法線
 62
     0
370
    -2
100
AcDbLine
 10
80.20104377142549
 20
-228.1955391105202
 30
0.0
 11
66.59248497210469
 21
-234.1874970723504
 31
0.0
  0
LINE
  5
63FA
330
6199
100
AcDbEntity
  8
寸法線
 62
     0
370
    -2
100
AcDbLine
 10
51.94910779294238
 20
-240.6350938951046
 30
0.0
 11
49.66108010869827
 21
-241.6425308986599
 31
0.0
  0
MTEXT
  5
63FB
330
6199
100
AcDbEntity
  8
寸法線
 62
     0
370
    25
100
AcDbMText
 10
76.58543141345385
 20
-227.7388146017813
 30
0.0
 40
2.5
 41
0.0
 71
     5
 72
     1
  1
\U+220511
 11
0.9152110736976421
 21
0.4029748014221349
 31
0.0
 73
     1
 44
1.0
  0
LINE
  5
63FC
330
6199
100
AcDbEntity
  8
寸法線
 62
     0
370
    -2
100
AcDbLine
 10
54.23713547718648
 20
-239.6276568915492
 30
0.0
 11
64.30445728786057
 21
-235.1949340759057
 31
0.0
  0
SOLID
  5
63FD
330
6199
100
AcDbEntity
  8
寸法線
 62
     0
370
    25
100
AcDbTrace
 10
51.78120162568315
 20
-240.2537559477306
 30
0.0
 11
52.1170139602016
 21
-241.0164318424786
 31
0.0
 12
54.23713547718648
 22
-239.6276568915492
 32
0.0
 13
54.23713547718648
 23
-239.6276568915492
 33
0.0
  0
SOLID
  5
63FE
330
6199
100
AcDbEntity
  8
寸法線
 62
     0
370
    25
100
AcDbTrace
 10
66.42457880484546
 20
-233.8061591249764
 30
0.0
 11
66.7603911393639
 21
-234.5688350197244
 31
0.0
 12
64.30445728786057
 22
-235.1949340759057
 32
0.0
 13
64.30445728786057
 23
-235.1949340759057
 33
0.0
  0
POINT
  5
63FF
330
6199
100
AcDbEntity
  8
Defpoints
 62
     0
370
    25
100
AcDbPoint
 10
64.30445728786057
 20
-235.1949340759057
 30
0.0
  0
POINT
  5
6400
330
6199
100
AcDbEntity
  8
Defpoints
 62
     0
370
    25
100
AcDbPoint
 10
54.23713547718648
 20
-239.6276568915492
 30
0.0
  0
ENDBLK
  5
61A3
330
6199
100
AcDbEntity
  8
0
370
    25
100
AcDbBlockEnd
  0
BLOCK
  5
61AE
330
61A4
100
AcDbEntity
  8
0
370
    25
100
AcDbBlockBegin
  2
*D55
 70
     1
 10
0.0
 20
0.0
 30
0.0
  3
*D55
  1

  0
LINE
  5
63D0
330
61A4
100
AcDbEntity
  8
寸法線
 62
     0
370
    -2
100
AcDbLine
 10
148.5428966510421
 20
-175.2517736375348
 30
0.0
 11
154.4259476892081
 21
-175.2517736375348
 31
0.0
  0
LINE
  5
63D1
330
61A4
100
AcDbEntity
  8
寸法線
 62
     0
370
    -2
100
AcDbLine
 10
126.0428966510421
 20
-35.25177363753482
 30
0.0
 11
154.4259476892082
 21
-35.25177363753483
 31
0.0
  0
LINE
  5
63D2
330
61A4
100
AcDbEntity
  8
寸法線
 62
     0
370
    -2
100
AcDbLine
 10
151.4259476892081
 20
-172.2517736375348
 30
0.0
 11
151.4259476892082
 21
-38.25177363753483
 31
0.0
  0
INSERT
  5
63D3
330
61A4
100
AcDbEntity
  8
寸法線
 62
     0
370
    -2
100
AcDbBlockReference
  2
_Closed
 10
151.4259476892081
 20
-175.2517736375348
 30
0.0
 41
3.0
 42
3.0
 43
3.0
 50
270.0
  0
INSERT
  5
63D4
330
61A4
100
AcDbEntity
  8
寸法線
 62
     0
370
    -2
100
AcDbBlockReference
  2
_Closed
 10
151.4259476892082
 20
-35.25177363753483
 30
0.0
 41
3.0
 42
3.0
 43
3.0
 50
90.0
  0
MTEXT
  5
63D5
330
61A4
100
AcDbEntity
  8
寸法線
 62
     0
100
AcDbMText
 10
147.9259476892082
 20
-105.2517736375348
 30
0.0
 40
5.0
 41
0.0
 71
     5
 72
     1
  1
140
  7
OKANO
 11
0.0000000000000001
 21
1.0
 31
0.0
 73
     1
 44
1.0
  0
POINT
  5
63D6
330
61A4
100
AcDbEntity
  8
Defpoints
 62
     0
370
    25
100
AcDbPoint
 10
146.5428966510421
 20
-175.2517736375348
 30
0.0
  0
POINT
  5
63D7
330
61A4
100
AcDbEntity
  8
Defpoints
 62
     0
370
    25
100
AcDbPoint
 10
124.0428966510421
 20
-35.25177363753482
 30
0.0
  0
POINT
  5
63D8
330
61A4
100
AcDbEntity
  8
Defpoints
 62
     0
370
    25
100
AcDbPoint
 10
151.4259476892082
 20
-35.25177363753483
 30
0.0
  0
ENDBLK
  5
61AF
330
61A4
100
AcDbEntity
  8
0
370
    25
100
AcDbBlockEnd
  0
BLOCK
  5
61BA
330
61B0
100
AcDbEntity
  8
0
370
    25
100
AcDbBlockBegin
  2
*D56
 70
     1
 10
0.0
 20
0.0
 30
0.0
  3
*D56
  1

  0
LINE
  5
6414
330
61B0
100
AcDbEntity
  8
寸法線
 62
     0
370
    -2
100
AcDbLine
 10
146.291135224731
 20
-177.0458144248613
 30
0.0
 11
146.291135224731
 21
-185.481548814174
 31
0.0
  0
LINE
  5
6415
330
61B0
100
AcDbEntity
  8
寸法線
 62
     0
370
    -2
100
AcDbLine
 10
119.0428966510421
 20
-174.3308885780229
 30
0.0
 11
119.0428966510421
 21
-185.481548814174
 31
0.0
  0
LINE
  5
6416
330
61B0
100
AcDbEntity
  8
寸法線
 62
     0
370
    -2
100
AcDbLine
 10
143.291135224731
 20
-182.481548814174
 30
0.0
 11
122.0428966510421
 21
-182.481548814174
 31
0.0
  0
INSERT
  5
6417
330
61B0
100
AcDbEntity
  8
寸法線
 62
     0
370
    -2
100
AcDbBlockReference
  2
_Closed
 10
146.291135224731
 20
-182.481548814174
 30
0.0
 41
3.0
 42
3.0
 43
3.0
  0
INSERT
  5
6418
330
61B0
100
AcDbEntity
  8
寸法線
 62
     0
370
    -2
100
AcDbBlockReference
  2
_Closed
 10
119.0428966510421
 20
-182.481548814174
 30
0.0
 41
3.0
 42
3.0
 43
3.0
 50
180.0
  0
MTEXT
  5
6419
330
61B0
100
AcDbEntity
  8
寸法線
 62
     0
100
AcDbMText
 10
132.6670159378866
 20
-178.981548814174
 30
0.0
 40
5.0
 41
0.0
 71
     5
 72
     1
  1
30
  7
OKANO
 73
     1
 44
1.0
  0
POINT
  5
641A
330
61B0
100
AcDbEntity
  8
Defpoints
 62
     0
370
    25
100
AcDbPoint
 10
146.291135224731
 20
-175.0458144248613
 30
0.0
  0
POINT
  5
641B
330
61B0
100
AcDbEntity
  8
Defpoints
 62
     0
370
    25
100
AcDbPoint
 10
119.0428966510421
 20
-172.3308885780229
 30
0.0
  0
POINT
  5
641C
330
61B0
100
AcDbEntity
  8
Defpoints
 62
     0
370
    25
100
AcDbPoint
 10
119.0428966510421
 20
-182.481548814174
 30
0.0
  0
ENDBLK
  5
61BB
330
61B0
100
AcDbEntity
  8
0
370
    25
100
AcDbBlockEnd
  0
BLOCK
  5
61C6
330
61BC
100
AcDbEntity
  8
0
370
    25
100
AcDbBlockBegin
  2
*D57
 70
     1
 10
0.0
 20
0.0
 30
0.0
  3
*D57
  1

  0
LINE
  5
63EA
330
61BC
100
AcDbEntity
  8
寸法線
 62
     0
370
    -2
100
AcDbLine
 10
119.0428966510421
 20
-174.3308885780229
 30
0.0
 11
119.0428966510421
 21
-185.481548814174
 31
0.0
  0
LINE
  5
63EB
330
61BC
100
AcDbEntity
  8
寸法線
 62
     0
370
    -2
100
AcDbLine
 10
58.96263451969935
 20
-181.9669035462087
 30
0.0
 11
58.96263451969935
 21
-185.481548814174
 31
0.0
  0
LINE
  5
63EC
330
61BC
100
AcDbEntity
  8
寸法線
 62
     0
370
    -2
100
AcDbLine
 10
116.0428966510421
 20
-182.481548814174
 30
0.0
 11
61.96263451969935
 21
-182.481548814174
 31
0.0
  0
INSERT
  5
63ED
330
61BC
100
AcDbEntity
  8
寸法線
 62
     0
370
    -2
100
AcDbBlockReference
  2
_Closed
 10
119.0428966510421
 20
-182.481548814174
 30
0.0
 41
3.0
 42
3.0
 43
3.0
  0
INSERT
  5
63EE
330
61BC
100
AcDbEntity
  8
寸法線
 62
     0
370
    -2
100
AcDbBlockReference
  2
_Closed
 10
58.96263451969935
 20
-182.481548814174
 30
0.0
 41
3.0
 42
3.0
 43
3.0
 50
180.0
  0
MTEXT
  5
63EF
330
61BC
100
AcDbEntity
  8
寸法線
 62
     0
100
AcDbMText
 10
89.00276558537075
 20
-178.981548814174
 30
0.0
 40
5.0
 41
0.0
 71
     5
 72
     1
  1
70
  7
OKANO
 73
     1
 44
1.0
  0
POINT
  5
63F0
330
61BC
100
AcDbEntity
  8
Defpoints
 62
     0
370
    25
100
AcDbPoint
 10
119.0428966510421
 20
-172.3308885780229
 30
0.0
  0
POINT
  5
63F1
330
61BC
100
AcDbEntity
  8
Defpoints
 62
     0
370
    25
100
AcDbPoint
 10
58.96263451969935
 20
-179.9669035462087
 30
0.0
  0
POINT
  5
63F2
330
61BC
100
AcDbEntity
  8
Defpoints
 62
     0
370
    25
100
AcDbPoint
 10
58.96263451969935
 20
-182.481548814174
 30
0.0
  0
ENDBLK
  5
61C7
330
61BC
100
AcDbEntity
  8
0
370
    25
100
AcDbBlockEnd
  0
BLOCK
  5
61D4
330
61C8
100
AcDbEntity
  8
0
370
    25
100
AcDbBlockBegin
  2
*D58
 70
     1
 10
0.0
 20
0.0
 30
0.0
  3
*D58
  1

  0
LINE
  5
6401
330
61C8
100
AcDbEntity
  8
寸法線
 62
     0
370
    -2
100
AcDbLine
 10
58.96263451969935
 20
-181.9669035462087
 30
0.0
 11
58.96263451969935
 21
-185.481548814174
 31
0.0
  0
LINE
  5
6402
330
61C8
100
AcDbEntity
  8
寸法線
 62
     0
370
    -2
100
AcDbLine
 10
48.89602977960021
 20
-181.6076679409467
 30
0.0
 11
48.89602977960021
 21
-185.481548814174
 31
0.0
  0
LINE
  5
6403
330
61C8
100
AcDbEntity
  8
寸法線
 62
     0
370
    -2
100
AcDbLine
 10
55.96263451969935
 20
-182.481548814174
 30
0.0
 11
51.89602977960021
 21
-182.481548814174
 31
0.0
  0
LINE
  5
6404
330
61C8
100
AcDbEntity
  8
寸法線
 62
     0
370
    -2
100
AcDbLine
 10
53.92933214964978
 20
-182.481548814174
 30
0.0
 11
57.52933214964978
 21
-194.481548814174
 31
0.0
  0
LINE
  5
6405
330
61C8
100
AcDbEntity
  8
寸法線
 62
     0
370
    -2
100
AcDbLine
 10
57.52933214964978
 20
-194.481548814174
 30
0.0
 11
69.04728134208091
 21
-194.481548814174
 31
0.0
  0
MTEXT
  5
6406
330
61C8
100
AcDbEntity
  8
寸法線
 62
     0
100
AcDbMText
 10
63.28830674586534
 20
-190.981548814174
 30
0.0
 40
5.0
 41
0.0
 71
     5
 72
     1
  1
10.5
  7
OKANO
 73
     1
 44
1.0
  0
INSERT
  5
6407
330
61C8
100
AcDbEntity
  8
寸法線
 62
     0
370
    -2
100
AcDbBlockReference
  2
_Closed
 10
58.96263451969935
 20
-182.481548814174
 30
0.0
 41
3.0
 42
3.0
 43
3.0
  0
INSERT
  5
6408
330
61C8
100
AcDbEntity
  8
寸法線
 62
     0
370
    -2
100
AcDbBlockReference
  2
_Closed
 10
48.89602977960021
 20
-182.481548814174
 30
0.0
 41
3.0
 42
3.0
 43
3.0
 50
180.0
  0
POINT
  5
6409
330
61C8
100
AcDbEntity
  8
Defpoints
 62
     0
370
    25
100
AcDbPoint
 10
58.96263451969935
 20
-179.9669035462087
 30
0.0
  0
POINT
  5
640A
330
61C8
100
AcDbEntity
  8
Defpoints
 62
     0
370
    25
100
AcDbPoint
 10
48.89602977960021
 20
-179.6076679409467
 30
0.0
  0
POINT
  5
640B
330
61C8
100
AcDbEntity
  8
Defpoints
 62
     0
370
    25
100
AcDbPoint
 10
48.89602977960021
 20
-182.481548814174
 30
0.0
  0
ENDBLK
  5
61D5
330
61C8
100
AcDbEntity
  8
0
370
    25
100
AcDbBlockEnd
  0
BLOCK
  5
61E0
330
61D6
100
AcDbEntity
  8
0
370
    25
100
AcDbBlockBegin
  2
*D59
 70
     1
 10
0.0
 20
0.0
 30
0.0
  3
*D59
  1

  0
LINE
  5
63BC
330
61D6
100
AcDbEntity
  8
寸法線
 62
     0
370
    -2
100
AcDbLine
 10
53.89921111427383
 20
-169.6012649139269
 30
0.0
 11
53.89921111427383
 21
-158.1681879336928
 31
0.0
  0
LINE
  5
63BD
330
61D6
100
AcDbEntity
  8
寸法線
 62
     0
370
    -2
100
AcDbLine
 10
65.03349149796895
 20
-168.9057271541547
 30
0.0
 11
65.03349149796895
 21
-158.1681879336928
 31
0.0
  0
LINE
  5
63BE
330
61D6
100
AcDbEntity
  8
寸法線
 62
     0
370
    -2
100
AcDbLine
 10
56.89921111427384
 20
-161.1681879336928
 30
0.0
 11
62.03349149796896
 21
-161.1681879336928
 31
0.0
  0
INSERT
  5
63BF
330
61D6
100
AcDbEntity
  8
寸法線
 62
     0
370
    -2
100
AcDbBlockReference
  2
_Closed
 10
53.89921111427383
 20
-161.1681879336928
 30
0.0
 41
3.0
 42
3.0
 43
3.0
 50
180.0
  0
INSERT
  5
63C0
330
61D6
100
AcDbEntity
  8
寸法線
 62
     0
370
    -2
100
AcDbBlockReference
  2
_Closed
 10
65.03349149796895
 20
-161.1681879336928
 30
0.0
 41
3.0
 42
3.0
 43
3.0
  0
MTEXT
  5
63C1
330
61D6
100
AcDbEntity
  8
寸法線
 62
     0
100
AcDbMText
 10
59.4663513061214
 20
-157.6681879336928
 30
0.0
 40
5.0
 41
0.0
 71
     5
 72
     1
  1
11
  7
OKANO
 73
     1
 44
1.0
  0
POINT
  5
63C2
330
61D6
100
AcDbEntity
  8
Defpoints
 62
     0
370
    25
100
AcDbPoint
 10
53.89921111427383
 20
-171.6012649139269
 30
0.0
  0
POINT
  5
63C3
330
61D6
100
AcDbEntity
  8
Defpoints
 62
     0
370
    25
100
AcDbPoint
 10
65.03349149796895
 20
-170.9057271541547
 30
0.0
  0
POINT
  5
63C4
330
61D6
100
AcDbEntity
  8
Defpoints
 62
     0
370
    25
100
AcDbPoint
 10
65.03349149796895
 20
-161.1681879336928
 30
0.0
  0
ENDBLK
  5
61E1
330
61D6
100
AcDbEntity
  8
0
370
    25
100
AcDbBlockEnd
  0
ENDSEC
  0
SECTION
  2
ENTITIES
  0
TEXT
  5
29C2
330
1F
100
AcDbEntity
  8
太線
370
    25
100
AcDbText
 10
110.1195012692116
 20
-385.089806308295
 30
0.0
 40
7.487999999999999
  1
joint kogyo T.okano
 51
15.0
  7
OKANO
100
AcDbText
  0
TEXT
  5
29C3
330
1F
100
AcDbEntity
  8
太線
370
    25
100
AcDbText
 10
95.26696216329401
 20
-362.2742708426831
 30
0.0
 40
7.487999999999999
  1
F-999-20090601　Auto CAD
 51
15.0
  7
OKANO
100
AcDbText
  0
LINE
  5
29C4
330
1F
100
AcDbEntity
  8
太線
370
    25
100
AcDbLine
 10
55.65905700749095
 20
-363.5125666915974
 30
0.0
 11
224.1390570074909
 21
-363.5125666915974
 31
0.0
  0
LWPOLYLINE
  5
29C5
330
1F
100
AcDbEntity
  8
太線
370
    25
100
AcDbPolyline
 90
        4
 70
     1
 43
0.0
 10
55.65905700749095
 20
-350.4085666915975
 10
224.1390570074909
 20
-350.4085666915975
 10
224.1390570074909
 20
-389.7205666915974
 10
55.65905700749095
 20
-389.7205666915974
  0
TEXT
  5
29C6
330
1F
100
AcDbEntity
  8
太線
370
    25
100
AcDbText
 10
61.6999753705407
 20
-376.2944450978045
 30
0.0
 40
3.743999999999999
  1
CHECK
 51
15.0
  7
OKANO
100
AcDbText
  0
LINE
  5
29C7
330
1F
100
AcDbEntity
  8
太線
370
    25
100
AcDbLine
 10
93.09905700749096
 20
-350.4085666915974
 30
0.0
 11
93.09905700749096
 21
-389.7205666915974
 31
0.0
  0
TEXT
  5
29C8
330
1F
100
AcDbEntity
  8
太線
370
    25
100
AcDbText
 10
61.6999753705407
 20
-387.0887521635012
 30
0.0
 40
3.743999999999999
  1
ISSUED
 51
15.0
  7
OKANO
100
AcDbText
  0
TEXT
  5
29C9
330
1F
100
AcDbEntity
  8
太線
370
    25
100
AcDbText
 10
62.10013788586571
 20
-381.8914933082429
 30
0.0
 40
3.743999999999999
  1
APPR
 51
15.0
  7
OKANO
100
AcDbText
  0
TEXT
  5
29CA
330
1F
100
AcDbEntity
  8
太線
370
    25
100
AcDbText
 10
58.89884630991094
 20
-360.7026694527238
 30
0.0
 40
3.743999999999999
  1
FILM NAME
 51
15.0
  7
OKANO
100
AcDbText
  0
TEXT
  5
29CB
330
1F
100
AcDbEntity
  8
太線
370
    25
100
AcDbText
 10
60.89965375854887
 20
-370.6973978080604
 30
0.0
 40
3.743999999999999
  1
DRAWN
 51
15.0
  7
OKANO
100
AcDbText
  0
MTEXT
  5
4120
330
1F
100
AcDbEntity
  8
寸法線
100
AcDbMText
 10
175.9572882701923
 20
-109.6424455563392
 30
0.0
 40
2.5
 41
0.63
 71
     9
 72
     1
  1

 73
     1
 44
1.0
  0
LINE
  5
4373
330
1F
100
AcDbEntity
  8
太線
370
    25
100
AcDbLine
 10
-537.663602004941
 20
-144.3966845501903
 30
0.0
 11
-572.5250353830006
 21
-144.3966845501903
 31
0.0
  0
LINE
  5
437B
330
1F
100
AcDbEntity
  8
太線
370
    25
100
AcDbLine
 10
-518.0540457297825
 20
-150.9332033085765
 30
0.0
 11
-587.7769124859017
 21
-150.9332033085765
 31
0.0
  0
LINE
  5
437C
330
1F
100
AcDbEntity
  8
太線
370
    25
100
AcDbLine
 10
-518.0540457297825
 20
-148.7543637224478
 30
0.0
 11
-587.7769124859017
 21
-148.7543637224478
 31
0.0
  0
ARC
  5
437D
330
1F
100
AcDbEntity
  8
太線
370
    25
100
AcDbCircle
 10
-609.565308347189
 20
-242.2858025529842
 30
0.0
 40
71.90170634224796
100
AcDbArc
 50
105.6228397290813
 51
125.8151413634146
  0
LINE
  5
43E8
330
1F
100
AcDbEntity
  8
太線
370
    25
100
AcDbLine
 10
-451.1580798947759
 20
-148.4102068180348
 30
0.0
 11
-460.2940102138307
 21
-185.5510086771012
 31
0.0
  0
ARC
  5
43FD
330
1F
100
AcDbEntity
  8
太線
370
    25
100
AcDbCircle
 10
-452.0984233297992
 20
-206.4102068180348
 30
0.0
 40
36.16382281723855
100
AcDbArc
 50
97.10360178722822
 51
122.6952926727715
  0
ARC
  5
43FE
330
1F
100
AcDbEntity
  8
太線
370
    25
100
AcDbCircle
 10
-452.0984233297992
 20
-206.4102068180348
 30
0.0
 40
23.64201256463761
100
AcDbArc
 50
109.3258038895611
 51
113.0486645173263
  0
ARC
  5
4400
330
1F
100
AcDbEntity
  8
太線
370
    25
100
AcDbCircle
 10
-452.0984233297992
 20
-206.4102068180348
 30
0.0
 40
50.0
100
AcDbArc
 50
91.13452041214376
 51
127.5242167592335
  0
ARC
  5
4408
330
1F
100
AcDbEntity
  8
細線
100
AcDbCircle
 10
-390.1093553019248
 20
-146.199570769573
 30
0.0
 40
2.081206785023383
100
AcDbArc
 50
207.0324924700557
 51
343.3477876073681
  0
LINE
  5
4409
330
1F
100
AcDbEntity
  8
太線
370
    25
100
AcDbLine
 10
-395.1580798947759
 20
-142.4102068180348
 30
0.0
 11
-383.1580798947759
 21
-142.4102068180348
 31
0.0
  0
LINE
  5
440A
330
1F
100
AcDbEntity
  8
太線
370
    25
100
AcDbLine
 10
-377.1580798947759
 20
-164.4102068180348
 30
0.0
 11
-401.1580798947759
 21
-164.4102068180348
 31
0.0
  0
LINE
  5
440B
330
1F
100
AcDbEntity
  8
太線
370
    25
100
AcDbLine
 10
-381.1580798947759
 20
-148.4102068180348
 30
0.0
 11
-445.1580798947759
 21
-148.4102068180348
 31
0.0
  0
LINE
  5
440C
330
1F
100
AcDbEntity
  8
太線
370
    25
100
AcDbLine
 10
-381.1580798947759
 20
-146.4102068180348
 30
0.0
 11
-445.1580798947759
 21
-146.4102068180348
 31
0.0
  0
LINE
  5
4410
330
1F
100
AcDbEntity
  8
太線
370
    25
100
AcDbLine
 10
-375.1580798947759
 20
-150.4102068180348
 30
0.0
 11
-375.1580798947759
 21
-162.4102068180348
 31
0.0
  0
ARC
  5
4411
330
1F
100
AcDbEntity
  8
太線
370
    25
100
AcDbCircle
 10
-377.1580798947759
 20
-162.4102068180348
 30
0.0
 40
2.0
100
AcDbArc
 50
270.0
 51
0.000000000000007
  0
LINE
  5
4412
330
1F
100
AcDbEntity
  8
太線
370
    25
100
AcDbLine
 10
-381.1580798947759
 20
-148.4102068180348
 30
0.0
 11
-377.1580798947759
 21
-148.4102068180348
 31
0.0
  0
ARC
  5
4413
330
1F
100
AcDbEntity
  8
太線
370
    25
100
AcDbCircle
 10
-377.1580798947759
 20
-150.4102068180348
 30
0.0
 40
2.0
100
AcDbArc
 50
0.000000000000007
 51
90.0
  0
ARC
  5
4414
330
1F
100
AcDbEntity
  8
太線
370
    25
100
AcDbCircle
 10
-383.1580798947759
 20
-144.4102068180348
 30
0.0
 40
2.0
100
AcDbArc
 50
0.000000000000007
 51
90.0
  0
ARC
  5
4415
330
1F
100
AcDbEntity
  8
細線
100
AcDbCircle
 10
-385.2005689256896
 20
-146.199570769573
 30
0.0
 40
2.081206785023383
100
AcDbArc
 50
207.0324924700557
 51
343.3477876073681
  0
LINE
  5
4416
330
1F
100
AcDbEntity
  8
太線
370
    25
100
AcDbLine
 10
-381.1580798947759
 20
-144.4102068180348
 30
0.0
 11
-381.1580798947759
 21
-148.4102068180348
 31
0.0
  0
LINE
  5
4417
330
1F
100
AcDbEntity
  8
太線
370
    25
100
AcDbLine
 10
-401.1580798947759
 20
-164.4102068180348
 30
0.0
 11
-434.3641890550542
 21
-205.7518025646805
 31
0.0
  0
ARC
  5
4419
330
1F
100
AcDbEntity
  8
細線
100
AcDbCircle
 10
-421.5619478895161
 20
-146.199570769573
 30
0.0
 40
2.081206785023383
100
AcDbArc
 50
207.0324924700557
 51
343.3477876073681
  0
LINE
  5
441B
330
1F
100
AcDbEntity
  8
太線
370
    25
100
AcDbLine
 10
-395.1580798947759
 20
-142.4102068180348
 30
0.0
 11
-431.1580798947759
 21
-142.4102068180348
 31
0.0
  0
ARC
  5
441E
330
1F
100
AcDbEntity
  8
細線
100
AcDbCircle
 10
-405.9265543698377
 20
-146.199570769573
 30
0.0
 40
2.081206785023383
100
AcDbArc
 50
207.0324924700557
 51
343.3477876073681
  0
ARC
  5
4420
330
1F
100
AcDbEntity
  8
細線
100
AcDbCircle
 10
-395.9271760691328
 20
-146.199570769573
 30
0.0
 40
2.081206785023383
100
AcDbArc
 50
207.0324924700557
 51
343.3477876073681
  0
ARC
  5
4425
330
1F
100
AcDbEntity
  8
細線
100
AcDbCircle
 10
-400.835962445368
 20
-146.199570769573
 30
0.0
 40
2.081206785023383
100
AcDbArc
 50
207.0324924700557
 51
343.3477876073681
  0
ARC
  5
4426
330
1F
100
AcDbEntity
  8
細線
100
AcDbCircle
 10
-410.8353407460729
 20
-146.199570769573
 30
0.0
 40
2.081206785023383
100
AcDbArc
 50
207.0324924700557
 51
343.3477876073681
  0
ARC
  5
4427
330
1F
100
AcDbEntity
  8
細線
100
AcDbCircle
 10
-416.653161513281
 20
-146.199570769573
 30
0.0
 40
2.081206785023383
100
AcDbArc
 50
207.0324924700557
 51
343.3477876073681
  0
ARC
  5
442A
330
1F
100
AcDbEntity
  8
細線
100
AcDbCircle
 10
-437.7427613787983
 20
-146.199570769573
 30
0.0
 40
2.081206785023383
100
AcDbArc
 50
207.0324924700557
 51
343.3477876073681
  0
LINE
  5
442B
330
1F
100
AcDbEntity
  8
太線
370
    25
100
AcDbLine
 10
-431.1580798947759
 20
-142.4102068180348
 30
0.0
 11
-443.1580798947759
 21
-142.4102068180348
 31
0.0
  0
ARC
  5
4431
330
1F
100
AcDbEntity
  8
細線
100
AcDbCircle
 10
-427.0161542353551
 20
-146.199570769573
 30
0.0
 40
2.081206785023383
100
AcDbArc
 50
207.0324924700557
 51
343.3477876073681
  0
ARC
  5
4433
330
1F
100
AcDbEntity
  8
細線
100
AcDbCircle
 10
-431.9249406115902
 20
-146.199570769573
 30
0.0
 40
2.081206785023383
100
AcDbArc
 50
207.0324924700557
 51
343.3477876073681
  0
LINE
  5
4434
330
1F
100
AcDbEntity
  8
太線
370
    25
100
AcDbLine
 10
-445.1580798947759
 20
-148.4102068180348
 30
0.0
 11
-451.1580798947759
 21
-148.4102068180348
 31
0.0
  0
ARC
  5
4435
330
1F
100
AcDbEntity
  8
太線
370
    25
100
AcDbCircle
 10
-443.1580798947759
 20
-144.4102068180348
 30
0.0
 40
2.0
100
AcDbArc
 50
90.0
 51
180.0
  0
LINE
  5
4436
330
1F
100
AcDbEntity
  8
太線
370
    25
100
AcDbLine
 10
-445.1580798947759
 20
-144.4102068180348
 30
0.0
 11
-445.1580798947759
 21
-148.4102068180348
 31
0.0
  0
ARC
  5
4437
330
1F
100
AcDbEntity
  8
細線
100
AcDbCircle
 10
-442.6515477550335
 20
-146.199570769573
 30
0.0
 40
2.081206785023383
100
AcDbArc
 50
207.0324924700557
 51
343.3477876073681
  0
ARC
  5
448F
330
1F
100
AcDbEntity
  8
太線
370
    25
100
AcDbCircle
 10
-513.696366557525
 20
-153.1120428947052
 30
0.0
 40
2.178839586128725
100
AcDbArc
 50
0.000000000000007
 51
90.0
  0
ARC
  5
4490
330
1F
100
AcDbEntity
  8
太線
370
    25
100
AcDbCircle
 10
-513.696366557525
 20
-166.6331227414127
 30
0.0
 40
2.178839586128725
100
AcDbArc
 50
270.0
 51
0.000000000000007
  0
LINE
  5
4493
330
1F
100
AcDbEntity
  8
太線
370
    25
100
AcDbLine
 10
-511.5175269713962
 20
-153.5600852246404
 30
0.0
 11
-511.5175269713962
 21
-166.6331227414127
 31
0.0
  0
ARC
  5
4495
330
1F
100
AcDbEntity
  8
太線
370
    25
100
AcDbCircle
 10
-527.8057423315005
 20
-148.5248926421206
 30
0.0
 40
2.267307865064322
100
AcDbArc
 50
207.0324924700557
 51
343.3477876073681
  0
LINE
  5
4497
330
1F
100
AcDbEntity
  8
太線
370
    25
100
AcDbLine
 10
-513.696366557525
 20
-168.8119623275414
 30
0.0
 11
-539.8424415910697
 21
-168.8119623275414
 31
0.0
  0
ARC
  5
4498
330
1F
100
AcDbEntity
  8
太線
370
    25
100
AcDbCircle
 10
-522.4580132933054
 20
-148.5248926421206
 30
0.0
 40
2.267307865064322
100
AcDbArc
 50
207.0324924700557
 51
343.3477876073681
  0
LINE
  5
4499
330
1F
100
AcDbEntity
  8
太線
370
    25
100
AcDbLine
 10
-518.0540457297825
 20
-146.575524136319
 30
0.0
 11
-518.0540457297825
 21
-150.9332033085765
 31
0.0
  0
ARC
  5
449A
330
1F
100
AcDbEntity
  8
太線
370
    25
100
AcDbCircle
 10
-520.2328853159111
 20
-146.575524136319
 30
0.0
 40
2.178839586128725
100
AcDbArc
 50
0.000000000000007
 51
90.0
  0
LINE
  5
449B
330
1F
100
AcDbEntity
  8
太線
370
    25
100
AcDbLine
 10
-518.0540457297825
 20
-150.9332033085765
 30
0.0
 11
-513.696366557525
 21
-150.9332033085765
 31
0.0
  0
ARC
  5
449D
330
1F
100
AcDbEntity
  8
太線
370
    25
100
AcDbCircle
 10
-539.4915204659934
 20
-148.5248926421206
 30
0.0
 40
2.267307865064322
100
AcDbArc
 50
207.0324924700557
 51
343.3477876073681
  0
ARC
  5
449F
330
1F
100
AcDbEntity
  8
太線
370
    25
100
AcDbCircle
 10
-534.1437914277981
 20
-148.5248926421206
 30
0.0
 40
2.267307865064322
100
AcDbArc
 50
207.0324924700557
 51
343.3477876073681
  0
LINE
  5
44A0
330
1F
100
AcDbEntity
  8
太線
370
    25
100
AcDbLine
 10
-533.3059228326836
 20
-144.3966845501903
 30
0.0
 11
-537.663602004941
 21
-144.3966845501903
 31
0.0
  0
ARC
  5
44A1
330
1F
100
AcDbEntity
  8
太線
370
    25
100
AcDbCircle
 10
-545.0373120669241
 20
-148.5248926421206
 30
0.0
 40
2.267307865064322
100
AcDbArc
 50
207.0324924700557
 51
343.3477876073681
  0
ARC
  5
44E3
330
1F
100
AcDbEntity
  8
太線
370
    25
100
AcDbCircle
 10
-609.565308347189
 20
-242.2858025529842
 30
0.0
 40
58.92618772374728
100
AcDbArc
 50
100.4669265523278
 51
122.6442916331805
  0
ARC
  5
44E4
330
1F
100
AcDbEntity
  8
太線
370
    25
100
AcDbCircle
 10
-609.565308347189
 20
-242.2308023118532
 30
0.0
 40
34.3100935529308
100
AcDbArc
 50
145.6693984280091
 51
245.0534990903189
  0
CIRCLE
  5
44E8
330
1F
100
AcDbEntity
  8
太線
370
    25
100
AcDbCircle
 10
-563.3698378039089
 20
-251.1250692824388
 30
0.0
 40
6.16641967795195
  0
CIRCLE
  5
44EA
330
1F
100
AcDbEntity
  8
太線
370
    25
100
AcDbCircle
 10
-566.1750562473074
 20
-222.8114573138247
 30
0.0
 40
3.096704688771757
  0
CIRCLE
  5
44EB
330
1F
100
AcDbEntity
  8
太線
370
    25
100
AcDbCircle
 10
-609.565308347189
 20
-242.2858025529842
 30
0.0
 40
4.790726069610812
  0
CIRCLE
  5
44EC
330
1F
100
AcDbEntity
  8
太線
370
    25
100
AcDbCircle
 10
-592.328245018314
 20
-288.0305557412149
 30
0.0
 40
6.16641967795195
  0
CIRCLE
  5
44ED
330
1F
100
AcDbEntity
  8
太線
370
    25
100
AcDbCircle
 10
-614.395156697949
 20
-289.6000357676723
 30
0.0
 40
3.096704688771757
  0
LINE
  5
44EF
330
1F
100
AcDbEntity
  8
太線
370
    25
100
AcDbLine
 10
-572.5250353830006
 20
-144.3966845501903
 30
0.0
 11
-585.598072899773
 21
-144.3966845501903
 31
0.0
  0
ARC
  5
44F0
330
1F
100
AcDbEntity
  8
太線
370
    25
100
AcDbCircle
 10
-585.0462467609144
 20
-148.5248926421206
 30
0.0
 40
2.267307865064322
100
AcDbArc
 50
207.0324924700557
 51
343.3477876073681
  0
ARC
  5
44F3
330
1F
100
AcDbEntity
  8
太線
370
    25
100
AcDbCircle
 10
-556.7230902014168
 20
-148.5248926421206
 30
0.0
 40
2.267307865064322
100
AcDbArc
 50
207.0324924700557
 51
343.3477876073681
  0
ARC
  5
44F4
330
1F
100
AcDbEntity
  8
太線
370
    25
100
AcDbCircle
 10
-550.3850411051195
 20
-148.5248926421206
 30
0.0
 40
2.267307865064322
100
AcDbArc
 50
207.0324924700557
 51
343.3477876073681
  0
ARC
  5
44F5
330
1F
100
AcDbEntity
  8
太線
370
    25
100
AcDbCircle
 10
-562.0708192396121
 20
-148.5248926421206
 30
0.0
 40
2.267307865064322
100
AcDbArc
 50
207.0324924700557
 51
343.3477876073681
  0
ARC
  5
44F6
330
1F
100
AcDbEntity
  8
太線
370
    25
100
AcDbCircle
 10
-573.3604686264215
 20
-148.5248926421206
 30
0.0
 40
2.267307865064322
100
AcDbArc
 50
207.0324924700557
 51
343.3477876073681
  0
ARC
  5
44F8
330
1F
100
AcDbEntity
  8
太線
370
    25
100
AcDbCircle
 10
-568.0127395882264
 20
-148.5248926421206
 30
0.0
 40
2.267307865064322
100
AcDbArc
 50
207.0324924700557
 51
343.3477876073681
  0
ARC
  5
44FA
330
1F
100
AcDbEntity
  8
太線
370
    25
100
AcDbCircle
 10
-579.6985177227191
 20
-148.5248926421206
 30
0.0
 40
2.267307865064322
100
AcDbArc
 50
207.0324924700557
 51
343.3477876073681
  0
LINE
  5
44FF
330
1F
100
AcDbEntity
  8
太線
370
    25
100
AcDbLine
 10
-594.3134312442878
 20
-150.9332033085765
 30
0.0
 11
-609.565308347189
 21
-155.290882480834
 31
0.0
  0
LINE
  5
4500
330
1F
100
AcDbEntity
  8
太線
370
    25
100
AcDbLine
 10
-587.7769124859017
 20
-150.9332033085765
 30
0.0
 11
-594.3134312442878
 21
-150.9332033085765
 31
0.0
  0
LINE
  5
4501
330
1F
100
AcDbEntity
  8
太線
370
    25
100
AcDbLine
 10
-587.7769124859017
 20
-146.575524136319
 30
0.0
 11
-587.7769124859017
 21
-150.9332033085765
 31
0.0
  0
ARC
  5
4502
330
1F
100
AcDbEntity
  8
太線
370
    25
100
AcDbCircle
 10
-585.598072899773
 20
-146.575524136319
 30
0.0
 40
2.178839586128725
100
AcDbArc
 50
90.0
 51
180.0
  0
CIRCLE
  5
4503
330
1F
100
AcDbEntity
  8
太線
370
    25
100
AcDbCircle
 10
-652.9555604470703
 20
-262.1249531121498
 30
0.0
 40
3.096704688771757
  0
CIRCLE
  5
4504
330
1F
100
AcDbEntity
  8
太線
370
    25
100
AcDbCircle
 10
-656.2504226429596
 20
-237.8731231395957
 30
0.0
 40
6.16641967795195
  0
CIRCLE
  5
4506
330
1F
100
AcDbEntity
  8
太線
370
    25
100
AcDbCircle
 10
-638.7685374378395
 20
-281.4045826697934
 30
0.0
 40
6.16641967795195
  0
ARC
  5
4507
330
1F
100
AcDbEntity
  8
太線
370
    25
100
AcDbCircle
 10
-627.2920154285544
 20
-200.9676366808196
 30
0.0
 40
6.16641967795195
100
AcDbArc
 50
293.5542985664591
 51
166.0905329754342
  0
CIRCLE
  5
4508
330
1F
100
AcDbEntity
  8
太線
370
    25
100
AcDbCircle
 10
-648.1257120963102
 20
-214.4459145774555
 30
0.0
 40
3.096704688771757
  0
ARC
  5
4622
330
1F
100
AcDbEntity
  8
太線
370
    25
100
AcDbCircle
 10
-452.0984233297992
 20
-206.4102068180348
 30
0.0
 40
17.74645208125778
100
AcDbArc
 50
146.1672774633265
 51
300.0409203135234
  0
LINE
  5
4623
330
1F
100
AcDbEntity
  8
太線
370
    25
100
AcDbLine
 10
-487.6715269644537
 20
-164.9061096539826
 30
0.0
 11
-486.6162529789453
 21
-163.3246352998349
 31
0.0
  0
LINE
  5
4624
330
1F
100
AcDbEntity
  8
太線
370
    25
100
AcDbLine
 10
-486.6162529789453
 20
-163.3246352998349
 30
0.0
 11
-456.073601650747
 21
-189.1147010784201
 31
0.0
  0
ARC
  5
462A
330
1F
100
AcDbEntity
  8
太線
370
    25
100
AcDbCircle
 10
-476.3360405976199
 20
-169.8535310776145
 30
0.0
 40
12.36811343397549
100
AcDbArc
 50
156.4209316711239
 51
279.8661027229889
  0
ARC
  5
462B
330
1F
100
AcDbEntity
  8
太線
370
    25
100
AcDbCircle
 10
-458.7285567919431
 20
-183.2770753736641
 30
0.0
 40
15.53768011546323
100
AcDbArc
 50
175.4287099076623
 51
238.5737859093239
  0
LINE
  5
462C
330
1F
100
AcDbEntity
  8
太線
370
    25
100
AcDbLine
 10
-487.6202696963149
 20
-164.8292935321618
 30
0.0
 11
-456.6244096882488
 21
-191.3330572743142
 31
0.0
  0
ARC
  5
462D
330
1F
100
AcDbEntity
  8
太線
370
    25
100
AcDbCircle
 10
-452.0984233297992
 20
-206.4102068180348
 30
0.0
 40
17.74645208125778
100
AcDbArc
 50
146.1672774633265
 51
300.0409203135234
  0
ARC
  5
4630
330
1F
100
AcDbEntity
  8
太線
370
    25
100
AcDbCircle
 10
-452.0984233297992
 20
-206.4102068180348
 30
0.0
 40
15.7418229846668
100
AcDbArc
 50
352.2250453276517
 51
106.709150302071
  0
ARC
  5
4635
330
1F
100
AcDbEntity
  8
太線
370
    25
100
AcDbCircle
 10
-450.6321303316092
 20
-204.4771067860083
 30
0.0
 40
16.29764152389965
100
AcDbArc
 50
349.1585098697629
 51
109.5045007899933
  0
ARC
  5
4636
330
1F
100
AcDbEntity
  8
太線
370
    25
100
AcDbCircle
 10
-452.0984233297992
 20
-206.4102068180348
 30
0.0
 40
36.16382281723855
100
AcDbArc
 50
336.9495388691212
 51
21.64302890255056
  0
ARC
  5
4638
330
1F
100
AcDbEntity
  8
太線
370
    25
100
AcDbCircle
 10
-452.0984233297992
 20
-206.4102068180348
 30
0.0
 40
50.0
100
AcDbArc
 50
332.1206147826592
 51
27.82709275197305
  0
ARC
  5
4639
330
1F
100
AcDbEntity
  8
太線
370
    25
100
AcDbCircle
 10
-452.0984233297992
 20
-206.4102068180348
 30
0.0
 40
36.16382281723855
100
AcDbArc
 50
137.5059366596137
 51
319.4190204427048
  0
ARC
  5
463A
330
1F
100
AcDbEntity
  8
太線
370
    25
100
AcDbCircle
 10
-452.0984233297992
 20
-206.4102068180348
 30
0.0
 40
50.0
100
AcDbArc
 50
136.7108590395866
 51
325.0163977079009
  0
LINE
  5
463B
330
1F
100
AcDbEntity
  8
太線
370
    25
100
AcDbLine
 10
-407.8804062396129
 20
-183.0699633614642
 30
0.0
 11
-411.6326757645374
 21
-177.468470815164
 31
0.0
  0
LINE
  5
463C
330
1F
100
AcDbEntity
  8
太線
370
    25
100
AcDbLine
 10
-418.4841585686926
 20
-193.0721677819976
 30
0.0
 11
-420.6309434682935
 21
-188.8883411052647
 31
0.0
  0
ARC
  5
463F
330
1F
100
AcDbEntity
  8
太線
370
    25
100
AcDbCircle
 10
-452.0984233297992
 20
-206.4102068180348
 30
0.0
 40
22.59411483572665
100
AcDbArc
 50
144.7340140110796
 51
303.6855460542676
  0
ARC
  5
470C
330
1F
100
AcDbEntity
  8
太線
370
    25
100
AcDbCircle
 10
-609.565308347189
 20
-242.2858025529842
 30
0.0
 40
29.00000423098573
100
AcDbArc
 50
146.1672774633265
 51
242.3066409760123
  0
ARC
  5
470D
330
1F
100
AcDbEntity
  8
太線
370
    25
100
AcDbCircle
 10
-609.565308347189
 20
-242.2858025529842
 30
0.0
 40
29.00000423098573
100
AcDbArc
 50
146.1672774633265
 51
242.3066409760123
  0
LINE
  5
470E
330
1F
100
AcDbEntity
  8
太線
370
    25
100
AcDbLine
 10
-665.9719185972944
 20
-171.8783909418585
 30
0.0
 11
-616.06126526289
 21
-214.0227031272922
 31
0.0
  0
LINE
  5
470F
330
1F
100
AcDbEntity
  8
太線
370
    25
100
AcDbLine
 10
-667.6126121239994
 20
-174.3371976319996
 30
0.0
 11
-616.9613570302406
 21
-217.6477848491034
 31
0.0
  0
ARC
  5
4710
330
1F
100
AcDbEntity
  8
太線
370
    25
100
AcDbCircle
 10
-649.1727183296128
 20
-182.5474533726097
 30
0.0
 40
20.21110136675722
100
AcDbArc
 50
156.4209316711239
 51
279.8661027229889
  0
LINE
  5
4712
330
1F
100
AcDbEntity
  8
太線
370
    25
100
AcDbLine
 10
-667.6963731476726
 20
-174.4627251373068
 30
0.0
 11
-665.9719185972944
 21
-171.8783909418585
 31
0.0
  0
LINE
  5
4715
330
1F
100
AcDbEntity
  8
太線
370
    25
100
AcDbLine
 10
-580.6133669919757
 20
-243.9547354939603
 30
0.0
 11
-532.3269454808118
 21
-284.7275542516977
 31
0.0
  0
LINE
  5
4716
330
1F
100
AcDbEntity
  8
太線
370
    25
100
AcDbLine
 10
-584.0776086214616
 20
-245.7658334709466
 30
0.0
 11
-534.4825087738265
 21
-288.1733294651899
 31
0.0
  0
ARC
  5
4717
330
1F
100
AcDbEntity
  8
太線
370
    25
100
AcDbCircle
 10
-542.4522510385189
 20
-255.5247002289585
 30
0.0
 40
33.60728764376166
100
AcDbArc
 50
214.1493703220061
 51
283.7179952662023
  0
ARC
  5
471C
330
1F
100
AcDbEntity
  8
太線
370
    25
100
AcDbCircle
 10
-607.169195425199
 20
-239.1268663976898
 30
0.0
 40
26.63245988460589
100
AcDbArc
 50
349.1585098697629
 51
109.5045007899933
  0
ARC
  5
471D
330
1F
100
AcDbEntity
  8
太線
370
    25
100
AcDbCircle
 10
-609.565308347189
 20
-242.2858025529842
 30
0.0
 40
25.72418030761731
100
AcDbArc
 50
352.2250453276517
 51
106.709150302071
  0
ARC
  5
471E
330
1F
100
AcDbEntity
  8
太線
370
    25
100
AcDbCircle
 10
-620.3998062836658
 20
-204.4832656463988
 30
0.0
 40
25.39058438413233
100
AcDbArc
 50
175.4287099076623
 51
238.5737859093239
  0
ARC
  5
471F
330
1F
100
AcDbEntity
  8
太線
370
    25
100
AcDbCircle
 10
-578.3505224314638
 20
-255.6469515622351
 30
0.0
 40
20.41294329410466
100
AcDbArc
 50
214.0210774011547
 51
293.3348659098711
  0
CIRCLE
  5
4720
330
1F
100
AcDbEntity
  8
太線
370
    25
100
AcDbCircle
 10
-609.565308347189
 20
-242.2858025529842
 30
0.0
 40
7.186089104416218
  0
ARC
  5
4727
330
1F
100
AcDbEntity
  8
太線
370
    25
100
AcDbCircle
 10
-609.565308347189
 20
-242.2858025529842
 30
0.0
 40
38.63411465368886
100
AcDbArc
 50
109.3258038895611
 51
113.0486645173263
  0
LINE
  5
4754
330
1F
100
AcDbEntity
  8
太線
370
    25
100
AcDbLine
 10
-535.4017329401872
 20
-288.2383650431402
 30
0.0
 11
-531.812912886031
 21
-285.1650254700512
 31
0.0
  0
ARC
  5
4755
330
1F
100
AcDbEntity
  8
太線
370
    25
100
AcDbCircle
 10
-609.565308347189
 20
-242.2308023118532
 30
0.0
 40
34.3100935529308
100
AcDbArc
 50
350.2211881971281
 51
25.19118575788244
  0
ARC
  5
4756
330
1F
100
AcDbEntity
  8
太線
370
    25
100
AcDbCircle
 10
-609.565308347189
 20
-242.2858025529842
 30
0.0
 40
71.90170634224796
100
AcDbArc
 50
333.8296901784779
 51
42.26709966043919
  0
ARC
  5
4757
330
1F
100
AcDbEntity
  8
太線
370
    25
100
AcDbCircle
 10
-609.565308347189
 20
-242.2858025529842
 30
0.0
 40
58.92618772374728
100
AcDbArc
 50
337.0005399087117
 51
39.0009849256168
  0
ARC
  5
4758
330
1F
100
AcDbEntity
  8
太線
370
    25
100
AcDbCircle
 10
-609.565308347189
 20
-242.2858025529842
 30
0.0
 40
58.92618772374728
100
AcDbArc
 50
137.4046456189234
 51
319.4218394604511
  0
ARC
  5
4759
330
1F
100
AcDbEntity
  8
太線
370
    25
100
AcDbCircle
 10
-609.565308347189
 20
-242.2858025529842
 30
0.0
 40
71.90170634224796
100
AcDbArc
 50
139.7285373064989
 51
321.268510118303
  0
ARC
  5
475B
330
1F
100
AcDbEntity
  8
太線
370
    25
100
AcDbCircle
 10
-618.4710302248831
 20
-214.4486244862402
 30
0.0
 40
7.102889238700648
100
AcDbArc
 50
80.07126681834824
 51
121.1492590945546
  0
LINE
  5
4765
330
1F
100
AcDbEntity
  8
太線
370
    25
100
AcDbLine
 10
-609.1797961936097
 20
-155.2366534194725
 30
0.0
 11
-617.3523854688351
 21
-212.3929401044722
 31
0.0
  0
LINE
  5
4766
330
1F
100
AcDbEntity
  8
太線
370
    25
100
AcDbLine
 10
-539.8424415910697
 20
-168.8119623275414
 30
0.0
 11
-578.518360555223
 21
-227.6270509987897
 31
0.0
  0
LINE
  5
4767
330
1F
100
AcDbEntity
  8
太線
370
    25
100
AcDbLine
 10
-582.3643938133813
 20
-221.2402632192847
 30
0.0
 11
-582.3643938133813
 21
-154.4549192362708
 31
0.0
  0
LINE
  5
4768
330
1F
100
AcDbEntity
  8
太線
370
    25
100
AcDbLine
 10
-581.3956098287324
 20
-155.4228248175227
 30
0.0
 11
-609.1797961936097
 21
-155.2366534194725
 31
0.0
  0
LINE
  5
4769
330
1F
100
AcDbEntity
  8
太線
370
    25
100
AcDbLine
 10
-433.6891697372002
 20
-196.8295875624408
 30
0.0
 11
-431.0529078539957
 21
-151.1758677993821
 31
0.0
  0
MTEXT
  5
476C
330
1F
100
AcDbEntity
  8
寸法線
100
AcDbMText
 10
-579.7281894350012
 20
89.9335712118866
 30
0.0
 40
10.89419793064362
 41
0.0
 71
     1
 72
     1
  1
M 20　
  7
OKANO
 73
     1
 44
1.0
  0
LINE
  5
47D8
330
1F
100
AcDbEntity
  8
太線
370
    25
100
AcDbLine
 10
-618.2860077651175
 20
-212.8912626529001
 30
0.0
 11
-620.8511899855851
 21
-175.9820964226439
 31
0.0
  0
LINE
  5
47D9
330
1F
100
AcDbEntity
  8
太線
370
    25
100
AcDbLine
 10
-628.0336935449274
 20
-174.9568440151056
 30
0.0
 11
-630.4612054449786
 21
-169.7591711750741
 31
0.0
  0
LINE
  5
47DA
330
1F
100
AcDbEntity
  8
太線
370
    25
100
AcDbLine
 10
-628.9330821792433
 20
-166.7044702477609
 30
0.0
 11
-609.5643948734948
 21
-162.65378860502
 31
0.0
  0
ARC
  5
47DB
330
1F
100
AcDbEntity
  8
太線
370
    25
100
AcDbCircle
 10
-625.2119964313972
 20
-179.1503831910306
 30
0.0
 40
5.706639923915048
100
AcDbArc
 50
40.16736151127232
 51
113.8633644315988
  0
LINE
  5
47DC
330
1F
100
AcDbEntity
  8
太線
370
    25
100
AcDbLine
 10
-605.6110288976614
 20
-202.5384797303986
 30
0.0
 11
-605.1689473283978
 21
-197.826703891695
 31
0.0
  0
LINE
  5
47DD
330
1F
100
AcDbEntity
  8
太線
370
    25
100
AcDbLine
 10
-602.6101732670448
 20
-195.8864898642903
 30
0.0
 11
-595.751940819863
 21
-197.1324471532052
 31
0.0
  0
LINE
  5
47DE
330
1F
100
AcDbEntity
  8
太線
370
    25
100
AcDbLine
 10
-595.6402820093424
 20
-210.1743625514507
 30
0.0
 11
-596.2254606429985
 21
-213.9165188489565
 31
0.0
  0
LINE
  5
47DF
330
1F
100
AcDbEntity
  8
太線
370
    25
100
AcDbLine
 10
-605.0631618786725
 20
-202.9111708744394
 30
0.0
 11
-594.8081388760642
 21
-204.3750048045175
 31
0.0
  0
LINE
  5
47E0
330
1F
100
AcDbEntity
  8
太線
370
    25
100
AcDbLine
 10
-606.5281613602052
 20
-208.2785682655877
 30
0.0
 11
-604.5748264988386
 21
-208.7665141717861
 31
0.0
  0
LINE
  5
47E1
330
1F
100
AcDbEntity
  8
太線
370
    25
100
AcDbLine
 10
-596.2731450155668
 20
-209.7424021956653
 30
0.0
 11
-597.7381444970994
 21
-209.7424021956653
 31
0.0
  0
ARC
  5
47E2
330
1F
100
AcDbEntity
  8
太線
370
    25
100
AcDbCircle
 10
-601.2653345702196
 20
-208.9975565926304
 30
0.0
 40
2.83282962310382
100
AcDbArc
 50
185.203185049272
 51
334.2032358544479
  0
LINE
  5
47E5
330
1F
100
AcDbEntity
  8
太線
370
    25
100
AcDbLine
 10
-604.5021347954453
 20
-276.2027137583274
 30
0.0
 11
-604.9795569957259
 21
-269.047046432684
 31
0.0
  0
LINE
  5
47E6
330
1F
100
AcDbEntity
  8
太線
370
    25
100
AcDbLine
 10
-607.5326317118193
 20
-266.9112065244129
 30
0.0
 11
-620.0350876794354
 21
-264.680405938631
 31
0.0
  0
LINE
  5
47E7
330
1F
100
AcDbEntity
  8
太線
370
    25
100
AcDbLine
 10
-622.3663137121424
 20
-265.8503404210901
 30
0.0
 11
-622.8195518825409
 21
-266.7560945014475
 31
0.0
  0
ARC
  5
47E8
330
1F
100
AcDbEntity
  8
太線
370
    25
100
AcDbCircle
 10
-602.9996351552301
 20
-198.030239238572
 30
0.0
 40
2.178839586128725
100
AcDbArc
 50
79.70319271025622
 51
174.6399248713142
  0
ARC
  5
47E9
330
1F
100
AcDbEntity
  8
太線
370
    25
100
AcDbCircle
 10
-596.1414027080484
 20
-199.2761965274868
 30
0.0
 40
2.178839586128725
100
AcDbArc
 50
351.1123654988804
 51
79.70319271025585
  0
ARC
  5
47EA
330
1F
100
AcDbEntity
  8
太線
370
    25
100
AcDbCircle
 10
-628.4870589293703
 20
-168.8371692895046
 30
0.0
 40
2.178839586128725
100
AcDbArc
 50
101.8123351493588
 51
205.0343726300265
  0
ARC
  5
47EC
330
1F
100
AcDbEntity
  8
太線
370
    25
100
AcDbCircle
 10
-620.4178111929884
 20
-266.8253685616749
 30
0.0
 40
2.178839586128725
100
AcDbArc
 50
79.8832374928194
 51
153.4166763687778
  0
LINE
  5
47ED
330
1F
100
AcDbEntity
  8
太線
370
    25
100
AcDbLine
 10
-606.7708396630838
 20
-267.0471323099519
 30
0.0
 11
-607.5326317118193
 21
-266.9112065244129
 31
0.0
  0
ARC
  5
47EE
330
1F
100
AcDbEntity
  8
太線
370
    25
100
AcDbCircle
 10
-607.1535631766368
 20
-269.1920949329958
 30
0.0
 40
2.178839586128725
100
AcDbArc
 50
3.817085799382768
 51
79.88323749281786
  0
LINE
  5
47EF
330
1F
100
AcDbEntity
  8
太線
370
    25
100
AcDbLine
 10
-594.8081388760642
 20
-204.3750048045175
 30
0.0
 11
-592.874038886569
 21
-204.774424421156
 31
0.0
  0
LINE
  5
47F0
330
1F
100
AcDbEntity
  8
太線
370
    25
100
AcDbLine
 10
-592.874038886569
 20
-204.774424421156
 30
0.0
 11
-593.8251630199395
 21
-210.4766434162205
 31
0.0
  0
LINE
  5
47F1
330
1F
100
AcDbEntity
  8
太線
370
    25
100
AcDbLine
 10
-593.8251630199395
 20
-210.4766434162205
 30
0.0
 11
-595.7274179446494
 21
-210.1598513673186
 31
0.0
  0
LINE
  5
47F2
330
1F
100
AcDbEntity
  8
太線
370
    25
100
AcDbLine
 10
-605.555738384634
 20
-202.5568952329107
 30
0.0
 11
-607.457993309344
 21
-201.923314923624
 31
0.0
  0
LINE
  5
47F3
330
1F
100
AcDbEntity
  8
太線
370
    25
100
AcDbLine
 10
-607.457993309344
 20
-201.923314923624
 30
0.0
 11
-608.0920782842463
 21
-208.2591142279752
 31
0.0
  0
LINE
  5
47F4
330
1F
100
AcDbEntity
  8
太線
370
    25
100
AcDbLine
 10
-608.0920782842463
 20
-208.2591142279752
 30
0.0
 11
-606.5068625180046
 21
-208.5759024883599
 31
0.0
  0
LINE
  5
47F5
330
1F
100
AcDbEntity
  8
太線
370
    25
100
AcDbLine
 10
-593.855223749086
 20
-199.7646138358745
 30
0.0
 11
-594.5146622691912
 21
-204.3769824106779
 31
0.0
  0
LINE
  5
47F6
330
1F
100
AcDbEntity
  8
太線
370
    25
100
AcDbLine
 10
-606.3844957093719
 20
-208.989354773999
 30
0.0
 11
-606.7142116404395
 21
-212.6133597366353
 31
0.0
  0
LINE
  5
47F7
330
1F
100
AcDbEntity
  8
太線
370
    25
100
AcDbLine
 10
-622.8195518825409
 20
-266.7560945014475
 30
0.0
 11
-624.5312024763546
 21
-276.0174173650217
 31
0.0
  0
LINE
  5
47F8
330
1F
100
AcDbEntity
  8
太線
370
    25
100
AcDbLine
 10
-624.5312024763546
 20
-276.0174173650217
 30
0.0
 11
-603.6084223270641
 21
-279.203109789865
 31
0.0
  0
LINE
  5
47F9
330
1F
100
AcDbEntity
  8
太線
370
    25
100
AcDbLine
 10
-603.6084223270641
 20
-279.203109789865
 30
0.0
 11
-604.5021347954453
 21
-276.2027137583274
 31
0.0
  0
ARC
  5
47FA
330
1F
100
AcDbEntity
  8
太線
370
    25
100
AcDbCircle
 10
-609.565308347189
 20
-242.2858025529842
 30
0.0
 40
29.00000423098573
100
AcDbArc
 50
279.3459000063307
 51
300.0409203135234
  0
ARC
  5
47FB
330
1F
100
AcDbEntity
  8
太線
370
    25
100
AcDbCircle
 10
-609.565308347189
 20
-242.2308023118532
 30
0.0
 40
34.3100935529308
100
AcDbArc
 50
278.4820078298581
 51
301.9591848450618
  0
ARC
  5
488C
330
1F
100
AcDbEntity
  8
太線
370
    25
100
AcDbCircle
 10
-330.999338826845
 20
-188.4365869448898
 30
0.0
 40
36.0
100
AcDbArc
 50
136.7108590395866
 51
325.0163977079009
  0
ARC
  5
488D
330
1F
100
AcDbEntity
  8
太線
370
    25
100
AcDbCircle
 10
-330.999338826845
 20
-188.4365869448898
 30
0.0
 40
16.26776268172319
100
AcDbArc
 50
144.7340140110796
 51
303.6855460542676
  0
ARC
  5
488E
330
1F
100
AcDbEntity
  8
太線
370
    25
100
AcDbCircle
 10
-330.999338826845
 20
-188.4365869448898
 30
0.0
 40
26.03795242841176
100
AcDbArc
 50
137.5059366596137
 51
319.4190204427048
  0
ARC
  5
488F
330
1F
100
AcDbEntity
  8
太線
370
    25
100
AcDbCircle
 10
-330.999338826845
 20
-188.4365869448898
 30
0.0
 40
12.7774454985056
100
AcDbArc
 50
146.1672774633265
 51
300.0409203135234
  0
LINE
  5
4890
330
1F
100
AcDbEntity
  8
太線
370
    25
100
AcDbLine
 10
-356.5750682107363
 20
-158.4983293790612
 30
0.0
 11
-334.2580490049289
 21
-177.581039273411
 31
0.0
  0
LINE
  5
4891
330
1F
100
AcDbEntity
  8
太線
370
    25
100
AcDbLine
 10
-355.8521761742302
 20
-157.4149754517858
 30
0.0
 11
-333.8614672179275
 21
-175.9838228123672
 31
0.0
  0
ARC
  5
4892
330
1F
100
AcDbEntity
  8
太線
370
    25
100
AcDbCircle
 10
-330.999338826845
 20
-188.4365869448898
 30
0.0
 40
12.7774454985056
100
AcDbArc
 50
146.1672774633265
 51
300.0409203135234
  0
ARC
  5
4894
330
1F
100
AcDbEntity
  8
太線
370
    25
100
AcDbCircle
 10
-330.999338826845
 20
-188.4365869448898
 30
0.0
 40
36.0
100
AcDbArc
 50
91.13452041214376
 51
127.5242167592335
  0
ARC
  5
4895
330
1F
100
AcDbEntity
  8
太線
370
    25
100
AcDbCircle
 10
-330.999338826845
 20
-188.4365869448898
 30
0.0
 40
26.03795242841176
100
AcDbArc
 50
97.10360178722822
 51
122.6952926727715
  0
ARC
  5
48A3
330
1F
100
AcDbEntity
  8
太線
370
    25
100
AcDbCircle
 10
-335.7730349195886
 20
-171.7807323049429
 30
0.0
 40
11.18712968313352
100
AcDbArc
 50
175.4287099076623
 51
238.5737859093239
  0
ARC
  5
48A4
330
1F
100
AcDbEntity
  8
太線
370
    25
100
AcDbCircle
 10
-348.450423259676
 20
-162.1157804117872
 30
0.0
 40
8.905041672462356
100
AcDbArc
 50
156.4209316711239
 51
279.8661027229889
  0
LINE
  5
48A5
330
1F
100
AcDbEntity
  8
太線
370
    25
100
AcDbLine
 10
-341.6119734437963
 20
-158.5536369867722
 30
0.0
 11
-340.8521761742302
 21
-157.4149754517858
 31
0.0
  0
ARC
  5
48C5
330
1F
100
AcDbEntity
  8
太線
370
    25
100
AcDbCircle
 10
-281.3622915536283
 20
-143.7965869448898
 30
0.0
 40
1.44
100
AcDbArc
 50
0.000000000000007
 51
90.0
  0
LINE
  5
48C6
330
1F
100
AcDbEntity
  8
太線
370
    25
100
AcDbLine
 10
-279.9222915536282
 20
-145.2365869448898
 30
0.0
 11
-326.0022915536282
 21
-145.2365869448898
 31
0.0
  0
LINE
  5
48C7
330
1F
100
AcDbEntity
  8
太線
370
    25
100
AcDbLine
 10
-279.9222915536282
 20
-146.6765869448898
 30
0.0
 11
-326.0022915536282
 21
-146.6765869448898
 31
0.0
  0
LINE
  5
48C8
330
1F
100
AcDbEntity
  8
太線
370
    25
100
AcDbLine
 10
-277.0422915536282
 20
-158.1965869448897
 30
0.0
 11
-294.3222915536283
 21
-158.1965869448897
 31
0.0
  0
LINE
  5
48C9
330
1F
100
AcDbEntity
  8
太線
370
    25
100
AcDbLine
 10
-317.7446762401738
 20
-181.5385410808621
 30
0.0
 11
-315.8465676842665
 21
-148.6678628514598
 31
0.0
  0
LINE
  5
48CA
330
1F
100
AcDbEntity
  8
太線
370
    25
100
AcDbLine
 10
-306.7970681988483
 20
-178.833198838943
 30
0.0
 11
-308.3427533265609
 21
-175.8208436316953
 31
0.0
  0
ARC
  5
48CB
330
1F
100
AcDbEntity
  8
太線
370
    25
100
AcDbCircle
 10
-330.999338826845
 20
-188.4365869448898
 30
0.0
 40
36.0
100
AcDbArc
 50
332.1206147826592
 51
27.82709275197305
  0
ARC
  5
48CC
330
1F
100
AcDbEntity
  8
太線
370
    25
100
AcDbCircle
 10
-329.9436078681482
 20
-187.0447549218307
 30
0.0
 40
11.73430189720774
100
AcDbArc
 50
349.1585098697629
 51
109.5045007899933
  0
ARC
  5
48CD
330
1F
100
AcDbEntity
  8
太線
370
    25
100
AcDbCircle
 10
-330.999338826845
 20
-188.4365869448898
 30
0.0
 40
11.3341125489601
100
AcDbArc
 50
352.2250453276517
 51
106.709150302071
  0
LINE
  5
48CE
330
1F
100
AcDbEntity
  8
太線
370
    25
100
AcDbLine
 10
-294.3222915536283
 20
-158.1965869448897
 30
0.0
 11
-318.2306901490286
 21
-187.9625358824746
 31
0.0
  0
LINE
  5
48CF
330
1F
100
AcDbEntity
  8
太線
370
    25
100
AcDbLine
 10
-319.769419978082
 20
-189.9698938035097
 30
0.0
 11
-297.9177443628415
 21
-208.6547003462473
 31
0.0
  0
LINE
  5
48D0
330
1F
100
AcDbEntity
  8
太線
370
    25
100
AcDbLine
 10
-318.2430699037217
 20
-189.1719213098136
 30
0.0
 11
-296.9679999326098
 21
-207.1364866025591
 31
0.0
  0
CIRCLE
  5
48D3
330
1F
100
AcDbEntity
  8
太線
370
    25
100
AcDbCircle
 10
-330.999338826845
 20
-188.4365869448898
 30
0.0
 40
3.166201671825141
  0
ARC
  5
48D4
330
1F
100
AcDbEntity
  8
太線
370
    25
100
AcDbCircle
 10
-330.999338826845
 20
-188.4365869448898
 30
0.0
 40
16.26776268172319
100
AcDbArc
 50
347.9450916754859
 51
14.80816320108715
  0
ARC
  5
48D5
330
1F
100
AcDbEntity
  8
太線
370
    25
100
AcDbCircle
 10
-330.999338826845
 20
-188.4365869448898
 30
0.0
 40
26.03795242841176
100
AcDbArc
 50
336.9495388691212
 51
21.64302890255056
  0
LINE
  5
48D9
330
1F
100
AcDbEntity
  8
太線
370
    25
100
AcDbLine
 10
-330.3222915536283
 20
-146.6765869448898
 30
0.0
 11
-336.9001613833478
 21
-173.4179642834176
 31
0.0
  0
ARC
  5
48DA
330
1F
100
AcDbEntity
  8
太線
370
    25
100
AcDbCircle
 10
-330.999338826845
 20
-188.4365869448898
 30
0.0
 40
17.02224904653908
100
AcDbArc
 50
109.3258038895611
 51
113.0486645173263
  0
ARC
  5
48DB
330
1F
100
AcDbEntity
  8
太線
370
    25
100
AcDbCircle
 10
-324.5622915536283
 20
-143.7965869448898
 30
0.0
 40
1.44
100
AcDbArc
 50
90.0
 51
180.0
  0
ARC
  5
48DC
330
1F
100
AcDbEntity
  8
細線
100
AcDbCircle
 10
-324.1975884130138
 20
-145.0849289899973
 30
0.0
 40
1.498468885216836
100
AcDbArc
 50
207.0324924700557
 51
343.3477876073681
  0
LINE
  5
48DD
330
1F
100
AcDbEntity
  8
太線
370
    25
100
AcDbLine
 10
-326.0022915536282
 20
-143.7965869448898
 30
0.0
 11
-326.0022915536282
 21
-146.6765869448898
 31
0.0
  0
LINE
  5
48DE
330
1F
100
AcDbEntity
  8
太線
370
    25
100
AcDbLine
 10
-326.0022915536282
 20
-146.6765869448898
 30
0.0
 11
-330.3222915536283
 21
-146.6765869448898
 31
0.0
  0
LINE
  5
48E1
330
1F
100
AcDbEntity
  8
太線
370
    25
100
AcDbLine
 10
-315.9222915536282
 20
-142.3565869448898
 30
0.0
 11
-324.5622915536283
 21
-142.3565869448898
 31
0.0
  0
ARC
  5
48E2
330
1F
100
AcDbEntity
  8
細線
100
AcDbCircle
 10
-316.4744312697346
 20
-145.0849289899973
 30
0.0
 40
1.498468885216836
100
AcDbArc
 50
207.0324924700557
 51
343.3477876073681
  0
ARC
  5
48E3
330
1F
100
AcDbEntity
  8
細線
100
AcDbCircle
 10
-312.9401050788452
 20
-145.0849289899973
 30
0.0
 40
1.498468885216836
100
AcDbArc
 50
207.0324924700557
 51
343.3477876073681
  0
ARC
  5
48E5
330
1F
100
AcDbEntity
  8
細線
100
AcDbCircle
 10
-320.6632622221244
 20
-145.0849289899973
 30
0.0
 40
1.498468885216836
100
AcDbArc
 50
207.0324924700557
 51
343.3477876073681
  0
LINE
  5
48E6
330
1F
100
AcDbEntity
  8
太線
370
    25
100
AcDbLine
 10
-299.1623665219109
 20
-171.631611656159
 30
0.0
 11
-301.8640005798565
 21
-167.5985370228228
 31
0.0
  0
ARC
  5
48E7
330
1F
100
AcDbEntity
  8
細線
100
AcDbCircle
 10
-294.0903669900545
 20
-145.0849289899973
 30
0.0
 40
1.498468885216836
100
AcDbArc
 50
207.0324924700557
 51
343.3477876073681
  0
ARC
  5
48EA
330
1F
100
AcDbEntity
  8
細線
100
AcDbCircle
 10
-305.4787503189519
 20
-145.0849289899973
 30
0.0
 40
1.498468885216836
100
AcDbArc
 50
207.0324924700557
 51
343.3477876073681
  0
ARC
  5
48EB
330
1F
100
AcDbEntity
  8
細線
100
AcDbCircle
 10
-301.2899193665622
 20
-145.0849289899973
 30
0.0
 40
1.498468885216836
100
AcDbArc
 50
207.0324924700557
 51
343.3477876073681
  0
ARC
  5
48EC
330
1F
100
AcDbEntity
  8
細線
100
AcDbCircle
 10
-297.7555931756727
 20
-145.0849289899973
 30
0.0
 40
1.498468885216836
100
AcDbArc
 50
207.0324924700557
 51
343.3477876073681
  0
ARC
  5
48ED
330
1F
100
AcDbEntity
  8
細線
100
AcDbCircle
 10
-309.0130765098412
 20
-145.0849289899973
 30
0.0
 40
1.498468885216836
100
AcDbArc
 50
207.0324924700557
 51
343.3477876073681
  0
LINE
  5
48F0
330
1F
100
AcDbEntity
  8
太線
370
    25
100
AcDbLine
 10
-290.0022915536283
 20
-142.3565869448898
 30
0.0
 11
-281.3622915536283
 21
-142.3565869448898
 31
0.0
  0
ARC
  5
48F2
330
1F
100
AcDbEntity
  8
細線
100
AcDbCircle
 10
-290.5560407991653
 20
-145.0849289899973
 30
0.0
 40
1.498468885216836
100
AcDbArc
 50
207.0324924700557
 51
343.3477876073681
  0
ARC
  5
48F3
330
1F
100
AcDbEntity
  8
細線
100
AcDbCircle
 10
-282.8328836558861
 20
-145.0849289899973
 30
0.0
 40
1.498468885216836
100
AcDbArc
 50
207.0324924700557
 51
343.3477876073681
  0
ARC
  5
48F4
330
1F
100
AcDbEntity
  8
細線
100
AcDbCircle
 10
-286.3672098467755
 20
-145.0849289899973
 30
0.0
 40
1.498468885216836
100
AcDbArc
 50
207.0324924700557
 51
343.3477876073681
  0
LINE
  5
48F5
330
1F
100
AcDbEntity
  8
太線
370
    25
100
AcDbLine
 10
-275.6022915536283
 20
-148.1165869448898
 30
0.0
 11
-275.6022915536283
 21
-156.7565869448897
 31
0.0
  0
ARC
  5
48F6
330
1F
100
AcDbEntity
  8
太線
370
    25
100
AcDbCircle
 10
-277.0422915536282
 20
-156.7565869448897
 30
0.0
 40
1.44
100
AcDbArc
 50
270.0
 51
0.000000000000007
  0
LINE
  5
48F7
330
1F
100
AcDbEntity
  8
太線
370
    25
100
AcDbLine
 10
-279.9222915536282
 20
-143.7965869448898
 30
0.0
 11
-279.9222915536282
 21
-146.6765869448898
 31
0.0
  0
ARC
  5
48F8
330
1F
100
AcDbEntity
  8
太線
370
    25
100
AcDbCircle
 10
-277.0422915536282
 20
-148.1165869448898
 30
0.0
 40
1.44
100
AcDbArc
 50
0.000000000000007
 51
90.0
  0
LINE
  5
48F9
330
1F
100
AcDbEntity
  8
太線
370
    25
100
AcDbLine
 10
-279.9222915536282
 20
-146.6765869448898
 30
0.0
 11
-277.0422915536282
 21
-146.6765869448898
 31
0.0
  0
LINE
  5
4ABD
330
1F
100
AcDbEntity
  8
想像線
100
AcDbLine
 10
-277.3826431246519
 20
-76.68335742083832
 30
0.0
 11
-327.3826431246519
 21
-76.68335742083832
 31
0.0
  0
LINE
  5
4ABE
330
1F
100
AcDbEntity
  8
太線
370
    25
100
AcDbLine
 10
-332.3826431246519
 20
-41.68335742083832
 30
0.0
 11
-272.3826431246519
 21
-41.68335742083832
 31
0.0
  0
LINE
  5
4AC0
330
1F
100
AcDbEntity
  8
想像線
100
AcDbLine
 10
-302.3826431246519
 20
-130.3962968297429
 30
0.0
 11
-278.3826431246519
 21
-130.6833574208383
 31
0.0
  0
LINE
  5
4AC1
330
1F
100
AcDbEntity
  8
太線
370
    25
100
AcDbLine
 10
-302.3826431246519
 20
-136.6833574208383
 30
0.0
 11
-237.3826431246519
 21
-136.6833574208383
 31
0.0
  0
LINE
  5
4AC2
330
1F
100
AcDbEntity
  8
想像線
100
AcDbLine
 10
-327.3826431246519
 20
-76.68335742083832
 30
0.0
 11
-327.3826431246519
 21
-41.68335742083832
 31
0.0
  0
LINE
  5
4AC3
330
1F
100
AcDbEntity
  8
太線
370
    25
100
AcDbLine
 10
-332.3826431246519
 20
-41.68335742083832
 30
0.0
 11
-332.3826431246519
 21
-106.6833574208383
 31
0.0
  0
LINE
  5
4AC5
330
1F
100
AcDbEntity
  8
想像線
100
AcDbLine
 10
-326.0955825335567
 20
-106.6833574208383
 30
0.0
 11
-326.3826431246519
 21
-76.68335742083832
 31
0.0
  0
ARC
  5
4AC6
330
1F
100
AcDbEntity
  8
太線
370
    25
100
AcDbCircle
 10
-302.3826431246519
 20
-106.6833574208383
 30
0.0
 40
30.0
100
AcDbArc
 50
180.0
 51
270.0
  0
ARC
  5
4AC7
330
1F
100
AcDbEntity
  8
想像線
100
AcDbCircle
 10
-302.3826431246519
 20
-106.6833574208383
 30
0.0
 40
23.71293940890467
100
AcDbArc
 50
179.9999999999983
 51
270.0
  0
LINE
  5
4AC8
330
1F
100
AcDbEntity
  8
太線
370
    25
100
AcDbLine
 10
-272.3826431246519
 20
-76.68335742083832
 30
0.0
 11
-272.3826431246519
 21
-41.68335742083832
 31
0.0
  0
LINE
  5
4AC9
330
1F
100
AcDbEntity
  8
想像線
100
AcDbLine
 10
-277.3826431246519
 20
-41.68335742083832
 30
0.0
 11
-277.3826431246519
 21
-76.68335742083832
 31
0.0
  0
LINE
  5
4ACB
330
1F
100
AcDbEntity
  8
太線
370
    25
100
AcDbLine
 10
-272.3826431246519
 20
-51.68335742083832
 30
0.0
 11
-247.3826431246519
 21
-76.68335742083832
 31
0.0
  0
LINE
  5
4AD1
330
1F
100
AcDbEntity
  8
想像線
100
AcDbLine
 10
-272.3826431246519
 20
-131.6833574208383
 30
0.0
 11
-272.3826431246519
 21
-81.68335742083831
 31
0.0
  0
LINE
  5
4AD2
330
1F
100
AcDbEntity
  8
想像線
100
AcDbLine
 10
-278.3826431246519
 20
-130.6833574208383
 30
0.0
 11
-278.3826431246519
 21
-76.68335742083832
 31
0.0
  0
LINE
  5
4AD4
330
1F
100
AcDbEntity
  8
太線
370
    25
100
AcDbLine
 10
-237.3826431246519
 20
-136.6833574208383
 30
0.0
 11
-237.3826431246519
 21
-76.68335742083832
 31
0.0
  0
LINE
  5
4AD5
330
1F
100
AcDbEntity
  8
想像線
100
AcDbLine
 10
-237.3826431246519
 20
-131.6833574208383
 30
0.0
 11
-272.3826431246519
 21
-131.6833574208383
 31
0.0
  0
LINE
  5
4AD6
330
1F
100
AcDbEntity
  8
想像線
100
AcDbLine
 10
-278.3826431246519
 20
-130.6833574208383
 30
0.0
 11
-272.3826431246519
 21
-130.6833574208383
 31
0.0
  0
LINE
  5
4AD7
330
1F
100
AcDbEntity
  8
太線
370
    25
100
AcDbLine
 10
-237.3826431246519
 20
-76.68335742083835
 30
0.0
 11
-272.3826431246519
 21
-76.68335742083832
 31
0.0
  0
LINE
  5
4AD8
330
1F
100
AcDbEntity
  8
想像線
100
AcDbLine
 10
-272.3826431246519
 20
-81.68335742083831
 30
0.0
 11
-237.3826431246519
 21
-81.68335742083835
 31
0.0
  0
LINE
  5
4AD9
330
1F
100
AcDbEntity
  8
想像線
100
AcDbLine
 10
-272.3826431246519
 20
-82.68335742083833
 30
0.0
 11
-278.3826431246519
 21
-82.68335742083833
 31
0.0
  0
CIRCLE
  5
4ADA
330
1F
100
AcDbEntity
  8
太線
370
    25
100
AcDbCircle
 10
-267.4968995625111
 20
-72.17357027641219
 30
0.0
 40
3.0
  0
LINE
  5
4BCD
330
1F
100
AcDbEntity
  8
太線
370
    25
100
AcDbLine
 10
-348.1580798947759
 20
-136.4102068180348
 30
0.0
 11
-348.1580798947759
 21
-76.41020681803482
 31
0.0
  0
LINE
  5
4BCE
330
1F
100
AcDbEntity
  8
太線
370
    25
100
AcDbLine
 10
-443.1580798947759
 20
-41.41020681803482
 30
0.0
 11
-443.1580798947759
 21
-106.4102068180348
 31
0.0
  0
LINE
  5
4BCF
330
1F
100
AcDbEntity
  8
想像線
100
AcDbLine
 10
-389.1580798947759
 20
-130.4102068180348
 30
0.0
 11
-389.1580798947759
 21
-76.41020681803482
 31
0.0
  0
LINE
  5
4BD0
330
1F
100
AcDbEntity
  8
想像線
100
AcDbLine
 10
-383.1580798947759
 20
-131.4102068180348
 30
0.0
 11
-383.1580798947759
 21
-81.41020681803482
 31
0.0
  0
LINE
  5
4BD1
330
1F
100
AcDbEntity
  8
想像線
100
AcDbLine
 10
-436.8710193036807
 20
-106.4102068180348
 30
0.0
 11
-437.1580798947759
 21
-76.41020681803482
 31
0.0
  0
LINE
  5
4BD2
330
1F
100
AcDbEntity
  8
太線
370
    25
100
AcDbLine
 10
-413.1580798947759
 20
-136.4102068180348
 30
0.0
 11
-348.1580798947759
 21
-136.4102068180348
 31
0.0
  0
LINE
  5
4BD3
330
1F
100
AcDbEntity
  8
想像線
100
AcDbLine
 10
-413.1580798947759
 20
-130.1231462269395
 30
0.0
 11
-389.1580798947759
 21
-130.4102068180348
 31
0.0
  0
ARC
  5
4BD4
330
1F
100
AcDbEntity
  8
太線
370
    25
100
AcDbCircle
 10
-413.1580798947759
 20
-106.4102068180348
 30
0.0
 40
30.0
100
AcDbArc
 50
180.0
 51
270.0
  0
ARC
  5
4BD5
330
1F
100
AcDbEntity
  8
想像線
100
AcDbCircle
 10
-413.1580798947759
 20
-106.4102068180348
 30
0.0
 40
23.71293940890467
100
AcDbArc
 50
179.9999999999983
 51
270.0
  0
LINE
  5
4BD6
330
1F
100
AcDbEntity
  8
想像線
100
AcDbLine
 10
-348.1580798947759
 20
-131.4102068180348
 30
0.0
 11
-383.1580798947759
 21
-131.4102068180348
 31
0.0
  0
LINE
  5
4BD7
330
1F
100
AcDbEntity
  8
想像線
100
AcDbLine
 10
-389.1580798947759
 20
-130.4102068180348
 30
0.0
 11
-383.1580798947759
 21
-130.4102068180348
 31
0.0
  0
LINE
  5
4BD8
330
1F
100
AcDbEntity
  8
太線
370
    25
100
AcDbLine
 10
-443.1580798947759
 20
-41.41020681803482
 30
0.0
 11
-383.1580798947759
 21
-41.41020681803482
 31
0.0
  0
LINE
  5
4BD9
330
1F
100
AcDbEntity
  8
想像線
100
AcDbLine
 10
-388.1580798947759
 20
-76.41020681803482
 30
0.0
 11
-438.1580798947759
 21
-76.41020681803482
 31
0.0
  0
LINE
  5
4BDA
330
1F
100
AcDbEntity
  8
想像線
100
AcDbLine
 10
-438.1580798947759
 20
-76.41020681803482
 30
0.0
 11
-438.1580798947759
 21
-41.41020681803482
 31
0.0
  0
LINE
  5
4BDB
330
1F
100
AcDbEntity
  8
太線
370
    25
100
AcDbLine
 10
-348.1580798947759
 20
-76.41020681803485
 30
0.0
 11
-383.1580798947759
 21
-76.41020681803482
 31
0.0
  0
LINE
  5
4BDC
330
1F
100
AcDbEntity
  8
太線
370
    25
100
AcDbLine
 10
-383.1580798947759
 20
-51.41020681803482
 30
0.0
 11
-358.1580798947759
 21
-76.41020681803482
 31
0.0
  0
LINE
  5
4BDD
330
1F
100
AcDbEntity
  8
想像線
100
AcDbLine
 10
-383.1580798947759
 20
-81.41020681803482
 30
0.0
 11
-348.1580798947759
 21
-81.41020681803485
 31
0.0
  0
LINE
  5
4BDE
330
1F
100
AcDbEntity
  8
太線
370
    25
100
AcDbLine
 10
-383.1580798947759
 20
-76.41020681803482
 30
0.0
 11
-383.1580798947759
 21
-41.41020681803482
 31
0.0
  0
LINE
  5
4BDF
330
1F
100
AcDbEntity
  8
想像線
100
AcDbLine
 10
-388.1580798947759
 20
-41.41020681803482
 30
0.0
 11
-388.1580798947759
 21
-76.41020681803482
 31
0.0
  0
LINE
  5
4BE0
330
1F
100
AcDbEntity
  8
想像線
100
AcDbLine
 10
-383.1580798947759
 20
-82.41020681803481
 30
0.0
 11
-389.1580798947759
 21
-82.41020681803481
 31
0.0
  0
CIRCLE
  5
4BE1
330
1F
100
AcDbEntity
  8
太線
370
    25
100
AcDbCircle
 10
-378.2723363326351
 20
-71.90041967360869
 30
0.0
 40
3.0
  0
LINE
  5
4C2A
330
1F
100
AcDbEntity
  8
太線
370
    25
100
AcDbLine
 10
-139.4857773385774
 20
-110.4436568020215
 30
0.0
 11
-139.4857773385774
 21
-45.44365680202154
 31
0.0
  0
LINE
  5
4C2B
330
1F
100
AcDbEntity
  8
太線
370
    25
100
AcDbLine
 10
-199.4857773385774
 20
-45.44365680202154
 30
0.0
 11
-199.4857773385774
 21
-110.4436568020215
 31
0.0
  0
LINE
  5
4C2C
330
1F
100
AcDbEntity
  8
想像線
100
AcDbLine
 10
-144.4857773385774
 20
-45.44365680202156
 30
0.0
 11
-144.4857773385774
 21
-80.44365680202156
 31
0.0
  0
LINE
  5
4C2D
330
1F
100
AcDbEntity
  8
想像線
100
AcDbLine
 10
-194.4857773385774
 20
-80.44365680202156
 30
0.0
 11
-194.4857773385774
 21
-45.44365680202156
 31
0.0
  0
LINE
  5
4C2E
330
1F
100
AcDbEntity
  8
太線
370
    25
100
AcDbLine
 10
-166.9857773385774
 20
-80.44365680202156
 30
0.0
 11
-166.9857773385774
 21
-55.44365680202156
 31
0.0
  0
LINE
  5
4C2F
330
1F
100
AcDbEntity
  8
太線
370
    25
100
AcDbLine
 10
-171.9857773385774
 20
-55.44365680202156
 30
0.0
 11
-171.9857773385774
 21
-80.44365680202156
 31
0.0
  0
CIRCLE
  5
4C30
330
1F
100
AcDbEntity
  8
太線
370
    25
100
AcDbCircle
 10
-169.4857773385774
 20
-110.4436568020215
 30
0.0
 40
30.0
  0
LINE
  5
4C31
330
1F
100
AcDbEntity
  8
想像線
100
AcDbLine
 10
-193.1334336380079
 20
-110.4436568020215
 30
0.0
 11
-193.1334336380079
 21
-80.44365680202156
 31
0.0
  0
LINE
  5
4C32
330
1F
100
AcDbEntity
  8
想像線
100
AcDbLine
 10
-145.8381210391469
 20
-110.4436568020215
 30
0.0
 11
-145.8381210391469
 21
-80.44365680202156
 31
0.0
  0
CIRCLE
  5
4C33
330
1F
100
AcDbEntity
  8
太線
370
    25
100
AcDbCircle
 10
-169.4857773385774
 20
-110.4436568020215
 30
0.0
 40
25.0
  0
CIRCLE
  5
4C34
330
1F
100
AcDbEntity
  8
細線
100
AcDbCircle
 10
-169.4857773385774
 20
-110.4436568020215
 30
0.0
 40
23.6476562994305
  0
LINE
  5
4C35
330
1F
100
AcDbEntity
  8
想像線
100
AcDbLine
 10
-144.4857773385774
 20
-80.44365680202156
 30
0.0
 11
-194.4857773385774
 21
-80.44365680202156
 31
0.0
  0
LINE
  5
4C36
330
1F
100
AcDbEntity
  8
破線
100
AcDbLine
 10
-166.9857773385774
 20
-78.5456477448455
 30
0.0
 11
-171.9857773385774
 21
-78.5456477448455
 31
0.0
  0
LINE
  5
4C37
330
1F
100
AcDbEntity
  8
破線
100
AcDbLine
 10
-166.9857773385774
 20
-72.3926616563092
 30
0.0
 11
-171.9857773385774
 21
-72.3926616563092
 31
0.0
  0
LINE
  5
4C38
330
1F
100
AcDbEntity
  8
太線
370
    25
100
AcDbLine
 10
-139.4857773385774
 20
-45.44365680202156
 30
0.0
 11
-199.4857773385774
 21
-45.44365680202156
 31
0.0
  0
DIMENSION
  5
4C39
330
1F
100
AcDbEntity
  8
寸法線
100
AcDbDimension
  2
*D3
 10
-199.4857773385774
 20
-27.1772248714677
 30
0.0
 11
-169.4857773385774
 21
-22.1772248714677
 31
0.0
 70
    32
  1
58
 71
     5
 42
60.0
  3
sunpo
100
AcDbAlignedDimension
 13
-139.4857773385774
 23
-45.44365680202156
 33
0.0
 14
-199.4857773385774
 24
-45.44365680202154
 34
0.0
 50
180.0
100
AcDbRotatedDimension
1001
ACAD
1000
DSTYLE
1002
{
1070
   140
1040
8.0
1070
    40
1040
1.0
1002
}
  0
DIMENSION
  5
4C3A
330
1F
100
AcDbEntity
  8
寸法線
100
AcDbDimension
  2
*D4
 10
-171.9857773385774
 20
-46.96426016222784
 30
0.0
 11
-169.4857773385774
 21
-43.46426016222785
 31
0.0
 70
    32
  1
4
 71
     5
 42
5.0
  3
sunpo
100
AcDbAlignedDimension
 13
-166.9857773385774
 23
-55.44365680202156
 33
0.0
 14
-171.9857773385774
 24
-55.44365680202156
 34
0.0
 50
180.0
100
AcDbRotatedDimension
1001
ACAD
1000
DSTYLE
1002
{
1070
    40
1040
1.0
1002
}
  0
LINE
  5
4C3B
330
1F
100
AcDbEntity
  8
太線
370
    25
100
AcDbLine
 10
-166.9857773385774
 20
-55.44365680202156
 30
0.0
 11
-171.9857773385774
 21
-55.44365680202156
 31
0.0
  0
XLINE
  5
4CA4
330
1F
100
AcDbEntity
  8
構築線
370
    25
100
AcDbXline
 10
-414.1580798947757
 20
-136.4102068180348
 30
0.0
 11
1.0
 21
0.0
 31
0.0
  0
DIMENSION
  5
4CB2
330
1F
100
AcDbEntity
  8
寸法線
370
    25
100
AcDbDimension
  2
*D5
 10
-348.1580798947759
 20
-26.01733698554676
 30
0.0
 11
-395.6580798947759
 21
-21.39233698554676
 31
0.0
 70
    32
  1
92
 71
     5
 42
95.0
  3
ISO-25
100
AcDbAlignedDimension
 13
-443.1580798947759
 23
-41.41020681803482
 33
0.0
 14
-348.1580798947759
 24
-81.41020681803485
 34
0.0
100
AcDbRotatedDimension
1001
ACAD
1000
DSTYLE
1002
{
1070
   140
1040
8.0
1002
}
  0
LINE
  5
4CE7
330
1F
100
AcDbEntity
  8
破線
370
    25
100
AcDbLine
 10
-407.1580798947759
 20
-130.3743242441479
 30
0.0
 11
-407.1580798947759
 21
-111.4102068180348
 31
0.0
  0
LINE
  5
4CE8
330
1F
100
AcDbEntity
  8
破線
370
    25
100
AcDbLine
 10
-407.1580798947759
 20
-111.4102068180348
 30
0.0
 11
-419.1580798947759
 21
-111.4102068180348
 31
0.0
  0
LINE
  5
4CE9
330
1F
100
AcDbEntity
  8
破線
370
    25
100
AcDbLine
 10
-419.1580798947759
 20
-111.4102068180348
 30
0.0
 11
-419.1580798947759
 21
-130.2307939486002
 31
0.0
  0
LINE
  5
5B4C
330
1F
100
AcDbEntity
  8
太線
370
    25
100
AcDbLine
 10
-488.1731927109712
 20
-76.41020681803485
 30
0.0
 11
-523.1731927109713
 21
-76.41020681803482
 31
0.0
  0
LINE
  5
5B4D
330
1F
100
AcDbEntity
  8
想像線
100
AcDbLine
 10
-488.1731927109712
 20
-131.4102068180348
 30
0.0
 11
-523.1731927109713
 21
-131.4102068180348
 31
0.0
  0
LINE
  5
5B4E
330
1F
100
AcDbEntity
  8
太線
370
    25
100
AcDbLine
 10
-523.1731927109713
 20
-51.41020681803479
 30
0.0
 11
-498.1731927109713
 21
-76.41020681803482
 31
0.0
  0
LINE
  5
5B4F
330
1F
100
AcDbEntity
  8
太線
370
    25
100
AcDbLine
 10
-553.1731927109713
 20
-136.4102068180348
 30
0.0
 11
-488.1731927109712
 21
-136.4102068180348
 31
0.0
  0
LINE
  5
5B52
330
1F
100
AcDbEntity
  8
想像線
100
AcDbLine
 10
-576.886132119876
 20
-106.4102068180348
 30
0.0
 11
-577.1731927109713
 21
-76.41020681803482
 31
0.0
  0
LINE
  5
5B53
330
1F
100
AcDbEntity
  8
太線
370
    25
100
AcDbLine
 10
-583.1731927109712
 20
-41.41020681803479
 30
0.0
 11
-583.1731927109712
 21
-106.4102068180348
 31
0.0
  0
ARC
  5
5B54
330
1F
100
AcDbEntity
  8
想像線
100
AcDbCircle
 10
-553.1731927109713
 20
-106.4102068180348
 30
0.0
 40
23.71293940890467
100
AcDbArc
 50
179.9999999999983
 51
270.0
  0
ARC
  5
5B55
330
1F
100
AcDbEntity
  8
太線
370
    25
100
AcDbCircle
 10
-553.1731927109713
 20
-106.4102068180348
 30
0.0
 40
30.0
100
AcDbArc
 50
180.0
 51
270.0
  0
LINE
  5
5B58
330
1F
100
AcDbEntity
  8
想像線
100
AcDbLine
 10
-553.1731927109713
 20
-130.1231462269395
 30
0.0
 11
-529.1731927109712
 21
-130.4102068180348
 31
0.0
  0
LINE
  5
5B5B
330
1F
100
AcDbEntity
  8
想像線
100
AcDbLine
 10
-529.1731927109712
 20
-130.4102068180348
 30
0.0
 11
-523.1731927109713
 21
-130.4102068180348
 31
0.0
  0
LINE
  5
5B5D
330
1F
100
AcDbEntity
  8
太線
370
    25
100
AcDbLine
 10
-583.1731927109712
 20
-41.41020681803479
 30
0.0
 11
-523.1731927109713
 21
-41.41020681803479
 31
0.0
  0
LINE
  5
5B5F
330
1F
100
AcDbEntity
  8
想像線
100
AcDbLine
 10
-578.1731927109713
 20
-76.41020681803482
 30
0.0
 11
-578.1731927109713
 21
-41.41020681803479
 31
0.0
  0
LINE
  5
5B60
330
1F
100
AcDbEntity
  8
想像線
100
AcDbLine
 10
-528.1731927109713
 20
-41.41020681803479
 30
0.0
 11
-528.1731927109713
 21
-76.41020681803482
 31
0.0
  0
LINE
  5
5B61
330
1F
100
AcDbEntity
  8
太線
370
    25
100
AcDbLine
 10
-523.1731927109713
 20
-76.41020681803482
 30
0.0
 11
-523.1731927109713
 21
-41.41020681803479
 31
0.0
  0
CIRCLE
  5
5B62
330
1F
100
AcDbEntity
  8
太線
370
    25
100
AcDbCircle
 10
-518.2874491488305
 20
-71.90041967360869
 30
0.0
 40
3.0
  0
LINE
  5
5B64
330
1F
100
AcDbEntity
  8
太線
370
    25
100
AcDbLine
 10
-488.1731927109712
 20
-136.4102068180348
 30
0.0
 11
-488.1731927109712
 21
-76.41020681803482
 31
0.0
  0
LINE
  5
5B68
330
1F
100
AcDbEntity
  8
破線
370
    25
100
AcDbLine
 10
-543.1731927109713
 20
-130.4102068180348
 30
0.0
 11
-543.1731927109713
 21
-96.41020681803482
 31
0.0
  0
LINE
  5
5B69
330
1F
100
AcDbEntity
  8
破線
370
    25
100
AcDbLine
 10
-543.1731927109713
 20
-96.41020681803482
 30
0.0
 11
-563.1731927109712
 21
-96.41020681803482
 31
0.0
  0
LINE
  5
5B6A
330
1F
100
AcDbEntity
  8
破線
370
    25
100
AcDbLine
 10
-563.1731927109712
 20
-96.41020681803482
 30
0.0
 11
-563.1731927109712
 21
-130.182950516751
 31
0.0
  0
CIRCLE
  5
5B6D
330
1F
100
AcDbEntity
  8
太線
370
    25
100
AcDbCircle
 10
-452.0984233297992
 20
-206.4102068180348
 30
0.0
 40
5.451726942571184
  0
ARC
  5
5B6F
330
1F
100
AcDbEntity
  8
太線
370
    25
100
AcDbCircle
 10
-313.8202796348616
 20
-190.6917129837731
 30
0.0
 40
11.18712968313352
100
AcDbArc
 50
219.9403658104555
 51
283.0854418121171
  0
ARC
  5
5B70
330
1F
100
AcDbEntity
  8
太線
370
    25
100
AcDbCircle
 10
-302.3849079398106
 20
-201.7984561796169
 30
0.0
 40
8.905041672462356
100
AcDbArc
 50
178.6480489967906
 51
302.0932200486555
  0
LINE
  5
5B71
330
1F
100
AcDbEntity
  8
太線
370
    25
100
AcDbLine
 10
-324.6027147256916
 20
-199.4976137315776
 30
0.0
 11
-322.3975979521041
 21
-197.8737378397551
 31
0.0
  0
LINE
  5
5B72
330
1F
100
AcDbEntity
  8
太線
370
    25
100
AcDbLine
 10
-296.9679999326098
 20
-207.1364866025591
 30
0.0
 11
-297.9177443628415
 21
-208.6547003462473
 31
0.0
  0
LINE
  5
5B73
330
1F
100
AcDbEntity
  8
太線
370
    25
100
AcDbLine
 10
-404.2529225267298
 20
-233.9539010081913
 30
0.0
 11
-434.3990044166105
 21
-207.7013813251542
 31
0.0
  0
LINE
  5
5B74
330
1F
100
AcDbEntity
  8
太線
370
    25
100
AcDbLine
 10
-405.5868728374218
 20
-235.1756303290604
 30
0.0
 11
-436.5074181410129
 21
-208.584039397564
 31
0.0
  0
ARC
  5
5B75
330
1F
100
AcDbEntity
  8
太線
370
    25
100
AcDbCircle
 10
-412.2731559643463
 20
-224.789562391117
 30
0.0
 40
12.36811343397549
100
AcDbArc
 50
178.9055471686351
 51
302.3507182205
  0
ARC
  5
5B76
330
1F
100
AcDbEntity
  8
太線
370
    25
100
AcDbCircle
 10
-428.2247835576754
 20
-209.4350645302645
 30
0.0
 40
15.53768011546323
100
AcDbArc
 50
220.1978639822999
 51
283.3429399839616
  0
LINE
  5
5B77
330
1F
100
AcDbEntity
  8
太線
370
    25
100
AcDbLine
 10
-443.2142231893084
 20
-221.7727440217678
 30
0.0
 11
-440.0927757992018
 21
-219.4635371719747
 31
0.0
  0
DIMENSION
  5
5BAC
330
1F
100
AcDbEntity
  8
寸法線
370
    25
100
AcDbDimension
  2
*D6
 10
-117.7197268430572
 20
-140.4436568020215
 30
0.0
 11
-122.3447268430572
 21
-92.94365680202158
 31
0.0
 70
    32
  1
92
 71
     5
 42
95.0
  3
ISO-25
100
AcDbAlignedDimension
 13
-139.4857773385774
 23
-45.44365680202156
 33
0.0
 14
-169.4857773385774
 24
-140.4436568020215
 34
0.0
 50
90.0
100
AcDbRotatedDimension
1001
ACAD
1000
DSTYLE
1002
{
1070
   140
1040
8.0
1002
}
  0
DIMENSION
  5
5BCB
330
1F
100
AcDbEntity
  8
寸法線
370
    25
100
AcDbDimension
  2
*D7
 10
-517.9897071071963
 20
-312.8927409748897
 30
0.0
 11
-522.6147071071962
 21
-222.1514738964623
 31
0.0
 70
    32
  1
210
 71
     5
 42
181.4825341568548
  3
ISO-25
100
AcDbAlignedDimension
 13
-488.1731927109712
 23
-131.4102068180348
 33
0.0
 14
-608.4354373826782
 24
-312.8927409748897
 34
0.0
 50
90.0
100
AcDbRotatedDimension
1001
ACAD
1000
DSTYLE
1002
{
1070
   140
1040
8.0
1002
}
  0
DIMENSION
  5
5C12
330
1F
100
AcDbEntity
  8
寸法線
370
    25
100
AcDbDimension
  2
*D8
 10
-382.3798302006263
 20
-256.0090170948774
 30
0.0
 11
-387.0048302006262
 21
-196.2096119564562
 31
0.0
 70
    32
  1
135
 71
     5
 42
119.5988102768426
  3
ISO-25
100
AcDbAlignedDimension
 13
-413.1580798947759
 23
-136.4102068180348
 33
0.0
 14
-413.1580798947759
 24
-256.0090170948774
 34
0.0
 50
90.0
100
AcDbRotatedDimension
1001
ACAD
1000
DSTYLE
1002
{
1070
   140
1040
8.0
1002
}
  0
DIMENSION
  5
5C31
330
1F
100
AcDbEntity
  8
寸法線
370
    25
100
AcDbDimension
  2
*D9
 10
-247.3237884174459
 20
-223.7880800905627
 30
0.0
 11
-251.9487884174458
 21
-180.0991434542988
 31
0.0
 70
    32
  1
85
 71
     5
 42
87.37787327252792
  3
ISO-25
100
AcDbAlignedDimension
 13
-237.3826431246519
 23
-136.4102068180348
 33
0.0
 14
-284.8693403628331
 24
-223.7880800905627
 34
0.0
 50
90.0
100
AcDbRotatedDimension
1001
ACAD
1000
DSTYLE
1002
{
1070
   140
1040
8.0
1002
}
  0
DIMENSION
  5
5C68
330
1F
100
AcDbEntity
  8
寸法線
370
    25
100
AcDbDimension
  2
*D10
 10
-569.3724070668339
 20
-301.9044746414708
 30
0.0
 11
-549.0070696481398
 21
-332.1126540676708
 31
0.0
 70
   163
  1
150
 71
     5
 42
143.8034126844959
  3
ISO-25
100
AcDbDiametricDimension
 15
-649.7582096275436
 25
-182.6671304644973
 35
0.0
 40
0.0
1001
ACAD
1000
DSTYLE
1002
{
1070
   140
1040
8.0
1070
   279
1070
     1
1070
   288
1070
     1
1002
}
  0
DIMENSION
  5
5C7B
330
1F
100
AcDbEntity
  8
寸法線
370
    25
100
AcDbDimension
  2
*D11
 10
-419.6586750172363
 20
-278.7499998135252
 30
0.0
 11
-419.6586750172363
 21
-278.7499998135252
 31
0.0
 70
   163
  1
100
 71
     5
 42
129.2799270988741
  3
ISO-25
100
AcDbDiametricDimension
 15
-472.3017415464059
 25
-160.6737232076987
 35
0.0
 40
0.0
1001
ACAD
1000
DSTYLE
1002
{
1070
   140
1040
8.0
1070
   279
1070
     1
1070
   288
1070
     1
1002
}
  0
DIMENSION
  5
5CA7
330
1F
100
AcDbEntity
  8
寸法線
370
    25
100
AcDbDimension
  2
*D12
 10
-316.4560136922939
 20
-221.3682084359543
 30
0.0
 11
-310.7681307801341
 21
-234.2477394521279
 31
0.0
 70
   163
  1
65
 71
     5
 42
71.99999999999997
  3
ISO-25
100
AcDbDiametricDimension
 15
-345.5426639613958
 25
-155.5049654538254
 35
0.0
 40
0.0
1001
ACAD
1000
DSTYLE
1002
{
1070
   140
1040
8.0
1070
   279
1070
     1
1070
   288
1070
     1
1002
}
  0
TEXT
  5
5CBE
330
1F
100
AcDbEntity
  8
文字
100
AcDbText
 10
97.68810121397883
 20
-373.5413216527611
 30
0.0
 40
5.0
  1
14,15-2L TATE 65-100-150-500-500A
 51
15.0
  7
OKANO
100
AcDbText
  0
LINE
  5
5D19
330
1F
100
AcDbEntity
  8
太線
370
    25
100
AcDbLine
 10
-568.1731927109713
 20
-136.2212964178864
 30
0.0
 11
-563.1286572811679
 21
-136.1300078408889
 31
0.0
  0
LINE
  5
5D1A
330
1F
100
AcDbEntity
  8
太線
370
    25
100
AcDbLine
 10
-563.1286572811679
 20
-136.1300078408889
 30
0.0
 11
-563.1731927109712
 21
-134.6944780654967
 31
0.0
  0
LINE
  5
5D1B
330
1F
100
AcDbEntity
  8
太線
370
    25
100
AcDbLine
 10
-563.1731927109712
 20
-136.4102068180347
 30
0.0
 11
-553.1731927109713
 21
-136.4102068180348
 31
0.0
  0
LINE
  5
5D1C
330
1F
100
AcDbEntity
  8
想像線
100
AcDbLine
 10
-523.9865250898133
 20
-81.41020681803482
 30
0.0
 11
-488.9865250898132
 21
-81.41020681803485
 31
0.0
  0
LINE
  5
5D1F
330
1F
100
AcDbEntity
  8
想像線
100
AcDbLine
 10
-528.9865250898133
 20
-75.41020681803482
 30
0.0
 11
-578.9865250898133
 21
-75.41020681803482
 31
0.0
  0
LINE
  5
5D20
330
1F
100
AcDbEntity
  8
想像線
100
AcDbLine
 10
-529.9865250898132
 20
-129.4102068180348
 30
0.0
 11
-529.9865250898132
 21
-75.41020681803482
 31
0.0
  0
LINE
  5
5D21
330
1F
100
AcDbEntity
  8
想像線
100
AcDbLine
 10
-523.9865250898133
 20
-81.41020681803482
 30
0.0
 11
-529.9865250898132
 21
-81.41020681803482
 31
0.0
  0
LINE
  5
5D4A
330
1F
100
AcDbEntity
  8
太線
370
    25
100
AcDbLine
 10
-423.1580798947759
 20
-136.4102068180348
 30
0.0
 11
-412.5330798947759
 21
-136.4102068180348
 31
0.0
  0
LINE
  5
5D78
330
1F
100
AcDbEntity
  8
太線
370
    25
100
AcDbLine
 10
-583.1731927109712
 20
-6.798033000994365
 30
0.0
 11
-583.1731927109712
 21
51.20196699900564
 31
0.0
  0
LINE
  5
5D79
330
1F
100
AcDbEntity
  8
太線
370
    25
100
AcDbLine
 10
-583.1731927109712
 20
51.20196699900564
 30
0.0
 11
-488.1731927109712
 21
51.20196699900564
 31
0.0
  0
LINE
  5
5D7A
330
1F
100
AcDbEntity
  8
太線
370
    25
100
AcDbLine
 10
-488.1731927109712
 20
51.20196699900564
 30
0.0
 11
-488.1731927109712
 21
-6.798033000994365
 31
0.0
  0
LINE
  5
5D7B
330
1F
100
AcDbEntity
  8
太線
370
    25
100
AcDbLine
 10
-488.1731927109712
 20
-6.798033000994365
 30
0.0
 11
-583.1731927109712
 21
-6.798033000994365
 31
0.0
  0
LINE
  5
5D7C
330
1F
100
AcDbEntity
  8
太線
370
    25
100
AcDbLine
 10
-443.1580798947759
 20
51.20196699900564
 30
0.0
 11
-348.1580798947759
 21
51.20196699900564
 31
0.0
  0
LINE
  5
5D7D
330
1F
100
AcDbEntity
  8
太線
370
    25
100
AcDbLine
 10
-348.1580798947759
 20
51.20196699900564
 30
0.0
 11
-348.1580798947759
 21
-6.798033000994365
 31
0.0
  0
LINE
  5
5D7E
330
1F
100
AcDbEntity
  8
太線
370
    25
100
AcDbLine
 10
-348.1580798947759
 20
-6.798033000994365
 30
0.0
 11
-443.1580798947759
 21
-6.798033000994365
 31
0.0
  0
LINE
  5
5D7F
330
1F
100
AcDbEntity
  8
太線
370
    25
100
AcDbLine
 10
-443.1580798947759
 20
-6.798033000994365
 30
0.0
 11
-443.1580798947759
 21
51.20196699900564
 31
0.0
  0
CIRCLE
  5
5D80
330
1F
100
AcDbEntity
  8
太線
370
    25
100
AcDbCircle
 10
-553.1731927109713
 20
22.20196699900563
 30
0.0
 40
10.0
  0
CIRCLE
  5
5D81
330
1F
100
AcDbEntity
  8
太線
370
    25
100
AcDbCircle
 10
-413.1580798947759
 20
22.20196699900563
 30
0.0
 40
6.0
  0
CIRCLE
  5
5D93
330
1F
100
AcDbEntity
  8
太線
370
    25
100
AcDbCircle
 10
-533.1731927109712
 20
22.20196699900563
 30
0.0
 40
3.0
  0
CIRCLE
  5
5DA0
330
1F
100
AcDbEntity
  8
太線
370
    25
100
AcDbCircle
 10
-393.1580798947759
 20
22.20196699900562
 30
0.0
 40
3.0
  0
LINE
  5
5DA1
330
1F
100
AcDbEntity
  8
想像線
370
    25
100
AcDbLine
 10
-523.1731927109713
 20
-6.798033000994365
 30
0.0
 11
-523.1731927109713
 21
51.20196699900564
 31
0.0
  0
LINE
  5
5DA2
330
1F
100
AcDbEntity
  8
想像線
370
    25
100
AcDbLine
 10
-383.1580798947759
 20
51.20196699900564
 30
0.0
 11
-383.1580798947759
 21
-6.798033000994365
 31
0.0
  0
LINE
  5
5DB4
330
1F
100
AcDbEntity
  8
想像線
370
    25
100
AcDbLine
 10
-530.1731927109712
 20
-130.3982459600725
 30
0.0
 11
-530.1731927109712
 21
-136.4102068180348
 31
0.0
  0
LINE
  5
5DB5
330
1F
100
AcDbEntity
  8
想像線
370
    25
100
AcDbLine
 10
-536.1731927109713
 20
-130.3264808122986
 30
0.0
 11
-536.1731927109713
 21
-136.4102068180348
 31
0.0
  0
LINE
  5
5DB8
330
1F
100
AcDbEntity
  8
太線
370
    25
100
AcDbLine
 10
-520.2328853159111
 20
-144.3966845501903
 30
0.0
 11
-533.3059228326836
 21
-144.3966845501903
 31
0.0
  0
LINE
  5
5DB9
330
1F
100
AcDbEntity
  8
太線
370
    25
100
AcDbLine
 10
-568.1731927109713
 20
-136.2212964178864
 30
0.0
 11
-568.1731927109713
 21
-144.3966845501903
 31
0.0
  0
LINE
  5
5DBD
330
1F
100
AcDbEntity
  8
太線
370
    25
100
AcDbLine
 10
-538.1731927109712
 20
-136.4102068180348
 30
0.0
 11
-538.1731927109712
 21
-144.3966845501903
 31
0.0
  0
LINE
  5
5DBE
330
1F
100
AcDbEntity
  8
太線
370
    25
100
AcDbLine
 10
-560.1811365745088
 20
-136.6762455987595
 30
0.0
 11
-560.1811365745088
 21
-144.3269010882249
 31
0.0
  0
LINE
  5
5DBF
330
1F
100
AcDbEntity
  8
太線
370
    25
100
AcDbLine
 10
-547.0538930057777
 20
-136.6762455987595
 30
0.0
 11
-547.0538930057777
 21
-144.5454906754894
 31
0.0
  0
LINE
  5
5DC0
330
1F
100
AcDbEntity
  8
太線
370
    25
100
AcDbLine
 10
-419.1580798947759
 20
-135.8040837314329
 30
0.0
 11
-419.1580798947759
 21
-136.4102068180348
 31
0.0
  0
LINE
  5
5DC1
330
1F
100
AcDbEntity
  8
想像線
370
    25
100
AcDbLine
 10
-390.1580798947759
 20
-130.3982459600725
 30
0.0
 11
-390.1580798947759
 21
-136.4102068180348
 31
0.0
  0
LINE
  5
5DC2
330
1F
100
AcDbEntity
  8
想像線
370
    25
100
AcDbLine
 10
-396.1580798947759
 20
-130.3264808122986
 30
0.0
 11
-396.1580798947759
 21
-136.4102068180348
 31
0.0
  0
LINE
  5
5DC6
330
1F
100
AcDbEntity
  8
想像線
370
    25
100
AcDbLine
 10
-423.1580798947759
 20
-142.4102068180348
 30
0.0
 11
-423.1580798947759
 21
-136.4102068180348
 31
0.0
  0
LINE
  5
5DC7
330
1F
100
AcDbEntity
  8
想像線
370
    25
100
AcDbLine
 10
-403.1580798947759
 20
-136.4102068180348
 30
0.0
 11
-403.1580798947759
 21
-142.4102068180348
 31
0.0
  0
LINE
  5
5DCC
330
1F
100
AcDbEntity
  8
太線
370
    25
100
AcDbLine
 10
-315.9222915536282
 20
-142.3565869448898
 30
0.0
 11
-290.0022915536283
 21
-142.3565869448898
 31
0.0
  0
LINE
  5
5DCD
330
1F
100
AcDbEntity
  8
太線
370
    25
100
AcDbLine
 10
-312.3826431246519
 20
-136.4102068180348
 30
0.0
 11
-301.7576431246519
 21
-136.4102068180348
 31
0.0
  0
LINE
  5
5DCE
330
1F
100
AcDbEntity
  8
破線
370
    25
100
AcDbLine
 10
-296.3826431246519
 20
-111.4102068180348
 30
0.0
 11
-308.3826431246519
 21
-111.4102068180348
 31
0.0
  0
LINE
  5
5DCF
330
1F
100
AcDbEntity
  8
破線
370
    25
100
AcDbLine
 10
-308.3826431246519
 20
-111.4102068180348
 30
0.0
 11
-308.3826431246519
 21
-130.2307939486002
 31
0.0
  0
LINE
  5
5DD0
330
1F
100
AcDbEntity
  8
想像線
370
    25
100
AcDbLine
 10
-312.3826431246519
 20
-142.4102068180348
 30
0.0
 11
-312.3826431246519
 21
-136.4102068180348
 31
0.0
  0
LINE
  5
5DD1
330
1F
100
AcDbEntity
  8
太線
370
    25
100
AcDbLine
 10
-308.3826431246519
 20
-135.8040837314329
 30
0.0
 11
-308.3826431246519
 21
-136.4102068180348
 31
0.0
  0
LINE
  5
5DD2
330
1F
100
AcDbEntity
  8
破線
370
    25
100
AcDbLine
 10
-296.3826431246519
 20
-130.3743242441479
 30
0.0
 11
-296.3826431246519
 21
-111.4102068180348
 31
0.0
  0
LINE
  5
5DD3
330
1F
100
AcDbEntity
  8
想像線
370
    25
100
AcDbLine
 10
-292.3826431246519
 20
-136.4102068180348
 30
0.0
 11
-292.3826431246519
 21
-142.4102068180348
 31
0.0
  0
LINE
  5
5DD4
330
1F
100
AcDbEntity
  8
想像線
370
    25
100
AcDbLine
 10
-285.3826431246519
 20
-130.3264808122986
 30
0.0
 11
-285.3826431246519
 21
-136.4102068180348
 31
0.0
  0
LINE
  5
5DD5
330
1F
100
AcDbEntity
  8
想像線
370
    25
100
AcDbLine
 10
-279.3826431246519
 20
-130.3982459600725
 30
0.0
 11
-279.3826431246519
 21
-136.4102068180348
 31
0.0
  0
LINE
  5
5DD6
330
1F
100
AcDbEntity
  8
太線
370
    25
100
AcDbLine
 10
-418.0375087580496
 20
-136.6297184778406
 30
0.0
 11
-418.0375087580496
 21
-142.0761858774149
 31
0.0
  0
LINE
  5
5DD7
330
1F
100
AcDbEntity
  8
太線
370
    25
100
AcDbLine
 10
-409.7001018665532
 20
-136.3093380425716
 30
0.0
 11
-409.7001018665532
 21
-142.0761858774149
 31
0.0
  0
LINE
  5
5DD8
330
1F
100
AcDbEntity
  8
太線
370
    25
100
AcDbLine
 10
-307.4065274766839
 20
-136.3093380425716
 30
0.0
 11
-307.4065274766839
 21
-141.7558054421458
 31
0.0
  0
LINE
  5
5DD9
330
1F
100
AcDbEntity
  8
太線
370
    25
100
AcDbLine
 10
-298.4277823055058
 20
-136.9500989131097
 30
0.0
 11
-298.4277823055058
 21
-142.0761858774149
 31
0.0
  0
DIMENSION
  5
5DDA
330
1F
100
AcDbEntity
  8
寸法線
370
    25
100
AcDbDimension
  2
*D19
 10
-558.4403305912424
 20
13.70154003618688
 30
0.0
 11
-522.5879473782566
 21
71.562293233193
 31
0.0
 70
   163
  1
20
 71
     5
 42
20.00000000000011
  3
ISO-25
100
AcDbDiametricDimension
 15
-547.9060548307001
 25
30.70239396182415
 35
0.0
 40
0.0
1001
ACAD
1000
DSTYLE
1002
{
1070
   140
1040
5.0
1070
   288
1070
     1
1002
}
  0
DIMENSION
  5
5DE6
330
1F
100
AcDbEntity
  8
寸法線
370
    25
100
AcDbDimension
  2
*D20
 10
-534.8158423132977
 20
19.69164783922198
 30
0.0
 11
-508.3176069953845
 21
60.18660654788769
 31
0.0
 70
   163
 71
     5
 42
6.000000000000056
  3
ISO-25
100
AcDbDiametricDimension
 15
-531.5305431086449
 25
24.71228615878934
 35
0.0
 40
0.0
1001
ACAD
1000
DSTYLE
1002
{
1070
   140
1040
5.0
1070
   288
1070
     1
1002
}
  0
DIMENSION
  5
5DF2
330
1F
100
AcDbEntity
  8
寸法線
370
    25
100
AcDbDimension
  2
*D21
 10
-416.3755911119046
 20
17.13761890989769
 30
0.0
 11
-389.6281651086031
 21
59.23794634535653
 31
0.0
 70
   163
  1
12
 71
     5
 42
12.0
  3
ISO-25
100
AcDbDiametricDimension
 15
-409.9405686776473
 25
27.26631508811363
 35
0.0
 40
0.0
1001
ACAD
1000
DSTYLE
1002
{
1070
   140
1040
5.0
1070
   288
1070
     1
1002
}
  0
DIMENSION
  5
5DFE
330
1F
100
AcDbEntity
  8
寸法線
370
    25
100
AcDbDimension
  2
*D22
 10
-394.6573908726757
 20
19.60349310235992
 30
0.0
 11
-372.0621263642079
 21
58.76361790535888
 31
0.0
 70
   163
 71
     5
 42
5.999999999999943
  3
ISO-25
100
AcDbDiametricDimension
 15
-391.6587689168762
 25
24.80044089565137
 35
0.0
 40
0.0
1001
ACAD
1000
DSTYLE
1002
{
1070
   140
1040
5.0
1070
   288
1070
     1
1002
}
  0
CIRCLE
  5
5E6B
330
1F
100
AcDbEntity
  8
破線
370
    25
100
AcDbCircle
 10
-553.1731927109713
 20
22.20196699900563
 30
0.0
 40
8.358574065918872
  0
CIRCLE
  5
5E6C
330
1F
100
AcDbEntity
  8
破線
370
    25
100
AcDbCircle
 10
-413.1580798947759
 20
22.20196699900563
 30
0.0
 40
4.417130362898859
  0
MTEXT
  5
5E6D
330
1F
100
AcDbEntity
  8
寸法線
100
AcDbMText
 10
-409.0875671187018
 20
89.9335712118866
 30
0.0
 40
10.89419793064362
 41
0.0
 71
     1
 72
     1
  1
M 12\P　
  7
OKANO
 73
     1
 44
1.0
  0
MTEXT
  5
5E6E
330
1F
100
AcDbEntity
  8
寸法線
100
AcDbMText
 10
-355.7473042804963
 20
72.83009208455178
 30
0.0
 40
10.89419793064362
 41
0.0
 71
     1
 72
     1
  1
水抜き\P　
  7
OKANO
 73
     1
 44
1.0
  0
MTEXT
  5
5E6F
330
1F
100
AcDbEntity
  8
寸法線
100
AcDbMText
 10
-498.3627781285508
 20
73.84809193431465
 30
0.0
 40
10.89419793064362
 41
0.0
 71
     1
 72
     1
  1
水抜き\P　
  7
OKANO
 73
     1
 44
1.0
  0
DIMENSION
  5
602F
330
1F
100
AcDbEntity
  8
寸法線
370
    25
100
AcDbDimension
  2
*D42
 10
10.61032638031952
 20
-1.25373834922891
 30
0.0
 11
-36.88967361968048
 21
3.371261650771089
 31
0.0
 70
    32
  1
92
 71
     5
 42
95.0
  3
ISO-25
100
AcDbAlignedDimension
 13
-84.38967361968048
 23
-39.50315702545472
 33
0.0
 14
10.61032638031952
 24
-79.50315702545475
 34
0.0
100
AcDbRotatedDimension
1001
ACAD
1000
DSTYLE
1002
{
1070
   140
1040
8.0
1002
}
  0
ARC
  5
6030
330
1F
100
AcDbEntity
  8
太線
370
    25
100
AcDbCircle
 10
49.68522142892471
 20
-174.0458144248613
 30
0.0
 40
1.0
100
AcDbArc
 50
90.0
 51
180.0
  0
DIMENSION
  5
6031
330
1F
100
AcDbEntity
  8
寸法線
100
AcDbDimension
  2
*D43
 10
40.51487337853678
 20
-173.0458144248609
 30
0.0
 11
37.01438125255255
 21
-164.4634668495104
 31
0.0
 70
    32
 71
     5
 42
2.000000000000341
  3
sunpo
100
AcDbAlignedDimension
 13
48.40212815956329
 23
-175.0458144248613
 33
0.0
 14
48.79113522473108
 24
-173.0458144248609
 34
0.0
 50
90.0
100
AcDbRotatedDimension
1001
ACAD
1000
DSTYLE
1002
{
1070
    40
1040
1.0
1002
}
  0
ARC
  5
6032
330
1F
100
AcDbEntity
  8
太線
370
    25
100
AcDbCircle
 10
59.2707963825236
 20
-237.4112954837274
 30
0.0
 40
10.69362551670436
100
AcDbArc
 50
94.16865786076625
 51
258.8810334751908
  0
DIMENSION
  5
6033
330
1F
100
AcDbEntity
  8
寸法線
370
    25
100
AcDbDimension
  2
*D44
 10
59.27079638252327
 20
-237.4112954837271
 30
0.0
 11
42.21105756989544
 21
-227.8962805137578
 31
0.0
 70
    36
  1
10.5
 71
     5
 42
10.69362551670391
  3
ISO-25
100
AcDbRadialDimension
 15
49.47472008062167
 25
-233.1228790185476
 35
0.0
 40
0.0
1001
ACAD
1000
DSTYLE
1002
{
1070
   288
1070
     1
1002
}
  0
DIMENSION
  5
6034
330
1F
100
AcDbEntity
  8
寸法線
100
AcDbDimension
  2
*D45
 10
-40.02742411103369
 20
-244.327983479307
 30
0.0
 11
-69.44433957760409
 21
-205.1122748965453
 31
0.0
 70
   163
  1
30
 71
     5
 42
11.50000000000014
  3
sunpo
100
AcDbDiametricDimension
 15
-46.92819488166354
 25
-235.1285616077313
 35
0.0
 40
0.0
1001
ACAD
1000
DSTYLE
1002
{
1070
    40
1040
1.0
1070
   288
1070
     1
1002
}
  0
CIRCLE
  5
6035
330
1F
100
AcDbEntity
  8
太線
370
    25
100
AcDbCircle
 10
-43.47780949634852
 20
-239.7282725435191
 30
0.0
 40
22.5
  0
CIRCLE
  5
6036
330
1F
100
AcDbEntity
  8
太線
370
    25
100
AcDbCircle
 10
-43.47780949634898
 20
-240.3532725435196
 30
0.0
 40
30.53723302489854
  0
TEXT
  5
6037
330
1F
100
AcDbEntity
  8
文字
100
AcDbText
 10
-59.96095862054108
 20
-285.0872655041574
 30
0.0
 40
5.759999999999999
  1
15-2L500　タテ                                                                                                               
 51
15.0
  7
OKANO
100
AcDbText
  0
DIMENSION
  5
6038
330
1F
100
AcDbEntity
  8
寸法線
370
    25
100
AcDbDimension
  2
*D46
 10
-47.21913259067062
 20
-244.0946213046569
 30
0.0
 11
-34.78920210554383
 21
-226.7064781438892
 31
0.0
 70
    35
 71
     5
 42
11.49999999999983
  3
ISO-25
100
AcDbDiametricDimension
 15
-39.73648640202604
 25
-235.3619237823813
 35
0.0
 40
0.0
1001
ACAD
1000
DSTYLE
1002
{
1070
   288
1070
     1
1002
}
  0
CIRCLE
  5
6039
330
1F
100
AcDbEntity
  8
太線
370
    25
100
AcDbCircle
 10
-43.47780949634852
 20
-239.7282725435191
 30
0.0
 40
5.75
  0
TEXT
  5
603A
330
1F
100
AcDbEntity
  8
文字
100
AcDbText
 10
-71.1310262049476
 20
-81.27310111739882
 30
0.0
 40
5.759999999999999
  1
M-12                          
 51
15.0
  7
OKANO
100
AcDbText
  0
ARC
  5
603B
330
1F
100
AcDbEntity
  8
太線
370
    25
100
AcDbCircle
 10
-60.99748475142019
 20
-170.8358180097293
 30
0.0
 40
3.0
100
AcDbArc
 50
270.0
 51
331.5570713756331
  0
ARC
  5
603C
330
1F
100
AcDbEntity
  8
太線
370
    25
100
AcDbCircle
 10
-54.38967361968048
 20
-104.5031570254546
 30
0.0
 40
30.0
100
AcDbArc
 50
180.0
 51
270.0
  0
ARC
  5
603D
330
1F
100
AcDbEntity
  8
想像線
100
AcDbCircle
 10
-54.38967361968048
 20
-104.5031570254546
 30
0.0
 40
23.71293940890467
100
AcDbArc
 50
179.9999999999967
 51
270.0
  0
LINE
  5
603E
330
1F
100
AcDbEntity
  8
想像線
370
    25
100
AcDbLine
 10
-62.91671665563922
 20
-126.39935376399
 30
0.0
 11
-24.43086273889571
 21
-126.39935376399
 31
0.0
  0
LINE
  5
603F
330
1F
100
AcDbEntity
  8
太線
370
    25
100
AcDbLine
 10
-69.21064873543105
 20
-175.8358180097293
 30
0.0
 11
-14.21064873543105
 21
-175.8358180097293
 31
0.0
  0
DIMENSION
  5
6040
330
1F
100
AcDbEntity
  8
寸法線
100
AcDbDimension
  2
*D47
 10
-14.21064873543105
 20
-185.2210041720283
 30
0.0
 11
-41.71064873543104
 21
-181.7210041720283
 31
0.0
 70
    32
  1
60
 71
     5
 42
55.0
  3
sunpo
100
AcDbAlignedDimension
 13
-69.21064873543105
 23
-175.8358180097293
 33
0.0
 14
-14.21064873543105
 24
-175.8358180097293
 34
0.0
100
AcDbRotatedDimension
1001
ACAD
1000
DSTYLE
1002
{
1070
    40
1040
1.0
1002
}
  0
LINE
  5
6041
330
1F
100
AcDbEntity
  8
太線
370
    25
100
AcDbLine
 10
-84.38967361968048
 20
-39.50315702545472
 30
0.0
 11
-24.38967361968048
 21
-39.50315702545472
 31
0.0
  0
LINE
  5
6042
330
1F
100
AcDbEntity
  8
想像線
100
AcDbLine
 10
-29.38967361968048
 20
-74.50315702545473
 30
0.0
 11
-79.38967361968048
 21
-74.50315702545473
 31
0.0
  0
ARC
  5
6043
330
1F
100
AcDbEntity
  8
太線
370
    25
100
AcDbCircle
 10
-68.21064873543105
 20
-174.8358180097293
 30
0.0
 40
1.0
100
AcDbArc
 50
90.0
 51
180.0
  0
LINE
  5
6044
330
1F
100
AcDbEntity
  8
太線
370
    25
100
AcDbLine
 10
-69.21064873543105
 20
-174.8358180097293
 30
0.0
 11
-69.21064873543105
 21
-175.8358180097293
 31
0.0
  0
LINE
  5
6045
330
1F
100
AcDbEntity
  8
太線
370
    25
100
AcDbLine
 10
-60.99748475142019
 20
-173.8358180097293
 30
0.0
 11
-68.21064873543105
 21
-173.8358180097293
 31
0.0
  0
LINE
  5
6046
330
1F
100
AcDbEntity
  8
想像線
100
AcDbLine
 10
-79.38967361968048
 20
-74.50315702545473
 30
0.0
 11
-79.38967361968048
 21
-39.50315702545472
 31
0.0
  0
LINE
  5
6047
330
1F
100
AcDbEntity
  8
太線
370
    25
100
AcDbLine
 10
-84.38967361968048
 20
-39.50315702545472
 30
0.0
 11
-84.38967361968048
 21
-104.5031570254546
 31
0.0
  0
LINE
  5
6048
330
1F
100
AcDbEntity
  8
想像線
100
AcDbLine
 10
-78.10261302858521
 20
-104.5031570254546
 30
0.0
 11
-78.38967361968048
 21
-74.50315702545473
 31
0.0
  0
LINE
  5
6049
330
1F
100
AcDbEntity
  8
太線
370
    25
100
AcDbLine
 10
-47.71064873543105
 20
-126.39935376399
 30
0.0
 11
-47.71064873543105
 21
-38.53684506723084
 31
0.0
  0
DIMENSION
  5
604A
330
1F
100
AcDbEntity
  8
寸法線
370
    25
100
AcDbDimension
  2
*D48
 10
29.39707968689845
 20
-74.50315702545475
 30
0.0
 11
26.27207968689846
 21
-104.5031570254547
 31
0.0
 70
    32
  1
58
 71
     5
 42
59.99999999999994
  3
ISO-25
100
AcDbAlignedDimension
 13
10.61032638031952
 23
-134.5031570254547
 33
0.0
 14
10.61032638031952
 24
-74.50315702545475
 34
0.0
 50
90.0
100
AcDbRotatedDimension
1001
ACAD
1000
DSTYLE
1002
{
1070
   140
1040
5.0
1002
}
  0
DIMENSION
  5
604B
330
1F
100
AcDbEntity
  8
寸法線
100
AcDbDimension
  2
*D49
 10
-9.327597697264991
 20
-35.83581800972934
 30
0.0
 11
-12.82759769726499
 21
-105.8358180097293
 31
0.0
 70
    32
 71
     5
 42
140.0
  3
sunpo
100
AcDbAlignedDimension
 13
-14.21064873543105
 23
-175.8358180097293
 33
0.0
 14
-36.71064873543105
 24
-35.83581800972933
 34
0.0
 50
90.0
100
AcDbRotatedDimension
1001
ACAD
1000
DSTYLE
1002
{
1070
    40
1040
1.0
1002
}
  0
LINE
  5
604C
330
1F
100
AcDbEntity
  8
細線
100
AcDbLine
 10
-46.71064873543104
 20
-35.83581800972933
 30
0.0
 11
-46.71064873543104
 21
-126.39935376399
 31
0.0
  0
LINE
  5
604D
330
1F
100
AcDbEntity
  8
細線
100
AcDbLine
 10
-36.71064873543105
 20
-35.83581800972933
 30
0.0
 11
-36.71064873543105
 21
-126.39935376399
 31
0.0
  0
LINE
  5
604E
330
1F
100
AcDbEntity
  8
太線
370
    25
100
AcDbLine
 10
-35.71064873543105
 20
-38.53684506723084
 30
0.0
 11
-35.71064873543105
 21
-126.39935376399
 31
0.0
  0
LINE
  5
604F
330
1F
100
AcDbEntity
  8
太線
370
    25
100
AcDbLine
 10
10.61032638031952
 20
-134.5031570254547
 30
0.0
 11
10.61032638031952
 21
-74.50315702545473
 31
0.0
  0
LINE
  5
6050
330
1F
100
AcDbEntity
  8
想像線
100
AcDbLine
 10
-30.38967361968047
 20
-128.5031570254546
 30
0.0
 11
-30.38967361968047
 21
-74.50315702545473
 31
0.0
  0
LINE
  5
6051
330
1F
100
AcDbEntity
  8
想像線
100
AcDbLine
 10
-24.38967361968048
 20
-129.5031570254546
 30
0.0
 11
-24.38967361968048
 21
-79.50315702545473
 31
0.0
  0
DIMENSION
  5
6052
330
1F
100
AcDbEntity
  8
寸法線
370
    25
100
AcDbDimension
  2
*D50
 10
27.76304518823645
 20
-176.3023597623883
 30
0.0
 11
24.63804518823647
 21
-159.9552319971368
 31
0.0
 70
    32
  1
40
 71
     5
 42
32.69425553050314
  3
ISO-25
100
AcDbAlignedDimension
 13
-35.21329921026154
 23
-143.6081042318852
 33
0.0
 14
-14.38647581138911
 24
-176.3023597623883
 34
0.0
 50
90.0
100
AcDbRotatedDimension
1001
ACAD
1000
DSTYLE
1002
{
1070
   140
1040
5.0
1002
}
  0
LINE
  5
6053
330
1F
100
AcDbEntity
  8
破線
100
AcDbLine
 10
-50.71064873543105
 20
-171.9149329502174
 30
0.0
 11
-50.71064873543105
 21
-165.9149329502174
 31
0.0
  0
LINE
  5
6054
330
1F
100
AcDbEntity
  8
破線
100
AcDbLine
 10
-36.71064873543105
 20
-164.9149329502174
 30
0.0
 11
-36.71064873543105
 21
-171.9149329502174
 31
0.0
  0
LINE
  5
6055
330
1F
100
AcDbEntity
  8
破線
100
AcDbLine
 10
-32.71064873543105
 20
-165.9149329502174
 30
0.0
 11
-32.71064873543105
 21
-171.9149329502174
 31
0.0
  0
LINE
  5
6056
330
1F
100
AcDbEntity
  8
破線
100
AcDbLine
 10
-46.71064873543104
 20
-164.9149329502174
 30
0.0
 11
-46.71064873543104
 21
-171.9149329502174
 31
0.0
  0
LINE
  5
6057
330
1F
100
AcDbEntity
  8
太線
370
    25
100
AcDbLine
 10
-25.06168861905234
 20
-172.2646674553516
 30
0.0
 11
-29.85960885180975
 21
-163.406968564107
 31
0.0
  0
LINE
  5
6058
330
1F
100
AcDbEntity
  8
太線
370
    25
100
AcDbLine
 10
-53.56168861905235
 20
-163.406968564107
 30
0.0
 11
-58.35960885180975
 21
-172.2646674553516
 31
0.0
  0
LINE
  5
6059
330
1F
100
AcDbEntity
  8
太線
370
    25
100
AcDbLine
 10
-15.21064873543105
 20
-173.8358180097293
 30
0.0
 11
-22.42381271944202
 21
-173.8358180097293
 31
0.0
  0
ARC
  5
605A
330
1F
100
AcDbEntity
  8
太線
370
    25
100
AcDbCircle
 10
-43.47780949634852
 20
-239.7282725435191
 30
0.0
 40
30.0
100
AcDbArc
 50
104.6493206882403
 51
107.4628139467068
  0
LINE
  5
605B
330
1F
100
AcDbEntity
  8
破線
100
AcDbLine
 10
-33.71064873543105
 20
-172.9149329502174
 30
0.0
 11
-49.71064873543105
 21
-172.9149329502174
 31
0.0
  0
ARC
  5
605C
330
1F
100
AcDbEntity
  8
破線
100
AcDbCircle
 10
-41.71064873543104
 20
-159.9149329502174
 30
0.0
 40
13.00000000000004
100
AcDbArc
 50
247.3801350519622
 51
292.6198649480397
  0
LINE
  5
605D
330
1F
100
AcDbEntity
  8
破線
100
AcDbLine
 10
-46.71064873543104
 20
-171.9149329502174
 30
0.0
 11
-49.71064873543105
 21
-172.9149329502174
 31
0.0
  0
ARC
  5
605E
330
1F
100
AcDbEntity
  8
破線
100
AcDbCircle
 10
-49.71064873543105
 20
-171.9149329502174
 30
0.0
 40
1.0
100
AcDbArc
 50
180.0
 51
270.0
  0
ARC
  5
605F
330
1F
100
AcDbEntity
  8
破線
100
AcDbCircle
 10
-33.71064873543105
 20
-171.9149329502174
 30
0.0
 40
1.0
100
AcDbArc
 50
270.0
 51
0.0
  0
LINE
  5
6060
330
1F
100
AcDbEntity
  8
破線
100
AcDbLine
 10
-36.71064873543105
 20
-171.9149329502174
 30
0.0
 11
-33.71064873543105
 21
-172.9149329502174
 31
0.0
  0
ARC
  5
6061
330
1F
100
AcDbEntity
  8
太線
370
    25
100
AcDbCircle
 10
-22.42381271944202
 20
-170.8358180097293
 30
0.0
 40
3.0
100
AcDbArc
 50
208.4429286243669
 51
270.0
  0
LINE
  5
6062
330
1F
100
AcDbEntity
  8
太線
370
    25
100
AcDbLine
 10
-14.21064873543105
 20
-175.8358180097293
 30
0.0
 11
-14.21064873543105
 21
-174.8358180097293
 31
0.0
  0
ARC
  5
6063
330
1F
100
AcDbEntity
  8
太線
370
    25
100
AcDbCircle
 10
-15.21064873543105
 20
-174.8358180097293
 30
0.0
 40
1.0
100
AcDbArc
 50
0.0
 51
90.0
  0
LINE
  5
6064
330
1F
100
AcDbEntity
  8
想像線
100
AcDbLine
 10
10.61032638031952
 20
-129.5031570254546
 30
0.0
 11
-24.38967361968048
 21
-129.5031570254546
 31
0.0
  0
LINE
  5
6065
330
1F
100
AcDbEntity
  8
太線
370
    25
100
AcDbLine
 10
-54.38967361968048
 20
-134.5031570254547
 30
0.0
 11
10.61032638031952
 21
-134.5031570254547
 31
0.0
  0
LINE
  5
6066
330
1F
100
AcDbEntity
  8
細線
100
AcDbLine
 10
-46.71064873543104
 20
-134.5031570254547
 30
0.0
 11
-46.71064873543104
 21
-153.8358180097293
 31
0.0
  0
LINE
  5
6067
330
1F
100
AcDbEntity
  8
太線
370
    25
100
AcDbLine
 10
-35.71064873543093
 20
-134.5031570254547
 30
0.0
 11
-35.71064873543105
 21
-153.8358180097293
 31
0.0
  0
LINE
  5
6068
330
1F
100
AcDbEntity
  8
細線
100
AcDbLine
 10
-36.71064873543105
 20
-134.5031570254547
 30
0.0
 11
-36.71064873543105
 21
-153.8358180097293
 31
0.0
  0
LINE
  5
6069
330
1F
100
AcDbEntity
  8
太線
370
    25
100
AcDbLine
 10
-36.71064873543105
 20
-144.6722536049345
 30
0.0
 11
-36.71064873543105
 21
-152.6722536049345
 31
0.0
  0
LINE
  5
606A
330
1F
100
AcDbEntity
  8
太線
370
    25
100
AcDbLine
 10
-32.71064873543105
 20
-144.6722536049345
 30
0.0
 11
-32.71064873543105
 21
-152.6722536049345
 31
0.0
  0
LINE
  5
606B
330
1F
100
AcDbEntity
  8
太線
370
    25
100
AcDbLine
 10
-50.71064873543105
 20
-152.6722536049345
 30
0.0
 11
-50.71064873543105
 21
-144.6722536049345
 31
0.0
  0
LINE
  5
606C
330
1F
100
AcDbEntity
  8
太線
370
    25
100
AcDbLine
 10
-46.71064873543104
 20
-144.6722536049345
 30
0.0
 11
-46.71064873543104
 21
-152.6722536049345
 31
0.0
  0
LINE
  5
606D
330
1F
100
AcDbEntity
  8
太線
370
    25
100
AcDbLine
 10
-47.71064873543105
 20
-153.8358180097293
 30
0.0
 11
-47.71064873543105
 21
-134.5031570254547
 31
0.0
  0
LINE
  5
606E
330
1F
100
AcDbEntity
  8
太線
370
    25
100
AcDbLine
 10
-39.28748584449454
 20
-153.8311981989872
 30
0.0
 11
-36.82370504167716
 21
-155.2157558387396
 31
0.0
  0
LINE
  5
606F
330
1F
100
AcDbEntity
  8
太線
370
    25
100
AcDbLine
 10
-33.71064873543105
 20
-153.6722536049345
 30
0.0
 11
-49.71064873543105
 21
-153.6722536049345
 31
0.0
  0
ARC
  5
6070
330
1F
100
AcDbEntity
  8
太線
370
    25
100
AcDbCircle
 10
-41.71064873543104
 20
-140.6722536049345
 30
0.0
 40
13.0
100
AcDbArc
 50
247.3801350519622
 51
292.6198649480397
  0
LINE
  5
6071
330
1F
100
AcDbEntity
  8
太線
370
    25
100
AcDbLine
 10
-33.71064873543105
 20
-153.8358180097293
 30
0.0
 11
-49.71064873543105
 21
-153.8358180097293
 31
0.0
  0
LINE
  5
6072
330
1F
100
AcDbEntity
  8
破線
100
AcDbLine
 10
-35.71064873543105
 20
-164.9149329502174
 30
0.0
 11
-47.71064873543105
 21
-164.9149329502174
 31
0.0
  0
LINE
  5
6073
330
1F
100
AcDbEntity
  8
太線
370
    25
100
AcDbLine
 10
-32.49748475142007
 20
-161.8358180097293
 30
0.0
 11
-50.92381271944202
 21
-161.8358180097293
 31
0.0
  0
LINE
  5
6074
330
1F
100
AcDbEntity
  8
太線
370
    25
100
AcDbLine
 10
-50.71064873543105
 20
-154.8358180097293
 30
0.0
 11
-50.71064873543105
 21
-161.8358180097293
 31
0.0
  0
LINE
  5
6075
330
1F
100
AcDbEntity
  8
太線
370
    25
100
AcDbLine
 10
-46.71064873543104
 20
-155.3462806592259
 30
0.0
 11
-46.71064873543104
 21
-161.8358180097293
 31
0.0
  0
LINE
  5
6076
330
1F
100
AcDbEntity
  8
破線
100
AcDbLine
 10
-49.71064873543105
 20
-164.9149329502174
 30
0.0
 11
-47.71064873543105
 21
-164.9149329502174
 31
0.0
  0
ARC
  5
6077
330
1F
100
AcDbEntity
  8
破線
100
AcDbCircle
 10
-49.71064873543105
 20
-165.9149329502174
 30
0.0
 40
1.0
100
AcDbArc
 50
90.0
 51
180.0
  0
ARC
  5
6078
330
1F
100
AcDbEntity
  8
太線
370
    25
100
AcDbCircle
 10
-50.92381271944202
 20
-164.8358180097293
 30
0.0
 40
3.0
100
AcDbArc
 50
90.0
 51
151.557071375633
  0
LINE
  5
6079
330
1F
100
AcDbEntity
  8
破線
100
AcDbLine
 10
-47.71064873543105
 20
-161.8358180097293
 30
0.0
 11
-47.71064873543105
 21
-164.9149329502174
 31
0.0
  0
LINE
  5
607A
330
1F
100
AcDbEntity
  8
破線
100
AcDbLine
 10
-46.71064873543104
 20
-161.8358180097293
 30
0.0
 11
-46.71064873543104
 21
-164.9149329502174
 31
0.0
  0
LINE
  5
607B
330
1F
100
AcDbEntity
  8
太線
370
    25
100
AcDbLine
 10
-46.71064873543104
 20
-152.6722536049345
 30
0.0
 11
-49.71064873543105
 21
-153.6722536049345
 31
0.0
  0
LINE
  5
607C
330
1F
100
AcDbEntity
  8
太線
370
    25
100
AcDbLine
 10
-48.98861864664309
 20
-153.6773584612372
 30
0.0
 11
-46.67882539455035
 21
-155.3695955764899
 31
0.0
  0
ARC
  5
607D
330
1F
100
AcDbEntity
  8
太線
370
    25
100
AcDbCircle
 10
-49.71064873543105
 20
-152.6722536049345
 30
0.0
 40
1.0
100
AcDbArc
 50
180.0
 51
270.0
  0
ARC
  5
607E
330
1F
100
AcDbEntity
  8
太線
370
    25
100
AcDbCircle
 10
-49.71064873543105
 20
-154.8358180097293
 30
0.0
 40
1.0
100
AcDbArc
 50
90.0
 51
180.0
  0
LINE
  5
607F
330
1F
100
AcDbEntity
  8
太線
370
    25
100
AcDbLine
 10
-46.67882539455035
 20
-155.3695955764899
 30
0.0
 11
-42.67518337646992
 21
-153.9850379367376
 31
0.0
  0
LINE
  5
6080
330
1F
100
AcDbEntity
  8
太線
370
    25
100
AcDbLine
 10
-32.71064873543105
 20
-154.8358180097293
 30
0.0
 11
-32.71064873543105
 21
-161.8358180097293
 31
0.0
  0
LINE
  5
6081
330
1F
100
AcDbEntity
  8
太線
370
    25
100
AcDbLine
 10
-36.71064873543105
 20
-155.1493153858565
 30
0.0
 11
-36.71064873543105
 21
-161.8358180097293
 31
0.0
  0
ARC
  5
6082
330
1F
100
AcDbEntity
  8
破線
100
AcDbCircle
 10
-33.71064873543105
 20
-165.9149329502174
 30
0.0
 40
1.0
100
AcDbArc
 50
0.0
 51
90.0
  0
LINE
  5
6083
330
1F
100
AcDbEntity
  8
破線
100
AcDbLine
 10
-35.71064873543105
 20
-164.9149329502174
 30
0.0
 11
-33.71064873543105
 21
-164.9149329502174
 31
0.0
  0
LINE
  5
6084
330
1F
100
AcDbEntity
  8
破線
100
AcDbLine
 10
-36.71064873543105
 20
-161.8358180097293
 30
0.0
 11
-36.71064873543105
 21
-164.9149329502174
 31
0.0
  0
LINE
  5
6085
330
1F
100
AcDbEntity
  8
破線
100
AcDbLine
 10
-35.71064873543105
 20
-161.8358180097293
 30
0.0
 11
-35.71064873543105
 21
-164.9149329502174
 31
0.0
  0
ARC
  5
6086
330
1F
100
AcDbEntity
  8
太線
370
    25
100
AcDbCircle
 10
-32.49748475142007
 20
-164.8358180097293
 30
0.0
 40
3.0
100
AcDbArc
 50
28.44292862436691
 51
90.0
  0
ARC
  5
6087
330
1F
100
AcDbEntity
  8
太線
370
    25
100
AcDbCircle
 10
-33.71064873543105
 20
-152.6722536049345
 30
0.0
 40
1.0
100
AcDbArc
 50
270.0
 51
0.0
  0
LINE
  5
6088
330
1F
100
AcDbEntity
  8
太線
370
    25
100
AcDbLine
 10
-36.71064873543105
 20
-152.6722536049345
 30
0.0
 11
-33.71064873543105
 21
-153.6722536049345
 31
0.0
  0
ARC
  5
6089
330
1F
100
AcDbEntity
  8
太線
370
    25
100
AcDbCircle
 10
-33.71064873543105
 20
-154.8358180097293
 30
0.0
 40
1.0
100
AcDbArc
 50
0.0
 51
90.0
  0
LINE
  5
608A
330
1F
100
AcDbEntity
  8
太線
370
    25
100
AcDbLine
 10
-36.82370504167716
 20
-155.2157558387396
 30
0.0
 11
-34.2059395465319
 21
-153.6773584612372
 31
0.0
  0
LINE
  5
608B
330
1F
100
AcDbEntity
  8
太線
370
    25
100
AcDbLine
 10
-50.71064873543105
 20
-144.6722536049345
 30
0.0
 11
-32.71064873543105
 21
-144.6722536049345
 31
0.0
  0
LINE
  5
608C
330
1F
100
AcDbEntity
  8
太線
370
    25
100
AcDbLine
 10
-46.72087116583713
 20
-144.0462119031361
 30
0.0
 11
-35.72087116583714
 21
-144.0462119031361
 31
0.0
  0
LINE
  5
608D
330
1F
100
AcDbEntity
  8
想像線
100
AcDbLine
 10
-54.38967361968048
 20
-128.2160964343594
 30
0.0
 11
-30.38967361968047
 21
-128.5031570254546
 31
0.0
  0
LINE
  5
608E
330
1F
100
AcDbEntity
  8
太線
370
    25
100
AcDbLine
 10
-46.72087116583713
 20
-144.0462119031361
 30
0.0
 11
-49.72087116583714
 21
-144.0462119031361
 31
0.0
  0
ARC
  5
608F
330
1F
100
AcDbEntity
  8
太線
370
    25
100
AcDbCircle
 10
-49.72087116583714
 20
-145.0462119031361
 30
0.0
 40
1.0
100
AcDbArc
 50
90.0
 51
180.0
  0
ARC
  5
6090
330
1F
100
AcDbEntity
  8
太線
370
    25
100
AcDbCircle
 10
-33.72087116583713
 20
-145.0462119031361
 30
0.0
 40
1.0
100
AcDbArc
 50
0.0
 51
90.0
  0
LINE
  5
6091
330
1F
100
AcDbEntity
  8
太線
370
    25
100
AcDbLine
 10
-35.72087116583714
 20
-144.0462119031361
 30
0.0
 11
-33.72087116583713
 21
-144.0462119031361
 31
0.0
  0
LINE
  5
6092
330
1F
100
AcDbEntity
  8
想像線
100
AcDbLine
 10
-30.38967361968047
 20
-128.5031570254546
 30
0.0
 11
-24.38967361968048
 21
-128.5031570254546
 31
0.0
  0
LINE
  5
6093
330
1F
100
AcDbEntity
  8
太線
370
    25
100
AcDbLine
 10
48.40212815956329
 20
-174.0458144248613
 30
0.0
 11
48.40212815956329
 21
-175.0458144248613
 31
0.0
  0
CIRCLE
  5
6094
330
1F
100
AcDbEntity
  8
太線
370
    25
100
AcDbCircle
 10
-19.50393005753971
 20
-69.9933698810286
 30
0.0
 40
3.0
  0
LINE
  5
6095
330
1F
100
AcDbEntity
  8
太線
370
    25
100
AcDbLine
 10
-24.38967361968048
 20
-74.50315702545473
 30
0.0
 11
-24.38967361968048
 21
-39.50315702545472
 31
0.0
  0
LINE
  5
6096
330
1F
100
AcDbEntity
  8
想像線
100
AcDbLine
 10
-29.38967361968048
 20
-39.50315702545472
 30
0.0
 11
-29.38967361968048
 21
-74.50315702545473
 31
0.0
  0
LINE
  5
6097
330
1F
100
AcDbEntity
  8
太線
370
    25
100
AcDbLine
 10
-24.38967361968048
 20
-49.50315702545473
 30
0.0
 11
0.6103263803195205
 21
-74.50315702545473
 31
0.0
  0
LINE
  5
6098
330
1F
100
AcDbEntity
  8
太線
370
    25
100
AcDbLine
 10
10.61032638031952
 20
-74.50315702545475
 30
0.0
 11
-24.38967361968048
 21
-74.50315702545473
 31
0.0
  0
LINE
  5
6099
330
1F
100
AcDbEntity
  8
想像線
100
AcDbLine
 10
-24.38967361968048
 20
-79.50315702545473
 30
0.0
 11
10.61032638031952
 21
-79.50315702545475
 31
0.0
  0
LINE
  5
609A
330
1F
100
AcDbEntity
  8
想像線
100
AcDbLine
 10
-24.38967361968048
 20
-80.50315702545473
 30
0.0
 11
-30.38967361968047
 21
-80.50315702545473
 31
0.0
  0
LINE
  5
609B
330
1F
100
AcDbEntity
  8
太線
370
    25
100
AcDbLine
 10
-46.71064873543104
 20
-35.83581800972933
 30
0.0
 11
-36.71064873543105
 21
-35.83581800972933
 31
0.0
  0
LINE
  5
609C
330
1F
100
AcDbEntity
  8
太線
370
    25
100
AcDbLine
 10
-47.71064873543105
 20
-38.53684506723084
 30
0.0
 11
-46.71064873543104
 21
-35.83581800972933
 31
0.0
  0
LINE
  5
609D
330
1F
100
AcDbEntity
  8
太線
370
    25
100
AcDbLine
 10
-36.71064873543105
 20
-35.83581800972933
 30
0.0
 11
-35.71064873543105
 21
-38.53684506723084
 31
0.0
  0
DIMENSION
  5
609E
330
1F
100
AcDbEntity
  8
寸法線
370
    25
100
AcDbDimension
  2
*D51
 10
125.5294732882015
 20
-241.7776442448653
 30
0.0
 11
137.9594037733281
 21
-224.3895010840976
 31
0.0
 70
    35
 71
     5
 42
11.4999999999997
  3
ISO-25
100
AcDbDiametricDimension
 15
133.012119476846
 25
-233.0449467225897
 35
0.0
 40
0.0
1001
ACAD
1000
DSTYLE
1002
{
1070
   288
1070
     1
1002
}
  0
DIMENSION
  5
609F
330
1F
100
AcDbEntity
  8
寸法線
100
AcDbDimension
  2
*D52
 10
132.7211817678384
 20
-242.0110064195154
 30
0.0
 11
103.3042663012677
 21
-202.7952978367539
 31
0.0
 70
   163
  1
30
 71
     5
 42
11.50000000000011
  3
sunpo
100
AcDbDiametricDimension
 15
125.8204109972085
 25
-232.8115845479398
 35
0.0
 40
0.0
1001
ACAD
1000
DSTYLE
1002
{
1070
    40
1040
1.0
1070
   288
1070
     1
1002
}
  0
ARC
  5
60A0
330
1F
100
AcDbEntity
  8
太線
370
    25
100
AcDbCircle
 10
129.2707963825236
 20
-237.4112954837274
 30
0.0
 40
29.92684640862699
100
AcDbArc
 50
246.469298145229
 51
109.6483671244515
  0
CIRCLE
  5
60A1
330
1F
100
AcDbEntity
  8
太線
370
    25
100
AcDbCircle
 10
129.2707963825236
 20
-237.4112954837274
 30
0.0
 40
22.5
  0
LINE
  5
60A2
330
1F
100
AcDbEntity
  8
太線
370
    25
100
AcDbLine
 10
56.03113608714284
 20
-227.4564536050576
 30
0.0
 11
122.7718782008041
 21
-208.1986236026265
 31
0.0
  0
DIMENSION
  5
60A3
330
1F
100
AcDbEntity
  8
寸法線
370
    25
100
AcDbDimension
  2
*D53
 10
129.2707963825231
 20
-272.4262860574457
 30
0.0
 11
94.27079638252354
 21
-270.5512860574457
 31
0.0
 70
    32
 71
     5
 42
69.9999999999992
  3
ISO-25
100
AcDbAlignedDimension
 13
59.27079638252394
 23
-237.4112954837273
 33
0.0
 14
129.2707963825231
 24
-237.411295483728
 34
0.0
100
AcDbRotatedDimension
  0
TEXT
  5
60A4
330
1F
100
AcDbEntity
  8
文字
100
AcDbText
 10
105.5265500666692
 20
-283.1976908706745
 30
0.0
 40
5.759999999999999
  1
15-2L500A タテ                                                                                                                                                                                 
 51
15.0
  7
OKANO
100
AcDbText
  0
CIRCLE
  5
60A5
330
1F
100
AcDbEntity
  8
太線
370
    25
100
AcDbCircle
 10
129.2707963825236
 20
-237.4112954837274
 30
0.0
 40
5.75
  0
LINE
  5
60A6
330
1F
100
AcDbEntity
  8
太線
370
    25
100
AcDbLine
 10
55.54925445555728
 20
-247.4364514614338
 30
0.0
 11
123.0128190165969
 21
-266.453558845883
 31
0.0
  0
DIMENSION
  5
60A7
330
1F
100
AcDbEntity
  8
寸法線
370
    25
100
AcDbDimension
  2
*D54
 10
54.23713547718648
 20
-239.6276568915492
 30
0.0
 11
77.34100916612034
 21
-229.4548353649644
 31
0.0
 70
   163
 71
     5
 42
11.00000000000004
  3
ISO-25
100
AcDbDiametricDimension
 15
64.30445728786057
 25
-235.1949340759057
 35
0.0
 40
0.0
1001
ACAD
1000
DSTYLE
1002
{
1070
   288
1070
     1
1002
}
  0
CIRCLE
  5
60A8
330
1F
100
AcDbEntity
  8
太線
370
    25
100
AcDbCircle
 10
59.2707963825236
 20
-237.4112954837274
 30
0.0
 40
5.5
  0
ARC
  5
60A9
330
1F
100
AcDbEntity
  8
太線
370
    25
100
AcDbCircle
 10
59.2707963825236
 20
-237.4112954837274
 30
0.0
 40
10.46872846427808
100
AcDbArc
 50
104.163921814067
 51
108.0267342608365
  0
LINE
  5
60AA
330
1F
100
AcDbEntity
  8
太線
370
    25
100
AcDbLine
 10
113.0428966510421
 20
-126.39935376399
 30
0.0
 11
113.0428966510421
 21
-37.95280069503633
 31
0.0
  0
DIMENSION
  5
60AB
330
1F
100
AcDbEntity
  8
寸法線
100
AcDbDimension
  2
*D55
 10
151.4259476892082
 20
-35.25177363753483
 30
0.0
 11
147.9259476892082
 21
-105.2517736375348
 31
0.0
 70
    32
 71
     5
 42
140.0
  3
sunpo
100
AcDbAlignedDimension
 13
146.5428966510421
 23
-175.2517736375348
 33
0.0
 14
124.0428966510421
 24
-35.25177363753482
 34
0.0
 50
90.0
100
AcDbRotatedDimension
1001
ACAD
1000
DSTYLE
1002
{
1070
    40
1040
1.0
1002
}
  0
LINE
  5
60AC
330
1F
100
AcDbEntity
  8
細線
370
    25
100
AcDbLine
 10
124.0428966510421
 20
-35.25177363753482
 30
0.0
 11
124.0428966510421
 21
-126.39935376399
 31
0.0
  0
LINE
  5
60AD
330
1F
100
AcDbEntity
  8
太線
370
    25
100
AcDbLine
 10
125.0428966510421
 20
-37.95280069503633
 30
0.0
 11
125.0428966510422
 21
-126.39935376399
 31
0.0
  0
LINE
  5
60AE
330
1F
100
AcDbEntity
  8
細線
370
    25
100
AcDbLine
 10
114.0428966510421
 20
-35.25177363753482
 30
0.0
 11
114.0428966510421
 21
-126.39935376399
 31
0.0
  0
LINE
  5
60AF
330
1F
100
AcDbEntity
  8
太線
370
    25
100
AcDbLine
 10
170.6485117991552
 20
-134.5593618580225
 30
0.0
 11
170.6485117991552
 21
-74.5593618580225
 31
0.0
  0
LINE
  5
60B0
330
1F
100
AcDbEntity
  8
想像線
100
AcDbLine
 10
129.6485117991552
 20
-128.5593618580225
 30
0.0
 11
129.6485117991552
 21
-74.5593618580225
 31
0.0
  0
LINE
  5
60B1
330
1F
100
AcDbEntity
  8
想像線
100
AcDbLine
 10
135.6485117991552
 20
-129.5593618580225
 30
0.0
 11
135.6485117991552
 21
-79.5593618580225
 31
0.0
  0
ARC
  5
60B2
330
1F
100
AcDbEntity
  8
想像線
100
AcDbCircle
 10
105.6485117991552
 20
-104.5593618580225
 30
0.0
 40
23.71293940890467
100
AcDbArc
 50
179.9999999999967
 51
270.0
  0
ARC
  5
60B3
330
1F
100
AcDbEntity
  8
太線
370
    25
100
AcDbCircle
 10
105.6485117991552
 20
-104.5593618580225
 30
0.0
 40
30.0
100
AcDbArc
 50
180.0
 51
270.0
  0
LINE
  5
60B4
330
1F
100
AcDbEntity
  8
想像線
100
AcDbLine
 10
105.6485117991552
 20
-128.2723012669271
 30
0.0
 11
129.6485117991552
 21
-128.5593618580225
 31
0.0
  0
ARC
  5
60B5
330
1F
100
AcDbEntity
  8
太線
370
    25
100
AcDbCircle
 10
128.004299208742
 20
-164.0458144248612
 30
0.0
 40
3.0
100
AcDbArc
 50
28.44292862436269
 51
90.0
  0
LINE
  5
60B6
330
1F
100
AcDbEntity
  8
想像線
370
    25
100
AcDbLine
 10
96.71545155000808
 20
-126.39935376399
 30
0.0
 11
135.2013054667515
 21
-126.39935376399
 31
0.0
  0
DIMENSION
  5
60B7
330
1F
100
AcDbEntity
  8
寸法線
100
AcDbDimension
  2
*D56
 10
119.0428966510421
 20
-182.481548814174
 30
0.0
 11
132.6670159378866
 21
-178.981548814174
 31
0.0
 70
    32
  1
30
 71
     5
 42
27.24823857368892
  3
sunpo
100
AcDbAlignedDimension
 13
146.291135224731
 23
-175.0458144248613
 33
0.0
 14
119.0428966510421
 24
-172.3308885780229
 34
0.0
100
AcDbRotatedDimension
1001
ACAD
1000
DSTYLE
1002
{
1070
    40
1040
1.0
1002
}
  0
LINE
  5
60B8
330
1F
100
AcDbEntity
  8
太線
370
    25
100
AcDbLine
 10
105.6485117991552
 20
-134.5593618580225
 30
0.0
 11
170.6485117991552
 21
-134.5593618580225
 31
0.0
  0
LINE
  5
60B9
330
1F
100
AcDbEntity
  8
太線
370
    25
100
AcDbLine
 10
48.79113522473108
 20
-175.0458144248613
 30
0.0
 11
146.291135224731
 21
-175.0458144248613
 31
0.0
  0
ARC
  5
60BA
330
1F
100
AcDbEntity
  8
破線
100
AcDbCircle
 10
127.0428966510421
 20
-171.3308885780229
 30
0.0
 40
1.0
100
AcDbArc
 50
270.0
 51
0.0
  0
ARC
  5
60BB
330
1F
100
AcDbEntity
  8
破線
100
AcDbCircle
 10
119.0428966510421
 20
-159.3308885780228
 30
0.0
 40
13.00000000000004
100
AcDbArc
 50
247.3801350519622
 51
292.6198649480397
  0
LINE
  5
60BC
330
1F
100
AcDbEntity
  8
破線
100
AcDbLine
 10
124.0428966510421
 20
-171.3308885780229
 30
0.0
 11
127.0428966510421
 21
-172.3308885780229
 31
0.0
  0
ARC
  5
60BD
330
1F
100
AcDbEntity
  8
破線
100
AcDbCircle
 10
111.0428966510421
 20
-171.3308885780229
 30
0.0
 40
1.0
100
AcDbArc
 50
180.0
 51
270.0
  0
ARC
  5
60BE
330
1F
100
AcDbEntity
  8
太線
370
    25
100
AcDbCircle
 10
99.50429920874194
 20
-170.0458144248613
 30
0.0
 40
3.0
100
AcDbArc
 50
270.0
 51
331.5570713756372
  0
LINE
  5
60BF
330
1F
100
AcDbEntity
  8
破線
100
AcDbLine
 10
114.0428966510421
 20
-171.3308885780229
 30
0.0
 11
111.0428966510421
 21
-172.3308885780229
 31
0.0
  0
DIMENSION
  5
60C0
330
1F
100
AcDbEntity
  8
寸法線
100
AcDbDimension
  2
*D57
 10
58.96263451969935
 20
-182.481548814174
 30
0.0
 11
89.00276558537075
 21
-178.981548814174
 31
0.0
 70
    32
  1
70
 71
     5
 42
60.0802621313428
  3
sunpo
100
AcDbAlignedDimension
 13
119.0428966510421
 23
-172.3308885780229
 33
0.0
 14
58.96263451969935
 24
-179.9669035462087
 34
0.0
100
AcDbRotatedDimension
1001
ACAD
1000
DSTYLE
1002
{
1070
    40
1040
1.0
1070
   279
1070
     1
1002
}
  0
LINE
  5
60C1
330
1F
100
AcDbEntity
  8
太線
370
    25
100
AcDbLine
 10
99.50429920874194
 20
-173.0458144248613
 30
0.0
 11
48.79113522473108
 21
-173.0458144248609
 31
0.0
  0
DIMENSION
  5
60C2
330
1F
100
AcDbEntity
  8
寸法線
100
AcDbDimension
  2
*D58
 10
48.89602977960021
 20
-182.481548814174
 30
0.0
 11
58.52933214964978
 21
-190.981548814174
 31
0.0
 70
    32
  1
10.5
 71
     5
 42
10.06660474009913
  3
sunpo
100
AcDbAlignedDimension
 13
58.96263451969935
 23
-179.9669035462087
 33
0.0
 14
48.89602977960021
 24
-179.6076679409467
 34
0.0
100
AcDbRotatedDimension
1001
ACAD
1000
DSTYLE
1002
{
1070
    40
1040
1.0
1070
   279
1070
     1
1002
}
  0
LINE
  5
60C3
330
1F
100
AcDbEntity
  8
太線
370
    25
100
AcDbLine
 10
53.79113522473108
 20
-173.0458144248609
 30
0.0
 11
53.79113522473108
 21
-175.0458144248613
 31
0.0
  0
LINE
  5
60C4
330
1F
100
AcDbEntity
  8
太線
370
    25
100
AcDbLine
 10
64.79113522473108
 20
-173.045814424861
 30
0.0
 11
64.79113522473108
 21
-175.0458144248613
 31
0.0
  0
ARC
  5
60C5
330
1F
100
AcDbEntity
  8
太線
370
    25
100
AcDbCircle
 10
129.2707963825236
 20
-237.4112954837274
 30
0.0
 40
30.0
100
AcDbArc
 50
104.6493206882403
 51
107.4628139467068
  0
LINE
  5
60C6
330
1F
100
AcDbEntity
  8
破線
100
AcDbLine
 10
127.0428966510421
 20
-172.3308885780229
 30
0.0
 11
111.0428966510421
 21
-172.3308885780229
 31
0.0
  0
DIMENSION
  5
60C7
330
1F
100
AcDbEntity
  8
寸法線
100
AcDbDimension
  2
*D59
 10
65.03349149796895
 20
-161.1681879336928
 30
0.0
 11
59.4663513061214
 21
-157.6681879336928
 31
0.0
 70
    32
  1
11
 71
     5
 42
11.13428038369511
  3
sunpo
100
AcDbAlignedDimension
 13
53.89921111427383
 23
-171.6012649139269
 33
0.0
 14
65.03349149796895
 24
-170.9057271541547
 34
0.0
100
AcDbRotatedDimension
1001
ACAD
1000
DSTYLE
1002
{
1070
    40
1040
1.0
1002
}
  0
LINE
  5
60C8
330
1F
100
AcDbEntity
  8
細線
370
    25
100
AcDbLine
 10
114.0428966510421
 20
-144.3645347147057
 30
0.0
 11
114.0428966510421
 21
-153.2517736375348
 31
0.0
  0
LINE
  5
60C9
330
1F
100
AcDbEntity
  8
細線
370
    25
100
AcDbLine
 10
124.0428966510421
 20
-144.3645347147057
 30
0.0
 11
124.0428966510421
 21
-153.2517736375348
 31
0.0
  0
LINE
  5
60CA
330
1F
100
AcDbEntity
  8
太線
370
    25
100
AcDbLine
 10
125.0428966510422
 20
-144.3645347147057
 30
0.0
 11
125.0428966510421
 21
-153.2517736375348
 31
0.0
  0
LINE
  5
60CB
330
1F
100
AcDbEntity
  8
太線
370
    25
100
AcDbLine
 10
113.0428966510421
 20
-153.2517736375348
 30
0.0
 11
113.0428966510421
 21
-144.3645347147057
 31
0.0
  0
ARC
  5
60CC
330
1F
100
AcDbEntity
  8
太線
370
    25
100
AcDbCircle
 10
109.5779712407201
 20
-164.0458144248612
 30
0.0
 40
3.0
100
AcDbArc
 50
90.0
 51
151.5570713756373
  0
LINE
  5
60CD
330
1F
100
AcDbEntity
  8
太線
370
    25
100
AcDbLine
 10
106.9400953411097
 20
-162.616964979239
 30
0.0
 11
102.1421751083523
 21
-171.4746638704836
 31
0.0
  0
LINE
  5
60CE
330
1F
100
AcDbEntity
  8
太線
370
    25
100
AcDbLine
 10
128.0428966510421
 20
-154.2517736375348
 30
0.0
 11
128.0428966510421
 21
-161.2517736375348
 31
0.0
  0
LINE
  5
60CF
330
1F
100
AcDbEntity
  8
太線
370
    25
100
AcDbLine
 10
124.0428966510421
 20
-154.565271013662
 30
0.0
 11
124.0428966510421
 21
-161.2517736375348
 31
0.0
  0
LINE
  5
60D0
330
1F
100
AcDbEntity
  8
太線
370
    25
100
AcDbLine
 10
114.0428966510421
 20
-154.7622362870313
 30
0.0
 11
114.0428966510421
 21
-161.2517736375348
 31
0.0
  0
LINE
  5
60D1
330
1F
100
AcDbEntity
  8
太線
370
    25
100
AcDbLine
 10
110.0428966510421
 20
-154.2517736375348
 30
0.0
 11
110.0428966510421
 21
-161.2517736375348
 31
0.0
  0
LINE
  5
60D2
330
1F
100
AcDbEntity
  8
破線
370
    25
100
AcDbLine
 10
125.0428966510421
 20
-164.3308885780229
 30
0.0
 11
113.0428966510421
 21
-164.3308885780229
 31
0.0
  0
LINE
  5
60D3
330
1F
100
AcDbEntity
  8
太線
370
    25
100
AcDbLine
 10
128.004299208742
 20
-161.0458144248612
 30
0.0
 11
109.5779712407201
 21
-161.0458144248612
 31
0.0
  0
LINE
  5
60D4
330
1F
100
AcDbEntity
  8
太線
370
    25
100
AcDbLine
 10
128.2560606350531
 20
-161.2517736375348
 30
0.0
 11
109.8297326670311
 21
-161.2517736375348
 31
0.0
  0
LINE
  5
60D5
330
1F
100
AcDbEntity
  8
破線
370
    25
100
AcDbLine
 10
114.0428966510421
 20
-161.2517736375348
 30
0.0
 11
114.0428966510421
 21
-164.3308885780229
 31
0.0
  0
LINE
  5
60D6
330
1F
100
AcDbEntity
  8
破線
100
AcDbLine
 10
114.0428966510421
 20
-164.3308885780229
 30
0.0
 11
114.0428966510421
 21
-171.3308885780229
 31
0.0
  0
LINE
  5
60D7
330
1F
100
AcDbEntity
  8
破線
370
    25
100
AcDbLine
 10
113.0428966510421
 20
-161.2517736375348
 30
0.0
 11
113.0428966510421
 21
-164.3308885780229
 31
0.0
  0
ARC
  5
60D8
330
1F
100
AcDbEntity
  8
破線
100
AcDbCircle
 10
111.0428966510421
 20
-165.3308885780229
 30
0.0
 40
1.0
100
AcDbArc
 50
90.0
 51
180.0
  0
LINE
  5
60D9
330
1F
100
AcDbEntity
  8
破線
100
AcDbLine
 10
110.0428966510421
 20
-171.3308885780229
 30
0.0
 11
110.0428966510421
 21
-165.3308885780229
 31
0.0
  0
LINE
  5
60DA
330
1F
100
AcDbEntity
  8
破線
370
    25
100
AcDbLine
 10
111.0428966510421
 20
-164.3308885780229
 30
0.0
 11
113.0428966510421
 21
-164.3308885780229
 31
0.0
  0
ARC
  5
60DB
330
1F
100
AcDbEntity
  8
破線
100
AcDbCircle
 10
127.0428966510421
 20
-165.3308885780229
 30
0.0
 40
1.0
100
AcDbArc
 50
0.0
 51
90.0
  0
LINE
  5
60DC
330
1F
100
AcDbEntity
  8
破線
370
    25
100
AcDbLine
 10
125.0428966510421
 20
-161.2517736375348
 30
0.0
 11
125.0428966510421
 21
-164.3308885780229
 31
0.0
  0
LINE
  5
60DD
330
1F
100
AcDbEntity
  8
破線
370
    25
100
AcDbLine
 10
124.0428966510421
 20
-161.2517736375348
 30
0.0
 11
124.0428966510421
 21
-164.3308885780229
 31
0.0
  0
LINE
  5
60DE
330
1F
100
AcDbEntity
  8
破線
370
    25
100
AcDbLine
 10
125.0428966510421
 20
-164.3308885780229
 30
0.0
 11
127.0428966510421
 21
-164.3308885780229
 31
0.0
  0
LINE
  5
60DF
330
1F
100
AcDbEntity
  8
破線
100
AcDbLine
 10
128.0428966510421
 20
-165.3308885780229
 30
0.0
 11
128.0428966510421
 21
-171.3308885780229
 31
0.0
  0
LINE
  5
60E0
330
1F
100
AcDbEntity
  8
破線
100
AcDbLine
 10
124.0428966510421
 20
-164.3308885780229
 30
0.0
 11
124.0428966510421
 21
-171.3308885780229
 31
0.0
  0
LINE
  5
60E1
330
1F
100
AcDbEntity
  8
太線
370
    25
100
AcDbLine
 10
127.0428966510421
 20
-153.2517736375348
 30
0.0
 11
111.0428966510421
 21
-153.2517736375348
 31
0.0
  0
LINE
  5
60E2
330
1F
100
AcDbEntity
  8
太線
370
    25
100
AcDbLine
 10
114.0747199919228
 20
-154.7855512042954
 30
0.0
 11
118.0783620100032
 21
-153.4009935645431
 31
0.0
  0
ARC
  5
60E3
330
1F
100
AcDbEntity
  8
太線
370
    25
100
AcDbCircle
 10
111.0428966510421
 20
-154.2517736375348
 30
0.0
 40
1.0
100
AcDbArc
 50
90.0
 51
180.0
  0
LINE
  5
60E4
330
1F
100
AcDbEntity
  8
太線
370
    25
100
AcDbLine
 10
111.7649267398301
 20
-153.0933140890426
 30
0.0
 11
114.0747199919228
 21
-154.7855512042954
 31
0.0
  0
ARC
  5
60E5
330
1F
100
AcDbEntity
  8
太線
370
    25
100
AcDbCircle
 10
127.0428966510421
 20
-154.2517736375348
 30
0.0
 40
1.0
100
AcDbArc
 50
0.0
 51
90.0
  0
LINE
  5
60E6
330
1F
100
AcDbEntity
  8
太線
370
    25
100
AcDbLine
 10
123.929840344796
 20
-154.631711466545
 30
0.0
 11
126.5476058399412
 21
-153.0933140890426
 31
0.0
  0
LINE
  5
60E7
330
1F
100
AcDbEntity
  8
太線
370
    25
100
AcDbLine
 10
121.4660595419786
 20
-153.2471538267927
 30
0.0
 11
123.929840344796
 21
-154.631711466545
 31
0.0
  0
LINE
  5
60E8
330
1F
100
AcDbEntity
  8
太線
370
    25
100
AcDbLine
 10
114.032674220636
 20
-134.7384930129073
 30
0.0
 11
125.032674220636
 21
-134.7384930129073
 31
0.0
  0
ARC
  5
60E9
330
1F
100
AcDbEntity
  8
太線
370
    25
100
AcDbCircle
 10
119.0428966510421
 20
-131.3645347147057
 30
0.0
 40
13.0
100
AcDbArc
 50
247.3801350519622
 51
292.6198649480397
  0
LINE
  5
60EA
330
1F
100
AcDbEntity
  8
太線
370
    25
100
AcDbLine
 10
110.0428966510421
 20
-135.3645347147057
 30
0.0
 11
128.0428966510421
 21
-135.3645347147057
 31
0.0
  0
LINE
  5
60EB
330
1F
100
AcDbEntity
  8
太線
370
    25
100
AcDbLine
 10
127.0428966510421
 20
-144.3645347147057
 30
0.0
 11
111.0428966510421
 21
-144.3645347147057
 31
0.0
  0
LINE
  5
60EC
330
1F
100
AcDbEntity
  8
太線
370
    25
100
AcDbLine
 10
114.0428966510421
 20
-135.3645347147057
 30
0.0
 11
114.0428966510421
 21
-143.3645347147057
 31
0.0
  0
ARC
  5
60ED
330
1F
100
AcDbEntity
  8
太線
370
    25
100
AcDbCircle
 10
111.032674220636
 20
-135.7384930129073
 30
0.0
 40
1.0
100
AcDbArc
 50
90.0
 51
180.0
  0
ARC
  5
60EE
330
1F
100
AcDbEntity
  8
太線
370
    25
100
AcDbCircle
 10
111.0428966510421
 20
-143.3645347147057
 30
0.0
 40
1.0
100
AcDbArc
 50
180.0
 51
270.0
  0
LINE
  5
60EF
330
1F
100
AcDbEntity
  8
太線
370
    25
100
AcDbLine
 10
110.0428966510421
 20
-143.3645347147057
 30
0.0
 11
110.0428966510421
 21
-135.3645347147057
 31
0.0
  0
LINE
  5
60F0
330
1F
100
AcDbEntity
  8
太線
370
    25
100
AcDbLine
 10
114.032674220636
 20
-134.7384930129073
 30
0.0
 11
111.032674220636
 21
-134.7384930129073
 31
0.0
  0
LINE
  5
60F1
330
1F
100
AcDbEntity
  8
太線
370
    25
100
AcDbLine
 10
114.0428966510421
 20
-143.3645347147057
 30
0.0
 11
111.0428966510421
 21
-144.3645347147057
 31
0.0
  0
ARC
  5
60F2
330
1F
100
AcDbEntity
  8
太線
370
    25
100
AcDbCircle
 10
127.032674220636
 20
-135.7384930129073
 30
0.0
 40
1.0
100
AcDbArc
 50
0.0
 51
90.0
  0
LINE
  5
60F3
330
1F
100
AcDbEntity
  8
太線
370
    25
100
AcDbLine
 10
125.032674220636
 20
-134.7384930129073
 30
0.0
 11
127.032674220636
 21
-134.7384930129073
 31
0.0
  0
ARC
  5
60F4
330
1F
100
AcDbEntity
  8
太線
370
    25
100
AcDbCircle
 10
127.0428966510421
 20
-143.3645347147057
 30
0.0
 40
1.0
100
AcDbArc
 50
270.0
 51
0.0
  0
LINE
  5
60F5
330
1F
100
AcDbEntity
  8
太線
370
    25
100
AcDbLine
 10
124.0428966510421
 20
-143.3645347147057
 30
0.0
 11
127.0428966510421
 21
-144.3645347147057
 31
0.0
  0
LINE
  5
60F6
330
1F
100
AcDbEntity
  8
太線
370
    25
100
AcDbLine
 10
124.0428966510421
 20
-135.3645347147057
 30
0.0
 11
124.0428966510421
 21
-143.3645347147057
 31
0.0
  0
LINE
  5
60F7
330
1F
100
AcDbEntity
  8
太線
370
    25
100
AcDbLine
 10
128.0428966510421
 20
-135.3645347147057
 30
0.0
 11
128.0428966510421
 21
-143.3645347147057
 31
0.0
  0
ARC
  5
60F8
330
1F
100
AcDbEntity
  8
太線
370
    25
100
AcDbCircle
 10
138.07797124072
 20
-170.0458144248613
 30
0.0
 40
3.0
100
AcDbArc
 50
208.4429286243626
 51
270.0
  0
LINE
  5
60F9
330
1F
100
AcDbEntity
  8
太線
370
    25
100
AcDbLine
 10
145.291135224731
 20
-173.0458144248613
 30
0.0
 11
138.07797124072
 21
-173.0458144248613
 31
0.0
  0
LINE
  5
60FA
330
1F
100
AcDbEntity
  8
太線
370
    25
100
AcDbLine
 10
146.291135224731
 20
-175.0458144248613
 30
0.0
 11
146.291135224731
 21
-174.0458144248613
 31
0.0
  0
ARC
  5
60FB
330
1F
100
AcDbEntity
  8
太線
370
    25
100
AcDbCircle
 10
145.291135224731
 20
-174.0458144248613
 30
0.0
 40
1.0
100
AcDbArc
 50
0.0
 51
90.0
  0
LINE
  5
60FC
330
1F
100
AcDbEntity
  8
想像線
100
AcDbLine
 10
170.6485117991552
 20
-129.5593618580225
 30
0.0
 11
135.6485117991552
 21
-129.5593618580225
 31
0.0
  0
LINE
  5
60FD
330
1F
100
AcDbEntity
  8
太線
370
    25
100
AcDbLine
 10
135.4400953411097
 20
-171.4746638704836
 30
0.0
 11
130.6421751083523
 21
-162.616964979239
 31
0.0
  0
LINE
  5
60FE
330
1F
100
AcDbEntity
  8
想像線
100
AcDbLine
 10
129.6485117991552
 20
-128.5593618580225
 30
0.0
 11
135.6485117991552
 21
-128.5593618580225
 31
0.0
  0
LINE
  5
60FF
330
1F
100
AcDbEntity
  8
想像線
100
AcDbLine
 10
130.6485117991552
 20
-74.5593618580225
 30
0.0
 11
80.64851179915525
 21
-74.5593618580225
 31
0.0
  0
LINE
  5
6100
330
1F
100
AcDbEntity
  8
太線
370
    25
100
AcDbLine
 10
75.64851179915525
 20
-39.55936185802249
 30
0.0
 11
135.6485117991552
 21
-39.55936185802249
 31
0.0
  0
LINE
  5
6101
330
1F
100
AcDbEntity
  8
太線
370
    25
100
AcDbLine
 10
75.64851179915525
 20
-39.55936185802249
 30
0.0
 11
75.64851179915525
 21
-104.5593618580225
 31
0.0
  0
LINE
  5
6102
330
1F
100
AcDbEntity
  8
想像線
100
AcDbLine
 10
80.64851179915525
 20
-74.5593618580225
 30
0.0
 11
80.64851179915525
 21
-39.55936185802249
 31
0.0
  0
LINE
  5
6103
330
1F
100
AcDbEntity
  8
想像線
100
AcDbLine
 10
81.93557239025052
 20
-104.5593618580225
 30
0.0
 11
81.64851179915524
 21
-74.5593618580225
 31
0.0
  0
LINE
  5
6104
330
1F
100
AcDbEntity
  8
太線
370
    25
100
AcDbLine
 10
114.0428966510421
 20
-35.25177363753482
 30
0.0
 11
124.0428966510421
 21
-35.25177363753482
 31
0.0
  0
LINE
  5
6105
330
1F
100
AcDbEntity
  8
太線
370
    25
100
AcDbLine
 10
113.0428966510421
 20
-37.95280069503633
 30
0.0
 11
114.0428966510421
 21
-35.25177363753482
 31
0.0
  0
LINE
  5
6106
330
1F
100
AcDbEntity
  8
太線
370
    25
100
AcDbLine
 10
124.0428966510421
 20
-35.25177363753482
 30
0.0
 11
125.0428966510421
 21
-37.95280069503633
 31
0.0
  0
CIRCLE
  5
6107
330
1F
100
AcDbEntity
  8
太線
370
    25
100
AcDbCircle
 10
140.534255361296
 20
-70.04957471359637
 30
0.0
 40
3.0
  0
LINE
  5
6108
330
1F
100
AcDbEntity
  8
太線
370
    25
100
AcDbLine
 10
135.6485117991552
 20
-49.5593618580225
 30
0.0
 11
160.6485117991552
 21
-74.5593618580225
 31
0.0
  0
LINE
  5
6109
330
1F
100
AcDbEntity
  8
太線
370
    25
100
AcDbLine
 10
135.6485117991552
 20
-74.5593618580225
 30
0.0
 11
135.6485117991552
 21
-39.55936185802249
 31
0.0
  0
LINE
  5
610A
330
1F
100
AcDbEntity
  8
想像線
100
AcDbLine
 10
130.6485117991552
 20
-39.55936185802249
 30
0.0
 11
130.6485117991552
 21
-74.5593618580225
 31
0.0
  0
LINE
  5
610B
330
1F
100
AcDbEntity
  8
想像線
100
AcDbLine
 10
135.6485117991552
 20
-79.5593618580225
 30
0.0
 11
170.6485117991552
 21
-79.55936185802253
 31
0.0
  0
LINE
  5
610C
330
1F
100
AcDbEntity
  8
太線
370
    25
100
AcDbLine
 10
170.6485117991552
 20
-74.55936185802253
 30
0.0
 11
135.6485117991552
 21
-74.5593618580225
 31
0.0
  0
LINE
  5
610D
330
1F
100
AcDbEntity
  8
想像線
100
AcDbLine
 10
135.6485117991552
 20
-80.5593618580225
 30
0.0
 11
129.6485117991552
 21
-80.5593618580225
 31
0.0
  0
TEXT
  5
641F
330
1F
100
AcDbEntity
  8
文字
100
AcDbText
 10
-635.634747447059
 20
-337.9612373937496
 30
0.0
 40
5.759999999999999
  1
14-2L-150　タテ                                                                                                               
 51
15.0
  7
OKANO
100
AcDbText
  0
TEXT
  5
6420
330
1F
100
AcDbEntity
  8
文字
100
AcDbText
 10
-464.9176909222064
 20
-302.2713079982526
 30
0.0
 40
5.759999999999999
  1
14-2L-100　タテ                                                                                                               
 51
15.0
  7
OKANO
100
AcDbText
  0
TEXT
  5
6421
330
1F
100
AcDbEntity
  8
文字
100
AcDbText
 10
-340.5192159653292
 20
-257.3284319972593
 30
0.0
 40
5.759999999999999
  1
15-2L-65　タテ                                                                                                               
 51
15.0
  7
OKANO
100
AcDbText
  0
TEXT
  5
6422
330
1F
100
AcDbEntity
  8
文字
100
AcDbText
 10
-185.6828197408353
 20
-174.0519272701702
 30
0.0
 40
5.759999999999999
  1
15-2L500　タテ                                                                                                               
 51
15.0
  7
OKANO
100
AcDbText
  0
VIEWPORT
  5
2E
330
1B
100
AcDbEntity
 67
     1
  8
0
100
AcDbViewport
 10
221.9346129393643
 20
113.5262736315262
 30
0.0
 40
549.1220464385005
 41
263.0841958821112
 68
     2
 69
     1
 12
221.9346129393643
 22
113.5262736315262
 13
0.0
 23
0.0
 14
10.0
 24
10.0
 15
10.0
 25
10.0
 16
0.0
 26
0.0
 36
1.0
 17
0.0
 27
0.0
 37
0.0
 42
50.0
 43
0.0
 44
0.0
 45
263.0841958821112
 50
0.0
 51
0.0
 72
   100
 90
    32800
  1

281
     0
 71
     1
 74
     0
110
0.0
120
0.0
130
0.0
111
1.0
121
0.0
131
0.0
112
0.0
122
1.0
132
0.0
 79
     0
146
0.0
  0
VIEWPORT
  5
30
330
1B
100
AcDbEntity
 67
     1
  8
70-0-CON
100
AcDbViewport
 10
141.8594093064315
 20
100.3480256368386
 30
0.0
 40
261.6199023344245
 41
192.6196987113174
 68
     1
 69
     2
 12
-241.0108372130132
 22
-71.81437243158439
 13
0.0
 23
0.0
 14
5.0
 24
5.0
 15
10.0
 25
10.0
 16
0.0
 26
0.0
 36
1.0
 17
0.0
 27
0.0
 37
0.0
 42
50.0
 43
0.0
 44
0.0
 45
720.4343429098461
 50
0.0
 51
0.0
 72
   100
 90
    32864
  1

281
     0
 71
     1
 74
     0
110
0.0
120
0.0
130
0.0
111
1.0
121
0.0
131
0.0
112
0.0
122
1.0
132
0.0
 79
     0
146
0.0
  0
LWPOLYLINE
  5
45
330
1B
100
AcDbEntity
 67
     1
  8
50-0-CON
100
AcDbPolyline
 90
        4
 70
     1
 43
0.0
 10
11.04945813921926
 20
4.038176281179858
 10
272.2125713060605
 20
4.033520706629644
 10
273.4987754093466
 20
195.9297862125246
 10
11.04945813921926
 20
196.6578749924973
  0
LINE
  5
4A
330
1B
100
AcDbEntity
 67
     1
  8
50-0-CON
100
AcDbLine
 10
10.38768783662635
 20
100.3480256368386
 30
0.0
 11
-4.391850629656119
 21
100.3480256368386
 31
0.0
  0
LINE
  5
4B
330
1B
100
AcDbEntity
 67
     1
  8
50-0-CON
100
AcDbLine
 10
141.8594093064315
 20
197.098652626247
 30
0.0
 11
141.8594093064315
 21
202.387980773708
 31
0.0
  0
LINE
  5
4C
330
1B
100
AcDbEntity
 67
     1
  8
50-0-CON
100
AcDbLine
 10
272.4487699456857
 20
100.7888032705883
 30
0.0
 11
278.8458837249377
 21
100.7888032705883
 31
0.0
  0
LINE
  5
4D
330
1B
100
AcDbEntity
 67
     1
  8
50-0-CON
100
AcDbLine
 10
140.9770484758805
 20
4.038176281179858
 30
0.0
 11
140.9770484758805
 21
-3.455038652015446
 31
0.0
  0
ENDSEC
  0
SECTION
  2
OBJECTS
  0
DICTIONARY
  5
C
330
0
100
AcDbDictionary
281
     1
  3
ACAD_GROUP
350
D
  3
ACAD_LAYOUT
350
1A
  3
ACAD_MLINESTYLE
350
17
  3
ACAD_PLOTSETTINGS
350
19
  3
ACAD_PLOTSTYLENAME
350
E
  3
AcadDim
350
366E
  3
AcDbVariableDictionary
350
6AD
  3
DWGPROPS
350
30F
  0
DICTIONARY
  5
D
102
{ACAD_REACTORS
330
C
102
}
330
C
100
AcDbDictionary
281
     1
  0
DICTIONARY
  5
1A
102
{ACAD_REACTORS
330
C
102
}
330
C
100
AcDbDictionary
281
     1
  3
A4
350
1E
  3
Model
350
22
  0
DICTIONARY
  5
17
102
{ACAD_REACTORS
330
C
102
}
330
C
100
AcDbDictionary
281
     1
  3
Standard
350
18
  0
DICTIONARY
  5
19
102
{ACAD_REACTORS
330
C
102
}
330
C
100
AcDbDictionary
281
     1
  0
ACDBDICTIONARYWDFLT
  5
E
102
{ACAD_REACTORS
330
C
102
}
330
C
100
AcDbDictionary
281
     1
  3
Normal
350
F
100
AcDbDictionaryWithDefault
340
F
  0
XRECORD
  5
366E
102
{ACAD_REACTORS
330
C
102
}
330
C
100
AcDbXrecord
280
     1
 90
   990106
  3

 60
     0
 61
     0
 62
     1
 63
     3
 64
     0
 65
     0
 66
     0
 67
     3
 68
     1
 69
     0
 70
     0
 71
     0
 72
     0
 40
0.625
170
     0
340
4120
  0
DICTIONARY
  5
6AD
102
{ACAD_REACTORS
330
C
102
}
330
C
100
AcDbDictionary
281
     1
  3
SORTENTS
350
6AE
  0
XRECORD
  5
30F
102
{ACAD_REACTORS
330
C
102
}
330
C
100
AcDbXrecord
280
     1
  1
DWGPROPS COOKIE
  2

  3

  4

  6

  7

  8

  9

300
=
301
=
302
=
303
=
304
=
305
=
306
=
307
=
308
=
309
=
 40
0.3303803125
 41
2452362.482225463
 42
2452370.969861285
  1

 90
        0
  0
LAYOUT
  5
1E
102
{ACAD_REACTORS
330
1A
102
}
330
1A
100
AcDbPlotSettings
  1

  2
EPSON PM-920C
  4
A4
  6

 40
3.757083177566528
 41
14.7637300491333
 42
3.757080078125
 43
3.757080078125
 44
209.9733276367187
 45
296.9683227539062
 46
0.0
 47
0.0
 48
0.0
 49
0.0
140
0.0
141
0.0
142
1.0
143
1.0
 70
   688
 72
     1
 73
     1
 74
     5
  7
joint.ctb
 75
    16
147
1.0
148
0.0
149
0.0
100
AcDbLayout
  1
A4
 70
     1
 71
     1
 10
-3.757080078125
 20
-3.757083177566528
 11
293.2112426757812
 21
206.2162444591522
 12
0.0
 22
0.0
 32
0.0
 14
-4.391850629656119
 24
-3.455038652015446
 34
0.0
 15
278.8458837249377
 25
202.387980773708
 35
0.0
146
0.0
 13
0.0
 23
0.0
 33
0.0
 16
1.0
 26
0.0
 36
0.0
 17
0.0
 27
1.0
 37
0.0
 76
     0
330
1B
331
30
  0
LAYOUT
  5
22
102
{ACAD_REACTORS
330
1A
102
}
330
1A
100
AcDbPlotSettings
  1

  2
EPSON PM-920C
  4
A4
  6

 40
3.757083177566528
 41
14.7637300491333
 42
3.757080078125
 43
3.757080078125
 44
209.9733276367187
 45
296.9683227539062
 46
0.0
 47
0.0
 48
0.0
 49
0.0
140
0.0
141
0.0
142
1.0
143
1.0
 70
 11952
 72
     1
 73
     1
 74
     0
  7

 75
     0
147
1.0
148
-45.64199848979289
149
-84.48806419330498
100
AcDbLayout
  1
Model
 70
     1
 71
     0
 10
0.0
 20
0.0
 11
12.0
 21
9.0
 12
0.0
 22
0.0
 32
0.0
 14
0.0
 24
0.0
 34
0.0
 15
0.0
 25
0.0
 35
0.0
146
0.0
 13
0.0
 23
0.0
 33
0.0
 16
1.0
 26
0.0
 36
0.0
 17
0.0
 27
1.0
 37
0.0
 76
     0
330
1F
  0
MLINESTYLE
  5
18
102
{ACAD_REACTORS
330
17
102
}
330
17
100
AcDbMlineStyle
  2
STANDARD
 70
     0
  3

 62
   256
 51
90.0
 52
90.0
 71
     2
 49
0.5
 62
   256
  6
BYLAYER
 49
-0.5
 62
   256
  6
BYLAYER
  0
ACDBPLACEHOLDER
  5
F
102
{ACAD_REACTORS
330
E
102
}
330
E
  0
DICTIONARYVAR
  5
6AE
102
{ACAD_REACTORS
330
6AD
102
}
330
6AD
100
DictionaryVariables
280
     0
  1
96
  0
ENDSEC
  0
EOF
