  0
SECTION
  2
HEADER
  9
$ACADVER
  1
AC1015
  9
$ACADMAINTVER
 70
     6
  9
$DWGCODEPAGE
  3
ANSI_932
  9
$INSBASE
 10
0.0
 20
0.0
 30
0.0
  9
$EXTMIN
 10
24.15634317284468
 20
-100.381652405145
 30
-0.00000001
  9
$EXTMAX
 10
735.0874637801978
 20
347.021179041286
 30
0.00000001
  9
$LIMMIN
 10
0.0
 20
0.0
  9
$LIMMAX
 10
420.0
 20
297.0
  9
$ORTHOMODE
 70
     0
  9
$REGENMODE
 70
     1
  9
$FILLMODE
 70
     1
  9
$QTEXTMODE
 70
     0
  9
$MIRRTEXT
 70
     1
  9
$LTSCALE
 40
1.0
  9
$ATTMODE
 70
     1
  9
$TEXTSIZE
 40
5.0
  9
$TRACEWID
 40
1.0
  9
$TEXTSTYLE
  7
OKANO
  9
$CLAYER
  8
中心線
  9
$CELTYPE
  6
ByLayer
  9
$CECOLOR
 62
   256
  9
$CELTSCALE
 40
1.0
  9
$DISPSILH
 70
     0
  9
$DIMSCALE
 40
0.0
  9
$DIMASZ
 40
3.0
  9
$DIMEXO
 40
2.0
  9
$DIMDLI
 40
8.0
  9
$DIMRND
 40
0.0
  9
$DIMDLE
 40
0.0
  9
$DIMEXE
 40
3.0
  9
$DIMTP
 40
0.0
  9
$DIMTM
 40
0.0
  9
$DIMTXT
 40
5.0
  9
$DIMCEN
 40
2.5
  9
$DIMTSZ
 40
0.0
  9
$DIMTOL
 70
     0
  9
$DIMLIM
 70
     0
  9
$DIMTIH
 70
     0
  9
$DIMTOH
 70
     0
  9
$DIMSE1
 70
     0
  9
$DIMSE2
 70
     0
  9
$DIMTAD
 70
     1
  9
$DIMZIN
 70
     8
  9
$DIMBLK
  1
Closed
  9
$DIMASO
 70
     1
  9
$DIMSHO
 70
     1
  9
$DIMPOST
  1

  9
$DIMAPOST
  1

  9
$DIMALT
 70
     0
  9
$DIMALTD
 70
     3
  9
$DIMALTF
 40
0.03937007874016
  9
$DIMLFAC
 40
1.0
  9
$DIMTOFL
 70
     1
  9
$DIMTVP
 40
0.0
  9
$DIMTIX
 70
     0
  9
$DIMSOXD
 70
     0
  9
$DIMSAH
 70
     0
  9
$DIMBLK1
  1

  9
$DIMBLK2
  1

  9
$DIMSTYLE
  2
sunpo
  9
$DIMCLRD
 70
     0
  9
$DIMCLRE
 70
     0
  9
$DIMCLRT
 70
     0
  9
$DIMTFAC
 40
1.0
  9
$DIMGAP
 40
1.0
  9
$DIMJUST
 70
     0
  9
$DIMSD1
 70
     0
  9
$DIMSD2
 70
     0
  9
$DIMTOLJ
 70
     0
  9
$DIMTZIN
 70
     8
  9
$DIMALTZ
 70
     0
  9
$DIMALTTZ
 70
     0
  9
$DIMUPT
 70
     0
  9
$DIMDEC
 70
     2
  9
$DIMTDEC
 70
     2
  9
$DIMALTU
 70
     2
  9
$DIMALTTD
 70
     3
  9
$DIMTXSTY
  7
OKANO
  9
$DIMAUNIT
 70
     0
  9
$DIMADEC
 70
     0
  9
$DIMALTRND
 40
0.0
  9
$DIMAZIN
 70
     0
  9
$DIMDSEP
 70
    46
  9
$DIMATFIT
 70
     3
  9
$DIMFRAC
 70
     0
  9
$DIMLDRBLK
  1
Closed
  9
$DIMLUNIT
 70
     2
  9
$DIMLWD
 70
    -2
  9
$DIMLWE
 70
    -2
  9
$DIMTMOVE
 70
     0
  9
$LUNITS
 70
     2
  9
$LUPREC
 70
     2
  9
$SKETCHINC
 40
1.0
  9
$FILLETRAD
 40
0.5
  9
$AUNITS
 70
     0
  9
$AUPREC
 70
     0
  9
$MENU
  1
.
  9
$ELEVATION
 40
0.0
  9
$PELEVATION
 40
0.0
  9
$THICKNESS
 40
0.0
  9
$LIMCHECK
 70
     0
  9
$CHAMFERA
 40
10.0
  9
$CHAMFERB
 40
10.0
  9
$CHAMFERC
 40
20.0
  9
$CHAMFERD
 40
0.0
  9
$SKPOLY
 70
     0
  9
$TDCREATE
 40
2452362.482225463
  9
$TDUCREATE
 40
2452362.107225463
  9
$TDUPDATE
 40
2455957.641873553
  9
$TDUUPDATE
 40
2455957.266873553
  9
$TDINDWG
 40
2.5761309491
  9
$TDUSRTIMER
 40
2.5761309491
  9
$USRTIMER
 70
     1
  9
$ANGBASE
 50
0.0
  9
$ANGDIR
 70
     0
  9
$PDMODE
 70
     0
  9
$PDSIZE
 40
0.0
  9
$PLINEWID
 40
0.0
  9
$SPLFRAME
 70
     0
  9
$SPLINETYPE
 70
     6
  9
$SPLINESEGS
 70
     8
  9
$HANDSEED
  5
354A
  9
$SURFTAB1
 70
     6
  9
$SURFTAB2
 70
     6
  9
$SURFTYPE
 70
     6
  9
$SURFU
 70
     6
  9
$SURFV
 70
     6
  9
$UCSBASE
  2

  9
$UCSNAME
  2

  9
$UCSORG
 10
0.0
 20
0.0
 30
0.0
  9
$UCSXDIR
 10
1.0
 20
0.0
 30
0.0
  9
$UCSYDIR
 10
0.0
 20
1.0
 30
0.0
  9
$UCSORTHOREF
  2

  9
$UCSORTHOVIEW
 70
     0
  9
$UCSORGTOP
 10
0.0
 20
0.0
 30
0.0
  9
$UCSORGBOTTOM
 10
0.0
 20
0.0
 30
0.0
  9
$UCSORGLEFT
 10
0.0
 20
0.0
 30
0.0
  9
$UCSORGRIGHT
 10
0.0
 20
0.0
 30
0.0
  9
$UCSORGFRONT
 10
0.0
 20
0.0
 30
0.0
  9
$UCSORGBACK
 10
0.0
 20
0.0
 30
0.0
  9
$PUCSBASE
  2

  9
$PUCSNAME
  2

  9
$PUCSORG
 10
0.0
 20
0.0
 30
0.0
  9
$PUCSXDIR
 10
1.0
 20
0.0
 30
0.0
  9
$PUCSYDIR
 10
0.0
 20
1.0
 30
0.0
  9
$PUCSORTHOREF
  2

  9
$PUCSORTHOVIEW
 70
     0
  9
$PUCSORGTOP
 10
0.0
 20
0.0
 30
0.0
  9
$PUCSORGBOTTOM
 10
0.0
 20
0.0
 30
0.0
  9
$PUCSORGLEFT
 10
0.0
 20
0.0
 30
0.0
  9
$PUCSORGRIGHT
 10
0.0
 20
0.0
 30
0.0
  9
$PUCSORGFRONT
 10
0.0
 20
0.0
 30
0.0
  9
$PUCSORGBACK
 10
0.0
 20
0.0
 30
0.0
  9
$USERI1
 70
     0
  9
$USERI2
 70
     0
  9
$USERI3
 70
     0
  9
$USERI4
 70
     0
  9
$USERI5
 70
     0
  9
$USERR1
 40
0.0
  9
$USERR2
 40
0.0
  9
$USERR3
 40
0.0
  9
$USERR4
 40
0.0
  9
$USERR5
 40
0.0
  9
$WORLDVIEW
 70
     1
  9
$SHADEDGE
 70
     3
  9
$SHADEDIF
 70
    70
  9
$TILEMODE
 70
     0
  9
$MAXACTVP
 70
    64
  9
$PINSBASE
 10
0.0
 20
0.0
 30
0.0
  9
$PLIMCHECK
 70
     0
  9
$PEXTMIN
 10
-4.391850629656119
 20
-3.455038652015446
 30
0.0
  9
$PEXTMAX
 10
278.8458837249377
 20
202.387980773708
 30
0.0
  9
$PLIMMIN
 10
-3.757080078125
 20
-3.757083177566528
  9
$PLIMMAX
 10
293.2112426757812
 20
206.2162444591522
  9
$UNITMODE
 70
     0
  9
$VISRETAIN
 70
     1
  9
$PLINEGEN
 70
     0
  9
$PSLTSCALE
 70
     1
  9
$TREEDEPTH
 70
  3020
  9
$CMLSTYLE
  2
Standard
  9
$CMLJUST
 70
     0
  9
$CMLSCALE
 40
20.0
  9
$PROXYGRAPHICS
 70
     1
  9
$MEASUREMENT
 70
     1
  9
$CELWEIGHT
370
    -1
  9
$ENDCAPS
280
     0
  9
$JOINSTYLE
280
     0
  9
$LWDISPLAY
290
     0
  9
$INSUNITS
 70
     4
  9
$HYPERLINKBASE
  1

  9
$STYLESHEET
  1

  9
$XEDIT
290
     1
  9
$CEPSNTYPE
380
     0
  9
$PSTYLEMODE
290
     1
  9
$FINGERPRINTGUID
  2
{FF7F33C3-4233-11D6-AEE0-0000F45FD7F4}
  9
$VERSIONGUID
  2
{26E82CB1-7857-4E83-82B7-708C66243EFC}
  9
$EXTNAMES
290
     1
  9
$PSVPSCALE
 40
0.0
  9
$OLESTARTUP
290
     0
  0
ENDSEC
  0
SECTION
  2
CLASSES
  0
CLASS
  1
ACDBDICTIONARYWDFLT
  2
AcDbDictionaryWithDefault
  3
AutoCAD 2000
 90
        0
280
     0
281
     0
  0
CLASS
  1
ACDBPLACEHOLDER
  2
AcDbPlaceHolder
  3
AutoCAD 2000
 90
        0
280
     0
281
     0
  0
CLASS
  1
LAYOUT
  2
AcDbLayout
  3
AutoCAD 2000
 90
        0
280
     0
281
     0
  0
CLASS
  1
DICTIONARYVAR
  2
AcDbDictionaryVar
  3
AutoCAD 2000
 90
        0
280
     0
281
     0
  0
ENDSEC
  0
SECTION
  2
TABLES
  0
TABLE
  2
VPORT
  5
8
330
0
100
AcDbSymbolTable
 70
     2
  0
VPORT
  5
3549
330
8
100
AcDbSymbolTableRecord
100
AcDbViewportTableRecord
  2
*Active
 70
     0
 10
0.0
 20
0.0
 11
1.0
 21
1.0
 12
750.5040575784075
 22
398.5389173007747
 13
0.0
 23
0.0
 14
5.0
 24
5.0
 15
10.0
 25
10.0
 16
0.0
 26
0.0
 36
1.0
 17
0.0
 27
0.0
 37
0.0
 40
661.4909476747284
 41
1.968879668049792
 42
50.0
 43
0.0
 44
0.0
 50
0.0
 51
0.0
 71
     0
 72
   100
 73
     1
 74
     3
 75
     0
 76
     0
 77
     0
 78
     0
281
     0
 65
     1
110
0.0
120
0.0
130
0.0
111
1.0
121
0.0
131
0.0
112
0.0
122
1.0
132
0.0
 79
     0
146
0.0
  0
ENDTAB
  0
TABLE
  2
LTYPE
  5
5
330
0
100
AcDbSymbolTable
 70
     5
  0
LTYPE
  5
14
330
5
100
AcDbSymbolTableRecord
100
AcDbLinetypeTableRecord
  2
ByBlock
 70
     0
  3

 72
    65
 73
     0
 40
0.0
  0
LTYPE
  5
15
330
5
100
AcDbSymbolTableRecord
100
AcDbLinetypeTableRecord
  2
ByLayer
 70
     0
  3

 72
    65
 73
     0
 40
0.0
  0
LTYPE
  5
16
330
5
100
AcDbSymbolTableRecord
100
AcDbLinetypeTableRecord
  2
Continuous
 70
     0
  3
Solid line
 72
    65
 73
     0
 40
0.0
  0
LTYPE
  5
33
330
5
100
AcDbSymbolTableRecord
100
AcDbLinetypeTableRecord
  2
DASHED2
 70
     0
  3
Dashed (.5x) _ _ _ _ _ _ _ _ _ _ _ _ _ _ _ _ _
 72
    65
 73
     2
 40
9.524999999999998
 49
6.349999999999999
 74
     0
 49
-3.174999999999999
 74
     0
  0
LTYPE
  5
34
330
5
100
AcDbSymbolTableRecord
100
AcDbLinetypeTableRecord
  2
CENTER2
 70
     0
  3
Center (.5x) ___ _ ___ _ ___ _ ___ _ ___ _ ___
 72
    65
 73
     4
 40
28.57499999999999
 49
19.05
 74
     0
 49
-3.174999999999999
 74
     0
 49
3.174999999999999
 74
     0
 49
-3.174999999999999
 74
     0
  0
LTYPE
  5
35
330
5
100
AcDbSymbolTableRecord
100
AcDbLinetypeTableRecord
  2
PHANTOM2
 70
     0
  3
Phantom (.5x) ___ _ _ ___ _ _ ___ _ _ ___ _ _
 72
    65
 73
     6
 40
31.75
 49
15.875
 74
     0
 49
-3.174999999999999
 74
     0
 49
3.174999999999999
 74
     0
 49
-3.174999999999999
 74
     0
 49
3.174999999999999
 74
     0
 49
-3.174999999999999
 74
     0
  0
LTYPE
  5
36
330
5
100
AcDbSymbolTableRecord
100
AcDbLinetypeTableRecord
  2
HIDDEN2
 70
     0
  3
Hidden (.5x) _ _ _ _ _ _ _ _ _ _ _ _ _ _ _ _ _
 72
    65
 73
     2
 40
4.762499999999999
 49
3.174999999999999
 74
     0
 49
-1.587499999999999
 74
     0
  0
ENDTAB
  0
TABLE
  2
LAYER
  5
2
330
0
100
AcDbSymbolTable
 70
    13
  0
LAYER
  5
10
330
2
100
AcDbSymbolTableRecord
100
AcDbLayerTableRecord
  2
0
 70
     0
 62
     7
  6
Continuous
370
    -3
390
F
  0
LAYER
  5
40
330
2
100
AcDbSymbolTableRecord
100
AcDbLayerTableRecord
  2
50-0-CON
 70
     0
 62
     4
  6
Continuous
370
    50
390
F
  0
LAYER
  5
41
330
2
100
AcDbSymbolTableRecord
100
AcDbLayerTableRecord
  2
70-0-CON
 70
     0
 62
   202
  6
Continuous
370
    70
390
F
  0
LAYER
  5
4E
330
2
100
AcDbSymbolTableRecord
100
AcDbLayerTableRecord
  2
極太線
 70
     0
 62
     7
  6
Continuous
370
    70
390
F
  0
LAYER
  5
4F
330
2
100
AcDbSymbolTableRecord
100
AcDbLayerTableRecord
  2
細線
 70
     0
 62
     8
  6
Continuous
370
    18
390
F
  0
LAYER
  5
AB
330
2
100
AcDbSymbolTableRecord
100
AcDbLayerTableRecord
  2
構築線
 70
     0
 62
     2
  6
Continuous
290
     0
370
    18
390
F
  0
LAYER
  5
B8
330
2
100
AcDbSymbolTableRecord
100
AcDbLayerTableRecord
  2
太線
 70
     0
 62
     7
  6
Continuous
370
    35
390
F
  0
LAYER
  5
B9
330
2
100
AcDbSymbolTableRecord
100
AcDbLayerTableRecord
  2
寸法線
 70
     0
 62
     5
  6
Continuous
370
    18
390
F
  0
LAYER
  5
BA
330
2
100
AcDbSymbolTableRecord
100
AcDbLayerTableRecord
  2
破線
 70
     0
 62
     8
  6
HIDDEN2
370
    18
390
F
  0
LAYER
  5
BB
330
2
100
AcDbSymbolTableRecord
100
AcDbLayerTableRecord
  2
中心線
 70
     0
 62
     1
  6
CENTER2
370
    18
390
F
  0
LAYER
  5
BC
330
2
100
AcDbSymbolTableRecord
100
AcDbLayerTableRecord
  2
想像線
 70
     0
 62
     8
  6
PHANTOM2
370
    18
390
F
  0
LAYER
  5
BD
330
2
100
AcDbSymbolTableRecord
100
AcDbLayerTableRecord
  2
文字
 70
     0
 62
     7
  6
Continuous
370
    18
390
F
  0
LAYER
  5
180
330
2
100
AcDbSymbolTableRecord
100
AcDbLayerTableRecord
  2
Defpoints
 70
     0
 62
     7
  6
Continuous
290
     0
370
    -3
390
F
  0
ENDTAB
  0
TABLE
  2
STYLE
  5
3
330
0
100
AcDbSymbolTable
 70
     3
  0
STYLE
  5
11
330
3
100
AcDbSymbolTableRecord
100
AcDbTextStyleTableRecord
  2
Standard
 70
     0
 40
0.0
 41
1.0
 50
0.0
 71
     0
 42
3.0
  3
txt
  4

  0
STYLE
  5
32
330
3
100
AcDbSymbolTableRecord
100
AcDbTextStyleTableRecord
  2

 70
     1
 40
0.0
 41
1.0
 50
0.0
 71
     0
 42
2.5
  3
ltypeshp.shx
  4

  0
STYLE
  5
50
330
3
100
AcDbSymbolTableRecord
100
AcDbTextStyleTableRecord
  2
OKANO
 70
     0
 40
0.0
 41
1.0
 50
15.0
 71
     0
 42
5.0
  3
isocp.shx
  4
bigfont.shx
  0
ENDTAB
  0
TABLE
  2
VIEW
  5
6
330
0
100
AcDbSymbolTable
 70
     0
  0
ENDTAB
  0
TABLE
  2
UCS
  5
7
330
0
100
AcDbSymbolTable
 70
     0
  0
ENDTAB
  0
TABLE
  2
APPID
  5
9
330
0
100
AcDbSymbolTable
 70
     1
  0
APPID
  5
12
330
9
100
AcDbSymbolTableRecord
100
AcDbRegAppTableRecord
  2
ACAD
 70
     0
  0
ENDTAB
  0
TABLE
  2
DIMSTYLE
  5
A
330
0
100
AcDbSymbolTable
 70
     2
100
AcDbDimStyleTable
 71
     2
340
A2
340
27
  0
DIMSTYLE
105
27
330
A
100
AcDbSymbolTableRecord
100
AcDbDimStyleTableRecord
  2
ISO-25
 70
     0
 41
2.5
 42
0.625
 43
3.75
 44
1.25
 73
     0
 74
     0
 77
     1
 78
     8
140
2.5
141
2.5
143
0.03937007874016
147
0.625
171
     3
172
     1
271
     2
272
     2
274
     3
283
     0
284
     8
340
11
  0
DIMSTYLE
105
A2
102
{ACAD_REACTORS
330
321E
330
322B
330
3238
330
3245
330
3251
330
3287
330
352C
102
}
330
A
100
AcDbSymbolTableRecord
100
AcDbDimStyleTableRecord
  2
sunpo
 70
     0
 40
0.0
 41
3.0
 42
2.0
 43
8.0
 44
3.0
 73
     0
 74
     0
 77
     1
 78
     8
140
5.0
141
2.5
143
0.03937007874016
147
1.0
171
     3
172
     1
271
     2
272
     2
274
     3
283
     0
284
     8
340
50
341
9B
342
9B
  0
ENDTAB
  0
TABLE
  2
BLOCK_RECORD
  5
1
330
0
100
AcDbSymbolTable
 70
    10
  0
BLOCK_RECORD
  5
1F
330
1
100
AcDbSymbolTableRecord
100
AcDbBlockTableRecord
  2
*Model_Space
340
22
  0
BLOCK_RECORD
  5
1B
330
1
100
AcDbSymbolTableRecord
100
AcDbBlockTableRecord
  2
*Paper_Space
340
1E
  0
BLOCK_RECORD
  5
9B
330
1
100
AcDbSymbolTableRecord
100
AcDbBlockTableRecord
  2
_Closed
340
0
102
{BLKREFS
331
3230
331
3231
331
324B
331
324C
331
326D
331
326E
331
327F
331
3280
331
32AD
331
32AE
331
34CF
331
34D0
331
353C
331
353D
102
}
  0
BLOCK_RECORD
  5
1510
330
1
100
AcDbSymbolTableRecord
100
AcDbBlockTableRecord
  2
A$C10A573AC
340
0
  0
BLOCK_RECORD
  5
321F
330
1
100
AcDbSymbolTableRecord
100
AcDbBlockTableRecord
  2
*D2
340
0
  0
BLOCK_RECORD
  5
322C
330
1
100
AcDbSymbolTableRecord
100
AcDbBlockTableRecord
  2
*D3
340
0
  0
BLOCK_RECORD
  5
3239
330
1
100
AcDbSymbolTableRecord
100
AcDbBlockTableRecord
  2
*D4
340
0
  0
BLOCK_RECORD
  5
3246
330
1
100
AcDbSymbolTableRecord
100
AcDbBlockTableRecord
  2
*D5
340
0
  0
BLOCK_RECORD
  5
3252
330
1
100
AcDbSymbolTableRecord
100
AcDbBlockTableRecord
  2
*D6
340
0
  0
BLOCK_RECORD
  5
3288
330
1
100
AcDbSymbolTableRecord
100
AcDbBlockTableRecord
  2
*D7
340
0
  0
BLOCK_RECORD
  5
350C
330
1
100
AcDbSymbolTableRecord
100
AcDbBlockTableRecord
  2
A$C25BC611D
340
0
  0
BLOCK_RECORD
  5
352D
330
1
100
AcDbSymbolTableRecord
100
AcDbBlockTableRecord
  2
*D9
340
0
  0
ENDTAB
  0
ENDSEC
  0
SECTION
  2
BLOCKS
  0
BLOCK
  5
20
330
1F
100
AcDbEntity
  8
0
100
AcDbBlockBegin
  2
*Model_Space
 70
     0
 10
0.0
 20
0.0
 30
0.0
  3
*Model_Space
  1

  0
ENDBLK
  5
21
330
1F
100
AcDbEntity
  8
0
100
AcDbBlockEnd
  0
BLOCK
  5
1C
330
1B
100
AcDbEntity
 67
     1
  8
0
100
AcDbBlockBegin
  2
*Paper_Space
 70
     0
 10
0.0
 20
0.0
 30
0.0
  3
*Paper_Space
  1

  0
ENDBLK
  5
1D
330
1B
100
AcDbEntity
 67
     1
  8
0
100
AcDbBlockEnd
  0
BLOCK
  5
A0
330
9B
100
AcDbEntity
  8
0
100
AcDbBlockBegin
  2
_Closed
 70
     0
 10
0.0
 20
0.0
 30
0.0
  3
_Closed
  1

  0
LINE
  5
9C
330
9B
100
AcDbEntity
  8
0
 62
     0
370
    -2
100
AcDbLine
 10
-1.0
 20
0.1666666666666666
 30
0.0
 11
0.0
 21
0.0
 31
0.0
  0
LINE
  5
9D
330
9B
100
AcDbEntity
  8
0
 62
     0
370
    -2
100
AcDbLine
 10
0.0
 20
0.0
 30
0.0
 11
-1.0
 21
-0.1666666666666666
 31
0.0
  0
LINE
  5
9E
330
9B
100
AcDbEntity
  8
0
 62
     0
370
    -2
100
AcDbLine
 10
-1.0
 20
0.1666666666666666
 30
0.0
 11
-1.0
 21
-0.1666666666666666
 31
0.0
  0
LINE
  5
9F
330
9B
100
AcDbEntity
  8
0
 62
     0
370
    -2
100
AcDbLine
 10
0.0
 20
0.0
 30
0.0
 11
-1.0
 21
0.0
 31
0.0
  0
ENDBLK
  5
A1
330
9B
100
AcDbEntity
  8
0
100
AcDbBlockEnd
  0
BLOCK
  5
155B
330
1510
100
AcDbEntity
  8
0
100
AcDbBlockBegin
  2
A$C10A573AC
 70
     0
 10
0.0
 20
0.0
 30
0.0
  3
A$C10A573AC
  1

  0
TEXT
  5
1511
330
1510
100
AcDbEntity
  8
文字
100
AcDbText
 10
0.9844302777919438
 20
5.224957122252135
 30
0.0
 40
3.0
  1
Materal : Steel.
 51
15.0
  7
OKANO
100
AcDbText
  0
TEXT
  5
1512
330
1510
100
AcDbEntity
  8
文字
100
AcDbText
 10
-0.1141909619694843
 20
0.7500001922403499
 30
0.0
 40
3.0
  1
Surface treatment : Electro galvanized.
 51
15.0
  7
OKANO
100
AcDbText
  0
TEXT
  5
1513
330
1510
100
AcDbEntity
  8
文字
100
AcDbText
 10
-0.4901926332574931
 20
9.159967445193728
 30
0.0
 40
3.0
  1
5 TORGUE SCREW  M5-6
 51
15.0
  7
OKANO
100
AcDbText
  0
TEXT
  5
1514
330
1510
100
AcDbEntity
  8
文字
100
AcDbText
 10
1.364713526390005
 20
78.88822913323082
 30
0.0
 40
3.0
  1
Special standard,
 51
15.0
  7
OKANO
100
AcDbText
  0
TEXT
  5
1515
330
1510
100
AcDbEntity
  8
文字
100
AcDbText
 10
92.88160823408942
 20
89.92753849837379
 30
0.0
 40
3.0
  1
Screw Type
 51
15.0
  7
OKANO
100
AcDbText
  0
LINE
  5
1516
330
1510
100
AcDbEntity
  8
太線
100
AcDbLine
 10
113.9464587597784
 20
81.93930390144641
 30
0.0
 11
112.4464587597784
 21
81.93930390144641
 31
0.0
  0
LINE
  5
1517
330
1510
100
AcDbEntity
  8
太線
100
AcDbLine
 10
112.4464587597784
 20
76.9393039014464
 30
0.0
 11
121.4644995438761
 21
76.9393039014464
 31
0.0
  0
TEXT
  5
1518
330
1510
100
AcDbEntity
  8
文字
100
AcDbText
 10
93.46068240437217
 20
77.96976862235396
 30
0.0
 40
2.0
  1
17-30
 51
15.0
  7
OKANO
100
AcDbText
  0
LINE
  5
1519
330
1510
100
AcDbEntity
  8
太線
100
AcDbLine
 10
111.9464587597784
 20
81.43930390144641
 30
0.0
 11
111.9464587597784
 21
77.4393039014464
 31
0.0
  0
LINE
  5
151A
330
1510
100
AcDbEntity
  8
太線
100
AcDbLine
 10
91.94645875977846
 20
81.43930390144641
 30
0.0
 11
91.94645875977846
 21
77.43930390144639
 31
0.0
  0
LINE
  5
151B
330
1510
100
AcDbEntity
  8
太線
100
AcDbLine
 10
101.9644995438761
 20
77.4393039014464
 30
0.0
 11
101.9644995438761
 21
81.43930390144641
 31
0.0
  0
LINE
  5
151C
330
1510
100
AcDbEntity
  8
太線
100
AcDbLine
 10
92.44645875977846
 20
76.9393039014464
 30
0.0
 11
101.4644995438761
 21
76.9393039014464
 31
0.0
  0
ARC
  5
151D
330
1510
100
AcDbEntity
  8
太線
100
AcDbCircle
 10
92.44645875977846
 20
77.43930390144639
 30
0.0
 40
0.5
100
AcDbArc
 50
180.0
 51
270.0
  0
ARC
  5
151E
330
1510
100
AcDbEntity
  8
太線
100
AcDbCircle
 10
101.4644995438761
 20
77.4393039014464
 30
0.0
 40
0.5
100
AcDbArc
 50
270.0
 51
0.0
  0
ARC
  5
151F
330
1510
100
AcDbEntity
  8
太線
100
AcDbCircle
 10
112.4464587597784
 20
77.4393039014464
 30
0.0
 40
0.5
100
AcDbArc
 50
180.0
 51
270.0
  0
LINE
  5
1520
330
1510
100
AcDbEntity
  8
想像線
100
AcDbLine
 10
93.94645875977847
 20
81.93930390144641
 30
0.0
 11
99.96449954387617
 21
81.93930390144641
 31
0.0
  0
LINE
  5
1521
330
1510
100
AcDbEntity
  8
極太線
100
AcDbLine
 10
96.38762957111168
 20
85.43930390144641
 30
0.0
 11
97.50528794844525
 21
85.43930390144641
 31
0.0
  0
CIRCLE
  5
1522
330
1510
100
AcDbEntity
  8
太線
100
AcDbCircle
 10
96.94645875977847
 20
85.43930390144641
 30
0.0
 40
0.5588291886667776
  0
LINE
  5
1523
330
1510
100
AcDbEntity
  8
太線
100
AcDbLine
 10
99.46449954387617
 20
86.93930390144641
 30
0.0
 11
94.44645875977846
 21
86.93930390144641
 31
0.0
  0
LINE
  5
1524
330
1510
100
AcDbEntity
  8
太線
100
AcDbLine
 10
93.94645875977847
 20
86.43930390144641
 30
0.0
 11
93.94645875977847
 21
81.93930390144641
 31
0.0
  0
ARC
  5
1525
330
1510
100
AcDbEntity
  8
太線
100
AcDbCircle
 10
92.44645875977846
 20
81.43930390144641
 30
0.0
 40
0.5
100
AcDbArc
 50
90.0
 51
180.0
  0
LINE
  5
1526
330
1510
100
AcDbEntity
  8
太線
100
AcDbLine
 10
93.94645875977847
 20
81.93930390144641
 30
0.0
 11
92.44645875977846
 21
81.93930390144641
 31
0.0
  0
ARC
  5
1527
330
1510
100
AcDbEntity
  8
太線
100
AcDbCircle
 10
94.44645875977846
 20
86.43930390144641
 30
0.0
 40
0.5
100
AcDbArc
 50
90.0
 51
180.0
  0
LINE
  5
1528
330
1510
100
AcDbEntity
  8
太線
100
AcDbLine
 10
99.96449954387617
 20
81.93930390144641
 30
0.0
 11
99.96449954387617
 21
86.43930390144641
 31
0.0
  0
LINE
  5
1529
330
1510
100
AcDbEntity
  8
太線
100
AcDbLine
 10
101.4644995438761
 20
81.93930390144641
 30
0.0
 11
99.96449954387617
 21
81.93930390144641
 31
0.0
  0
ARC
  5
152A
330
1510
100
AcDbEntity
  8
太線
100
AcDbCircle
 10
101.4644995438761
 20
81.43930390144641
 30
0.0
 40
0.5
100
AcDbArc
 50
0.0
 51
90.0
  0
ARC
  5
152B
330
1510
100
AcDbEntity
  8
太線
100
AcDbCircle
 10
99.46449954387617
 20
86.43930390144641
 30
0.0
 40
0.5
100
AcDbArc
 50
0.0
 51
90.0
  0
LINE
  5
152C
330
1510
100
AcDbEntity
  8
極太線
100
AcDbLine
 10
96.94645875977847
 20
85.99813309011318
 30
0.0
 11
96.94645875977847
 21
84.88047471277964
 31
0.0
  0
ARC
  5
152D
330
1510
100
AcDbEntity
  8
太線
100
AcDbCircle
 10
112.4464587597784
 20
81.43930390144641
 30
0.0
 40
0.5
100
AcDbArc
 50
90.0
 51
180.0
  0
TEXT
  5
152E
330
1510
100
AcDbEntity
  8
文字
100
AcDbText
 10
134.3819212586066
 20
78.16263579228063
 30
0.0
 40
2.0
  1
101
 51
15.0
  7
OKANO
100
AcDbText
  0
TEXT
  5
152F
330
1510
100
AcDbEntity
  8
文字
100
AcDbText
 10
113.3422276612066
 20
77.96976862235396
 30
0.0
 40
2.0
  1
38-83
 51
15.0
  7
OKANO
100
AcDbText
  0
LINE
  5
1530
330
1510
100
AcDbEntity
  8
太線
100
AcDbLine
 10
141.9825403279738
 20
77.4393039014464
 30
0.0
 11
141.9825403279738
 21
81.43930390144641
 31
0.0
  0
LINE
  5
1531
330
1510
100
AcDbEntity
  8
太線
100
AcDbLine
 10
131.9644995438761
 20
81.43930390144641
 30
0.0
 11
131.9644995438761
 21
77.4393039014464
 31
0.0
  0
LINE
  5
1532
330
1510
100
AcDbEntity
  8
太線
100
AcDbLine
 10
121.9644995438761
 20
77.4393039014464
 30
0.0
 11
121.9644995438761
 21
81.43930390144641
 31
0.0
  0
ARC
  5
1533
330
1510
100
AcDbEntity
  8
太線
100
AcDbCircle
 10
121.4644995438761
 20
77.4393039014464
 30
0.0
 40
0.5
100
AcDbArc
 50
270.0
 51
0.0
  0
LINE
  5
1534
330
1510
100
AcDbEntity
  8
太線
100
AcDbLine
 10
132.4644995438761
 20
76.9393039014464
 30
0.0
 11
141.4825403279738
 21
76.9393039014464
 31
0.0
  0
ARC
  5
1535
330
1510
100
AcDbEntity
  8
太線
100
AcDbCircle
 10
132.4644995438761
 20
77.4393039014464
 30
0.0
 40
0.5
100
AcDbArc
 50
180.0
 51
270.0
  0
ARC
  5
1536
330
1510
100
AcDbEntity
  8
太線
100
AcDbCircle
 10
141.4825403279738
 20
77.4393039014464
 30
0.0
 40
0.5
100
AcDbArc
 50
270.0
 51
0.0
  0
ARC
  5
1537
330
1510
100
AcDbEntity
  8
太線
100
AcDbCircle
 10
121.4644995438761
 20
81.43930390144641
 30
0.0
 40
0.5
100
AcDbArc
 50
0.0
 51
90.0
  0
LINE
  5
1538
330
1510
100
AcDbEntity
  8
太線
100
AcDbLine
 10
119.9644995438761
 20
81.93930390144641
 30
0.0
 11
119.9644995438761
 21
86.43930390144641
 31
0.0
  0
LINE
  5
1539
330
1510
100
AcDbEntity
  8
太線
100
AcDbLine
 10
113.9464587597784
 20
86.43930390144641
 30
0.0
 11
113.9464587597784
 21
81.93930390144641
 31
0.0
  0
LINE
  5
153A
330
1510
100
AcDbEntity
  8
想像線
100
AcDbLine
 10
113.9464587597784
 20
81.93930390144641
 30
0.0
 11
119.9644995438761
 21
81.93930390144641
 31
0.0
  0
LINE
  5
153B
330
1510
100
AcDbEntity
  8
太線
100
AcDbLine
 10
121.4644995438761
 20
81.93930390144641
 30
0.0
 11
119.9644995438761
 21
81.93930390144641
 31
0.0
  0
LINE
  5
153C
330
1510
100
AcDbEntity
  8
太線
100
AcDbLine
 10
119.4644995438761
 20
86.93930390144641
 30
0.0
 11
114.4464587597784
 21
86.93930390144641
 31
0.0
  0
ARC
  5
153D
330
1510
100
AcDbEntity
  8
太線
100
AcDbCircle
 10
114.4464587597784
 20
86.43930390144641
 30
0.0
 40
0.5
100
AcDbArc
 50
90.0
 51
180.0
  0
CIRCLE
  5
153E
330
1510
100
AcDbEntity
  8
太線
100
AcDbCircle
 10
115.4464587597784
 20
85.43930390144641
 30
0.0
 40
0.5588291886667776
  0
LINE
  5
153F
330
1510
100
AcDbEntity
  8
極太線
100
AcDbLine
 10
115.4464587597784
 20
85.99813309011318
 30
0.0
 11
115.4464587597784
 21
84.88047471277964
 31
0.0
  0
LINE
  5
1540
330
1510
100
AcDbEntity
  8
極太線
100
AcDbLine
 10
114.8876295711116
 20
85.43930390144641
 30
0.0
 11
116.0052879484452
 21
85.43930390144641
 31
0.0
  0
ARC
  5
1541
330
1510
100
AcDbEntity
  8
太線
100
AcDbCircle
 10
119.4644995438761
 20
86.43930390144641
 30
0.0
 40
0.5
100
AcDbArc
 50
0.0
 51
90.0
  0
LINE
  5
1542
330
1510
100
AcDbEntity
  8
極太線
100
AcDbLine
 10
117.9056703552094
 20
85.43930390144641
 30
0.0
 11
119.0233287325429
 21
85.43930390144641
 31
0.0
  0
LINE
  5
1543
330
1510
100
AcDbEntity
  8
極太線
100
AcDbLine
 10
118.4644995438761
 20
85.99813309011318
 30
0.0
 11
118.4644995438761
 21
84.88047471277964
 31
0.0
  0
CIRCLE
  5
1544
330
1510
100
AcDbEntity
  8
太線
100
AcDbCircle
 10
118.4644995438761
 20
85.43930390144641
 30
0.0
 40
0.5588291886667776
  0
LINE
  5
1545
330
1510
100
AcDbEntity
  8
想像線
100
AcDbLine
 10
133.9644995438761
 20
81.93930390144641
 30
0.0
 11
139.9825403279738
 21
81.93930390144641
 31
0.0
  0
LINE
  5
1546
330
1510
100
AcDbEntity
  8
極太線
100
AcDbLine
 10
137.9237111393071
 20
85.43930390144641
 30
0.0
 11
139.0413695166406
 21
85.43930390144641
 31
0.0
  0
CIRCLE
  5
1547
330
1510
100
AcDbEntity
  8
太線
100
AcDbCircle
 10
138.4825403279738
 20
85.43930390144641
 30
0.0
 40
0.5588291886667776
  0
CIRCLE
  5
1548
330
1510
100
AcDbEntity
  8
太線
100
AcDbCircle
 10
138.4825403279738
 20
83.26342923362075
 30
0.0
 40
0.5588291886667776
  0
LINE
  5
1549
330
1510
100
AcDbEntity
  8
極太線
100
AcDbLine
 10
137.9237111393071
 20
83.26342923362075
 30
0.0
 11
139.0413695166406
 21
83.26342923362075
 31
0.0
  0
LINE
  5
154A
330
1510
100
AcDbEntity
  8
太線
100
AcDbLine
 10
139.4825403279738
 20
86.93930390144641
 30
0.0
 11
134.4644995438761
 21
86.93930390144641
 31
0.0
  0
LINE
  5
154B
330
1510
100
AcDbEntity
  8
太線
100
AcDbLine
 10
133.9644995438761
 20
86.43930390144641
 30
0.0
 11
133.9644995438761
 21
81.93930390144641
 31
0.0
  0
ARC
  5
154C
330
1510
100
AcDbEntity
  8
太線
100
AcDbCircle
 10
132.4644995438761
 20
81.43930390144641
 30
0.0
 40
0.5
100
AcDbArc
 50
90.0
 51
180.0
  0
LINE
  5
154D
330
1510
100
AcDbEntity
  8
太線
100
AcDbLine
 10
133.9644995438761
 20
81.93930390144641
 30
0.0
 11
132.4644995438761
 21
81.93930390144641
 31
0.0
  0
LINE
  5
154E
330
1510
100
AcDbEntity
  8
極太線
100
AcDbLine
 10
134.9056703552093
 20
83.26342923362075
 30
0.0
 11
136.0233287325429
 21
83.26342923362075
 31
0.0
  0
LINE
  5
154F
330
1510
100
AcDbEntity
  8
極太線
100
AcDbLine
 10
135.4644995438761
 20
83.82225842228752
 30
0.0
 11
135.4644995438761
 21
82.70460004495395
 31
0.0
  0
CIRCLE
  5
1550
330
1510
100
AcDbEntity
  8
太線
100
AcDbCircle
 10
135.4644995438761
 20
83.26342923362075
 30
0.0
 40
0.5588291886667776
  0
ARC
  5
1551
330
1510
100
AcDbEntity
  8
太線
100
AcDbCircle
 10
134.4644995438761
 20
86.43930390144641
 30
0.0
 40
0.5
100
AcDbArc
 50
90.0
 51
180.0
  0
CIRCLE
  5
1552
330
1510
100
AcDbEntity
  8
太線
100
AcDbCircle
 10
135.4644995438761
 20
85.43930390144641
 30
0.0
 40
0.5588291886667776
  0
LINE
  5
1553
330
1510
100
AcDbEntity
  8
極太線
100
AcDbLine
 10
135.4644995438761
 20
85.99813309011318
 30
0.0
 11
135.4644995438761
 21
84.88047471277964
 31
0.0
  0
LINE
  5
1554
330
1510
100
AcDbEntity
  8
極太線
100
AcDbLine
 10
134.9056703552093
 20
85.43930390144641
 30
0.0
 11
136.0233287325429
 21
85.43930390144641
 31
0.0
  0
LINE
  5
1555
330
1510
100
AcDbEntity
  8
太線
100
AcDbLine
 10
139.9825403279738
 20
81.93930390144641
 30
0.0
 11
139.9825403279738
 21
86.43930390144641
 31
0.0
  0
ARC
  5
1556
330
1510
100
AcDbEntity
  8
太線
100
AcDbCircle
 10
141.4825403279738
 20
81.43930390144641
 30
0.0
 40
0.5
100
AcDbArc
 50
0.0
 51
90.0
  0
LINE
  5
1557
330
1510
100
AcDbEntity
  8
極太線
100
AcDbLine
 10
138.4825403279738
 20
83.82225842228752
 30
0.0
 11
138.4825403279738
 21
82.70460004495395
 31
0.0
  0
LINE
  5
1558
330
1510
100
AcDbEntity
  8
太線
100
AcDbLine
 10
141.4825403279738
 20
81.93930390144641
 30
0.0
 11
139.9825403279738
 21
81.93930390144641
 31
0.0
  0
ARC
  5
1559
330
1510
100
AcDbEntity
  8
太線
100
AcDbCircle
 10
139.4825403279738
 20
86.43930390144641
 30
0.0
 40
0.5
100
AcDbArc
 50
0.0
 51
90.0
  0
LINE
  5
155A
330
1510
100
AcDbEntity
  8
極太線
100
AcDbLine
 10
138.4825403279738
 20
85.99813309011318
 30
0.0
 11
138.4825403279738
 21
84.88047471277964
 31
0.0
  0
ENDBLK
  5
155C
330
1510
100
AcDbEntity
  8
0
100
AcDbBlockEnd
  0
BLOCK
  5
3229
330
321F
100
AcDbEntity
  8
0
100
AcDbBlockBegin
  2
*D2
 70
     1
 10
0.0
 20
0.0
 30
0.0
  3
*D2
  1

  0
LINE
  5
34CC
330
321F
100
AcDbEntity
  8
寸法線
 62
     0
370
    -2
100
AcDbLine
 10
468.4503937957065
 20
236.6936550812611
 30
0.0
 11
468.4503937957065
 21
221.6592659550594
 31
0.0
  0
LINE
  5
34CD
330
321F
100
AcDbEntity
  8
寸法線
 62
     0
370
    -2
100
AcDbLine
 10
628.2650931239782
 20
236.6936550812611
 30
0.0
 11
628.2650931239782
 21
221.6592659550594
 31
0.0
  0
LINE
  5
34CE
330
321F
100
AcDbEntity
  8
寸法線
 62
     0
370
    -2
100
AcDbLine
 10
471.4503937957065
 20
224.6592659550594
 30
0.0
 11
625.2650931239782
 21
224.6592659550594
 31
0.0
  0
INSERT
  5
34CF
330
321F
100
AcDbEntity
  8
寸法線
 62
     0
370
    -2
100
AcDbBlockReference
  2
_Closed
 10
468.4503937957065
 20
224.6592659550594
 30
0.0
 41
3.0
 42
3.0
 43
3.0
 50
180.0
  0
INSERT
  5
34D0
330
321F
100
AcDbEntity
  8
寸法線
 62
     0
370
    -2
100
AcDbBlockReference
  2
_Closed
 10
628.2650931239782
 20
224.6592659550594
 30
0.0
 41
3.0
 42
3.0
 43
3.0
  0
MTEXT
  5
34D1
330
321F
100
AcDbEntity
  8
寸法線
 62
     0
100
AcDbMText
 10
548.3577434598423
 20
228.1592659550594
 30
0.0
 40
5.0
 41
0.0
 71
     5
 72
     1
  1
160
  7
OKANO
 73
     1
 44
1.0
  0
POINT
  5
34D2
330
321F
100
AcDbEntity
  8
Defpoints
 62
     0
100
AcDbPoint
 10
468.4503937957065
 20
238.6936550812611
 30
0.0
  0
POINT
  5
34D3
330
321F
100
AcDbEntity
  8
Defpoints
 62
     0
100
AcDbPoint
 10
628.2650931239782
 20
238.6936550812611
 30
0.0
  0
POINT
  5
34D4
330
321F
100
AcDbEntity
  8
Defpoints
 62
     0
100
AcDbPoint
 10
628.2650931239782
 20
224.6592659550594
 30
0.0
  0
ENDBLK
  5
322A
330
321F
100
AcDbEntity
  8
0
100
AcDbBlockEnd
  0
BLOCK
  5
3236
330
322C
100
AcDbEntity
  8
0
100
AcDbBlockBegin
  2
*D3
 70
     1
 10
0.0
 20
0.0
 30
0.0
  3
*D3
  1

  0
LINE
  5
322D
330
322C
100
AcDbEntity
  8
寸法線
 62
     0
370
    -2
100
AcDbLine
 10
673.3575268950703
 20
273.5095612612193
 30
0.0
 11
673.3575268950703
 21
298.415977799659
 31
0.0
  0
LINE
  5
322E
330
322C
100
AcDbEntity
  8
寸法線
 62
     0
370
    -2
100
AcDbLine
 10
703.3575268950703
 20
273.5095612612193
 30
0.0
 11
703.3575268950703
 21
298.415977799659
 31
0.0
  0
LINE
  5
322F
330
322C
100
AcDbEntity
  8
寸法線
 62
     0
370
    -2
100
AcDbLine
 10
676.3575268950703
 20
295.415977799659
 30
0.0
 11
700.3575268950704
 21
295.415977799659
 31
0.0
  0
INSERT
  5
3230
330
322C
100
AcDbEntity
  8
寸法線
 62
     0
370
    -2
100
AcDbBlockReference
  2
_Closed
 10
673.3575268950703
 20
295.415977799659
 30
0.0
 41
3.0
 42
3.0
 43
3.0
 50
180.0
  0
INSERT
  5
3231
330
322C
100
AcDbEntity
  8
寸法線
 62
     0
370
    -2
100
AcDbBlockReference
  2
_Closed
 10
703.3575268950703
 20
295.415977799659
 30
0.0
 41
3.0
 42
3.0
 43
3.0
  0
MTEXT
  5
3232
330
322C
100
AcDbEntity
  8
寸法線
 62
     0
100
AcDbMText
 10
688.3575268950703
 20
298.915977799659
 30
0.0
 40
5.0
 41
0.0
 71
     5
 72
     1
  1
30
  7
OKANO
 73
     1
 44
1.0
  0
POINT
  5
3233
330
322C
100
AcDbEntity
  8
Defpoints
 62
     0
100
AcDbPoint
 10
673.3575268950703
 20
271.5095612612193
 30
0.0
  0
POINT
  5
3234
330
322C
100
AcDbEntity
  8
Defpoints
 62
     0
100
AcDbPoint
 10
703.3575268950703
 20
271.5095612612193
 30
0.0
  0
POINT
  5
3235
330
322C
100
AcDbEntity
  8
Defpoints
 62
     0
100
AcDbPoint
 10
703.3575268950703
 20
295.415977799659
 30
0.0
  0
ENDBLK
  5
3237
330
322C
100
AcDbEntity
  8
0
100
AcDbBlockEnd
  0
BLOCK
  5
3243
330
3239
100
AcDbEntity
  8
0
100
AcDbBlockBegin
  2
*D4
 70
     1
 10
0.0
 20
0.0
 30
0.0
  3
*D4
  1

  0
LINE
  5
327C
330
3239
100
AcDbEntity
  8
寸法線
 62
     0
370
    -2
100
AcDbLine
 10
692.3176846232622
 20
279.0425238190905
 30
0.0
 11
732.5396071690289
 21
279.0425238190905
 31
0.0
  0
LINE
  5
327D
330
3239
100
AcDbEntity
  8
寸法線
 62
     0
370
    -2
100
AcDbLine
 10
692.3176846232622
 20
239.8631875084445
 30
0.0
 11
732.5396071690288
 21
239.8631875084444
 31
0.0
  0
LINE
  5
327E
330
3239
100
AcDbEntity
  8
寸法線
 62
     0
370
    -2
100
AcDbLine
 10
729.5396071690289
 20
276.0425238190905
 30
0.0
 11
729.5396071690288
 21
242.8631875084445
 31
0.0
  0
INSERT
  5
327F
330
3239
100
AcDbEntity
  8
寸法線
 62
     0
370
    -2
100
AcDbBlockReference
  2
_Closed
 10
729.5396071690289
 20
279.0425238190905
 30
0.0
 41
3.0
 42
3.0
 43
3.0
 50
90.0
  0
INSERT
  5
3280
330
3239
100
AcDbEntity
  8
寸法線
 62
     0
370
    -2
100
AcDbBlockReference
  2
_Closed
 10
729.5396071690288
 20
239.8631875084444
 30
0.0
 41
3.0
 42
3.0
 43
3.0
 50
270.0
  0
MTEXT
  5
3281
330
3239
100
AcDbEntity
  8
寸法線
 62
     0
100
AcDbMText
 10
726.0396071690288
 20
259.4528556637676
 30
0.0
 40
5.0
 41
0.0
 71
     5
 72
     1
  1
38
  7
OKANO
 11
0.0000000000000001
 21
1.0
 31
0.0
 73
     1
 44
1.0
  0
POINT
  5
3282
330
3239
100
AcDbEntity
  8
Defpoints
 62
     0
100
AcDbPoint
 10
690.3176846232622
 20
279.0425238190905
 30
0.0
  0
POINT
  5
3283
330
3239
100
AcDbEntity
  8
Defpoints
 62
     0
100
AcDbPoint
 10
690.3176846232622
 20
239.8631875084445
 30
0.0
  0
POINT
  5
3284
330
3239
100
AcDbEntity
  8
Defpoints
 62
     0
100
AcDbPoint
 10
729.5396071690288
 20
239.8631875084444
 30
0.0
  0
ENDBLK
  5
3244
330
3239
100
AcDbEntity
  8
0
100
AcDbBlockEnd
  0
BLOCK
  5
324F
330
3246
100
AcDbEntity
  8
0
100
AcDbBlockBegin
  2
*D5
 70
     1
 10
0.0
 20
0.0
 30
0.0
  3
*D5
  1

  0
LINE
  5
3247
330
3246
100
AcDbEntity
  8
寸法線
 62
     0
370
    -2
100
AcDbLine
 10
652.9669689257167
 20
261.3588109780451
 30
0.0
 11
682.1094508338534
 21
269.7174827101376
 31
0.0
  0
LINE
  5
3248
330
3246
100
AcDbEntity
  8
寸法線
 62
     0
370
    -2
100
AcDbLine
 10
694.6056029562874
 20
273.301639812301
 30
0.0
 11
697.4893303691567
 21
274.1287529897233
 31
0.0
  0
MTEXT
  5
3249
330
3246
100
AcDbEntity
  8
寸法線
 62
     0
100
AcDbMText
 10
656.5702168232909
 20
266.0334184868698
 30
0.0
 40
5.0
 41
0.0
 71
     5
 72
     1
  1
\U+22057
  7
OKANO
 11
0.961242470956461
 21
0.2757043924741086
 31
0.0
 73
     1
 44
1.0
  0
LINE
  5
324A
330
3246
100
AcDbEntity
  8
寸法線
 62
     0
370
    -2
100
AcDbLine
 10
691.721875543418
 20
272.4745266348786
 30
0.0
 11
684.9931782467227
 21
270.5445958875599
 31
0.0
  0
INSERT
  5
324B
330
3246
100
AcDbEntity
  8
寸法線
 62
     0
370
    -2
100
AcDbBlockReference
  2
_Closed
 10
691.721875543418
 20
272.4745266348786
 30
0.0
 41
3.0
 42
3.0
 43
3.0
 50
196.0039957442898
  0
INSERT
  5
324C
330
3246
100
AcDbEntity
  8
寸法線
 62
     0
370
    -2
100
AcDbBlockReference
  2
_Closed
 10
684.9931782467227
 20
270.5445958875599
 30
0.0
 41
3.0
 42
3.0
 43
3.0
 50
16.00399574428978
  0
POINT
  5
324D
330
3246
100
AcDbEntity
  8
Defpoints
 62
     0
100
AcDbPoint
 10
684.9931782467227
 20
270.5445958875599
 30
0.0
  0
POINT
  5
324E
330
3246
100
AcDbEntity
  8
Defpoints
 62
     0
100
AcDbPoint
 10
691.721875543418
 20
272.4745266348786
 30
0.0
  0
ENDBLK
  5
3250
330
3246
100
AcDbEntity
  8
0
100
AcDbBlockEnd
  0
BLOCK
  5
325E
330
3252
100
AcDbEntity
  8
0
100
AcDbBlockBegin
  2
*D6
 70
     1
 10
0.0
 20
0.0
 30
0.0
  3
*D6
  1

  0
LINE
  5
3268
330
3252
100
AcDbEntity
  8
寸法線
 62
     0
370
    -2
100
AcDbLine
 10
638.3592843423898
 20
282.0652592771746
 30
0.0
 11
638.3592843423898
 21
287.8065185744976
 31
0.0
  0
LINE
  5
3269
330
3252
100
AcDbEntity
  8
寸法線
 62
     0
370
    -2
100
AcDbLine
 10
635.9860779223708
 20
282.0652592771746
 30
0.0
 11
635.9860779223708
 21
287.8065185744976
 31
0.0
  0
LINE
  5
326A
330
3252
100
AcDbEntity
  8
寸法線
 62
     0
370
    -2
100
AcDbLine
 10
641.3592843423899
 20
284.8065185744976
 30
0.0
 11
644.3592843423898
 21
284.8065185744976
 31
0.0
  0
LINE
  5
326B
330
3252
100
AcDbEntity
  8
寸法線
 62
     0
370
    -2
100
AcDbLine
 10
632.9860779223708
 20
284.8065185744976
 30
0.0
 11
620.3327130888274
 21
284.8065185744976
 31
0.0
  0
LINE
  5
326C
330
3252
100
AcDbEntity
  8
寸法線
 62
     0
370
    -2
100
AcDbLine
 10
638.3592843423898
 20
284.8065185744976
 30
0.0
 11
635.9860779223708
 21
284.8065185744976
 31
0.0
  0
INSERT
  5
326D
330
3252
100
AcDbEntity
  8
寸法線
 62
     0
370
    -2
100
AcDbBlockReference
  2
_Closed
 10
638.3592843423898
 20
284.8065185744976
 30
0.0
 41
3.0
 42
3.0
 43
3.0
 50
180.0
  0
INSERT
  5
326E
330
3252
100
AcDbEntity
  8
寸法線
 62
     0
370
    -2
100
AcDbBlockReference
  2
_Closed
 10
635.9860779223708
 20
284.8065185744976
 30
0.0
 41
3.0
 42
3.0
 43
3.0
  0
MTEXT
  5
326F
330
3252
100
AcDbEntity
  8
寸法線
 62
     0
100
AcDbMText
 10
625.1593955055991
 20
288.3065185744976
 30
0.0
 40
5.0
 41
0.0
 71
     5
 72
     1
  1
0.6
  7
OKANO
 73
     1
 44
1.0
  0
POINT
  5
3270
330
3252
100
AcDbEntity
  8
Defpoints
 62
     0
100
AcDbPoint
 10
638.3592843423898
 20
280.0652592771746
 30
0.0
  0
POINT
  5
3271
330
3252
100
AcDbEntity
  8
Defpoints
 62
     0
100
AcDbPoint
 10
635.9860779223708
 20
280.0652592771746
 30
0.0
  0
POINT
  5
3272
330
3252
100
AcDbEntity
  8
Defpoints
 62
     0
100
AcDbPoint
 10
635.9860779223708
 20
284.8065185744976
 30
0.0
  0
ENDBLK
  5
325F
330
3252
100
AcDbEntity
  8
0
100
AcDbBlockEnd
  0
BLOCK
  5
3293
330
3288
100
AcDbEntity
  8
0
100
AcDbBlockBegin
  2
*D7
 70
     1
 10
0.0
 20
0.0
 30
0.0
  3
*D7
  1

  0
LINE
  5
32A9
330
3288
100
AcDbEntity
  8
寸法線
 62
     0
370
    -2
100
AcDbLine
 10
442.0270266402836
 20
170.3096226031359
 30
0.0
 11
442.0270266402836
 21
156.873390714702
 31
0.0
  0
LINE
  5
32AA
330
3288
100
AcDbEntity
  8
寸法線
 62
     0
370
    -2
100
AcDbLine
 10
450.5639972719786
 20
172.7968687431716
 30
0.0
 11
450.5639972719786
 21
156.873390714702
 31
0.0
  0
LINE
  5
32AB
330
3288
100
AcDbEntity
  8
寸法線
 62
     0
370
    -2
100
AcDbLine
 10
445.0270266402835
 20
159.873390714702
 30
0.0
 11
447.5639972719786
 21
159.873390714702
 31
0.0
  0
LINE
  5
32AC
330
3288
100
AcDbEntity
  8
寸法線
 62
     0
370
    -2
100
AcDbLine
 10
450.5639972719786
 20
159.873390714702
 30
0.0
 11
517.9790607814397
 21
159.873390714702
 31
0.0
  0
INSERT
  5
32AD
330
3288
100
AcDbEntity
  8
寸法線
 62
     0
370
    -2
100
AcDbBlockReference
  2
_Closed
 10
442.0270266402836
 20
159.873390714702
 30
0.0
 41
3.0
 42
3.0
 43
3.0
 50
180.0
  0
INSERT
  5
32AE
330
3288
100
AcDbEntity
  8
寸法線
 62
     0
370
    -2
100
AcDbBlockReference
  2
_Closed
 10
450.5639972719786
 20
159.873390714702
 30
0.0
 41
3.0
 42
3.0
 43
3.0
  0
MTEXT
  5
32AF
330
3288
100
AcDbEntity
  8
寸法線
 62
     0
100
AcDbMText
 10
485.7715290267092
 20
163.373390714702
 30
0.0
 40
5.0
 41
0.0
 71
     5
 72
     1
  1
48.6mm  　足場パイプ
  7
OKANO
 73
     1
 44
1.0
  0
POINT
  5
32B0
330
3288
100
AcDbEntity
  8
Defpoints
 62
     0
100
AcDbPoint
 10
442.0270266402836
 20
172.3096226031359
 30
0.0
  0
POINT
  5
32B1
330
3288
100
AcDbEntity
  8
Defpoints
 62
     0
100
AcDbPoint
 10
450.5639972719786
 20
174.7968687431716
 30
0.0
  0
POINT
  5
32B2
330
3288
100
AcDbEntity
  8
Defpoints
 62
     0
100
AcDbPoint
 10
450.5639972719786
 20
159.873390714702
 30
0.0
  0
ENDBLK
  5
3294
330
3288
100
AcDbEntity
  8
0
100
AcDbBlockEnd
  0
BLOCK
  5
350E
330
350C
100
AcDbEntity
  8
0
100
AcDbBlockBegin
  2
A$C25BC611D
 70
     0
 10
0.0
 20
0.0
 30
0.0
  3
A$C25BC611D
  1

  0
TEXT
  5
350D
330
350C
100
AcDbEntity
  8
文字
100
AcDbText
 10
0.0000005190685215
 20
-0.0000002205675642
 30
0.0
 40
4.799999999999999
  1
注記　内面バリは最小限にする
 51
15.0
  7
OKANO
100
AcDbText
  0
ENDBLK
  5
350F
330
350C
100
AcDbEntity
  8
0
100
AcDbBlockEnd
  0
BLOCK
  5
3537
330
352D
100
AcDbEntity
  8
0
100
AcDbBlockBegin
  2
*D9
 70
     1
 10
0.0
 20
0.0
 30
0.0
  3
*D9
  1

  0
LINE
  5
3539
330
352D
100
AcDbEntity
  8
寸法線
 62
     0
370
    -2
100
AcDbLine
 10
690.3575268950703
 20
271.5095612612193
 30
0.0
 11
717.9285968425643
 21
271.5095612612193
 31
0.0
  0
LINE
  5
353A
330
352D
100
AcDbEntity
  8
寸法線
 62
     0
370
    -2
100
AcDbLine
 10
690.3575268950703
 20
251.0095612612193
 30
0.0
 11
717.9285968425642
 21
251.0095612612193
 31
0.0
  0
LINE
  5
353B
330
352D
100
AcDbEntity
  8
寸法線
 62
     0
370
    -2
100
AcDbLine
 10
714.9285968425644
 20
268.5095612612193
 30
0.0
 11
714.9285968425642
 21
254.0095612612193
 31
0.0
  0
INSERT
  5
353C
330
352D
100
AcDbEntity
  8
寸法線
 62
     0
370
    -2
100
AcDbBlockReference
  2
_Closed
 10
714.9285968425644
 20
271.5095612612193
 30
0.0
 41
3.0
 42
3.0
 43
3.0
 50
90.0
  0
INSERT
  5
353D
330
352D
100
AcDbEntity
  8
寸法線
 62
     0
370
    -2
100
AcDbBlockReference
  2
_Closed
 10
714.9285968425642
 20
251.0095612612193
 30
0.0
 41
3.0
 42
3.0
 43
3.0
 50
270.0
  0
MTEXT
  5
353E
330
352D
100
AcDbEntity
  8
寸法線
 62
     0
100
AcDbMText
 10
711.42810471658
 20
261.2595612612194
 30
0.0
 40
5.0
 41
0.0
 71
     5
 72
     1
  1
20
  7
OKANO
 11
0.0000000000000001
 21
1.0
 31
0.0
 73
     1
 44
1.0
  0
POINT
  5
353F
330
352D
100
AcDbEntity
  8
Defpoints
 62
     0
100
AcDbPoint
 10
688.3575268950703
 20
271.5095612612193
 30
0.0
  0
POINT
  5
3540
330
352D
100
AcDbEntity
  8
Defpoints
 62
     0
100
AcDbPoint
 10
688.3575268950703
 20
251.0095612612193
 30
0.0
  0
POINT
  5
3541
330
352D
100
AcDbEntity
  8
Defpoints
 62
     0
100
AcDbPoint
 10
714.9285968425642
 20
251.0095612612193
 30
0.0
  0
ENDBLK
  5
3538
330
352D
100
AcDbEntity
  8
0
100
AcDbBlockEnd
  0
ENDSEC
  0
SECTION
  2
ENTITIES
  0
TEXT
  5
29C1
330
1F
100
AcDbEntity
  8
文字
100
AcDbText
 10
416.5368686024655
 20
-89.04319146845404
 30
0.0
 40
3.599999999999999
  1
SET SCREW COUP
 51
15.0
  7
OKANO
100
AcDbText
  0
TEXT
  5
29C2
330
1F
100
AcDbEntity
  8
文字
100
AcDbText
 10
394.7987772257545
 20
-97.41321626200251
 30
0.0
 40
4.799999999999999
  1
joint kogyo T.okano
 51
15.0
  7
OKANO
100
AcDbText
  0
TEXT
  5
29C3
330
1F
100
AcDbEntity
  8
文字
100
AcDbText
 10
387.3104642139577
 20
-82.66084475471471
 30
0.0
 40
4.799999999999999
  1
F-999-20030511 Auto CAD
 51
15.0
  7
OKANO
100
AcDbText
  0
LINE
  5
29C4
330
1F
100
AcDbEntity
  8
太線
100
AcDbLine
 10
359.8882360323437
 20
-83.58165240514507
 30
0.0
 11
467.8882360323438
 21
-83.58165240514507
 31
0.0
  0
LWPOLYLINE
  5
29C5
330
1F
100
AcDbEntity
  8
太線
100
AcDbPolyline
 90
        4
 70
     1
 43
0.0
 10
359.8882360323437
 20
-75.18165240514507
 10
467.8882360323438
 20
-75.18165240514507
 10
467.8882360323438
 20
-100.381652405145
 10
359.8882360323437
 20
-100.381652405145
  0
TEXT
  5
29C6
330
1F
100
AcDbEntity
  8
文字
100
AcDbText
 10
363.7606195984013
 20
-91.77516420399575
 30
0.0
 40
2.399999999999999
  1
CHECK
 51
15.0
  7
OKANO
100
AcDbText
  0
LINE
  5
29C7
330
1F
100
AcDbEntity
  8
太線
100
AcDbLine
 10
383.8882360323438
 20
-75.18165240514507
 30
0.0
 11
383.8882360323438
 21
-100.381652405145
 31
0.0
  0
TEXT
  5
29C8
330
1F
100
AcDbEntity
  8
文字
100
AcDbText
 10
363.7606195984013
 20
-98.69459181021158
 30
0.0
 40
2.399999999999999
  1
ISSUED
 51
15.0
  7
OKANO
100
AcDbText
  0
TEXT
  5
29C9
330
1F
100
AcDbEntity
  8
文字
100
AcDbText
 10
364.017134031302
 20
-95.36301562094344
 30
0.0
 40
2.399999999999999
  1
APPR
 51
15.0
  7
OKANO
100
AcDbText
  0
TEXT
  5
29CA
330
1F
100
AcDbEntity
  8
文字
100
AcDbText
 10
361.9650240467155
 20
-81.78043622637991
 30
0.0
 40
2.399999999999999
  1
FILM NAME
 51
15.0
  7
OKANO
100
AcDbText
  0
TEXT
  5
29CB
330
1F
100
AcDbEntity
  8
文字
100
AcDbText
 10
363.2475929240476
 20
-88.18731337723672
 30
0.0
 40
2.399999999999999
  1
DRAWN
 51
15.0
  7
OKANO
100
AcDbText
  0
TEXT
  5
29CC
330
1F
100
AcDbEntity
  8
文字
100
AcDbText
 10
394.2857494556769
 20
-89.98123879061623
 30
0.0
 40
4.799999999999999
  1
D-4
 51
15.0
  7
OKANO
100
AcDbText
  0
LINE
  5
2A73
330
1F
100
AcDbEntity
  8
構築線
100
AcDbLine
 10
105.3553136550028
 20
112.9064469907761
 30
0.0
 11
105.7213975763934
 21
113.5170690992828
 31
0.0
  0
LINE
  5
2AD3
330
1F
100
AcDbEntity
  8
構築線
100
AcDbLine
 10
134.143412839874
 20
156.2635528119522
 30
0.0
 11
134.7540349483807
 21
155.8974688905616
 31
0.0
  0
XLINE
  5
2BC9
330
1F
100
AcDbEntity
  8
構築線
100
AcDbXline
 10
75.16836488697117
 20
153.8537472613746
 30
0.0
 11
0.0
 21
1.0
 31
0.0
  0
XLINE
  5
2BCD
330
1F
100
AcDbEntity
  8
構築線
100
AcDbXline
 10
80.16836488697117
 20
153.8537472613746
 30
0.0
 11
0.0
 21
1.0
 31
0.0
  0
XLINE
  5
2BD1
330
1F
100
AcDbEntity
  8
構築線
100
AcDbXline
 10
77.66836488697117
 20
153.8537472613746
 30
0.0
 11
0.0
 21
1.0
 31
0.0
  0
LINE
  5
2C15
330
1F
100
AcDbEntity
  8
構築線
100
AcDbLine
 10
414.837256805247
 20
46.03644288571911
 30
0.0
 11
409.0609137755533
 21
36.55423290866031
 31
0.0
  0
XLINE
  5
2D4D
330
1F
100
AcDbEntity
  8
構築線
100
AcDbXline
 10
52.01670746354387
 20
128.6040288180706
 30
0.0
 11
0.0
 21
-1.0
 31
0.0
  0
XLINE
  5
2D4E
330
1F
100
AcDbEntity
  8
構築線
100
AcDbXline
 10
54.51670746354387
 20
128.6040288180706
 30
0.0
 11
0.0
 21
-1.0
 31
0.0
  0
XLINE
  5
2D4F
330
1F
100
AcDbEntity
  8
構築線
100
AcDbXline
 10
49.51670746354387
 20
128.6040288180706
 30
0.0
 11
0.0
 21
-1.0
 31
0.0
  0
LINE
  5
2D56
330
1F
100
AcDbEntity
  8
構築線
100
AcDbLine
 10
75.16836488697117
 20
20.88797229976762
 30
0.0
 11
24.15634317284468
 21
20.88797229976762
 31
0.0
  0
XLINE
  5
2D9C
330
1F
100
AcDbEntity
  8
構築線
100
AcDbXline
 10
86.95296761243435
 20
96.11761509092207
 30
0.0
 11
0.0
 21
-1.0
 31
0.0
  0
XLINE
  5
2D9E
330
1F
100
AcDbEntity
  8
構築線
100
AcDbXline
 10
91.95296761243435
 20
96.11761509092207
 30
0.0
 11
0.0
 21
-1.0
 31
0.0
  0
XLINE
  5
2DA3
330
1F
100
AcDbEntity
  8
構築線
100
AcDbXline
 10
97.45563987400556
 20
100.2453110341792
 30
0.0
 11
0.0
 21
1.0
 31
0.0
  0
XLINE
  5
2E0E
330
1F
100
AcDbEntity
  8
構築線
100
AcDbXline
 10
79.66836488697118
 20
153.8537472613746
 30
0.0
 11
0.0
 21
1.0
 31
0.0
  0
XLINE
  5
2E0F
330
1F
100
AcDbEntity
  8
構築線
100
AcDbXline
 10
75.66836488697117
 20
153.8537472613746
 30
0.0
 11
0.0
 21
1.0
 31
0.0
  0
XLINE
  5
2E18
330
1F
100
AcDbEntity
  8
構築線
100
AcDbXline
 10
54.01670746354387
 20
128.6040288180706
 30
0.0
 11
0.0
 21
-1.0
 31
0.0
  0
XLINE
  5
2E19
330
1F
100
AcDbEntity
  8
構築線
100
AcDbXline
 10
50.01670746354387
 20
128.6040288180706
 30
0.0
 11
0.0
 21
-1.0
 31
0.0
  0
XLINE
  5
2E2B
330
1F
100
AcDbEntity
  8
構築線
100
AcDbXline
 10
75.16836488697117
 20
20.88797229976762
 30
0.0
 11
1.0
 21
0.0
 31
0.0
  0
XLINE
  5
2EDC
330
1F
100
AcDbEntity
  8
構築線
100
AcDbXline
 10
68.66836488697117
 20
153.8537472613746
 30
0.0
 11
0.0
 21
1.0
 31
0.0
  0
LINE
  5
2F93
330
1F
100
AcDbEntity
  8
細線
100
AcDbLine
 10
529.114885785764
 20
191.7259510156924
 30
0.0
 11
529.114885785764
 21
159.2259510156924
 31
0.0
  0
LINE
  5
2F94
330
1F
100
AcDbEntity
  8
細線
100
AcDbLine
 10
533.114885785764
 20
191.7259510156924
 30
0.0
 11
533.114885785764
 21
159.2259510156924
 31
0.0
  0
LINE
  5
2FA0
330
1F
100
AcDbEntity
  8
細線
100
AcDbLine
 10
529.114885785764
 20
159.2259510156924
 30
0.0
 11
529.114885785764
 21
154.2259510156924
 31
0.0
  0
LINE
  5
2FA1
330
1F
100
AcDbEntity
  8
細線
100
AcDbLine
 10
533.114885785764
 20
159.2259510156924
 30
0.0
 11
533.114885785764
 21
154.2259510156924
 31
0.0
  0
LINE
  5
2FAF
330
1F
100
AcDbEntity
  8
太線
100
AcDbLine
 10
538.7059812057919
 20
201.7259510156924
 30
0.0
 11
538.7059812057919
 21
196.7259510156924
 31
0.0
  0
LINE
  5
2FB0
330
1F
100
AcDbEntity
  8
想像線
100
AcDbLine
 10
533.7059812057918
 20
201.2259510156924
 30
0.0
 11
533.7059812057918
 21
197.2259510156924
 31
0.0
  0
ARC
  5
2FB1
330
1F
100
AcDbEntity
  8
想像線
100
AcDbCircle
 10
534.0443649604473
 20
196.4949662176133
 30
0.0
 40
4.843894232356687
100
AcDbArc
 50
93.30330586724794
 51
177.2667704383627
  0
ARC
  5
2FB2
330
1F
100
AcDbEntity
  8
太線
100
AcDbCircle
 10
533.7059812057918
 20
196.7259510156924
 30
0.0
 40
5.0
100
AcDbArc
 50
90.0
 51
180.0
  0
LINE
  5
2FB5
330
1F
100
AcDbEntity
  8
想像線
100
AcDbLine
 10
533.7059812057918
 20
197.2259510156924
 30
0.0
 11
538.7059812057919
 21
197.2259510156924
 31
0.0
  0
LINE
  5
2FB6
330
1F
100
AcDbEntity
  8
太線
100
AcDbLine
 10
538.7059812057919
 20
196.7259510156924
 30
0.0
 11
533.7059812057918
 21
196.7259510156924
 31
0.0
  0
LINE
  5
2FB7
330
1F
100
AcDbEntity
  8
想像線
100
AcDbLine
 10
529.2059812057918
 20
196.7259510156924
 30
0.0
 11
533.2059812057918
 21
196.7259510156924
 31
0.0
  0
LINE
  5
2FB8
330
1F
100
AcDbEntity
  8
想像線
100
AcDbLine
 10
533.2059812057918
 20
197.2259510156924
 30
0.0
 11
529.2559442856073
 21
197.2259510156924
 31
0.0
  0
LINE
  5
2FB9
330
1F
100
AcDbEntity
  8
太線
100
AcDbLine
 10
528.7059812057918
 20
191.7259510156924
 30
0.0
 11
533.7059812057918
 21
191.7259510156924
 31
0.0
  0
LINE
  5
2FBA
330
1F
100
AcDbEntity
  8
想像線
100
AcDbLine
 10
529.2059812057918
 20
191.7259510156924
 30
0.0
 11
529.2059812057918
 21
196.7259510156924
 31
0.0
  0
LINE
  5
2FBB
330
1F
100
AcDbEntity
  8
太線
100
AcDbLine
 10
528.7059812057918
 20
196.7259510156924
 30
0.0
 11
528.7059812057918
 21
191.7259510156924
 31
0.0
  0
LINE
  5
2FBC
330
1F
100
AcDbEntity
  8
想像線
100
AcDbLine
 10
532.74181818837
 20
196.6902856610486
 30
0.0
 11
532.6630931317937
 21
197.1622033193483
 31
0.0
  0
LINE
  5
2FBD
330
1F
100
AcDbEntity
  8
想像線
100
AcDbLine
 10
533.2059812057918
 20
196.7259510156924
 30
0.0
 11
533.2059812057918
 21
191.7259510156924
 31
0.0
  0
LINE
  5
2FBE
330
1F
100
AcDbEntity
  8
太線
100
AcDbLine
 10
533.7059812057918
 20
196.7259510156924
 30
0.0
 11
533.7059812057918
 21
191.7259510156924
 31
0.0
  0
LINE
  5
2FBF
330
1F
100
AcDbEntity
  8
想像線
100
AcDbLine
 10
538.7059812057919
 20
201.2259510156924
 30
0.0
 11
533.7059812057918
 21
201.2259510156924
 31
0.0
  0
LINE
  5
2FC0
330
1F
100
AcDbEntity
  8
太線
100
AcDbLine
 10
533.7059812057918
 20
201.7259510156924
 30
0.0
 11
538.7059812057919
 21
201.7259510156924
 31
0.0
  0
LINE
  5
2FF5
330
1F
100
AcDbEntity
  8
細線
100
AcDbLine
 10
608.7587221523874
 20
191.7259510156924
 30
0.0
 11
608.7587221523874
 21
159.2259510156924
 31
0.0
  0
LINE
  5
2FF6
330
1F
100
AcDbEntity
  8
細線
100
AcDbLine
 10
604.7587221523874
 20
191.7259510156924
 30
0.0
 11
604.7587221523874
 21
159.2259510156924
 31
0.0
  0
LINE
  5
3006
330
1F
100
AcDbEntity
  8
太線
100
AcDbLine
 10
609.2587221523874
 20
191.7259510156924
 30
0.0
 11
604.2587221523874
 21
191.7259510156924
 31
0.0
  0
ARC
  5
3007
330
1F
100
AcDbEntity
  8
太線
100
AcDbCircle
 10
604.2587221523874
 20
196.7259510156924
 30
0.0
 40
5.0
100
AcDbArc
 50
0.000000000000007
 51
90.0
  0
ARC
  5
3008
330
1F
100
AcDbEntity
  8
想像線
100
AcDbCircle
 10
603.9203383977319
 20
196.4949662176133
 30
0.0
 40
4.843894232356687
100
AcDbArc
 50
2.733229561637215
 51
86.69669413275206
  0
LINE
  5
3009
330
1F
100
AcDbEntity
  8
想像線
100
AcDbLine
 10
604.7587221523874
 20
197.2259510156924
 30
0.0
 11
608.708759072572
 21
197.2259510156924
 31
0.0
  0
LINE
  5
300A
330
1F
100
AcDbEntity
  8
想像線
100
AcDbLine
 10
608.7587221523874
 20
196.7259510156924
 30
0.0
 11
604.7587221523874
 21
196.7259510156924
 31
0.0
  0
LINE
  5
300B
330
1F
100
AcDbEntity
  8
太線
100
AcDbLine
 10
604.2587221523874
 20
196.7259510156924
 30
0.0
 11
604.2587221523874
 21
191.7259510156924
 31
0.0
  0
LINE
  5
300C
330
1F
100
AcDbEntity
  8
想像線
100
AcDbLine
 10
604.7587221523874
 20
196.7259510156924
 30
0.0
 11
604.7587221523874
 21
191.7259510156924
 31
0.0
  0
LINE
  5
300E
330
1F
100
AcDbEntity
  8
太線
100
AcDbLine
 10
604.2587221523874
 20
201.7259510156924
 30
0.0
 11
599.2587221523875
 21
201.7259510156924
 31
0.0
  0
LINE
  5
300F
330
1F
100
AcDbEntity
  8
想像線
100
AcDbLine
 10
599.2587221523875
 20
201.2259510156924
 30
0.0
 11
604.2587221523874
 21
201.2259510156924
 31
0.0
  0
LINE
  5
3010
330
1F
100
AcDbEntity
  8
想像線
100
AcDbLine
 10
599.2587221523875
 20
201.2259510156924
 30
0.0
 11
604.2587221523874
 21
201.2259510156924
 31
0.0
  0
LINE
  5
3011
330
1F
100
AcDbEntity
  8
太線
100
AcDbLine
 10
599.2587221523875
 20
196.7259510156924
 30
0.0
 11
604.2587221523874
 21
196.7259510156924
 31
0.0
  0
LINE
  5
3012
330
1F
100
AcDbEntity
  8
想像線
100
AcDbLine
 10
604.2587221523874
 20
197.2259510156924
 30
0.0
 11
599.2587221523875
 21
197.2259510156924
 31
0.0
  0
LINE
  5
3013
330
1F
100
AcDbEntity
  8
想像線
100
AcDbLine
 10
599.7587221523875
 20
196.7259510156924
 30
0.0
 11
603.7587221523875
 21
196.7259510156924
 31
0.0
  0
LINE
  5
3014
330
1F
100
AcDbEntity
  8
想像線
100
AcDbLine
 10
599.2587221523875
 20
197.2259510156924
 30
0.0
 11
604.2587221523874
 21
197.2259510156924
 31
0.0
  0
LINE
  5
3015
330
1F
100
AcDbEntity
  8
太線
100
AcDbLine
 10
599.2587221523875
 20
201.7259510156924
 30
0.0
 11
599.2587221523875
 21
196.7259510156924
 31
0.0
  0
LINE
  5
3017
330
1F
100
AcDbEntity
  8
想像線
100
AcDbLine
 10
604.2587221523874
 20
201.2259510156924
 30
0.0
 11
604.2587221523874
 21
197.2259510156924
 31
0.0
  0
LINE
  5
3018
330
1F
100
AcDbEntity
  8
太線
100
AcDbLine
 10
609.2587221523874
 20
196.7259510156924
 30
0.0
 11
609.2587221523874
 21
191.7259510156924
 31
0.0
  0
LINE
  5
3019
330
1F
100
AcDbEntity
  8
想像線
100
AcDbLine
 10
608.7587221523874
 20
191.7259510156924
 30
0.0
 11
608.7587221523874
 21
196.7259510156924
 31
0.0
  0
ARC
  5
30E1
330
1F
100
AcDbEntity
  8
太線
100
AcDbCircle
 10
583.3588289540432
 20
194.1295721470453
 30
0.0
 40
1.995956726318321
100
AcDbArc
 50
221.2778437975898
 51
318.7221562024101
  0
CIRCLE
  5
30EA
330
1F
100
AcDbEntity
  8
太線
100
AcDbCircle
 10
583.3516797423611
 20
194.3765370842944
 30
0.0
 40
0.6259135869406692
  0
LINE
  5
30ED
330
1F
100
AcDbEntity
  8
細線
100
AcDbLine
 10
584.8588289540432
 20
197.2259510156924
 30
0.0
 11
604.2587221523874
 21
197.2259510156924
 31
0.0
  0
LINE
  5
30EE
330
1F
100
AcDbEntity
  8
細線
100
AcDbLine
 10
584.8588289540432
 20
201.2259510156924
 30
0.0
 11
604.2587221523874
 21
201.2259510156924
 31
0.0
  0
LINE
  5
30FF
330
1F
100
AcDbEntity
  8
太線
100
AcDbLine
 10
581.8588289540432
 20
192.8128173280546
 30
0.0
 11
581.8588289540432
 21
201.8259510156924
 31
0.0
  0
LINE
  5
3100
330
1F
100
AcDbEntity
  8
太線
100
AcDbLine
 10
581.8588289540432
 20
201.8259510156924
 30
0.0
 11
582.5588289540433
 21
201.8259510156924
 31
0.0
  0
LINE
  5
3101
330
1F
100
AcDbEntity
  8
太線
100
AcDbLine
 10
582.5588289540433
 20
201.8259510156924
 30
0.0
 11
582.5588289540433
 21
201.5259510156924
 31
0.0
  0
LINE
  5
3102
330
1F
100
AcDbEntity
  8
太線
100
AcDbLine
 10
582.5588289540433
 20
201.5259510156924
 30
0.0
 11
584.1588289540432
 21
201.5259510156924
 31
0.0
  0
LINE
  5
3103
330
1F
100
AcDbEntity
  8
太線
100
AcDbLine
 10
584.1588289540432
 20
201.5259510156924
 30
0.0
 11
584.1588289540432
 21
201.8259510156924
 31
0.0
  0
LINE
  5
3104
330
1F
100
AcDbEntity
  8
太線
100
AcDbLine
 10
584.1588289540432
 20
201.8259510156924
 30
0.0
 11
584.8588289540432
 21
201.8259510156924
 31
0.0
  0
LINE
  5
3105
330
1F
100
AcDbEntity
  8
太線
100
AcDbLine
 10
584.8588289540432
 20
201.8259510156924
 30
0.0
 11
584.8588289540432
 21
192.8128173280546
 31
0.0
  0
LINE
  5
3106
330
1F
100
AcDbEntity
  8
太線
100
AcDbLine
 10
581.8588289540432
 20
196.6259510156923
 30
0.0
 11
582.5588289540433
 21
196.6259510156923
 31
0.0
  0
LINE
  5
3107
330
1F
100
AcDbEntity
  8
太線
100
AcDbLine
 10
582.5588289540433
 20
196.6259510156923
 30
0.0
 11
582.5588289540433
 21
196.9259510156924
 31
0.0
  0
LINE
  5
3108
330
1F
100
AcDbEntity
  8
太線
100
AcDbLine
 10
582.5588289540433
 20
196.9259510156924
 30
0.0
 11
584.1588289540432
 21
196.9259510156924
 31
0.0
  0
LINE
  5
3109
330
1F
100
AcDbEntity
  8
太線
100
AcDbLine
 10
584.1588289540432
 20
196.9259510156924
 30
0.0
 11
584.1588289540432
 21
196.6259510156923
 31
0.0
  0
LINE
  5
310A
330
1F
100
AcDbEntity
  8
太線
100
AcDbLine
 10
584.1588289540432
 20
196.6259510156923
 30
0.0
 11
584.8588289540432
 21
196.6259510156923
 31
0.0
  0
LINE
  5
310B
330
1F
100
AcDbEntity
  8
太線
100
AcDbLine
 10
584.1588289540432
 20
201.2259510156924
 30
0.0
 11
584.1588289540432
 21
196.9259510156924
 31
0.0
  0
LINE
  5
310C
330
1F
100
AcDbEntity
  8
太線
100
AcDbLine
 10
582.5588289540433
 20
201.5259510156924
 30
0.0
 11
582.5588289540433
 21
196.9259510156924
 31
0.0
  0
LINE
  5
310D
330
1F
100
AcDbEntity
  8
太線
100
AcDbLine
 10
556.2135575045524
 20
201.8259510156924
 30
0.0
 11
556.2135575045524
 21
192.8128173280546
 31
0.0
  0
LINE
  5
310E
330
1F
100
AcDbEntity
  8
太線
100
AcDbLine
 10
553.2135575045524
 20
192.8128173280546
 30
0.0
 11
553.2135575045524
 21
201.8259510156924
 31
0.0
  0
CIRCLE
  5
310F
330
1F
100
AcDbEntity
  8
太線
100
AcDbCircle
 10
554.7064082928702
 20
194.3765370842944
 30
0.0
 40
0.6259135869406692
  0
ARC
  5
3110
330
1F
100
AcDbEntity
  8
太線
100
AcDbCircle
 10
554.7135575045524
 20
194.1295721470453
 30
0.0
 40
1.995956726318321
100
AcDbArc
 50
221.2778437975898
 51
318.7221562024101
  0
LINE
  5
3111
330
1F
100
AcDbEntity
  8
太線
100
AcDbLine
 10
553.9135575045524
 20
196.9259510156924
 30
0.0
 11
555.5135575045524
 21
196.9259510156924
 31
0.0
  0
LINE
  5
3112
330
1F
100
AcDbEntity
  8
太線
100
AcDbLine
 10
553.9135575045524
 20
201.5259510156924
 30
0.0
 11
555.5135575045524
 21
201.5259510156924
 31
0.0
  0
LINE
  5
3113
330
1F
100
AcDbEntity
  8
太線
100
AcDbLine
 10
553.9135575045524
 20
201.5259510156924
 30
0.0
 11
553.9135575045524
 21
196.9259510156924
 31
0.0
  0
LINE
  5
3114
330
1F
100
AcDbEntity
  8
太線
100
AcDbLine
 10
553.9135575045524
 20
196.6259510156923
 30
0.0
 11
553.9135575045524
 21
196.9259510156924
 31
0.0
  0
LINE
  5
3115
330
1F
100
AcDbEntity
  8
太線
100
AcDbLine
 10
553.2135575045524
 20
196.6259510156923
 30
0.0
 11
553.9135575045524
 21
196.6259510156923
 31
0.0
  0
LINE
  5
3116
330
1F
100
AcDbEntity
  8
太線
100
AcDbLine
 10
553.9135575045524
 20
201.8259510156924
 30
0.0
 11
553.9135575045524
 21
201.5259510156924
 31
0.0
  0
LINE
  5
3117
330
1F
100
AcDbEntity
  8
太線
100
AcDbLine
 10
553.2135575045524
 20
201.8259510156924
 30
0.0
 11
553.9135575045524
 21
201.8259510156924
 31
0.0
  0
LINE
  5
3118
330
1F
100
AcDbEntity
  8
太線
100
AcDbLine
 10
555.5135575045524
 20
201.2259510156924
 30
0.0
 11
555.5135575045524
 21
196.9259510156924
 31
0.0
  0
LINE
  5
3119
330
1F
100
AcDbEntity
  8
太線
100
AcDbLine
 10
555.5135575045524
 20
196.6259510156923
 30
0.0
 11
556.2135575045524
 21
196.6259510156923
 31
0.0
  0
LINE
  5
311A
330
1F
100
AcDbEntity
  8
太線
100
AcDbLine
 10
555.5135575045524
 20
196.9259510156924
 30
0.0
 11
555.5135575045524
 21
196.6259510156923
 31
0.0
  0
LINE
  5
311B
330
1F
100
AcDbEntity
  8
太線
100
AcDbLine
 10
555.5135575045524
 20
201.8259510156924
 30
0.0
 11
556.2135575045524
 21
201.8259510156924
 31
0.0
  0
LINE
  5
311C
330
1F
100
AcDbEntity
  8
太線
100
AcDbLine
 10
555.5135575045524
 20
201.5259510156924
 30
0.0
 11
555.5135575045524
 21
201.8259510156924
 31
0.0
  0
LINE
  5
311F
330
1F
100
AcDbEntity
  8
細線
100
AcDbLine
 10
604.7587221523874
 20
159.2259510156924
 30
0.0
 11
604.7587221523874
 21
154.2259510156924
 31
0.0
  0
LINE
  5
3120
330
1F
100
AcDbEntity
  8
細線
100
AcDbLine
 10
608.7587221523874
 20
159.2259510156924
 30
0.0
 11
608.7587221523874
 21
154.2259510156924
 31
0.0
  0
ELLIPSE
  5
3127
330
1F
100
AcDbEntity
  8
太線
100
AcDbEllipse
 10
446.155967894604
 20
174.1109883905934
 30
0.0
 11
-1.63274517263838
 21
-4.435955759373492
 31
0.0
210
0.0
220
0.0
230
1.0
 40
0.9600078966153049
 41
0.0
 42
6.283185307179586
  0
LINE
  5
3128
330
1F
100
AcDbEntity
  8
太線
100
AcDbLine
 10
448.621445953846
 20
178.1415693140987
 30
0.0
 11
437.3226706112978
 21
183.1986062892652
 31
0.0
  0
LINE
  5
3129
330
1F
100
AcDbEntity
  8
太線
100
AcDbLine
 10
443.4663561464146
 20
169.8564855972177
 30
0.0
 11
430.8646809206475
 21
176.5483030270067
 31
0.0
  0
ARC
  5
3133
330
1F
100
AcDbEntity
  8
太線
100
AcDbCircle
 10
419.8953826556
 20
186.6740473796596
 30
0.0
 40
4.069394609434151
100
AcDbArc
 50
79.96242899233809
 51
241.5332364078013
  0
LINE
  5
3134
330
1F
100
AcDbEntity
  8
太線
100
AcDbLine
 10
416.9557718831747
 20
177.8742705023693
 30
0.0
 11
450.5025979687361
 21
189.3353311389106
 31
0.0
  0
LINE
  5
3135
330
1F
100
AcDbEntity
  8
太線
100
AcDbLine
 10
414.8829806896412
 20
182.134241929024
 30
0.0
 11
443.1780839904645
 21
190.9967025798602
 31
0.0
  0
LINE
  5
3137
330
1F
100
AcDbEntity
  8
太線
100
AcDbLine
 10
443.2022516032707
 20
191.2455087898855
 30
0.0
 11
447.373877860336
 21
199.2335212277151
 31
0.0
  0
LINE
  5
3138
330
1F
100
AcDbEntity
  8
太線
100
AcDbLine
 10
450.5025979687361
 20
189.1616793437277
 30
0.0
 11
454.3265888429127
 21
197.4969962501412
 31
0.0
  0
ARC
  5
3139
330
1F
100
AcDbEntity
  8
太線
100
AcDbCircle
 10
450.5333601301069
 20
197.1455884976531
 30
0.0
 40
4.028108385904363
100
AcDbArc
 50
9.989014789860348
 51
145.843797769725
  0
LINE
  5
3149
330
1F
100
AcDbEntity
  8
太線
100
AcDbLine
 10
409.6554255177093
 20
180.3054044171111
 30
0.0
 11
404.9623461863116
 21
190.5508989744995
 31
0.0
  0
LINE
  5
314A
330
1F
100
AcDbEntity
  8
太線
100
AcDbLine
 10
416.9557718831747
 20
177.8742705023693
 30
0.0
 11
410.8721493578186
 21
190.3772463010985
 31
0.0
  0
SPLINE
  5
314C
330
1F
100
AcDbEntity
  8
太線
100
AcDbSpline
210
0.0
220
0.0
230
1.0
 70
     8
 71
     3
 72
     8
 73
     4
 74
     0
 42
0.0000000001
 43
0.0000000001
 40
0.0
 40
0.0
 40
0.0
 40
0.0
 40
5.912353911678009
 40
5.912353911678009
 40
5.912353911678009
 40
5.912353911678009
 10
410.8721493578186
 20
190.3772463010985
 30
0.0
 10
409.0678360563221
 20
191.0465628310049
 30
0.0
 10
407.2635227548255
 20
191.7158793609112
 30
0.0
 10
404.9623461863116
 20
190.5508989744995
 30
0.0
  0
LINE
  5
314D
330
1F
100
AcDbEntity
  8
太線
100
AcDbLine
 10
429.4833235979194
 20
186.7072934262265
 30
0.0
 11
420.6046533775979
 21
190.6811545070283
 31
0.0
  0
CIRCLE
  5
314E
330
1F
100
AcDbEntity
  8
太線
100
AcDbCircle
 10
446.155967894604
 20
174.1109883905934
 30
0.0
 40
3.827748731840699
  0
ELLIPSE
  5
3150
330
1F
100
AcDbEntity
  8
太線
100
AcDbEllipse
 10
447.8005557461773
 20
193.1868542421581
 30
0.0
 11
-0.0692250176770131
 21
1.314023973726307
 31
0.0
210
0.0
220
0.0
230
0.9999999999999998
 40
0.9667389396434504
 41
0.0
 42
6.283185307179586
  0
ELLIPSE
  5
3151
330
1F
100
AcDbEntity
  8
太線
100
AcDbEllipse
 10
411.217744521744
 20
182.26736884292
 30
0.0
 11
-0.0692250176770131
 21
1.314023973726306
 31
0.0
210
0.0
220
0.0
230
1.0
 40
0.9667389396434504
 41
0.0
 42
6.283185307179586
  0
LINE
  5
3152
330
1F
100
AcDbEntity
  8
太線
100
AcDbLine
 10
416.4358897811102
 20
179.2931624836147
 30
0.0
 11
448.4178412982737
 21
189.9436744815506
 31
0.0
  0
LINE
  5
3153
330
1F
100
AcDbEntity
  8
太線
100
AcDbLine
 10
415.466739533632
 20
181.0913005991464
 30
0.0
 11
444.5412403083607
 21
190.4969474100918
 31
0.0
  0
ARC
  5
3154
330
1F
100
AcDbEntity
  8
太線
100
AcDbCircle
 10
449.0041087097609
 20
188.9613822426726
 30
0.0
 40
1.418465994884505
100
AcDbArc
 50
17.60495913134256
 51
143.4880453494391
  0
ARC
  5
3155
330
1F
100
AcDbEntity
  8
太線
100
AcDbCircle
 10
443.956309056062
 20
190.6789164403626
 30
0.0
 40
1.001233323903459
100
AcDbArc
 50
357.501294842797
 51
112.5658946060364
  0
LINE
  5
3156
330
1F
100
AcDbEntity
  8
太線
100
AcDbLine
 10
416.0205396750482
 20
180.2613907672256
 30
0.0
 11
445.5103905558389
 21
190.0819920550224
 31
0.0
  0
LINE
  5
3157
330
1F
100
AcDbEntity
  8
太線
100
AcDbLine
 10
445.5103905558389
 20
190.0819920550224
 30
0.0
 11
445.5103905558389
 21
190.3586289584019
 31
0.0
  0
ARC
  5
3158
330
1F
100
AcDbEntity
  8
太線
100
AcDbCircle
 10
448.0026329412241
 20
193.1223763375983
 30
0.0
 40
1.111241717115018
100
AcDbArc
 50
82.55191129853596
 51
270.2886275671501
  0
ARC
  5
3159
330
1F
100
AcDbEntity
  8
太線
100
AcDbCircle
 10
411.7858183189897
 20
182.0466679282722
 30
0.0
 40
1.22586128065071
100
AcDbArc
 50
114.0125905331564
 51
221.7755407576234
  0
LINE
  5
315A
330
1F
100
AcDbEntity
  8
太線
100
AcDbLine
 10
450.3561401308257
 20
189.6670375781708
 30
0.0
 11
454.0942910853845
 21
197.6895007504362
 31
0.0
  0
LINE
  5
315B
330
1F
100
AcDbEntity
  8
太線
100
AcDbLine
 10
416.4358897811102
 20
177.9099788449347
 30
0.0
 11
410.3440898879373
 21
190.3586289584019
 31
0.0
  0
ARC
  5
315C
330
1F
100
AcDbEntity
  8
太線
100
AcDbCircle
 10
450.3182001007401
 20
196.7306331425836
 30
0.0
 40
4.028108385904363
100
AcDbArc
 50
9.989014789860348
 51
145.843797769725
  0
SPLINE
  5
315D
330
1F
100
AcDbEntity
  8
太線
100
AcDbSpline
210
0.0
220
0.0
230
1.0
 70
     8
 71
     3
 72
     8
 73
     4
 74
     0
 42
0.0000000001
 43
0.0000000001
 40
0.0
 40
0.0
 40
0.0
 40
0.0
 40
5.429301631289169
 40
5.429301631289169
 40
5.429301631289169
 40
5.429301631289169
 10
410.4567992517566
 20
189.8239733725573
 30
0.0
 10
408.7999023038552
 20
190.4386052741577
 30
0.0
 10
407.1430053559538
 20
191.0532371757581
 30
0.0
 10
405.1013505200456
 20
190.247437634043
 30
0.0
  0
LINE
  5
315E
330
1F
100
AcDbEntity
  8
太線
100
AcDbLine
 10
450.4294887429059
 20
188.9675580441543
 30
0.0
 11
416.9139324863015
 21
177.4091337726273
 31
0.0
  0
LINE
  5
315F
330
1F
100
AcDbEntity
  8
太線
100
AcDbLine
 10
416.9139324863015
 20
177.4091337726273
 30
0.0
 11
416.556114875749
 21
177.7666106399307
 31
0.0
  0
LINE
  5
3160
330
1F
100
AcDbEntity
  8
太線
100
AcDbLine
 10
447.3284044471895
 20
189.8016710272683
 30
0.0
 11
444.9429553725779
 21
190.1591478945719
 31
0.0
  0
LINE
  5
3161
330
1F
100
AcDbEntity
  8
太線
100
AcDbLine
 10
409.5937469853354
 20
180.2281721725984
 30
0.0
 11
416.7669260549005
 21
177.4332935489177
 31
0.0
  0
LINE
  5
3163
330
1F
100
AcDbEntity
  8
破線
100
AcDbLine
 10
430.9572575557233
 20
176.1906634266552
 30
0.0
 11
430.9572575557233
 21
167.3767660298504
 31
0.0
  0
LINE
  5
3164
330
1F
100
AcDbEntity
  8
破線
100
AcDbLine
 10
425.9159510254291
 20
178.8233861283496
 30
0.0
 11
425.801376443742
 21
170.8107519715785
 31
0.0
  0
ARC
  5
3165
330
1F
100
AcDbEntity
  8
破線
100
AcDbCircle
 10
429.4062115706971
 20
170.6355668043211
 30
0.0
 40
3.609089377579327
100
AcDbArc
 50
177.2177700768181
 51
295.4523957587574
  0
CIRCLE
  5
3169
330
1F
100
AcDbEntity
  8
破線
100
AcDbCircle
 10
428.077310044478
 20
170.454168216166
 30
0.0
 40
0.8718772479920302
  0
ARC
  5
316B
330
1F
100
AcDbEntity
  8
破線
100
AcDbCircle
 10
426.3387443885301
 20
179.6818823942271
 30
0.0
 40
1.020614760141512
100
AcDbArc
 50
149.6889607628036
 51
252.4226374896678
  0
LINE
  5
316C
330
1F
100
AcDbEntity
  8
破線
100
AcDbLine
 10
437.2174996347849
 20
173.1747909948423
 30
0.0
 11
437.3417956558382
 21
169.0148429942479
 31
0.0
  0
ARC
  5
316D
330
1F
100
AcDbEntity
  8
破線
100
AcDbCircle
 10
435.9096059039308
 20
170.296136587739
 30
0.0
 40
2.008530103434141
100
AcDbArc
 50
258.4832017470134
 51
320.3626594854995
  0
LINE
  5
316E
330
1F
100
AcDbEntity
  8
破線
100
AcDbLine
 10
438.1436534080782
 20
172.6829792434875
 30
0.0
 11
438.2583972965476
 21
169.1293090459358
 31
0.0
  0
ARC
  5
316F
330
1F
100
AcDbEntity
  8
破線
100
AcDbCircle
 10
437.1413703657088
 20
169.5602749576443
 30
0.0
 40
1.397250040603922
100
AcDbArc
 50
254.5403322995068
 51
331.8173799472624
  0
LINE
  5
3170
330
1F
100
AcDbEntity
  8
破線
100
AcDbLine
 10
430.1552321591055
 20
176.6485285116249
 30
0.0
 11
430.2698067407925
 21
167.6056981332263
 31
0.0
  0
ARC
  5
317F
330
1F
100
AcDbEntity
  8
太線
100
AcDbCircle
 10
445.2605793667284
 20
181.512472859209
 30
0.0
 40
7.765285368645369
100
AcDbArc
 50
336.1240423514495
 51
44.8287945328937
  0
LINE
  5
3180
330
1F
100
AcDbEntity
  8
太線
100
AcDbLine
 10
452.4033397584494
 20
178.5078547076179
 30
0.0
 11
453.9070794007503
 21
180.0101633443044
 31
0.0
  0
LINE
  5
3181
330
1F
100
AcDbEntity
  8
太線
100
AcDbLine
 10
451.0875681948379
 20
180.5735296319481
 30
0.0
 11
452.4033397584494
 21
178.5078547076179
 31
0.0
  0
LINE
  5
318E
330
1F
100
AcDbEntity
  8
太線
100
AcDbLine
 10
421.7359728480728
 20
171.7048367032687
 30
0.0
 11
422.336860597421
 21
170.1440124033964
 31
0.0
  0
ARC
  5
318F
330
1F
100
AcDbEntity
  8
太線
100
AcDbCircle
 10
424.0910896898749
 20
177.1229093636944
 30
0.0
 40
7.071674584823863
100
AcDbArc
 50
194.9329116525986
 51
256.0635180866189
  0
LINE
  5
3190
330
1F
100
AcDbEntity
  8
太線
100
AcDbLine
 10
422.336860597421
 20
170.1440124033964
 30
0.0
 11
420.534195686972
 21
170.1440124033964
 31
0.0
  0
LINE
  5
3192
330
1F
100
AcDbEntity
  8
細線
100
AcDbLine
 10
581.8588289540432
 20
201.2259510156924
 30
0.0
 11
556.2135575045524
 21
201.2259510156924
 31
0.0
  0
LINE
  5
3193
330
1F
100
AcDbEntity
  8
細線
100
AcDbLine
 10
556.2135575045524
 20
197.5259510156924
 30
0.0
 11
581.8588289540432
 21
197.5259510156924
 31
0.0
  0
LINE
  5
3194
330
1F
100
AcDbEntity
  8
細線
100
AcDbLine
 10
538.7059812057919
 20
201.2259510156924
 30
0.0
 11
553.2135575045524
 21
201.2259510156924
 31
0.0
  0
LINE
  5
3196
330
1F
100
AcDbEntity
  8
細線
100
AcDbLine
 10
538.7059812057919
 20
197.5259510156924
 30
0.0
 11
553.2135575045524
 21
197.5259510156924
 31
0.0
  0
TEXT
  5
3198
330
1F
100
AcDbEntity
  8
文字
100
AcDbText
 10
542.9906290347826
 20
183.3202659438038
 30
0.0
 40
4.0
  1
らくらくビス止めかん太
 51
15.0
  7
OKANO
100
AcDbText
  0
LWPOLYLINE
  5
319A
330
1F
100
AcDbEntity
  8
細線
100
AcDbPolyline
 90
        4
 70
     1
 43
0.0
 10
539.9914360266373
 20
195.3056341599608
 10
597.3510269301343
 20
195.3056341599608
 10
597.3510269301343
 20
178.825753048259
 10
539.9914360266373
 20
178.825753048259
  0
LINE
  5
31B1
330
1F
100
AcDbEntity
  8
太線
100
AcDbLine
 10
459.3184212013334
 20
279.5095612612193
 30
0.0
 11
460.3536973817435
 21
279.5095612612193
 31
0.0
  0
LINE
  5
31B2
330
1F
100
AcDbEntity
  8
太線
100
AcDbLine
 10
460.3536973817435
 20
279.5095612612193
 30
0.0
 11
470.1685180825401
 21
242.8801517386681
 31
0.0
  0
LINE
  5
31B3
330
1F
100
AcDbEntity
  8
太線
100
AcDbLine
 10
470.6514809956846
 20
242.5095612612193
 30
0.0
 11
474.5004905137161
 21
242.5095612612193
 31
0.0
  0
LINE
  5
31B7
330
1F
100
AcDbEntity
  8
太線
100
AcDbLine
 10
459.3184212013334
 20
279.5095612612193
 30
0.0
 11
469.4011910945611
 21
241.8801517386681
 31
0.0
  0
LINE
  5
31B8
330
1F
100
AcDbEntity
  8
太線
100
AcDbLine
 10
469.8841540077056
 20
241.5095612612193
 30
0.0
 11
474.5004905137161
 21
241.5095612612193
 31
0.0
  0
LINE
  5
31B9
330
1F
100
AcDbEntity
  8
太線
100
AcDbLine
 10
474.5004905137161
 20
240.0095612612193
 30
0.0
 11
474.5004905137161
 21
244.0095612612193
 31
0.0
  0
LINE
  5
31BA
330
1F
100
AcDbEntity
  8
太線
100
AcDbLine
 10
474.5004905137161
 20
244.0095612612193
 30
0.0
 11
622.5004905137161
 21
244.0095612612193
 31
0.0
  0
LINE
  5
31BB
330
1F
100
AcDbEntity
  8
太線
100
AcDbLine
 10
622.5004905137161
 20
244.0095612612193
 30
0.0
 11
622.5004905137161
 21
242.5095612612193
 31
0.0
  0
LINE
  5
31BC
330
1F
100
AcDbEntity
  8
太線
100
AcDbLine
 10
622.5004905137161
 20
242.5095612612193
 30
0.0
 11
626.3495000317476
 21
242.5095612612193
 31
0.0
  0
LINE
  5
31BD
330
1F
100
AcDbEntity
  8
太線
100
AcDbLine
 10
626.8324629448922
 20
242.8801517386681
 30
0.0
 11
636.6472836456887
 21
279.5095612612193
 31
0.0
  0
LINE
  5
31BE
330
1F
100
AcDbEntity
  8
太線
100
AcDbLine
 10
636.6472836456887
 20
279.5095612612193
 30
0.0
 11
637.6825598260987
 21
279.5095612612193
 31
0.0
  0
LINE
  5
31BF
330
1F
100
AcDbEntity
  8
太線
100
AcDbLine
 10
637.6825598260987
 20
279.5095612612193
 30
0.0
 11
627.5997899328713
 21
241.8801517386681
 31
0.0
  0
LINE
  5
31C0
330
1F
100
AcDbEntity
  8
太線
100
AcDbLine
 10
627.1168270197267
 20
241.5095612612193
 30
0.0
 11
622.5004905137161
 21
241.5095612612193
 31
0.0
  0
LINE
  5
31C1
330
1F
100
AcDbEntity
  8
太線
100
AcDbLine
 10
622.5004905137161
 20
241.5095612612193
 30
0.0
 11
622.5004905137161
 21
240.0095612612193
 31
0.0
  0
LINE
  5
31C2
330
1F
100
AcDbEntity
  8
太線
100
AcDbLine
 10
622.5004905137161
 20
240.0095612612193
 30
0.0
 11
474.5004905137161
 21
240.0095612612193
 31
0.0
  0
LINE
  5
31CE
330
1F
100
AcDbEntity
  8
太線
100
AcDbLine
 10
622.5004905137161
 20
300.2123799056495
 30
0.0
 11
622.5004905137161
 21
301.7123799056495
 31
0.0
  0
LINE
  5
31CF
330
1F
100
AcDbEntity
  8
太線
100
AcDbLine
 10
622.5004905137161
 20
301.7123799056495
 30
0.0
 11
637.6825598260987
 21
301.7123799056495
 31
0.0
  0
LINE
  5
31D0
330
1F
100
AcDbEntity
  8
太線
100
AcDbLine
 10
637.6825598260987
 20
301.7123799056495
 30
0.0
 11
637.6825598260987
 21
331.7123799056495
 31
0.0
  0
LINE
  5
31D1
330
1F
100
AcDbEntity
  8
太線
100
AcDbLine
 10
637.6825598260987
 20
331.7123799056495
 30
0.0
 11
622.5004905137161
 21
331.7123799056495
 31
0.0
  0
LINE
  5
31D2
330
1F
100
AcDbEntity
  8
太線
100
AcDbLine
 10
622.5004905137161
 20
331.7123799056495
 30
0.0
 11
622.5004905137161
 21
333.2123799056495
 31
0.0
  0
LINE
  5
31D3
330
1F
100
AcDbEntity
  8
太線
100
AcDbLine
 10
622.5004905137161
 20
333.2123799056495
 30
0.0
 11
474.5004905137161
 21
333.2123799056495
 31
0.0
  0
LINE
  5
31D4
330
1F
100
AcDbEntity
  8
太線
100
AcDbLine
 10
474.5004905137161
 20
333.2123799056495
 30
0.0
 11
474.5004905137161
 21
331.7123799056495
 31
0.0
  0
LINE
  5
31D5
330
1F
100
AcDbEntity
  8
太線
100
AcDbLine
 10
474.5004905137161
 20
331.7123799056495
 30
0.0
 11
459.3184212013334
 21
331.7123799056495
 31
0.0
  0
LINE
  5
31D6
330
1F
100
AcDbEntity
  8
太線
100
AcDbLine
 10
459.3184212013334
 20
331.7123799056495
 30
0.0
 11
459.3184212013334
 21
301.7123799056495
 31
0.0
  0
LINE
  5
31D7
330
1F
100
AcDbEntity
  8
太線
100
AcDbLine
 10
459.3184212013334
 20
301.7123799056495
 30
0.0
 11
474.5004905137161
 21
301.7123799056495
 31
0.0
  0
LINE
  5
31D8
330
1F
100
AcDbEntity
  8
太線
100
AcDbLine
 10
474.5004905137161
 20
301.7123799056495
 30
0.0
 11
474.5004905137161
 21
300.2123799056495
 31
0.0
  0
LINE
  5
31D9
330
1F
100
AcDbEntity
  8
太線
100
AcDbLine
 10
474.5004905137161
 20
300.2123799056495
 30
0.0
 11
622.5004905137161
 21
300.2123799056495
 31
0.0
  0
LINE
  5
31DA
330
1F
100
AcDbEntity
  8
太線
100
AcDbLine
 10
636.6472836456887
 20
331.7123799056495
 30
0.0
 11
636.6472836456887
 21
301.7123799056495
 31
0.0
  0
LINE
  5
31DB
330
1F
100
AcDbEntity
  8
太線
100
AcDbLine
 10
622.5004905137161
 20
331.7123799056495
 30
0.0
 11
622.5004905137161
 21
327.2123799056495
 31
0.0
  0
LINE
  5
31DC
330
1F
100
AcDbEntity
  8
太線
100
AcDbLine
 10
622.5004905137161
 20
327.2123799056495
 30
0.0
 11
474.5004905137161
 21
327.2123799056495
 31
0.0
  0
LINE
  5
31DD
330
1F
100
AcDbEntity
  8
太線
100
AcDbLine
 10
474.5004905137161
 20
327.2123799056495
 30
0.0
 11
474.5004905137161
 21
331.7123799056495
 31
0.0
  0
LINE
  5
31DE
330
1F
100
AcDbEntity
  8
太線
100
AcDbLine
 10
474.5004905137161
 20
301.7123799056495
 30
0.0
 11
474.5004905137161
 21
306.2123799056495
 31
0.0
  0
LINE
  5
31DF
330
1F
100
AcDbEntity
  8
太線
100
AcDbLine
 10
474.5004905137161
 20
306.2123799056495
 30
0.0
 11
622.5004905137161
 21
306.2123799056495
 31
0.0
  0
LINE
  5
31E0
330
1F
100
AcDbEntity
  8
太線
100
AcDbLine
 10
622.5004905137161
 20
306.2123799056495
 30
0.0
 11
622.5004905137161
 21
301.7123799056495
 31
0.0
  0
LINE
  5
31E1
330
1F
100
AcDbEntity
  8
太線
100
AcDbLine
 10
627.5004905137161
 20
331.7123799056495
 30
0.0
 11
627.5004905137161
 21
301.7123799056495
 31
0.0
  0
LINE
  5
31E2
330
1F
100
AcDbEntity
  8
太線
100
AcDbLine
 10
469.5004905137161
 20
331.7123799056495
 30
0.0
 11
469.5004905137161
 21
301.7123799056495
 31
0.0
  0
ARC
  5
31E9
330
1F
100
AcDbEntity
  8
太線
100
AcDbCircle
 10
688.3575268950703
 20
261.4470612612194
 30
0.0
 40
18.06249999999993
100
AcDbArc
 50
33.85502612829373
 51
146.1449738717062
  0
LINE
  5
31EA
330
1F
100
AcDbEntity
  8
太線
100
AcDbLine
 10
703.3575268950703
 20
271.5095612612193
 30
0.0
 11
703.3575268950703
 21
240.0095612612193
 31
0.0
  0
LINE
  5
31EB
330
1F
100
AcDbEntity
  8
太線
100
AcDbLine
 10
703.3575268950703
 20
240.0095612612193
 30
0.0
 11
673.3575268950703
 21
240.0095612612193
 31
0.0
  0
LINE
  5
31EC
330
1F
100
AcDbEntity
  8
太線
100
AcDbLine
 10
673.3575268950703
 20
240.0095612612193
 30
0.0
 11
673.3575268950703
 21
271.5095612612193
 31
0.0
  0
LINE
  5
31ED
330
1F
100
AcDbEntity
  8
太線
100
AcDbLine
 10
703.3575268950703
 20
244.0095612612193
 30
0.0
 11
704.3575268950704
 21
244.0095612612193
 31
0.0
  0
LINE
  5
31EE
330
1F
100
AcDbEntity
  8
太線
100
AcDbLine
 10
704.3575268950704
 20
244.0095612612193
 30
0.0
 11
704.3575268950704
 21
240.0095612612193
 31
0.0
  0
LINE
  5
31EF
330
1F
100
AcDbEntity
  8
太線
100
AcDbLine
 10
704.3575268950704
 20
240.0095612612193
 30
0.0
 11
703.3575268950703
 21
240.0095612612193
 31
0.0
  0
LINE
  5
31F0
330
1F
100
AcDbEntity
  8
太線
100
AcDbLine
 10
673.3575268950703
 20
244.0095612612193
 30
0.0
 11
672.3575268950703
 21
244.0095612612193
 31
0.0
  0
LINE
  5
31F1
330
1F
100
AcDbEntity
  8
太線
100
AcDbLine
 10
672.3575268950703
 20
244.0095612612193
 30
0.0
 11
672.3575268950703
 21
240.0095612612193
 31
0.0
  0
LINE
  5
31F2
330
1F
100
AcDbEntity
  8
太線
100
AcDbLine
 10
672.3575268950703
 20
240.0095612612193
 30
0.0
 11
673.3575268950703
 21
240.0095612612193
 31
0.0
  0
LINE
  5
31F3
330
1F
100
AcDbEntity
  8
太線
100
AcDbLine
 10
673.3575268950703
 20
241.5095612612193
 30
0.0
 11
703.3575268950703
 21
241.5095612612193
 31
0.0
  0
CIRCLE
  5
31F9
330
1F
100
AcDbEntity
  8
太線
100
AcDbCircle
 10
688.3575268950703
 20
271.5095612612193
 30
0.0
 40
3.5
  0
CIRCLE
  5
31FA
330
1F
100
AcDbEntity
  8
太線
100
AcDbCircle
 10
688.3575268950703
 20
251.0095612612193
 30
0.0
 40
3.5
  0
ARC
  5
31FB
330
1F
100
AcDbEntity
  8
太線
100
AcDbCircle
 10
626.3495000317476
 20
243.0095612612193
 30
0.0
 40
0.5
100
AcDbArc
 50
270.0
 51
344.9999999999999
  0
ARC
  5
31FC
330
1F
100
AcDbEntity
  8
太線
100
AcDbCircle
 10
627.1168270197267
 20
242.0095612612193
 30
0.0
 40
0.5
100
AcDbArc
 50
270.0
 51
345.0
  0
ARC
  5
31FD
330
1F
100
AcDbEntity
  8
太線
100
AcDbCircle
 10
470.6514809956846
 20
243.0095612612193
 30
0.0
 40
0.5
100
AcDbArc
 50
195.0
 51
270.0
  0
ARC
  5
31FE
330
1F
100
AcDbEntity
  8
太線
100
AcDbCircle
 10
469.8841540077056
 20
242.0095612612193
 30
0.0
 40
0.5
100
AcDbArc
 50
195.0
 51
270.0
  0
LINE
  5
31FF
330
1F
100
AcDbEntity
  8
太線
100
AcDbLine
 10
460.3536973817435
 20
331.7123799056495
 30
0.0
 11
460.3536973817435
 21
301.7123799056495
 31
0.0
  0
TEXT
  5
3211
330
1F
100
AcDbEntity
  8
文字
100
AcDbText
 10
627.595051688617
 20
143.8664521111232
 30
0.0
 40
2.399999999999999
  1
FILM NAME
 51
15.0
  7
OKANO
100
AcDbText
  0
LINE
  5
3212
330
1F
100
AcDbEntity
  8
太線
100
AcDbLine
 10
625.5182636742452
 20
142.0652359323581
 30
0.0
 11
733.5182636742452
 21
142.0652359323581
 31
0.0
  0
LWPOLYLINE
  5
3213
330
1F
100
AcDbEntity
  8
太線
100
AcDbPolyline
 90
        4
 70
     1
 43
0.0
 10
625.5182636742452
 20
150.465235932358
 10
733.5182636742452
 20
150.465235932358
 10
733.5182636742452
 20
125.2652359323581
 10
625.5182636742452
 20
125.2652359323581
  0
TEXT
  5
3214
330
1F
100
AcDbEntity
  8
文字
100
AcDbText
 10
629.3906472403027
 20
133.8717241335074
 30
0.0
 40
2.399999999999999
  1
CHECK
 51
15.0
  7
OKANO
100
AcDbText
  0
TEXT
  5
3215
330
1F
100
AcDbEntity
  8
文字
100
AcDbText
 10
629.3906472403027
 20
126.9522965272916
 30
0.0
 40
2.399999999999999
  1
ISSUED
 51
15.0
  7
OKANO
100
AcDbText
  0
TEXT
  5
3216
330
1F
100
AcDbEntity
  8
文字
100
AcDbText
 10
629.6471616732034
 20
130.2838727165597
 30
0.0
 40
2.399999999999999
  1
APPR
 51
15.0
  7
OKANO
100
AcDbText
  0
TEXT
  5
3217
330
1F
100
AcDbEntity
  8
文字
100
AcDbText
 10
628.8776205659489
 20
137.4595749602664
 30
0.0
 40
2.399999999999999
  1
DRAWN
 51
15.0
  7
OKANO
100
AcDbText
  0
TEXT
  5
3218
330
1F
100
AcDbEntity
  8
文字
100
AcDbText
 10
660.4288048676559
 20
128.2336720755006
 30
0.0
 40
4.799999999999999
  1
joint kogyo T.okano
 51
15.0
  7
OKANO
100
AcDbText
  0
TEXT
  5
3219
330
1F
100
AcDbEntity
  8
文字
100
AcDbText
 10
682.1668962443669
 20
136.6036968690491
 30
0.0
 40
3.599999999999999
  1
吊りバンド
 51
15.0
  7
OKANO
100
AcDbText
  0
TEXT
  5
321A
330
1F
100
AcDbEntity
  8
文字
100
AcDbText
 10
652.9404918558591
 20
142.9860435827884
 30
0.0
 40
4.799999999999999
  1
F-999-200408241 Auto CAD
 51
15.0
  7
OKANO
100
AcDbText
  0
TEXT
  5
321B
330
1F
100
AcDbEntity
  8
文字
100
AcDbText
 10
659.9157770975783
 20
135.6656495468869
 30
0.0
 40
4.799999999999999
  1
16-1B
 51
15.0
  7
OKANO
100
AcDbText
  0
LINE
  5
321C
330
1F
100
AcDbEntity
  8
太線
100
AcDbLine
 10
649.5182636742452
 20
150.465235932358
 30
0.0
 11
649.5182636742452
 21
125.2652359323581
 31
0.0
  0
DIMENSION
  5
321E
330
1F
100
AcDbEntity
  8
寸法線
100
AcDbDimension
  2
*D2
 10
628.2650931239782
 20
224.6592659550594
 30
0.0
 11
548.3577434598423
 21
228.1592659550594
 31
0.0
 70
    32
  1
160
 71
     5
 42
159.8146993282716
  3
sunpo
100
AcDbAlignedDimension
 13
468.4503937957065
 23
238.6936550812611
 33
0.0
 14
628.2650931239782
 24
238.6936550812611
 34
0.0
100
AcDbRotatedDimension
1001
ACAD
1000
DSTYLE
1002
{
1070
    40
1040
1.0
1002
}
  0
DIMENSION
  5
322B
330
1F
100
AcDbEntity
  8
寸法線
100
AcDbDimension
  2
*D3
 10
703.3575268950703
 20
295.415977799659
 30
0.0
 11
688.3575268950703
 21
298.915977799659
 31
0.0
 70
    32
 71
     5
 42
30.0
  3
sunpo
100
AcDbAlignedDimension
 13
673.3575268950703
 23
271.5095612612193
 33
0.0
 14
703.3575268950703
 24
271.5095612612193
 34
0.0
100
AcDbRotatedDimension
1001
ACAD
1000
DSTYLE
1002
{
1070
    40
1040
1.0
1002
}
  0
DIMENSION
  5
3238
330
1F
100
AcDbEntity
  8
寸法線
100
AcDbDimension
  2
*D4
 10
729.5396071690288
 20
239.8631875084444
 30
0.0
 11
726.0396071690288
 21
259.4528556637676
 31
0.0
 70
    32
  1
38
 71
     5
 42
39.17933631064605
  3
sunpo
100
AcDbAlignedDimension
 13
690.3176846232622
 23
279.0425238190905
 33
0.0
 14
690.3176846232622
 24
239.8631875084445
 34
0.0
 50
90.0
100
AcDbRotatedDimension
1001
ACAD
1000
DSTYLE
1002
{
1070
    40
1040
1.0
1002
}
  0
DIMENSION
  5
3245
330
1F
100
AcDbEntity
  8
寸法線
100
AcDbDimension
  2
*D5
 10
691.721875543418
 20
272.4745266348786
 30
0.0
 11
657.5351821969503
 21
262.6690698385222
 31
0.0
 70
   163
 71
     5
 42
7.0
  3
sunpo
100
AcDbDiametricDimension
 15
684.9931782467227
 25
270.5445958875599
 35
0.0
 40
0.0
1001
ACAD
1000
DSTYLE
1002
{
1070
    40
1040
1.0
1070
   288
1070
     1
1002
}
  0
DIMENSION
  5
3251
330
1F
100
AcDbEntity
  8
寸法線
100
AcDbDimension
  2
*D6
 10
635.9860779223708
 20
284.8065185744976
 30
0.0
 11
625.1593955055991
 21
288.3065185744976
 31
0.0
 70
    32
  1
0.6
 71
     5
 42
2.373206420018959
  3
sunpo
100
AcDbAlignedDimension
 13
638.3592843423898
 23
280.0652592771746
 33
0.0
 14
635.9860779223708
 24
280.0652592771746
 34
0.0
100
AcDbRotatedDimension
1001
ACAD
1000
DSTYLE
1002
{
1070
    40
1040
1.0
1002
}
  0
LEADER
  5
3260
330
1F
100
AcDbEntity
  8
寸法線
100
AcDbLeader
  3
sunpo
 73
     0
 74
     0
 75
     1
 40
5.0
 41
27.80822748423151
 76
     3
 10
526.9987631564204
 20
331.9169502941079
 30
0.0
 10
545.5713846043286
 20
344.5381839124511
 30
0.0
 10
549.6892979215176
 20
344.5381839124511
 30
0.0
340
3261
213
0.0
223
-2.5
233
0.0
1001
ACAD
1000
DSTYLE
1002
{
1070
   147
1040
1.0
1070
    77
1070
     0
1002
}
  0
MTEXT
  5
3261
102
{ACAD_REACTORS
330
3260
102
}
330
1F
100
AcDbEntity
  8
寸法線
100
AcDbMText
 10
550.6892979215177
 20
347.0381839124511
 30
0.0
 40
5.0
 41
0.0
 71
     1
 72
     1
  1
PVC　ｶﾊﾞｰ
  7
OKANO
 73
     1
 44
1.0
  0
LEADER
  5
3266
330
1F
100
AcDbEntity
  8
寸法線
100
AcDbLeader
  3
sunpo
 73
     0
 74
     0
 75
     1
 40
5.500000000000001
 41
80.22910906319696
 76
     3
 10
491.7261885384059
 20
309.8297920561344
 30
0.0
 10
511.8781799222914
 20
285.1132094545243
 30
0.0
 10
515.9960932394806
 20
285.1132094545243
 30
0.0
340
3267
213
0.0
223
-2.5
233
0.0
1001
ACAD
1000
DSTYLE
1002
{
1070
   147
1040
1.0
1070
    77
1070
     0
1002
}
  0
MTEXT
  5
3267
102
{ACAD_REACTORS
330
3266
102
}
330
1F
100
AcDbEntity
  8
寸法線
100
AcDbMText
 10
516.9960932394806
 20
287.6132094545244
 30
0.0
 40
5.0
 41
0.0
 71
     1
 72
     1
  1
SUS(304) W 30mm t 0.6mm
  7
OKANO
 73
     1
 44
1.0
  0
TEXT
  5
3285
330
1F
100
AcDbEntity
  8
文字
100
AcDbText
 10
656.757039604717
 20
198.7718164503487
 30
0.0
 40
4.799999999999999
  1
重量　60g
 51
15.0
  7
OKANO
100
AcDbText
  0
DIMENSION
  5
3287
330
1F
100
AcDbEntity
  8
寸法線
100
AcDbDimension
  2
*D7
 10
450.5639972719786
 20
159.873390714702
 30
0.0
 11
485.7715290267092
 21
163.373390714702
 31
0.0
 70
    32
  1
48.6mm  　足場パイプ
 71
     5
 42
8.536970631695112
  3
sunpo
100
AcDbAlignedDimension
 13
442.0270266402836
 23
172.3096226031359
 33
0.0
 14
450.5639972719786
 24
174.7968687431716
 34
0.0
100
AcDbRotatedDimension
1001
ACAD
1000
DSTYLE
1002
{
1070
    40
1040
1.0
1002
}
  0
ELLIPSE
  5
32B5
330
1F
100
AcDbEntity
  8
太線
100
AcDbEllipse
 10
450.5315360489711
 20
197.2788768456929
 30
0.0
 11
-0.0692250176770131
 21
1.314023973726306
 31
0.0
210
0.0
220
0.0
230
1.0
 40
0.9667389396434504
 41
0.0
 42
6.283185307179586
  0
ARC
  5
32B6
330
1F
100
AcDbEntity
  8
太線
100
AcDbCircle
 10
450.7336132440179
 20
197.214398941133
 30
0.0
 40
1.111241717115018
100
AcDbArc
 50
82.55191129853596
 51
270.2886275671501
  0
ELLIPSE
  5
32B7
330
1F
100
AcDbEntity
  8
太線
100
AcDbEllipse
 10
409.2046288057409
 20
187.156663400951
 30
0.0
 11
-0.0692250176770131
 21
1.314023973726306
 31
0.0
210
0.0
220
0.0
230
1.0
 40
0.9667389396434504
 41
0.0
 42
6.283185307179586
  0
ARC
  5
32B8
330
1F
100
AcDbEntity
  8
太線
100
AcDbCircle
 10
409.7727026029867
 20
186.9359624863032
 30
0.0
 40
1.22586128065071
100
AcDbArc
 50
114.0125905331564
 51
221.7755407576234
  0
CIRCLE
  5
32B9
330
1F
100
AcDbEntity
  8
破線
100
AcDbCircle
 10
427.9705183472847
 20
173.9744532768651
 30
0.0
 40
0.8718772479920302
  0
ARC
  5
32BC
330
1F
100
AcDbEntity
  8
細線
100
AcDbCircle
 10
436.9032361854354
 20
177.1451411499204
 30
0.0
 40
6.067978694001883
100
AcDbArc
 50
79.61714119974861
 51
187.7363551005188
  0
LINE
  5
32BD
330
1F
100
AcDbEntity
  8
細線
100
AcDbLine
 10
430.2561960600926
 20
176.0762614804184
 30
0.0
 11
425.7082884855929
 21
178.3477462624703
 31
0.0
  0
ARC
  5
32C0
330
1F
100
AcDbEntity
  8
細線
100
AcDbCircle
 10
436.1461275342399
 20
177.6081882814546
 30
0.0
 40
6.166047291426285
100
AcDbArc
 50
90.99871499312646
 51
191.0738450243467
  0
ARC
  5
32C1
330
1F
100
AcDbEntity
  8
細線
100
AcDbCircle
 10
437.3830133972173
 20
180.7443661291692
 30
0.0
 40
2.794771845763283
100
AcDbArc
 50
30.38277412984182
 51
68.47608240036663
  0
LINE
  5
32C2
330
1F
100
AcDbEntity
  8
太線
100
AcDbLine
 10
425.4432902657497
 20
178.895419825033
 30
0.0
 11
423.6618266659363
 21
179.5874593811256
 31
0.0
  0
LINE
  5
32C3
330
1F
100
AcDbEntity
  8
細線
100
AcDbLine
 10
438.705295572064
 20
183.2453800338844
 30
0.0
 11
435.9341307185025
 21
183.8385564768189
 31
0.0
  0
LINE
  5
32C4
330
1F
100
AcDbEntity
  8
細線
100
AcDbLine
 10
432.7270713821242
 20
175.2158064846119
 30
0.0
 11
432.9862877005282
 21
171.2023015048734
 31
0.0
  0
LINE
  5
32C5
330
1F
100
AcDbEntity
  8
細線
100
AcDbLine
 10
432.9862877005282
 20
171.2023015048734
 30
0.0
 11
434.5415923262855
 21
168.8718798716743
 31
0.0
  0
LINE
  5
32C6
330
1F
100
AcDbEntity
  8
細線
100
AcDbLine
 10
434.5415923262855
 20
168.8718798716743
 30
0.0
 11
435.4488516791441
 21
168.6129438862062
 31
0.0
  0
CIRCLE
  5
32C7
330
1F
100
AcDbEntity
  8
破線
100
AcDbCircle
 10
435.2057834234774
 20
171.6193795917691
 30
0.0
 40
0.8718772479920302
  0
ARC
  5
343C
330
1F
100
AcDbEntity
  8
太線
100
AcDbCircle
 10
423.214189316111
 20
263.165211027676
 30
0.0
 40
12.32100822995143
100
AcDbArc
 50
302.5106445261363
 51
234.9974768639865
  0
ARC
  5
343D
330
1F
100
AcDbEntity
  8
太線
100
AcDbCircle
 10
423.214189316111
 20
263.165211027676
 30
0.0
 40
15.9513273250603
100
AcDbArc
 50
302.510644526139
 51
234.9974768639865
  0
LINE
  5
343E
330
1F
100
AcDbEntity
  8
太線
100
AcDbLine
 10
415.0555570927471
 20
251.5145686872603
 30
0.0
 11
414.0643084301938
 21
250.0990515611479
 31
0.0
  0
LINE
  5
3441
330
1F
100
AcDbEntity
  8
太線
  6
ByBlock
100
AcDbLine
 10
410.4983945671085
 20
242.6652141144699
 30
0.0
 11
410.9705552218717
 21
242.6604094021564
 31
0.0
  0
LINE
  5
3442
330
1F
100
AcDbEntity
  8
太線
  6
ByBlock
100
AcDbLine
 10
420.313650329446
 20
245.5654892804901
 30
0.0
 11
411.3848780906196
 21
245.6563485706241
 31
0.0
  0
LINE
  5
3443
330
1F
100
AcDbEntity
  8
太線
  6
ByBlock
100
AcDbLine
 10
414.0128640383072
 20
233.6881266487581
 30
0.0
 11
414.9948724099405
 21
233.1435616577826
 31
0.0
  0
LINE
  5
3445
330
1F
100
AcDbEntity
  8
太線
  6
ByBlock
100
AcDbLine
 10
417.2352084567036
 20
250.1537618737121
 30
0.0
 11
414.0128640383071
 21
233.6881266487581
 31
0.0
  0
LINE
  5
344F
330
1F
100
AcDbEntity
  8
細線
100
AcDbLine
 10
413.0361239060284
 20
242.7841457423534
 30
0.0
 11
414.0318726057813
 21
245.6915877698248
 31
0.0
  0
LINE
  5
3455
330
1F
100
AcDbEntity
  8
太線
  6
ByBlock
100
AcDbLine
 10
410.5892320929553
 20
246.6644968478147
 30
0.0
 11
408.0860316720931
 21
246.6899694444069
 31
0.0
  0
ARC
  5
3456
330
1F
100
AcDbEntity
  8
太線
  6
ByBlock
100
AcDbCircle
 10
408.083487800893
 20
246.4399823873033
 30
0.0
 40
0.25
100
AcDbArc
 50
89.41697760505958
 51
178.6988386529081
  0
LINE
  5
3458
330
1F
100
AcDbEntity
  8
太線
  6
ByBlock
100
AcDbLine
 10
410.5665227114935
 20
245.6646761644786
 30
0.0
 11
410.5892320929553
 21
246.6644968478147
 31
0.0
  0
LINE
  5
345A
330
1F
100
AcDbEntity
  8
太線
  6
ByBlock
100
AcDbLine
 10
407.9787517131152
 20
241.6908022551866
 30
0.0
 11
410.4756851856468
 21
241.6653934311337
 31
0.0
  0
ARC
  5
345C
330
1F
100
AcDbEntity
  8
太線
  6
ByBlock
100
AcDbCircle
 10
407.9812955843155
 20
241.9407893122903
 30
0.0
 40
0.25
100
AcDbArc
 50
178.6988386529081
 51
269.4169776050595
  0
LINE
  5
345D
330
1F
100
AcDbEntity
  8
太線
  6
ByBlock
100
AcDbLine
 10
410.4756851856468
 20
241.6653934311337
 30
0.0
 11
410.4983945671085
 21
242.6652141144699
 31
0.0
  0
LINE
  5
3461
330
1F
100
AcDbEntity
  8
太線
  6
ByBlock
100
AcDbLine
 10
410.5665227114935
 20
245.6646761644786
 30
0.0
 11
410.4983945671085
 21
242.6652141144699
 31
0.0
  0
LINE
  5
3467
330
1F
100
AcDbEntity
  8
太線
  6
ByBlock
100
AcDbLine
 10
427.8989867154386
 20
250.6708732683075
 30
0.0
 11
431.5222990567393
 21
232.7032473023772
 31
0.0
  0
LINE
  5
3468
330
1F
100
AcDbEntity
  8
太線
  6
ByBlock
100
AcDbLine
 10
429.1931701755183
 20
250.1537618737121
 30
0.0
 11
432.5580457610669
 21
232.9598164802005
 31
0.0
  0
LINE
  5
3469
330
1F
100
AcDbEntity
  8
太線
  6
ByBlock
100
AcDbLine
 10
418.5293919167833
 20
250.6708732683075
 30
0.0
 11
414.9948724099405
 21
233.1435616577826
 31
0.0
  0
LINE
  5
346A
330
1F
100
AcDbEntity
  8
太線
  6
ByBlock
100
AcDbLine
 10
435.7451389994414
 20
238.6545465154885
 30
0.0
 11
436.000444410704
 21
235.6651932107619
 31
0.0
  0
ARC
  5
346B
330
1F
100
AcDbEntity
  8
太線
  6
ByBlock
100
AcDbCircle
 10
437.4903148127169
 20
237.3674912810102
 30
0.0
 40
1.13559601777594
100
AcDbArc
 50
286.6389284160001
 51
75.81612739991935
  0
LINE
  5
346C
330
1F
100
AcDbEntity
  8
太線
  6
ByBlock
100
AcDbLine
 10
438.4240045067319
 20
239.6046737176363
 30
0.0
 11
438.8069626236255
 21
235.1206437605464
 31
0.0
  0
LINE
  5
346D
330
1F
100
AcDbEntity
  8
太線
  6
ByBlock
100
AcDbLine
 10
433.4063814935786
 20
239.6024961054524
 30
0.0
 11
433.4892462436605
 21
236.7881598354625
 31
0.0
  0
LINE
  5
346E
330
1F
100
AcDbEntity
  8
太線
  6
ByBlock
100
AcDbLine
 10
434.1521624809924
 20
236.7053850579648
 30
0.0
 11
434.2350272310743
 21
239.5197213279546
 31
0.0
  0
LINE
  5
346F
330
1F
100
AcDbEntity
  8
太線
  6
ByBlock
100
AcDbLine
 10
434.3178919811562
 20
239.4369469908093
 30
0.0
 11
434.6493500998222
 21
236.6226107208194
 31
0.0
  0
LINE
  5
3472
330
1F
100
AcDbEntity
  8
太線
  6
ByBlock
100
AcDbLine
 10
432.171134640165
 20
235.0697938828748
 30
0.0
 11
431.0816995060402
 21
234.758864668234
 31
0.0
  0
LINE
  5
3473
330
1F
100
AcDbEntity
  8
太線
  6
ByBlock
100
AcDbLine
 10
431.5222990567394
 20
232.7032473023773
 30
0.0
 11
432.5580457610669
 21
232.9598164802005
 31
0.0
  0
ARC
  5
3474
330
1F
100
AcDbEntity
  8
太線
  6
ByBlock
100
AcDbCircle
 10
437.9701288997534
 20
235.4410798368608
 30
0.0
 40
0.8525090235632152
100
AcDbArc
 50
312.9003289015812
 51
100.4515250735441
  0
ARC
  5
3475
330
1F
100
AcDbEntity
  8
太線
  6
ByBlock
100
AcDbCircle
 10
438.5578694155821
 20
235.0993699807555
 30
0.0
 40
0.25
100
AcDbArc
 50
274.1633556615754
 51
4.881494613729366
  0
LINE
  5
3476
330
1F
100
AcDbEntity
  8
太線
  6
ByBlock
100
AcDbLine
 10
436.0855462144581
 20
234.6687421091865
 30
0.0
 11
436.000444410704
 21
235.6651932107619
 31
0.0
  0
LINE
  5
3477
330
1F
100
AcDbEntity
  8
太線
  6
ByBlock
100
AcDbLine
 10
435.06367296857
 20
234.3049217947588
 30
0.0
 11
435.2294024687339
 21
236.3742868286785
 31
0.0
  0
LINE
  5
3478
330
1F
100
AcDbEntity
  8
太線
  6
ByBlock
100
AcDbLine
 10
433.4892462436605
 20
236.7881598354625
 30
0.0
 11
434.1521624809924
 21
236.7053850579648
 31
0.0
  0
LINE
  5
3479
330
1F
100
AcDbEntity
  8
太線
  6
ByBlock
100
AcDbLine
 10
434.2350272310743
 20
236.4570616061762
 30
0.0
 11
434.2350272310743
 21
234.3876965722565
 31
0.0
  0
LINE
  5
347A
330
1F
100
AcDbEntity
  8
太線
  6
ByBlock
100
AcDbLine
 10
433.7378396122447
 20
236.7881598354625
 30
0.0
 11
434.2350272310743
 21
234.6360204643973
 31
0.0
  0
LINE
  5
347B
330
1F
100
AcDbEntity
  8
太線
  6
ByBlock
100
AcDbLine
 10
434.2350272310743
 20
234.3876965722565
 30
0.0
 11
435.06367296857
 21
234.3049217947588
 31
0.0
  0
LINE
  5
347C
330
1F
100
AcDbEntity
  8
太線
  6
ByBlock
100
AcDbLine
 10
435.2294024687339
 20
236.3742868286785
 30
0.0
 11
434.5664853497403
 21
236.3742868286785
 31
0.0
  0
LINE
  5
347D
330
1F
100
AcDbEntity
  8
太線
  6
ByBlock
100
AcDbLine
 10
438.5760194994318
 20
234.850029702308
 30
0.0
 11
436.0855462144581
 21
234.6687421091865
 31
0.0
  0
LINE
  5
347E
330
1F
100
AcDbEntity
  8
太線
  6
ByBlock
100
AcDbLine
 10
437.815480710526
 20
236.2794446577028
 30
0.0
 11
435.9663076812227
 21
236.1746727737277
 31
0.0
  0
LINE
  5
347F
330
1F
100
AcDbEntity
  8
太線
  6
ByBlock
100
AcDbLine
 10
431.9207409898051
 20
244.6990346450972
 30
0.0
 11
432.4179286086348
 21
242.5468952740321
 31
0.0
  0
LINE
  5
3480
330
1F
100
AcDbEntity
  8
太線
  6
ByBlock
100
AcDbLine
 10
431.672147621221
 20
244.6990346450972
 30
0.0
 11
432.3350638585529
 21
244.6162598675996
 31
0.0
  0
LINE
  5
3481
330
1F
100
AcDbEntity
  8
太線
  6
ByBlock
100
AcDbLine
 10
432.4179286086348
 20
247.4305961375893
 30
0.0
 11
431.4235542526371
 21
247.5961452522326
 31
0.0
  0
LINE
  5
3482
330
1F
100
AcDbEntity
  8
細線
100
AcDbLine
 10
414.8803867125868
 20
242.6338883250617
 30
0.0
 11
415.8761354123398
 21
245.541330352533
 31
0.0
  0
LINE
  5
3483
330
1F
100
AcDbEntity
  8
細線
100
AcDbLine
 10
416.8825808486742
 20
242.8607726416724
 30
0.0
 11
417.878329548427
 21
245.7682146691437
 31
0.0
  0
LINE
  5
3484
330
1F
100
AcDbEntity
  8
細線
100
AcDbLine
 10
418.7268436552327
 20
242.7105152243806
 30
0.0
 11
419.7225923549856
 21
245.6179572518519
 31
0.0
  0
ARC
  5
3486
330
1F
100
AcDbEntity
  8
太線
  6
ByBlock
100
AcDbCircle
 10
420.3111064582458
 20
245.3155022233865
 30
0.0
 40
0.25
100
AcDbArc
 50
358.6988386529049
 51
89.41697760505958
  0
LINE
  5
3487
330
1F
100
AcDbEntity
  8
太線
  6
ByBlock
100
AcDbLine
 10
415.7240471126329
 20
242.4152872002712
 30
0.0
 11
416.8558082546911
 21
242.3636867612219
 31
0.0
  0
ARC
  5
3488
330
1F
100
AcDbEntity
  8
太線
  6
ByBlock
100
AcDbCircle
 10
420.2543330045916
 20
242.815950515046
 30
0.0
 40
0.25
100
AcDbArc
 50
269.4169776050595
 51
358.6988386529049
  0
LINE
  5
3489
330
1F
100
AcDbEntity
  8
太線
  6
ByBlock
100
AcDbLine
 10
420.5042685419066
 20
242.8102736156257
 30
0.0
 11
420.5610419955609
 21
245.3098253239661
 31
0.0
  0
LINE
  5
348B
330
1F
100
AcDbEntity
  8
太線
  6
ByBlock
100
AcDbLine
 10
429.9922643719153
 20
246.8851027181711
 30
0.0
 11
428.8250128833269
 21
246.5741735035302
 31
0.0
  0
LINE
  5
348C
330
1F
100
AcDbEntity
  8
太線
  6
ByBlock
100
AcDbLine
 10
430.459165143683
 20
243.4648817974738
 30
0.0
 11
429.4475472456838
 21
243.153952582833
 31
0.0
  0
LINE
  5
348D
330
1F
100
AcDbEntity
  8
太線
  6
ByBlock
100
AcDbLine
 10
431.5486002778079
 20
238.4900148035722
 30
0.0
 11
430.5369823798087
 21
238.1013532852711
 31
0.0
  0
LWPOLYLINE
  5
348E
330
1F
100
AcDbEntity
  8
太線
  6
ByBlock
100
AcDbPolyline
 90
        4
 70
     1
 43
0.0
 10
410.9705552218717
 20
247.2416462422878
 10
411.3848780906196
 20
247.2416462422878
 10
411.3848780906196
 20
241.2818750326696
 10
410.9705552218717
 20
241.2818750326696
  0
LINE
  5
348F
330
1F
100
AcDbEntity
  8
太線
  6
ByBlock
100
AcDbLine
 10
431.5892828711391
 20
247.5133709150871
 30
0.0
 11
431.672147621221
 21
244.6990346450972
 31
0.0
  0
ARC
  5
3490
330
1F
100
AcDbEntity
  8
太線
  6
ByBlock
100
AcDbCircle
 10
423.214189316111
 20
263.165211027676
 30
0.0
 40
14.22324670039853
100
AcDbArc
 50
234.9974768639865
 51
245.2440837624015
  0
ARC
  5
3491
330
1F
100
AcDbEntity
  8
太線
  6
ByBlock
100
AcDbCircle
 10
423.214189316111
 20
263.165211027676
 30
0.0
 40
13.15
100
AcDbArc
 50
234.9974768639865
 51
249.3133125914539
  0
LINE
  5
3492
330
1F
100
AcDbEntity
  8
太線
100
AcDbLine
 10
416.1467048741519
 20
253.0727431696545
 30
0.0
 11
415.0555570927471
 21
251.5145686872603
 31
0.0
  0
LINE
  5
3493
330
1F
100
AcDbEntity
  8
太線
  6
ByBlock
100
AcDbLine
 10
418.5293919167833
 20
250.6708732683075
 30
0.0
 11
418.5688533860851
 21
250.8630423531207
 31
0.0
  0
ARC
  5
3494
330
1F
100
AcDbEntity
  8
太線
  6
ByBlock
100
AcDbCircle
 10
423.214189316111
 20
263.165211027676
 30
0.0
 40
14.22324670039853
100
AcDbArc
 50
294.7648388519839
 51
302.510644526139
  0
ARC
  5
3495
330
1F
100
AcDbEntity
  8
太線
  6
ByBlock
100
AcDbCircle
 10
423.214189316111
 20
263.165211027676
 30
0.0
 40
13.15
100
AcDbArc
 50
290.6928830058387
 51
302.510644526139
  0
LINE
  5
3496
330
1F
100
AcDbEntity
  8
太線
100
AcDbLine
 10
430.8585626632383
 20
251.1708664090597
 30
0.0
 11
429.8361926397358
 21
252.7750081526387
 31
0.0
  0
LINE
  5
3497
330
1F
100
AcDbEntity
  8
太線
100
AcDbLine
 10
430.8585626632383
 20
251.1708664090597
 30
0.0
 11
431.7873304577589
 21
249.7135905157599
 31
0.0
  0
LINE
  5
3498
330
1F
100
AcDbEntity
  8
太線
  6
ByBlock
100
AcDbLine
 10
429.1931701755183
 20
250.1537618737121
 30
0.0
 11
429.1722351135025
 21
250.2500092492838
 31
0.0
  0
LINE
  5
3499
330
1F
100
AcDbEntity
  8
太線
  6
ByBlock
100
AcDbLine
 10
427.8989867154386
 20
250.6708732683075
 30
0.0
 11
427.8608554964166
 21
250.8635447418102
 31
0.0
  0
ARC
  5
349A
330
1F
100
AcDbEntity
  8
太線
  6
ByBlock
100
AcDbCircle
 10
437.4350526639903
 20
247.49427474748
 30
0.0
 40
0.25
100
AcDbArc
 50
4.881494613729366
 51
94.16335566157547
  0
ARC
  5
349B
330
1F
100
AcDbEntity
  8
太線
  6
ByBlock
100
AcDbCircle
 10
436.9697472310175
 20
247.0226557858354
 30
0.0
 40
0.6459968922901636
100
AcDbArc
 50
275.2141119509364
 51
65.28602389009821
  0
LINE
  5
349C
330
1F
100
AcDbEntity
  8
太線
  6
ByBlock
100
AcDbLine
 10
435.0052803647433
 20
246.5654213251232
 30
0.0
 11
434.9201785609893
 21
247.5618724266987
 31
0.0
  0
LINE
  5
349D
330
1F
100
AcDbEntity
  8
太線
  6
ByBlock
100
AcDbLine
 10
435.0427120817023
 20
246.2980540702632
 30
0.0
 11
437.0287163808272
 21
246.3793427366832
 31
0.0
  0
ARC
  5
349E
330
1F
100
AcDbEntity
  8
太線
  6
ByBlock
100
AcDbCircle
 10
438.1749112986883
 20
239.5833999378453
 30
0.0
 40
0.25
100
AcDbArc
 50
4.881494613729366
 51
94.16335566157547
  0
LINE
  5
349F
330
1F
100
AcDbEntity
  8
太線
  6
ByBlock
100
AcDbLine
 10
437.075622075828
 20
244.1903194673375
 30
0.0
 11
435.2264490465246
 21
244.0855475833624
 31
0.0
  0
LINE
  5
34A0
330
1F
100
AcDbEntity
  8
太線
  6
ByBlock
100
AcDbLine
 10
437.8361608647337
 20
242.7609045119428
 30
0.0
 11
435.34568757976
 21
242.5796169188212
 31
0.0
  0
LINE
  5
34A1
330
1F
100
AcDbEntity
  8
太線
  6
ByBlock
100
AcDbLine
 10
435.34568757976
 20
242.5796169188212
 30
0.0
 11
435.2605857760059
 21
243.5760680203967
 31
0.0
  0
LINE
  5
34A2
330
1F
100
AcDbEntity
  8
太線
  6
ByBlock
100
AcDbLine
 10
432.4179286086348
 20
244.367936415811
 30
0.0
 11
432.4179286086348
 21
242.2985713818912
 31
0.0
  0
LINE
  5
34A3
330
1F
100
AcDbEntity
  8
太線
  6
ByBlock
100
AcDbLine
 10
433.2465743461304
 20
242.2157966043935
 30
0.0
 11
433.4123038462944
 21
244.2851616383132
 31
0.0
  0
LINE
  5
34A4
330
1F
100
AcDbEntity
  8
太線
  6
ByBlock
100
AcDbLine
 10
432.4179286086348
 20
242.2985713818912
 30
0.0
 11
433.2465743461304
 21
242.2157966043935
 31
0.0
  0
LINE
  5
34A5
330
1F
100
AcDbEntity
  8
太線
  6
ByBlock
100
AcDbLine
 10
433.4123038462944
 20
244.2851616383132
 30
0.0
 11
432.7493867273008
 21
244.2851616383132
 31
0.0
  0
LINE
  5
34A6
330
1F
100
AcDbEntity
  8
太線
  6
ByBlock
100
AcDbLine
 10
435.7825707164003
 20
238.3871792606285
 30
0.0
 11
437.7685750155253
 21
238.4684679270484
 31
0.0
  0
LINE
  5
34A7
330
1F
100
AcDbEntity
  8
太線
  6
ByBlock
100
AcDbLine
 10
435.7451389994414
 20
238.6545465154885
 30
0.0
 11
435.6600371956873
 21
239.650997617064
 31
0.0
  0
LINE
  5
34A8
330
1F
100
AcDbEntity
  8
太線
  6
ByBlock
100
AcDbLine
 10
434.2350272310743
 20
239.5197213279546
 30
0.0
 11
433.2406528750766
 21
239.6852704425978
 31
0.0
  0
LINE
  5
34A9
330
1F
100
AcDbEntity
  8
太線
  6
ByBlock
100
AcDbLine
 10
435.6600371956873
 20
239.650997617064
 30
0.0
 11
438.1567612148386
 21
239.8327402162927
 31
0.0
  0
ARC
  5
34AA
330
1F
100
AcDbEntity
  8
太線
  6
ByBlock
100
AcDbCircle
 10
437.7096058657156
 20
239.1117809762007
 30
0.0
 40
0.6459968922901636
100
AcDbArc
 50
275.2141119509364
 51
65.28602389009821
  0
ARC
  5
34AB
330
1F
100
AcDbEntity
  8
太線
  6
ByBlock
100
AcDbCircle
 10
437.2302702650553
 20
243.3519546464955
 30
0.0
 40
0.8525090235632152
100
AcDbArc
 50
312.9003289015812
 51
100.4515250735441
  0
ARC
  5
34AC
330
1F
100
AcDbEntity
  8
太線
  6
ByBlock
100
AcDbCircle
 10
437.818010780884
 20
243.0102447903902
 30
0.0
 40
0.25
100
AcDbArc
 50
274.1633556615754
 51
4.881494613729366
  0
ARC
  5
34AD
330
1F
100
AcDbEntity
  8
太線
  6
ByBlock
100
AcDbCircle
 10
436.7504561780188
 20
245.2783660906449
 30
0.0
 40
1.13559601777594
100
AcDbArc
 50
286.6389284160001
 51
75.81612739991935
  0
LINE
  5
34AE
330
1F
100
AcDbEntity
  8
太線
  6
ByBlock
100
AcDbLine
 10
435.0052803647433
 20
246.5654213251232
 30
0.0
 11
435.2605857760059
 21
243.5760680203967
 31
0.0
  0
LINE
  5
34AF
330
1F
100
AcDbEntity
  8
太線
  6
ByBlock
100
AcDbLine
 10
432.3350638585529
 20
244.6162598675996
 30
0.0
 11
432.4179286086348
 21
247.4305961375893
 31
0.0
  0
LINE
  5
34B0
330
1F
100
AcDbEntity
  8
太線
  6
ByBlock
100
AcDbLine
 10
432.5007933587166
 20
247.347821800444
 30
0.0
 11
432.8322514773827
 21
244.5334855304541
 31
0.0
  0
LINE
  5
34B1
330
1F
100
AcDbEntity
  8
太線
  6
ByBlock
100
AcDbLine
 10
437.6841458720338
 20
247.515548527271
 30
0.0
 11
438.0671039889275
 21
243.0315185701811
 31
0.0
  0
LINE
  5
34B2
330
1F
100
AcDbEntity
  8
太線
  6
ByBlock
100
AcDbLine
 10
434.9201785609893
 20
247.5618724266987
 30
0.0
 11
437.4169025801405
 21
247.7436150259275
 31
0.0
  0
ARC
  5
34DC
330
1F
100
AcDbEntity
  8
太線
100
AcDbCircle
 10
410.5098842292798
 20
244.1341134361315
 30
0.0
 40
3.536381909526733
100
AcDbArc
 50
139.1828531357228
 51
218.2148241700888
  0
LINE
  5
34DD
330
1F
100
AcDbEntity
  8
太線
100
AcDbLine
 10
406.995165389158
 20
243.7172147278179
 30
0.0
 11
408.2239897305042
 21
243.8002333549367
 31
0.0
  0
LINE
  5
34DE
330
1F
100
AcDbEntity
  8
太線
100
AcDbLine
 10
408.2239897305042
 20
243.8002333549367
 30
0.0
 11
408.1984733096012
 21
244.1779220761046
 31
0.0
  0
LINE
  5
34DF
330
1F
100
AcDbEntity
  8
太線
100
AcDbLine
 10
408.1984733096012
 20
244.1779220761046
 30
0.0
 11
407.0450358354705
 21
244.3845565787352
 31
0.0
  0
LINE
  5
34E2
330
1F
100
AcDbEntity
  8
太線
  6
ByBlock
100
AcDbLine
 10
410.9705552218717
 20
245.6605647249546
 30
0.0
 11
410.5665227114935
 21
245.6646761644786
 31
0.0
  0
LINE
  5
34E3
330
1F
100
AcDbEntity
  8
太線
  6
ByBlock
100
AcDbLine
 10
411.3848780906196
 20
242.6561932478259
 30
0.0
 11
420.2517891333914
 21
242.5659634579424
 31
0.0
  0
LINE
  5
34E4
330
1F
100
AcDbEntity
  8
太線
  6
ByBlock
100
AcDbLine
 10
412.3235805615974
 20
239.5347332184882
 30
0.0
 11
409.8203801407352
 21
239.5602058150803
 31
0.0
  0
LINE
  5
34E5
330
1F
100
AcDbEntity
  8
太線
  6
ByBlock
100
AcDbLine
 10
409.7131001817573
 20
234.56103862586
 30
0.0
 11
412.2100336542889
 21
234.5356298018072
 31
0.0
  0
ARC
  5
34E6
330
1F
100
AcDbEntity
  8
太線
  6
ByBlock
100
AcDbCircle
 10
409.8178362695351
 20
239.3102187579767
 30
0.0
 40
0.25
100
AcDbArc
 50
89.41697760505958
 51
178.6988386529081
  0
ARC
  5
34E7
330
1F
100
AcDbEntity
  8
太線
  6
ByBlock
100
AcDbCircle
 10
409.7156440529576
 20
234.8110256829638
 30
0.0
 40
0.25
100
AcDbArc
 50
178.6988386529081
 51
269.4169776050595
  0
ARC
  5
34E8
330
1F
100
AcDbEntity
  8
太線
100
AcDbCircle
 10
412.244232697922
 20
237.0043498068049
 30
0.0
 40
3.536381909526733
100
AcDbArc
 50
139.1828531357228
 51
218.2148241700888
  0
LINE
  5
34E9
330
1F
100
AcDbEntity
  8
太線
100
AcDbLine
 10
408.7295138578001
 20
236.5874510984913
 30
0.0
 11
409.9583381991463
 21
236.6704697256101
 31
0.0
  0
LINE
  5
34EA
330
1F
100
AcDbEntity
  8
太線
100
AcDbLine
 10
409.9583381991463
 20
236.6704697256101
 30
0.0
 11
409.9328217782433
 21
237.048158446778
 31
0.0
  0
LINE
  5
34EB
330
1F
100
AcDbEntity
  8
太線
100
AcDbLine
 10
409.9328217782433
 20
237.048158446778
 30
0.0
 11
408.7793843041126
 21
237.2547929494086
 31
0.0
  0
LINE
  5
34EC
330
1F
100
AcDbEntity
  8
太線
  6
ByBlock
100
AcDbLine
 10
413.1192265592617
 20
235.5264296184993
 30
0.0
 11
421.9861376020335
 21
235.4361998286158
 31
0.0
  0
LINE
  5
34ED
330
1F
100
AcDbEntity
  8
太線
  6
ByBlock
100
AcDbLine
 10
422.0479987980881
 20
238.4357256511635
 30
0.0
 11
413.1192265592617
 21
238.5265849412975
 31
0.0
  0
LINE
  5
34EE
330
1F
100
AcDbEntity
  8
細線
100
AcDbLine
 10
418.6169293173163
 20
235.7310090123458
 30
0.0
 11
419.6126780170692
 21
238.6384510398172
 31
0.0
  0
LINE
  5
34EF
330
1F
100
AcDbEntity
  8
太線
  6
ByBlock
100
AcDbLine
 10
412.2327430357506
 20
235.5354504851433
 30
0.0
 11
412.7049036905138
 21
235.5306457728298
 31
0.0
  0
LINE
  5
34F0
330
1F
100
AcDbEntity
  8
太線
  6
ByBlock
100
AcDbLine
 10
412.7049036905138
 20
238.530801095628
 30
0.0
 11
412.3008711801356
 21
238.534912535152
 31
0.0
  0
LWPOLYLINE
  5
34F1
330
1F
100
AcDbEntity
  8
太線
  6
ByBlock
100
AcDbPolyline
 90
        4
 70
     1
 43
0.0
 10
412.7049036905138
 20
240.1118826129612
 10
413.1192265592617
 20
240.1118826129612
 10
413.1192265592617
 20
234.152111403343
 10
412.7049036905138
 20
234.152111403343
  0
LINE
  5
34F2
330
1F
100
AcDbEntity
  8
細線
100
AcDbLine
 10
414.7704723746705
 20
235.6543821130268
 30
0.0
 11
415.7662210744234
 21
238.5618241404983
 31
0.0
  0
LINE
  5
34F3
330
1F
100
AcDbEntity
  8
太線
  6
ByBlock
100
AcDbLine
 10
412.3008711801356
 20
238.534912535152
 30
0.0
 11
412.3235805615974
 21
239.5347332184882
 31
0.0
  0
LINE
  5
34F4
330
1F
100
AcDbEntity
  8
太線
  6
ByBlock
100
AcDbLine
 10
412.2100336542889
 20
234.5356298018072
 30
0.0
 11
412.2327430357506
 21
235.5354504851433
 31
0.0
  0
LINE
  5
34F5
330
1F
100
AcDbEntity
  8
太線
  6
ByBlock
100
AcDbLine
 10
412.3008711801356
 20
238.534912535152
 30
0.0
 11
412.2327430357506
 21
235.5354504851433
 31
0.0
  0
LINE
  5
34F6
330
1F
100
AcDbEntity
  8
細線
100
AcDbLine
 10
416.614735181229
 20
235.5041246957351
 30
0.0
 11
417.6104838809819
 21
238.4115667232064
 31
0.0
  0
LINE
  5
34F8
330
1F
100
AcDbEntity
  8
細線
100
AcDbLine
 10
420.4611921238748
 20
235.580751595054
 30
0.0
 11
421.4569408236277
 21
238.4881936225253
 31
0.0
  0
ARC
  5
34F9
330
1F
100
AcDbEntity
  8
太線
  6
ByBlock
100
AcDbCircle
 10
422.0454549268879
 20
238.1857385940599
 30
0.0
 40
0.25
100
AcDbArc
 50
358.6988386529049
 51
89.41697760505958
  0
ARC
  5
34FA
330
1F
100
AcDbEntity
  8
太線
  6
ByBlock
100
AcDbCircle
 10
421.9886814732337
 20
235.6861868857194
 30
0.0
 40
0.25
100
AcDbArc
 50
269.4169776050595
 51
358.6988386529049
  0
LINE
  5
34FB
330
1F
100
AcDbEntity
  8
太線
  6
ByBlock
100
AcDbLine
 10
422.2386170105487
 20
235.6805099862991
 30
0.0
 11
422.2953904642031
 21
238.1800616946395
 31
0.0
  0
MTEXT
  5
34FC
330
1F
100
AcDbEntity
  8
寸法線
100
AcDbMText
 10
401.9782109629627
 20
219.5649963208254
 30
0.0
 40
5.0
 41
0.0
 71
     1
 72
     1
  1
SUS(304) ｾﾑｽﾋﾞｽ　M 6-20 W・SW
  7
OKANO
 73
     1
 44
1.0
  0
LEADER
  5
34FD
330
1F
100
AcDbEntity
  8
寸法線
100
AcDbLeader
  3
sunpo
 76
     2
 10
419.3445863541397
 20
234.6377788670456
 30
0.0
 10
427.2428113300161
 20
221.8170999851879
 30
0.0
1001
ACAD
1000
DSTYLE
1002
{
1070
   147
1040
1.0
1070
    77
1070
     0
1002
}
  0
TEXT
  5
351B
330
1F
100
AcDbEntity
  8
文字
100
AcDbText
 10
659.5256095852144
 20
154.4768973832244
 30
0.0
 40
4.799999999999999
  1
JAN 4562182301161
 51
15.0
  7
OKANO
100
AcDbText
  0
DIMENSION
  5
352C
330
1F
100
AcDbEntity
  8
寸法線
100
AcDbDimension
  2
*D9
 10
714.9285968425642
 20
251.0095612612193
 30
0.0
 11
711.42810471658
 21
261.2595612612194
 31
0.0
 70
    32
  1
20
 71
     5
 42
20.50000000000002
  3
sunpo
100
AcDbAlignedDimension
 13
688.3575268950703
 23
271.5095612612193
 33
0.0
 14
688.3575268950703
 24
251.0095612612193
 34
0.0
 50
90.0
100
AcDbRotatedDimension
1001
ACAD
1000
DSTYLE
1002
{
1070
    40
1040
1.0
1002
}
  0
VIEWPORT
  5
2E
330
1B
100
AcDbEntity
 67
     1
  8
0
100
AcDbViewport
 10
210.2096097233205
 20
128.5311189423127
 30
0.0
 40
560.3741779379912
 41
284.615757393163
 68
     2
 69
     1
 12
210.2096097233205
 22
128.5311189423127
 13
0.0
 23
0.0
 14
10.0
 24
10.0
 15
10.0
 25
10.0
 16
0.0
 26
0.0
 36
1.0
 17
0.0
 27
0.0
 37
0.0
 42
50.0
 43
0.0
 44
0.0
 45
284.615757393163
 50
0.0
 51
0.0
 72
   100
 90
    32800
  1

281
     0
 71
     1
 74
     0
110
0.0
120
0.0
130
0.0
111
1.0
121
0.0
131
0.0
112
0.0
122
1.0
132
0.0
 79
     0
146
0.0
  0
VIEWPORT
  5
30
330
1B
100
AcDbEntity
 67
     1
  8
70-0-CON
100
AcDbViewport
 10
141.8594093064315
 20
100.3480256368386
 30
0.0
 40
261.6199023344245
 41
192.6196987113174
 68
     1
 69
     2
 12
559.5706231740676
 22
247.9144349888316
 13
0.0
 23
0.0
 14
5.0
 24
5.0
 15
10.0
 25
10.0
 16
0.0
 26
0.0
 36
1.0
 17
0.0
 27
0.0
 37
0.0
 42
50.0
 43
0.0
 44
0.0
 45
264.3970741587625
 50
0.0
 51
0.0
 72
   100
 90
    32864
  1

281
     0
 71
     1
 74
     0
110
0.0
120
0.0
130
0.0
111
1.0
121
0.0
131
0.0
112
0.0
122
1.0
132
0.0
 79
     0
146
0.0
  0
LWPOLYLINE
  5
45
330
1B
100
AcDbEntity
 67
     1
  8
50-0-CON
100
AcDbPolyline
 90
        4
 70
     1
 43
0.0
 10
11.04945813921926
 20
4.038176281179858
 10
272.2125713060605
 20
4.033520706629644
 10
273.4987754093466
 20
195.9297862125246
 10
11.04945813921926
 20
196.6578749924973
  0
LINE
  5
4A
330
1B
100
AcDbEntity
 67
     1
  8
50-0-CON
100
AcDbLine
 10
10.38768783662635
 20
100.3480256368386
 30
0.0
 11
-4.391850629656119
 21
100.3480256368386
 31
0.0
  0
LINE
  5
4B
330
1B
100
AcDbEntity
 67
     1
  8
50-0-CON
100
AcDbLine
 10
141.8594093064315
 20
197.098652626247
 30
0.0
 11
141.8594093064315
 21
202.387980773708
 31
0.0
  0
LINE
  5
4C
330
1B
100
AcDbEntity
 67
     1
  8
50-0-CON
100
AcDbLine
 10
272.4487699456857
 20
100.7888032705883
 30
0.0
 11
278.8458837249377
 21
100.7888032705883
 31
0.0
  0
LINE
  5
4D
330
1B
100
AcDbEntity
 67
     1
  8
50-0-CON
100
AcDbLine
 10
140.9770484758805
 20
4.038176281179858
 30
0.0
 11
140.9770484758805
 21
-3.455038652015446
 31
0.0
  0
ENDSEC
  0
SECTION
  2
OBJECTS
  0
DICTIONARY
  5
C
330
0
100
AcDbDictionary
281
     1
  3
ACAD_GROUP
350
D
  3
ACAD_LAYOUT
350
1A
  3
ACAD_MLINESTYLE
350
17
  3
ACAD_PLOTSETTINGS
350
19
  3
ACAD_PLOTSTYLENAME
350
E
  3
AcadDim
350
3265
  3
AcDbVariableDictionary
350
6AD
  3
DWGPROPS
350
3525
  0
DICTIONARY
  5
D
102
{ACAD_REACTORS
330
C
102
}
330
C
100
AcDbDictionary
281
     1
  0
DICTIONARY
  5
1A
102
{ACAD_REACTORS
330
C
102
}
330
C
100
AcDbDictionary
281
     1
  3
A4
350
1E
  3
Model
350
22
  0
DICTIONARY
  5
17
102
{ACAD_REACTORS
330
C
102
}
330
C
100
AcDbDictionary
281
     1
  3
Standard
350
18
  0
DICTIONARY
  5
19
102
{ACAD_REACTORS
330
C
102
}
330
C
100
AcDbDictionary
281
     1
  0
ACDBDICTIONARYWDFLT
  5
E
102
{ACAD_REACTORS
330
C
102
}
330
C
100
AcDbDictionary
281
     1
  3
Normal
350
F
100
AcDbDictionaryWithDefault
340
F
  0
XRECORD
  5
3265
102
{ACAD_REACTORS
330
C
102
}
330
C
100
AcDbXrecord
280
     1
 90
   990106
  3

 60
     0
 61
     0
 62
     1
 63
     3
 64
     0
 65
     0
 66
     0
 67
     3
 68
     1
 69
     0
 70
     0
 71
     0
 72
     0
 40
34.62131676716338
170
     0
340
3267
  0
DICTIONARY
  5
6AD
102
{ACAD_REACTORS
330
C
102
}
330
C
100
AcDbDictionary
281
     1
  3
SORTENTS
350
6AE
  0
XRECORD
  5
3525
102
{ACAD_REACTORS
330
C
102
}
330
C
100
AcDbXrecord
280
     1
  1
DWGPROPS COOKIE
  2

  3

  4

  6

  7

  8

  9

300
=
301
=
302
=
303
=
304
=
305
=
306
=
307
=
308
=
309
=
 40
2.573293310185185
 41
2452362.482225463
 42
2453482.725405683
  1

 90
        0
  0
LAYOUT
  5
1E
102
{ACAD_REACTORS
330
1A
102
}
330
1A
100
AcDbPlotSettings
  1

  2
EPSON PM-920C
  4
A4
  6

 40
3.757083177566528
 41
14.7637300491333
 42
3.757080078125
 43
3.757080078125
 44
209.9733276367187
 45
296.9683227539062
 46
0.0
 47
0.0
 48
0.0
 49
0.0
140
0.0
141
0.0
142
1.0
143
1.0
 70
   688
 72
     1
 73
     1
 74
     5
  7
joint.ctb
 75
    16
147
1.0
148
0.0
149
0.0
100
AcDbLayout
  1
A4
 70
     1
 71
     1
 10
-3.757080078125
 20
-3.757083177566528
 11
293.2112426757812
 21
206.2162444591522
 12
0.0
 22
0.0
 32
0.0
 14
-4.391850629656119
 24
-3.455038652015446
 34
0.0
 15
278.8458837249377
 25
202.387980773708
 35
0.0
146
0.0
 13
0.0
 23
0.0
 33
0.0
 16
1.0
 26
0.0
 36
0.0
 17
0.0
 27
1.0
 37
0.0
 76
     0
330
1B
331
30
  0
LAYOUT
  5
22
102
{ACAD_REACTORS
330
1A
102
}
330
1A
100
AcDbPlotSettings
  1

  2
EPSON PM-920C
  4
A4
  6

 40
3.757083177566528
 41
14.7637300491333
 42
3.757080078125
 43
3.757080078125
 44
209.9733276367187
 45
296.9683227539062
 46
0.0
 47
0.0
 48
0.0
 49
0.0
140
0.0
141
0.0
142
1.0
143
1.0
 70
 11952
 72
     1
 73
     1
 74
     0
  7

 75
     0
147
1.0
148
-45.64199848979289
149
-84.48806419330498
100
AcDbLayout
  1
Model
 70
     1
 71
     0
 10
0.0
 20
0.0
 11
12.0
 21
9.0
 12
0.0
 22
0.0
 32
0.0
 14
0.0
 24
0.0
 34
0.0
 15
0.0
 25
0.0
 35
0.0
146
0.0
 13
0.0
 23
0.0
 33
0.0
 16
1.0
 26
0.0
 36
0.0
 17
0.0
 27
1.0
 37
0.0
 76
     0
330
1F
  0
MLINESTYLE
  5
18
102
{ACAD_REACTORS
330
17
102
}
330
17
100
AcDbMlineStyle
  2
STANDARD
 70
     0
  3

 62
   256
 51
90.0
 52
90.0
 71
     2
 49
0.5
 62
   256
  6
BYLAYER
 49
-0.5
 62
   256
  6
BYLAYER
  0
ACDBPLACEHOLDER
  5
F
102
{ACAD_REACTORS
330
E
102
}
330
E
  0
DICTIONARYVAR
  5
6AE
102
{ACAD_REACTORS
330
6AD
102
}
330
6AD
100
DictionaryVariables
280
     0
  1
96
  0
ENDSEC
  0
EOF
