  0
SECTION
  2
HEADER
  9
$ACADVER
  1
AC1015
  9
$ACADMAINTVER
 70
     6
  9
$DWGCODEPAGE
  3
ANSI_932
  9
$INSBASE
 10
0.0
 20
0.0
 30
0.0
  9
$EXTMIN
 10
29.79122647684737
 20
-38.49340787712424
 30
-0.00000001
  9
$EXTMAX
 10
348.196544768897
 20
199.7589257894642
 30
0.00000001
  9
$LIMMIN
 10
0.0
 20
0.0
  9
$LIMMAX
 10
420.0
 20
297.0
  9
$ORTHOMODE
 70
     1
  9
$REGENMODE
 70
     1
  9
$FILLMODE
 70
     1
  9
$QTEXTMODE
 70
     0
  9
$MIRRTEXT
 70
     1
  9
$LTSCALE
 40
1.0
  9
$ATTMODE
 70
     1
  9
$TEXTSIZE
 40
5.0
  9
$TRACEWID
 40
1.0
  9
$TEXTSTYLE
  7
OKANO
  9
$CLAYER
  8
太線
  9
$CELTYPE
  6
ByLayer
  9
$CECOLOR
 62
   256
  9
$CELTSCALE
 40
1.0
  9
$DISPSILH
 70
     0
  9
$DIMSCALE
 40
0.0
  9
$DIMASZ
 40
3.0
  9
$DIMEXO
 40
2.0
  9
$DIMDLI
 40
8.0
  9
$DIMRND
 40
0.0
  9
$DIMDLE
 40
0.0
  9
$DIMEXE
 40
3.0
  9
$DIMTP
 40
0.0
  9
$DIMTM
 40
0.0
  9
$DIMTXT
 40
5.0
  9
$DIMCEN
 40
2.5
  9
$DIMTSZ
 40
0.0
  9
$DIMTOL
 70
     0
  9
$DIMLIM
 70
     0
  9
$DIMTIH
 70
     0
  9
$DIMTOH
 70
     0
  9
$DIMSE1
 70
     0
  9
$DIMSE2
 70
     0
  9
$DIMTAD
 70
     1
  9
$DIMZIN
 70
     8
  9
$DIMBLK
  1
Closed
  9
$DIMASO
 70
     1
  9
$DIMSHO
 70
     1
  9
$DIMPOST
  1

  9
$DIMAPOST
  1

  9
$DIMALT
 70
     0
  9
$DIMALTD
 70
     3
  9
$DIMALTF
 40
0.03937007874016
  9
$DIMLFAC
 40
1.0
  9
$DIMTOFL
 70
     1
  9
$DIMTVP
 40
0.0
  9
$DIMTIX
 70
     0
  9
$DIMSOXD
 70
     0
  9
$DIMSAH
 70
     0
  9
$DIMBLK1
  1

  9
$DIMBLK2
  1

  9
$DIMSTYLE
  2
sunpo
  9
$DIMCLRD
 70
     0
  9
$DIMCLRE
 70
     0
  9
$DIMCLRT
 70
     0
  9
$DIMTFAC
 40
1.0
  9
$DIMGAP
 40
1.0
  9
$DIMJUST
 70
     0
  9
$DIMSD1
 70
     0
  9
$DIMSD2
 70
     0
  9
$DIMTOLJ
 70
     0
  9
$DIMTZIN
 70
     8
  9
$DIMALTZ
 70
     0
  9
$DIMALTTZ
 70
     0
  9
$DIMUPT
 70
     0
  9
$DIMDEC
 70
     2
  9
$DIMTDEC
 70
     2
  9
$DIMALTU
 70
     2
  9
$DIMALTTD
 70
     3
  9
$DIMTXSTY
  7
OKANO
  9
$DIMAUNIT
 70
     0
  9
$DIMADEC
 70
     0
  9
$DIMALTRND
 40
0.0
  9
$DIMAZIN
 70
     0
  9
$DIMDSEP
 70
    46
  9
$DIMATFIT
 70
     3
  9
$DIMFRAC
 70
     0
  9
$DIMLDRBLK
  1
Closed
  9
$DIMLUNIT
 70
     2
  9
$DIMLWD
 70
    -2
  9
$DIMLWE
 70
    -2
  9
$DIMTMOVE
 70
     0
  9
$LUNITS
 70
     2
  9
$LUPREC
 70
     2
  9
$SKETCHINC
 40
1.0
  9
$FILLETRAD
 40
1.0
  9
$AUNITS
 70
     0
  9
$AUPREC
 70
     0
  9
$MENU
  1
.
  9
$ELEVATION
 40
0.0
  9
$PELEVATION
 40
0.0
  9
$THICKNESS
 40
0.0
  9
$LIMCHECK
 70
     0
  9
$CHAMFERA
 40
10.0
  9
$CHAMFERB
 40
10.0
  9
$CHAMFERC
 40
20.0
  9
$CHAMFERD
 40
0.0
  9
$SKPOLY
 70
     0
  9
$TDCREATE
 40
2452362.482225463
  9
$TDUCREATE
 40
2452362.107225463
  9
$TDUPDATE
 40
2455957.643885127
  9
$TDUUPDATE
 40
2455957.268885127
  9
$TDINDWG
 40
2.2921738889
  9
$TDUSRTIMER
 40
2.2921738889
  9
$USRTIMER
 70
     1
  9
$ANGBASE
 50
0.0
  9
$ANGDIR
 70
     0
  9
$PDMODE
 70
     0
  9
$PDSIZE
 40
0.0
  9
$PLINEWID
 40
0.0
  9
$SPLFRAME
 70
     0
  9
$SPLINETYPE
 70
     6
  9
$SPLINESEGS
 70
     8
  9
$HANDSEED
  5
33F5
  9
$SURFTAB1
 70
     6
  9
$SURFTAB2
 70
     6
  9
$SURFTYPE
 70
     6
  9
$SURFU
 70
     6
  9
$SURFV
 70
     6
  9
$UCSBASE
  2

  9
$UCSNAME
  2

  9
$UCSORG
 10
0.0
 20
0.0
 30
0.0
  9
$UCSXDIR
 10
1.0
 20
0.0
 30
0.0
  9
$UCSYDIR
 10
0.0
 20
1.0
 30
0.0
  9
$UCSORTHOREF
  2

  9
$UCSORTHOVIEW
 70
     0
  9
$UCSORGTOP
 10
0.0
 20
0.0
 30
0.0
  9
$UCSORGBOTTOM
 10
0.0
 20
0.0
 30
0.0
  9
$UCSORGLEFT
 10
0.0
 20
0.0
 30
0.0
  9
$UCSORGRIGHT
 10
0.0
 20
0.0
 30
0.0
  9
$UCSORGFRONT
 10
0.0
 20
0.0
 30
0.0
  9
$UCSORGBACK
 10
0.0
 20
0.0
 30
0.0
  9
$PUCSBASE
  2

  9
$PUCSNAME
  2

  9
$PUCSORG
 10
0.0
 20
0.0
 30
0.0
  9
$PUCSXDIR
 10
1.0
 20
0.0
 30
0.0
  9
$PUCSYDIR
 10
0.0
 20
1.0
 30
0.0
  9
$PUCSORTHOREF
  2

  9
$PUCSORTHOVIEW
 70
     0
  9
$PUCSORGTOP
 10
0.0
 20
0.0
 30
0.0
  9
$PUCSORGBOTTOM
 10
0.0
 20
0.0
 30
0.0
  9
$PUCSORGLEFT
 10
0.0
 20
0.0
 30
0.0
  9
$PUCSORGRIGHT
 10
0.0
 20
0.0
 30
0.0
  9
$PUCSORGFRONT
 10
0.0
 20
0.0
 30
0.0
  9
$PUCSORGBACK
 10
0.0
 20
0.0
 30
0.0
  9
$USERI1
 70
     0
  9
$USERI2
 70
     0
  9
$USERI3
 70
     0
  9
$USERI4
 70
     0
  9
$USERI5
 70
     0
  9
$USERR1
 40
0.0
  9
$USERR2
 40
0.0
  9
$USERR3
 40
0.0
  9
$USERR4
 40
0.0
  9
$USERR5
 40
0.0
  9
$WORLDVIEW
 70
     1
  9
$SHADEDGE
 70
     3
  9
$SHADEDIF
 70
    70
  9
$TILEMODE
 70
     0
  9
$MAXACTVP
 70
    64
  9
$PINSBASE
 10
0.0
 20
0.0
 30
0.0
  9
$PLIMCHECK
 70
     0
  9
$PEXTMIN
 10
-4.391850629656119
 20
-3.455038652015446
 30
0.0
  9
$PEXTMAX
 10
278.8458837249377
 20
202.387980773708
 30
0.0
  9
$PLIMMIN
 10
-3.757080078125
 20
-3.757083177566528
  9
$PLIMMAX
 10
293.2112426757812
 20
206.2162444591522
  9
$UNITMODE
 70
     0
  9
$VISRETAIN
 70
     1
  9
$PLINEGEN
 70
     0
  9
$PSLTSCALE
 70
     1
  9
$TREEDEPTH
 70
  3020
  9
$CMLSTYLE
  2
Standard
  9
$CMLJUST
 70
     0
  9
$CMLSCALE
 40
20.0
  9
$PROXYGRAPHICS
 70
     1
  9
$MEASUREMENT
 70
     1
  9
$CELWEIGHT
370
    -1
  9
$ENDCAPS
280
     0
  9
$JOINSTYLE
280
     0
  9
$LWDISPLAY
290
     0
  9
$INSUNITS
 70
     4
  9
$HYPERLINKBASE
  1

  9
$STYLESHEET
  1

  9
$XEDIT
290
     1
  9
$CEPSNTYPE
380
     0
  9
$PSTYLEMODE
290
     1
  9
$FINGERPRINTGUID
  2
{FF7F33C3-4233-11D6-AEE0-0000F45FD7F4}
  9
$VERSIONGUID
  2
{5809AFC8-7323-4E78-BF3A-F2E7C8F15D1E}
  9
$EXTNAMES
290
     1
  9
$PSVPSCALE
 40
0.0
  9
$OLESTARTUP
290
     0
  0
ENDSEC
  0
SECTION
  2
CLASSES
  0
CLASS
  1
ACDBDICTIONARYWDFLT
  2
AcDbDictionaryWithDefault
  3
AutoCAD 2000
 90
        0
280
     0
281
     0
  0
CLASS
  1
ACDBPLACEHOLDER
  2
AcDbPlaceHolder
  3
AutoCAD 2000
 90
        0
280
     0
281
     0
  0
CLASS
  1
LAYOUT
  2
AcDbLayout
  3
AutoCAD 2000
 90
        0
280
     0
281
     0
  0
CLASS
  1
DICTIONARYVAR
  2
AcDbDictionaryVar
  3
AutoCAD 2000
 90
        0
280
     0
281
     0
  0
ENDSEC
  0
SECTION
  2
TABLES
  0
TABLE
  2
VPORT
  5
8
330
0
100
AcDbSymbolTable
 70
     2
  0
VPORT
  5
33F4
330
8
100
AcDbSymbolTableRecord
100
AcDbViewportTableRecord
  2
*Active
 70
     0
 10
0.0
 20
0.0
 11
1.0
 21
1.0
 12
254.8120404740413
 22
97.5596988111555
 13
0.0
 23
0.0
 14
5.0
 24
5.0
 15
10.0
 25
10.0
 16
0.0
 26
0.0
 36
1.0
 17
0.0
 27
0.0
 37
0.0
 40
406.4452460562954
 41
1.968879668049792
 42
50.0
 43
0.0
 44
0.0
 50
0.0
 51
0.0
 71
     0
 72
   100
 73
     1
 74
     3
 75
     0
 76
     0
 77
     0
 78
     0
281
     0
 65
     1
110
0.0
120
0.0
130
0.0
111
1.0
121
0.0
131
0.0
112
0.0
122
1.0
132
0.0
 79
     0
146
0.0
  0
ENDTAB
  0
TABLE
  2
LTYPE
  5
5
330
0
100
AcDbSymbolTable
 70
     5
  0
LTYPE
  5
14
330
5
100
AcDbSymbolTableRecord
100
AcDbLinetypeTableRecord
  2
ByBlock
 70
     0
  3

 72
    65
 73
     0
 40
0.0
  0
LTYPE
  5
15
330
5
100
AcDbSymbolTableRecord
100
AcDbLinetypeTableRecord
  2
ByLayer
 70
     0
  3

 72
    65
 73
     0
 40
0.0
  0
LTYPE
  5
16
330
5
100
AcDbSymbolTableRecord
100
AcDbLinetypeTableRecord
  2
Continuous
 70
     0
  3
Solid line
 72
    65
 73
     0
 40
0.0
  0
LTYPE
  5
33
330
5
100
AcDbSymbolTableRecord
100
AcDbLinetypeTableRecord
  2
DASHED2
 70
     0
  3
Dashed (.5x) _ _ _ _ _ _ _ _ _ _ _ _ _ _ _ _ _
 72
    65
 73
     2
 40
9.524999999999998
 49
6.349999999999999
 74
     0
 49
-3.174999999999999
 74
     0
  0
LTYPE
  5
34
330
5
100
AcDbSymbolTableRecord
100
AcDbLinetypeTableRecord
  2
CENTER2
 70
     0
  3
Center (.5x) ___ _ ___ _ ___ _ ___ _ ___ _ ___
 72
    65
 73
     4
 40
28.57499999999999
 49
19.05
 74
     0
 49
-3.174999999999999
 74
     0
 49
3.174999999999999
 74
     0
 49
-3.174999999999999
 74
     0
  0
LTYPE
  5
35
330
5
100
AcDbSymbolTableRecord
100
AcDbLinetypeTableRecord
  2
PHANTOM2
 70
     0
  3
Phantom (.5x) ___ _ _ ___ _ _ ___ _ _ ___ _ _
 72
    65
 73
     6
 40
31.75
 49
15.875
 74
     0
 49
-3.174999999999999
 74
     0
 49
3.174999999999999
 74
     0
 49
-3.174999999999999
 74
     0
 49
3.174999999999999
 74
     0
 49
-3.174999999999999
 74
     0
  0
LTYPE
  5
36
330
5
100
AcDbSymbolTableRecord
100
AcDbLinetypeTableRecord
  2
HIDDEN2
 70
     0
  3
Hidden (.5x) _ _ _ _ _ _ _ _ _ _ _ _ _ _ _ _ _
 72
    65
 73
     2
 40
4.762499999999999
 49
3.174999999999999
 74
     0
 49
-1.587499999999999
 74
     0
  0
ENDTAB
  0
TABLE
  2
LAYER
  5
2
330
0
100
AcDbSymbolTable
 70
    13
  0
LAYER
  5
10
330
2
100
AcDbSymbolTableRecord
100
AcDbLayerTableRecord
  2
0
 70
     0
 62
     7
  6
Continuous
370
    -3
390
F
  0
LAYER
  5
40
330
2
100
AcDbSymbolTableRecord
100
AcDbLayerTableRecord
  2
50-0-CON
 70
     0
 62
     4
  6
Continuous
370
    50
390
F
  0
LAYER
  5
41
330
2
100
AcDbSymbolTableRecord
100
AcDbLayerTableRecord
  2
70-0-CON
 70
     0
 62
   202
  6
Continuous
370
    70
390
F
  0
LAYER
  5
4E
330
2
100
AcDbSymbolTableRecord
100
AcDbLayerTableRecord
  2
極太線
 70
     0
 62
     7
  6
Continuous
370
    70
390
F
  0
LAYER
  5
4F
330
2
100
AcDbSymbolTableRecord
100
AcDbLayerTableRecord
  2
細線
 70
     0
 62
     8
  6
Continuous
370
    18
390
F
  0
LAYER
  5
AB
330
2
100
AcDbSymbolTableRecord
100
AcDbLayerTableRecord
  2
構築線
 70
     0
 62
    -2
  6
Continuous
370
    18
390
F
  0
LAYER
  5
B8
330
2
100
AcDbSymbolTableRecord
100
AcDbLayerTableRecord
  2
太線
 70
     0
 62
     7
  6
Continuous
370
    35
390
F
  0
LAYER
  5
B9
330
2
100
AcDbSymbolTableRecord
100
AcDbLayerTableRecord
  2
寸法線
 70
     0
 62
     5
  6
Continuous
370
    18
390
F
  0
LAYER
  5
BA
330
2
100
AcDbSymbolTableRecord
100
AcDbLayerTableRecord
  2
破線
 70
     0
 62
     8
  6
HIDDEN2
370
    18
390
F
  0
LAYER
  5
BB
330
2
100
AcDbSymbolTableRecord
100
AcDbLayerTableRecord
  2
中心線
 70
     0
 62
     1
  6
CENTER2
370
    18
390
F
  0
LAYER
  5
BC
330
2
100
AcDbSymbolTableRecord
100
AcDbLayerTableRecord
  2
想像線
 70
     0
 62
     8
  6
PHANTOM2
370
    18
390
F
  0
LAYER
  5
BD
330
2
100
AcDbSymbolTableRecord
100
AcDbLayerTableRecord
  2
文字
 70
     0
 62
     7
  6
Continuous
370
    18
390
F
  0
LAYER
  5
180
330
2
100
AcDbSymbolTableRecord
100
AcDbLayerTableRecord
  2
Defpoints
 70
     0
 62
     7
  6
Continuous
290
     0
370
    -3
390
F
  0
ENDTAB
  0
TABLE
  2
STYLE
  5
3
330
0
100
AcDbSymbolTable
 70
     3
  0
STYLE
  5
11
330
3
100
AcDbSymbolTableRecord
100
AcDbTextStyleTableRecord
  2
Standard
 70
     0
 40
0.0
 41
1.0
 50
0.0
 71
     0
 42
3.0
  3
txt
  4

  0
STYLE
  5
32
330
3
100
AcDbSymbolTableRecord
100
AcDbTextStyleTableRecord
  2

 70
     1
 40
0.0
 41
1.0
 50
0.0
 71
     0
 42
2.5
  3
ltypeshp.shx
  4

  0
STYLE
  5
50
330
3
100
AcDbSymbolTableRecord
100
AcDbTextStyleTableRecord
  2
OKANO
 70
     0
 40
0.0
 41
1.0
 50
15.0
 71
     0
 42
5.0
  3
isocp.shx
  4
bigfont.shx
  0
ENDTAB
  0
TABLE
  2
VIEW
  5
6
330
0
100
AcDbSymbolTable
 70
     0
  0
ENDTAB
  0
TABLE
  2
UCS
  5
7
330
0
100
AcDbSymbolTable
 70
     0
  0
ENDTAB
  0
TABLE
  2
APPID
  5
9
330
0
100
AcDbSymbolTable
 70
     1
  0
APPID
  5
12
330
9
100
AcDbSymbolTableRecord
100
AcDbRegAppTableRecord
  2
ACAD
 70
     0
  0
ENDTAB
  0
TABLE
  2
DIMSTYLE
  5
A
330
0
100
AcDbSymbolTable
 70
     2
100
AcDbDimStyleTable
 71
     2
340
A2
340
27
  0
DIMSTYLE
105
27
330
A
100
AcDbSymbolTableRecord
100
AcDbDimStyleTableRecord
  2
ISO-25
 70
     0
 41
2.5
 42
0.625
 43
3.75
 44
1.25
 73
     0
 74
     0
 77
     1
 78
     8
140
2.5
141
2.5
143
0.03937007874016
147
0.625
171
     3
172
     1
271
     2
272
     2
274
     3
283
     0
284
     8
340
11
  0
DIMSTYLE
105
A2
102
{ACAD_REACTORS
330
2FC9
330
3044
330
3051
330
3060
330
306D
330
307C
330
3089
330
31E0
330
320C
330
32A9
102
}
330
A
100
AcDbSymbolTableRecord
100
AcDbDimStyleTableRecord
  2
sunpo
 70
     0
 40
0.0
 41
3.0
 42
2.0
 43
8.0
 44
3.0
 73
     0
 74
     0
 77
     1
 78
     8
140
5.0
141
2.5
143
0.03937007874016
147
1.0
171
     3
172
     1
271
     2
272
     2
274
     3
283
     0
284
     8
340
50
341
9B
342
9B
  0
ENDTAB
  0
TABLE
  2
BLOCK_RECORD
  5
1
330
0
100
AcDbSymbolTable
 70
    12
  0
BLOCK_RECORD
  5
1F
330
1
100
AcDbSymbolTableRecord
100
AcDbBlockTableRecord
  2
*Model_Space
340
22
  0
BLOCK_RECORD
  5
1B
330
1
100
AcDbSymbolTableRecord
100
AcDbBlockTableRecord
  2
*Paper_Space
340
1E
  0
BLOCK_RECORD
  5
9B
330
1
100
AcDbSymbolTableRecord
100
AcDbBlockTableRecord
  2
_Closed
340
0
102
{BLKREFS
331
2FD9
331
2FDA
331
3058
331
3059
331
3074
331
3075
331
3081
331
3082
331
3090
331
3091
331
309B
331
309C
331
30A4
331
30A5
331
31F9
331
31FA
331
3225
331
3226
331
32AC
331
32AD
102
}
  0
BLOCK_RECORD
  5
1510
330
1
100
AcDbSymbolTableRecord
100
AcDbBlockTableRecord
  2
A$C10A573AC
340
0
  0
BLOCK_RECORD
  5
2FCA
330
1
100
AcDbSymbolTableRecord
100
AcDbBlockTableRecord
  2
*D2
340
0
  0
BLOCK_RECORD
  5
3045
330
1
100
AcDbSymbolTableRecord
100
AcDbBlockTableRecord
  2
*D3
340
0
  0
BLOCK_RECORD
  5
3052
330
1
100
AcDbSymbolTableRecord
100
AcDbBlockTableRecord
  2
*D4
340
0
  0
BLOCK_RECORD
  5
3061
330
1
100
AcDbSymbolTableRecord
100
AcDbBlockTableRecord
  2
*D5
340
0
  0
BLOCK_RECORD
  5
306E
330
1
100
AcDbSymbolTableRecord
100
AcDbBlockTableRecord
  2
*D6
340
0
  0
BLOCK_RECORD
  5
307D
330
1
100
AcDbSymbolTableRecord
100
AcDbBlockTableRecord
  2
*D7
340
0
  0
BLOCK_RECORD
  5
308A
330
1
100
AcDbSymbolTableRecord
100
AcDbBlockTableRecord
  2
*D8
340
0
  0
BLOCK_RECORD
  5
31E1
330
1
100
AcDbSymbolTableRecord
100
AcDbBlockTableRecord
  2
*D9
340
0
  0
BLOCK_RECORD
  5
320D
330
1
100
AcDbSymbolTableRecord
100
AcDbBlockTableRecord
  2
*D10
340
0
  0
BLOCK_RECORD
  5
32AA
330
1
100
AcDbSymbolTableRecord
100
AcDbBlockTableRecord
  2
*D11
340
0
  0
ENDTAB
  0
ENDSEC
  0
SECTION
  2
BLOCKS
  0
BLOCK
  5
20
330
1F
100
AcDbEntity
  8
0
100
AcDbBlockBegin
  2
*Model_Space
 70
     0
 10
0.0
 20
0.0
 30
0.0
  3
*Model_Space
  1

  0
ENDBLK
  5
21
330
1F
100
AcDbEntity
  8
0
100
AcDbBlockEnd
  0
BLOCK
  5
1C
330
1B
100
AcDbEntity
 67
     1
  8
0
100
AcDbBlockBegin
  2
*Paper_Space
 70
     0
 10
0.0
 20
0.0
 30
0.0
  3
*Paper_Space
  1

  0
ENDBLK
  5
1D
330
1B
100
AcDbEntity
 67
     1
  8
0
100
AcDbBlockEnd
  0
BLOCK
  5
A0
330
9B
100
AcDbEntity
  8
0
100
AcDbBlockBegin
  2
_Closed
 70
     0
 10
0.0
 20
0.0
 30
0.0
  3
_Closed
  1

  0
LINE
  5
9C
330
9B
100
AcDbEntity
  8
0
 62
     0
370
    -2
100
AcDbLine
 10
-1.0
 20
0.1666666666666666
 30
0.0
 11
0.0
 21
0.0
 31
0.0
  0
LINE
  5
9D
330
9B
100
AcDbEntity
  8
0
 62
     0
370
    -2
100
AcDbLine
 10
0.0
 20
0.0
 30
0.0
 11
-1.0
 21
-0.1666666666666666
 31
0.0
  0
LINE
  5
9E
330
9B
100
AcDbEntity
  8
0
 62
     0
370
    -2
100
AcDbLine
 10
-1.0
 20
0.1666666666666666
 30
0.0
 11
-1.0
 21
-0.1666666666666666
 31
0.0
  0
LINE
  5
9F
330
9B
100
AcDbEntity
  8
0
 62
     0
370
    -2
100
AcDbLine
 10
0.0
 20
0.0
 30
0.0
 11
-1.0
 21
0.0
 31
0.0
  0
ENDBLK
  5
A1
330
9B
100
AcDbEntity
  8
0
100
AcDbBlockEnd
  0
BLOCK
  5
155B
330
1510
100
AcDbEntity
  8
0
100
AcDbBlockBegin
  2
A$C10A573AC
 70
     0
 10
0.0
 20
0.0
 30
0.0
  3
A$C10A573AC
  1

  0
TEXT
  5
1511
330
1510
100
AcDbEntity
  8
文字
100
AcDbText
 10
0.9844302777919438
 20
5.224957122252135
 30
0.0
 40
3.0
  1
Materal : Steel.
 51
15.0
  7
OKANO
100
AcDbText
  0
TEXT
  5
1512
330
1510
100
AcDbEntity
  8
文字
100
AcDbText
 10
-0.1141909619694843
 20
0.7500001922403499
 30
0.0
 40
3.0
  1
Surface treatment : Electro galvanized.
 51
15.0
  7
OKANO
100
AcDbText
  0
TEXT
  5
1513
330
1510
100
AcDbEntity
  8
文字
100
AcDbText
 10
-0.4901926332574931
 20
9.159967445193728
 30
0.0
 40
3.0
  1
5 TORGUE SCREW  M5-6
 51
15.0
  7
OKANO
100
AcDbText
  0
TEXT
  5
1514
330
1510
100
AcDbEntity
  8
文字
100
AcDbText
 10
1.364713526390005
 20
78.88822913323082
 30
0.0
 40
3.0
  1
Special standard,
 51
15.0
  7
OKANO
100
AcDbText
  0
TEXT
  5
1515
330
1510
100
AcDbEntity
  8
文字
100
AcDbText
 10
92.88160823408942
 20
89.92753849837379
 30
0.0
 40
3.0
  1
Screw Type
 51
15.0
  7
OKANO
100
AcDbText
  0
LINE
  5
1516
330
1510
100
AcDbEntity
  8
太線
100
AcDbLine
 10
113.9464587597784
 20
81.93930390144641
 30
0.0
 11
112.4464587597784
 21
81.93930390144641
 31
0.0
  0
LINE
  5
1517
330
1510
100
AcDbEntity
  8
太線
100
AcDbLine
 10
112.4464587597784
 20
76.9393039014464
 30
0.0
 11
121.4644995438761
 21
76.9393039014464
 31
0.0
  0
TEXT
  5
1518
330
1510
100
AcDbEntity
  8
文字
100
AcDbText
 10
93.46068240437217
 20
77.96976862235396
 30
0.0
 40
2.0
  1
17-30
 51
15.0
  7
OKANO
100
AcDbText
  0
LINE
  5
1519
330
1510
100
AcDbEntity
  8
太線
100
AcDbLine
 10
111.9464587597784
 20
81.43930390144641
 30
0.0
 11
111.9464587597784
 21
77.4393039014464
 31
0.0
  0
LINE
  5
151A
330
1510
100
AcDbEntity
  8
太線
100
AcDbLine
 10
91.94645875977846
 20
81.43930390144641
 30
0.0
 11
91.94645875977846
 21
77.43930390144639
 31
0.0
  0
LINE
  5
151B
330
1510
100
AcDbEntity
  8
太線
100
AcDbLine
 10
101.9644995438761
 20
77.4393039014464
 30
0.0
 11
101.9644995438761
 21
81.43930390144641
 31
0.0
  0
LINE
  5
151C
330
1510
100
AcDbEntity
  8
太線
100
AcDbLine
 10
92.44645875977846
 20
76.9393039014464
 30
0.0
 11
101.4644995438761
 21
76.9393039014464
 31
0.0
  0
ARC
  5
151D
330
1510
100
AcDbEntity
  8
太線
100
AcDbCircle
 10
92.44645875977846
 20
77.43930390144639
 30
0.0
 40
0.5
100
AcDbArc
 50
180.0
 51
270.0
  0
ARC
  5
151E
330
1510
100
AcDbEntity
  8
太線
100
AcDbCircle
 10
101.4644995438761
 20
77.4393039014464
 30
0.0
 40
0.5
100
AcDbArc
 50
270.0
 51
0.0
  0
ARC
  5
151F
330
1510
100
AcDbEntity
  8
太線
100
AcDbCircle
 10
112.4464587597784
 20
77.4393039014464
 30
0.0
 40
0.5
100
AcDbArc
 50
180.0
 51
270.0
  0
LINE
  5
1520
330
1510
100
AcDbEntity
  8
想像線
100
AcDbLine
 10
93.94645875977847
 20
81.93930390144641
 30
0.0
 11
99.96449954387617
 21
81.93930390144641
 31
0.0
  0
LINE
  5
1521
330
1510
100
AcDbEntity
  8
極太線
100
AcDbLine
 10
96.38762957111168
 20
85.43930390144641
 30
0.0
 11
97.50528794844525
 21
85.43930390144641
 31
0.0
  0
CIRCLE
  5
1522
330
1510
100
AcDbEntity
  8
太線
100
AcDbCircle
 10
96.94645875977847
 20
85.43930390144641
 30
0.0
 40
0.5588291886667776
  0
LINE
  5
1523
330
1510
100
AcDbEntity
  8
太線
100
AcDbLine
 10
99.46449954387617
 20
86.93930390144641
 30
0.0
 11
94.44645875977846
 21
86.93930390144641
 31
0.0
  0
LINE
  5
1524
330
1510
100
AcDbEntity
  8
太線
100
AcDbLine
 10
93.94645875977847
 20
86.43930390144641
 30
0.0
 11
93.94645875977847
 21
81.93930390144641
 31
0.0
  0
ARC
  5
1525
330
1510
100
AcDbEntity
  8
太線
100
AcDbCircle
 10
92.44645875977846
 20
81.43930390144641
 30
0.0
 40
0.5
100
AcDbArc
 50
90.0
 51
180.0
  0
LINE
  5
1526
330
1510
100
AcDbEntity
  8
太線
100
AcDbLine
 10
93.94645875977847
 20
81.93930390144641
 30
0.0
 11
92.44645875977846
 21
81.93930390144641
 31
0.0
  0
ARC
  5
1527
330
1510
100
AcDbEntity
  8
太線
100
AcDbCircle
 10
94.44645875977846
 20
86.43930390144641
 30
0.0
 40
0.5
100
AcDbArc
 50
90.0
 51
180.0
  0
LINE
  5
1528
330
1510
100
AcDbEntity
  8
太線
100
AcDbLine
 10
99.96449954387617
 20
81.93930390144641
 30
0.0
 11
99.96449954387617
 21
86.43930390144641
 31
0.0
  0
LINE
  5
1529
330
1510
100
AcDbEntity
  8
太線
100
AcDbLine
 10
101.4644995438761
 20
81.93930390144641
 30
0.0
 11
99.96449954387617
 21
81.93930390144641
 31
0.0
  0
ARC
  5
152A
330
1510
100
AcDbEntity
  8
太線
100
AcDbCircle
 10
101.4644995438761
 20
81.43930390144641
 30
0.0
 40
0.5
100
AcDbArc
 50
0.0
 51
90.0
  0
ARC
  5
152B
330
1510
100
AcDbEntity
  8
太線
100
AcDbCircle
 10
99.46449954387617
 20
86.43930390144641
 30
0.0
 40
0.5
100
AcDbArc
 50
0.0
 51
90.0
  0
LINE
  5
152C
330
1510
100
AcDbEntity
  8
極太線
100
AcDbLine
 10
96.94645875977847
 20
85.99813309011318
 30
0.0
 11
96.94645875977847
 21
84.88047471277964
 31
0.0
  0
ARC
  5
152D
330
1510
100
AcDbEntity
  8
太線
100
AcDbCircle
 10
112.4464587597784
 20
81.43930390144641
 30
0.0
 40
0.5
100
AcDbArc
 50
90.0
 51
180.0
  0
TEXT
  5
152E
330
1510
100
AcDbEntity
  8
文字
100
AcDbText
 10
134.3819212586066
 20
78.16263579228063
 30
0.0
 40
2.0
  1
101
 51
15.0
  7
OKANO
100
AcDbText
  0
TEXT
  5
152F
330
1510
100
AcDbEntity
  8
文字
100
AcDbText
 10
113.3422276612066
 20
77.96976862235396
 30
0.0
 40
2.0
  1
38-83
 51
15.0
  7
OKANO
100
AcDbText
  0
LINE
  5
1530
330
1510
100
AcDbEntity
  8
太線
100
AcDbLine
 10
141.9825403279738
 20
77.4393039014464
 30
0.0
 11
141.9825403279738
 21
81.43930390144641
 31
0.0
  0
LINE
  5
1531
330
1510
100
AcDbEntity
  8
太線
100
AcDbLine
 10
131.9644995438761
 20
81.43930390144641
 30
0.0
 11
131.9644995438761
 21
77.4393039014464
 31
0.0
  0
LINE
  5
1532
330
1510
100
AcDbEntity
  8
太線
100
AcDbLine
 10
121.9644995438761
 20
77.4393039014464
 30
0.0
 11
121.9644995438761
 21
81.43930390144641
 31
0.0
  0
ARC
  5
1533
330
1510
100
AcDbEntity
  8
太線
100
AcDbCircle
 10
121.4644995438761
 20
77.4393039014464
 30
0.0
 40
0.5
100
AcDbArc
 50
270.0
 51
0.0
  0
LINE
  5
1534
330
1510
100
AcDbEntity
  8
太線
100
AcDbLine
 10
132.4644995438761
 20
76.9393039014464
 30
0.0
 11
141.4825403279738
 21
76.9393039014464
 31
0.0
  0
ARC
  5
1535
330
1510
100
AcDbEntity
  8
太線
100
AcDbCircle
 10
132.4644995438761
 20
77.4393039014464
 30
0.0
 40
0.5
100
AcDbArc
 50
180.0
 51
270.0
  0
ARC
  5
1536
330
1510
100
AcDbEntity
  8
太線
100
AcDbCircle
 10
141.4825403279738
 20
77.4393039014464
 30
0.0
 40
0.5
100
AcDbArc
 50
270.0
 51
0.0
  0
ARC
  5
1537
330
1510
100
AcDbEntity
  8
太線
100
AcDbCircle
 10
121.4644995438761
 20
81.43930390144641
 30
0.0
 40
0.5
100
AcDbArc
 50
0.0
 51
90.0
  0
LINE
  5
1538
330
1510
100
AcDbEntity
  8
太線
100
AcDbLine
 10
119.9644995438761
 20
81.93930390144641
 30
0.0
 11
119.9644995438761
 21
86.43930390144641
 31
0.0
  0
LINE
  5
1539
330
1510
100
AcDbEntity
  8
太線
100
AcDbLine
 10
113.9464587597784
 20
86.43930390144641
 30
0.0
 11
113.9464587597784
 21
81.93930390144641
 31
0.0
  0
LINE
  5
153A
330
1510
100
AcDbEntity
  8
想像線
100
AcDbLine
 10
113.9464587597784
 20
81.93930390144641
 30
0.0
 11
119.9644995438761
 21
81.93930390144641
 31
0.0
  0
LINE
  5
153B
330
1510
100
AcDbEntity
  8
太線
100
AcDbLine
 10
121.4644995438761
 20
81.93930390144641
 30
0.0
 11
119.9644995438761
 21
81.93930390144641
 31
0.0
  0
LINE
  5
153C
330
1510
100
AcDbEntity
  8
太線
100
AcDbLine
 10
119.4644995438761
 20
86.93930390144641
 30
0.0
 11
114.4464587597784
 21
86.93930390144641
 31
0.0
  0
ARC
  5
153D
330
1510
100
AcDbEntity
  8
太線
100
AcDbCircle
 10
114.4464587597784
 20
86.43930390144641
 30
0.0
 40
0.5
100
AcDbArc
 50
90.0
 51
180.0
  0
CIRCLE
  5
153E
330
1510
100
AcDbEntity
  8
太線
100
AcDbCircle
 10
115.4464587597784
 20
85.43930390144641
 30
0.0
 40
0.5588291886667776
  0
LINE
  5
153F
330
1510
100
AcDbEntity
  8
極太線
100
AcDbLine
 10
115.4464587597784
 20
85.99813309011318
 30
0.0
 11
115.4464587597784
 21
84.88047471277964
 31
0.0
  0
LINE
  5
1540
330
1510
100
AcDbEntity
  8
極太線
100
AcDbLine
 10
114.8876295711116
 20
85.43930390144641
 30
0.0
 11
116.0052879484452
 21
85.43930390144641
 31
0.0
  0
ARC
  5
1541
330
1510
100
AcDbEntity
  8
太線
100
AcDbCircle
 10
119.4644995438761
 20
86.43930390144641
 30
0.0
 40
0.5
100
AcDbArc
 50
0.0
 51
90.0
  0
LINE
  5
1542
330
1510
100
AcDbEntity
  8
極太線
100
AcDbLine
 10
117.9056703552094
 20
85.43930390144641
 30
0.0
 11
119.0233287325429
 21
85.43930390144641
 31
0.0
  0
LINE
  5
1543
330
1510
100
AcDbEntity
  8
極太線
100
AcDbLine
 10
118.4644995438761
 20
85.99813309011318
 30
0.0
 11
118.4644995438761
 21
84.88047471277964
 31
0.0
  0
CIRCLE
  5
1544
330
1510
100
AcDbEntity
  8
太線
100
AcDbCircle
 10
118.4644995438761
 20
85.43930390144641
 30
0.0
 40
0.5588291886667776
  0
LINE
  5
1545
330
1510
100
AcDbEntity
  8
想像線
100
AcDbLine
 10
133.9644995438761
 20
81.93930390144641
 30
0.0
 11
139.9825403279738
 21
81.93930390144641
 31
0.0
  0
LINE
  5
1546
330
1510
100
AcDbEntity
  8
極太線
100
AcDbLine
 10
137.9237111393071
 20
85.43930390144641
 30
0.0
 11
139.0413695166406
 21
85.43930390144641
 31
0.0
  0
CIRCLE
  5
1547
330
1510
100
AcDbEntity
  8
太線
100
AcDbCircle
 10
138.4825403279738
 20
85.43930390144641
 30
0.0
 40
0.5588291886667776
  0
CIRCLE
  5
1548
330
1510
100
AcDbEntity
  8
太線
100
AcDbCircle
 10
138.4825403279738
 20
83.26342923362075
 30
0.0
 40
0.5588291886667776
  0
LINE
  5
1549
330
1510
100
AcDbEntity
  8
極太線
100
AcDbLine
 10
137.9237111393071
 20
83.26342923362075
 30
0.0
 11
139.0413695166406
 21
83.26342923362075
 31
0.0
  0
LINE
  5
154A
330
1510
100
AcDbEntity
  8
太線
100
AcDbLine
 10
139.4825403279738
 20
86.93930390144641
 30
0.0
 11
134.4644995438761
 21
86.93930390144641
 31
0.0
  0
LINE
  5
154B
330
1510
100
AcDbEntity
  8
太線
100
AcDbLine
 10
133.9644995438761
 20
86.43930390144641
 30
0.0
 11
133.9644995438761
 21
81.93930390144641
 31
0.0
  0
ARC
  5
154C
330
1510
100
AcDbEntity
  8
太線
100
AcDbCircle
 10
132.4644995438761
 20
81.43930390144641
 30
0.0
 40
0.5
100
AcDbArc
 50
90.0
 51
180.0
  0
LINE
  5
154D
330
1510
100
AcDbEntity
  8
太線
100
AcDbLine
 10
133.9644995438761
 20
81.93930390144641
 30
0.0
 11
132.4644995438761
 21
81.93930390144641
 31
0.0
  0
LINE
  5
154E
330
1510
100
AcDbEntity
  8
極太線
100
AcDbLine
 10
134.9056703552093
 20
83.26342923362075
 30
0.0
 11
136.0233287325429
 21
83.26342923362075
 31
0.0
  0
LINE
  5
154F
330
1510
100
AcDbEntity
  8
極太線
100
AcDbLine
 10
135.4644995438761
 20
83.82225842228752
 30
0.0
 11
135.4644995438761
 21
82.70460004495395
 31
0.0
  0
CIRCLE
  5
1550
330
1510
100
AcDbEntity
  8
太線
100
AcDbCircle
 10
135.4644995438761
 20
83.26342923362075
 30
0.0
 40
0.5588291886667776
  0
ARC
  5
1551
330
1510
100
AcDbEntity
  8
太線
100
AcDbCircle
 10
134.4644995438761
 20
86.43930390144641
 30
0.0
 40
0.5
100
AcDbArc
 50
90.0
 51
180.0
  0
CIRCLE
  5
1552
330
1510
100
AcDbEntity
  8
太線
100
AcDbCircle
 10
135.4644995438761
 20
85.43930390144641
 30
0.0
 40
0.5588291886667776
  0
LINE
  5
1553
330
1510
100
AcDbEntity
  8
極太線
100
AcDbLine
 10
135.4644995438761
 20
85.99813309011318
 30
0.0
 11
135.4644995438761
 21
84.88047471277964
 31
0.0
  0
LINE
  5
1554
330
1510
100
AcDbEntity
  8
極太線
100
AcDbLine
 10
134.9056703552093
 20
85.43930390144641
 30
0.0
 11
136.0233287325429
 21
85.43930390144641
 31
0.0
  0
LINE
  5
1555
330
1510
100
AcDbEntity
  8
太線
100
AcDbLine
 10
139.9825403279738
 20
81.93930390144641
 30
0.0
 11
139.9825403279738
 21
86.43930390144641
 31
0.0
  0
ARC
  5
1556
330
1510
100
AcDbEntity
  8
太線
100
AcDbCircle
 10
141.4825403279738
 20
81.43930390144641
 30
0.0
 40
0.5
100
AcDbArc
 50
0.0
 51
90.0
  0
LINE
  5
1557
330
1510
100
AcDbEntity
  8
極太線
100
AcDbLine
 10
138.4825403279738
 20
83.82225842228752
 30
0.0
 11
138.4825403279738
 21
82.70460004495395
 31
0.0
  0
LINE
  5
1558
330
1510
100
AcDbEntity
  8
太線
100
AcDbLine
 10
141.4825403279738
 20
81.93930390144641
 30
0.0
 11
139.9825403279738
 21
81.93930390144641
 31
0.0
  0
ARC
  5
1559
330
1510
100
AcDbEntity
  8
太線
100
AcDbCircle
 10
139.4825403279738
 20
86.43930390144641
 30
0.0
 40
0.5
100
AcDbArc
 50
0.0
 51
90.0
  0
LINE
  5
155A
330
1510
100
AcDbEntity
  8
極太線
100
AcDbLine
 10
138.4825403279738
 20
85.99813309011318
 30
0.0
 11
138.4825403279738
 21
84.88047471277964
 31
0.0
  0
ENDBLK
  5
155C
330
1510
100
AcDbEntity
  8
0
100
AcDbBlockEnd
  0
BLOCK
  5
2FD4
330
2FCA
100
AcDbEntity
  8
0
100
AcDbBlockBegin
  2
*D2
 70
     1
 10
0.0
 20
0.0
 30
0.0
  3
*D2
  1

  0
LINE
  5
2FD6
330
2FCA
100
AcDbEntity
  8
寸法線
 62
     0
370
    -2
100
AcDbLine
 10
104.5799792833574
 20
56.61767930760436
 30
0.0
 11
123.2082260221541
 21
56.61767930760436
 31
0.0
  0
LINE
  5
2FD7
330
2FCA
100
AcDbEntity
  8
寸法線
 62
     0
370
    -2
100
AcDbLine
 10
104.2015140254043
 20
6.617679307604362
 30
0.0
 11
123.2082260221541
 21
6.617679307604356
 31
0.0
  0
LINE
  5
2FD8
330
2FCA
100
AcDbEntity
  8
寸法線
 62
     0
370
    -2
100
AcDbLine
 10
120.2082260221541
 20
53.61767930760436
 30
0.0
 11
120.2082260221541
 21
9.617679307604356
 31
0.0
  0
INSERT
  5
2FD9
330
2FCA
100
AcDbEntity
  8
寸法線
 62
     0
370
    -2
100
AcDbBlockReference
  2
_Closed
 10
120.2082260221541
 20
56.61767930760436
 30
0.0
 41
3.0
 42
3.0
 43
3.0
 50
90.0
  0
INSERT
  5
2FDA
330
2FCA
100
AcDbEntity
  8
寸法線
 62
     0
370
    -2
100
AcDbBlockReference
  2
_Closed
 10
120.2082260221541
 20
6.617679307604357
 30
0.0
 41
3.0
 42
3.0
 43
3.0
 50
270.0
  0
MTEXT
  5
2FDB
330
2FCA
100
AcDbEntity
  8
寸法線
 62
     0
100
AcDbMText
 10
116.7082260221541
 20
31.61767930760437
 30
0.0
 40
5.0
 41
0.0
 71
     5
 72
     1
  1
49.3
  7
OKANO
 11
0.0000000000000001
 21
1.0
 31
0.0
 73
     1
 44
1.0
  0
POINT
  5
2FDC
330
2FCA
100
AcDbEntity
  8
Defpoints
 62
     0
100
AcDbPoint
 10
102.5799792833574
 20
56.61767930760436
 30
0.0
  0
POINT
  5
2FDD
330
2FCA
100
AcDbEntity
  8
Defpoints
 62
     0
100
AcDbPoint
 10
102.2015140254043
 20
6.617679307604362
 30
0.0
  0
POINT
  5
2FDE
330
2FCA
100
AcDbEntity
  8
Defpoints
 62
     0
100
AcDbPoint
 10
120.2082260221541
 20
6.617679307604357
 30
0.0
  0
ENDBLK
  5
2FD5
330
2FCA
100
AcDbEntity
  8
0
100
AcDbBlockEnd
  0
BLOCK
  5
304F
330
3045
100
AcDbEntity
  8
0
100
AcDbBlockBegin
  2
*D3
 70
     1
 10
0.0
 20
0.0
 30
0.0
  3
*D3
  1

  0
LINE
  5
3098
330
3045
100
AcDbEntity
  8
寸法線
 62
     0
370
    -2
100
AcDbLine
 10
42.40736741460091
 20
188.009374244929
 30
0.0
 11
42.40736741460091
 21
196.7845163406453
 31
0.0
  0
LINE
  5
3099
330
3045
100
AcDbEntity
  8
寸法線
 62
     0
370
    -2
100
AcDbLine
 10
102.2015140254043
 20
188.009374244929
 30
0.0
 11
102.2015140254043
 21
196.7845163406453
 31
0.0
  0
LINE
  5
309A
330
3045
100
AcDbEntity
  8
寸法線
 62
     0
370
    -2
100
AcDbLine
 10
45.40736741460091
 20
193.7845163406453
 30
0.0
 11
99.20151402540433
 21
193.7845163406453
 31
0.0
  0
INSERT
  5
309B
330
3045
100
AcDbEntity
  8
寸法線
 62
     0
370
    -2
100
AcDbBlockReference
  2
_Closed
 10
42.40736741460091
 20
193.7845163406453
 30
0.0
 41
3.0
 42
3.0
 43
3.0
 50
180.0
  0
INSERT
  5
309C
330
3045
100
AcDbEntity
  8
寸法線
 62
     0
370
    -2
100
AcDbBlockReference
  2
_Closed
 10
102.2015140254043
 20
193.7845163406453
 30
0.0
 41
3.0
 42
3.0
 43
3.0
  0
MTEXT
  5
309D
330
3045
100
AcDbEntity
  8
寸法線
 62
     0
100
AcDbMText
 10
72.30444072000262
 20
197.2845163406453
 30
0.0
 40
5.0
 41
0.0
 71
     5
 72
     1
  1
60
  7
OKANO
 73
     1
 44
1.0
  0
POINT
  5
309E
330
3045
100
AcDbEntity
  8
Defpoints
 62
     0
100
AcDbPoint
 10
42.40736741460091
 20
186.009374244929
 30
0.0
  0
POINT
  5
309F
330
3045
100
AcDbEntity
  8
Defpoints
 62
     0
100
AcDbPoint
 10
102.2015140254043
 20
186.009374244929
 30
0.0
  0
POINT
  5
30A0
330
3045
100
AcDbEntity
  8
Defpoints
 62
     0
100
AcDbPoint
 10
102.2015140254043
 20
193.7845163406453
 30
0.0
  0
ENDBLK
  5
3050
330
3045
100
AcDbEntity
  8
0
100
AcDbBlockEnd
  0
BLOCK
  5
305E
330
3052
100
AcDbEntity
  8
0
100
AcDbBlockBegin
  2
*D4
 70
     1
 10
0.0
 20
0.0
 30
0.0
  3
*D4
  1

  0
LINE
  5
3053
330
3052
100
AcDbEntity
  8
寸法線
 62
     0
370
    -2
100
AcDbLine
 10
104.2015140254043
 20
186.009374244929
 30
0.0
 11
119.2114249047008
 21
186.009374244929
 31
0.0
  0
LINE
  5
3054
330
3052
100
AcDbEntity
  8
寸法線
 62
     0
370
    -2
100
AcDbLine
 10
104.2015140254043
 20
181.009374244929
 30
0.0
 11
119.2114249047008
 21
181.009374244929
 31
0.0
  0
LINE
  5
3055
330
3052
100
AcDbEntity
  8
寸法線
 62
     0
370
    -2
100
AcDbLine
 10
116.2114249047008
 20
189.009374244929
 30
0.0
 11
116.2114249047008
 21
192.009374244929
 31
0.0
  0
LINE
  5
3056
330
3052
100
AcDbEntity
  8
寸法線
 62
     0
370
    -2
100
AcDbLine
 10
116.2114249047008
 20
178.009374244929
 30
0.0
 11
116.2114249047008
 21
175.009374244929
 31
0.0
  0
LINE
  5
3057
330
3052
100
AcDbEntity
  8
寸法線
 62
     0
370
    -2
100
AcDbLine
 10
116.2114249047008
 20
186.009374244929
 30
0.0
 11
116.2114249047008
 21
181.009374244929
 31
0.0
  0
INSERT
  5
3058
330
3052
100
AcDbEntity
  8
寸法線
 62
     0
370
    -2
100
AcDbBlockReference
  2
_Closed
 10
116.2114249047008
 20
186.009374244929
 30
0.0
 41
3.0
 42
3.0
 43
3.0
 50
270.0
  0
INSERT
  5
3059
330
3052
100
AcDbEntity
  8
寸法線
 62
     0
370
    -2
100
AcDbBlockReference
  2
_Closed
 10
116.2114249047008
 20
181.009374244929
 30
0.0
 41
3.0
 42
3.0
 43
3.0
 50
90.0
  0
MTEXT
  5
305A
330
3052
100
AcDbEntity
  8
寸法線
 62
     0
100
AcDbMText
 10
112.7114249047008
 20
183.5093742449291
 30
0.0
 40
5.0
 41
0.0
 71
     5
 72
     1
  1
5
  7
OKANO
 11
0.0000000000000001
 21
1.0
 31
0.0
 73
     1
 44
1.0
  0
POINT
  5
305B
330
3052
100
AcDbEntity
  8
Defpoints
 62
     0
100
AcDbPoint
 10
102.2015140254043
 20
186.009374244929
 30
0.0
  0
POINT
  5
305C
330
3052
100
AcDbEntity
  8
Defpoints
 62
     0
100
AcDbPoint
 10
102.2015140254043
 20
181.009374244929
 30
0.0
  0
POINT
  5
305D
330
3052
100
AcDbEntity
  8
Defpoints
 62
     0
100
AcDbPoint
 10
116.2114249047008
 20
181.009374244929
 30
0.0
  0
ENDBLK
  5
305F
330
3052
100
AcDbEntity
  8
0
100
AcDbBlockEnd
  0
BLOCK
  5
306B
330
3061
100
AcDbEntity
  8
0
100
AcDbBlockBegin
  2
*D5
 70
     1
 10
0.0
 20
0.0
 30
0.0
  3
*D5
  1

  0
LINE
  5
30A1
330
3061
100
AcDbEntity
  8
寸法線
 62
     0
370
    -2
100
AcDbLine
 10
104.2015140254043
 20
181.009374244929
 30
0.0
 11
119.2114249047008
 21
181.009374244929
 31
0.0
  0
LINE
  5
30A2
330
3061
100
AcDbEntity
  8
寸法線
 62
     0
370
    -2
100
AcDbLine
 10
104.2015140254043
 20
131.009374244929
 30
0.0
 11
119.2114249047008
 21
131.009374244929
 31
0.0
  0
LINE
  5
30A3
330
3061
100
AcDbEntity
  8
寸法線
 62
     0
370
    -2
100
AcDbLine
 10
116.2114249047008
 20
178.009374244929
 30
0.0
 11
116.2114249047008
 21
134.009374244929
 31
0.0
  0
INSERT
  5
30A4
330
3061
100
AcDbEntity
  8
寸法線
 62
     0
370
    -2
100
AcDbBlockReference
  2
_Closed
 10
116.2114249047008
 20
181.009374244929
 30
0.0
 41
3.0
 42
3.0
 43
3.0
 50
90.0
  0
INSERT
  5
30A5
330
3061
100
AcDbEntity
  8
寸法線
 62
     0
370
    -2
100
AcDbBlockReference
  2
_Closed
 10
116.2114249047008
 20
131.009374244929
 30
0.0
 41
3.0
 42
3.0
 43
3.0
 50
270.0
  0
MTEXT
  5
30A6
330
3061
100
AcDbEntity
  8
寸法線
 62
     0
100
AcDbMText
 10
112.7114249047008
 20
156.009374244929
 30
0.0
 40
5.0
 41
0.0
 71
     5
 72
     1
  1
49.3
  7
OKANO
 11
0.0000000000000001
 21
1.0
 31
0.0
 73
     1
 44
1.0
  0
POINT
  5
30A7
330
3061
100
AcDbEntity
  8
Defpoints
 62
     0
100
AcDbPoint
 10
102.2015140254043
 20
181.009374244929
 30
0.0
  0
POINT
  5
30A8
330
3061
100
AcDbEntity
  8
Defpoints
 62
     0
100
AcDbPoint
 10
102.2015140254043
 20
131.009374244929
 30
0.0
  0
POINT
  5
30A9
330
3061
100
AcDbEntity
  8
Defpoints
 62
     0
100
AcDbPoint
 10
116.2114249047008
 20
131.009374244929
 30
0.0
  0
ENDBLK
  5
306C
330
3061
100
AcDbEntity
  8
0
100
AcDbBlockEnd
  0
BLOCK
  5
307A
330
306E
100
AcDbEntity
  8
0
100
AcDbBlockBegin
  2
*D6
 70
     1
 10
0.0
 20
0.0
 30
0.0
  3
*D6
  1

  0
LINE
  5
306F
330
306E
100
AcDbEntity
  8
寸法線
 62
     0
370
    -2
100
AcDbLine
 10
104.2015140254043
 20
131.009374244929
 30
0.0
 11
119.2114249047008
 21
131.009374244929
 31
0.0
  0
LINE
  5
3070
330
306E
100
AcDbEntity
  8
寸法線
 62
     0
370
    -2
100
AcDbLine
 10
104.2015140254043
 20
126.009374244929
 30
0.0
 11
119.2114249047008
 21
126.009374244929
 31
0.0
  0
LINE
  5
3071
330
306E
100
AcDbEntity
  8
寸法線
 62
     0
370
    -2
100
AcDbLine
 10
116.2114249047008
 20
134.009374244929
 30
0.0
 11
116.2114249047008
 21
137.009374244929
 31
0.0
  0
LINE
  5
3072
330
306E
100
AcDbEntity
  8
寸法線
 62
     0
370
    -2
100
AcDbLine
 10
116.2114249047008
 20
123.009374244929
 30
0.0
 11
116.2114249047008
 21
120.009374244929
 31
0.0
  0
LINE
  5
3073
330
306E
100
AcDbEntity
  8
寸法線
 62
     0
370
    -2
100
AcDbLine
 10
116.2114249047008
 20
131.009374244929
 30
0.0
 11
116.2114249047008
 21
126.009374244929
 31
0.0
  0
INSERT
  5
3074
330
306E
100
AcDbEntity
  8
寸法線
 62
     0
370
    -2
100
AcDbBlockReference
  2
_Closed
 10
116.2114249047008
 20
131.009374244929
 30
0.0
 41
3.0
 42
3.0
 43
3.0
 50
270.0
  0
INSERT
  5
3075
330
306E
100
AcDbEntity
  8
寸法線
 62
     0
370
    -2
100
AcDbBlockReference
  2
_Closed
 10
116.2114249047008
 20
126.009374244929
 30
0.0
 41
3.0
 42
3.0
 43
3.0
 50
90.0
  0
MTEXT
  5
3076
330
306E
100
AcDbEntity
  8
寸法線
 62
     0
100
AcDbMText
 10
112.7114249047008
 20
128.509374244929
 30
0.0
 40
5.0
 41
0.0
 71
     5
 72
     1
  1
5
  7
OKANO
 11
0.0000000000000001
 21
1.0
 31
0.0
 73
     1
 44
1.0
  0
POINT
  5
3077
330
306E
100
AcDbEntity
  8
Defpoints
 62
     0
100
AcDbPoint
 10
102.2015140254043
 20
131.009374244929
 30
0.0
  0
POINT
  5
3078
330
306E
100
AcDbEntity
  8
Defpoints
 62
     0
100
AcDbPoint
 10
102.2015140254043
 20
126.009374244929
 30
0.0
  0
POINT
  5
3079
330
306E
100
AcDbEntity
  8
Defpoints
 62
     0
100
AcDbPoint
 10
116.2114249047008
 20
126.009374244929
 30
0.0
  0
ENDBLK
  5
307B
330
306E
100
AcDbEntity
  8
0
100
AcDbBlockEnd
  0
BLOCK
  5
3087
330
307D
100
AcDbEntity
  8
0
100
AcDbBlockBegin
  2
*D7
 70
     1
 10
0.0
 20
0.0
 30
0.0
  3
*D7
  1

  0
LINE
  5
307E
330
307D
100
AcDbEntity
  8
寸法線
 62
     0
370
    -2
100
AcDbLine
 10
104.2015140254043
 20
126.009374244929
 30
0.0
 11
119.2114249047008
 21
126.009374244929
 31
0.0
  0
LINE
  5
307F
330
307D
100
AcDbEntity
  8
寸法線
 62
     0
370
    -2
100
AcDbLine
 10
104.2015140254043
 20
111.009374244929
 30
0.0
 11
119.2114249047008
 21
111.009374244929
 31
0.0
  0
LINE
  5
3080
330
307D
100
AcDbEntity
  8
寸法線
 62
     0
370
    -2
100
AcDbLine
 10
116.2114249047008
 20
123.009374244929
 30
0.0
 11
116.2114249047008
 21
114.009374244929
 31
0.0
  0
INSERT
  5
3081
330
307D
100
AcDbEntity
  8
寸法線
 62
     0
370
    -2
100
AcDbBlockReference
  2
_Closed
 10
116.2114249047008
 20
126.009374244929
 30
0.0
 41
3.0
 42
3.0
 43
3.0
 50
90.0
  0
INSERT
  5
3082
330
307D
100
AcDbEntity
  8
寸法線
 62
     0
370
    -2
100
AcDbBlockReference
  2
_Closed
 10
116.2114249047008
 20
111.009374244929
 30
0.0
 41
3.0
 42
3.0
 43
3.0
 50
270.0
  0
MTEXT
  5
3083
330
307D
100
AcDbEntity
  8
寸法線
 62
     0
100
AcDbMText
 10
112.7114249047008
 20
118.509374244929
 30
0.0
 40
5.0
 41
0.0
 71
     5
 72
     1
  1
15
  7
OKANO
 11
0.0000000000000001
 21
1.0
 31
0.0
 73
     1
 44
1.0
  0
POINT
  5
3084
330
307D
100
AcDbEntity
  8
Defpoints
 62
     0
100
AcDbPoint
 10
102.2015140254043
 20
126.009374244929
 30
0.0
  0
POINT
  5
3085
330
307D
100
AcDbEntity
  8
Defpoints
 62
     0
100
AcDbPoint
 10
102.2015140254043
 20
111.009374244929
 30
0.0
  0
POINT
  5
3086
330
307D
100
AcDbEntity
  8
Defpoints
 62
     0
100
AcDbPoint
 10
116.2114249047008
 20
111.009374244929
 30
0.0
  0
ENDBLK
  5
3088
330
307D
100
AcDbEntity
  8
0
100
AcDbBlockEnd
  0
BLOCK
  5
3096
330
308A
100
AcDbEntity
  8
0
100
AcDbBlockBegin
  2
*D8
 70
     1
 10
0.0
 20
0.0
 30
0.0
  3
*D8
  1

  0
LINE
  5
308B
330
308A
100
AcDbEntity
  8
寸法線
 62
     0
370
    -2
100
AcDbLine
 10
104.2015140254043
 20
111.009374244929
 30
0.0
 11
119.2114249047008
 21
111.009374244929
 31
0.0
  0
LINE
  5
308C
330
308A
100
AcDbEntity
  8
寸法線
 62
     0
370
    -2
100
AcDbLine
 10
104.2015140254043
 20
106.009374244929
 30
0.0
 11
119.2114249047008
 21
106.009374244929
 31
0.0
  0
LINE
  5
308D
330
308A
100
AcDbEntity
  8
寸法線
 62
     0
370
    -2
100
AcDbLine
 10
116.2114249047008
 20
114.009374244929
 30
0.0
 11
116.2114249047008
 21
117.009374244929
 31
0.0
  0
LINE
  5
308E
330
308A
100
AcDbEntity
  8
寸法線
 62
     0
370
    -2
100
AcDbLine
 10
116.2114249047008
 20
103.009374244929
 30
0.0
 11
116.2114249047008
 21
100.009374244929
 31
0.0
  0
LINE
  5
308F
330
308A
100
AcDbEntity
  8
寸法線
 62
     0
370
    -2
100
AcDbLine
 10
116.2114249047008
 20
111.009374244929
 30
0.0
 11
116.2114249047008
 21
106.009374244929
 31
0.0
  0
INSERT
  5
3090
330
308A
100
AcDbEntity
  8
寸法線
 62
     0
370
    -2
100
AcDbBlockReference
  2
_Closed
 10
116.2114249047008
 20
111.009374244929
 30
0.0
 41
3.0
 42
3.0
 43
3.0
 50
270.0
  0
INSERT
  5
3091
330
308A
100
AcDbEntity
  8
寸法線
 62
     0
370
    -2
100
AcDbBlockReference
  2
_Closed
 10
116.2114249047008
 20
106.009374244929
 30
0.0
 41
3.0
 42
3.0
 43
3.0
 50
90.0
  0
MTEXT
  5
3092
330
308A
100
AcDbEntity
  8
寸法線
 62
     0
100
AcDbMText
 10
112.7114249047007
 20
108.5093742449291
 30
0.0
 40
5.0
 41
0.0
 71
     5
 72
     1
  1
5
  7
OKANO
 11
0.0000000000000001
 21
1.0
 31
0.0
 73
     1
 44
1.0
  0
POINT
  5
3093
330
308A
100
AcDbEntity
  8
Defpoints
 62
     0
100
AcDbPoint
 10
102.2015140254043
 20
111.009374244929
 30
0.0
  0
POINT
  5
3094
330
308A
100
AcDbEntity
  8
Defpoints
 62
     0
100
AcDbPoint
 10
102.2015140254043
 20
106.009374244929
 30
0.0
  0
POINT
  5
3095
330
308A
100
AcDbEntity
  8
Defpoints
 62
     0
100
AcDbPoint
 10
116.2114249047008
 20
106.009374244929
 30
0.0
  0
ENDBLK
  5
3097
330
308A
100
AcDbEntity
  8
0
100
AcDbBlockEnd
  0
BLOCK
  5
31EB
330
31E1
100
AcDbEntity
  8
0
100
AcDbBlockBegin
  2
*D9
 70
     1
 10
0.0
 20
0.0
 30
0.0
  3
*D9
  1

  0
LINE
  5
31F6
330
31E1
100
AcDbEntity
  8
寸法線
 62
     0
370
    -2
100
AcDbLine
 10
42.40736741460092
 20
133.009374244929
 30
0.0
 11
42.40736741460092
 21
145.6604971295178
 31
0.0
  0
LINE
  5
31F7
330
31E1
100
AcDbEntity
  8
寸法線
 62
     0
370
    -2
100
AcDbLine
 10
72.93489389335253
 20
133.009374244929
 30
0.0
 11
72.93489389335253
 21
145.6604971295178
 31
0.0
  0
LINE
  5
31F8
330
31E1
100
AcDbEntity
  8
寸法線
 62
     0
370
    -2
100
AcDbLine
 10
45.40736741460092
 20
142.6604971295178
 30
0.0
 11
69.93489389335252
 21
142.6604971295178
 31
0.0
  0
INSERT
  5
31F9
330
31E1
100
AcDbEntity
  8
寸法線
 62
     0
370
    -2
100
AcDbBlockReference
  2
_Closed
 10
42.40736741460092
 20
142.6604971295178
 30
0.0
 41
3.0
 42
3.0
 43
3.0
 50
180.0
  0
INSERT
  5
31FA
330
31E1
100
AcDbEntity
  8
寸法線
 62
     0
370
    -2
100
AcDbBlockReference
  2
_Closed
 10
72.93489389335253
 20
142.6604971295178
 30
0.0
 41
3.0
 42
3.0
 43
3.0
  0
MTEXT
  5
31FB
330
31E1
100
AcDbEntity
  8
寸法線
 62
     0
100
AcDbMText
 10
57.67113065397672
 20
146.1604971295178
 30
0.0
 40
5.0
 41
0.0
 71
     5
 72
     1
  1
30
  7
OKANO
 73
     1
 44
1.0
  0
POINT
  5
31FC
330
31E1
100
AcDbEntity
  8
Defpoints
 62
     0
100
AcDbPoint
 10
42.40736741460092
 20
131.009374244929
 30
0.0
  0
POINT
  5
31FD
330
31E1
100
AcDbEntity
  8
Defpoints
 62
     0
100
AcDbPoint
 10
72.93489389335253
 20
131.009374244929
 30
0.0
  0
POINT
  5
31FE
330
31E1
100
AcDbEntity
  8
Defpoints
 62
     0
100
AcDbPoint
 10
72.93489389335253
 20
142.6604971295178
 30
0.0
  0
ENDBLK
  5
31EC
330
31E1
100
AcDbEntity
  8
0
100
AcDbBlockEnd
  0
BLOCK
  5
3217
330
320D
100
AcDbEntity
  8
0
100
AcDbBlockBegin
  2
*D10
 70
     1
 10
0.0
 20
0.0
 30
0.0
  3
*D10
  1

  0
LINE
  5
3222
330
320D
100
AcDbEntity
  8
寸法線
 62
     0
370
    -2
100
AcDbLine
 10
40.4073674146009
 20
1.535602024545256
 30
0.0
 11
32.54319498078438
 21
1.535602024545258
 31
0.0
  0
LINE
  5
3223
330
320D
100
AcDbEntity
  8
寸法線
 62
     0
370
    -2
100
AcDbLine
 10
40.4073674146009
 20
33.7350008582016
 30
0.0
 11
32.54319498078439
 21
33.7350008582016
 31
0.0
  0
LINE
  5
3224
330
320D
100
AcDbEntity
  8
寸法線
 62
     0
370
    -2
100
AcDbLine
 10
35.54319498078438
 20
4.535602024545257
 30
0.0
 11
35.54319498078439
 21
30.7350008582016
 31
0.0
  0
INSERT
  5
3225
330
320D
100
AcDbEntity
  8
寸法線
 62
     0
370
    -2
100
AcDbBlockReference
  2
_Closed
 10
35.54319498078438
 20
1.535602024545257
 30
0.0
 41
3.0
 42
3.0
 43
3.0
 50
270.0
  0
INSERT
  5
3226
330
320D
100
AcDbEntity
  8
寸法線
 62
     0
370
    -2
100
AcDbBlockReference
  2
_Closed
 10
35.54319498078439
 20
33.7350008582016
 30
0.0
 41
3.0
 42
3.0
 43
3.0
 50
90.0
  0
MTEXT
  5
3227
330
320D
100
AcDbEntity
  8
寸法線
 62
     0
100
AcDbMText
 10
32.04319498078438
 20
17.63530144137343
 30
0.0
 40
5.0
 41
0.0
 71
     5
 72
     1
  1
30
  7
OKANO
 11
0.0000000000000001
 21
1.0
 31
0.0
 73
     1
 44
1.0
  0
POINT
  5
3228
330
320D
100
AcDbEntity
  8
Defpoints
 62
     0
100
AcDbPoint
 10
42.4073674146009
 20
1.535602024545255
 30
0.0
  0
POINT
  5
3229
330
320D
100
AcDbEntity
  8
Defpoints
 62
     0
100
AcDbPoint
 10
42.4073674146009
 20
33.7350008582016
 30
0.0
  0
POINT
  5
322A
330
320D
100
AcDbEntity
  8
Defpoints
 62
     0
100
AcDbPoint
 10
35.54319498078439
 20
33.7350008582016
 30
0.0
  0
ENDBLK
  5
3218
330
320D
100
AcDbEntity
  8
0
100
AcDbBlockEnd
  0
BLOCK
  5
32B4
330
32AA
100
AcDbEntity
  8
0
100
AcDbBlockBegin
  2
*D11
 70
     1
 10
0.0
 20
0.0
 30
0.0
  3
*D11
  1

  0
ARC
  5
32AB
330
32AA
100
AcDbEntity
  8
寸法線
 62
     0
370
    -2
100
AcDbCircle
 10
73.56541052323165
 20
1.535602024545255
 30
0.0
 40
22.01954744189194
100
AcDbArc
 50
123.0031156803143
 51
172.1878250131736
  0
INSERT
  5
32AC
330
32AA
100
AcDbEntity
  8
寸法線
 62
     0
370
    -2
100
AcDbBlockReference
  2
_Closed
 10
64.19309358920867
 20
21.460966383421
 30
0.0
 41
3.0
 42
3.0
 43
3.0
 50
29.09702818690125
  0
INSERT
  5
32AD
330
32AA
100
AcDbEntity
  8
寸法線
 62
     0
370
    -2
100
AcDbBlockReference
  2
_Closed
 10
51.5458630813397
 20
1.535602024545291
 30
0.0
 41
3.0
 42
3.0
 43
3.0
 50
266.0939125065867
  0
MTEXT
  5
32AE
330
32AA
100
AcDbEntity
  8
寸法線
 62
     0
100
AcDbMText
 10
52.01962507411913
 20
15.21136273537174
 30
0.0
 40
5.0
 41
0.0
 71
     5
 72
     1
  1
65°
  7
OKANO
 11
0.5358935436439928
 21
0.844285561809915
 31
0.0
 73
     1
 44
1.0
  0
POINT
  5
32AF
330
32AA
100
AcDbEntity
  8
Defpoints
 62
     0
100
AcDbPoint
 10
57.51544022343684
 20
16.61071140794394
 30
0.0
  0
POINT
  5
32B0
330
32AA
100
AcDbEntity
  8
Defpoints
 62
     0
100
AcDbPoint
 10
73.56541052323165
 20
1.535602024545255
 30
0.0
  0
POINT
  5
32B1
330
32AA
100
AcDbEntity
  8
Defpoints
 62
     0
100
AcDbPoint
 10
102.2015140254043
 20
1.535602024545248
 30
0.0
  0
POINT
  5
32B2
330
32AA
100
AcDbEntity
  8
Defpoints
 62
     0
100
AcDbPoint
 10
42.4073674146009
 20
1.535602024545255
 30
0.0
  0
POINT
  5
32B3
330
32AA
100
AcDbEntity
  8
Defpoints
 62
     0
100
AcDbPoint
 10
52.29135745148181
 20
46.76382700121841
 30
0.0
  0
ENDBLK
  5
32B5
330
32AA
100
AcDbEntity
  8
0
100
AcDbBlockEnd
  0
ENDSEC
  0
SECTION
  2
ENTITIES
  0
TEXT
  5
29C1
330
1F
100
AcDbEntity
  8
文字
100
AcDbText
 10
287.7440372230388
 20
-28.02053579212097
 30
0.0
 40
3.599999999999999
  1
SET SCREW COUP
 51
15.0
  7
OKANO
100
AcDbText
  0
TEXT
  5
29C2
330
1F
100
AcDbEntity
  8
文字
100
AcDbText
 10
275.1070859623077
 20
-35.52497173398167
 30
0.0
 40
4.799999999999999
  1
joint kogyo T.okano
 51
15.0
  7
OKANO
100
AcDbText
  0
TEXT
  5
29C3
330
1F
100
AcDbEntity
  8
文字
100
AcDbText
 10
267.6187729505109
 20
-20.77260022669388
 30
0.0
 40
4.799999999999999
  1
F-999-20041129 Auto CAD
 51
15.0
  7
OKANO
100
AcDbText
  0
LINE
  5
29C4
330
1F
100
AcDbEntity
  8
太線
100
AcDbLine
 10
240.196544768897
 20
-21.69340787712424
 30
0.0
 11
348.196544768897
 21
-21.69340787712424
 31
0.0
  0
LWPOLYLINE
  5
29C5
330
1F
100
AcDbEntity
  8
太線
100
AcDbPolyline
 90
        4
 70
     1
 43
0.0
 10
240.196544768897
 20
-13.29340787712424
 10
348.196544768897
 20
-13.29340787712424
 10
348.196544768897
 20
-38.49340787712424
 10
240.196544768897
 20
-38.49340787712424
  0
TEXT
  5
29C6
330
1F
100
AcDbEntity
  8
文字
100
AcDbText
 10
244.0689283349545
 20
-29.88691967597492
 30
0.0
 40
2.399999999999999
  1
CHECK
 51
15.0
  7
OKANO
100
AcDbText
  0
LINE
  5
29C7
330
1F
100
AcDbEntity
  8
太線
100
AcDbLine
 10
264.196544768897
 20
-13.29340787712424
 30
0.0
 11
264.196544768897
 21
-38.49340787712424
 31
0.0
  0
TEXT
  5
29C8
330
1F
100
AcDbEntity
  8
文字
100
AcDbText
 10
244.0689283349545
 20
-36.80634728219074
 30
0.0
 40
2.399999999999999
  1
ISSUED
 51
15.0
  7
OKANO
100
AcDbText
  0
TEXT
  5
29C9
330
1F
100
AcDbEntity
  8
文字
100
AcDbText
 10
244.3254427678553
 20
-33.47477109292261
 30
0.0
 40
2.399999999999999
  1
APPR
 51
15.0
  7
OKANO
100
AcDbText
  0
TEXT
  5
29CA
330
1F
100
AcDbEntity
  8
文字
100
AcDbText
 10
242.2733327832688
 20
-19.89219169835908
 30
0.0
 40
2.399999999999999
  1
FILM NAME
 51
15.0
  7
OKANO
100
AcDbText
  0
TEXT
  5
29CB
330
1F
100
AcDbEntity
  8
文字
100
AcDbText
 10
243.5559016606009
 20
-26.29906884921588
 30
0.0
 40
2.399999999999999
  1
DRAWN
 51
15.0
  7
OKANO
100
AcDbText
  0
TEXT
  5
29CC
330
1F
100
AcDbEntity
  8
文字
100
AcDbText
 10
267.3054657259754
 20
-29.19484143809029
 30
0.0
 40
4.799999999999999
  1
17-1N
 51
15.0
  7
OKANO
100
AcDbText
  0
XLINE
  5
2AA3
330
1F
100
AcDbEntity
  8
構築線
100
AcDbXline
 10
242.4914745488584
 20
210.4788998873083
 30
0.0
 11
0.0
 21
-1.0
 31
0.0
  0
LINE
  5
2B9B
330
1F
100
AcDbEntity
  8
想像線
  6
HIDDEN2
100
AcDbLine
 10
42.40736741460091
 20
6.617679307604362
 30
0.0
 11
102.5799792833574
 21
6.617679307604362
 31
0.0
  0
LINE
  5
2B9E
330
1F
100
AcDbEntity
  8
想像線
  6
HIDDEN2
100
AcDbLine
 10
42.40736741460091
 20
56.61767930760436
 30
0.0
 11
102.5799792833574
 21
56.61767930760436
 31
0.0
  0
LINE
  5
2EC7
330
1F
100
AcDbEntity
  8
構築線
100
AcDbLine
 10
102.2015140254043
 20
33.61767930760436
 30
0.0
 11
129.2138289095553
 21
33.61767930760436
 31
0.0
  0
TEXT
  5
2FA9
330
1F
100
AcDbEntity
  8
文字
100
AcDbText
 10
189.4887030169018
 20
34.94149118249515
 30
0.0
 40
4.799999999999999
  1
注記　内面バリは最小限にする
 51
15.0
  7
OKANO
100
AcDbText
  0
XLINE
  5
2FB0
330
1F
100
AcDbEntity
  8
構築線
100
AcDbXline
 10
102.5799792833574
 20
33.61767930760436
 30
0.0
 11
-1.0
 21
0.0
 31
0.0
  0
LINE
  5
2FC1
330
1F
100
AcDbEntity
  8
太線
100
AcDbLine
 10
42.40736741460091
 20
61.53560202454525
 30
0.0
 11
102.2015140254043
 21
61.53560202454525
 31
0.0
  0
LINE
  5
2FC2
330
1F
100
AcDbEntity
  8
太線
100
AcDbLine
 10
102.2015140254043
 20
61.53560202454525
 30
0.0
 11
102.2015140254043
 21
1.535602024545255
 31
0.0
  0
LINE
  5
2FC3
330
1F
100
AcDbEntity
  8
太線
100
AcDbLine
 10
102.2015140254043
 20
1.535602024545255
 30
0.0
 11
42.4073674146009
 21
1.535602024545255
 31
0.0
  0
LINE
  5
2FC4
330
1F
100
AcDbEntity
  8
太線
100
AcDbLine
 10
42.4073674146009
 20
1.535602024545255
 30
0.0
 11
42.40736741460091
 21
61.53560202454525
 31
0.0
  0
DIMENSION
  5
2FC9
330
1F
100
AcDbEntity
  8
寸法線
100
AcDbDimension
  2
*D2
 10
120.2082260221541
 20
6.617679307604357
 30
0.0
 11
116.7082260221541
 21
31.61767930760437
 31
0.0
 70
    32
  1
49.3
 71
     5
 42
50.0
  3
sunpo
100
AcDbAlignedDimension
 13
102.5799792833574
 23
56.61767930760436
 33
0.0
 14
102.2015140254043
 24
6.617679307604362
 34
0.0
 50
90.0
100
AcDbRotatedDimension
1001
ACAD
1000
DSTYLE
1002
{
1070
    40
1040
1.0
1002
}
  0
XLINE
  5
2FDF
330
1F
100
AcDbEntity
  8
構築線
100
AcDbXline
 10
41.60360561576522
 20
156.009374244929
 30
0.0
 11
1.0
 21
0.0
 31
0.0
  0
LINE
  5
2FE9
330
1F
100
AcDbEntity
  8
太線
100
AcDbLine
 10
42.40736741460091
 20
186.009374244929
 30
0.0
 11
102.2015140254043
 21
186.009374244929
 31
0.0
  0
LINE
  5
2FEC
330
1F
100
AcDbEntity
  8
太線
100
AcDbLine
 10
42.40736741460092
 20
106.009374244929
 30
0.0
 11
42.40736741460091
 21
186.009374244929
 31
0.0
  0
LINE
  5
2FED
330
1F
100
AcDbEntity
  8
太線
100
AcDbLine
 10
42.40736741460091
 20
131.009374244929
 30
0.0
 11
102.2015140254043
 21
131.009374244929
 31
0.0
  0
LINE
  5
2FEE
330
1F
100
AcDbEntity
  8
破線
100
AcDbLine
 10
42.40736741460091
 20
181.009374244929
 30
0.0
 11
102.2015140254043
 21
181.009374244929
 31
0.0
  0
LINE
  5
2FEF
330
1F
100
AcDbEntity
  8
破線
100
AcDbLine
 10
42.40736741460091
 20
126.009374244929
 30
0.0
 11
102.2015140254043
 21
126.009374244929
 31
0.0
  0
LINE
  5
2FF2
330
1F
100
AcDbEntity
  8
太線
100
AcDbLine
 10
102.2015140254043
 20
106.009374244929
 30
0.0
 11
102.2015140254043
 21
186.009374244929
 31
0.0
  0
XLINE
  5
2FFE
330
1F
100
AcDbEntity
  8
構築線
100
AcDbXline
 10
41.60360561576522
 20
118.509374244929
 30
0.0
 11
1.0
 21
0.0
 31
0.0
  0
LINE
  5
2FFF
330
1F
100
AcDbEntity
  8
太線
100
AcDbLine
 10
42.40736741460091
 20
106.009374244929
 30
0.0
 11
102.2015140254043
 21
106.009374244929
 31
0.0
  0
LINE
  5
3000
330
1F
100
AcDbEntity
  8
破線
100
AcDbLine
 10
42.40736741460091
 20
111.009374244929
 30
0.0
 11
102.4498732007695
 21
111.009374244929
 31
0.0
  0
CIRCLE
  5
300F
330
1F
100
AcDbEntity
  8
太線
100
AcDbCircle
 10
242.4914745488584
 20
156.009374244929
 30
0.0
 40
30.0
  0
CIRCLE
  5
3010
330
1F
100
AcDbEntity
  8
太線
100
AcDbCircle
 10
242.4914745488584
 20
156.009374244929
 30
0.0
 40
25.0
  0
ELLIPSE
  5
3016
330
1F
100
AcDbEntity
  8
太線
100
AcDbEllipse
 10
265.4210142549934
 20
117.8850543597498
 30
0.0
 11
0.0
 21
7.5
 31
0.0
210
0.0
220
0.0
230
1.0
 40
0.536970908891583
 41
0.0
 42
6.283185307179586
  0
ELLIPSE
  5
3017
330
1F
100
AcDbEntity
  8
太線
100
AcDbEllipse
 10
265.4210142549934
 20
117.8850543597498
 30
0.0
 11
0.0
 21
12.5
 31
0.0
210
0.0
220
0.0
230
1.0
 40
0.5996813911573899
 41
0.0
 42
6.283185307179586
  0
ARC
  5
301C
330
1F
100
AcDbEntity
  8
太線
100
AcDbCircle
 10
272.5693977399966
 20
134.5398074599225
 30
0.0
 40
7.371333220813879
100
AcDbArc
 50
139.9804021382155
 51
212.1950323862058
  0
LINE
  5
3027
330
1F
100
AcDbEntity
  8
破線
100
AcDbLine
 10
218.9970570418101
 20
111.1534900147107
 30
0.0
 11
241.8761182425927
 21
110.9050745380936
 31
0.0
  0
LINE
  5
3028
330
1F
100
AcDbEntity
  8
破線
100
AcDbLine
 10
219.5006778164654
 20
125.7426113730454
 30
0.0
 11
259.2124311241901
 21
124.8895222500038
 31
0.0
  0
DIMENSION
  5
3044
330
1F
100
AcDbEntity
  8
寸法線
100
AcDbDimension
  2
*D3
 10
102.2015140254043
 20
193.7845163406453
 30
0.0
 11
72.30444072000262
 21
197.2845163406453
 31
0.0
 70
    32
  1
60
 71
     5
 42
59.7941466108034
  3
sunpo
100
AcDbAlignedDimension
 13
42.40736741460091
 23
186.009374244929
 33
0.0
 14
102.2015140254043
 24
186.009374244929
 34
0.0
100
AcDbRotatedDimension
1001
ACAD
1000
DSTYLE
1002
{
1070
    40
1040
1.0
1002
}
  0
DIMENSION
  5
3051
330
1F
100
AcDbEntity
  8
寸法線
100
AcDbDimension
  2
*D4
 10
116.2114249047008
 20
181.009374244929
 30
0.0
 11
112.7114249047008
 21
183.5093742449291
 31
0.0
 70
    32
 71
     5
 42
5.0
  3
sunpo
100
AcDbAlignedDimension
 13
102.2015140254043
 23
186.009374244929
 33
0.0
 14
102.2015140254043
 24
181.009374244929
 34
0.0
 50
90.0
100
AcDbRotatedDimension
1001
ACAD
1000
DSTYLE
1002
{
1070
    40
1040
1.0
1002
}
  0
DIMENSION
  5
3060
330
1F
100
AcDbEntity
  8
寸法線
100
AcDbDimension
  2
*D5
 10
116.2114249047008
 20
131.009374244929
 30
0.0
 11
112.7114249047008
 21
156.009374244929
 31
0.0
 70
    32
  1
49.3
 71
     5
 42
50.0
  3
sunpo
100
AcDbAlignedDimension
 13
102.2015140254043
 23
181.009374244929
 33
0.0
 14
102.2015140254043
 24
131.009374244929
 34
0.0
 50
90.0
100
AcDbRotatedDimension
1001
ACAD
1000
DSTYLE
1002
{
1070
    40
1040
1.0
1070
   279
1070
     1
1002
}
  0
DIMENSION
  5
306D
330
1F
100
AcDbEntity
  8
寸法線
100
AcDbDimension
  2
*D6
 10
116.2114249047008
 20
126.009374244929
 30
0.0
 11
112.7114249047008
 21
128.509374244929
 31
0.0
 70
    32
 71
     5
 42
5.0
  3
sunpo
100
AcDbAlignedDimension
 13
102.2015140254043
 23
131.009374244929
 33
0.0
 14
102.2015140254043
 24
126.009374244929
 34
0.0
 50
90.0
100
AcDbRotatedDimension
1001
ACAD
1000
DSTYLE
1002
{
1070
    40
1040
1.0
1070
   279
1070
     1
1002
}
  0
DIMENSION
  5
307C
330
1F
100
AcDbEntity
  8
寸法線
100
AcDbDimension
  2
*D7
 10
116.2114249047008
 20
111.009374244929
 30
0.0
 11
112.7114249047008
 21
118.509374244929
 31
0.0
 70
    32
 71
     5
 42
15.0
  3
sunpo
100
AcDbAlignedDimension
 13
102.2015140254043
 23
126.009374244929
 33
0.0
 14
102.2015140254043
 24
111.009374244929
 34
0.0
 50
90.0
100
AcDbRotatedDimension
1001
ACAD
1000
DSTYLE
1002
{
1070
    40
1040
1.0
1070
   279
1070
     1
1002
}
  0
DIMENSION
  5
3089
330
1F
100
AcDbEntity
  8
寸法線
100
AcDbDimension
  2
*D8
 10
116.2114249047008
 20
106.009374244929
 30
0.0
 11
112.7114249047007
 21
108.5093742449291
 31
0.0
 70
    32
 71
     5
 42
4.999999999999985
  3
sunpo
100
AcDbAlignedDimension
 13
102.2015140254043
 23
111.009374244929
 33
0.0
 14
102.2015140254043
 24
106.009374244929
 34
0.0
 50
90.0
100
AcDbRotatedDimension
1001
ACAD
1000
DSTYLE
1002
{
1070
    40
1040
1.0
1070
   279
1070
     1
1002
}
  0
TEXT
  5
30F8
330
1F
100
AcDbEntity
  8
文字
100
AcDbText
 10
190.4357558726726
 20
42.03660708447467
 30
0.0
 40
5.015816703995143
  1
表面処理　溶融亜鉛鍍金（ドブ）
 51
15.0
  7
OKANO
100
AcDbText
  0
LINE
  5
3143
330
1F
100
AcDbEntity
  8
太線
100
AcDbLine
 10
176.6562383840497
 20
82.88412718874818
 30
0.0
 11
176.6562383840497
 21
91.54252408429661
 31
0.0
  0
LINE
  5
3144
330
1F
100
AcDbEntity
  8
想像線
100
AcDbLine
 10
175.9860140924258
 20
91.54252408429661
 30
0.0
 11
175.9860140924258
 21
82.06327342489975
 31
0.0
  0
LINE
  5
3145
330
1F
100
AcDbEntity
  8
太線
100
AcDbLine
 10
168.278434738751
 20
91.54252408429661
 30
0.0
 11
168.278434738751
 21
82.88412718874818
 31
0.0
  0
LINE
  5
3146
330
1F
100
AcDbEntity
  8
想像線
100
AcDbLine
 10
168.9486590303749
 20
91.54252408429661
 30
0.0
 11
168.9486590303749
 21
82.06327342489975
 31
0.0
  0
LINE
  5
3147
330
1F
100
AcDbEntity
  8
太線
100
AcDbLine
 10
169.1162151032809
 20
82.04634682421831
 30
0.0
 11
175.8184580195198
 21
82.04634682421831
 31
0.0
  0
ARC
  5
3148
330
1F
100
AcDbEntity
  8
太線
100
AcDbCircle
 10
169.1162151032809
 20
82.88412718874818
 30
0.0
 40
0.8377803645298627
100
AcDbArc
 50
180.0
 51
270.0
  0
ARC
  5
3149
330
1F
100
AcDbEntity
  8
太線
100
AcDbCircle
 10
175.8184580195198
 20
82.88412718874818
 30
0.0
 40
0.8377803645298627
100
AcDbArc
 50
270.0
 51
0.0
  0
ARC
  5
314A
330
1F
100
AcDbEntity
  8
太線
100
AcDbCircle
 10
172.4673365614004
 20
114.0735859089275
 30
0.0
 40
3.518677531025413
100
AcDbArc
 50
346.2258530019731
 51
13.77414699802688
  0
ARC
  5
314B
330
1F
100
AcDbEntity
  8
太線
100
AcDbCircle
 10
172.4673365614004
 20
114.0735859089275
 30
0.0
 40
3.518677531025413
100
AcDbArc
 50
166.2258530019731
 51
193.7741469980269
  0
CIRCLE
  5
314C
330
1F
100
AcDbEntity
  8
太線
100
AcDbCircle
 10
172.4673365614004
 20
114.0735859089275
 30
0.0
 40
6.702242916238901
  0
ARC
  5
314D
330
1F
100
AcDbEntity
  8
太線
100
AcDbCircle
 10
175.8184580195198
 20
93.21808481335635
 30
0.0
 40
3.35112145811945
100
AcDbArc
 50
0.0
 51
90.0
  0
LINE
  5
314E
330
1F
100
AcDbEntity
  8
太線
100
AcDbLine
 10
176.6562383840497
 20
91.54252408429661
 30
0.0
 11
178.3317991131094
 21
91.54252408429661
 31
0.0
  0
LINE
  5
314F
330
1F
100
AcDbEntity
  8
想像線
100
AcDbLine
 10
171.6295561968705
 20
93.24730348864424
 30
0.0
 11
169.1162151032809
 21
96.56920627147579
 31
0.0
  0
LINE
  5
3150
330
1F
100
AcDbEntity
  8
太線
100
AcDbLine
 10
168.278434738751
 20
91.54252408429661
 30
0.0
 11
176.6562383840497
 21
91.54252408429661
 31
0.0
  0
LINE
  5
3151
330
1F
100
AcDbEntity
  8
太線
100
AcDbLine
 10
175.8184580195198
 20
96.56920627147579
 30
0.0
 11
169.1162151032809
 21
96.56920627147579
 31
0.0
  0
ARC
  5
3152
330
1F
100
AcDbEntity
  8
太線
100
AcDbCircle
 10
169.1162151032809
 20
93.21808481335635
 30
0.0
 40
3.35112145811945
100
AcDbArc
 50
90.0
 51
180.0
  0
ARC
  5
3153
330
1F
100
AcDbEntity
  8
太線
100
AcDbCircle
 10
166.6028740096913
 20
92.38030444882648
 30
0.0
 40
0.8377803645298627
100
AcDbArc
 50
180.0
 51
270.0
  0
LINE
  5
3154
330
1F
100
AcDbEntity
  8
太線
100
AcDbLine
 10
166.6028740096913
 20
91.54252408429661
 30
0.0
 11
168.278434738751
 21
91.54252408429661
 31
0.0
  0
LINE
  5
3155
330
1F
100
AcDbEntity
  8
太線
100
AcDbLine
 10
165.7650936451615
 20
93.21808481335635
 30
0.0
 11
165.7650936451615
 21
92.38030444882648
 31
0.0
  0
LINE
  5
3156
330
1F
100
AcDbEntity
  8
想像線
100
AcDbLine
 10
173.3051169259302
 20
93.24730348864424
 30
0.0
 11
175.8184580195198
 21
96.56920627147579
 31
0.0
  0
LINE
  5
3157
330
1F
100
AcDbEntity
  8
想像線
100
AcDbLine
 10
171.6295561968705
 20
96.56920627147579
 30
0.0
 11
171.6295561968705
 21
93.24730348864424
 31
0.0
  0
LINE
  5
3158
330
1F
100
AcDbEntity
  8
想像線
100
AcDbLine
 10
173.3051169259302
 20
96.56920627147579
 30
0.0
 11
173.3051169259302
 21
93.24730348864424
 31
0.0
  0
LINE
  5
3159
330
1F
100
AcDbEntity
  8
想像線
100
AcDbLine
 10
171.6295561968705
 20
93.24730348864424
 30
0.0
 11
173.3051169259302
 21
93.24730348864424
 31
0.0
  0
LINE
  5
315A
330
1F
100
AcDbEntity
  8
太線
100
AcDbLine
 10
169.0498498199263
 20
113.2358055443976
 30
0.0
 11
170.7917758323406
 21
113.2358055443976
 31
0.0
  0
ARC
  5
315B
330
1F
100
AcDbEntity
  8
太線
100
AcDbCircle
 10
174.1428972904601
 20
112.3980251798678
 30
0.0
 40
0.8377803645298627
100
AcDbArc
 50
90.0
 51
180.0
  0
ARC
  5
315C
330
1F
100
AcDbEntity
  8
太線
100
AcDbCircle
 10
170.7917758323406
 20
112.3980251798678
 30
0.0
 40
0.8377803645298627
100
AcDbArc
 50
0.0
 51
90.0
  0
ARC
  5
315D
330
1F
100
AcDbEntity
  8
太線
100
AcDbCircle
 10
172.4673365614004
 20
114.0735859089275
 30
0.0
 40
3.518677531025413
100
AcDbArc
 50
256.225853001973
 51
283.7741469980269
  0
LINE
  5
315E
330
1F
100
AcDbEntity
  8
太線
100
AcDbLine
 10
171.6295561968705
 20
112.3980251798678
 30
0.0
 11
171.6295561968705
 21
110.6560991674534
 31
0.0
  0
LINE
  5
315F
330
1F
100
AcDbEntity
  8
太線
100
AcDbLine
 10
173.3051169259302
 20
112.3980251798678
 30
0.0
 11
173.3051169259302
 21
110.6560991674534
 31
0.0
  0
LINE
  5
3160
330
1F
100
AcDbEntity
  8
太線
100
AcDbLine
 10
175.8848233028745
 20
113.2358055443976
 30
0.0
 11
174.1428972904601
 21
113.2358055443976
 31
0.0
  0
ARC
  5
3161
330
1F
100
AcDbEntity
  8
太線
100
AcDbCircle
 10
178.3317991131094
 20
92.38030444882648
 30
0.0
 40
0.8377803645298627
100
AcDbArc
 50
270.0
 51
0.0
  0
LINE
  5
3162
330
1F
100
AcDbEntity
  8
太線
100
AcDbLine
 10
179.1695794776392
 20
92.38030444882648
 30
0.0
 11
179.1695794776392
 21
93.21808481335635
 31
0.0
  0
LINE
  5
3163
330
1F
100
AcDbEntity
  8
太線
100
AcDbLine
 10
170.7917758323406
 20
114.9113662734573
 30
0.0
 11
169.0498498199263
 21
114.9113662734573
 31
0.0
  0
ARC
  5
3164
330
1F
100
AcDbEntity
  8
太線
100
AcDbCircle
 10
174.1428972904601
 20
115.7491466379872
 30
0.0
 40
0.8377803645298627
100
AcDbArc
 50
180.0
 51
270.0
  0
ARC
  5
3165
330
1F
100
AcDbEntity
  8
太線
100
AcDbCircle
 10
170.7917758323406
 20
115.7491466379872
 30
0.0
 40
0.8377803645298627
100
AcDbArc
 50
270.0
 51
0.0
  0
LINE
  5
3166
330
1F
100
AcDbEntity
  8
太線
100
AcDbLine
 10
171.6295561968705
 20
117.4910726504016
 30
0.0
 11
171.6295561968705
 21
115.7491466379872
 31
0.0
  0
LINE
  5
3167
330
1F
100
AcDbEntity
  8
太線
100
AcDbLine
 10
173.3051169259302
 20
117.4910726504016
 30
0.0
 11
173.3051169259302
 21
115.7491466379872
 31
0.0
  0
ARC
  5
3168
330
1F
100
AcDbEntity
  8
太線
100
AcDbCircle
 10
172.4673365614004
 20
114.0735859089275
 30
0.0
 40
3.518677531025413
100
AcDbArc
 50
76.22585300197306
 51
103.7741469980269
  0
LINE
  5
3169
330
1F
100
AcDbEntity
  8
太線
100
AcDbLine
 10
174.1428972904601
 20
114.9113662734573
 30
0.0
 11
175.8848233028745
 21
114.9113662734573
 31
0.0
  0
LINE
  5
316B
330
1F
100
AcDbEntity
  8
太線
100
AcDbLine
 10
240.3176419383911
 20
102.3099035132732
 30
0.0
 11
244.3389876881344
 21
102.3099035132732
 31
0.0
  0
LINE
  5
316C
330
1F
100
AcDbEntity
  8
太線
100
AcDbLine
 10
244.8416559068523
 20
105.3259128255807
 30
0.0
 11
239.8149737196732
 21
105.3259128255807
 31
0.0
  0
LINE
  5
316D
330
1F
100
AcDbEntity
  8
想像線
100
AcDbLine
 10
242.8309830319807
 20
104.3030451829721
 30
0.0
 11
244.3389876881344
 21
102.3099035132732
 31
0.0
  0
LINE
  5
316E
330
1F
100
AcDbEntity
  8
太線
100
AcDbLine
 10
244.3389876881344
 20
112.9097433225576
 30
0.0
 11
240.3176419383911
 21
112.9097433225576
 31
0.0
  0
ARC
  5
316F
330
1F
100
AcDbEntity
  8
太線
100
AcDbCircle
 10
244.3389876881344
 20
104.3205763881448
 30
0.0
 40
2.01067287487167
100
AcDbArc
 50
270.0
 51
0.0
  0
LINE
  5
3170
330
1F
100
AcDbEntity
  8
想像線
100
AcDbLine
 10
244.439521331878
 20
105.3259128255807
 30
0.0
 11
244.439521331878
 21
112.8995873621488
 31
0.0
  0
LINE
  5
3171
330
1F
100
AcDbEntity
  8
太線
100
AcDbLine
 10
244.8416559068523
 20
105.3259128255807
 30
0.0
 11
244.8416559068523
 21
112.4070751038397
 31
0.0
  0
ARC
  5
3172
330
1F
100
AcDbEntity
  8
太線
100
AcDbCircle
 10
244.3389876881344
 20
112.4070751038397
 30
0.0
 40
0.5026682187179176
100
AcDbArc
 50
0.0
 51
90.0
  0
ARC
  5
3173
330
1F
100
AcDbEntity
  8
太線
100
AcDbCircle
 10
245.8469923442882
 20
104.8232446068628
 30
0.0
 40
0.5026682187179176
100
AcDbArc
 50
0.0
 51
90.0
  0
LINE
  5
3174
330
1F
100
AcDbEntity
  8
太線
100
AcDbLine
 10
246.3496605630061
 20
104.3205763881448
 30
0.0
 11
246.3496605630061
 21
104.8232446068628
 31
0.0
  0
LINE
  5
3175
330
1F
100
AcDbEntity
  8
太線
100
AcDbLine
 10
245.8469923442882
 20
105.3259128255807
 30
0.0
 11
244.8416559068523
 21
105.3259128255807
 31
0.0
  0
LINE
  5
3176
330
1F
100
AcDbEntity
  8
想像線
100
AcDbLine
 10
241.8256465945448
 20
102.3099035132732
 30
0.0
 11
241.8256465945448
 21
104.3030451829721
 31
0.0
  0
LINE
  5
3177
330
1F
100
AcDbEntity
  8
想像線
100
AcDbLine
 10
242.8309830319807
 20
102.3099035132732
 30
0.0
 11
242.8309830319807
 21
104.3030451829721
 31
0.0
  0
LINE
  5
3178
330
1F
100
AcDbEntity
  8
想像線
100
AcDbLine
 10
241.8256465945448
 20
104.3030451829721
 30
0.0
 11
240.3176419383911
 21
102.3099035132732
 31
0.0
  0
ARC
  5
3179
330
1F
100
AcDbEntity
  8
太線
100
AcDbCircle
 10
240.317641938391
 20
104.3205763881448
 30
0.0
 40
2.01067287487167
100
AcDbArc
 50
180.0
 51
270.0
  0
ARC
  5
317A
330
1F
100
AcDbEntity
  8
太線
100
AcDbCircle
 10
238.8096372822373
 20
104.8232446068628
 30
0.0
 40
0.5026682187179176
100
AcDbArc
 50
90.0
 51
180.0
  0
LINE
  5
317B
330
1F
100
AcDbEntity
  8
想像線
100
AcDbLine
 10
240.2171082946475
 20
105.3259128255807
 30
0.0
 11
240.2171082946475
 21
112.8995873621488
 31
0.0
  0
LINE
  5
317C
330
1F
100
AcDbEntity
  8
太線
100
AcDbLine
 10
239.8149737196732
 20
112.4070751038397
 30
0.0
 11
239.8149737196732
 21
105.3259128255807
 31
0.0
  0
ARC
  5
317D
330
1F
100
AcDbEntity
  8
太線
100
AcDbCircle
 10
240.317641938391
 20
112.4070751038397
 30
0.0
 40
0.5026682187179176
100
AcDbArc
 50
90.0
 51
180.0
  0
LINE
  5
317E
330
1F
100
AcDbEntity
  8
想像線
100
AcDbLine
 10
242.8309830319807
 20
104.3030451829721
 30
0.0
 11
241.8256465945448
 21
104.3030451829721
 31
0.0
  0
LINE
  5
317F
330
1F
100
AcDbEntity
  8
太線
100
AcDbLine
 10
239.8149737196732
 20
105.3259128255807
 30
0.0
 11
238.8096372822373
 21
105.3259128255807
 31
0.0
  0
LINE
  5
3180
330
1F
100
AcDbEntity
  8
太線
100
AcDbLine
 10
238.3069690635194
 20
104.8232446068628
 30
0.0
 11
238.3069690635194
 21
104.3205763881448
 31
0.0
  0
LINE
  5
3199
330
1F
100
AcDbEntity
  8
破線
100
AcDbLine
 10
241.8761182425927
 20
110.9050745380935
 30
0.0
 11
259.2803193267116
 21
110.7161038076291
 31
0.0
  0
CIRCLE
  5
31A4
330
1F
100
AcDbEntity
  8
太線
100
AcDbCircle
 10
71.93115102101618
 20
33.98808346501077
 30
0.0
 40
4.02134574974334
  0
LINE
  5
31A5
330
1F
100
AcDbEntity
  8
太線
100
AcDbLine
 10
70.92581458358035
 20
34.49075168372869
 30
0.0
 11
69.88065897613171
 21
34.49075168372869
 31
0.0
  0
LINE
  5
31A6
330
1F
100
AcDbEntity
  8
太線
100
AcDbLine
 10
69.88065897613171
 20
33.48541524629285
 30
0.0
 11
70.92581458358035
 21
33.48541524629285
 31
0.0
  0
ARC
  5
31A7
330
1F
100
AcDbEntity
  8
太線
100
AcDbCircle
 10
71.93115102101618
 20
33.98808346501077
 30
0.0
 40
2.111206518615248
100
AcDbArc
 50
166.2258530019731
 51
193.7741469980269
  0
ARC
  5
31A8
330
1F
100
AcDbEntity
  8
太線
100
AcDbCircle
 10
71.93115102101618
 20
33.98808346501077
 30
0.0
 40
2.111206518615248
100
AcDbArc
 50
346.2258530019731
 51
13.77414699802688
  0
LINE
  5
31A9
330
1F
100
AcDbEntity
  8
太線
100
AcDbLine
 10
73.98164306590064
 20
33.48541524629285
 30
0.0
 11
72.936487458452
 21
33.48541524629285
 31
0.0
  0
LINE
  5
31AA
330
1F
100
AcDbEntity
  8
太線
100
AcDbLine
 10
72.43381923973409
 20
32.98274702757494
 30
0.0
 11
72.43381923973409
 21
31.93759142012629
 31
0.0
  0
LINE
  5
31AB
330
1F
100
AcDbEntity
  8
太線
100
AcDbLine
 10
71.42848280229826
 20
32.98274702757494
 30
0.0
 11
71.42848280229826
 21
31.93759142012629
 31
0.0
  0
ARC
  5
31AC
330
1F
100
AcDbEntity
  8
太線
100
AcDbCircle
 10
71.93115102101618
 20
33.98808346501077
 30
0.0
 40
2.111206518615248
100
AcDbArc
 50
256.225853001973
 51
283.7741469980269
  0
ARC
  5
31AD
330
1F
100
AcDbEntity
  8
太線
100
AcDbCircle
 10
70.92581458358035
 20
32.98274702757494
 30
0.0
 40
0.5026682187179176
100
AcDbArc
 50
0.0
 51
90.0
  0
ARC
  5
31AE
330
1F
100
AcDbEntity
  8
太線
100
AcDbCircle
 10
72.936487458452
 20
32.98274702757494
 30
0.0
 40
0.5026682187179176
100
AcDbArc
 50
90.0
 51
180.0
  0
LINE
  5
31AF
330
1F
100
AcDbEntity
  8
太線
100
AcDbLine
 10
72.936487458452
 20
34.49075168372869
 30
0.0
 11
73.98164306590064
 21
34.49075168372869
 31
0.0
  0
ARC
  5
31B0
330
1F
100
AcDbEntity
  8
太線
100
AcDbCircle
 10
71.93115102101618
 20
33.98808346501077
 30
0.0
 40
2.111206518615248
100
AcDbArc
 50
76.22585300197306
 51
103.7741469980269
  0
LINE
  5
31B1
330
1F
100
AcDbEntity
  8
太線
100
AcDbLine
 10
72.43381923973409
 20
36.03857550989525
 30
0.0
 11
72.43381923973409
 21
34.9934199024466
 31
0.0
  0
LINE
  5
31B2
330
1F
100
AcDbEntity
  8
太線
100
AcDbLine
 10
71.42848280229826
 20
36.03857550989525
 30
0.0
 11
71.42848280229826
 21
34.9934199024466
 31
0.0
  0
ARC
  5
31B3
330
1F
100
AcDbEntity
  8
太線
100
AcDbCircle
 10
70.92581458358035
 20
34.9934199024466
 30
0.0
 40
0.5026682187179176
100
AcDbArc
 50
270.0
 51
0.0
  0
ARC
  5
31B4
330
1F
100
AcDbEntity
  8
太線
100
AcDbCircle
 10
72.936487458452
 20
34.9934199024466
 30
0.0
 40
0.5026682187179176
100
AcDbArc
 50
180.0
 51
270.0
  0
CIRCLE
  5
31B5
330
1F
100
AcDbEntity
  8
太線
100
AcDbCircle
 10
72.63628163759429
 20
155.8595487674074
 30
0.0
 40
4.02134574974334
  0
LINE
  5
31B6
330
1F
100
AcDbEntity
  8
太線
100
AcDbLine
 10
70.58578959270983
 20
155.3568805486895
 30
0.0
 11
71.63094520015846
 21
155.3568805486895
 31
0.0
  0
LINE
  5
31B7
330
1F
100
AcDbEntity
  8
太線
100
AcDbLine
 10
71.63094520015846
 20
156.3622169861254
 30
0.0
 11
70.58578959270983
 21
156.3622169861254
 31
0.0
  0
ARC
  5
31B8
330
1F
100
AcDbEntity
  8
太線
100
AcDbCircle
 10
72.63628163759429
 20
155.8595487674074
 30
0.0
 40
2.111206518615248
100
AcDbArc
 50
166.2258530019731
 51
193.7741469980269
  0
ARC
  5
31B9
330
1F
100
AcDbEntity
  8
太線
100
AcDbCircle
 10
72.63628163759429
 20
155.8595487674074
 30
0.0
 40
2.111206518615248
100
AcDbArc
 50
346.2258530019731
 51
13.77414699802688
  0
LINE
  5
31BA
330
1F
100
AcDbEntity
  8
太線
100
AcDbLine
 10
72.13361341887638
 20
157.9100408122919
 30
0.0
 11
72.13361341887638
 21
156.8648852048433
 31
0.0
  0
LINE
  5
31BB
330
1F
100
AcDbEntity
  8
太線
100
AcDbLine
 10
73.13894985631221
 20
157.9100408122919
 30
0.0
 11
73.13894985631221
 21
156.8648852048433
 31
0.0
  0
ARC
  5
31BC
330
1F
100
AcDbEntity
  8
太線
100
AcDbCircle
 10
73.64161807503013
 20
156.8648852048433
 30
0.0
 40
0.5026682187179176
100
AcDbArc
 50
180.0
 51
270.0
  0
ARC
  5
31BD
330
1F
100
AcDbEntity
  8
太線
100
AcDbCircle
 10
73.64161807503013
 20
154.8542123299716
 30
0.0
 40
0.5026682187179176
100
AcDbArc
 50
90.0
 51
180.0
  0
ARC
  5
31BE
330
1F
100
AcDbEntity
  8
太線
100
AcDbCircle
 10
71.63094520015846
 20
156.8648852048433
 30
0.0
 40
0.5026682187179176
100
AcDbArc
 50
270.0
 51
0.0
  0
ARC
  5
31BF
330
1F
100
AcDbEntity
  8
太線
100
AcDbCircle
 10
71.63094520015846
 20
154.8542123299716
 30
0.0
 40
0.5026682187179176
100
AcDbArc
 50
0.0
 51
90.0
  0
ARC
  5
31C0
330
1F
100
AcDbEntity
  8
太線
100
AcDbCircle
 10
72.63628163759429
 20
155.8595487674074
 30
0.0
 40
2.111206518615248
100
AcDbArc
 50
76.22585300197306
 51
103.7741469980269
  0
ARC
  5
31C1
330
1F
100
AcDbEntity
  8
太線
100
AcDbCircle
 10
72.63628163759429
 20
155.8595487674074
 30
0.0
 40
2.111206518615248
100
AcDbArc
 50
256.225853001973
 51
283.7741469980269
  0
LINE
  5
31C2
330
1F
100
AcDbEntity
  8
太線
100
AcDbLine
 10
72.13361341887638
 20
154.8542123299716
 30
0.0
 11
72.13361341887638
 21
153.809056722523
 31
0.0
  0
LINE
  5
31C3
330
1F
100
AcDbEntity
  8
太線
100
AcDbLine
 10
73.13894985631221
 20
154.8542123299716
 30
0.0
 11
73.13894985631221
 21
153.809056722523
 31
0.0
  0
LINE
  5
31C4
330
1F
100
AcDbEntity
  8
太線
100
AcDbLine
 10
73.64161807503013
 20
156.3622169861254
 30
0.0
 11
74.68677368247876
 21
156.3622169861254
 31
0.0
  0
LINE
  5
31C5
330
1F
100
AcDbEntity
  8
太線
100
AcDbLine
 10
74.68677368247876
 20
155.3568805486895
 30
0.0
 11
73.64161807503013
 21
155.3568805486895
 31
0.0
  0
DIMENSION
  5
31E0
330
1F
100
AcDbEntity
  8
寸法線
100
AcDbDimension
  2
*D9
 10
72.93489389335253
 20
142.6604971295178
 30
0.0
 11
57.67113065397672
 21
146.1604971295178
 31
0.0
 70
    32
  1
30
 71
     5
 42
30.5275264787516
  3
sunpo
100
AcDbAlignedDimension
 13
42.40736741460092
 23
131.009374244929
 33
0.0
 14
72.93489389335253
 24
131.009374244929
 34
0.0
100
AcDbRotatedDimension
1001
ACAD
1000
DSTYLE
1002
{
1070
    40
1040
1.0
1002
}
  0
DIMENSION
  5
320C
330
1F
100
AcDbEntity
  8
寸法線
100
AcDbDimension
  2
*D10
 10
35.54319498078439
 20
33.7350008582016
 30
0.0
 11
32.04319498078438
 21
17.63530144137343
 31
0.0
 70
    32
  1
30
 71
     5
 42
32.19939883365634
  3
sunpo
100
AcDbAlignedDimension
 13
42.4073674146009
 23
1.535602024545255
 33
0.0
 14
42.4073674146009
 24
33.7350008582016
 34
0.0
 50
90.0
100
AcDbRotatedDimension
1001
ACAD
1000
DSTYLE
1002
{
1070
    40
1040
1.0
1002
}
  0
TEXT
  5
322B
330
1F
100
AcDbEntity
  8
文字
100
AcDbText
 10
150.114243749838
 20
73.94313285754401
 30
0.0
 40
4.799999999999999
  1
M5-10mm×２ SUS(304)
 51
15.0
  7
OKANO
100
AcDbText
  0
LINE
  5
3247
330
1F
100
AcDbEntity
  8
中心線
100
AcDbLine
 10
265.928660067677
 20
156.009374244929
 30
0.0
 11
279.8381582201487
 21
156.009374244929
 31
0.0
  0
LINE
  5
3248
330
1F
100
AcDbEntity
  8
中心線
100
AcDbLine
 10
242.4914745488584
 20
156.009374244929
 30
0.0
 11
242.4914745488584
 21
88.24447280061077
 31
0.0
  0
LINE
  5
3249
330
1F
100
AcDbEntity
  8
中心線
100
AcDbLine
 10
242.4914745488584
 20
88.24447280061077
 30
0.0
 11
242.4914745488584
 21
193.9916942366957
 31
0.0
  0
LINE
  5
324A
330
1F
100
AcDbEntity
  8
中心線
100
AcDbLine
 10
242.4914745488584
 20
193.9916942366957
 30
0.0
 11
242.4914745488584
 21
86.21087240971395
 31
0.0
  0
LINE
  5
324C
330
1F
100
AcDbEntity
  8
想像線
100
AcDbLine
 10
72.85678199988672
 20
104.3030451829721
 30
0.0
 11
71.85144556245086
 21
104.3030451829721
 31
0.0
  0
LINE
  5
324D
330
1F
100
AcDbEntity
  8
太線
100
AcDbLine
 10
70.34344090629713
 20
102.3099035132732
 30
0.0
 11
74.36478665604045
 21
102.3099035132732
 31
0.0
  0
LINE
  5
324E
330
1F
100
AcDbEntity
  8
太線
100
AcDbLine
 10
74.86745487475838
 20
105.3259128255807
 30
0.0
 11
69.8407726875792
 21
105.3259128255807
 31
0.0
  0
LINE
  5
324F
330
1F
100
AcDbEntity
  8
太線
100
AcDbLine
 10
74.36478665604045
 20
112.9097433225576
 30
0.0
 11
70.34344090629713
 21
112.9097433225576
 31
0.0
  0
LINE
  5
3250
330
1F
100
AcDbEntity
  8
想像線
100
AcDbLine
 10
71.85144556245086
 20
102.3099035132732
 30
0.0
 11
71.85144556245086
 21
104.3030451829721
 31
0.0
  0
ARC
  5
3251
330
1F
100
AcDbEntity
  8
太線
100
AcDbCircle
 10
70.34344090629708
 20
104.3205763881448
 30
0.0
 40
2.01067287487167
100
AcDbArc
 50
180.0
 51
270.0
  0
LINE
  5
3252
330
1F
100
AcDbEntity
  8
想像線
100
AcDbLine
 10
71.85144556245086
 20
104.3030451829721
 30
0.0
 11
70.34344090629713
 21
102.3099035132732
 31
0.0
  0
LINE
  5
3253
330
1F
100
AcDbEntity
  8
想像線
100
AcDbLine
 10
70.24290726255355
 20
105.3259128255807
 30
0.0
 11
70.24290726255355
 21
112.8995873621488
 31
0.0
  0
LINE
  5
3254
330
1F
100
AcDbEntity
  8
太線
100
AcDbLine
 10
69.8407726875792
 20
112.4070751038397
 30
0.0
 11
69.8407726875792
 21
105.3259128255807
 31
0.0
  0
ARC
  5
3255
330
1F
100
AcDbEntity
  8
太線
100
AcDbCircle
 10
68.83543625014334
 20
104.8232446068628
 30
0.0
 40
0.5026682187179176
100
AcDbArc
 50
90.0
 51
180.0
  0
LINE
  5
3256
330
1F
100
AcDbEntity
  8
太線
100
AcDbLine
 10
68.33276803142545
 20
104.8232446068628
 30
0.0
 11
68.33276803142545
 21
104.3205763881448
 31
0.0
  0
LINE
  5
3257
330
1F
100
AcDbEntity
  8
太線
100
AcDbLine
 10
69.8407726875792
 20
105.3259128255807
 30
0.0
 11
68.83543625014334
 21
105.3259128255807
 31
0.0
  0
ARC
  5
3258
330
1F
100
AcDbEntity
  8
太線
100
AcDbCircle
 10
70.34344090629708
 20
112.4070751038397
 30
0.0
 40
0.5026682187179176
100
AcDbArc
 50
90.0
 51
180.0
  0
LINE
  5
3259
330
1F
100
AcDbEntity
  8
想像線
100
AcDbLine
 10
72.85678199988672
 20
104.3030451829721
 30
0.0
 11
74.36478665604045
 21
102.3099035132732
 31
0.0
  0
ARC
  5
325A
330
1F
100
AcDbEntity
  8
太線
100
AcDbCircle
 10
74.36478665604045
 20
104.3205763881448
 30
0.0
 40
2.01067287487167
100
AcDbArc
 50
270.0
 51
0.0
  0
LINE
  5
325B
330
1F
100
AcDbEntity
  8
想像線
100
AcDbLine
 10
72.85678199988672
 20
102.3099035132732
 30
0.0
 11
72.85678199988672
 21
104.3030451829721
 31
0.0
  0
LINE
  5
325C
330
1F
100
AcDbEntity
  8
想像線
100
AcDbLine
 10
74.46532029978403
 20
105.3259128255807
 30
0.0
 11
74.46532029978403
 21
112.8995873621488
 31
0.0
  0
LINE
  5
325D
330
1F
100
AcDbEntity
  8
太線
100
AcDbLine
 10
74.86745487475838
 20
105.3259128255807
 30
0.0
 11
74.86745487475838
 21
112.4070751038397
 31
0.0
  0
ARC
  5
325E
330
1F
100
AcDbEntity
  8
太線
100
AcDbCircle
 10
75.87279131219418
 20
104.8232446068628
 30
0.0
 40
0.5026682187179176
100
AcDbArc
 50
0.0
 51
90.0
  0
LINE
  5
325F
330
1F
100
AcDbEntity
  8
太線
100
AcDbLine
 10
76.37545953091211
 20
104.3205763881448
 30
0.0
 11
76.37545953091211
 21
104.8232446068628
 31
0.0
  0
LINE
  5
3260
330
1F
100
AcDbEntity
  8
太線
100
AcDbLine
 10
75.87279131219421
 20
105.3259128255807
 30
0.0
 11
74.86745487475838
 21
105.3259128255807
 31
0.0
  0
ARC
  5
3261
330
1F
100
AcDbEntity
  8
太線
100
AcDbCircle
 10
74.36478665604045
 20
112.4070751038397
 30
0.0
 40
0.5026682187179176
100
AcDbArc
 50
0.0
 51
90.0
  0
LINE
  5
3278
330
1F
100
AcDbEntity
  8
太線
100
AcDbLine
 10
77.11197281140781
 20
62.31845689373952
 30
0.0
 11
76.10663637397198
 21
62.31845689373952
 31
0.0
  0
ARC
  5
3279
330
1F
100
AcDbEntity
  8
太線
100
AcDbCircle
 10
75.60396815525405
 20
63.32379333117538
 30
0.0
 40
2.01067287487167
100
AcDbArc
 50
0.0
 51
90.00000000000003
  0
LINE
  5
327A
330
1F
100
AcDbEntity
  8
想像線
100
AcDbLine
 10
73.09062706166447
 20
65.33446620604704
 30
0.0
 11
73.09062706166447
 21
63.34132453634811
 31
0.0
  0
ARC
  5
327B
330
1F
100
AcDbEntity
  8
太線
100
AcDbCircle
 10
71.58262240551067
 20
63.32379333117538
 30
0.0
 40
2.01067287487167
100
AcDbArc
 50
90.00000000000003
 51
180.0
  0
LINE
  5
327C
330
1F
100
AcDbEntity
  8
想像線
100
AcDbLine
 10
73.09062706166447
 20
63.34132453634811
 30
0.0
 11
71.58262240551073
 21
65.33446620604704
 31
0.0
  0
LINE
  5
327D
330
1F
100
AcDbEntity
  8
想像線
100
AcDbLine
 10
74.09596349910032
 20
63.34132453634811
 30
0.0
 11
75.60396815525405
 21
65.33446620604704
 31
0.0
  0
LINE
  5
327E
330
1F
100
AcDbEntity
  8
想像線
100
AcDbLine
 10
74.09596349910032
 20
65.33446620604704
 30
0.0
 11
74.09596349910032
 21
63.34132453634811
 31
0.0
  0
LINE
  5
327F
330
1F
100
AcDbEntity
  8
太線
100
AcDbLine
 10
71.58262240551073
 20
65.33446620604704
 30
0.0
 11
75.60396815525405
 21
65.33446620604704
 31
0.0
  0
LINE
  5
3280
330
1F
100
AcDbEntity
  8
想像線
100
AcDbLine
 10
75.70450179899762
 20
62.31845689373955
 30
0.0
 11
75.70450179899762
 21
54.74478235717146
 31
0.0
  0
LINE
  5
3281
330
1F
100
AcDbEntity
  8
太線
100
AcDbLine
 10
76.10663637397198
 20
62.31845689373949
 30
0.0
 11
76.10663637397198
 21
55.23729461548052
 31
0.0
  0
LINE
  5
3282
330
1F
100
AcDbEntity
  8
想像線
100
AcDbLine
 10
71.48208876176716
 20
62.31845689373955
 30
0.0
 11
71.48208876176716
 21
54.74478235717146
 31
0.0
  0
LINE
  5
3283
330
1F
100
AcDbEntity
  8
太線
100
AcDbLine
 10
71.0799541867928
 20
55.23729461548052
 30
0.0
 11
71.0799541867928
 21
62.31845689373952
 31
0.0
  0
LINE
  5
3284
330
1F
100
AcDbEntity
  8
太線
100
AcDbLine
 10
76.10663637397198
 20
62.31845689373952
 30
0.0
 11
71.0799541867928
 21
62.31845689373952
 31
0.0
  0
ARC
  5
3285
330
1F
100
AcDbEntity
  8
太線
100
AcDbCircle
 10
70.07461774935695
 20
62.82112511245745
 30
0.0
 40
0.5026682187179176
100
AcDbArc
 50
180.0
 51
270.0
  0
LINE
  5
3286
330
1F
100
AcDbEntity
  8
太線
100
AcDbLine
 10
69.57194953063904
 20
62.82112511245745
 30
0.0
 11
69.57194953063904
 21
63.32379333117538
 31
0.0
  0
LINE
  5
3287
330
1F
100
AcDbEntity
  8
太線
100
AcDbLine
 10
71.0799541867928
 20
62.31845689373952
 30
0.0
 11
70.07461774935695
 21
62.31845689373952
 31
0.0
  0
LINE
  5
3288
330
1F
100
AcDbEntity
  8
想像線
100
AcDbLine
 10
74.09596349910032
 20
63.34132453634811
 30
0.0
 11
73.09062706166447
 21
63.34132453634811
 31
0.0
  0
LINE
  5
3289
330
1F
100
AcDbEntity
  8
太線
100
AcDbLine
 10
75.60396815525405
 20
54.7346263967626
 30
0.0
 11
71.58262240551073
 21
54.7346263967626
 31
0.0
  0
ARC
  5
328A
330
1F
100
AcDbEntity
  8
太線
100
AcDbCircle
 10
71.58262240551067
 20
55.23729461548049
 30
0.0
 40
0.5026682187179176
100
AcDbArc
 50
180.0
 51
270.0
  0
ARC
  5
328B
330
1F
100
AcDbEntity
  8
太線
100
AcDbCircle
 10
75.60396815525405
 20
55.23729461548049
 30
0.0
 40
0.5026682187179176
100
AcDbArc
 50
270.0
 51
0.0
  0
ARC
  5
328C
330
1F
100
AcDbEntity
  8
太線
100
AcDbCircle
 10
77.11197281140778
 20
62.82112511245745
 30
0.0
 40
0.5026682187179176
100
AcDbArc
 50
270.0
 51
0.0
  0
LINE
  5
328D
330
1F
100
AcDbEntity
  8
太線
100
AcDbLine
 10
77.61464103012571
 20
63.32379333117538
 30
0.0
 11
77.61464103012571
 21
62.82112511245745
 31
0.0
  0
LINE
  5
329F
330
1F
100
AcDbEntity
  8
太線
100
AcDbLine
 10
52.29135745148181
 20
46.76382700121841
 30
0.0
 11
73.08607707527312
 21
61.32444643675447
 31
0.0
  0
LINE
  5
32A0
330
1F
100
AcDbEntity
  8
太線
100
AcDbLine
 10
73.08607707527312
 20
61.32444643675447
 30
0.0
 11
94.22158230023503
 21
15.99920921335769
 31
0.0
  0
LINE
  5
32A1
330
1F
100
AcDbEntity
  8
太線
100
AcDbLine
 10
94.22158230023503
 20
15.99920921335769
 30
0.0
 11
73.56541052323165
 21
1.535602024545255
 31
0.0
  0
LINE
  5
32A2
330
1F
100
AcDbEntity
  8
太線
100
AcDbLine
 10
73.56541052323165
 20
1.535602024545255
 30
0.0
 11
52.29135745148181
 21
46.76382700121841
 31
0.0
  0
LINE
  5
32A3
330
1F
100
AcDbEntity
  8
破線
100
AcDbLine
 10
56.45030137624008
 20
49.67595088832563
 30
0.0
 11
77.58580660120199
 21
4.350713664928846
 31
0.0
  0
LINE
  5
32A4
330
1F
100
AcDbEntity
  8
破線
100
AcDbLine
 10
68.92713315051486
 20
58.41232254964726
 30
0.0
 11
90.06263837547678
 21
13.08708532625048
 31
0.0
  0
ARC
  5
32A5
330
1F
100
AcDbEntity
  8
太線
100
AcDbCircle
 10
46.21769033524512
 20
52.70384119322037
 30
0.0
 40
8.642602680501479
100
AcDbArc
 50
320.3628749937228
 51
78.81781153215432
  0
ARC
  5
32A6
330
1F
100
AcDbEntity
  8
太線
100
AcDbCircle
 10
69.83487088757512
 20
60.71597349723271
 30
0.0
 40
0.9068892492860019
100
AcDbArc
 50
149.0506739636713
 51
301.0037582953352
  0
ARC
  5
32A7
330
1F
100
AcDbEntity
  8
太線
100
AcDbCircle
 10
105.3192993563966
 20
11.10496393229021
 30
0.0
 40
12.1290131803816
100
AcDbArc
 50
156.2018634761138
 51
226.9827942498515
  0
ARC
  5
32A8
330
1F
100
AcDbEntity
  8
太線
100
AcDbCircle
 10
78.08721589649102
 20
3.060455830647981
 30
0.0
 40
2.761408301660831
100
AcDbArc
 50
333.4240305350064
 51
63.47861764320732
  0
DIMENSION
  5
32A9
330
1F
100
AcDbEntity
  8
寸法線
100
AcDbDimension
  2
*D11
 10
52.29135745148181
 20
46.76382700121841
 30
0.0
 11
52.01962507411913
 21
15.21136273537173
 31
0.0
 70
    34
 71
     5
 42
1.131131470018904
  3
sunpo
100
AcDb2LineAngularDimension
 13
102.2015140254043
 23
1.535602024545255
 33
0.0
 14
42.4073674146009
 24
1.535602024545255
 34
0.0
 15
73.56541052323165
 25
1.535602024545255
 35
0.0
 16
57.51544022343684
 26
16.61071140794394
 36
0.0
1001
ACAD
1000
DSTYLE
1002
{
1070
    40
1040
1.0
1002
}
  0
ELLIPSE
  5
32BD
330
1F
100
AcDbEntity
  8
太線
  6
HIDDEN2
370
    18
100
AcDbEllipse
 10
220.1741032426887
 20
118.0394949508535
 30
0.0
 11
0.0
 21
7.5
 31
0.0
210
0.0
220
0.0
230
1.0
 40
0.536970908891583
 41
0.0
 42
6.283185307179586
  0
ELLIPSE
  5
32C0
330
1F
100
AcDbEntity
  8
太線
100
AcDbEllipse
 10
219.2620645027373
 20
117.5875381741137
 30
0.0
 11
0.0
 21
12.5
 31
0.0
210
0.0
220
0.0
230
1.0
 40
0.5996813911573899
 41
0.1025370340851272
 42
3.307236216781468
  0
ARC
  5
32C1
330
1F
100
AcDbEntity
  8
太線
100
AcDbCircle
 10
209.9051265609562
 20
135.2985528793134
 30
0.0
 40
10.08095094494462
100
AcDbArc
 50
328.4374115769554
 51
5.24660180053282
  0
ARC
  5
32C3
330
1F
100
AcDbEntity
  8
太線
100
AcDbCircle
 10
258.5063251770415
 20
132.3748881381337
 30
0.0
 40
4.656901228883083
100
AcDbArc
 50
319.3925078970831
 51
16.09779724675243
  0
LINE
  5
32C6
330
1F
100
AcDbEntity
  8
想像線
100
AcDbLine
 10
272.9386694048798
 20
158.184916440864
 30
0.0
 11
265.3649948683117
 21
158.184916440864
 31
0.0
  0
LINE
  5
32C7
330
1F
100
AcDbEntity
  8
太線
100
AcDbLine
 10
265.8575071266208
 20
158.5870510158384
 30
0.0
 11
272.9386694048797
 21
158.5870510158384
 31
0.0
  0
LINE
  5
32C8
330
1F
100
AcDbEntity
  8
太線
100
AcDbLine
 10
272.9386694048797
 20
153.5603688286592
 30
0.0
 11
265.8575071266208
 21
153.5603688286592
 31
0.0
  0
LINE
  5
32C9
330
1F
100
AcDbEntity
  8
想像線
100
AcDbLine
 10
272.9386694048798
 20
153.9625034036335
 30
0.0
 11
265.3649948683117
 21
153.9625034036335
 31
0.0
  0
LINE
  5
32CA
330
1F
100
AcDbEntity
  8
太線
100
AcDbLine
 10
272.9386694048797
 20
153.5603688286592
 30
0.0
 11
272.9386694048797
 21
158.5870510158384
 31
0.0
  0
LINE
  5
32CB
330
1F
100
AcDbEntity
  8
太線
100
AcDbLine
 10
275.9546787171873
 20
158.0843827971205
 30
0.0
 11
275.9546787171873
 21
154.0630370473771
 31
0.0
  0
LINE
  5
32CC
330
1F
100
AcDbEntity
  8
想像線
100
AcDbLine
 10
273.9615370474883
 20
155.5710417035309
 30
0.0
 11
275.9546787171873
 21
154.0630370473771
 31
0.0
  0
ARC
  5
32CD
330
1F
100
AcDbEntity
  8
太線
100
AcDbCircle
 10
273.9440058423156
 20
154.0630370473771
 30
0.0
 40
2.01067287487167
100
AcDbArc
 50
270.0
 51
0.000000000000007
  0
ARC
  5
32CE
330
1F
100
AcDbEntity
  8
太線
100
AcDbCircle
 10
273.4413376235977
 20
152.5550323912234
 30
0.0
 40
0.5026682187179176
100
AcDbArc
 50
180.0
 51
270.0
  0
LINE
  5
32CF
330
1F
100
AcDbEntity
  8
太線
100
AcDbLine
 10
273.9440058423156
 20
152.0523641725055
 30
0.0
 11
273.4413376235977
 21
152.0523641725055
 31
0.0
  0
LINE
  5
32D0
330
1F
100
AcDbEntity
  8
太線
100
AcDbLine
 10
272.9386694048797
 20
152.5550323912234
 30
0.0
 11
272.9386694048797
 21
153.5603688286592
 31
0.0
  0
ARC
  5
32D1
330
1F
100
AcDbEntity
  8
太線
100
AcDbCircle
 10
273.9440058423156
 20
158.0843827971205
 30
0.0
 40
2.01067287487167
100
AcDbArc
 50
0.000000000000007
 51
90.0
  0
LINE
  5
32D2
330
1F
100
AcDbEntity
  8
想像線
100
AcDbLine
 10
275.9546787171873
 20
155.5710417035309
 30
0.0
 11
273.9615370474883
 21
155.5710417035309
 31
0.0
  0
LINE
  5
32D3
330
1F
100
AcDbEntity
  8
想像線
100
AcDbLine
 10
275.9546787171873
 20
156.5763781409667
 30
0.0
 11
273.9615370474883
 21
156.5763781409667
 31
0.0
  0
LINE
  5
32D4
330
1F
100
AcDbEntity
  8
想像線
100
AcDbLine
 10
273.9615370474883
 20
156.5763781409667
 30
0.0
 11
275.9546787171873
 21
158.0843827971205
 31
0.0
  0
LINE
  5
32D5
330
1F
100
AcDbEntity
  8
想像線
100
AcDbLine
 10
273.9615370474883
 20
155.5710417035309
 30
0.0
 11
273.9615370474883
 21
156.5763781409667
 31
0.0
  0
ARC
  5
32D6
330
1F
100
AcDbEntity
  8
太線
100
AcDbCircle
 10
273.4413376235977
 20
159.5923874532742
 30
0.0
 40
0.5026682187179176
100
AcDbArc
 50
90.0
 51
180.0
  0
LINE
  5
32D7
330
1F
100
AcDbEntity
  8
太線
100
AcDbLine
 10
272.9386694048797
 20
158.5870510158384
 30
0.0
 11
272.9386694048797
 21
159.5923874532742
 31
0.0
  0
LINE
  5
32D8
330
1F
100
AcDbEntity
  8
太線
100
AcDbLine
 10
273.4413376235977
 20
160.0950556719922
 30
0.0
 11
273.9440058423156
 21
160.0950556719922
 31
0.0
  0
LINE
  5
32D9
330
1F
100
AcDbEntity
  8
太線
100
AcDbLine
 10
265.3548389079028
 20
154.0630370473771
 30
0.0
 11
265.3548389079028
 21
158.0843827971205
 31
0.0
  0
ARC
  5
32DA
330
1F
100
AcDbEntity
  8
太線
100
AcDbCircle
 10
265.8575071266208
 20
154.0630370473771
 30
0.0
 40
0.5026682187179176
100
AcDbArc
 50
180.0
 51
270.0
  0
ARC
  5
32DB
330
1F
100
AcDbEntity
  8
太線
100
AcDbCircle
 10
265.8575071266208
 20
158.0843827971205
 30
0.0
 40
0.5026682187179176
100
AcDbArc
 50
90.0
 51
180.0
  0
LINE
  5
32DC
330
1F
100
AcDbEntity
  8
太線
100
AcDbLine
 10
218.8026289020988
 20
105.2486689858299
 30
0.0
 11
266.0523883670323
 21
105.5263440755408
 31
0.0
  0
LINE
  5
32DE
330
1F
100
AcDbEntity
  8
太線
100
AcDbLine
 10
218.7659234003386
 20
130.4910741923538
 30
0.0
 11
226.8384472074899
 21
130.4167437617143
 31
0.0
  0
LINE
  5
32DF
330
1F
100
AcDbEntity
  8
太線
100
AcDbLine
 10
257.6705826088083
 20
130.1328466860705
 30
0.0
 11
262.5629187971384
 21
130.0877988838714
 31
0.0
  0
LINE
  5
32E0
330
1F
100
AcDbEntity
  8
太線
100
AcDbLine
 10
262.0417803452364
 20
129.3438345574035
 30
0.0
 11
262.1296345091543
 21
129.1156308069284
 31
0.0
  0
LINE
  5
32E2
330
1F
100
AcDbEntity
  8
破線
100
AcDbLine
 10
264.3382859427162
 20
110.6611855932583
 30
0.0
 11
265.3300946715987
 21
110.6504167668656
 31
0.0
  0
SPLINE
  5
334E
330
1F
100
AcDbEntity
  8
太線
100
AcDbSpline
210
0.0
220
0.0
230
1.0
 70
     8
 71
     3
 72
    15
 73
    11
 74
     9
 42
0.0000000001
 43
0.0000000001
 44
0.0000000001
 13
0.8554162901969966
 23
0.5179410878329769
 33
0.0
 40
0.0
 40
0.0
 40
0.0
 40
0.0
 40
10.91518651182465
 40
21.35576706872595
 40
30.0176378644836
 40
42.39243749123835
 40
57.79146700433842
 40
70.97093325934817
 40
71.41149326480413
 40
80.48365241770316
 40
80.48365241770316
 40
80.48365241770316
 40
80.48365241770316
 10
146.0496016483735
 20
-10.10158598330906
 30
0.0
 10
149.5086770884713
 20
-11.79140884676084
 30
0.0
 10
156.2764230442415
 20
-15.09757896306526
 30
0.0
 10
166.1820147853875
 20
-9.42649530365812
 30
0.0
 10
176.4806300501864
 20
-15.57688650666373
 30
0.0
 10
188.0496511124473
 20
-4.358165635747081
 30
0.0
 10
197.9195007303482
 20
-14.32363047405425
 30
0.0
 10
216.0988125547194
 20
-10.93061903896048
 30
0.0
 10
212.1623605451873
 20
-3.844424141004298
 30
0.0
 10
220.1635957943253
 20
-8.319091972069903
 30
0.0
 10
222.7504200365418
 20
-6.752810645187764
 30
0.0
 11
146.0496016483735
 21
-10.10158598330906
 31
0.0
 11
156.4998417989289
 21
-13.2533755358711
 31
0.0
 11
166.7529067131123
 21
-11.2835069537856
 31
0.0
 11
175.2314029601549
 21
-13.05638796256312
 31
0.0
 11
186.6675159084869
 21
-8.32870497453166
 31
0.0
 11
201.6527644990595
 21
-11.87446788596105
 31
0.0
 11
213.8775733167554
 21
-6.949797324621499
 31
0.0
 11
213.6803997724249
 21
-6.555823071879672
 31
0.0
 11
222.7504200365418
 21
-6.752810645187764
 31
0.0
  0
LINE
  5
3350
330
1F
100
AcDbEntity
  8
太線
100
AcDbLine
 10
153.9886285948911
 20
4.575582935675697
 30
0.0
 11
153.9886285948911
 21
-30.49193593828545
 31
0.0
  0
LINE
  5
3351
330
1F
100
AcDbEntity
  8
太線
100
AcDbLine
 10
158.9886285948911
 20
-30.49193593828545
 30
0.0
 11
158.9886285948911
 21
4.575582935675697
 31
0.0
  0
LINE
  5
3352
330
1F
100
AcDbEntity
  8
太線
100
AcDbLine
 10
153.5886285948911
 20
-30.49193593828545
 30
0.0
 11
159.388628594891
 21
-30.49193593828545
 31
0.0
  0
LINE
  5
3353
330
1F
100
AcDbEntity
  8
太線
100
AcDbLine
 10
156.5622566394528
 20
-36.27392682940547
 30
0.0
 11
153.5886285948911
 21
-31.16333538146159
 31
0.0
  0
LINE
  5
3354
330
1F
100
AcDbEntity
  8
太線
100
AcDbLine
 10
153.5886285948911
 20
-31.16333538146159
 30
0.0
 11
153.5886285948911
 21
-30.49193593828545
 31
0.0
  0
LINE
  5
3355
330
1F
100
AcDbEntity
  8
太線
100
AcDbLine
 10
159.388628594891
 20
-30.49193593828545
 30
0.0
 11
159.388628594891
 21
-31.16333538146159
 31
0.0
  0
LINE
  5
3356
330
1F
100
AcDbEntity
  8
太線
100
AcDbLine
 10
159.388628594891
 20
-31.16333538146159
 30
0.0
 11
156.5622566394528
 21
-36.27392682940547
 31
0.0
  0
LINE
  5
3357
330
1F
100
AcDbEntity
  8
太線
100
AcDbLine
 10
182.9212033378336
 20
-29.20930729649183
 30
0.0
 11
184.6957720049744
 21
-29.40629397592545
 31
0.0
  0
LINE
  5
3358
330
1F
100
AcDbEntity
  8
太線
100
AcDbLine
 10
146.6812744156405
 20
-12.6879454446207
 30
0.0
 11
140.450908518508
 21
-18.28994308371943
 31
0.0
  0
LINE
  5
3359
330
1F
100
AcDbEntity
  8
太線
100
AcDbLine
 10
168.347845275915
 20
19.9346298058841
 30
0.0
 11
186.7292146822358
 21
-3.695845331360168
 31
0.0
  0
LINE
  5
335A
330
1F
100
AcDbEntity
  8
太線
100
AcDbLine
 10
164.4989933251879
 20
17.46272166659801
 30
0.0
 11
184.0337503240649
 21
-7.650510072019553
 31
0.0
  0
LINE
  5
335B
330
1F
100
AcDbEntity
  8
太線
100
AcDbLine
 10
158.9886285948911
 20
10.57558293567569
 30
0.0
 11
158.9886285948911
 21
26.74245410834896
 31
0.0
  0
LINE
  5
335C
330
1F
100
AcDbEntity
  8
太線
100
AcDbLine
 10
153.9886285948911
 20
26.74245410834896
 30
0.0
 11
153.9886285948911
 21
10.57558293567566
 31
0.0
  0
LINE
  5
335F
330
1F
100
AcDbEntity
  8
太線
100
AcDbLine
 10
167.0729579710181
 20
-12.6879454446207
 30
0.0
 11
160.8425920738856
 21
-18.28994308371943
 31
0.0
  0
LINE
  5
3360
330
1F
100
AcDbEntity
  8
太線
100
AcDbLine
 10
153.9886285948911
 20
10.57558293567566
 30
0.0
 11
153.9886285948911
 21
4.575582935675697
 31
0.0
  0
LINE
  5
3361
330
1F
100
AcDbEntity
  8
太線
100
AcDbLine
 10
158.9886285948911
 20
10.57558293567569
 30
0.0
 11
158.9886285948911
 21
4.575582935675697
 31
0.0
  0
LINE
  5
3364
330
1F
100
AcDbEntity
  8
太線
100
AcDbLine
 10
195.828203948983
 20
-19.34836632142105
 30
0.0
 11
190.9540461367288
 21
-17.184133510327
 31
0.0
  0
LINE
  5
3365
330
1F
100
AcDbEntity
  8
太線
100
AcDbLine
 10
190.8186535101259
 20
-17.184133510327
 30
0.0
 11
195.2866303419647
 21
-14.0730502264364
 31
0.0
  0
LINE
  5
3366
330
1F
100
AcDbEntity
  8
太線
100
AcDbLine
 10
194.7737202173352
 20
-14.03759320860049
 30
0.0
 11
190.9248682666081
 21
-16.50950134788658
 31
0.0
  0
LINE
  5
3368
330
1F
100
AcDbEntity
  8
太線
100
AcDbLine
 10
204.5038857147786
 20
-13.29109513630851
 30
0.0
 11
198.2735198176461
 21
-18.89309277540723
 31
0.0
  0
LINE
  5
3369
330
1F
100
AcDbEntity
  8
太線
100
AcDbLine
 10
195.2866303419647
 20
-14.0730502264364
 30
0.0
 11
195.828203948983
 21
-19.34836632142105
 31
0.0
  0
LINE
  5
336A
330
1F
100
AcDbEntity
  8
太線
100
AcDbLine
 10
186.8218780059347
 20
-14.56573913986039
 30
0.0
 11
182.0108130675258
 21
-17.65562431396801
 31
0.0
  0
LINE
  5
336E
330
1F
100
AcDbEntity
  8
太線
100
AcDbLine
 10
158.9886285948911
 20
32.35955132563765
 30
0.0
 11
158.9886285948911
 21
38.36335673552639
 31
0.0
  0
LINE
  5
336F
330
1F
100
AcDbEntity
  8
太線
100
AcDbLine
 10
153.9886285948911
 20
32.35955132563765
 30
0.0
 11
153.9886285948911
 21
38.50193855482439
 31
0.0
  0
ARC
  5
3370
330
1F
100
AcDbEntity
  8
細線
 62
     0
100
AcDbCircle
 10
162.3107810219466
 20
24.25611123630327
 30
0.0
 40
0.5376000000000002
100
AcDbArc
 50
36.84369411160046
 51
216.8436941116004
  0
LINE
  5
3371
330
1F
100
AcDbEntity
  8
太線
100
AcDbLine
 10
161.8805535480005
 20
23.93374796193421
 30
0.0
 11
162.8313366919544
 21
22.66482850733936
 31
0.0
  0
ARC
  5
3372
330
1F
100
AcDbEntity
  8
太線
100
AcDbCircle
 10
163.0629619954745
 20
23.25224713042902
 30
0.0
 40
2.688
100
AcDbArc
 50
33.47067077054965
 51
216.8436941116004
  0
LINE
  5
3373
330
1F
100
AcDbEntity
  8
太線
 62
     0
100
AcDbLine
 10
162.2550049356152
 20
19.84781628380818
 30
0.0
 11
166.5572796750762
 21
23.07144902749905
 31
0.0
  0
LINE
  5
3374
330
1F
100
AcDbEntity
  8
太線
100
AcDbLine
 10
160.911824625744
 20
21.64043075858362
 30
0.0
 11
164.4040934314091
 21
16.97963312416749
 31
0.0
  0
LINE
  5
3375
330
1F
100
AcDbEntity
  8
太線
100
AcDbLine
 10
161.8122411381655
 20
24.45728714012739
 30
0.0
 11
162.83181245414
 21
24.45728714012739
 31
0.0
  0
LINE
  5
3376
330
1F
100
AcDbEntity
  8
太線
100
AcDbLine
 10
153.5886285948911
 20
26.85728714012737
 30
0.0
 11
162.388628594891
 21
26.85728714012737
 31
0.0
  0
LINE
  5
3377
330
1F
100
AcDbEntity
  8
太線
100
AcDbLine
 10
153.5886285948911
 20
20.85728714012736
 30
0.0
 11
162.388628594891
 21
20.85728714012736
 31
0.0
  0
LINE
  5
3378
330
1F
100
AcDbEntity
  8
太線
100
AcDbLine
 10
159.388628594891
 20
26.85728714012737
 30
0.0
 11
159.388628594891
 21
20.85728714012736
 31
0.0
  0
LINE
  5
3379
330
1F
100
AcDbEntity
  8
太線
100
AcDbLine
 10
153.5886285948911
 20
26.85728714012737
 30
0.0
 11
153.5886285948911
 21
20.85728714012736
 31
0.0
  0
ARC
  5
337A
330
1F
100
AcDbEntity
  8
太線
100
AcDbCircle
 10
156.4886285948911
 20
23.96696275297574
 30
0.0
 40
0.2214935502009943
100
AcDbArc
 50
63.16129441087548
 51
116.8387055891356
  0
ARC
  5
337B
330
1F
100
AcDbEntity
  8
太線
100
AcDbCircle
 10
156.4886285948911
 20
23.85728714012736
 30
0.0
 40
0.3231710090495404
100
AcDbArc
 50
251.9748942515669
 51
288.0251057484331
  0
CIRCLE
  5
337C
330
1F
100
AcDbEntity
  8
太線
100
AcDbCircle
 10
156.4886285948911
 20
23.85728714012736
 30
0.0
 40
0.470843618266615
  0
ARC
  5
337D
330
1F
100
AcDbEntity
  8
太線
100
AcDbCircle
 10
156.4886285948911
 20
23.85728714012736
 30
0.0
 40
0.3231710090495404
100
AcDbArc
 50
161.9748942515668
 51
198.0251057484331
  0
LINE
  5
337E
330
1F
100
AcDbEntity
  8
太線
100
AcDbLine
 10
156.388628594891
 20
23.75728714012734
 30
0.0
 11
156.388628594891
 21
23.54997703438709
 31
0.0
  0
LINE
  5
337F
330
1F
100
AcDbEntity
  8
太線
100
AcDbLine
 10
156.1813184891508
 20
23.75728714012734
 30
0.0
 11
156.388628594891
 21
23.75728714012734
 31
0.0
  0
LINE
  5
3380
330
1F
100
AcDbEntity
  8
太線
100
AcDbLine
 10
156.388628594891
 20
23.95728714012739
 30
0.0
 11
156.1813184891508
 21
23.95728714012739
 31
0.0
  0
LINE
  5
3381
330
1F
100
AcDbEntity
  8
太線
100
AcDbLine
 10
156.388628594891
 20
24.16459724586764
 30
0.0
 11
156.388628594891
 21
23.95728714012739
 31
0.0
  0
ARC
  5
3382
330
1F
100
AcDbEntity
  8
太線
100
AcDbCircle
 10
156.6800833860098
 20
23.96696275297574
 30
0.0
 40
0.2214935502009943
100
AcDbArc
 50
63.16129441086438
 51
116.8387055891245
  0
ARC
  5
3383
330
1F
100
AcDbEntity
  8
太線
100
AcDbCircle
 10
156.4886285948911
 20
23.85728714012736
 30
0.0
 40
0.3231710090495404
100
AcDbArc
 50
341.9748942515667
 51
18.0251057484332
  0
LINE
  5
3384
330
1F
100
AcDbEntity
  8
太線
100
AcDbLine
 10
156.5886285948911
 20
23.75728714012734
 30
0.0
 11
156.5886285948911
 21
23.54997703438709
 31
0.0
  0
LINE
  5
3385
330
1F
100
AcDbEntity
  8
太線
100
AcDbLine
 10
156.7959387006313
 20
23.75728714012734
 30
0.0
 11
156.5886285948911
 21
23.75728714012734
 31
0.0
  0
LINE
  5
3386
330
1F
100
AcDbEntity
  8
太線
100
AcDbLine
 10
156.5886285948911
 20
23.95728714012739
 30
0.0
 11
156.5886285948911
 21
24.16459724586764
 31
0.0
  0
LINE
  5
3387
330
1F
100
AcDbEntity
  8
太線
100
AcDbLine
 10
156.7959387006313
 20
23.95728714012739
 30
0.0
 11
156.5886285948911
 21
23.95728714012739
 31
0.0
  0
LINE
  5
3388
330
1F
100
AcDbEntity
  8
太線
100
AcDbLine
 10
153.5886285948911
 20
27.03804005318932
 30
0.0
 11
159.388628594891
 21
27.03804005318932
 31
0.0
  0
LINE
  5
3389
330
1F
100
AcDbEntity
  8
太線
100
AcDbLine
 10
153.9886285948911
 20
27.03804005318932
 30
0.0
 11
153.9886285948911
 21
26.85728714012731
 31
0.0
  0
LINE
  5
338A
330
1F
100
AcDbEntity
  8
太線
100
AcDbLine
 10
153.9886285948911
 20
32.35955132563765
 30
0.0
 11
153.9886285948911
 21
26.74245410834896
 31
0.0
  0
LINE
  5
338B
330
1F
100
AcDbEntity
  8
太線
100
AcDbLine
 10
158.9886285948911
 20
27.03804005318932
 30
0.0
 11
158.9886285948911
 21
26.85728714012731
 31
0.0
  0
LINE
  5
338C
330
1F
100
AcDbEntity
  8
太線
100
AcDbLine
 10
158.9886285948911
 20
32.35955132563765
 30
0.0
 11
158.9886285948911
 21
26.74245410834896
 31
0.0
  0
ARC
  5
338D
330
1F
100
AcDbEntity
  8
太線
100
AcDbCircle
 10
161.9578593641218
 20
23.85728714012736
 30
0.0
 40
3.030769230769228
100
AcDbArc
 50
278.1712335599491
 51
81.82876644005085
  0
CIRCLE
  5
338E
330
1F
100
AcDbEntity
  8
太線
100
AcDbCircle
 10
165.6253250355867
 20
22.82099521951463
 30
0.0
 40
0.2688000000000001
  0
LINE
  5
338F
330
1F
100
AcDbEntity
  8
太線
100
AcDbLine
 10
165.3458294432944
 20
24.68825594835863
 30
0.0
 11
168.7063681708701
 21
20.20326586785836
 31
0.0
  0
LINE
  5
3390
330
1F
100
AcDbEntity
  8
想像線
100
AcDbLine
 10
166.4673928420954
 20
22.4442900705697
 30
0.0
 11
168.347845275915
 21
19.9346298058841
 31
0.0
  0
ARC
  5
3391
330
1F
100
AcDbEntity
  8
細線
 62
     0
100
AcDbCircle
 10
163.2615641659006
 20
22.98719178170844
 30
0.0
 40
0.5376000000000002
100
AcDbArc
 50
216.8436941116004
 51
36.84369411160046
  0
CIRCLE
  5
3392
330
1F
100
AcDbEntity
  8
太線
100
AcDbCircle
 10
162.757141875946
 20
20.67190672372072
 30
0.0
 40
0.2688000000000001
  0
LINE
  5
3393
330
1F
100
AcDbEntity
  8
太線
100
AcDbLine
 10
162.7410084958928
 20
24.57847451067237
 30
0.0
 11
163.6917916398467
 21
23.30955505607752
 31
0.0
  0
LINE
  5
3394
330
1F
100
AcDbEntity
  8
想像線
100
AcDbLine
 10
162.8821638925445
 20
19.75792945082736
 30
0.0
 11
166.4673928420954
 21
22.4442900705697
 31
0.0
  0
CIRCLE
  5
3395
330
1F
100
AcDbEntity
  8
想像線
100
AcDbCircle
 10
166.0213116792627
 20
19.08088111280866
 30
0.0
 40
0.2514268040014553
  0
LWPOLYLINE
  5
3396
330
1F
100
AcDbEntity
  8
太線
100
AcDbPolyline
 90
        6
 70
     1
 43
0.0
 10
166.4846262691606
 20
19.21880585071798
 10
166.1134323174508
 20
19.57346954618461
 10
165.6206875715219
 20
19.42933800200611
 10
165.4991367773026
 20
18.93054276236108
 10
165.8703307290123
 20
18.57587906689445
 10
166.3630754749413
 20
18.72001061107295
  0
LINE
  5
3397
330
1F
100
AcDbEntity
  8
太線
100
AcDbLine
 10
164.4040934314091
 20
16.97963312416749
 30
0.0
 11
168.7063681708701
 21
20.20326586785836
 31
0.0
  0
LINE
  5
3398
330
1F
100
AcDbEntity
  8
想像線
100
AcDbLine
 10
164.7626163263641
 20
17.24826918614175
 30
0.0
 11
162.8821638925445
 21
19.75792945082736
 31
0.0
  0
ARC
  5
3399
330
1F
100
AcDbEntity
  8
太線
100
AcDbCircle
 10
163.2786285948911
 20
23.85728714012736
 30
0.0
 40
0.6099999999999867
100
AcDbArc
 50
280.3888578154645
 51
307.0508007097864
  0
LINE
  5
339A
330
1F
100
AcDbEntity
  8
太線
100
AcDbLine
 10
162.3874159375637
 20
23.25728714012731
 30
0.0
 11
163.388628594891
 21
23.25728714012734
 31
0.0
  0
LINE
  5
339B
330
1F
100
AcDbEntity
  8
太線
100
AcDbLine
 10
153.5886285948911
 20
38.5403042386996
 30
0.0
 11
159.388628594891
 21
38.5403042386996
 31
0.0
  0
ARC
  5
339C
330
1F
100
AcDbEntity
  8
太線
100
AcDbCircle
 10
156.4886285948911
 20
32.46323252945137
 30
0.0
 40
8.659086586412852
100
AcDbArc
 50
75.63658569380885
 51
104.3634143061911
  0
LINE
  5
339D
330
1F
100
AcDbEntity
  8
太線
100
AcDbLine
 10
153.588628594891
 20
39.88290956677406
 30
0.0
 11
153.5886285948911
 21
38.5403042386996
 31
0.0
  0
ARC
  5
339E
330
1F
100
AcDbEntity
  8
太線
100
AcDbCircle
 10
154.5886285948911
 20
39.88290956677406
 30
0.0
 40
1.0
100
AcDbArc
 50
104.3634143061911
 51
180.0
  0
ARC
  5
339F
330
1F
100
AcDbEntity
  8
太線
100
AcDbCircle
 10
156.4886285948911
 20
39.36591246545253
 30
0.0
 40
0.3231710090495404
100
AcDbArc
 50
341.9748942515667
 51
18.0251057484332
  0
LINE
  5
33A0
330
1F
100
AcDbEntity
  8
太線
100
AcDbLine
 10
156.5886285948911
 20
39.26591246545251
 30
0.0
 11
156.5886285948911
 21
39.05860235971227
 31
0.0
  0
LINE
  5
33A1
330
1F
100
AcDbEntity
  8
太線
100
AcDbLine
 10
156.7959387006313
 20
39.26591246545251
 30
0.0
 11
156.5886285948911
 21
39.26591246545251
 31
0.0
  0
LINE
  5
33A2
330
1F
100
AcDbEntity
  8
太線
100
AcDbLine
 10
156.5886285948911
 20
39.46591246545256
 30
0.0
 11
156.5886285948911
 21
39.67322257119281
 31
0.0
  0
LINE
  5
33A3
330
1F
100
AcDbEntity
  8
太線
100
AcDbLine
 10
156.7959387006313
 20
39.46591246545256
 30
0.0
 11
156.5886285948911
 21
39.46591246545256
 31
0.0
  0
LINE
  5
33A4
330
1F
100
AcDbEntity
  8
太線
100
AcDbLine
 10
159.388628594891
 20
38.5403042386996
 30
0.0
 11
159.388628594891
 21
39.88290956677406
 31
0.0
  0
ARC
  5
33A5
330
1F
100
AcDbEntity
  8
太線
100
AcDbCircle
 10
158.388628594891
 20
39.88290956677406
 30
0.0
 40
1.0
100
AcDbArc
 50
0.0
 51
75.63658569380885
  0
ARC
  5
33A6
330
1F
100
AcDbEntity
  8
太線
100
AcDbCircle
 10
156.4886285948911
 20
39.36591246545253
 30
0.0
 40
0.3231710090495404
100
AcDbArc
 50
161.9748942515668
 51
198.0251057484331
  0
LINE
  5
33A7
330
1F
100
AcDbEntity
  8
太線
100
AcDbLine
 10
156.388628594891
 20
39.26591246545251
 30
0.0
 11
156.388628594891
 21
39.05860235971227
 31
0.0
  0
LINE
  5
33A8
330
1F
100
AcDbEntity
  8
太線
100
AcDbLine
 10
156.1813184891508
 20
39.26591246545251
 30
0.0
 11
156.388628594891
 21
39.26591246545251
 31
0.0
  0
LINE
  5
33A9
330
1F
100
AcDbEntity
  8
太線
100
AcDbLine
 10
156.388628594891
 20
39.46591246545256
 30
0.0
 11
156.1813184891508
 21
39.46591246545256
 31
0.0
  0
LINE
  5
33AA
330
1F
100
AcDbEntity
  8
太線
100
AcDbLine
 10
156.388628594891
 20
39.67322257119281
 30
0.0
 11
156.388628594891
 21
39.46591246545256
 31
0.0
  0
ARC
  5
33AB
330
1F
100
AcDbEntity
  8
太線
100
AcDbCircle
 10
156.4886285948911
 20
39.47558807830091
 30
0.0
 40
0.2214935502009943
100
AcDbArc
 50
63.16129441087548
 51
116.8387055891356
  0
ARC
  5
33AC
330
1F
100
AcDbEntity
  8
太線
100
AcDbCircle
 10
156.4886285948911
 20
39.36591246545253
 30
0.0
 40
0.3231710090495404
100
AcDbArc
 50
251.9748942515669
 51
288.0251057484331
  0
CIRCLE
  5
33AD
330
1F
100
AcDbEntity
  8
太線
100
AcDbCircle
 10
156.4886285948911
 20
39.36591246545253
 30
0.0
 40
0.470843618266615
  0
LINE
  5
33AE
330
1F
100
AcDbEntity
  8
太線
100
AcDbLine
 10
186.2326433261824
 20
-2.39227814021558
 30
0.0
 11
182.019809678646
 21
-5.899161250462157
 31
0.0
  0
LINE
  5
33B1
330
1F
100
AcDbEntity
  8
太線
100
AcDbLine
 10
189.3421165351861
 20
-6.199751145886807
 30
0.0
 11
188.6175130530512
 21
-5.307043854308834
 31
0.0
  0
LINE
  5
33B2
330
1F
100
AcDbEntity
  8
太線
100
AcDbLine
 10
186.9347830223081
 20
-3.394244657689569
 30
0.0
 11
183.7250046277027
 21
-8.103487947810208
 31
0.0
  0
LINE
  5
33B6
330
1F
100
AcDbEntity
  8
太線
100
AcDbLine
 10
189.0057043676291
 20
-3.901592805518021
 30
0.0
 11
188.2907639802881
 21
-4.914539846019955
 31
0.0
  0
LINE
  5
33B7
330
1F
100
AcDbEntity
  8
太線
100
AcDbLine
 10
174.6136794594048
 20
-24.29260623229663
 30
0.0
 11
173.5856784081557
 21
-23.26572090933666
 31
0.0
  0
LINE
  5
33B8
330
1F
100
AcDbEntity
  8
太線
100
AcDbLine
 10
173.5856784081557
 20
-23.26572090933666
 30
0.0
 11
177.403969644658
 21
-17.98459468218345
 31
0.0
  0
LINE
  5
33BA
330
1F
100
AcDbEntity
  8
太線
100
AcDbLine
 10
185.2212350636654
 20
-10.38039430005403
 30
0.0
 11
189.9634912228046
 21
-6.983978100497552
 31
0.0
  0
LINE
  5
33BB
330
1F
100
AcDbEntity
  8
太線
100
AcDbLine
 10
189.9634912228046
 20
-6.983978100497552
 30
0.0
 11
189.4266317358782
 21
-6.179563910600791
 31
0.0
  0
LINE
  5
33BC
330
1F
100
AcDbEntity
  8
太線
100
AcDbLine
 10
188.6538339803529
 20
-5.253043506227299
 30
0.0
 11
188.6238292315613
 21
-5.297653239491654
 31
0.0
  0
LINE
  5
33BD
330
1F
100
AcDbEntity
  8
太線
100
AcDbLine
 10
189.5290029650947
 20
-7.295159721119035
 30
0.0
 11
194.7737202173352
 21
-14.03759320860049
 31
0.0
  0
LINE
  5
33BE
330
1F
100
AcDbEntity
  8
太線
100
AcDbLine
 10
185.6466469532078
 20
-9.723996157381712
 30
0.0
 11
190.9248682666081
 21
-16.50950134788658
 31
0.0
  0
LINE
  5
33BF
330
1F
100
AcDbEntity
  8
太線
100
AcDbLine
 10
184.847271121515
 20
-9.793374448240131
 30
0.0
 11
174.6136794594048
 21
-24.29260623229663
 31
0.0
  0
LINE
  5
33C0
330
1F
100
AcDbEntity
  8
太線
100
AcDbLine
 10
188.6890848810488
 20
-5.372714547216787
 30
0.0
 11
186.1606751905877
 21
-2.464372674576338
 31
0.0
  0
LINE
  5
33C1
330
1F
100
AcDbEntity
  8
太線
100
AcDbLine
 10
182.0232756624258
 20
-5.831926295912467
 30
0.0
 11
185.3178715829991
 21
-10.34750958807569
 31
0.0
  0
LINE
  5
33C2
330
1F
100
AcDbEntity
  8
太線
100
AcDbLine
 10
177.1152580647159
 20
-18.59345146063662
 30
0.0
 11
184.1930958712793
 21
-8.756716207211638
 31
0.0
  0
LINE
  5
33C3
330
1F
100
AcDbEntity
  8
太線
100
AcDbLine
 10
187.2084825104662
 20
-3.65183409098995
 30
0.0
 11
187.6339840395219
 21
-3.044634973999973
 31
0.0
  0
LINE
  5
33C4
330
1F
100
AcDbEntity
  8
太線
100
AcDbLine
 10
188.8334208556928
 20
-6.021569543693772
 30
0.0
 11
185.6712988888306
 21
-10.10154270964096
 31
0.0
  0
LINE
  5
33C5
330
1F
100
AcDbEntity
  8
太線
100
AcDbLine
 10
189.0121664288611
 20
-3.847701955648858
 30
0.0
 11
187.605607707845
 21
-3.028100083403273
 31
0.0
  0
CIRCLE
  5
33C6
330
1F
100
AcDbEntity
  8
太線
100
AcDbCircle
 10
186.1647548833542
 20
-6.793831188732838
 30
0.0
 40
0.8144285272179777
  0
TEXT
  5
33C7
330
1F
100
AcDbEntity
  8
文字
100
AcDbText
 10
210.8905195666098
 20
5.31411356654587
 30
0.0
 40
7.0
  1
7-1N
 51
15.0
  7
OKANO
100
AcDbText
  0
LEADER
  5
33C8
330
1F
100
AcDbEntity
  8
寸法線
100
AcDbLeader
  3
sunpo
 76
     2
 10
191.1114746455829
 20
-3.568565633577691
 30
0.0
 10
210.6655813490107
 20
5.933914393087661
 30
0.0
1001
ACAD
1000
DSTYLE
1002
{
1070
   147
1040
1.0
1070
    77
1070
     0
1002
}
  0
TEXT
  5
33D0
330
1F
100
AcDbEntity
  8
文字
100
AcDbText
 10
189.4887030169018
 20
50.55074634936534
 30
0.0
 40
5.015816703995143
  1
材質  ダクタイル鋳鉄(FCD450)
 51
15.0
  7
OKANO
100
AcDbText
  0
TEXT
  5
33E4
330
1F
100
AcDbEntity
  8
文字
100
AcDbText
 10
277.6475177926263
 20
-9.945715806024601
 30
0.0
 40
4.799999999999999
  1
JAN 4562182301178
 51
15.0
  7
OKANO
100
AcDbText
  0
XLINE
  5
33F3
330
1F
100
AcDbEntity
  8
構築線
100
AcDbXline
 10
72.43381923973409
 20
31.93759142012629
 30
0.0
 11
0.0
 21
1.0
 31
0.0
  0
VIEWPORT
  5
2E
330
1B
100
AcDbEntity
 67
     1
  8
0
100
AcDbViewport
 10
235.8180486310374
 20
137.8681361165716
 30
0.0
 40
630.0082427492663
 41
319.9831117019455
 68
     2
 69
     1
 12
235.8180486310374
 22
137.8681361165716
 13
0.0
 23
0.0
 14
10.0
 24
10.0
 15
10.0
 25
10.0
 16
0.0
 26
0.0
 36
1.0
 17
0.0
 27
0.0
 37
0.0
 42
50.0
 43
0.0
 44
0.0
 45
319.9831117019455
 50
0.0
 51
0.0
 72
   100
 90
    32800
  1

281
     0
 71
     1
 74
     0
110
0.0
120
0.0
130
0.0
111
1.0
121
0.0
131
0.0
112
0.0
122
1.0
132
0.0
 79
     0
146
0.0
  0
VIEWPORT
  5
30
330
1B
100
AcDbEntity
 67
     1
  8
70-0-CON
100
AcDbViewport
 10
141.8594093064315
 20
100.3480256368386
 30
0.0
 40
261.6199023344245
 41
192.6196987113174
 68
     1
 69
     2
 12
156.8577961118294
 22
93.77139441856655
 13
0.0
 23
0.0
 14
5.0
 24
5.0
 15
10.0
 25
10.0
 16
0.0
 26
0.0
 36
1.0
 17
0.0
 27
0.0
 37
0.0
 42
50.0
 43
0.0
 44
0.0
 45
290.6237394048358
 50
0.0
 51
0.0
 72
   100
 90
    32864
  1

281
     0
 71
     1
 74
     0
110
0.0
120
0.0
130
0.0
111
1.0
121
0.0
131
0.0
112
0.0
122
1.0
132
0.0
 79
     0
146
0.0
  0
LWPOLYLINE
  5
45
330
1B
100
AcDbEntity
 67
     1
  8
50-0-CON
100
AcDbPolyline
 90
        4
 70
     1
 43
0.0
 10
11.04945813921926
 20
4.038176281179858
 10
272.2125713060605
 20
4.033520706629644
 10
273.4987754093466
 20
195.9297862125246
 10
11.04945813921926
 20
196.6578749924973
  0
LINE
  5
4A
330
1B
100
AcDbEntity
 67
     1
  8
50-0-CON
100
AcDbLine
 10
10.38768783662635
 20
100.3480256368386
 30
0.0
 11
-4.391850629656119
 21
100.3480256368386
 31
0.0
  0
LINE
  5
4B
330
1B
100
AcDbEntity
 67
     1
  8
50-0-CON
100
AcDbLine
 10
141.8594093064315
 20
197.098652626247
 30
0.0
 11
141.8594093064315
 21
202.387980773708
 31
0.0
  0
LINE
  5
4C
330
1B
100
AcDbEntity
 67
     1
  8
50-0-CON
100
AcDbLine
 10
272.4487699456857
 20
100.7888032705883
 30
0.0
 11
278.8458837249377
 21
100.7888032705883
 31
0.0
  0
LINE
  5
4D
330
1B
100
AcDbEntity
 67
     1
  8
50-0-CON
100
AcDbLine
 10
140.9770484758805
 20
4.038176281179858
 30
0.0
 11
140.9770484758805
 21
-3.455038652015446
 31
0.0
  0
ENDSEC
  0
SECTION
  2
OBJECTS
  0
DICTIONARY
  5
C
330
0
100
AcDbDictionary
281
     1
  3
ACAD_GROUP
350
D
  3
ACAD_LAYOUT
350
1A
  3
ACAD_MLINESTYLE
350
17
  3
ACAD_PLOTSETTINGS
350
19
  3
ACAD_PLOTSTYLENAME
350
E
  3
AcadDim
350
3029
  3
AcDbVariableDictionary
350
6AD
  3
DWGPROPS
350
30F
  0
DICTIONARY
  5
D
102
{ACAD_REACTORS
330
C
102
}
330
C
100
AcDbDictionary
281
     1
  0
DICTIONARY
  5
1A
102
{ACAD_REACTORS
330
C
102
}
330
C
100
AcDbDictionary
281
     1
  3
A4
350
1E
  3
Model
350
22
  0
DICTIONARY
  5
17
102
{ACAD_REACTORS
330
C
102
}
330
C
100
AcDbDictionary
281
     1
  3
Standard
350
18
  0
DICTIONARY
  5
19
102
{ACAD_REACTORS
330
C
102
}
330
C
100
AcDbDictionary
281
     1
  0
ACDBDICTIONARYWDFLT
  5
E
102
{ACAD_REACTORS
330
C
102
}
330
C
100
AcDbDictionary
281
     1
  3
Normal
350
F
100
AcDbDictionaryWithDefault
340
F
  0
XRECORD
  5
3029
102
{ACAD_REACTORS
330
C
102
}
330
C
100
AcDbXrecord
280
     1
 90
   990106
  3

 60
     0
 61
     0
 62
     1
 63
     3
 64
     0
 65
     0
 66
     0
 67
     3
 68
     1
 69
     0
 70
     0
 71
     0
 72
     0
 40
0.0
170
     0
  0
DICTIONARY
  5
6AD
102
{ACAD_REACTORS
330
C
102
}
330
C
100
AcDbDictionary
281
     1
  3
SORTENTS
350
6AE
  0
XRECORD
  5
30F
102
{ACAD_REACTORS
330
C
102
}
330
C
100
AcDbXrecord
280
     1
  1
DWGPROPS COOKIE
  2

  3

  4

  6

  7

  8

  9

300
=
301
=
302
=
303
=
304
=
305
=
306
=
307
=
308
=
309
=
 40
0.3303803125
 41
2452362.482225463
 42
2452370.969861285
  1

 90
        0
  0
LAYOUT
  5
1E
102
{ACAD_REACTORS
330
1A
102
}
330
1A
100
AcDbPlotSettings
  1

  2
EPSON PM-920C
  4
A4
  6

 40
3.757083177566528
 41
14.7637300491333
 42
3.757080078125
 43
3.757080078125
 44
209.9733276367187
 45
296.9683227539062
 46
0.0
 47
0.0
 48
0.0
 49
0.0
140
0.0
141
0.0
142
1.0
143
1.0
 70
   688
 72
     1
 73
     1
 74
     5
  7
joint.ctb
 75
    16
147
1.0
148
0.0
149
0.0
100
AcDbLayout
  1
A4
 70
     1
 71
     1
 10
-3.757080078125
 20
-3.757083177566528
 11
293.2112426757812
 21
206.2162444591522
 12
0.0
 22
0.0
 32
0.0
 14
-4.391850629656119
 24
-3.455038652015446
 34
0.0
 15
278.8458837249377
 25
202.387980773708
 35
0.0
146
0.0
 13
0.0
 23
0.0
 33
0.0
 16
1.0
 26
0.0
 36
0.0
 17
0.0
 27
1.0
 37
0.0
 76
     0
330
1B
331
30
  0
LAYOUT
  5
22
102
{ACAD_REACTORS
330
1A
102
}
330
1A
100
AcDbPlotSettings
  1

  2
EPSON PM-920C
  4
A4
  6

 40
3.757083177566528
 41
14.7637300491333
 42
3.757080078125
 43
3.757080078125
 44
209.9733276367187
 45
296.9683227539062
 46
0.0
 47
0.0
 48
0.0
 49
0.0
140
0.0
141
0.0
142
1.0
143
1.0
 70
 11952
 72
     1
 73
     1
 74
     0
  7

 75
     0
147
1.0
148
-45.64199848979289
149
-84.48806419330498
100
AcDbLayout
  1
Model
 70
     1
 71
     0
 10
0.0
 20
0.0
 11
12.0
 21
9.0
 12
0.0
 22
0.0
 32
0.0
 14
0.0
 24
0.0
 34
0.0
 15
0.0
 25
0.0
 35
0.0
146
0.0
 13
0.0
 23
0.0
 33
0.0
 16
1.0
 26
0.0
 36
0.0
 17
0.0
 27
1.0
 37
0.0
 76
     0
330
1F
  0
MLINESTYLE
  5
18
102
{ACAD_REACTORS
330
17
102
}
330
17
100
AcDbMlineStyle
  2
STANDARD
 70
     0
  3

 62
   256
 51
90.0
 52
90.0
 71
     2
 49
0.5
 62
   256
  6
BYLAYER
 49
-0.5
 62
   256
  6
BYLAYER
  0
ACDBPLACEHOLDER
  5
F
102
{ACAD_REACTORS
330
E
102
}
330
E
  0
DICTIONARYVAR
  5
6AE
102
{ACAD_REACTORS
330
6AD
102
}
330
6AD
100
DictionaryVariables
280
     0
  1
96
  0
ENDSEC
  0
EOF
