  0
SECTION
  2
HEADER
  9
$ACADVER
  1
AC1015
  9
$ACADMAINTVER
 70
     6
  9
$DWGCODEPAGE
  3
ANSI_932
  9
$INSBASE
 10
0.0
 20
0.0
 30
0.0
  9
$EXTMIN
 10
109.0019253689436
 20
-20.82885117430382
 30
0.0
  9
$EXTMAX
 10
339.176168631338
 20
139.8137301121159
 30
0.0
  9
$LIMMIN
 10
0.0
 20
0.0
  9
$LIMMAX
 10
420.0
 20
297.0
  9
$ORTHOMODE
 70
     0
  9
$REGENMODE
 70
     1
  9
$FILLMODE
 70
     1
  9
$QTEXTMODE
 70
     0
  9
$MIRRTEXT
 70
     1
  9
$LTSCALE
 40
1.0
  9
$ATTMODE
 70
     1
  9
$TEXTSIZE
 40
5.0
  9
$TRACEWID
 40
1.0
  9
$TEXTSTYLE
  7
OKANO
  9
$CLAYER
  8
太線
  9
$CELTYPE
  6
ByLayer
  9
$CECOLOR
 62
   256
  9
$CELTSCALE
 40
1.0
  9
$DISPSILH
 70
     0
  9
$DIMSCALE
 40
0.0
  9
$DIMASZ
 40
3.0
  9
$DIMEXO
 40
2.0
  9
$DIMDLI
 40
8.0
  9
$DIMRND
 40
0.0
  9
$DIMDLE
 40
0.0
  9
$DIMEXE
 40
3.0
  9
$DIMTP
 40
0.0
  9
$DIMTM
 40
0.0
  9
$DIMTXT
 40
5.0
  9
$DIMCEN
 40
2.5
  9
$DIMTSZ
 40
0.0
  9
$DIMTOL
 70
     0
  9
$DIMLIM
 70
     0
  9
$DIMTIH
 70
     0
  9
$DIMTOH
 70
     0
  9
$DIMSE1
 70
     0
  9
$DIMSE2
 70
     0
  9
$DIMTAD
 70
     1
  9
$DIMZIN
 70
     8
  9
$DIMBLK
  1
Closed
  9
$DIMASO
 70
     1
  9
$DIMSHO
 70
     1
  9
$DIMPOST
  1

  9
$DIMAPOST
  1

  9
$DIMALT
 70
     0
  9
$DIMALTD
 70
     3
  9
$DIMALTF
 40
0.03937007874016
  9
$DIMLFAC
 40
1.0
  9
$DIMTOFL
 70
     1
  9
$DIMTVP
 40
0.0
  9
$DIMTIX
 70
     0
  9
$DIMSOXD
 70
     0
  9
$DIMSAH
 70
     0
  9
$DIMBLK1
  1

  9
$DIMBLK2
  1

  9
$DIMSTYLE
  2
sunpo
  9
$DIMCLRD
 70
     0
  9
$DIMCLRE
 70
     0
  9
$DIMCLRT
 70
     0
  9
$DIMTFAC
 40
1.0
  9
$DIMGAP
 40
1.0
  9
$DIMJUST
 70
     0
  9
$DIMSD1
 70
     0
  9
$DIMSD2
 70
     0
  9
$DIMTOLJ
 70
     0
  9
$DIMTZIN
 70
     8
  9
$DIMALTZ
 70
     0
  9
$DIMALTTZ
 70
     0
  9
$DIMUPT
 70
     0
  9
$DIMDEC
 70
     2
  9
$DIMTDEC
 70
     2
  9
$DIMALTU
 70
     2
  9
$DIMALTTD
 70
     3
  9
$DIMTXSTY
  7
OKANO
  9
$DIMAUNIT
 70
     0
  9
$DIMADEC
 70
     0
  9
$DIMALTRND
 40
0.0
  9
$DIMAZIN
 70
     0
  9
$DIMDSEP
 70
    46
  9
$DIMATFIT
 70
     3
  9
$DIMFRAC
 70
     0
  9
$DIMLDRBLK
  1
Closed
  9
$DIMLUNIT
 70
     2
  9
$DIMLWD
 70
    -2
  9
$DIMLWE
 70
    -2
  9
$DIMTMOVE
 70
     0
  9
$LUNITS
 70
     2
  9
$LUPREC
 70
     2
  9
$SKETCHINC
 40
1.0
  9
$FILLETRAD
 40
3.0
  9
$AUNITS
 70
     0
  9
$AUPREC
 70
     0
  9
$MENU
  1
.
  9
$ELEVATION
 40
0.0
  9
$PELEVATION
 40
0.0
  9
$THICKNESS
 40
0.0
  9
$LIMCHECK
 70
     0
  9
$CHAMFERA
 40
10.0
  9
$CHAMFERB
 40
10.0
  9
$CHAMFERC
 40
20.0
  9
$CHAMFERD
 40
0.0
  9
$SKPOLY
 70
     0
  9
$TDCREATE
 40
2452362.482225463
  9
$TDUCREATE
 40
2452362.107225463
  9
$TDUPDATE
 40
2455957.648649270
  9
$TDUUPDATE
 40
2455957.273649270
  9
$TDINDWG
 40
2.2660975000
  9
$TDUSRTIMER
 40
2.2660975000
  9
$USRTIMER
 70
     1
  9
$ANGBASE
 50
0.0
  9
$ANGDIR
 70
     0
  9
$PDMODE
 70
     0
  9
$PDSIZE
 40
0.0
  9
$PLINEWID
 40
0.0
  9
$SPLFRAME
 70
     0
  9
$SPLINETYPE
 70
     6
  9
$SPLINESEGS
 70
     8
  9
$HANDSEED
  5
33DA
  9
$SURFTAB1
 70
     6
  9
$SURFTAB2
 70
     6
  9
$SURFTYPE
 70
     6
  9
$SURFU
 70
     6
  9
$SURFV
 70
     6
  9
$UCSBASE
  2

  9
$UCSNAME
  2

  9
$UCSORG
 10
0.0
 20
0.0
 30
0.0
  9
$UCSXDIR
 10
1.0
 20
0.0
 30
0.0
  9
$UCSYDIR
 10
0.0
 20
1.0
 30
0.0
  9
$UCSORTHOREF
  2

  9
$UCSORTHOVIEW
 70
     0
  9
$UCSORGTOP
 10
0.0
 20
0.0
 30
0.0
  9
$UCSORGBOTTOM
 10
0.0
 20
0.0
 30
0.0
  9
$UCSORGLEFT
 10
0.0
 20
0.0
 30
0.0
  9
$UCSORGRIGHT
 10
0.0
 20
0.0
 30
0.0
  9
$UCSORGFRONT
 10
0.0
 20
0.0
 30
0.0
  9
$UCSORGBACK
 10
0.0
 20
0.0
 30
0.0
  9
$PUCSBASE
  2

  9
$PUCSNAME
  2

  9
$PUCSORG
 10
0.0
 20
0.0
 30
0.0
  9
$PUCSXDIR
 10
1.0
 20
0.0
 30
0.0
  9
$PUCSYDIR
 10
0.0
 20
1.0
 30
0.0
  9
$PUCSORTHOREF
  2

  9
$PUCSORTHOVIEW
 70
     0
  9
$PUCSORGTOP
 10
0.0
 20
0.0
 30
0.0
  9
$PUCSORGBOTTOM
 10
0.0
 20
0.0
 30
0.0
  9
$PUCSORGLEFT
 10
0.0
 20
0.0
 30
0.0
  9
$PUCSORGRIGHT
 10
0.0
 20
0.0
 30
0.0
  9
$PUCSORGFRONT
 10
0.0
 20
0.0
 30
0.0
  9
$PUCSORGBACK
 10
0.0
 20
0.0
 30
0.0
  9
$USERI1
 70
     0
  9
$USERI2
 70
     0
  9
$USERI3
 70
     0
  9
$USERI4
 70
     0
  9
$USERI5
 70
     0
  9
$USERR1
 40
0.0
  9
$USERR2
 40
0.0
  9
$USERR3
 40
0.0
  9
$USERR4
 40
0.0
  9
$USERR5
 40
0.0
  9
$WORLDVIEW
 70
     1
  9
$SHADEDGE
 70
     3
  9
$SHADEDIF
 70
    70
  9
$TILEMODE
 70
     0
  9
$MAXACTVP
 70
    64
  9
$PINSBASE
 10
0.0
 20
0.0
 30
0.0
  9
$PLIMCHECK
 70
     0
  9
$PEXTMIN
 10
-4.391850629656119
 20
-3.455038652015446
 30
0.0
  9
$PEXTMAX
 10
278.8458837249377
 20
202.387980773708
 30
0.0
  9
$PLIMMIN
 10
-3.757080078125
 20
-3.757083177566528
  9
$PLIMMAX
 10
293.2112426757812
 20
206.2162444591522
  9
$UNITMODE
 70
     0
  9
$VISRETAIN
 70
     1
  9
$PLINEGEN
 70
     0
  9
$PSLTSCALE
 70
     1
  9
$TREEDEPTH
 70
  3020
  9
$CMLSTYLE
  2
Standard
  9
$CMLJUST
 70
     0
  9
$CMLSCALE
 40
20.0
  9
$PROXYGRAPHICS
 70
     1
  9
$MEASUREMENT
 70
     1
  9
$CELWEIGHT
370
    -1
  9
$ENDCAPS
280
     0
  9
$JOINSTYLE
280
     0
  9
$LWDISPLAY
290
     0
  9
$INSUNITS
 70
     4
  9
$HYPERLINKBASE
  1

  9
$STYLESHEET
  1

  9
$XEDIT
290
     1
  9
$CEPSNTYPE
380
     0
  9
$PSTYLEMODE
290
     1
  9
$FINGERPRINTGUID
  2
{FF7F33C3-4233-11D6-AEE0-0000F45FD7F4}
  9
$VERSIONGUID
  2
{31578A08-3FDE-41AC-A708-DDA8FB892453}
  9
$EXTNAMES
290
     1
  9
$PSVPSCALE
 40
0.0
  9
$OLESTARTUP
290
     0
  0
ENDSEC
  0
SECTION
  2
CLASSES
  0
CLASS
  1
ACDBDICTIONARYWDFLT
  2
AcDbDictionaryWithDefault
  3
AutoCAD 2000
 90
        0
280
     0
281
     0
  0
CLASS
  1
ACDBPLACEHOLDER
  2
AcDbPlaceHolder
  3
AutoCAD 2000
 90
        0
280
     0
281
     0
  0
CLASS
  1
LAYOUT
  2
AcDbLayout
  3
AutoCAD 2000
 90
        0
280
     0
281
     0
  0
CLASS
  1
DICTIONARYVAR
  2
AcDbDictionaryVar
  3
AutoCAD 2000
 90
        0
280
     0
281
     0
  0
ENDSEC
  0
SECTION
  2
TABLES
  0
TABLE
  2
VPORT
  5
8
330
0
100
AcDbSymbolTable
 70
     2
  0
VPORT
  5
33D9
330
8
100
AcDbSymbolTableRecord
100
AcDbViewportTableRecord
  2
*Active
 70
     0
 10
0.0
 20
0.0
 11
1.0
 21
1.0
 12
265.1495329767001
 22
100.6505116041499
 13
0.0
 23
0.0
 14
5.0
 24
5.0
 15
10.0
 25
10.0
 16
0.0
 26
0.0
 36
1.0
 17
0.0
 27
0.0
 37
0.0
 40
331.1483326218843
 41
1.968879668049792
 42
50.0
 43
0.0
 44
0.0
 50
0.0
 51
0.0
 71
     0
 72
   100
 73
     1
 74
     3
 75
     0
 76
     0
 77
     0
 78
     0
281
     0
 65
     1
110
0.0
120
0.0
130
0.0
111
1.0
121
0.0
131
0.0
112
0.0
122
1.0
132
0.0
 79
     0
146
0.0
  0
ENDTAB
  0
TABLE
  2
LTYPE
  5
5
330
0
100
AcDbSymbolTable
 70
     5
  0
LTYPE
  5
14
330
5
100
AcDbSymbolTableRecord
100
AcDbLinetypeTableRecord
  2
ByBlock
 70
     0
  3

 72
    65
 73
     0
 40
0.0
  0
LTYPE
  5
15
330
5
100
AcDbSymbolTableRecord
100
AcDbLinetypeTableRecord
  2
ByLayer
 70
     0
  3

 72
    65
 73
     0
 40
0.0
  0
LTYPE
  5
16
330
5
100
AcDbSymbolTableRecord
100
AcDbLinetypeTableRecord
  2
Continuous
 70
     0
  3
Solid line
 72
    65
 73
     0
 40
0.0
  0
LTYPE
  5
33
330
5
100
AcDbSymbolTableRecord
100
AcDbLinetypeTableRecord
  2
DASHED2
 70
     0
  3
Dashed (.5x) _ _ _ _ _ _ _ _ _ _ _ _ _ _ _ _ _
 72
    65
 73
     2
 40
9.524999999999998
 49
6.349999999999999
 74
     0
 49
-3.174999999999999
 74
     0
  0
LTYPE
  5
34
330
5
100
AcDbSymbolTableRecord
100
AcDbLinetypeTableRecord
  2
CENTER2
 70
     0
  3
Center (.5x) ___ _ ___ _ ___ _ ___ _ ___ _ ___
 72
    65
 73
     4
 40
28.57499999999999
 49
19.05
 74
     0
 49
-3.174999999999999
 74
     0
 49
3.174999999999999
 74
     0
 49
-3.174999999999999
 74
     0
  0
LTYPE
  5
35
330
5
100
AcDbSymbolTableRecord
100
AcDbLinetypeTableRecord
  2
PHANTOM2
 70
     0
  3
Phantom (.5x) ___ _ _ ___ _ _ ___ _ _ ___ _ _
 72
    65
 73
     6
 40
31.75
 49
15.875
 74
     0
 49
-3.174999999999999
 74
     0
 49
3.174999999999999
 74
     0
 49
-3.174999999999999
 74
     0
 49
3.174999999999999
 74
     0
 49
-3.174999999999999
 74
     0
  0
LTYPE
  5
36
330
5
100
AcDbSymbolTableRecord
100
AcDbLinetypeTableRecord
  2
HIDDEN2
 70
     0
  3
Hidden (.5x) _ _ _ _ _ _ _ _ _ _ _ _ _ _ _ _ _
 72
    65
 73
     2
 40
4.762499999999999
 49
3.174999999999999
 74
     0
 49
-1.587499999999999
 74
     0
  0
ENDTAB
  0
TABLE
  2
LAYER
  5
2
330
0
100
AcDbSymbolTable
 70
    13
  0
LAYER
  5
10
330
2
100
AcDbSymbolTableRecord
100
AcDbLayerTableRecord
  2
0
 70
     0
 62
     7
  6
Continuous
370
    -3
390
F
  0
LAYER
  5
40
330
2
100
AcDbSymbolTableRecord
100
AcDbLayerTableRecord
  2
50-0-CON
 70
     0
 62
     4
  6
Continuous
370
    50
390
F
  0
LAYER
  5
41
330
2
100
AcDbSymbolTableRecord
100
AcDbLayerTableRecord
  2
70-0-CON
 70
     0
 62
   202
  6
Continuous
370
    70
390
F
  0
LAYER
  5
4E
330
2
100
AcDbSymbolTableRecord
100
AcDbLayerTableRecord
  2
極太線
 70
     0
 62
     7
  6
Continuous
370
    70
390
F
  0
LAYER
  5
4F
330
2
100
AcDbSymbolTableRecord
100
AcDbLayerTableRecord
  2
細線
 70
     0
 62
     8
  6
Continuous
370
    18
390
F
  0
LAYER
  5
AB
330
2
100
AcDbSymbolTableRecord
100
AcDbLayerTableRecord
  2
構築線
 70
     0
 62
    -2
  6
Continuous
370
    18
390
F
  0
LAYER
  5
B8
330
2
100
AcDbSymbolTableRecord
100
AcDbLayerTableRecord
  2
太線
 70
     0
 62
     7
  6
Continuous
370
    35
390
F
  0
LAYER
  5
B9
330
2
100
AcDbSymbolTableRecord
100
AcDbLayerTableRecord
  2
寸法線
 70
     0
 62
     5
  6
Continuous
370
    18
390
F
  0
LAYER
  5
BA
330
2
100
AcDbSymbolTableRecord
100
AcDbLayerTableRecord
  2
破線
 70
     0
 62
     8
  6
HIDDEN2
370
    18
390
F
  0
LAYER
  5
BB
330
2
100
AcDbSymbolTableRecord
100
AcDbLayerTableRecord
  2
中心線
 70
     0
 62
     1
  6
CENTER2
370
    18
390
F
  0
LAYER
  5
BC
330
2
100
AcDbSymbolTableRecord
100
AcDbLayerTableRecord
  2
想像線
 70
     0
 62
     8
  6
PHANTOM2
370
    18
390
F
  0
LAYER
  5
BD
330
2
100
AcDbSymbolTableRecord
100
AcDbLayerTableRecord
  2
文字
 70
     0
 62
     7
  6
Continuous
370
    18
390
F
  0
LAYER
  5
180
330
2
100
AcDbSymbolTableRecord
100
AcDbLayerTableRecord
  2
Defpoints
 70
     0
 62
     7
  6
Continuous
290
     0
370
    -3
390
F
  0
ENDTAB
  0
TABLE
  2
STYLE
  5
3
330
0
100
AcDbSymbolTable
 70
     3
  0
STYLE
  5
11
330
3
100
AcDbSymbolTableRecord
100
AcDbTextStyleTableRecord
  2
Standard
 70
     0
 40
0.0
 41
1.0
 50
0.0
 71
     0
 42
3.0
  3
txt
  4

  0
STYLE
  5
32
330
3
100
AcDbSymbolTableRecord
100
AcDbTextStyleTableRecord
  2

 70
     1
 40
0.0
 41
1.0
 50
0.0
 71
     0
 42
2.5
  3
ltypeshp.shx
  4

  0
STYLE
  5
50
330
3
100
AcDbSymbolTableRecord
100
AcDbTextStyleTableRecord
  2
OKANO
 70
     0
 40
0.0
 41
1.0
 50
15.0
 71
     0
 42
5.0
  3
isocp.shx
  4
bigfont.shx
  0
ENDTAB
  0
TABLE
  2
VIEW
  5
6
330
0
100
AcDbSymbolTable
 70
     0
  0
ENDTAB
  0
TABLE
  2
UCS
  5
7
330
0
100
AcDbSymbolTable
 70
     0
  0
ENDTAB
  0
TABLE
  2
APPID
  5
9
330
0
100
AcDbSymbolTable
 70
     1
  0
APPID
  5
12
330
9
100
AcDbSymbolTableRecord
100
AcDbRegAppTableRecord
  2
ACAD
 70
     0
  0
ENDTAB
  0
TABLE
  2
DIMSTYLE
  5
A
330
0
100
AcDbSymbolTable
 70
     2
100
AcDbDimStyleTable
 71
     2
340
A2
340
27
  0
DIMSTYLE
105
27
330
A
100
AcDbSymbolTableRecord
100
AcDbDimStyleTableRecord
  2
ISO-25
 70
     0
 41
2.5
 42
0.625
 43
3.75
 44
1.25
 73
     0
 74
     0
 77
     1
 78
     8
140
2.5
141
2.5
143
0.03937007874016
147
0.625
171
     3
172
     1
271
     2
272
     2
274
     3
283
     0
284
     8
340
11
  0
DIMSTYLE
105
A2
102
{ACAD_REACTORS
330
319B
330
329D
330
32AA
330
32B6
330
32EA
330
32F8
330
333B
330
336D
330
3379
330
33BE
102
}
330
A
100
AcDbSymbolTableRecord
100
AcDbDimStyleTableRecord
  2
sunpo
 70
     0
 40
0.0
 41
3.0
 42
2.0
 43
8.0
 44
3.0
 73
     0
 74
     0
 77
     1
 78
     8
140
5.0
141
2.5
143
0.03937007874016
147
1.0
171
     3
172
     1
271
     2
272
     2
274
     3
283
     0
284
     8
340
50
341
9B
342
9B
  0
ENDTAB
  0
TABLE
  2
BLOCK_RECORD
  5
1
330
0
100
AcDbSymbolTable
 70
    12
  0
BLOCK_RECORD
  5
1F
330
1
100
AcDbSymbolTableRecord
100
AcDbBlockTableRecord
  2
*Model_Space
340
22
  0
BLOCK_RECORD
  5
1B
330
1
100
AcDbSymbolTableRecord
100
AcDbBlockTableRecord
  2
*Paper_Space
340
1E
  0
BLOCK_RECORD
  5
9B
330
1
100
AcDbSymbolTableRecord
100
AcDbBlockTableRecord
  2
_Closed
340
0
102
{BLKREFS
331
31A1
331
31A2
331
32A2
331
32A3
331
32B0
331
32B1
331
32BC
331
32BD
331
3373
331
3374
331
3389
331
338A
331
3394
331
3395
331
339D
331
339E
331
33A6
331
33A7
331
33C3
331
33C4
102
}
  0
BLOCK_RECORD
  5
1510
330
1
100
AcDbSymbolTableRecord
100
AcDbBlockTableRecord
  2
A$C10A573AC
340
0
  0
BLOCK_RECORD
  5
319C
330
1
100
AcDbSymbolTableRecord
100
AcDbBlockTableRecord
  2
*D2
340
0
  0
BLOCK_RECORD
  5
329E
330
1
100
AcDbSymbolTableRecord
100
AcDbBlockTableRecord
  2
*D3
340
0
  0
BLOCK_RECORD
  5
32AB
330
1
100
AcDbSymbolTableRecord
100
AcDbBlockTableRecord
  2
*D4
340
0
  0
BLOCK_RECORD
  5
32B7
330
1
100
AcDbSymbolTableRecord
100
AcDbBlockTableRecord
  2
*D5
340
0
  0
BLOCK_RECORD
  5
32EB
330
1
100
AcDbSymbolTableRecord
100
AcDbBlockTableRecord
  2
*D6
340
0
  0
BLOCK_RECORD
  5
32F9
330
1
100
AcDbSymbolTableRecord
100
AcDbBlockTableRecord
  2
*D7
340
0
  0
BLOCK_RECORD
  5
333C
330
1
100
AcDbSymbolTableRecord
100
AcDbBlockTableRecord
  2
*D8
340
0
  0
BLOCK_RECORD
  5
336E
330
1
100
AcDbSymbolTableRecord
100
AcDbBlockTableRecord
  2
*D9
340
0
  0
BLOCK_RECORD
  5
337A
330
1
100
AcDbSymbolTableRecord
100
AcDbBlockTableRecord
  2
*D10
340
0
  0
BLOCK_RECORD
  5
33BF
330
1
100
AcDbSymbolTableRecord
100
AcDbBlockTableRecord
  2
*D11
340
0
  0
ENDTAB
  0
ENDSEC
  0
SECTION
  2
BLOCKS
  0
BLOCK
  5
20
330
1F
100
AcDbEntity
  8
0
100
AcDbBlockBegin
  2
*Model_Space
 70
     0
 10
0.0
 20
0.0
 30
0.0
  3
*Model_Space
  1

  0
ENDBLK
  5
21
330
1F
100
AcDbEntity
  8
0
100
AcDbBlockEnd
  0
BLOCK
  5
1C
330
1B
100
AcDbEntity
 67
     1
  8
0
100
AcDbBlockBegin
  2
*Paper_Space
 70
     0
 10
0.0
 20
0.0
 30
0.0
  3
*Paper_Space
  1

  0
ENDBLK
  5
1D
330
1B
100
AcDbEntity
 67
     1
  8
0
100
AcDbBlockEnd
  0
BLOCK
  5
A0
330
9B
100
AcDbEntity
  8
0
100
AcDbBlockBegin
  2
_Closed
 70
     0
 10
0.0
 20
0.0
 30
0.0
  3
_Closed
  1

  0
LINE
  5
9C
330
9B
100
AcDbEntity
  8
0
 62
     0
370
    -2
100
AcDbLine
 10
-1.0
 20
0.1666666666666666
 30
0.0
 11
0.0
 21
0.0
 31
0.0
  0
LINE
  5
9D
330
9B
100
AcDbEntity
  8
0
 62
     0
370
    -2
100
AcDbLine
 10
0.0
 20
0.0
 30
0.0
 11
-1.0
 21
-0.1666666666666666
 31
0.0
  0
LINE
  5
9E
330
9B
100
AcDbEntity
  8
0
 62
     0
370
    -2
100
AcDbLine
 10
-1.0
 20
0.1666666666666666
 30
0.0
 11
-1.0
 21
-0.1666666666666666
 31
0.0
  0
LINE
  5
9F
330
9B
100
AcDbEntity
  8
0
 62
     0
370
    -2
100
AcDbLine
 10
0.0
 20
0.0
 30
0.0
 11
-1.0
 21
0.0
 31
0.0
  0
ENDBLK
  5
A1
330
9B
100
AcDbEntity
  8
0
100
AcDbBlockEnd
  0
BLOCK
  5
155B
330
1510
100
AcDbEntity
  8
0
100
AcDbBlockBegin
  2
A$C10A573AC
 70
     0
 10
0.0
 20
0.0
 30
0.0
  3
A$C10A573AC
  1

  0
TEXT
  5
1511
330
1510
100
AcDbEntity
  8
文字
100
AcDbText
 10
0.9844302777919438
 20
5.224957122252135
 30
0.0
 40
3.0
  1
Materal : Steel.
 51
15.0
  7
OKANO
100
AcDbText
  0
TEXT
  5
1512
330
1510
100
AcDbEntity
  8
文字
100
AcDbText
 10
-0.1141909619694843
 20
0.7500001922403499
 30
0.0
 40
3.0
  1
Surface treatment : Electro galvanized.
 51
15.0
  7
OKANO
100
AcDbText
  0
TEXT
  5
1513
330
1510
100
AcDbEntity
  8
文字
100
AcDbText
 10
-0.4901926332574931
 20
9.159967445193728
 30
0.0
 40
3.0
  1
5 TORGUE SCREW  M5-6
 51
15.0
  7
OKANO
100
AcDbText
  0
TEXT
  5
1514
330
1510
100
AcDbEntity
  8
文字
100
AcDbText
 10
1.364713526390005
 20
78.88822913323082
 30
0.0
 40
3.0
  1
Special standard,
 51
15.0
  7
OKANO
100
AcDbText
  0
TEXT
  5
1515
330
1510
100
AcDbEntity
  8
文字
100
AcDbText
 10
92.88160823408942
 20
89.92753849837379
 30
0.0
 40
3.0
  1
Screw Type
 51
15.0
  7
OKANO
100
AcDbText
  0
LINE
  5
1516
330
1510
100
AcDbEntity
  8
太線
100
AcDbLine
 10
113.9464587597784
 20
81.93930390144641
 30
0.0
 11
112.4464587597784
 21
81.93930390144641
 31
0.0
  0
LINE
  5
1517
330
1510
100
AcDbEntity
  8
太線
100
AcDbLine
 10
112.4464587597784
 20
76.9393039014464
 30
0.0
 11
121.4644995438761
 21
76.9393039014464
 31
0.0
  0
TEXT
  5
1518
330
1510
100
AcDbEntity
  8
文字
100
AcDbText
 10
93.46068240437217
 20
77.96976862235396
 30
0.0
 40
2.0
  1
17-30
 51
15.0
  7
OKANO
100
AcDbText
  0
LINE
  5
1519
330
1510
100
AcDbEntity
  8
太線
100
AcDbLine
 10
111.9464587597784
 20
81.43930390144641
 30
0.0
 11
111.9464587597784
 21
77.4393039014464
 31
0.0
  0
LINE
  5
151A
330
1510
100
AcDbEntity
  8
太線
100
AcDbLine
 10
91.94645875977846
 20
81.43930390144641
 30
0.0
 11
91.94645875977846
 21
77.43930390144639
 31
0.0
  0
LINE
  5
151B
330
1510
100
AcDbEntity
  8
太線
100
AcDbLine
 10
101.9644995438761
 20
77.4393039014464
 30
0.0
 11
101.9644995438761
 21
81.43930390144641
 31
0.0
  0
LINE
  5
151C
330
1510
100
AcDbEntity
  8
太線
100
AcDbLine
 10
92.44645875977846
 20
76.9393039014464
 30
0.0
 11
101.4644995438761
 21
76.9393039014464
 31
0.0
  0
ARC
  5
151D
330
1510
100
AcDbEntity
  8
太線
100
AcDbCircle
 10
92.44645875977846
 20
77.43930390144639
 30
0.0
 40
0.5
100
AcDbArc
 50
180.0
 51
270.0
  0
ARC
  5
151E
330
1510
100
AcDbEntity
  8
太線
100
AcDbCircle
 10
101.4644995438761
 20
77.4393039014464
 30
0.0
 40
0.5
100
AcDbArc
 50
270.0
 51
0.0
  0
ARC
  5
151F
330
1510
100
AcDbEntity
  8
太線
100
AcDbCircle
 10
112.4464587597784
 20
77.4393039014464
 30
0.0
 40
0.5
100
AcDbArc
 50
180.0
 51
270.0
  0
LINE
  5
1520
330
1510
100
AcDbEntity
  8
想像線
100
AcDbLine
 10
93.94645875977847
 20
81.93930390144641
 30
0.0
 11
99.96449954387617
 21
81.93930390144641
 31
0.0
  0
LINE
  5
1521
330
1510
100
AcDbEntity
  8
極太線
100
AcDbLine
 10
96.38762957111168
 20
85.43930390144641
 30
0.0
 11
97.50528794844525
 21
85.43930390144641
 31
0.0
  0
CIRCLE
  5
1522
330
1510
100
AcDbEntity
  8
太線
100
AcDbCircle
 10
96.94645875977847
 20
85.43930390144641
 30
0.0
 40
0.5588291886667776
  0
LINE
  5
1523
330
1510
100
AcDbEntity
  8
太線
100
AcDbLine
 10
99.46449954387617
 20
86.93930390144641
 30
0.0
 11
94.44645875977846
 21
86.93930390144641
 31
0.0
  0
LINE
  5
1524
330
1510
100
AcDbEntity
  8
太線
100
AcDbLine
 10
93.94645875977847
 20
86.43930390144641
 30
0.0
 11
93.94645875977847
 21
81.93930390144641
 31
0.0
  0
ARC
  5
1525
330
1510
100
AcDbEntity
  8
太線
100
AcDbCircle
 10
92.44645875977846
 20
81.43930390144641
 30
0.0
 40
0.5
100
AcDbArc
 50
90.0
 51
180.0
  0
LINE
  5
1526
330
1510
100
AcDbEntity
  8
太線
100
AcDbLine
 10
93.94645875977847
 20
81.93930390144641
 30
0.0
 11
92.44645875977846
 21
81.93930390144641
 31
0.0
  0
ARC
  5
1527
330
1510
100
AcDbEntity
  8
太線
100
AcDbCircle
 10
94.44645875977846
 20
86.43930390144641
 30
0.0
 40
0.5
100
AcDbArc
 50
90.0
 51
180.0
  0
LINE
  5
1528
330
1510
100
AcDbEntity
  8
太線
100
AcDbLine
 10
99.96449954387617
 20
81.93930390144641
 30
0.0
 11
99.96449954387617
 21
86.43930390144641
 31
0.0
  0
LINE
  5
1529
330
1510
100
AcDbEntity
  8
太線
100
AcDbLine
 10
101.4644995438761
 20
81.93930390144641
 30
0.0
 11
99.96449954387617
 21
81.93930390144641
 31
0.0
  0
ARC
  5
152A
330
1510
100
AcDbEntity
  8
太線
100
AcDbCircle
 10
101.4644995438761
 20
81.43930390144641
 30
0.0
 40
0.5
100
AcDbArc
 50
0.0
 51
90.0
  0
ARC
  5
152B
330
1510
100
AcDbEntity
  8
太線
100
AcDbCircle
 10
99.46449954387617
 20
86.43930390144641
 30
0.0
 40
0.5
100
AcDbArc
 50
0.0
 51
90.0
  0
LINE
  5
152C
330
1510
100
AcDbEntity
  8
極太線
100
AcDbLine
 10
96.94645875977847
 20
85.99813309011318
 30
0.0
 11
96.94645875977847
 21
84.88047471277964
 31
0.0
  0
ARC
  5
152D
330
1510
100
AcDbEntity
  8
太線
100
AcDbCircle
 10
112.4464587597784
 20
81.43930390144641
 30
0.0
 40
0.5
100
AcDbArc
 50
90.0
 51
180.0
  0
TEXT
  5
152E
330
1510
100
AcDbEntity
  8
文字
100
AcDbText
 10
134.3819212586066
 20
78.16263579228063
 30
0.0
 40
2.0
  1
101
 51
15.0
  7
OKANO
100
AcDbText
  0
TEXT
  5
152F
330
1510
100
AcDbEntity
  8
文字
100
AcDbText
 10
113.3422276612066
 20
77.96976862235396
 30
0.0
 40
2.0
  1
38-83
 51
15.0
  7
OKANO
100
AcDbText
  0
LINE
  5
1530
330
1510
100
AcDbEntity
  8
太線
100
AcDbLine
 10
141.9825403279738
 20
77.4393039014464
 30
0.0
 11
141.9825403279738
 21
81.43930390144641
 31
0.0
  0
LINE
  5
1531
330
1510
100
AcDbEntity
  8
太線
100
AcDbLine
 10
131.9644995438761
 20
81.43930390144641
 30
0.0
 11
131.9644995438761
 21
77.4393039014464
 31
0.0
  0
LINE
  5
1532
330
1510
100
AcDbEntity
  8
太線
100
AcDbLine
 10
121.9644995438761
 20
77.4393039014464
 30
0.0
 11
121.9644995438761
 21
81.43930390144641
 31
0.0
  0
ARC
  5
1533
330
1510
100
AcDbEntity
  8
太線
100
AcDbCircle
 10
121.4644995438761
 20
77.4393039014464
 30
0.0
 40
0.5
100
AcDbArc
 50
270.0
 51
0.0
  0
LINE
  5
1534
330
1510
100
AcDbEntity
  8
太線
100
AcDbLine
 10
132.4644995438761
 20
76.9393039014464
 30
0.0
 11
141.4825403279738
 21
76.9393039014464
 31
0.0
  0
ARC
  5
1535
330
1510
100
AcDbEntity
  8
太線
100
AcDbCircle
 10
132.4644995438761
 20
77.4393039014464
 30
0.0
 40
0.5
100
AcDbArc
 50
180.0
 51
270.0
  0
ARC
  5
1536
330
1510
100
AcDbEntity
  8
太線
100
AcDbCircle
 10
141.4825403279738
 20
77.4393039014464
 30
0.0
 40
0.5
100
AcDbArc
 50
270.0
 51
0.0
  0
ARC
  5
1537
330
1510
100
AcDbEntity
  8
太線
100
AcDbCircle
 10
121.4644995438761
 20
81.43930390144641
 30
0.0
 40
0.5
100
AcDbArc
 50
0.0
 51
90.0
  0
LINE
  5
1538
330
1510
100
AcDbEntity
  8
太線
100
AcDbLine
 10
119.9644995438761
 20
81.93930390144641
 30
0.0
 11
119.9644995438761
 21
86.43930390144641
 31
0.0
  0
LINE
  5
1539
330
1510
100
AcDbEntity
  8
太線
100
AcDbLine
 10
113.9464587597784
 20
86.43930390144641
 30
0.0
 11
113.9464587597784
 21
81.93930390144641
 31
0.0
  0
LINE
  5
153A
330
1510
100
AcDbEntity
  8
想像線
100
AcDbLine
 10
113.9464587597784
 20
81.93930390144641
 30
0.0
 11
119.9644995438761
 21
81.93930390144641
 31
0.0
  0
LINE
  5
153B
330
1510
100
AcDbEntity
  8
太線
100
AcDbLine
 10
121.4644995438761
 20
81.93930390144641
 30
0.0
 11
119.9644995438761
 21
81.93930390144641
 31
0.0
  0
LINE
  5
153C
330
1510
100
AcDbEntity
  8
太線
100
AcDbLine
 10
119.4644995438761
 20
86.93930390144641
 30
0.0
 11
114.4464587597784
 21
86.93930390144641
 31
0.0
  0
ARC
  5
153D
330
1510
100
AcDbEntity
  8
太線
100
AcDbCircle
 10
114.4464587597784
 20
86.43930390144641
 30
0.0
 40
0.5
100
AcDbArc
 50
90.0
 51
180.0
  0
CIRCLE
  5
153E
330
1510
100
AcDbEntity
  8
太線
100
AcDbCircle
 10
115.4464587597784
 20
85.43930390144641
 30
0.0
 40
0.5588291886667776
  0
LINE
  5
153F
330
1510
100
AcDbEntity
  8
極太線
100
AcDbLine
 10
115.4464587597784
 20
85.99813309011318
 30
0.0
 11
115.4464587597784
 21
84.88047471277964
 31
0.0
  0
LINE
  5
1540
330
1510
100
AcDbEntity
  8
極太線
100
AcDbLine
 10
114.8876295711116
 20
85.43930390144641
 30
0.0
 11
116.0052879484452
 21
85.43930390144641
 31
0.0
  0
ARC
  5
1541
330
1510
100
AcDbEntity
  8
太線
100
AcDbCircle
 10
119.4644995438761
 20
86.43930390144641
 30
0.0
 40
0.5
100
AcDbArc
 50
0.0
 51
90.0
  0
LINE
  5
1542
330
1510
100
AcDbEntity
  8
極太線
100
AcDbLine
 10
117.9056703552094
 20
85.43930390144641
 30
0.0
 11
119.0233287325429
 21
85.43930390144641
 31
0.0
  0
LINE
  5
1543
330
1510
100
AcDbEntity
  8
極太線
100
AcDbLine
 10
118.4644995438761
 20
85.99813309011318
 30
0.0
 11
118.4644995438761
 21
84.88047471277964
 31
0.0
  0
CIRCLE
  5
1544
330
1510
100
AcDbEntity
  8
太線
100
AcDbCircle
 10
118.4644995438761
 20
85.43930390144641
 30
0.0
 40
0.5588291886667776
  0
LINE
  5
1545
330
1510
100
AcDbEntity
  8
想像線
100
AcDbLine
 10
133.9644995438761
 20
81.93930390144641
 30
0.0
 11
139.9825403279738
 21
81.93930390144641
 31
0.0
  0
LINE
  5
1546
330
1510
100
AcDbEntity
  8
極太線
100
AcDbLine
 10
137.9237111393071
 20
85.43930390144641
 30
0.0
 11
139.0413695166406
 21
85.43930390144641
 31
0.0
  0
CIRCLE
  5
1547
330
1510
100
AcDbEntity
  8
太線
100
AcDbCircle
 10
138.4825403279738
 20
85.43930390144641
 30
0.0
 40
0.5588291886667776
  0
CIRCLE
  5
1548
330
1510
100
AcDbEntity
  8
太線
100
AcDbCircle
 10
138.4825403279738
 20
83.26342923362075
 30
0.0
 40
0.5588291886667776
  0
LINE
  5
1549
330
1510
100
AcDbEntity
  8
極太線
100
AcDbLine
 10
137.9237111393071
 20
83.26342923362075
 30
0.0
 11
139.0413695166406
 21
83.26342923362075
 31
0.0
  0
LINE
  5
154A
330
1510
100
AcDbEntity
  8
太線
100
AcDbLine
 10
139.4825403279738
 20
86.93930390144641
 30
0.0
 11
134.4644995438761
 21
86.93930390144641
 31
0.0
  0
LINE
  5
154B
330
1510
100
AcDbEntity
  8
太線
100
AcDbLine
 10
133.9644995438761
 20
86.43930390144641
 30
0.0
 11
133.9644995438761
 21
81.93930390144641
 31
0.0
  0
ARC
  5
154C
330
1510
100
AcDbEntity
  8
太線
100
AcDbCircle
 10
132.4644995438761
 20
81.43930390144641
 30
0.0
 40
0.5
100
AcDbArc
 50
90.0
 51
180.0
  0
LINE
  5
154D
330
1510
100
AcDbEntity
  8
太線
100
AcDbLine
 10
133.9644995438761
 20
81.93930390144641
 30
0.0
 11
132.4644995438761
 21
81.93930390144641
 31
0.0
  0
LINE
  5
154E
330
1510
100
AcDbEntity
  8
極太線
100
AcDbLine
 10
134.9056703552093
 20
83.26342923362075
 30
0.0
 11
136.0233287325429
 21
83.26342923362075
 31
0.0
  0
LINE
  5
154F
330
1510
100
AcDbEntity
  8
極太線
100
AcDbLine
 10
135.4644995438761
 20
83.82225842228752
 30
0.0
 11
135.4644995438761
 21
82.70460004495395
 31
0.0
  0
CIRCLE
  5
1550
330
1510
100
AcDbEntity
  8
太線
100
AcDbCircle
 10
135.4644995438761
 20
83.26342923362075
 30
0.0
 40
0.5588291886667776
  0
ARC
  5
1551
330
1510
100
AcDbEntity
  8
太線
100
AcDbCircle
 10
134.4644995438761
 20
86.43930390144641
 30
0.0
 40
0.5
100
AcDbArc
 50
90.0
 51
180.0
  0
CIRCLE
  5
1552
330
1510
100
AcDbEntity
  8
太線
100
AcDbCircle
 10
135.4644995438761
 20
85.43930390144641
 30
0.0
 40
0.5588291886667776
  0
LINE
  5
1553
330
1510
100
AcDbEntity
  8
極太線
100
AcDbLine
 10
135.4644995438761
 20
85.99813309011318
 30
0.0
 11
135.4644995438761
 21
84.88047471277964
 31
0.0
  0
LINE
  5
1554
330
1510
100
AcDbEntity
  8
極太線
100
AcDbLine
 10
134.9056703552093
 20
85.43930390144641
 30
0.0
 11
136.0233287325429
 21
85.43930390144641
 31
0.0
  0
LINE
  5
1555
330
1510
100
AcDbEntity
  8
太線
100
AcDbLine
 10
139.9825403279738
 20
81.93930390144641
 30
0.0
 11
139.9825403279738
 21
86.43930390144641
 31
0.0
  0
ARC
  5
1556
330
1510
100
AcDbEntity
  8
太線
100
AcDbCircle
 10
141.4825403279738
 20
81.43930390144641
 30
0.0
 40
0.5
100
AcDbArc
 50
0.0
 51
90.0
  0
LINE
  5
1557
330
1510
100
AcDbEntity
  8
極太線
100
AcDbLine
 10
138.4825403279738
 20
83.82225842228752
 30
0.0
 11
138.4825403279738
 21
82.70460004495395
 31
0.0
  0
LINE
  5
1558
330
1510
100
AcDbEntity
  8
太線
100
AcDbLine
 10
141.4825403279738
 20
81.93930390144641
 30
0.0
 11
139.9825403279738
 21
81.93930390144641
 31
0.0
  0
ARC
  5
1559
330
1510
100
AcDbEntity
  8
太線
100
AcDbCircle
 10
139.4825403279738
 20
86.43930390144641
 30
0.0
 40
0.5
100
AcDbArc
 50
0.0
 51
90.0
  0
LINE
  5
155A
330
1510
100
AcDbEntity
  8
極太線
100
AcDbLine
 10
138.4825403279738
 20
85.99813309011318
 30
0.0
 11
138.4825403279738
 21
84.88047471277964
 31
0.0
  0
ENDBLK
  5
155C
330
1510
100
AcDbEntity
  8
0
100
AcDbBlockEnd
  0
BLOCK
  5
31A5
330
319C
100
AcDbEntity
  8
0
100
AcDbBlockBegin
  2
*D2
 70
     1
 10
0.0
 20
0.0
 30
0.0
  3
*D2
  1

  0
LINE
  5
319D
330
319C
100
AcDbEntity
  8
寸法線
 62
     0
370
    -2
100
AcDbLine
 10
209.7001063510577
 20
121.9093351441334
 30
0.0
 11
177.323126938461
 21
107.022212181359
 31
0.0
  0
LINE
  5
319E
330
319C
100
AcDbEntity
  8
寸法線
 62
     0
370
    -2
100
AcDbLine
 10
127.0799011123475
 20
83.92008547003328
 30
0.0
 11
124.3542288252166
 21
82.66680553994328
 31
0.0
  0
MTEXT
  5
319F
330
319C
100
AcDbEntity
  8
寸法線
 62
     0
100
AcDbMText
 10
199.8233741925215
 20
121.2202170142553
 30
0.0
 40
5.0
 41
0.0
 71
     5
 72
     1
  1
\U+220549.3
  7
OKANO
 11
0.9085574290436456
 21
0.4177599766966683
 31
0.0
 73
     1
 44
1.0
  0
LINE
  5
31A0
330
319C
100
AcDbEntity
  8
寸法線
 62
     0
370
    -2
100
AcDbLine
 10
129.8055733994784
 20
85.17336540012328
 30
0.0
 11
174.5974546513301
 21
105.768932251269
 31
0.0
  0
INSERT
  5
31A1
330
319C
100
AcDbEntity
  8
寸法線
 62
     0
370
    -2
100
AcDbBlockReference
  2
_Closed
 10
129.8055733994784
 20
85.17336540012328
 30
0.0
 41
3.0
 42
3.0
 43
3.0
 50
24.69324602034031
  0
INSERT
  5
31A2
330
319C
100
AcDbEntity
  8
寸法線
 62
     0
370
    -2
100
AcDbBlockReference
  2
_Closed
 10
174.5974546513301
 20
105.768932251269
 30
0.0
 41
3.0
 42
3.0
 43
3.0
 50
204.6932460203402
  0
POINT
  5
31A3
330
319C
100
AcDbEntity
  8
Defpoints
 62
     0
100
AcDbPoint
 10
174.5974546513301
 20
105.768932251269
 30
0.0
  0
POINT
  5
31A4
330
319C
100
AcDbEntity
  8
Defpoints
 62
     0
100
AcDbPoint
 10
129.8055733994784
 20
85.17336540012328
 30
0.0
  0
ENDBLK
  5
31A6
330
319C
100
AcDbEntity
  8
0
100
AcDbBlockEnd
  0
BLOCK
  5
32A8
330
329E
100
AcDbEntity
  8
0
100
AcDbBlockBegin
  2
*D3
 70
     1
 10
0.0
 20
0.0
 30
0.0
  3
*D3
  1

  0
LINE
  5
329F
330
329E
100
AcDbEntity
  8
寸法線
 62
     0
370
    -2
100
AcDbLine
 10
244.7329107425896
 20
124.1211488256961
 30
0.0
 11
244.7329107425896
 21
136.839320663297
 31
0.0
  0
LINE
  5
32A0
330
329E
100
AcDbEntity
  8
寸法線
 62
     0
370
    -2
100
AcDbLine
 10
304.7329107425896
 20
124.1211488256961
 30
0.0
 11
304.7329107425896
 21
136.839320663297
 31
0.0
  0
LINE
  5
32A1
330
329E
100
AcDbEntity
  8
寸法線
 62
     0
370
    -2
100
AcDbLine
 10
247.7329107425896
 20
133.839320663297
 30
0.0
 11
301.7329107425896
 21
133.839320663297
 31
0.0
  0
INSERT
  5
32A2
330
329E
100
AcDbEntity
  8
寸法線
 62
     0
370
    -2
100
AcDbBlockReference
  2
_Closed
 10
244.7329107425896
 20
133.839320663297
 30
0.0
 41
3.0
 42
3.0
 43
3.0
 50
180.0
  0
INSERT
  5
32A3
330
329E
100
AcDbEntity
  8
寸法線
 62
     0
370
    -2
100
AcDbBlockReference
  2
_Closed
 10
304.7329107425896
 20
133.839320663297
 30
0.0
 41
3.0
 42
3.0
 43
3.0
  0
MTEXT
  5
32A4
330
329E
100
AcDbEntity
  8
寸法線
 62
     0
100
AcDbMText
 10
274.7329107425896
 20
137.339320663297
 30
0.0
 40
5.0
 41
0.0
 71
     5
 72
     1
  1
60
  7
OKANO
 73
     1
 44
1.0
  0
POINT
  5
32A5
330
329E
100
AcDbEntity
  8
Defpoints
 62
     0
100
AcDbPoint
 10
244.7329107425896
 20
122.1211488256961
 30
0.0
  0
POINT
  5
32A6
330
329E
100
AcDbEntity
  8
Defpoints
 62
     0
100
AcDbPoint
 10
304.7329107425896
 20
122.1211488256961
 30
0.0
  0
POINT
  5
32A7
330
329E
100
AcDbEntity
  8
Defpoints
 62
     0
100
AcDbPoint
 10
304.7329107425896
 20
133.839320663297
 30
0.0
  0
ENDBLK
  5
32A9
330
329E
100
AcDbEntity
  8
0
100
AcDbBlockEnd
  0
BLOCK
  5
32B4
330
32AB
100
AcDbEntity
  8
0
100
AcDbBlockBegin
  2
*D4
 70
     1
 10
0.0
 20
0.0
 30
0.0
  3
*D4
  1

  0
LINE
  5
32AC
330
32AB
100
AcDbEntity
  8
寸法線
 62
     0
370
    -2
100
AcDbLine
 10
333.8066573258055
 20
71.39634179152139
 30
0.0
 11
282.5718991069872
 21
49.91695863495685
 31
0.0
  0
LINE
  5
32AD
330
32AB
100
AcDbEntity
  8
寸法線
 62
     0
370
    -2
100
AcDbLine
 10
266.893922378192
 20
43.34420839693961
 30
0.0
 11
264.1272206025222
 21
42.18431129611302
 31
0.0
  0
MTEXT
  5
32AE
330
32AB
100
AcDbEntity
  8
寸法線
 62
     0
100
AcDbMText
 10
327.3789397238363
 20
72.49675276292328
 30
0.0
 40
5.0
 41
0.0
 71
     5
 72
     1
  1
\U+220511
  7
OKANO
 11
0.9222339252232474
 21
0.3866323669421919
 31
0.0
 73
     1
 44
1.0
  0
LINE
  5
32AF
330
32AB
100
AcDbEntity
  8
寸法線
 62
     0
370
    -2
100
AcDbLine
 10
269.6606241538618
 20
44.50410549776617
 30
0.0
 11
279.8051973313175
 21
48.75706153413028
 31
0.0
  0
INSERT
  5
32B0
330
32AB
100
AcDbEntity
  8
寸法線
 62
     0
370
    -2
100
AcDbBlockReference
  2
_Closed
 10
269.6606241538618
 20
44.50410549776617
 30
0.0
 41
3.0
 42
3.0
 43
3.0
 50
22.74511704717883
  0
INSERT
  5
32B1
330
32AB
100
AcDbEntity
  8
寸法線
 62
     0
370
    -2
100
AcDbBlockReference
  2
_Closed
 10
279.8051973313175
 20
48.75706153413028
 30
0.0
 41
3.0
 42
3.0
 43
3.0
 50
202.7451170471788
  0
POINT
  5
32B2
330
32AB
100
AcDbEntity
  8
Defpoints
 62
     0
100
AcDbPoint
 10
279.8051973313175
 20
48.75706153413028
 30
0.0
  0
POINT
  5
32B3
330
32AB
100
AcDbEntity
  8
Defpoints
 62
     0
100
AcDbPoint
 10
269.6606241538618
 20
44.50410549776617
 30
0.0
  0
ENDBLK
  5
32B5
330
32AB
100
AcDbEntity
  8
0
100
AcDbBlockEnd
  0
BLOCK
  5
32C0
330
32B7
100
AcDbEntity
  8
0
100
AcDbBlockBegin
  2
*D5
 70
     1
 10
0.0
 20
0.0
 30
0.0
  3
*D5
  1

  0
LINE
  5
32B8
330
32B7
100
AcDbEntity
  8
寸法線
 62
     0
370
    -2
100
AcDbLine
 10
339.176168631338
 20
62.01257604229763
 30
0.0
 11
294.9244152591424
 21
48.39526303013914
 31
0.0
  0
LINE
  5
32B9
330
32B7
100
AcDbEntity
  8
寸法線
 62
     0
370
    -2
100
AcDbLine
 10
283.4551683418954
 20
44.86590400175729
 30
0.0
 11
280.5878566125837
 21
43.98356424466182
 31
0.0
  0
MTEXT
  5
32BA
330
32B7
100
AcDbEntity
  8
寸法線
 62
     0
100
AcDbMText
 10
333.8384197830807
 20
64.03199092439766
 30
0.0
 40
5.0
 41
0.0
 71
     5
 72
     1
  1
\U+22056
  7
OKANO
 11
0.9557705764372489
 21
0.2941132523651552
 31
0.0
 73
     1
 44
1.0
  0
LINE
  5
32BB
330
32B7
100
AcDbEntity
  8
寸法線
 62
     0
370
    -2
100
AcDbLine
 10
286.3224800712072
 20
45.74824375885276
 30
0.0
 11
292.0571035298306
 21
47.51292327304367
 31
0.0
  0
INSERT
  5
32BC
330
32B7
100
AcDbEntity
  8
寸法線
 62
     0
370
    -2
100
AcDbBlockReference
  2
_Closed
 10
286.3224800712072
 20
45.74824375885276
 30
0.0
 41
3.0
 42
3.0
 43
3.0
 50
17.10437172683297
  0
INSERT
  5
32BD
330
32B7
100
AcDbEntity
  8
寸法線
 62
     0
370
    -2
100
AcDbBlockReference
  2
_Closed
 10
292.0571035298306
 20
47.51292327304367
 30
0.0
 41
3.0
 42
3.0
 43
3.0
 50
197.1043717268329
  0
POINT
  5
32BE
330
32B7
100
AcDbEntity
  8
Defpoints
 62
     0
100
AcDbPoint
 10
292.0571035298306
 20
47.51292327304367
 30
0.0
  0
POINT
  5
32BF
330
32B7
100
AcDbEntity
  8
Defpoints
 62
     0
100
AcDbPoint
 10
286.3224800712072
 20
45.74824375885276
 30
0.0
  0
ENDBLK
  5
32C1
330
32B7
100
AcDbEntity
  8
0
100
AcDbBlockEnd
  0
BLOCK
  5
32F6
330
32EB
100
AcDbEntity
  8
0
100
AcDbBlockBegin
  2
*D6
 70
     1
 10
0.0
 20
0.0
 30
0.0
  3
*D6
  1

  0
LINE
  5
33A3
330
32EB
100
AcDbEntity
  8
寸法線
 62
     0
370
    -2
100
AcDbLine
 10
288.5942985798795
 20
33.44215867185988
 30
0.0
 11
334.9676356657138
 21
33.44215867185988
 31
0.0
  0
LINE
  5
33A4
330
32EB
100
AcDbEntity
  8
寸法線
 62
     0
370
    -2
100
AcDbLine
 10
288.5942985798795
 20
23.85974224760201
 30
0.0
 11
334.9676356657138
 21
23.859742247602
 31
0.0
  0
LINE
  5
33A5
330
32EB
100
AcDbEntity
  8
寸法線
 62
     0
370
    -2
100
AcDbLine
 10
331.9676356657138
 20
30.44215867185987
 30
0.0
 11
331.9676356657138
 21
26.859742247602
 31
0.0
  0
INSERT
  5
33A6
330
32EB
100
AcDbEntity
  8
寸法線
 62
     0
370
    -2
100
AcDbBlockReference
  2
_Closed
 10
331.9676356657138
 20
33.44215867185988
 30
0.0
 41
3.0
 42
3.0
 43
3.0
 50
90.0
  0
INSERT
  5
33A7
330
32EB
100
AcDbEntity
  8
寸法線
 62
     0
370
    -2
100
AcDbBlockReference
  2
_Closed
 10
331.9676356657138
 20
23.859742247602
 30
0.0
 41
3.0
 42
3.0
 43
3.0
 50
270.0
  0
MTEXT
  5
33A8
330
32EB
100
AcDbEntity
  8
寸法線
 62
     0
100
AcDbMText
 10
328.4676356657138
 20
28.65095045973099
 30
0.0
 40
5.0
 41
0.0
 71
     5
 72
     1
  1
10
  7
OKANO
 11
0.0000000000000001
 21
1.0
 31
0.0
 73
     1
 44
1.0
  0
POINT
  5
33A9
330
32EB
100
AcDbEntity
  8
Defpoints
 62
     0
100
AcDbPoint
 10
286.5942985798795
 20
33.44215867185988
 30
0.0
  0
POINT
  5
33AA
330
32EB
100
AcDbEntity
  8
Defpoints
 62
     0
100
AcDbPoint
 10
286.5942985798795
 20
23.85974224760201
 30
0.0
  0
POINT
  5
33AB
330
32EB
100
AcDbEntity
  8
Defpoints
 62
     0
100
AcDbPoint
 10
331.9676356657138
 20
23.859742247602
 30
0.0
  0
ENDBLK
  5
32F7
330
32EB
100
AcDbEntity
  8
0
100
AcDbBlockEnd
  0
BLOCK
  5
3303
330
32F9
100
AcDbEntity
  8
0
100
AcDbBlockBegin
  2
*D7
 70
     1
 10
0.0
 20
0.0
 30
0.0
  3
*D7
  1

  0
LINE
  5
339A
330
32F9
100
AcDbEntity
  8
寸法線
 62
     0
370
    -2
100
AcDbLine
 10
264.4609637605014
 20
20.01696996134478
 30
0.0
 11
264.4609637605014
 21
-19.31269662855368
 31
0.0
  0
LINE
  5
339B
330
32F9
100
AcDbEntity
  8
寸法線
 62
     0
370
    -2
100
AcDbLine
 10
284.7498538808371
 20
20.01696996134478
 30
0.0
 11
284.7498538808371
 21
-19.31269662855368
 31
0.0
  0
LINE
  5
339C
330
32F9
100
AcDbEntity
  8
寸法線
 62
     0
370
    -2
100
AcDbLine
 10
267.4609637605013
 20
-16.31269662855368
 30
0.0
 11
281.7498538808371
 21
-16.31269662855368
 31
0.0
  0
INSERT
  5
339D
330
32F9
100
AcDbEntity
  8
寸法線
 62
     0
370
    -2
100
AcDbBlockReference
  2
_Closed
 10
264.4609637605014
 20
-16.31269662855368
 30
0.0
 41
3.0
 42
3.0
 43
3.0
 50
180.0
  0
INSERT
  5
339E
330
32F9
100
AcDbEntity
  8
寸法線
 62
     0
370
    -2
100
AcDbBlockReference
  2
_Closed
 10
284.7498538808371
 20
-16.31269662855368
 30
0.0
 41
3.0
 42
3.0
 43
3.0
  0
MTEXT
  5
339F
330
32F9
100
AcDbEntity
  8
寸法線
 62
     0
100
AcDbMText
 10
274.6054088206692
 20
-12.81220450256943
 30
0.0
 40
5.0
 41
0.0
 71
     5
 72
     1
  1
20
  7
OKANO
 73
     1
 44
1.0
  0
POINT
  5
33A0
330
32F9
100
AcDbEntity
  8
Defpoints
 62
     0
100
AcDbPoint
 10
264.4609637605014
 20
22.01696996134478
 30
0.0
  0
POINT
  5
33A1
330
32F9
100
AcDbEntity
  8
Defpoints
 62
     0
100
AcDbPoint
 10
284.7498538808371
 20
22.01696996134478
 30
0.0
  0
POINT
  5
33A2
330
32F9
100
AcDbEntity
  8
Defpoints
 62
     0
100
AcDbPoint
 10
284.7498538808371
 20
-16.31269662855368
 30
0.0
  0
ENDBLK
  5
3304
330
32F9
100
AcDbEntity
  8
0
100
AcDbBlockEnd
  0
BLOCK
  5
3348
330
333C
100
AcDbEntity
  8
0
100
AcDbBlockBegin
  2
*D8
 70
     1
 10
0.0
 20
0.0
 30
0.0
  3
*D8
  1

  0
LINE
  5
338F
330
333C
100
AcDbEntity
  8
寸法線
 62
     0
370
    -2
100
AcDbLine
 10
210.8515140254043
 20
-3.178851174303844
 30
0.0
 11
210.8515140254043
 21
-20.82885117430382
 31
0.0
  0
LINE
  5
3390
330
333C
100
AcDbEntity
  8
寸法線
 62
     0
370
    -2
100
AcDbLine
 10
213.8515140254043
 20
-3.178851174303844
 30
0.0
 11
213.8515140254043
 21
-20.82885117430382
 31
0.0
  0
LINE
  5
3391
330
333C
100
AcDbEntity
  8
寸法線
 62
     0
370
    -2
100
AcDbLine
 10
207.8515140254043
 20
-17.82885117430382
 30
0.0
 11
204.8515140254043
 21
-17.82885117430382
 31
0.0
  0
LINE
  5
3392
330
333C
100
AcDbEntity
  8
寸法線
 62
     0
370
    -2
100
AcDbLine
 10
216.8515140254043
 20
-17.82885117430382
 30
0.0
 11
224.3515140254043
 21
-17.82885117430382
 31
0.0
  0
LINE
  5
3393
330
333C
100
AcDbEntity
  8
寸法線
 62
     0
370
    -2
100
AcDbLine
 10
210.8515140254043
 20
-17.82885117430382
 30
0.0
 11
213.8515140254043
 21
-17.82885117430382
 31
0.0
  0
INSERT
  5
3394
330
333C
100
AcDbEntity
  8
寸法線
 62
     0
370
    -2
100
AcDbBlockReference
  2
_Closed
 10
210.8515140254043
 20
-17.82885117430382
 30
0.0
 41
3.0
 42
3.0
 43
3.0
  0
INSERT
  5
3395
330
333C
100
AcDbEntity
  8
寸法線
 62
     0
370
    -2
100
AcDbBlockReference
  2
_Closed
 10
213.8515140254043
 20
-17.82885117430382
 30
0.0
 41
3.0
 42
3.0
 43
3.0
 50
180.0
  0
MTEXT
  5
3396
330
333C
100
AcDbEntity
  8
寸法線
 62
     0
100
AcDbMText
 10
222.1015140254043
 20
-14.32885117430382
 30
0.0
 40
5.0
 41
0.0
 71
     5
 72
     1
  1
4
  7
OKANO
 73
     1
 44
1.0
  0
POINT
  5
3397
330
333C
100
AcDbEntity
  8
Defpoints
 62
     0
100
AcDbPoint
 10
210.8515140254043
 20
-1.178851174303844
 30
0.0
  0
POINT
  5
3398
330
333C
100
AcDbEntity
  8
Defpoints
 62
     0
100
AcDbPoint
 10
213.8515140254043
 20
-1.178851174303844
 30
0.0
  0
POINT
  5
3399
330
333C
100
AcDbEntity
  8
Defpoints
 62
     0
100
AcDbPoint
 10
213.8515140254043
 20
-17.82885117430382
 30
0.0
  0
ENDBLK
  5
3349
330
333C
100
AcDbEntity
  8
0
100
AcDbBlockEnd
  0
BLOCK
  5
3377
330
336E
100
AcDbEntity
  8
0
100
AcDbBlockBegin
  2
*D9
 70
     1
 10
0.0
 20
0.0
 30
0.0
  3
*D9
  1

  0
LINE
  5
336F
330
336E
100
AcDbEntity
  8
寸法線
 62
     0
370
    -2
100
AcDbLine
 10
109.0019253689436
 20
125.5763726316214
 30
0.0
 11
126.234902528804
 21
113.5669380426556
 31
0.0
  0
LINE
  5
3370
330
336E
100
AcDbEntity
  8
寸法線
 62
     0
370
    -2
100
AcDbLine
 10
178.1681255220045
 20
77.37535960873668
 30
0.0
 11
180.6294157112557
 21
75.66011892466471
 31
0.0
  0
MTEXT
  5
3371
330
336E
100
AcDbEntity
  8
寸法線
 62
     0
100
AcDbMText
 10
118.3888829856655
 20
123.3007808999676
 30
0.0
 40
5.0
 41
0.0
 71
     5
 72
     1
  1
\U+220557.3
  7
OKANO
 11
0.8204300630837371
 21
-0.5717468946906626
 31
0.0
 73
     1
 44
1.0
  0
LINE
  5
3372
330
336E
100
AcDbEntity
  8
寸法線
 62
     0
370
    -2
100
AcDbLine
 10
175.7068353327533
 20
79.09060029280869
 30
0.0
 11
128.6961927180552
 21
111.8516973585836
 31
0.0
  0
INSERT
  5
3373
330
336E
100
AcDbEntity
  8
寸法線
 62
     0
370
    -2
100
AcDbBlockReference
  2
_Closed
 10
175.7068353327533
 20
79.09060029280869
 30
0.0
 41
3.0
 42
3.0
 43
3.0
 50
145.1278679141529
  0
INSERT
  5
3374
330
336E
100
AcDbEntity
  8
寸法線
 62
     0
370
    -2
100
AcDbBlockReference
  2
_Closed
 10
128.6961927180552
 20
111.8516973585836
 30
0.0
 41
3.0
 42
3.0
 43
3.0
 50
325.1278679141528
  0
POINT
  5
3375
330
336E
100
AcDbEntity
  8
Defpoints
 62
     0
100
AcDbPoint
 10
128.6961927180552
 20
111.8516973585836
 30
0.0
  0
POINT
  5
3376
330
336E
100
AcDbEntity
  8
Defpoints
 62
     0
100
AcDbPoint
 10
175.7068353327533
 20
79.09060029280869
 30
0.0
  0
ENDBLK
  5
3378
330
336E
100
AcDbEntity
  8
0
100
AcDbBlockEnd
  0
BLOCK
  5
3384
330
337A
100
AcDbEntity
  8
0
100
AcDbBlockBegin
  2
*D10
 70
     1
 10
0.0
 20
0.0
 30
0.0
  3
*D10
  1

  0
LINE
  5
3386
330
337A
100
AcDbEntity
  8
寸法線
 62
     0
370
    -2
100
AcDbLine
 10
180.9479939243566
 20
97.26195744347643
 30
0.0
 11
180.9479939243566
 21
102.5903359867048
 31
0.0
  0
LINE
  5
3387
330
337A
100
AcDbEntity
  8
寸法線
 62
     0
370
    -2
100
AcDbLine
 10
210.9375810301901
 20
60.97017044276867
 30
0.0
 11
210.9375810301901
 21
102.5903359867048
 31
0.0
  0
LINE
  5
3388
330
337A
100
AcDbEntity
  8
寸法線
 62
     0
370
    -2
100
AcDbLine
 10
183.9479939243566
 20
99.59033598670481
 30
0.0
 11
207.9375810301901
 21
99.59033598670481
 31
0.0
  0
INSERT
  5
3389
330
337A
100
AcDbEntity
  8
寸法線
 62
     0
370
    -2
100
AcDbBlockReference
  2
_Closed
 10
180.9479939243566
 20
99.59033598670481
 30
0.0
 41
3.0
 42
3.0
 43
3.0
 50
180.0
  0
INSERT
  5
338A
330
337A
100
AcDbEntity
  8
寸法線
 62
     0
370
    -2
100
AcDbBlockReference
  2
_Closed
 10
210.9375810301901
 20
99.59033598670481
 30
0.0
 41
3.0
 42
3.0
 43
3.0
  0
MTEXT
  5
338B
330
337A
100
AcDbEntity
  8
寸法線
 62
     0
100
AcDbMText
 10
195.9427874772733
 20
103.0903359867048
 30
0.0
 40
5.0
 41
0.0
 71
     5
 72
     1
  1
35
  7
OKANO
 73
     1
 44
1.0
  0
POINT
  5
338C
330
337A
100
AcDbEntity
  8
Defpoints
 62
     0
100
AcDbPoint
 10
180.9479939243566
 20
95.26195744347644
 30
0.0
  0
POINT
  5
338D
330
337A
100
AcDbEntity
  8
Defpoints
 62
     0
100
AcDbPoint
 10
210.9375810301901
 20
58.97017044276868
 30
0.0
  0
POINT
  5
338E
330
337A
100
AcDbEntity
  8
Defpoints
 62
     0
100
AcDbPoint
 10
210.9375810301901
 20
99.59033598670481
 30
0.0
  0
ENDBLK
  5
3385
330
337A
100
AcDbEntity
  8
0
100
AcDbBlockEnd
  0
BLOCK
  5
33C9
330
33BF
100
AcDbEntity
  8
0
100
AcDbBlockBegin
  2
*D11
 70
     1
 10
0.0
 20
0.0
 30
0.0
  3
*D11
  1

  0
LINE
  5
33C0
330
33BF
100
AcDbEntity
  8
寸法線
 62
     0
370
    -2
100
AcDbLine
 10
216.8515140254043
 20
58.82114882569616
 30
0.0
 11
233.1852448497678
 21
58.82114882569616
 31
0.0
  0
LINE
  5
33C1
330
33BF
100
AcDbEntity
  8
寸法線
 62
     0
370
    -2
100
AcDbLine
 10
216.8515140254043
 20
-1.178851174303844
 30
0.0
 11
233.1852448497678
 21
-1.178851174303849
 31
0.0
  0
LINE
  5
33C2
330
33BF
100
AcDbEntity
  8
寸法線
 62
     0
370
    -2
100
AcDbLine
 10
230.1852448497678
 20
55.82114882569616
 30
0.0
 11
230.1852448497678
 21
1.821148825696151
 31
0.0
  0
INSERT
  5
33C3
330
33BF
100
AcDbEntity
  8
寸法線
 62
     0
370
    -2
100
AcDbBlockReference
  2
_Closed
 10
230.1852448497678
 20
58.82114882569616
 30
0.0
 41
3.0
 42
3.0
 43
3.0
 50
90.0
  0
INSERT
  5
33C4
330
33BF
100
AcDbEntity
  8
寸法線
 62
     0
370
    -2
100
AcDbBlockReference
  2
_Closed
 10
230.1852448497678
 20
-1.178851174303848
 30
0.0
 41
3.0
 42
3.0
 43
3.0
 50
270.0
  0
MTEXT
  5
33C5
330
33BF
100
AcDbEntity
  8
寸法線
 62
     0
100
AcDbMText
 10
226.6852448497678
 20
28.82114882569619
 30
0.0
 40
5.0
 41
0.0
 71
     5
 72
     1
  1
60
  7
OKANO
 11
0.0000000000000001
 21
1.0
 31
0.0
 73
     1
 44
1.0
  0
POINT
  5
33C6
330
33BF
100
AcDbEntity
  8
Defpoints
 62
     0
100
AcDbPoint
 10
214.8515140254043
 20
58.82114882569616
 30
0.0
  0
POINT
  5
33C7
330
33BF
100
AcDbEntity
  8
Defpoints
 62
     0
100
AcDbPoint
 10
214.8515140254043
 20
-1.178851174303844
 30
0.0
  0
POINT
  5
33C8
330
33BF
100
AcDbEntity
  8
Defpoints
 62
     0
100
AcDbPoint
 10
230.1852448497678
 20
-1.178851174303848
 30
0.0
  0
ENDBLK
  5
33CA
330
33BF
100
AcDbEntity
  8
0
100
AcDbBlockEnd
  0
ENDSEC
  0
SECTION
  2
ENTITIES
  0
TEXT
  5
29C1
330
1F
100
AcDbEntity
  8
文字
100
AcDbText
 10
135.4161920801011
 20
-13.18026072393085
 30
0.0
 40
1.799999999999999
  1
SET SCREW COUP
 51
15.0
  7
OKANO
100
AcDbText
  0
TEXT
  5
29C2
330
1F
100
AcDbEntity
  8
文字
100
AcDbText
 10
129.0977164497356
 20
-16.93247869486121
 30
0.0
 40
2.399999999999999
  1
joint kogyo T.okano
 51
15.0
  7
OKANO
100
AcDbText
  0
TEXT
  5
29C3
330
1F
100
AcDbEntity
  8
文字
100
AcDbText
 10
125.3535599438372
 20
-9.556292941217314
 30
0.0
 40
2.399999999999999
  1
F-999-20050522 Auto CAD
 51
15.0
  7
OKANO
100
AcDbText
  0
LINE
  5
29C4
330
1F
100
AcDbEntity
  8
太線
100
AcDbLine
 10
111.6424458530302
 20
-10.01669676643249
 30
0.0
 11
165.6424458530302
 21
-10.01669676643249
 31
0.0
  0
LWPOLYLINE
  5
29C5
330
1F
100
AcDbEntity
  8
太線
100
AcDbPolyline
 90
        4
 70
     1
 43
0.0
 10
111.6424458530302
 20
-5.816696766432492
 10
165.6424458530302
 20
-5.816696766432492
 10
165.6424458530302
 20
-18.41669676643249
 10
111.6424458530302
 20
-18.41669676643249
  0
TEXT
  5
29C6
330
1F
100
AcDbEntity
  8
文字
100
AcDbText
 10
113.578637636059
 20
-14.11345266585783
 30
0.0
 40
1.199999999999999
  1
CHECK
 51
15.0
  7
OKANO
100
AcDbText
  0
LINE
  5
29C7
330
1F
100
AcDbEntity
  8
太線
100
AcDbLine
 10
123.6424458530302
 20
-5.816696766432492
 30
0.0
 11
123.6424458530302
 21
-18.41669676643249
 31
0.0
  0
TEXT
  5
29C8
330
1F
100
AcDbEntity
  8
文字
100
AcDbText
 10
113.578637636059
 20
-17.57316646896574
 30
0.0
 40
1.199999999999999
  1
ISSUED
 51
15.0
  7
OKANO
100
AcDbText
  0
TEXT
  5
29C9
330
1F
100
AcDbEntity
  8
文字
100
AcDbText
 10
113.7068948525093
 20
-15.90737837433167
 30
0.0
 40
1.199999999999999
  1
APPR
 51
15.0
  7
OKANO
100
AcDbText
  0
TEXT
  5
29CA
330
1F
100
AcDbEntity
  8
文字
100
AcDbText
 10
112.6808398602161
 20
-9.116088677049916
 30
0.0
 40
1.199999999999999
  1
FILM NAME
 51
15.0
  7
OKANO
100
AcDbText
  0
TEXT
  5
29CB
330
1F
100
AcDbEntity
  8
文字
100
AcDbText
 10
113.3221242988821
 20
-12.31952725247831
 30
0.0
 40
1.199999999999999
  1
DRAWN
 51
15.0
  7
OKANO
100
AcDbText
  0
TEXT
  5
29CC
330
1F
100
AcDbEntity
  8
文字
100
AcDbText
 10
125.1969063315694
 20
-13.76741354691552
 30
0.0
 40
2.399999999999999
  1
19-1Ｈ
 51
15.0
  7
OKANO
100
AcDbText
  0
CIRCLE
  5
30DB
330
1F
100
AcDbEntity
  8
太線
100
AcDbCircle
 10
152.2015140254043
 20
95.47114882569616
 30
0.0
 40
24.64999999999999
  0
XLINE
  5
3124
330
1F
100
AcDbEntity
  8
構築線
100
AcDbXline
 10
152.2015140254043
 20
95.47114882569616
 30
0.0
 11
1.0
 21
0.0
 31
0.0
  0
XLINE
  5
3125
330
1F
100
AcDbEntity
  8
構築線
100
AcDbXline
 10
274.7329107425896
 20
95.41676320872022
 30
0.0
 11
0.0
 21
1.0
 31
0.0
  0
LINE
  5
312E
330
1F
100
AcDbEntity
  8
太線
100
AcDbLine
 10
244.7329107425896
 20
122.1211488256961
 30
0.0
 11
304.7329107425896
 21
122.1211488256961
 31
0.0
  0
LINE
  5
312F
330
1F
100
AcDbEntity
  8
太線
100
AcDbLine
 10
304.7329107425896
 20
122.1211488256961
 30
0.0
 11
304.7329107425896
 21
68.82114882569616
 31
0.0
  0
LINE
  5
3131
330
1F
100
AcDbEntity
  8
太線
100
AcDbLine
 10
244.7329107425896
 20
68.82114882569616
 30
0.0
 11
244.7329107425896
 21
122.1211488256961
 31
0.0
  0
LINE
  5
3163
330
1F
100
AcDbEntity
  8
想像線
100
AcDbLine
 10
244.7329107425896
 20
120.1211488256961
 30
0.0
 11
304.7329107425896
 21
120.1211488256961
 31
0.0
  0
LINE
  5
3164
330
1F
100
AcDbEntity
  8
想像線
100
AcDbLine
 10
244.7329107425896
 20
70.82114882569618
 30
0.0
 11
304.7329107425896
 21
70.82114882569618
 31
0.0
  0
DIMENSION
  5
319B
330
1F
100
AcDbEntity
  8
寸法線
100
AcDbDimension
  2
*D2
 10
129.8055733994784
 20
85.17336540012328
 30
0.0
 11
201.2855341109598
 21
118.0402660126025
 31
0.0
 70
   163
 71
     5
 42
49.29999999999996
  3
sunpo
100
AcDbDiametricDimension
 15
174.5974546513301
 25
105.768932251269
 35
0.0
 40
0.0
1001
ACAD
1000
DSTYLE
1002
{
1070
    40
1040
1.0
1070
   288
1070
     1
1002
}
  0
LINE
  5
31D5
330
1F
100
AcDbEntity
  8
太線
100
AcDbLine
 10
287.7329107425896
 20
68.82114882569616
 30
0.0
 11
304.7329107425896
 21
68.82114882569616
 31
0.0
  0
LINE
  5
31D6
330
1F
100
AcDbEntity
  8
太線
100
AcDbLine
 10
304.7329107425896
 20
68.82114882569616
 30
0.0
 11
304.7329107425896
 21
77.80706606354818
 31
0.0
  0
XLINE
  5
31DA
330
1F
100
AcDbEntity
  8
構築線
100
AcDbXline
 10
152.2015140254043
 20
28.82114882569615
 30
0.0
 11
1.0
 21
0.0
 31
0.0
  0
ARC
  5
31E9
330
1F
100
AcDbEntity
  8
構築線
100
AcDbCircle
 10
208.2609772166649
 20
89.34933588744836
 30
0.0
 40
65.57937313330636
100
AcDbArc
 50
201.3319164894999
 51
272.2639047543117
  0
ARC
  5
31EA
330
1F
100
AcDbEntity
  8
構築線
100
AcDbCircle
 10
204.6430825056211
 20
83.67625056258274
 30
0.0
 40
50.24018104198222
100
AcDbArc
 50
200.3501606590969
 51
277.0984725934574
  0
ARC
  5
31EB
330
1F
100
AcDbEntity
  8
太線
100
AcDbCircle
 10
203.3268340237708
 20
80.6081251827152
 30
0.0
 40
47.38820492231418
100
AcDbArc
 50
200.213172786073
 51
275.8505662119244
  0
ARC
  5
31EC
330
1F
100
AcDbEntity
  8
太線
100
AcDbCircle
 10
204.526481055435
 20
83.41325492274144
 30
0.0
 40
59.92683164620587
100
AcDbArc
 50
197.2114570386927
 51
273.0289006183159
  0
CIRCLE
  5
31FD
330
1F
100
AcDbEntity
  8
太線
100
AcDbCircle
 10
274.7329107425896
 20
28.82114882569615
 30
0.0
 40
30.0
  0
CIRCLE
  5
3200
330
1F
100
AcDbEntity
  8
構築線
100
AcDbCircle
 10
287.7329107425896
 20
46.63058351594822
 30
0.0
 40
3.0
  0
CIRCLE
  5
3201
330
1F
100
AcDbEntity
  8
太線
100
AcDbCircle
 10
289.1897918005189
 20
46.63058351594822
 30
0.0
 40
3.0
  0
CIRCLE
  5
3203
330
1F
100
AcDbEntity
  8
太線
100
AcDbCircle
 10
274.7329107425896
 20
46.63058351594822
 30
0.0
 40
5.5
  0
CIRCLE
  5
3204
330
1F
100
AcDbEntity
  8
太線
100
AcDbCircle
 10
274.7329107425896
 20
10.82114882569615
 30
0.0
 40
5.5
  0
LINE
  5
3207
330
1F
100
AcDbEntity
  8
太線
100
AcDbLine
 10
213.8515140254043
 20
-1.178851174303844
 30
0.0
 11
210.8515140254043
 21
-1.178851174303844
 31
0.0
  0
LINE
  5
3208
330
1F
100
AcDbEntity
  8
太線
100
AcDbLine
 10
210.8515140254043
 20
-1.178851174303844
 30
0.0
 11
210.8515140254043
 21
20.57433150119836
 31
0.0
  0
LINE
  5
3209
330
1F
100
AcDbEntity
  8
太線
100
AcDbLine
 10
210.8515140254043
 20
58.82114882569616
 30
0.0
 11
213.8515140254043
 21
58.82114882569616
 31
0.0
  0
ARC
  5
320B
330
1F
100
AcDbEntity
  8
破線
100
AcDbCircle
 10
279.7329107425896
 20
28.82114882569615
 30
0.0
 40
5.0
100
AcDbArc
 50
270.0
 51
90.0
  0
ARC
  5
320C
330
1F
100
AcDbEntity
  8
破線
100
AcDbCircle
 10
269.7329107425896
 20
28.82114882569615
 30
0.0
 40
5.0
100
AcDbArc
 50
90.0
 51
270.0
  0
LINE
  5
320D
330
1F
100
AcDbEntity
  8
破線
100
AcDbLine
 10
269.7329107425896
 20
33.82114882569615
 30
0.0
 11
279.7329107425896
 21
33.82114882569615
 31
0.0
  0
LINE
  5
320E
330
1F
100
AcDbEntity
  8
破線
100
AcDbLine
 10
279.7329107425896
 20
23.82114882569615
 30
0.0
 11
269.7329107425896
 21
23.82114882569615
 31
0.0
  0
LINE
  5
320F
330
1F
100
AcDbEntity
  8
太線
100
AcDbLine
 10
284.7329107425896
 20
57.10542007315805
 30
0.0
 11
284.7329107425896
 21
65.82114882569616
 31
0.0
  0
CIRCLE
  5
3211
330
1F
100
AcDbEntity
  8
太線
100
AcDbCircle
 10
260.4581391304066
 20
46.63058351594822
 30
0.0
 40
3.0
  0
CIRCLE
  5
3212
330
1F
100
AcDbEntity
  8
太線
100
AcDbCircle
 10
260.4581391304066
 20
10.60148582307721
 30
0.0
 40
3.0
  0
CIRCLE
  5
3213
330
1F
100
AcDbEntity
  8
太線
100
AcDbCircle
 10
289.1897918005189
 20
10.60148582307721
 30
0.0
 40
3.0
  0
ARC
  5
3214
330
1F
100
AcDbEntity
  8
太線
100
AcDbCircle
 10
207.8515140254043
 20
20.57433150119836
 30
0.0
 40
3.0
100
AcDbArc
 50
0.0
 51
93.02890061831623
  0
LINE
  5
3215
330
1F
100
AcDbEntity
  8
太線
100
AcDbLine
 10
210.8515140254044
 20
36.4511324510065
 30
0.0
 11
210.8515140254043
 21
58.82114882569616
 31
0.0
  0
ARC
  5
3216
330
1F
100
AcDbEntity
  8
太線
100
AcDbCircle
 10
207.8515140254043
 20
36.45113245100649
 30
0.0
 40
3.0
100
AcDbArc
 50
275.8505662119246
 51
0.0000000000001357
  0
LINE
  5
3232
330
1F
100
AcDbEntity
  8
想像線
100
AcDbLine
 10
214.8515140254043
 20
52.13058351594822
 30
0.0
 11
210.8515140254043
 21
52.13058351594821
 31
0.0
  0
LINE
  5
3233
330
1F
100
AcDbEntity
  8
想像線
100
AcDbLine
 10
214.8515140254043
 20
41.13058351594822
 30
0.0
 11
210.8515140254044
 21
41.13058351594822
 31
0.0
  0
LINE
  5
3234
330
1F
100
AcDbEntity
  8
想像線
100
AcDbLine
 10
214.8515140254043
 20
16.32114882569615
 30
0.0
 11
210.8515140254043
 21
16.32114882569615
 31
0.0
  0
LINE
  5
3235
330
1F
100
AcDbEntity
  8
想像線
100
AcDbLine
 10
214.8515140254043
 20
5.321148825696155
 30
0.0
 11
210.8515140254043
 21
5.321148825696155
 31
0.0
  0
LINE
  5
323A
330
1F
100
AcDbEntity
  8
太線
100
AcDbLine
 10
264.7329107425896
 20
65.82114882569616
 30
0.0
 11
264.7329107425896
 21
57.10542007315805
 31
0.0
  0
LINE
  5
323B
330
1F
100
AcDbEntity
  8
想像線
100
AcDbLine
 10
214.8515140254043
 20
49.73901229314305
 30
0.0
 11
210.8515140254043
 21
49.73901229314305
 31
0.0
  0
LINE
  5
323C
330
1F
100
AcDbEntity
  8
想像線
100
AcDbLine
 10
214.8515140254043
 20
43.27224526212246
 30
0.0
 11
210.8515140254043
 21
43.27224526212245
 31
0.0
  0
LINE
  5
323D
330
1F
100
AcDbEntity
  8
想像線
100
AcDbLine
 10
214.8515140254043
 20
13.67435125820702
 30
0.0
 11
210.8515140254043
 21
13.67435125820702
 31
0.0
  0
LINE
  5
323E
330
1F
100
AcDbEntity
  8
想像線
100
AcDbLine
 10
214.8515140254043
 20
7.705028154026649
 30
0.0
 11
210.8515140254043
 21
7.705028154026649
 31
0.0
  0
LINE
  5
326A
330
1F
100
AcDbEntity
  8
太線
100
AcDbLine
 10
130.6692028411909
 20
67.42102531198091
 30
0.0
 11
127.7641117987496
 21
63.2908104730427
 31
0.0
  0
LINE
  5
326B
330
1F
100
AcDbEntity
  8
想像線
100
AcDbLine
 10
128.0838211338697
 20
63.06593482810386
 30
0.0
 11
131.2643274691506
 21
67.58771203556641
 31
0.0
  0
LINE
  5
326C
330
1F
100
AcDbEntity
  8
太線
100
AcDbLine
 10
131.760478487751
 20
60.47986491130701
 30
0.0
 11
134.6655695301922
 21
64.61007975024519
 31
0.0
  0
LINE
  5
326D
330
1F
100
AcDbEntity
  8
想像線
100
AcDbLine
 10
131.4407691526309
 20
60.70474055624588
 30
0.0
 11
134.6212754879118
 21
65.22651776370842
 31
0.0
  0
LINE
  5
326E
330
1F
100
AcDbEntity
  8
太線
100
AcDbLine
 10
134.5470274174656
 20
65.29081097531892
 30
0.0
 11
131.3499340662645
 21
67.53956742470745
 31
0.0
  0
ARC
  5
326F
330
1F
100
AcDbEntity
  8
太線
100
AcDbCircle
 10
134.265932861292
 20
64.8911743064188
 30
0.0
 40
0.488593508593816
100
AcDbArc
 50
324.8783938121188
 51
54.87839381211886
  0
ARC
  5
3270
330
1F
100
AcDbEntity
  8
太線
100
AcDbCircle
 10
131.0688395100909
 20
67.13993075580735
 30
0.0
 40
0.488593508593816
100
AcDbArc
 50
54.87839381211886
 51
144.8783938121188
  0
ARC
  5
3271
330
1F
100
AcDbEntity
  8
太線
100
AcDbCircle
 10
122.2026063610145
 20
51.13760609615987
 30
0.0
 40
2.052092736094021
100
AcDbArc
 50
131.1042468140918
 51
158.6525408101457
  0
ARC
  5
3272
330
1F
100
AcDbEntity
  8
太線
100
AcDbCircle
 10
122.2026063610145
 20
51.13760609615987
 30
0.0
 40
2.052092736094021
100
AcDbArc
 50
311.1042468140918
 51
338.6525408101456
  0
CIRCLE
  5
3273
330
1F
100
AcDbEntity
  8
太線
100
AcDbCircle
 10
122.2026063610145
 20
51.13760609615987
 30
0.0
 40
3.908748068750528
  0
ARC
  5
3274
330
1F
100
AcDbEntity
  8
太線
100
AcDbCircle
 10
127.6015593553027
 20
62.21044257906889
 30
0.0
 40
1.954374034375264
100
AcDbArc
 50
144.8783938121188
 51
234.8783938121188
  0
LINE
  5
3275
330
1F
100
AcDbEntity
  8
太線
100
AcDbLine
 10
127.7641117987496
 20
63.2908104730427
 30
0.0
 11
126.9648384609494
 21
63.85299958538985
 31
0.0
  0
LINE
  5
3276
330
1F
100
AcDbEntity
  8
想像線
100
AcDbLine
 10
129.5899391630892
 20
60.79103195177239
 30
0.0
 11
129.6742744818095
 21
58.36313945407976
 31
0.0
  0
LINE
  5
3277
330
1F
100
AcDbEntity
  8
太線
100
AcDbLine
 10
131.760478487751
 20
60.47986491130701
 30
0.0
 11
127.7641117987496
 21
63.2908104730427
 31
0.0
  0
LINE
  5
3278
330
1F
100
AcDbEntity
  8
太線
100
AcDbLine
 10
126.4771811306084
 20
60.61189590346831
 30
0.0
 11
129.6742744818095
 21
58.36313945407976
 31
0.0
  0
ARC
  5
3279
330
1F
100
AcDbEntity
  8
太線
100
AcDbCircle
 10
130.7986527065038
 20
59.96168612968033
 30
0.0
 40
1.954374034375264
100
AcDbArc
 50
234.8783938121188
 51
324.8783938121188
  0
ARC
  5
327A
330
1F
100
AcDbEntity
  8
太線
100
AcDbCircle
 10
132.2786572693778
 20
59.51803913005976
 30
0.0
 40
0.488593508593816
100
AcDbArc
 50
324.8783938121188
 51
54.87839381211886
  0
LINE
  5
327B
330
1F
100
AcDbEntity
  8
太線
100
AcDbLine
 10
132.5597518255513
 20
59.91767579895987
 30
0.0
 11
131.760478487751
 21
60.47986491130701
 31
0.0
  0
LINE
  5
327C
330
1F
100
AcDbEntity
  8
太線
100
AcDbLine
 10
132.3971993821043
 20
58.83730790498604
 30
0.0
 11
132.6782939382779
 21
59.23694457388616
 31
0.0
  0
LINE
  5
327D
330
1F
100
AcDbEntity
  8
想像線
100
AcDbLine
 10
128.7906658252889
 20
61.35322106411953
 30
0.0
 11
126.4771811306084
 21
60.61189590346831
 31
0.0
  0
LINE
  5
327E
330
1F
100
AcDbEntity
  8
想像線
100
AcDbLine
 10
128.475364475109
 20
59.20642312260046
 30
0.0
 11
129.5899391630892
 21
60.79103195177239
 31
0.0
  0
LINE
  5
327F
330
1F
100
AcDbEntity
  8
想像線
100
AcDbLine
 10
127.6760911373088
 20
59.7686122349476
 30
0.0
 11
128.7906658252889
 21
61.35322106411953
 31
0.0
  0
LINE
  5
3280
330
1F
100
AcDbEntity
  8
想像線
100
AcDbLine
 10
129.5899391630892
 20
60.79103195177239
 30
0.0
 11
128.7906658252889
 21
61.35322106411953
 31
0.0
  0
LINE
  5
3281
330
1F
100
AcDbEntity
  8
太線
100
AcDbLine
 10
124.1139050556433
 20
50.39059746338501
 30
0.0
 11
123.2829742549883
 21
50.97505365271286
 31
0.0
  0
ARC
  5
3282
330
1F
100
AcDbEntity
  8
太線
100
AcDbCircle
 10
121.9655221355613
 20
52.49906854630729
 30
0.0
 40
0.488593508593816
100
AcDbArc
 50
234.8783938121188
 51
324.8783938121188
  0
ARC
  5
3283
330
1F
100
AcDbEntity
  8
太線
100
AcDbCircle
 10
123.5640688111619
 20
51.37469032161302
 30
0.0
 40
0.488593508593816
100
AcDbArc
 50
144.8783938121188
 51
234.8783938121188
  0
ARC
  5
3284
330
1F
100
AcDbEntity
  8
太線
100
AcDbCircle
 10
122.2026063610145
 20
51.13760609615987
 30
0.0
 40
2.052092736094021
100
AcDbArc
 50
41.10424681409184
 51
68.65254081014573
  0
LINE
  5
3285
330
1F
100
AcDbEntity
  8
太線
100
AcDbLine
 10
123.1644321422617
 20
51.65578487778656
 30
0.0
 11
123.7488883315896
 21
52.48671567844152
 31
0.0
  0
LINE
  5
3286
330
1F
100
AcDbEntity
  8
太線
100
AcDbLine
 10
122.3651588044614
 20
52.21797399013369
 30
0.0
 11
122.9496149937893
 21
53.04890479078864
 31
0.0
  0
LINE
  5
3287
330
1F
100
AcDbEntity
  8
太線
100
AcDbLine
 10
120.8534967787328
 20
52.68388806673497
 30
0.0
 11
121.6844275793877
 21
52.09943187740712
 31
0.0
  0
ARC
  5
3288
330
1F
100
AcDbEntity
  8
太線
100
AcDbCircle
 10
126.6837439047758
 20
63.45336291648973
 30
0.0
 40
0.488593508593816
100
AcDbArc
 50
54.87839381211886
 51
144.8783938121188
  0
LINE
  5
3289
330
1F
100
AcDbEntity
  8
太線
100
AcDbLine
 10
126.2841072358756
 20
63.73445747266329
 30
0.0
 11
126.0030126797021
 21
63.33482080376315
 31
0.0
  0
LINE
  5
328A
330
1F
100
AcDbEntity
  8
太線
100
AcDbLine
 10
122.7207851426411
 20
50.17578031491257
 30
0.0
 11
123.5517159432961
 21
49.59132412558473
 31
0.0
  0
ARC
  5
328B
330
1F
100
AcDbEntity
  8
太線
100
AcDbCircle
 10
120.841143910867
 20
50.90052187070674
 30
0.0
 40
0.488593508593816
100
AcDbArc
 50
324.8783938121188
 51
54.87839381211886
  0
ARC
  5
328C
330
1F
100
AcDbEntity
  8
太線
100
AcDbCircle
 10
122.4396905864676
 20
49.77614364601246
 30
0.0
 40
0.488593508593816
100
AcDbArc
 50
54.87839381211886
 51
144.8783938121188
  0
LINE
  5
328D
330
1F
100
AcDbEntity
  8
太線
100
AcDbLine
 10
121.4555977282396
 20
49.22630740153106
 30
0.0
 11
122.0400539175674
 21
50.05723820218601
 31
0.0
  0
LINE
  5
328E
330
1F
100
AcDbEntity
  8
太線
100
AcDbLine
 10
120.6563243904393
 20
49.78849651387818
 30
0.0
 11
121.2407805797672
 21
50.61942731453314
 31
0.0
  0
ARC
  5
328F
330
1F
100
AcDbEntity
  8
太線
100
AcDbCircle
 10
122.2026063610145
 20
51.13760609615987
 30
0.0
 40
2.052092736094021
100
AcDbArc
 50
221.1042468140919
 51
248.6525408101457
  0
LINE
  5
3290
330
1F
100
AcDbEntity
  8
太線
100
AcDbLine
 10
121.1222384670406
 20
51.30015853960685
 30
0.0
 11
120.2913076663857
 21
51.8846147289347
 31
0.0
  0
DIMENSION
  5
329D
330
1F
100
AcDbEntity
  8
寸法線
100
AcDbDimension
  2
*D3
 10
304.7329107425896
 20
133.839320663297
 30
0.0
 11
274.7329107425896
 21
137.339320663297
 31
0.0
 70
    32
 71
     5
 42
60.0
  3
sunpo
100
AcDbAlignedDimension
 13
244.7329107425896
 23
122.1211488256961
 33
0.0
 14
304.7329107425896
 24
122.1211488256961
 34
0.0
100
AcDbRotatedDimension
1001
ACAD
1000
DSTYLE
1002
{
1070
    40
1040
1.0
1002
}
  0
DIMENSION
  5
32AA
330
1F
100
AcDbEntity
  8
寸法線
100
AcDbDimension
  2
*D4
 10
269.6606241538618
 20
44.50410549776617
 30
0.0
 11
328.732153008134
 21
69.26893402464191
 31
0.0
 70
   163
 71
     5
 42
11.0
  3
sunpo
100
AcDbDiametricDimension
 15
279.8051973313175
 25
48.75706153413028
 35
0.0
 40
0.0
1001
ACAD
1000
DSTYLE
1002
{
1070
    40
1040
1.0
1070
   288
1070
     1
1002
}
  0
DIMENSION
  5
32B6
330
1F
100
AcDbEntity
  8
寸法線
100
AcDbDimension
  2
*D5
 10
286.3224800712072
 20
45.74824375885276
 30
0.0
 11
334.8678161663588
 21
60.6867939068673
 31
0.0
 70
   163
 71
     5
 42
5.999999999999943
  3
sunpo
100
AcDbDiametricDimension
 15
292.0571035298306
 25
47.51292327304367
 35
0.0
 40
0.0
1001
ACAD
1000
DSTYLE
1002
{
1070
    40
1040
1.0
1070
   288
1070
     1
1002
}
  0
DIMENSION
  5
32EA
330
1F
100
AcDbEntity
  8
寸法線
100
AcDbDimension
  2
*D6
 10
331.9676356657138
 20
23.859742247602
 30
0.0
 11
328.4676356657138
 21
28.65095045973099
 31
0.0
 70
    32
  1
10
 71
     5
 42
9.582416424257871
  3
sunpo
100
AcDbAlignedDimension
 13
286.5942985798795
 23
33.44215867185988
 33
0.0
 14
286.5942985798795
 24
23.85974224760201
 34
0.0
 50
90.0
100
AcDbRotatedDimension
1001
ACAD
1000
DSTYLE
1002
{
1070
    40
1040
1.0
1002
}
  0
DIMENSION
  5
32F8
330
1F
100
AcDbEntity
  8
寸法線
100
AcDbDimension
  2
*D7
 10
284.7498538808371
 20
-16.31269662855368
 30
0.0
 11
274.6054088206692
 21
-12.81220450256943
 31
0.0
 70
    32
  1
20
 71
     5
 42
20.28889012033573
  3
sunpo
100
AcDbAlignedDimension
 13
264.4609637605014
 23
22.01696996134478
 33
0.0
 14
284.7498538808371
 24
22.01696996134478
 34
0.0
100
AcDbRotatedDimension
1001
ACAD
1000
DSTYLE
1002
{
1070
    40
1040
1.0
1002
}
  0
LINE
  5
330E
330
1F
100
AcDbEntity
  8
構築線
100
AcDbLine
 10
140.7690648882291
 20
73.63261392232175
 30
0.0
 11
139.6612784537701
 21
71.95594115474584
 31
0.0
  0
ARC
  5
3310
330
1F
100
AcDbEntity
  8
太線
100
AcDbCircle
 10
287.7329107425896
 20
65.82114882569616
 30
0.0
 40
3.0
100
AcDbArc
 50
90.0
 51
180.0
  0
LINE
  5
3311
330
1F
100
AcDbEntity
  8
太線
100
AcDbLine
 10
261.7329107425896
 20
68.82114882569616
 30
0.0
 11
244.7329107425896
 21
68.82114882569616
 31
0.0
  0
ARC
  5
3312
330
1F
100
AcDbEntity
  8
太線
100
AcDbCircle
 10
261.7329107425896
 20
65.82114882569616
 30
0.0
 40
3.0
100
AcDbArc
 50
0.0
 51
90.0
  0
LINE
  5
3313
330
1F
100
AcDbEntity
  8
太線
100
AcDbLine
 10
261.7329107425896
 20
68.82114882569616
 30
0.0
 11
287.7329107425896
 21
68.82114882569616
 31
0.0
  0
DIMENSION
  5
333B
330
1F
100
AcDbEntity
  8
寸法線
100
AcDbDimension
  2
*D8
 10
213.8515140254043
 20
-17.82885117430382
 30
0.0
 11
222.1015140254043
 21
-14.32885117430382
 31
0.0
 70
    32
  1
4
 71
     5
 42
3.0
  3
sunpo
100
AcDbAlignedDimension
 13
210.8515140254043
 23
-1.178851174303844
 33
0.0
 14
213.8515140254043
 24
-1.178851174303844
 34
0.0
100
AcDbRotatedDimension
1001
ACAD
1000
DSTYLE
1002
{
1070
    40
1040
1.0
1002
}
  0
CIRCLE
  5
3353
330
1F
100
AcDbEntity
  8
太線
100
AcDbCircle
 10
152.2015140254043
 20
95.47114882569616
 30
0.0
 40
28.65
  0
ARC
  5
3354
330
1F
100
AcDbEntity
  8
太線
100
AcDbCircle
 10
161.6723383581543
 20
65.27138083886903
 30
0.0
 40
3.0
100
AcDbArc
 50
107.4117306599063
 51
200.2131727860729
  0
ARC
  5
3355
330
1F
100
AcDbEntity
  8
太線
100
AcDbCircle
 10
144.4175624952121
 20
64.79326430645952
 30
0.0
 40
3.0
100
AcDbArc
 50
17.21145703869275
 51
75.7627007905814
  0
LINE
  5
3356
330
1F
100
AcDbEntity
  8
想像線
100
AcDbLine
 10
140.7690648882291
 20
73.63261392232175
 30
0.0
 11
138.5542341134946
 21
70.28039157217185
 31
0.0
  0
LINE
  5
3357
330
1F
100
AcDbEntity
  8
想像線
100
AcDbLine
 10
136.5973708730864
 20
76.38887389627614
 30
0.0
 11
134.382540098352
 21
73.03665154612623
 31
0.0
  0
DIMENSION
  5
336D
330
1F
100
AcDbEntity
  8
寸法線
100
AcDbDimension
  2
*D9
 10
175.7068353327533
 20
79.09060029280869
 30
0.0
 11
116.3877688542482
 21
120.4292756791745
 31
0.0
 70
    35
 71
     5
 42
57.29999999999997
  3
sunpo
100
AcDbDiametricDimension
 15
128.6961927180552
 25
111.8516973585836
 35
0.0
 40
0.0
1001
ACAD
1000
DSTYLE
1002
{
1070
    40
1040
1.0
1070
   288
1070
     1
1002
}
  0
DIMENSION
  5
3379
330
1F
100
AcDbEntity
  8
寸法線
100
AcDbDimension
  2
*D10
 10
210.9375810301901
 20
99.59033598670481
 30
0.0
 11
195.9427874772733
 21
103.0903359867048
 31
0.0
 70
    32
  1
35
 71
     5
 42
29.98958710583349
  3
sunpo
100
AcDbAlignedDimension
 13
180.9479939243566
 23
95.26195744347644
 33
0.0
 14
210.9375810301901
 24
58.97017044276868
 34
0.0
100
AcDbRotatedDimension
1001
ACAD
1000
DSTYLE
1002
{
1070
    40
1040
1.0
1002
}
  0
XLINE
  5
33AD
330
1F
100
AcDbEntity
  8
構築線
370
     5
100
AcDbXline
 10
150.4515140254043
 20
178.0193172078315
 30
0.0
 11
0.0
 21
-1.0
 31
0.0
  0
LINE
  5
33B0
330
1F
100
AcDbEntity
  8
想像線
100
AcDbLine
 10
150.4515140254043
 20
70.88334697193136
 30
0.0
 11
150.4515140254043
 21
66.87464554295195
 31
0.0
  0
LINE
  5
33B1
330
1F
100
AcDbEntity
  8
想像線
100
AcDbLine
 10
153.9515140254043
 20
70.82114882569619
 30
0.0
 11
153.9515140254043
 21
66.87464554295195
 31
0.0
  0
LINE
  5
33B2
330
1F
100
AcDbEntity
  8
想像線
100
AcDbLine
 10
292.9829107425896
 20
70.82114882569618
 30
0.0
 11
292.9829107425896
 21
68.82114882569616
 31
0.0
  0
LINE
  5
33B3
330
1F
100
AcDbEntity
  8
想像線
100
AcDbLine
 10
296.4829107425896
 20
70.82114882569618
 30
0.0
 11
296.4829107425896
 21
68.82114882569616
 31
0.0
  0
LEADER
  5
33B4
330
1F
100
AcDbEntity
  8
想像線
100
AcDbLeader
  3
sunpo
 76
     2
 10
153.0680509215556
 20
67.2801951190882
 30
0.0
 10
176.4492582454764
 20
62.14556172440405
 30
0.0
1001
ACAD
1000
DSTYLE
1002
{
1070
   147
1040
1.0
1070
    77
1070
     0
1002
}
  0
LEADER
  5
33B5
330
1F
100
AcDbEntity
  8
想像線
100
AcDbLeader
  3
sunpo
 76
     2
 10
130.4576530574821
 20
58.80805048578833
 30
0.0
 10
137.137998220769
 20
38.52624912979285
 30
0.0
1001
ACAD
1000
DSTYLE
1002
{
1070
   147
1040
1.0
1070
    77
1070
     0
1002
}
  0
TEXT
  5
33B6
330
1F
100
AcDbEntity
  8
文字
100
AcDbText
 10
131.3210124090795
 20
34.54925250808908
 30
0.0
 40
2.399999999999999
  1
Ｍ　5-8
 51
15.0
  7
OKANO
100
AcDbText
  0
TEXT
  5
33B8
330
1F
100
AcDbEntity
  8
文字
100
AcDbText
 10
177.8264915670833
 20
60.74342992017764
 30
0.0
 40
2.399999999999999
  1
Φ3.5mm
 51
15.0
  7
OKANO
100
AcDbText
  0
LINE
  5
33BB
330
1F
100
AcDbEntity
  8
太線
100
AcDbLine
 10
213.8515140254043
 20
58.82114882569616
 30
0.0
 11
214.8515140254043
 21
58.82114882569616
 31
0.0
  0
LINE
  5
33BC
330
1F
100
AcDbEntity
  8
太線
100
AcDbLine
 10
214.8515140254043
 20
58.82114882569616
 30
0.0
 11
214.8515140254043
 21
-1.178851174303844
 31
0.0
  0
LINE
  5
33BD
330
1F
100
AcDbEntity
  8
太線
100
AcDbLine
 10
214.8515140254043
 20
-1.178851174303844
 30
0.0
 11
213.8515140254043
 21
-1.178851174303844
 31
0.0
  0
DIMENSION
  5
33BE
330
1F
100
AcDbEntity
  8
寸法線
100
AcDbDimension
  2
*D11
 10
230.1852448497678
 20
-1.178851174303848
 30
0.0
 11
226.6852448497678
 21
28.82114882569619
 31
0.0
 70
    32
 71
     5
 42
60.0
  3
sunpo
100
AcDbAlignedDimension
 13
214.8515140254043
 23
58.82114882569616
 33
0.0
 14
214.8515140254043
 24
-1.178851174303844
 34
0.0
 50
90.0
100
AcDbRotatedDimension
1001
ACAD
1000
DSTYLE
1002
{
1070
    40
1040
1.0
1002
}
  0
VIEWPORT
  5
2E
330
1B
100
AcDbEntity
 67
     1
  8
0
100
AcDbViewport
 10
243.2870211215675
 20
115.3799615402248
 30
0.0
 40
541.4552229853621
 41
275.0067623592671
 68
     2
 69
     1
 12
243.2870211215675
 22
115.3799615402248
 13
0.0
 23
0.0
 14
10.0
 24
10.0
 15
10.0
 25
10.0
 16
0.0
 26
0.0
 36
1.0
 17
0.0
 27
0.0
 37
0.0
 42
50.0
 43
0.0
 44
0.0
 45
275.0067623592671
 50
0.0
 51
0.0
 72
   100
 90
    32800
  1

281
     0
 71
     1
 74
     0
110
0.0
120
0.0
130
0.0
111
1.0
121
0.0
131
0.0
112
0.0
122
1.0
132
0.0
 79
     0
146
0.0
  0
VIEWPORT
  5
30
330
1B
100
AcDbEntity
 67
     1
  8
70-0-CON
100
AcDbViewport
 10
141.8594093064315
 20
100.3480256368386
 30
0.0
 40
261.6199023344245
 41
192.6196987113174
 68
     1
 69
     2
 12
231.1345908659832
 22
74.20466649094063
 13
0.0
 23
0.0
 14
5.0
 24
5.0
 15
10.0
 25
10.0
 16
0.0
 26
0.0
 36
1.0
 17
0.0
 27
0.0
 37
0.0
 42
50.0
 43
0.0
 44
0.0
 45
214.5828862387004
 50
0.0
 51
0.0
 72
   100
 90
    32864
  1

281
     0
 71
     1
 74
     0
110
0.0
120
0.0
130
0.0
111
1.0
121
0.0
131
0.0
112
0.0
122
1.0
132
0.0
 79
     0
146
0.0
  0
LWPOLYLINE
  5
45
330
1B
100
AcDbEntity
 67
     1
  8
50-0-CON
100
AcDbPolyline
 90
        4
 70
     1
 43
0.0
 10
11.04945813921926
 20
4.038176281179858
 10
272.2125713060605
 20
4.033520706629644
 10
273.4987754093466
 20
195.9297862125246
 10
11.04945813921926
 20
196.6578749924973
  0
LINE
  5
4A
330
1B
100
AcDbEntity
 67
     1
  8
50-0-CON
100
AcDbLine
 10
10.38768783662635
 20
100.3480256368386
 30
0.0
 11
-4.391850629656119
 21
100.3480256368386
 31
0.0
  0
LINE
  5
4B
330
1B
100
AcDbEntity
 67
     1
  8
50-0-CON
100
AcDbLine
 10
141.8594093064315
 20
197.098652626247
 30
0.0
 11
141.8594093064315
 21
202.387980773708
 31
0.0
  0
LINE
  5
4C
330
1B
100
AcDbEntity
 67
     1
  8
50-0-CON
100
AcDbLine
 10
272.4487699456857
 20
100.7888032705883
 30
0.0
 11
278.8458837249377
 21
100.7888032705883
 31
0.0
  0
LINE
  5
4D
330
1B
100
AcDbEntity
 67
     1
  8
50-0-CON
100
AcDbLine
 10
140.9770484758805
 20
4.038176281179858
 30
0.0
 11
140.9770484758805
 21
-3.455038652015446
 31
0.0
  0
ENDSEC
  0
SECTION
  2
OBJECTS
  0
DICTIONARY
  5
C
330
0
100
AcDbDictionary
281
     1
  3
ACAD_GROUP
350
D
  3
ACAD_LAYOUT
350
1A
  3
ACAD_MLINESTYLE
350
17
  3
ACAD_PLOTSETTINGS
350
19
  3
ACAD_PLOTSTYLENAME
350
E
  3
AcadDim
350
13D0
  3
AcDbVariableDictionary
350
6AD
  3
DWGPROPS
350
30F
  0
DICTIONARY
  5
D
102
{ACAD_REACTORS
330
C
102
}
330
C
100
AcDbDictionary
281
     1
  0
DICTIONARY
  5
1A
102
{ACAD_REACTORS
330
C
102
}
330
C
100
AcDbDictionary
281
     1
  3
A4
350
1E
  3
Model
350
22
  0
DICTIONARY
  5
17
102
{ACAD_REACTORS
330
C
102
}
330
C
100
AcDbDictionary
281
     1
  3
Standard
350
18
  0
DICTIONARY
  5
19
102
{ACAD_REACTORS
330
C
102
}
330
C
100
AcDbDictionary
281
     1
  0
ACDBDICTIONARYWDFLT
  5
E
102
{ACAD_REACTORS
330
C
102
}
330
C
100
AcDbDictionary
281
     1
  3
Normal
350
F
100
AcDbDictionaryWithDefault
340
F
  0
XRECORD
  5
13D0
102
{ACAD_REACTORS
330
C
102
}
330
C
100
AcDbXrecord
280
     1
 90
   990106
  3

 60
     0
 61
     0
 62
     1
 63
     3
 64
     0
 65
     0
 66
     0
 67
     3
 68
     1
 69
     0
 70
     0
 71
     0
 72
     0
 40
1.562848520931602
170
     0
  0
DICTIONARY
  5
6AD
102
{ACAD_REACTORS
330
C
102
}
330
C
100
AcDbDictionary
281
     1
  3
SORTENTS
350
6AE
  0
XRECORD
  5
30F
102
{ACAD_REACTORS
330
C
102
}
330
C
100
AcDbXrecord
280
     1
  1
DWGPROPS COOKIE
  2

  3

  4

  6

  7

  8

  9

300
=
301
=
302
=
303
=
304
=
305
=
306
=
307
=
308
=
309
=
 40
0.3303803125
 41
2452362.482225463
 42
2452370.969861285
  1

 90
        0
  0
LAYOUT
  5
1E
102
{ACAD_REACTORS
330
1A
102
}
330
1A
100
AcDbPlotSettings
  1

  2
EPSON PM-920C
  4
A4
  6

 40
3.757083177566528
 41
14.7637300491333
 42
3.757080078125
 43
3.757080078125
 44
209.9733276367187
 45
296.9683227539062
 46
0.0
 47
0.0
 48
0.0
 49
0.0
140
0.0
141
0.0
142
1.0
143
1.0
 70
   688
 72
     1
 73
     1
 74
     5
  7
joint.ctb
 75
    16
147
1.0
148
0.0
149
0.0
100
AcDbLayout
  1
A4
 70
     1
 71
     1
 10
-3.757080078125
 20
-3.757083177566528
 11
293.2112426757812
 21
206.2162444591522
 12
0.0
 22
0.0
 32
0.0
 14
-4.391850629656119
 24
-3.455038652015446
 34
0.0
 15
278.8458837249377
 25
202.387980773708
 35
0.0
146
0.0
 13
0.0
 23
0.0
 33
0.0
 16
1.0
 26
0.0
 36
0.0
 17
0.0
 27
1.0
 37
0.0
 76
     0
330
1B
331
30
  0
LAYOUT
  5
22
102
{ACAD_REACTORS
330
1A
102
}
330
1A
100
AcDbPlotSettings
  1

  2
EPSON PM-920C
  4
A4
  6

 40
3.757083177566528
 41
14.7637300491333
 42
3.757080078125
 43
3.757080078125
 44
209.9733276367187
 45
296.9683227539062
 46
0.0
 47
0.0
 48
0.0
 49
0.0
140
0.0
141
0.0
142
1.0
143
1.0
 70
 11952
 72
     1
 73
     1
 74
     0
  7

 75
     0
147
1.0
148
-45.64199848979289
149
-84.48806419330498
100
AcDbLayout
  1
Model
 70
     1
 71
     0
 10
0.0
 20
0.0
 11
12.0
 21
9.0
 12
0.0
 22
0.0
 32
0.0
 14
0.0
 24
0.0
 34
0.0
 15
0.0
 25
0.0
 35
0.0
146
0.0
 13
0.0
 23
0.0
 33
0.0
 16
1.0
 26
0.0
 36
0.0
 17
0.0
 27
1.0
 37
0.0
 76
     0
330
1F
  0
MLINESTYLE
  5
18
102
{ACAD_REACTORS
330
17
102
}
330
17
100
AcDbMlineStyle
  2
STANDARD
 70
     0
  3

 62
   256
 51
90.0
 52
90.0
 71
     2
 49
0.5
 62
   256
  6
BYLAYER
 49
-0.5
 62
   256
  6
BYLAYER
  0
ACDBPLACEHOLDER
  5
F
102
{ACAD_REACTORS
330
E
102
}
330
E
  0
DICTIONARYVAR
  5
6AE
102
{ACAD_REACTORS
330
6AD
102
}
330
6AD
100
DictionaryVariables
280
     0
  1
96
  0
ENDSEC
  0
EOF
