  0
SECTION
  2
HEADER
  9
$ACADVER
  1
AC1015
  9
$ACADMAINTVER
 70
     6
  9
$DWGCODEPAGE
  3
ANSI_932
  9
$INSBASE
 10
0.0
 20
0.0
 30
0.0
  9
$EXTMIN
 10
26.86185418795885
 20
39.87754611594073
 30
0.0
  9
$EXTMAX
 10
547.5346445028747
 20
243.9524292951626
 30
0.0
  9
$LIMMIN
 10
0.0
 20
0.0
  9
$LIMMAX
 10
420.0
 20
297.0
  9
$ORTHOMODE
 70
     1
  9
$REGENMODE
 70
     1
  9
$FILLMODE
 70
     1
  9
$QTEXTMODE
 70
     0
  9
$MIRRTEXT
 70
     1
  9
$LTSCALE
 40
1.0
  9
$ATTMODE
 70
     1
  9
$TEXTSIZE
 40
5.0
  9
$TRACEWID
 40
1.0
  9
$TEXTSTYLE
  7
OKANO
  9
$CLAYER
  8
太線
  9
$CELTYPE
  6
ByLayer
  9
$CECOLOR
 62
   256
  9
$CELTSCALE
 40
1.0
  9
$DISPSILH
 70
     0
  9
$DIMSCALE
 40
0.0
  9
$DIMASZ
 40
3.0
  9
$DIMEXO
 40
2.0
  9
$DIMDLI
 40
8.0
  9
$DIMRND
 40
0.0
  9
$DIMDLE
 40
0.0
  9
$DIMEXE
 40
3.0
  9
$DIMTP
 40
0.0
  9
$DIMTM
 40
0.0
  9
$DIMTXT
 40
5.0
  9
$DIMCEN
 40
2.5
  9
$DIMTSZ
 40
0.0
  9
$DIMTOL
 70
     0
  9
$DIMLIM
 70
     0
  9
$DIMTIH
 70
     0
  9
$DIMTOH
 70
     0
  9
$DIMSE1
 70
     0
  9
$DIMSE2
 70
     0
  9
$DIMTAD
 70
     1
  9
$DIMZIN
 70
     8
  9
$DIMBLK
  1
Closed
  9
$DIMASO
 70
     1
  9
$DIMSHO
 70
     1
  9
$DIMPOST
  1

  9
$DIMAPOST
  1

  9
$DIMALT
 70
     0
  9
$DIMALTD
 70
     3
  9
$DIMALTF
 40
0.03937007874016
  9
$DIMLFAC
 40
1.0
  9
$DIMTOFL
 70
     1
  9
$DIMTVP
 40
0.0
  9
$DIMTIX
 70
     0
  9
$DIMSOXD
 70
     0
  9
$DIMSAH
 70
     0
  9
$DIMBLK1
  1

  9
$DIMBLK2
  1

  9
$DIMSTYLE
  2
sunpo
  9
$DIMCLRD
 70
     0
  9
$DIMCLRE
 70
     0
  9
$DIMCLRT
 70
     0
  9
$DIMTFAC
 40
1.0
  9
$DIMGAP
 40
1.0
  9
$DIMJUST
 70
     0
  9
$DIMSD1
 70
     0
  9
$DIMSD2
 70
     0
  9
$DIMTOLJ
 70
     0
  9
$DIMTZIN
 70
     8
  9
$DIMALTZ
 70
     0
  9
$DIMALTTZ
 70
     0
  9
$DIMUPT
 70
     0
  9
$DIMDEC
 70
     2
  9
$DIMTDEC
 70
     2
  9
$DIMALTU
 70
     2
  9
$DIMALTTD
 70
     3
  9
$DIMTXSTY
  7
OKANO
  9
$DIMAUNIT
 70
     0
  9
$DIMADEC
 70
     0
  9
$DIMALTRND
 40
0.0
  9
$DIMAZIN
 70
     0
  9
$DIMDSEP
 70
    46
  9
$DIMATFIT
 70
     3
  9
$DIMFRAC
 70
     0
  9
$DIMLDRBLK
  1
Closed
  9
$DIMLUNIT
 70
     2
  9
$DIMLWD
 70
    -2
  9
$DIMLWE
 70
    -2
  9
$DIMTMOVE
 70
     0
  9
$LUNITS
 70
     2
  9
$LUPREC
 70
     2
  9
$SKETCHINC
 40
1.0
  9
$FILLETRAD
 40
1.0
  9
$AUNITS
 70
     0
  9
$AUPREC
 70
     0
  9
$MENU
  1
.
  9
$ELEVATION
 40
0.0
  9
$PELEVATION
 40
0.0
  9
$THICKNESS
 40
0.0
  9
$LIMCHECK
 70
     0
  9
$CHAMFERA
 40
6.0
  9
$CHAMFERB
 40
6.0
  9
$CHAMFERC
 40
20.0
  9
$CHAMFERD
 40
0.0
  9
$SKPOLY
 70
     0
  9
$TDCREATE
 40
2452362.482225463
  9
$TDUCREATE
 40
2452362.107225463
  9
$TDUPDATE
 40
2455957.658806817
  9
$TDUUPDATE
 40
2455957.283806817
  9
$TDINDWG
 40
3.0045932523
  9
$TDUSRTIMER
 40
3.0045932523
  9
$USRTIMER
 70
     1
  9
$ANGBASE
 50
0.0
  9
$ANGDIR
 70
     0
  9
$PDMODE
 70
     0
  9
$PDSIZE
 40
0.0
  9
$PLINEWID
 40
0.0
  9
$SPLFRAME
 70
     0
  9
$SPLINETYPE
 70
     6
  9
$SPLINESEGS
 70
     8
  9
$HANDSEED
  5
3D74
  9
$SURFTAB1
 70
     6
  9
$SURFTAB2
 70
     6
  9
$SURFTYPE
 70
     6
  9
$SURFU
 70
     6
  9
$SURFV
 70
     6
  9
$UCSBASE
  2

  9
$UCSNAME
  2

  9
$UCSORG
 10
0.0
 20
0.0
 30
0.0
  9
$UCSXDIR
 10
1.0
 20
0.0
 30
0.0
  9
$UCSYDIR
 10
0.0
 20
1.0
 30
0.0
  9
$UCSORTHOREF
  2

  9
$UCSORTHOVIEW
 70
     0
  9
$UCSORGTOP
 10
0.0
 20
0.0
 30
0.0
  9
$UCSORGBOTTOM
 10
0.0
 20
0.0
 30
0.0
  9
$UCSORGLEFT
 10
0.0
 20
0.0
 30
0.0
  9
$UCSORGRIGHT
 10
0.0
 20
0.0
 30
0.0
  9
$UCSORGFRONT
 10
0.0
 20
0.0
 30
0.0
  9
$UCSORGBACK
 10
0.0
 20
0.0
 30
0.0
  9
$PUCSBASE
  2

  9
$PUCSNAME
  2

  9
$PUCSORG
 10
0.0
 20
0.0
 30
0.0
  9
$PUCSXDIR
 10
1.0
 20
0.0
 30
0.0
  9
$PUCSYDIR
 10
0.0
 20
1.0
 30
0.0
  9
$PUCSORTHOREF
  2

  9
$PUCSORTHOVIEW
 70
     0
  9
$PUCSORGTOP
 10
0.0
 20
0.0
 30
0.0
  9
$PUCSORGBOTTOM
 10
0.0
 20
0.0
 30
0.0
  9
$PUCSORGLEFT
 10
0.0
 20
0.0
 30
0.0
  9
$PUCSORGRIGHT
 10
0.0
 20
0.0
 30
0.0
  9
$PUCSORGFRONT
 10
0.0
 20
0.0
 30
0.0
  9
$PUCSORGBACK
 10
0.0
 20
0.0
 30
0.0
  9
$USERI1
 70
     0
  9
$USERI2
 70
     0
  9
$USERI3
 70
     0
  9
$USERI4
 70
     0
  9
$USERI5
 70
     0
  9
$USERR1
 40
0.0
  9
$USERR2
 40
0.0
  9
$USERR3
 40
0.0
  9
$USERR4
 40
0.0
  9
$USERR5
 40
0.0
  9
$WORLDVIEW
 70
     1
  9
$SHADEDGE
 70
     3
  9
$SHADEDIF
 70
    70
  9
$TILEMODE
 70
     0
  9
$MAXACTVP
 70
    64
  9
$PINSBASE
 10
0.0
 20
0.0
 30
0.0
  9
$PLIMCHECK
 70
     0
  9
$PEXTMIN
 10
-4.391850629656119
 20
-3.455038652015446
 30
0.0
  9
$PEXTMAX
 10
278.8458837249377
 20
202.387980773708
 30
0.0
  9
$PLIMMIN
 10
-3.757080078125
 20
-3.757083177566528
  9
$PLIMMAX
 10
293.2112426757812
 20
206.2162444591522
  9
$UNITMODE
 70
     0
  9
$VISRETAIN
 70
     1
  9
$PLINEGEN
 70
     0
  9
$PSLTSCALE
 70
     1
  9
$TREEDEPTH
 70
  3020
  9
$CMLSTYLE
  2
Standard
  9
$CMLJUST
 70
     0
  9
$CMLSCALE
 40
20.0
  9
$PROXYGRAPHICS
 70
     1
  9
$MEASUREMENT
 70
     1
  9
$CELWEIGHT
370
    -1
  9
$ENDCAPS
280
     0
  9
$JOINSTYLE
280
     0
  9
$LWDISPLAY
290
     0
  9
$INSUNITS
 70
     4
  9
$HYPERLINKBASE
  1

  9
$STYLESHEET
  1

  9
$XEDIT
290
     1
  9
$CEPSNTYPE
380
     0
  9
$PSTYLEMODE
290
     1
  9
$FINGERPRINTGUID
  2
{FF7F33C3-4233-11D6-AEE0-0000F45FD7F4}
  9
$VERSIONGUID
  2
{5DCD5F19-68A0-4700-A7D9-F3DD42F13ED7}
  9
$EXTNAMES
290
     1
  9
$PSVPSCALE
 40
0.0
  9
$OLESTARTUP
290
     0
  0
ENDSEC
  0
SECTION
  2
CLASSES
  0
CLASS
  1
ACDBDICTIONARYWDFLT
  2
AcDbDictionaryWithDefault
  3
AutoCAD 2000
 90
        0
280
     0
281
     0
  0
CLASS
  1
ACDBPLACEHOLDER
  2
AcDbPlaceHolder
  3
AutoCAD 2000
 90
        0
280
     0
281
     0
  0
CLASS
  1
LAYOUT
  2
AcDbLayout
  3
AutoCAD 2000
 90
        0
280
     0
281
     0
  0
CLASS
  1
DICTIONARYVAR
  2
AcDbDictionaryVar
  3
AutoCAD 2000
 90
        0
280
     0
281
     0
  0
ENDSEC
  0
SECTION
  2
TABLES
  0
TABLE
  2
VPORT
  5
8
330
0
100
AcDbSymbolTable
 70
     3
  0
VPORT
  5
3D73
330
8
100
AcDbSymbolTableRecord
100
AcDbViewportTableRecord
  2
*Active
 70
     0
 10
0.0
 20
0.0
 11
1.0
 21
1.0
 12
345.3530993912037
 22
321.0018629311568
 13
0.0
 23
0.0
 14
5.0
 24
5.0
 15
10.0
 25
10.0
 16
0.0
 26
0.0
 36
1.0
 17
0.0
 27
0.0
 37
0.0
 40
1037.525225211914
 41
1.968879668049792
 42
50.0
 43
0.0
 44
0.0
 50
0.0
 51
0.0
 71
     0
 72
   100
 73
     1
 74
     3
 75
     0
 76
     0
 77
     0
 78
     0
281
     0
 65
     1
110
0.0
120
0.0
130
0.0
111
1.0
121
0.0
131
0.0
112
0.0
122
1.0
132
0.0
 79
     0
146
0.0
  0
ENDTAB
  0
TABLE
  2
LTYPE
  5
5
330
0
100
AcDbSymbolTable
 70
     5
  0
LTYPE
  5
14
330
5
100
AcDbSymbolTableRecord
100
AcDbLinetypeTableRecord
  2
ByBlock
 70
     0
  3

 72
    65
 73
     0
 40
0.0
  0
LTYPE
  5
15
330
5
100
AcDbSymbolTableRecord
100
AcDbLinetypeTableRecord
  2
ByLayer
 70
     0
  3

 72
    65
 73
     0
 40
0.0
  0
LTYPE
  5
16
330
5
100
AcDbSymbolTableRecord
100
AcDbLinetypeTableRecord
  2
Continuous
 70
     0
  3
Solid line
 72
    65
 73
     0
 40
0.0
  0
LTYPE
  5
33
330
5
100
AcDbSymbolTableRecord
100
AcDbLinetypeTableRecord
  2
DASHED2
 70
     0
  3
Dashed (.5x) _ _ _ _ _ _ _ _ _ _ _ _ _ _ _ _ _
 72
    65
 73
     2
 40
9.524999999999998
 49
6.349999999999999
 74
     0
 49
-3.174999999999999
 74
     0
  0
LTYPE
  5
34
330
5
100
AcDbSymbolTableRecord
100
AcDbLinetypeTableRecord
  2
CENTER2
 70
     0
  3
Center (.5x) ___ _ ___ _ ___ _ ___ _ ___ _ ___
 72
    65
 73
     4
 40
28.57499999999999
 49
19.05
 74
     0
 49
-3.174999999999999
 74
     0
 49
3.174999999999999
 74
     0
 49
-3.174999999999999
 74
     0
  0
LTYPE
  5
35
330
5
100
AcDbSymbolTableRecord
100
AcDbLinetypeTableRecord
  2
PHANTOM2
 70
     0
  3
Phantom (.5x) ___ _ _ ___ _ _ ___ _ _ ___ _ _
 72
    65
 73
     6
 40
31.75
 49
15.875
 74
     0
 49
-3.174999999999999
 74
     0
 49
3.174999999999999
 74
     0
 49
-3.174999999999999
 74
     0
 49
3.174999999999999
 74
     0
 49
-3.174999999999999
 74
     0
  0
LTYPE
  5
36
330
5
100
AcDbSymbolTableRecord
100
AcDbLinetypeTableRecord
  2
HIDDEN2
 70
     0
  3
Hidden (.5x) _ _ _ _ _ _ _ _ _ _ _ _ _ _ _ _ _
 72
    65
 73
     2
 40
4.762499999999999
 49
3.174999999999999
 74
     0
 49
-1.587499999999999
 74
     0
  0
ENDTAB
  0
TABLE
  2
LAYER
  5
2
330
0
100
AcDbSymbolTable
 70
    13
  0
LAYER
  5
10
330
2
100
AcDbSymbolTableRecord
100
AcDbLayerTableRecord
  2
0
 70
     0
 62
     7
  6
Continuous
370
    -3
390
F
  0
LAYER
  5
40
330
2
100
AcDbSymbolTableRecord
100
AcDbLayerTableRecord
  2
50-0-CON
 70
     0
 62
     4
  6
Continuous
370
    50
390
F
  0
LAYER
  5
41
330
2
100
AcDbSymbolTableRecord
100
AcDbLayerTableRecord
  2
70-0-CON
 70
     0
 62
   202
  6
Continuous
370
    70
390
F
  0
LAYER
  5
4E
330
2
100
AcDbSymbolTableRecord
100
AcDbLayerTableRecord
  2
極太線
 70
     0
 62
     7
  6
Continuous
370
    70
390
F
  0
LAYER
  5
4F
330
2
100
AcDbSymbolTableRecord
100
AcDbLayerTableRecord
  2
細線
 70
     0
 62
     8
  6
Continuous
370
    18
390
F
  0
LAYER
  5
AB
330
2
100
AcDbSymbolTableRecord
100
AcDbLayerTableRecord
  2
構築線
 70
     0
 62
    -2
  6
Continuous
370
    18
390
F
  0
LAYER
  5
B8
330
2
100
AcDbSymbolTableRecord
100
AcDbLayerTableRecord
  2
太線
 70
     0
 62
     7
  6
Continuous
370
    35
390
F
  0
LAYER
  5
B9
330
2
100
AcDbSymbolTableRecord
100
AcDbLayerTableRecord
  2
寸法線
 70
     0
 62
     5
  6
Continuous
370
    18
390
F
  0
LAYER
  5
BA
330
2
100
AcDbSymbolTableRecord
100
AcDbLayerTableRecord
  2
破線
 70
     0
 62
     8
  6
HIDDEN2
370
    18
390
F
  0
LAYER
  5
BB
330
2
100
AcDbSymbolTableRecord
100
AcDbLayerTableRecord
  2
中心線
 70
     0
 62
     1
  6
CENTER2
370
    18
390
F
  0
LAYER
  5
BC
330
2
100
AcDbSymbolTableRecord
100
AcDbLayerTableRecord
  2
想像線
 70
     0
 62
     8
  6
PHANTOM2
370
    18
390
F
  0
LAYER
  5
BD
330
2
100
AcDbSymbolTableRecord
100
AcDbLayerTableRecord
  2
文字
 70
     0
 62
     7
  6
Continuous
370
    18
390
F
  0
LAYER
  5
180
330
2
100
AcDbSymbolTableRecord
100
AcDbLayerTableRecord
  2
Defpoints
 70
     0
 62
     7
  6
Continuous
290
     0
370
    -3
390
F
  0
ENDTAB
  0
TABLE
  2
STYLE
  5
3
330
0
100
AcDbSymbolTable
 70
     3
  0
STYLE
  5
11
330
3
100
AcDbSymbolTableRecord
100
AcDbTextStyleTableRecord
  2
Standard
 70
     0
 40
0.0
 41
1.0
 50
0.0
 71
     0
 42
3.0
  3
txt
  4

  0
STYLE
  5
32
330
3
100
AcDbSymbolTableRecord
100
AcDbTextStyleTableRecord
  2

 70
     1
 40
0.0
 41
1.0
 50
0.0
 71
     0
 42
2.5
  3
ltypeshp.shx
  4

  0
STYLE
  5
50
330
3
100
AcDbSymbolTableRecord
100
AcDbTextStyleTableRecord
  2
OKANO
 70
     0
 40
0.0
 41
1.0
 50
15.0
 71
     0
 42
5.0
  3
isocp.shx
  4
bigfont.shx
  0
ENDTAB
  0
TABLE
  2
VIEW
  5
6
330
0
100
AcDbSymbolTable
 70
     0
  0
ENDTAB
  0
TABLE
  2
UCS
  5
7
330
0
100
AcDbSymbolTable
 70
     0
  0
ENDTAB
  0
TABLE
  2
APPID
  5
9
330
0
100
AcDbSymbolTable
 70
     1
  0
APPID
  5
12
330
9
100
AcDbSymbolTableRecord
100
AcDbRegAppTableRecord
  2
ACAD
 70
     0
  0
ENDTAB
  0
TABLE
  2
DIMSTYLE
  5
A
330
0
100
AcDbSymbolTable
 70
     2
100
AcDbDimStyleTable
 71
     2
340
A2
340
27
  0
DIMSTYLE
105
27
330
A
100
AcDbSymbolTableRecord
100
AcDbDimStyleTableRecord
  2
ISO-25
 70
     0
 41
2.5
 42
0.625
 43
3.75
 44
1.25
 73
     0
 74
     0
 77
     1
 78
     8
140
2.5
141
2.5
143
0.03937007874016
147
0.625
171
     3
172
     1
271
     2
272
     2
274
     3
283
     0
284
     8
340
11
  0
DIMSTYLE
105
A2
102
{ACAD_REACTORS
330
3B76
330
3B83
330
3BAC
330
3BB9
330
3BC6
330
3CF7
330
3D49
102
}
330
A
100
AcDbSymbolTableRecord
100
AcDbDimStyleTableRecord
  2
sunpo
 70
     0
 40
0.0
 41
3.0
 42
2.0
 43
8.0
 44
3.0
 73
     0
 74
     0
 77
     1
 78
     8
140
5.0
141
2.5
143
0.03937007874016
147
1.0
171
     3
172
     1
271
     2
272
     2
274
     3
283
     0
284
     8
340
50
341
9B
342
9B
  0
ENDTAB
  0
TABLE
  2
BLOCK_RECORD
  5
1
330
0
100
AcDbSymbolTable
 70
     9
  0
BLOCK_RECORD
  5
1F
330
1
100
AcDbSymbolTableRecord
100
AcDbBlockTableRecord
  2
*Model_Space
340
22
  0
BLOCK_RECORD
  5
1B
330
1
100
AcDbSymbolTableRecord
100
AcDbBlockTableRecord
  2
*Paper_Space
340
1E
  0
BLOCK_RECORD
  5
9B
330
1
100
AcDbSymbolTableRecord
100
AcDbBlockTableRecord
  2
_Closed
340
0
102
{BLKREFS
331
3B7B
331
3B7C
331
3BBE
331
3BBF
331
3BCD
331
3BCE
331
3D0B
331
3D0C
331
3D14
331
3D15
331
3D29
331
3D2A
331
3D4E
331
3D4F
102
}
  0
BLOCK_RECORD
  5
1510
330
1
100
AcDbSymbolTableRecord
100
AcDbBlockTableRecord
  2
A$C10A573AC
340
0
  0
BLOCK_RECORD
  5
3B77
330
1
100
AcDbSymbolTableRecord
100
AcDbBlockTableRecord
  2
*D2
340
0
  0
BLOCK_RECORD
  5
3B84
330
1
100
AcDbSymbolTableRecord
100
AcDbBlockTableRecord
  2
*D3
340
0
  0
BLOCK_RECORD
  5
3BAD
330
1
100
AcDbSymbolTableRecord
100
AcDbBlockTableRecord
  2
*D4
340
0
  0
BLOCK_RECORD
  5
3BBA
330
1
100
AcDbSymbolTableRecord
100
AcDbBlockTableRecord
  2
*D5
340
0
  0
BLOCK_RECORD
  5
3BC7
330
1
100
AcDbSymbolTableRecord
100
AcDbBlockTableRecord
  2
*D6
340
0
  0
BLOCK_RECORD
  5
3CF8
330
1
100
AcDbSymbolTableRecord
100
AcDbBlockTableRecord
  2
*D7
340
0
  0
BLOCK_RECORD
  5
3D4A
330
1
100
AcDbSymbolTableRecord
100
AcDbBlockTableRecord
  2
*D8
340
0
  0
ENDTAB
  0
ENDSEC
  0
SECTION
  2
BLOCKS
  0
BLOCK
  5
20
330
1F
100
AcDbEntity
  8
0
100
AcDbBlockBegin
  2
*Model_Space
 70
     0
 10
0.0
 20
0.0
 30
0.0
  3
*Model_Space
  1

  0
ENDBLK
  5
21
330
1F
100
AcDbEntity
  8
0
100
AcDbBlockEnd
  0
BLOCK
  5
1C
330
1B
100
AcDbEntity
 67
     1
  8
0
100
AcDbBlockBegin
  2
*Paper_Space
 70
     0
 10
0.0
 20
0.0
 30
0.0
  3
*Paper_Space
  1

  0
ENDBLK
  5
1D
330
1B
100
AcDbEntity
 67
     1
  8
0
100
AcDbBlockEnd
  0
BLOCK
  5
A0
330
9B
100
AcDbEntity
  8
0
100
AcDbBlockBegin
  2
_Closed
 70
     0
 10
0.0
 20
0.0
 30
0.0
  3
_Closed
  1

  0
LINE
  5
9C
330
9B
100
AcDbEntity
  8
0
 62
     0
370
    -2
100
AcDbLine
 10
-1.0
 20
0.1666666666666666
 30
0.0
 11
0.0
 21
0.0
 31
0.0
  0
LINE
  5
9D
330
9B
100
AcDbEntity
  8
0
 62
     0
370
    -2
100
AcDbLine
 10
0.0
 20
0.0
 30
0.0
 11
-1.0
 21
-0.1666666666666666
 31
0.0
  0
LINE
  5
9E
330
9B
100
AcDbEntity
  8
0
 62
     0
370
    -2
100
AcDbLine
 10
-1.0
 20
0.1666666666666666
 30
0.0
 11
-1.0
 21
-0.1666666666666666
 31
0.0
  0
LINE
  5
9F
330
9B
100
AcDbEntity
  8
0
 62
     0
370
    -2
100
AcDbLine
 10
0.0
 20
0.0
 30
0.0
 11
-1.0
 21
0.0
 31
0.0
  0
ENDBLK
  5
A1
330
9B
100
AcDbEntity
  8
0
100
AcDbBlockEnd
  0
BLOCK
  5
155B
330
1510
100
AcDbEntity
  8
0
100
AcDbBlockBegin
  2
A$C10A573AC
 70
     0
 10
0.0
 20
0.0
 30
0.0
  3
A$C10A573AC
  1

  0
TEXT
  5
1511
330
1510
100
AcDbEntity
  8
文字
100
AcDbText
 10
0.9844302777919438
 20
5.224957122252135
 30
0.0
 40
3.0
  1
Materal : Steel.
 51
15.0
  7
OKANO
100
AcDbText
  0
TEXT
  5
1512
330
1510
100
AcDbEntity
  8
文字
100
AcDbText
 10
-0.1141909619694843
 20
0.7500001922403499
 30
0.0
 40
3.0
  1
Surface treatment : Electro galvanized.
 51
15.0
  7
OKANO
100
AcDbText
  0
TEXT
  5
1513
330
1510
100
AcDbEntity
  8
文字
100
AcDbText
 10
-0.4901926332574931
 20
9.159967445193728
 30
0.0
 40
3.0
  1
5 TORGUE SCREW  M5-6
 51
15.0
  7
OKANO
100
AcDbText
  0
TEXT
  5
1514
330
1510
100
AcDbEntity
  8
文字
100
AcDbText
 10
1.364713526390005
 20
78.88822913323082
 30
0.0
 40
3.0
  1
Special standard,
 51
15.0
  7
OKANO
100
AcDbText
  0
TEXT
  5
1515
330
1510
100
AcDbEntity
  8
文字
100
AcDbText
 10
92.88160823408942
 20
89.92753849837379
 30
0.0
 40
3.0
  1
Screw Type
 51
15.0
  7
OKANO
100
AcDbText
  0
LINE
  5
1516
330
1510
100
AcDbEntity
  8
太線
100
AcDbLine
 10
113.9464587597784
 20
81.93930390144641
 30
0.0
 11
112.4464587597784
 21
81.93930390144641
 31
0.0
  0
LINE
  5
1517
330
1510
100
AcDbEntity
  8
太線
100
AcDbLine
 10
112.4464587597784
 20
76.9393039014464
 30
0.0
 11
121.4644995438761
 21
76.9393039014464
 31
0.0
  0
TEXT
  5
1518
330
1510
100
AcDbEntity
  8
文字
100
AcDbText
 10
93.46068240437217
 20
77.96976862235396
 30
0.0
 40
2.0
  1
17-30
 51
15.0
  7
OKANO
100
AcDbText
  0
LINE
  5
1519
330
1510
100
AcDbEntity
  8
太線
100
AcDbLine
 10
111.9464587597784
 20
81.43930390144641
 30
0.0
 11
111.9464587597784
 21
77.4393039014464
 31
0.0
  0
LINE
  5
151A
330
1510
100
AcDbEntity
  8
太線
100
AcDbLine
 10
91.94645875977846
 20
81.43930390144641
 30
0.0
 11
91.94645875977846
 21
77.43930390144639
 31
0.0
  0
LINE
  5
151B
330
1510
100
AcDbEntity
  8
太線
100
AcDbLine
 10
101.9644995438761
 20
77.4393039014464
 30
0.0
 11
101.9644995438761
 21
81.43930390144641
 31
0.0
  0
LINE
  5
151C
330
1510
100
AcDbEntity
  8
太線
100
AcDbLine
 10
92.44645875977846
 20
76.9393039014464
 30
0.0
 11
101.4644995438761
 21
76.9393039014464
 31
0.0
  0
ARC
  5
151D
330
1510
100
AcDbEntity
  8
太線
100
AcDbCircle
 10
92.44645875977846
 20
77.43930390144639
 30
0.0
 40
0.5
100
AcDbArc
 50
180.0
 51
270.0
  0
ARC
  5
151E
330
1510
100
AcDbEntity
  8
太線
100
AcDbCircle
 10
101.4644995438761
 20
77.4393039014464
 30
0.0
 40
0.5
100
AcDbArc
 50
270.0
 51
0.0
  0
ARC
  5
151F
330
1510
100
AcDbEntity
  8
太線
100
AcDbCircle
 10
112.4464587597784
 20
77.4393039014464
 30
0.0
 40
0.5
100
AcDbArc
 50
180.0
 51
270.0
  0
LINE
  5
1520
330
1510
100
AcDbEntity
  8
想像線
100
AcDbLine
 10
93.94645875977847
 20
81.93930390144641
 30
0.0
 11
99.96449954387617
 21
81.93930390144641
 31
0.0
  0
LINE
  5
1521
330
1510
100
AcDbEntity
  8
極太線
100
AcDbLine
 10
96.38762957111168
 20
85.43930390144641
 30
0.0
 11
97.50528794844525
 21
85.43930390144641
 31
0.0
  0
CIRCLE
  5
1522
330
1510
100
AcDbEntity
  8
太線
100
AcDbCircle
 10
96.94645875977847
 20
85.43930390144641
 30
0.0
 40
0.5588291886667776
  0
LINE
  5
1523
330
1510
100
AcDbEntity
  8
太線
100
AcDbLine
 10
99.46449954387617
 20
86.93930390144641
 30
0.0
 11
94.44645875977846
 21
86.93930390144641
 31
0.0
  0
LINE
  5
1524
330
1510
100
AcDbEntity
  8
太線
100
AcDbLine
 10
93.94645875977847
 20
86.43930390144641
 30
0.0
 11
93.94645875977847
 21
81.93930390144641
 31
0.0
  0
ARC
  5
1525
330
1510
100
AcDbEntity
  8
太線
100
AcDbCircle
 10
92.44645875977846
 20
81.43930390144641
 30
0.0
 40
0.5
100
AcDbArc
 50
90.0
 51
180.0
  0
LINE
  5
1526
330
1510
100
AcDbEntity
  8
太線
100
AcDbLine
 10
93.94645875977847
 20
81.93930390144641
 30
0.0
 11
92.44645875977846
 21
81.93930390144641
 31
0.0
  0
ARC
  5
1527
330
1510
100
AcDbEntity
  8
太線
100
AcDbCircle
 10
94.44645875977846
 20
86.43930390144641
 30
0.0
 40
0.5
100
AcDbArc
 50
90.0
 51
180.0
  0
LINE
  5
1528
330
1510
100
AcDbEntity
  8
太線
100
AcDbLine
 10
99.96449954387617
 20
81.93930390144641
 30
0.0
 11
99.96449954387617
 21
86.43930390144641
 31
0.0
  0
LINE
  5
1529
330
1510
100
AcDbEntity
  8
太線
100
AcDbLine
 10
101.4644995438761
 20
81.93930390144641
 30
0.0
 11
99.96449954387617
 21
81.93930390144641
 31
0.0
  0
ARC
  5
152A
330
1510
100
AcDbEntity
  8
太線
100
AcDbCircle
 10
101.4644995438761
 20
81.43930390144641
 30
0.0
 40
0.5
100
AcDbArc
 50
0.0
 51
90.0
  0
ARC
  5
152B
330
1510
100
AcDbEntity
  8
太線
100
AcDbCircle
 10
99.46449954387617
 20
86.43930390144641
 30
0.0
 40
0.5
100
AcDbArc
 50
0.0
 51
90.0
  0
LINE
  5
152C
330
1510
100
AcDbEntity
  8
極太線
100
AcDbLine
 10
96.94645875977847
 20
85.99813309011318
 30
0.0
 11
96.94645875977847
 21
84.88047471277964
 31
0.0
  0
ARC
  5
152D
330
1510
100
AcDbEntity
  8
太線
100
AcDbCircle
 10
112.4464587597784
 20
81.43930390144641
 30
0.0
 40
0.5
100
AcDbArc
 50
90.0
 51
180.0
  0
TEXT
  5
152E
330
1510
100
AcDbEntity
  8
文字
100
AcDbText
 10
134.3819212586066
 20
78.16263579228063
 30
0.0
 40
2.0
  1
101
 51
15.0
  7
OKANO
100
AcDbText
  0
TEXT
  5
152F
330
1510
100
AcDbEntity
  8
文字
100
AcDbText
 10
113.3422276612066
 20
77.96976862235396
 30
0.0
 40
2.0
  1
38-83
 51
15.0
  7
OKANO
100
AcDbText
  0
LINE
  5
1530
330
1510
100
AcDbEntity
  8
太線
100
AcDbLine
 10
141.9825403279738
 20
77.4393039014464
 30
0.0
 11
141.9825403279738
 21
81.43930390144641
 31
0.0
  0
LINE
  5
1531
330
1510
100
AcDbEntity
  8
太線
100
AcDbLine
 10
131.9644995438761
 20
81.43930390144641
 30
0.0
 11
131.9644995438761
 21
77.4393039014464
 31
0.0
  0
LINE
  5
1532
330
1510
100
AcDbEntity
  8
太線
100
AcDbLine
 10
121.9644995438761
 20
77.4393039014464
 30
0.0
 11
121.9644995438761
 21
81.43930390144641
 31
0.0
  0
ARC
  5
1533
330
1510
100
AcDbEntity
  8
太線
100
AcDbCircle
 10
121.4644995438761
 20
77.4393039014464
 30
0.0
 40
0.5
100
AcDbArc
 50
270.0
 51
0.0
  0
LINE
  5
1534
330
1510
100
AcDbEntity
  8
太線
100
AcDbLine
 10
132.4644995438761
 20
76.9393039014464
 30
0.0
 11
141.4825403279738
 21
76.9393039014464
 31
0.0
  0
ARC
  5
1535
330
1510
100
AcDbEntity
  8
太線
100
AcDbCircle
 10
132.4644995438761
 20
77.4393039014464
 30
0.0
 40
0.5
100
AcDbArc
 50
180.0
 51
270.0
  0
ARC
  5
1536
330
1510
100
AcDbEntity
  8
太線
100
AcDbCircle
 10
141.4825403279738
 20
77.4393039014464
 30
0.0
 40
0.5
100
AcDbArc
 50
270.0
 51
0.0
  0
ARC
  5
1537
330
1510
100
AcDbEntity
  8
太線
100
AcDbCircle
 10
121.4644995438761
 20
81.43930390144641
 30
0.0
 40
0.5
100
AcDbArc
 50
0.0
 51
90.0
  0
LINE
  5
1538
330
1510
100
AcDbEntity
  8
太線
100
AcDbLine
 10
119.9644995438761
 20
81.93930390144641
 30
0.0
 11
119.9644995438761
 21
86.43930390144641
 31
0.0
  0
LINE
  5
1539
330
1510
100
AcDbEntity
  8
太線
100
AcDbLine
 10
113.9464587597784
 20
86.43930390144641
 30
0.0
 11
113.9464587597784
 21
81.93930390144641
 31
0.0
  0
LINE
  5
153A
330
1510
100
AcDbEntity
  8
想像線
100
AcDbLine
 10
113.9464587597784
 20
81.93930390144641
 30
0.0
 11
119.9644995438761
 21
81.93930390144641
 31
0.0
  0
LINE
  5
153B
330
1510
100
AcDbEntity
  8
太線
100
AcDbLine
 10
121.4644995438761
 20
81.93930390144641
 30
0.0
 11
119.9644995438761
 21
81.93930390144641
 31
0.0
  0
LINE
  5
153C
330
1510
100
AcDbEntity
  8
太線
100
AcDbLine
 10
119.4644995438761
 20
86.93930390144641
 30
0.0
 11
114.4464587597784
 21
86.93930390144641
 31
0.0
  0
ARC
  5
153D
330
1510
100
AcDbEntity
  8
太線
100
AcDbCircle
 10
114.4464587597784
 20
86.43930390144641
 30
0.0
 40
0.5
100
AcDbArc
 50
90.0
 51
180.0
  0
CIRCLE
  5
153E
330
1510
100
AcDbEntity
  8
太線
100
AcDbCircle
 10
115.4464587597784
 20
85.43930390144641
 30
0.0
 40
0.5588291886667776
  0
LINE
  5
153F
330
1510
100
AcDbEntity
  8
極太線
100
AcDbLine
 10
115.4464587597784
 20
85.99813309011318
 30
0.0
 11
115.4464587597784
 21
84.88047471277964
 31
0.0
  0
LINE
  5
1540
330
1510
100
AcDbEntity
  8
極太線
100
AcDbLine
 10
114.8876295711116
 20
85.43930390144641
 30
0.0
 11
116.0052879484452
 21
85.43930390144641
 31
0.0
  0
ARC
  5
1541
330
1510
100
AcDbEntity
  8
太線
100
AcDbCircle
 10
119.4644995438761
 20
86.43930390144641
 30
0.0
 40
0.5
100
AcDbArc
 50
0.0
 51
90.0
  0
LINE
  5
1542
330
1510
100
AcDbEntity
  8
極太線
100
AcDbLine
 10
117.9056703552094
 20
85.43930390144641
 30
0.0
 11
119.0233287325429
 21
85.43930390144641
 31
0.0
  0
LINE
  5
1543
330
1510
100
AcDbEntity
  8
極太線
100
AcDbLine
 10
118.4644995438761
 20
85.99813309011318
 30
0.0
 11
118.4644995438761
 21
84.88047471277964
 31
0.0
  0
CIRCLE
  5
1544
330
1510
100
AcDbEntity
  8
太線
100
AcDbCircle
 10
118.4644995438761
 20
85.43930390144641
 30
0.0
 40
0.5588291886667776
  0
LINE
  5
1545
330
1510
100
AcDbEntity
  8
想像線
100
AcDbLine
 10
133.9644995438761
 20
81.93930390144641
 30
0.0
 11
139.9825403279738
 21
81.93930390144641
 31
0.0
  0
LINE
  5
1546
330
1510
100
AcDbEntity
  8
極太線
100
AcDbLine
 10
137.9237111393071
 20
85.43930390144641
 30
0.0
 11
139.0413695166406
 21
85.43930390144641
 31
0.0
  0
CIRCLE
  5
1547
330
1510
100
AcDbEntity
  8
太線
100
AcDbCircle
 10
138.4825403279738
 20
85.43930390144641
 30
0.0
 40
0.5588291886667776
  0
CIRCLE
  5
1548
330
1510
100
AcDbEntity
  8
太線
100
AcDbCircle
 10
138.4825403279738
 20
83.26342923362075
 30
0.0
 40
0.5588291886667776
  0
LINE
  5
1549
330
1510
100
AcDbEntity
  8
極太線
100
AcDbLine
 10
137.9237111393071
 20
83.26342923362075
 30
0.0
 11
139.0413695166406
 21
83.26342923362075
 31
0.0
  0
LINE
  5
154A
330
1510
100
AcDbEntity
  8
太線
100
AcDbLine
 10
139.4825403279738
 20
86.93930390144641
 30
0.0
 11
134.4644995438761
 21
86.93930390144641
 31
0.0
  0
LINE
  5
154B
330
1510
100
AcDbEntity
  8
太線
100
AcDbLine
 10
133.9644995438761
 20
86.43930390144641
 30
0.0
 11
133.9644995438761
 21
81.93930390144641
 31
0.0
  0
ARC
  5
154C
330
1510
100
AcDbEntity
  8
太線
100
AcDbCircle
 10
132.4644995438761
 20
81.43930390144641
 30
0.0
 40
0.5
100
AcDbArc
 50
90.0
 51
180.0
  0
LINE
  5
154D
330
1510
100
AcDbEntity
  8
太線
100
AcDbLine
 10
133.9644995438761
 20
81.93930390144641
 30
0.0
 11
132.4644995438761
 21
81.93930390144641
 31
0.0
  0
LINE
  5
154E
330
1510
100
AcDbEntity
  8
極太線
100
AcDbLine
 10
134.9056703552093
 20
83.26342923362075
 30
0.0
 11
136.0233287325429
 21
83.26342923362075
 31
0.0
  0
LINE
  5
154F
330
1510
100
AcDbEntity
  8
極太線
100
AcDbLine
 10
135.4644995438761
 20
83.82225842228752
 30
0.0
 11
135.4644995438761
 21
82.70460004495395
 31
0.0
  0
CIRCLE
  5
1550
330
1510
100
AcDbEntity
  8
太線
100
AcDbCircle
 10
135.4644995438761
 20
83.26342923362075
 30
0.0
 40
0.5588291886667776
  0
ARC
  5
1551
330
1510
100
AcDbEntity
  8
太線
100
AcDbCircle
 10
134.4644995438761
 20
86.43930390144641
 30
0.0
 40
0.5
100
AcDbArc
 50
90.0
 51
180.0
  0
CIRCLE
  5
1552
330
1510
100
AcDbEntity
  8
太線
100
AcDbCircle
 10
135.4644995438761
 20
85.43930390144641
 30
0.0
 40
0.5588291886667776
  0
LINE
  5
1553
330
1510
100
AcDbEntity
  8
極太線
100
AcDbLine
 10
135.4644995438761
 20
85.99813309011318
 30
0.0
 11
135.4644995438761
 21
84.88047471277964
 31
0.0
  0
LINE
  5
1554
330
1510
100
AcDbEntity
  8
極太線
100
AcDbLine
 10
134.9056703552093
 20
85.43930390144641
 30
0.0
 11
136.0233287325429
 21
85.43930390144641
 31
0.0
  0
LINE
  5
1555
330
1510
100
AcDbEntity
  8
太線
100
AcDbLine
 10
139.9825403279738
 20
81.93930390144641
 30
0.0
 11
139.9825403279738
 21
86.43930390144641
 31
0.0
  0
ARC
  5
1556
330
1510
100
AcDbEntity
  8
太線
100
AcDbCircle
 10
141.4825403279738
 20
81.43930390144641
 30
0.0
 40
0.5
100
AcDbArc
 50
0.0
 51
90.0
  0
LINE
  5
1557
330
1510
100
AcDbEntity
  8
極太線
100
AcDbLine
 10
138.4825403279738
 20
83.82225842228752
 30
0.0
 11
138.4825403279738
 21
82.70460004495395
 31
0.0
  0
LINE
  5
1558
330
1510
100
AcDbEntity
  8
太線
100
AcDbLine
 10
141.4825403279738
 20
81.93930390144641
 30
0.0
 11
139.9825403279738
 21
81.93930390144641
 31
0.0
  0
ARC
  5
1559
330
1510
100
AcDbEntity
  8
太線
100
AcDbCircle
 10
139.4825403279738
 20
86.43930390144641
 30
0.0
 40
0.5
100
AcDbArc
 50
0.0
 51
90.0
  0
LINE
  5
155A
330
1510
100
AcDbEntity
  8
極太線
100
AcDbLine
 10
138.4825403279738
 20
85.99813309011318
 30
0.0
 11
138.4825403279738
 21
84.88047471277964
 31
0.0
  0
ENDBLK
  5
155C
330
1510
100
AcDbEntity
  8
0
100
AcDbBlockEnd
  0
BLOCK
  5
3B81
330
3B77
100
AcDbEntity
  8
0
100
AcDbBlockBegin
  2
*D2
 70
     1
 10
0.0
 20
0.0
 30
0.0
  3
*D2
  1

  0
LINE
  5
3B78
330
3B77
100
AcDbEntity
  8
寸法線
 62
     0
370
    -2
100
AcDbLine
 10
337.2518329243878
 20
131.1116988020076
 30
0.0
 11
337.2518329243878
 21
91.88984311811612
 31
0.0
  0
LINE
  5
3B79
330
3B77
100
AcDbEntity
  8
寸法線
 62
     0
370
    -2
100
AcDbLine
 10
441.2518329243878
 20
131.1116988020077
 30
0.0
 11
441.2518329243878
 21
91.88984311811612
 31
0.0
  0
LINE
  5
3B7A
330
3B77
100
AcDbEntity
  8
寸法線
 62
     0
370
    -2
100
AcDbLine
 10
340.2518329243878
 20
94.88984311811611
 30
0.0
 11
438.2518329243878
 21
94.88984311811611
 31
0.0
  0
INSERT
  5
3B7B
330
3B77
100
AcDbEntity
  8
寸法線
 62
     0
370
    -2
100
AcDbBlockReference
  2
_Closed
 10
337.2518329243878
 20
94.88984311811611
 30
0.0
 41
3.0
 42
3.0
 43
3.0
 50
180.0
  0
INSERT
  5
3B7C
330
3B77
100
AcDbEntity
  8
寸法線
 62
     0
370
    -2
100
AcDbBlockReference
  2
_Closed
 10
441.2518329243878
 20
94.88984311811611
 30
0.0
 41
3.0
 42
3.0
 43
3.0
  0
MTEXT
  5
3B7D
330
3B77
100
AcDbEntity
  8
寸法線
 62
     0
100
AcDbMText
 10
389.2518329243878
 20
98.38984311811612
 30
0.0
 40
5.0
 41
0.0
 71
     5
 72
     1
  1
104
  7
OKANO
 73
     1
 44
1.0
  0
POINT
  5
3B7E
330
3B77
100
AcDbEntity
  8
Defpoints
 62
     0
100
AcDbPoint
 10
337.2518329243878
 20
133.1116988020076
 30
0.0
  0
POINT
  5
3B7F
330
3B77
100
AcDbEntity
  8
Defpoints
 62
     0
100
AcDbPoint
 10
441.2518329243878
 20
133.1116988020077
 30
0.0
  0
POINT
  5
3B80
330
3B77
100
AcDbEntity
  8
Defpoints
 62
     0
100
AcDbPoint
 10
441.2518329243878
 20
94.88984311811611
 30
0.0
  0
ENDBLK
  5
3B82
330
3B77
100
AcDbEntity
  8
0
100
AcDbBlockEnd
  0
BLOCK
  5
3B8E
330
3B84
100
AcDbEntity
  8
0
100
AcDbBlockBegin
  2
*D3
 70
     1
 10
0.0
 20
0.0
 30
0.0
  3
*D3
  1

  0
LINE
  5
3D26
330
3B84
100
AcDbEntity
  8
寸法線
 62
     0
370
    -2
100
AcDbLine
 10
437.2518329243878
 20
127.1116988020077
 30
0.0
 11
466.5778720441105
 21
127.1116988020077
 31
0.0
  0
LINE
  5
3D27
330
3B84
100
AcDbEntity
  8
寸法線
 62
     0
370
    -2
100
AcDbLine
 10
437.2518329243878
 20
204.6136658079219
 30
0.0
 11
466.5778720441105
 21
204.6136658079218
 31
0.0
  0
LINE
  5
3D28
330
3B84
100
AcDbEntity
  8
寸法線
 62
     0
370
    -2
100
AcDbLine
 10
463.5778720441106
 20
130.1116988020077
 30
0.0
 11
463.5778720441106
 21
201.6136658079218
 31
0.0
  0
INSERT
  5
3D29
330
3B84
100
AcDbEntity
  8
寸法線
 62
     0
370
    -2
100
AcDbBlockReference
  2
_Closed
 10
463.5778720441105
 20
127.1116988020077
 30
0.0
 41
3.0
 42
3.0
 43
3.0
 50
270.0
  0
INSERT
  5
3D2A
330
3B84
100
AcDbEntity
  8
寸法線
 62
     0
370
    -2
100
AcDbBlockReference
  2
_Closed
 10
463.5778720441106
 20
204.6136658079218
 30
0.0
 41
3.0
 42
3.0
 43
3.0
 50
90.0
  0
MTEXT
  5
3D2B
330
3B84
100
AcDbEntity
  8
寸法線
 62
     0
100
AcDbMText
 10
460.0778720441105
 20
165.8626823049648
 30
0.0
 40
5.0
 41
0.0
 71
     5
 72
     1
  1
78
  7
OKANO
 11
0.0000000000000001
 21
1.0
 31
0.0
 73
     1
 44
1.0
  0
POINT
  5
3D2C
330
3B84
100
AcDbEntity
  8
Defpoints
 62
     0
100
AcDbPoint
 10
435.2518329243879
 20
127.1116988020077
 30
0.0
  0
POINT
  5
3D2D
330
3B84
100
AcDbEntity
  8
Defpoints
 62
     0
100
AcDbPoint
 10
435.2518329243879
 20
204.6136658079219
 30
0.0
  0
POINT
  5
3D2E
330
3B84
100
AcDbEntity
  8
Defpoints
 62
     0
100
AcDbPoint
 10
463.5778720441106
 20
204.6136658079218
 30
0.0
  0
ENDBLK
  5
3B8F
330
3B84
100
AcDbEntity
  8
0
100
AcDbBlockEnd
  0
BLOCK
  5
3BB7
330
3BAD
100
AcDbEntity
  8
0
100
AcDbBlockBegin
  2
*D4
 70
     1
 10
0.0
 20
0.0
 30
0.0
  3
*D4
  1

  0
LINE
  5
3D11
330
3BAD
100
AcDbEntity
  8
寸法線
 62
     0
370
    -2
100
AcDbLine
 10
362.2518329243878
 20
195.2136658079218
 30
0.0
 11
362.2518329243878
 21
220.6142127347848
 31
0.0
  0
LINE
  5
3D12
330
3BAD
100
AcDbEntity
  8
寸法線
 62
     0
370
    -2
100
AcDbLine
 10
416.2518329243878
 20
195.2136658079218
 30
0.0
 11
416.2518329243878
 21
220.6142127347848
 31
0.0
  0
LINE
  5
3D13
330
3BAD
100
AcDbEntity
  8
寸法線
 62
     0
370
    -2
100
AcDbLine
 10
365.2518329243878
 20
217.6142127347848
 30
0.0
 11
413.2518329243878
 21
217.6142127347848
 31
0.0
  0
INSERT
  5
3D14
330
3BAD
100
AcDbEntity
  8
寸法線
 62
     0
370
    -2
100
AcDbBlockReference
  2
_Closed
 10
362.2518329243878
 20
217.6142127347848
 30
0.0
 41
3.0
 42
3.0
 43
3.0
 50
180.0
  0
INSERT
  5
3D15
330
3BAD
100
AcDbEntity
  8
寸法線
 62
     0
370
    -2
100
AcDbBlockReference
  2
_Closed
 10
416.2518329243878
 20
217.6142127347848
 30
0.0
 41
3.0
 42
3.0
 43
3.0
  0
MTEXT
  5
3D16
330
3BAD
100
AcDbEntity
  8
寸法線
 62
     0
100
AcDbMText
 10
389.2518329243878
 20
221.1142127347847
 30
0.0
 40
5.0
 41
0.0
 71
     5
 72
     1
  1
56
  7
OKANO
 73
     1
 44
1.0
  0
POINT
  5
3D17
330
3BAD
100
AcDbEntity
  8
Defpoints
 62
     0
100
AcDbPoint
 10
362.2518329243878
 20
193.2136658079218
 30
0.0
  0
POINT
  5
3D18
330
3BAD
100
AcDbEntity
  8
Defpoints
 62
     0
100
AcDbPoint
 10
416.2518329243878
 20
193.2136658079218
 30
0.0
  0
POINT
  5
3D19
330
3BAD
100
AcDbEntity
  8
Defpoints
 62
     0
100
AcDbPoint
 10
416.2518329243878
 20
217.6142127347848
 30
0.0
  0
ENDBLK
  5
3BB8
330
3BAD
100
AcDbEntity
  8
0
100
AcDbBlockEnd
  0
BLOCK
  5
3BC4
330
3BBA
100
AcDbEntity
  8
0
100
AcDbBlockBegin
  2
*D5
 70
     1
 10
0.0
 20
0.0
 30
0.0
  3
*D5
  1

  0
LINE
  5
3BBB
330
3BBA
100
AcDbEntity
  8
寸法線
 62
     0
370
    -2
100
AcDbLine
 10
348.2518329243878
 20
136.5116988020077
 30
0.0
 11
348.2518329243878
 21
108.5087685081675
 31
0.0
  0
LINE
  5
3BBC
330
3BBA
100
AcDbEntity
  8
寸法線
 62
     0
370
    -2
100
AcDbLine
 10
431.2518329243878
 20
136.5116988020077
 30
0.0
 11
431.2518329243878
 21
108.5087685081675
 31
0.0
  0
LINE
  5
3BBD
330
3BBA
100
AcDbEntity
  8
寸法線
 62
     0
370
    -2
100
AcDbLine
 10
351.2518329243878
 20
111.5087685081675
 30
0.0
 11
428.2518329243877
 21
111.5087685081675
 31
0.0
  0
INSERT
  5
3BBE
330
3BBA
100
AcDbEntity
  8
寸法線
 62
     0
370
    -2
100
AcDbBlockReference
  2
_Closed
 10
348.2518329243878
 20
111.5087685081675
 30
0.0
 41
3.0
 42
3.0
 43
3.0
 50
180.0
  0
INSERT
  5
3BBF
330
3BBA
100
AcDbEntity
  8
寸法線
 62
     0
370
    -2
100
AcDbBlockReference
  2
_Closed
 10
431.2518329243878
 20
111.5087685081675
 30
0.0
 41
3.0
 42
3.0
 43
3.0
  0
MTEXT
  5
3BC0
330
3BBA
100
AcDbEntity
  8
寸法線
 62
     0
100
AcDbMText
 10
389.7518329243878
 20
115.0087685081675
 30
0.0
 40
5.0
 41
0.0
 71
     5
 72
     1
  1
83
  7
OKANO
 73
     1
 44
1.0
  0
POINT
  5
3BC1
330
3BBA
100
AcDbEntity
  8
Defpoints
 62
     0
100
AcDbPoint
 10
348.2518329243878
 20
138.5116988020077
 30
0.0
  0
POINT
  5
3BC2
330
3BBA
100
AcDbEntity
  8
Defpoints
 62
     0
100
AcDbPoint
 10
431.2518329243878
 20
138.5116988020077
 30
0.0
  0
POINT
  5
3BC3
330
3BBA
100
AcDbEntity
  8
Defpoints
 62
     0
100
AcDbPoint
 10
431.2518329243878
 20
111.5087685081675
 30
0.0
  0
ENDBLK
  5
3BC5
330
3BBA
100
AcDbEntity
  8
0
100
AcDbBlockEnd
  0
BLOCK
  5
3BD3
330
3BC7
100
AcDbEntity
  8
0
100
AcDbBlockBegin
  2
*D6
 70
     1
 10
0.0
 20
0.0
 30
0.0
  3
*D6
  1

  0
LINE
  5
3BC8
330
3BC7
100
AcDbEntity
  8
寸法線
 62
     0
370
    -2
100
AcDbLine
 10
438.2518329243878
 20
229.9524292951627
 30
0.0
 11
460.6073487920006
 21
229.9524292951626
 31
0.0
  0
LINE
  5
3BC9
330
3BC7
100
AcDbEntity
  8
寸法線
 62
     0
370
    -2
100
AcDbLine
 10
438.2518329243878
 20
237.9524292951627
 30
0.0
 11
460.6073487920006
 21
237.9524292951626
 31
0.0
  0
LINE
  5
3BCA
330
3BC7
100
AcDbEntity
  8
寸法線
 62
     0
370
    -2
100
AcDbLine
 10
457.6073487920007
 20
226.9524292951627
 30
0.0
 11
457.6073487920007
 21
223.9524292951626
 31
0.0
  0
LINE
  5
3BCB
330
3BC7
100
AcDbEntity
  8
寸法線
 62
     0
370
    -2
100
AcDbLine
 10
457.6073487920007
 20
240.9524292951626
 30
0.0
 11
457.6073487920007
 21
243.9524292951626
 31
0.0
  0
LINE
  5
3BCC
330
3BC7
100
AcDbEntity
  8
寸法線
 62
     0
370
    -2
100
AcDbLine
 10
457.6073487920007
 20
229.9524292951626
 30
0.0
 11
457.6073487920007
 21
237.9524292951626
 31
0.0
  0
INSERT
  5
3BCD
330
3BC7
100
AcDbEntity
  8
寸法線
 62
     0
370
    -2
100
AcDbBlockReference
  2
_Closed
 10
457.6073487920007
 20
229.9524292951626
 30
0.0
 41
3.0
 42
3.0
 43
3.0
 50
90.0
  0
INSERT
  5
3BCE
330
3BC7
100
AcDbEntity
  8
寸法線
 62
     0
370
    -2
100
AcDbBlockReference
  2
_Closed
 10
457.6073487920007
 20
237.9524292951626
 30
0.0
 41
3.0
 42
3.0
 43
3.0
 50
270.0
  0
MTEXT
  5
3BCF
330
3BC7
100
AcDbEntity
  8
寸法線
 62
     0
100
AcDbMText
 10
454.1073487920006
 20
233.9524292951627
 30
0.0
 40
5.0
 41
0.0
 71
     5
 72
     1
  1
8
  7
OKANO
 11
0.0000000000000001
 21
1.0
 31
0.0
 73
     1
 44
1.0
  0
POINT
  5
3BD0
330
3BC7
100
AcDbEntity
  8
Defpoints
 62
     0
100
AcDbPoint
 10
436.2518329243878
 20
229.9524292951627
 30
0.0
  0
POINT
  5
3BD1
330
3BC7
100
AcDbEntity
  8
Defpoints
 62
     0
100
AcDbPoint
 10
436.2518329243878
 20
237.9524292951627
 30
0.0
  0
POINT
  5
3BD2
330
3BC7
100
AcDbEntity
  8
Defpoints
 62
     0
100
AcDbPoint
 10
457.6073487920007
 20
237.9524292951626
 30
0.0
  0
ENDBLK
  5
3BD4
330
3BC7
100
AcDbEntity
  8
0
100
AcDbBlockEnd
  0
BLOCK
  5
3D04
330
3CF8
100
AcDbEntity
  8
0
100
AcDbBlockBegin
  2
*D7
 70
     1
 10
0.0
 20
0.0
 30
0.0
  3
*D7
  1

  0
LINE
  5
3D06
330
3CF8
100
AcDbEntity
  8
寸法線
 62
     0
370
    -2
100
AcDbLine
 10
492.9067285844928
 20
181.4206235957973
 30
0.0
 11
492.9067285844928
 21
218.8746170845599
 31
0.0
  0
LINE
  5
3D07
330
3CF8
100
AcDbEntity
  8
寸法線
 62
     0
370
    -2
100
AcDbLine
 10
488.0955517467805
 20
206.6136658079218
 30
0.0
 11
488.0955517467805
 21
218.8746170845599
 31
0.0
  0
LINE
  5
3D08
330
3CF8
100
AcDbEntity
  8
寸法線
 62
     0
370
    -2
100
AcDbLine
 10
495.9067285844928
 20
215.8746170845599
 30
0.0
 11
498.9067285844928
 21
215.8746170845599
 31
0.0
  0
LINE
  5
3D09
330
3CF8
100
AcDbEntity
  8
寸法線
 62
     0
370
    -2
100
AcDbLine
 10
485.0955517467805
 20
215.8746170845599
 30
0.0
 11
482.0955517467805
 21
215.8746170845599
 31
0.0
  0
LINE
  5
3D0A
330
3CF8
100
AcDbEntity
  8
寸法線
 62
     0
370
    -2
100
AcDbLine
 10
492.9067285844928
 20
215.8746170845599
 30
0.0
 11
488.0955517467805
 21
215.8746170845599
 31
0.0
  0
INSERT
  5
3D0B
330
3CF8
100
AcDbEntity
  8
寸法線
 62
     0
370
    -2
100
AcDbBlockReference
  2
_Closed
 10
492.9067285844928
 20
215.8746170845599
 30
0.0
 41
3.0
 42
3.0
 43
3.0
 50
180.0
  0
INSERT
  5
3D0C
330
3CF8
100
AcDbEntity
  8
寸法線
 62
     0
370
    -2
100
AcDbBlockReference
  2
_Closed
 10
488.0955517467805
 20
215.8746170845599
 30
0.0
 41
3.0
 42
3.0
 43
3.0
  0
MTEXT
  5
3D0D
330
3CF8
100
AcDbEntity
  8
寸法線
 62
     0
100
AcDbMText
 10
490.5011401656366
 20
219.3746170845599
 30
0.0
 40
5.0
 41
0.0
 71
     5
 72
     1
  1
4
  7
OKANO
 73
     1
 44
1.0
  0
POINT
  5
3D0E
330
3CF8
100
AcDbEntity
  8
Defpoints
 62
     0
100
AcDbPoint
 10
492.9067285844928
 20
179.4206235957973
 30
0.0
  0
POINT
  5
3D0F
330
3CF8
100
AcDbEntity
  8
Defpoints
 62
     0
100
AcDbPoint
 10
488.0955517467805
 20
204.6136658079218
 30
0.0
  0
POINT
  5
3D10
330
3CF8
100
AcDbEntity
  8
Defpoints
 62
     0
100
AcDbPoint
 10
488.0955517467805
 20
215.8746170845599
 30
0.0
  0
ENDBLK
  5
3D05
330
3CF8
100
AcDbEntity
  8
0
100
AcDbBlockEnd
  0
BLOCK
  5
3D54
330
3D4A
100
AcDbEntity
  8
0
100
AcDbBlockBegin
  2
*D8
 70
     1
 10
0.0
 20
0.0
 30
0.0
  3
*D8
  1

  0
LINE
  5
3D4B
330
3D4A
100
AcDbEntity
  8
寸法線
 62
     0
370
    -2
100
AcDbLine
 10
346.2518329243878
 20
193.8636658079219
 30
0.0
 11
312.9622813652072
 21
193.8636658079219
 31
0.0
  0
LINE
  5
3D4C
330
3D4A
100
AcDbEntity
  8
寸法線
 62
     0
370
    -2
100
AcDbLine
 10
346.2518329243878
 20
137.8636658079218
 30
0.0
 11
312.9622813652072
 21
137.8636658079218
 31
0.0
  0
LINE
  5
3D4D
330
3D4A
100
AcDbEntity
  8
寸法線
 62
     0
370
    -2
100
AcDbLine
 10
315.9622813652072
 20
190.8636658079219
 30
0.0
 11
315.9622813652072
 21
140.8636658079218
 31
0.0
  0
INSERT
  5
3D4E
330
3D4A
100
AcDbEntity
  8
寸法線
 62
     0
370
    -2
100
AcDbBlockReference
  2
_Closed
 10
315.9622813652072
 20
193.8636658079219
 30
0.0
 41
3.0
 42
3.0
 43
3.0
 50
90.0
  0
INSERT
  5
3D4F
330
3D4A
100
AcDbEntity
  8
寸法線
 62
     0
370
    -2
100
AcDbBlockReference
  2
_Closed
 10
315.9622813652072
 20
137.8636658079218
 30
0.0
 41
3.0
 42
3.0
 43
3.0
 50
270.0
  0
MTEXT
  5
3D50
330
3D4A
100
AcDbEntity
  8
寸法線
 62
     0
100
AcDbMText
 10
312.4622813652071
 20
165.8636658079219
 30
0.0
 40
5.0
 41
0.0
 71
     5
 72
     1
  1
56
  7
OKANO
 11
0.0000000000000001
 21
1.0
 31
0.0
 73
     1
 44
1.0
  0
POINT
  5
3D51
330
3D4A
100
AcDbEntity
  8
Defpoints
 62
     0
100
AcDbPoint
 10
348.2518329243878
 20
193.8636658079219
 30
0.0
  0
POINT
  5
3D52
330
3D4A
100
AcDbEntity
  8
Defpoints
 62
     0
100
AcDbPoint
 10
348.2518329243878
 20
137.8636658079218
 30
0.0
  0
POINT
  5
3D53
330
3D4A
100
AcDbEntity
  8
Defpoints
 62
     0
100
AcDbPoint
 10
315.9622813652072
 20
137.8636658079218
 30
0.0
  0
ENDBLK
  5
3D55
330
3D4A
100
AcDbEntity
  8
0
100
AcDbBlockEnd
  0
ENDSEC
  0
SECTION
  2
ENTITIES
  0
TEXT
  5
29C1
330
1F
100
AcDbEntity
  8
文字
100
AcDbText
 10
502.9530899647491
 20
50.35041820094398
 30
0.0
 40
3.599999999999999
  1
SET SCREW COUP
 51
15.0
  7
OKANO
100
AcDbText
  0
TEXT
  5
29C2
330
1F
100
AcDbEntity
  8
文字
100
AcDbText
 10
474.4451856962854
 20
42.84598225908331
 30
0.0
 40
4.799999999999999
  1
joint kogyo T.okano
 51
15.0
  7
OKANO
100
AcDbText
  0
TEXT
  5
29C3
330
1F
100
AcDbEntity
  8
文字
100
AcDbText
 10
466.9568726844885
 20
57.59835376637107
 30
0.0
 40
4.799999999999999
  1
F-999-20070803 Auto CAD
 51
15.0
  7
OKANO
100
AcDbText
  0
LINE
  5
29C4
330
1F
100
AcDbEntity
  8
太線
100
AcDbLine
 10
439.5346445028747
 20
56.67754611594074
 30
0.0
 11
547.5346445028747
 21
56.67754611594074
 31
0.0
  0
LWPOLYLINE
  5
29C5
330
1F
100
AcDbEntity
  8
太線
100
AcDbPolyline
 90
        4
 70
     1
 43
0.0
 10
439.5346445028747
 20
65.07754611594072
 10
547.5346445028747
 20
65.07754611594072
 10
547.5346445028747
 20
39.87754611594073
 10
439.5346445028747
 20
39.87754611594073
  0
TEXT
  5
29C6
330
1F
100
AcDbEntity
  8
文字
100
AcDbText
 10
443.4070280689322
 20
48.48403431709005
 30
0.0
 40
2.399999999999999
  1
CHECK
 51
15.0
  7
OKANO
100
AcDbText
  0
LINE
  5
29C7
330
1F
100
AcDbEntity
  8
太線
100
AcDbLine
 10
463.5346445028747
 20
65.07754611594072
 30
0.0
 11
463.5346445028747
 21
39.87754611594073
 31
0.0
  0
TEXT
  5
29C8
330
1F
100
AcDbEntity
  8
文字
100
AcDbText
 10
443.4070280689322
 20
41.56460671087422
 30
0.0
 40
2.399999999999999
  1
ISSUED
 51
15.0
  7
OKANO
100
AcDbText
  0
TEXT
  5
29C9
330
1F
100
AcDbEntity
  8
文字
100
AcDbText
 10
443.6635425018329
 20
44.89618290014237
 30
0.0
 40
2.399999999999999
  1
APPR
 51
15.0
  7
OKANO
100
AcDbText
  0
TEXT
  5
29CA
330
1F
100
AcDbEntity
  8
文字
100
AcDbText
 10
441.6114325172465
 20
58.47876229470592
 30
0.0
 40
2.399999999999999
  1
FILM NAME
 51
15.0
  7
OKANO
100
AcDbText
  0
TEXT
  5
29CB
330
1F
100
AcDbEntity
  8
文字
100
AcDbText
 10
442.8940013945785
 20
52.0718851438491
 30
0.0
 40
2.399999999999999
  1
DRAWN
 51
15.0
  7
OKANO
100
AcDbText
  0
TEXT
  5
29CC
330
1F
100
AcDbEntity
  8
文字
100
AcDbText
 10
468.6997836575102
 20
48.8233225841517
 30
0.0
 40
4.799999999999999
  1
20-2X-B
 51
15.0
  7
OKANO
100
AcDbText
  0
LINE
  5
32B3
330
1F
100
AcDbEntity
  8
太線
100
AcDbLine
 10
92.20363158356958
 20
135.5116988020077
 30
0.0
 11
87.783483825841
 21
135.5116988020077
 31
0.0
  0
LINE
  5
32CA
330
1F
100
AcDbEntity
  8
太線
100
AcDbLine
 10
87.783483825841
 20
141.5116988020077
 30
0.0
 11
92.20363158356958
 21
141.5116988020077
 31
0.0
  0
LINE
  5
32CC
330
1F
100
AcDbEntity
  8
太線
100
AcDbLine
 10
93.20363158356958
 20
140.5116988020077
 30
0.0
 11
93.20363158356958
 21
136.5116988020077
 31
0.0
  0
ARC
  5
32F4
330
1F
100
AcDbEntity
  8
太線
100
AcDbCircle
 10
29.86185418795885
 20
138.5116988020077
 30
0.0
 40
3.0
100
AcDbArc
 50
90.0
 51
270.0
  0
LINE
  5
32F5
330
1F
100
AcDbEntity
  8
太線
100
AcDbLine
 10
29.86185418795885
 20
141.5116988020077
 30
0.0
 11
72.36083790129524
 21
141.5116988020077
 31
0.0
  0
LINE
  5
32F6
330
1F
100
AcDbEntity
  8
太線
100
AcDbLine
 10
29.86185418795885
 20
135.5116988020077
 30
0.0
 11
72.36083790129524
 21
135.5116988020077
 31
0.0
  0
LINE
  5
3320
330
1F
100
AcDbEntity
  8
破線
100
AcDbLine
 10
32.26185418795886
 20
184.6058792323038
 30
0.0
 11
32.26185418795886
 21
141.5116988020077
 31
0.0
  0
ARC
  5
3325
330
1F
100
AcDbEntity
  8
破線
100
AcDbCircle
 10
72.43254270680485
 20
93.20159177266113
 30
0.0
 40
12.64186524864863
100
AcDbArc
 50
216.2862730650202
 51
323.7137269349798
  0
ARC
  5
3326
330
1F
100
AcDbEntity
  8
破線
100
AcDbCircle
 10
47.25208369424085
 20
73.46476659645947
 30
0.0
 40
19.36220123696722
100
AcDbArc
 50
39.26737976430183
 51
140.7326202356981
  0
ARC
  5
3327
330
1F
100
AcDbEntity
  8
破線
100
AcDbCircle
 10
32.26185418795886
 20
85.71988210345521
 30
0.0
 40
0.0000000000000085
100
AcDbArc
 50
164.9001892943182
 51
243.4349488229219
  0
ARC
  5
3328
330
1F
100
AcDbEntity
  8
破線
100
AcDbCircle
 10
47.25208369424089
 20
103.0288377175447
 30
0.0
 40
22.89774934576607
100
AcDbArc
 50
229.1061622974253
 51
310.8938377025745
  0
ARC
  5
3329
330
1F
100
AcDbEntity
  8
破線
100
AcDbCircle
 10
47.69395276418677
 20
99.55409072489402
 30
0.0
 40
17.15400135104119
100
AcDbArc
 50
225.0573242933069
 51
312.6063077753979
  0
LINE
  5
33CD
330
1F
100
AcDbEntity
  8
破線
100
AcDbLine
 10
32.26185418795886
 20
135.5116988020077
 30
0.0
 11
32.26185418795886
 21
85.71988210345521
 31
0.0
  0
LINE
  5
33E6
330
1F
100
AcDbEntity
  8
破線
100
AcDbLine
 10
82.62277221308689
 20
108.5116988020077
 30
0.0
 11
82.62277221308687
 21
85.71988210345521
 31
0.0
  0
LINE
  5
3636
330
1F
100
AcDbEntity
  8
太線
100
AcDbLine
 10
82.78348382584098
 20
144.1408639266065
 30
0.0
 11
86.78348382584101
 21
144.1408639266065
 31
0.0
  0
LINE
  5
3637
330
1F
100
AcDbEntity
  8
太線
100
AcDbLine
 10
87.783483825841
 20
143.1408639266065
 30
0.0
 11
87.78348382584097
 21
133.8825336774088
 31
0.0
  0
LINE
  5
3638
330
1F
100
AcDbEntity
  8
太線
100
AcDbLine
 10
86.78348382584097
 20
132.8825336774088
 30
0.0
 11
82.78348382584098
 21
132.8825336774088
 31
0.0
  0
LINE
  5
3639
330
1F
100
AcDbEntity
  8
太線
100
AcDbLine
 10
82.78348382584098
 20
132.8825336774088
 30
0.0
 11
82.78348382584098
 21
144.1408639266065
 31
0.0
  0
LINE
  5
364A
330
1F
100
AcDbEntity
  8
構築線
100
AcDbLine
 10
86.42140301388153
 20
144.0116988020077
 30
0.0
 11
84.92140301388152
 21
144.127360047544
 31
0.0
  0
LINE
  5
3652
330
1F
100
AcDbEntity
  8
太線
100
AcDbLine
 10
83.88294203362693
 20
144.1380405202608
 30
0.0
 11
83.88294203362693
 21
132.9820583639775
 31
0.0
  0
LINE
  5
3672
330
1F
100
AcDbEntity
  8
太線
100
AcDbLine
 10
233.1955054425005
 20
178.4482289252912
 30
0.0
 11
259.4989994224655
 21
178.4482289252912
 31
0.0
  0
LINE
  5
3673
330
1F
100
AcDbEntity
  8
太線
100
AcDbLine
 10
233.1955054425005
 20
172.4482289252912
 30
0.0
 11
259.4989994224655
 21
172.4482289252912
 31
0.0
  0
LINE
  5
367A
330
1F
100
AcDbEntity
  8
太線
100
AcDbLine
 10
264.4989994224654
 20
181.07739404989
 30
0.0
 11
264.4989994224654
 21
169.8190638006923
 31
0.0
  0
LINE
  5
367B
330
1F
100
AcDbEntity
  8
太線
100
AcDbLine
 10
259.4989994224654
 20
169.8190638006923
 30
0.0
 11
259.4989994224654
 21
181.07739404989
 31
0.0
  0
LINE
  5
367C
330
1F
100
AcDbEntity
  8
太線
100
AcDbLine
 10
260.5984576302513
 20
181.0745706435442
 30
0.0
 11
260.5984576302513
 21
169.918588487261
 31
0.0
  0
LINE
  5
367D
330
1F
100
AcDbEntity
  8
太線
100
AcDbLine
 10
264.4989994224654
 20
172.6982289252912
 30
0.0
 11
260.5984576302513
 21
172.6982289252912
 31
0.0
  0
LINE
  5
367E
330
1F
100
AcDbEntity
  8
太線
100
AcDbLine
 10
260.5984576302513
 20
178.1982289252912
 30
0.0
 11
264.4989994224654
 21
178.1982289252912
 31
0.0
  0
LINE
  5
367F
330
1F
100
AcDbEntity
  8
太線
100
AcDbLine
 10
264.4989994224654
 20
169.8190638006923
 30
0.0
 11
259.4989994224654
 21
169.8190638006923
 31
0.0
  0
LINE
  5
3680
330
1F
100
AcDbEntity
  8
太線
100
AcDbLine
 10
269.919147180194
 20
178.4482289252911
 30
0.0
 11
269.919147180194
 21
172.4482289252912
 31
0.0
  0
LINE
  5
3681
330
1F
100
AcDbEntity
  8
太線
100
AcDbLine
 10
269.919147180194
 20
172.4482289252912
 30
0.0
 11
264.4989994224654
 21
172.4482289252912
 31
0.0
  0
LINE
  5
3682
330
1F
100
AcDbEntity
  8
太線
100
AcDbLine
 10
264.4989994224654
 20
178.4482289252911
 30
0.0
 11
269.919147180194
 21
178.4482289252911
 31
0.0
  0
LINE
  5
3683
330
1F
100
AcDbEntity
  8
太線
100
AcDbLine
 10
259.4989994224654
 20
181.07739404989
 30
0.0
 11
264.4989994224654
 21
181.07739404989
 31
0.0
  0
RAY
  5
3686
330
1F
100
AcDbEntity
  8
構築線
100
AcDbRay
 10
338.923296766685
 20
233.9524292951627
 30
0.0
 11
1.0
 21
0.0
 31
0.0
  0
LINE
  5
368B
330
1F
100
AcDbEntity
  8
太線
100
AcDbLine
 10
233.1955054425005
 20
227.4482289252911
 30
0.0
 11
259.4989994224655
 21
227.4482289252909
 31
0.0
  0
LINE
  5
368C
330
1F
100
AcDbEntity
  8
太線
100
AcDbLine
 10
233.1955054425005
 20
233.4482289252911
 30
0.0
 11
259.4989994224655
 21
233.4482289252911
 31
0.0
  0
LINE
  5
368E
330
1F
100
AcDbEntity
  8
太線
100
AcDbLine
 10
269.919147180194
 20
233.4482289252911
 30
0.0
 11
264.4989994224654
 21
233.4482289252911
 31
0.0
  0
LINE
  5
368F
330
1F
100
AcDbEntity
  8
太線
100
AcDbLine
 10
264.4989994224654
 20
227.4482289252911
 30
0.0
 11
269.919147180194
 21
227.4482289252911
 31
0.0
  0
LINE
  5
3690
330
1F
100
AcDbEntity
  8
太線
100
AcDbLine
 10
264.4989994224654
 20
224.8190638006922
 30
0.0
 11
264.4989994224654
 21
236.0773940498899
 31
0.0
  0
LINE
  5
3692
330
1F
100
AcDbEntity
  8
太線
100
AcDbLine
 10
260.5984576302513
 20
224.821887207038
 30
0.0
 11
260.5984576302513
 21
235.9778693633213
 31
0.0
  0
LINE
  5
3693
330
1F
100
AcDbEntity
  8
太線
100
AcDbLine
 10
264.4989994224654
 20
236.0773940498899
 30
0.0
 11
259.4989994224654
 21
236.0773940498899
 31
0.0
  0
LINE
  5
3694
330
1F
100
AcDbEntity
  8
太線
100
AcDbLine
 10
259.4989994224654
 20
224.8190638006922
 30
0.0
 11
264.4989994224654
 21
224.8190638006922
 31
0.0
  0
LINE
  5
3695
330
1F
100
AcDbEntity
  8
太線
100
AcDbLine
 10
264.4989994224654
 20
233.1982289252911
 30
0.0
 11
260.5984576302513
 21
233.1982289252911
 31
0.0
  0
LINE
  5
3696
330
1F
100
AcDbEntity
  8
太線
100
AcDbLine
 10
260.5984576302513
 20
227.6982289252911
 30
0.0
 11
264.4989994224654
 21
227.6982289252911
 31
0.0
  0
LINE
  5
3697
330
1F
100
AcDbEntity
  8
太線
100
AcDbLine
 10
269.919147180194
 20
227.4482289252911
 30
0.0
 11
269.919147180194
 21
233.4482289252911
 31
0.0
  0
ARC
  5
3699
330
1F
100
AcDbEntity
  8
太線
100
AcDbCircle
 10
233.1955054425005
 20
202.9482289252911
 30
0.0
 40
24.49999999999988
100
AcDbArc
 50
90.0
 51
270.0
  0
ARC
  5
369A
330
1F
100
AcDbEntity
  8
太線
100
AcDbCircle
 10
233.1955054425005
 20
202.9482289252911
 30
0.0
 40
30.5
100
AcDbArc
 50
90.0
 51
270.0
  0
LINE
  5
369B
330
1F
100
AcDbEntity
  8
太線
100
AcDbLine
 10
259.4989994224654
 20
236.0773940498899
 30
0.0
 11
259.4989994224654
 21
224.8190638006922
 31
0.0
  0
CIRCLE
  5
369C
330
1F
100
AcDbEntity
  8
破線
100
AcDbCircle
 10
233.1955054425005
 20
202.9482289252911
 30
0.0
 40
23.24372168253205
  0
CIRCLE
  5
369D
330
1F
100
AcDbEntity
  8
破線
100
AcDbCircle
 10
233.1955054425005
 20
202.9482289252911
 30
0.0
 40
21.80390088218211
  0
LINE
  5
36A3
330
1F
100
AcDbEntity
  8
太線
100
AcDbLine
 10
252.2802962249962
 20
233.4482289252911
 30
0.0
 11
252.2802962249962
 21
227.448228925291
 31
0.0
  0
LINE
  5
36A4
330
1F
100
AcDbEntity
  8
太線
100
AcDbLine
 10
252.2802962249962
 20
232.5787832264971
 30
0.0
 11
259.4989994224654
 21
232.5787832264971
 31
0.0
  0
LINE
  5
36A5
330
1F
100
AcDbEntity
  8
太線
100
AcDbLine
 10
264.4989994224654
 20
232.5787832264971
 30
0.0
 11
269.919147180194
 21
232.5787832264971
 31
0.0
  0
LINE
  5
36A6
330
1F
100
AcDbEntity
  8
太線
100
AcDbLine
 10
252.2802962249962
 20
228.056250169868
 30
0.0
 11
259.4989994224654
 21
228.056250169868
 31
0.0
  0
LINE
  5
36A7
330
1F
100
AcDbEntity
  8
太線
100
AcDbLine
 10
264.4989994224654
 20
228.056250169868
 30
0.0
 11
269.919147180194
 21
228.056250169868
 31
0.0
  0
LINE
  5
36A8
330
1F
100
AcDbEntity
  8
太線
100
AcDbLine
 10
252.2802962249962
 20
178.4482289252912
 30
0.0
 11
252.2802962249962
 21
172.4482289252912
 31
0.0
  0
LINE
  5
36A9
330
1F
100
AcDbEntity
  8
太線
100
AcDbLine
 10
252.2802962249962
 20
177.7618308663541
 30
0.0
 11
259.4989994224654
 21
177.7618308663541
 31
0.0
  0
LINE
  5
36AA
330
1F
100
AcDbEntity
  8
太線
100
AcDbLine
 10
264.4989994224654
 20
177.7618308663541
 30
0.0
 11
269.919147180194
 21
177.7618308663541
 31
0.0
  0
LINE
  5
36AC
330
1F
100
AcDbEntity
  8
太線
100
AcDbLine
 10
252.2802962249962
 20
172.9808676347873
 30
0.0
 11
259.4989994224654
 21
172.9808676347873
 31
0.0
  0
LINE
  5
36AD
330
1F
100
AcDbEntity
  8
太線
100
AcDbLine
 10
264.4989994224654
 20
172.9808676347873
 30
0.0
 11
269.919147180194
 21
172.9808676347873
 31
0.0
  0
LINE
  5
3800
330
1F
100
AcDbEntity
  8
太線
100
AcDbLine
 10
72.36083790129524
 20
127.1116988020076
 30
0.0
 11
72.36083790129524
 21
167.5116988020077
 31
0.0
  0
LINE
  5
3805
330
1F
100
AcDbEntity
  8
太線
100
AcDbLine
 10
86.24231320052286
 20
132.8825336774088
 30
0.0
 11
86.24231320052286
 21
127.1116988020076
 31
0.0
  0
LINE
  5
3807
330
1F
100
AcDbEntity
  8
太線
100
AcDbLine
 10
81.91119324695684
 20
148.9116988020077
 30
0.0
 11
81.91119324695684
 21
128.1116988020077
 31
0.0
  0
LINE
  5
380D
330
1F
100
AcDbEntity
  8
太線
100
AcDbLine
 10
82.78348382584098
 20
141.5116988020077
 30
0.0
 11
81.91119324695682
 21
141.5116988020077
 31
0.0
  0
LINE
  5
380E
330
1F
100
AcDbEntity
  8
太線
100
AcDbLine
 10
82.78348382584098
 20
135.5116988020077
 30
0.0
 11
81.91119324695682
 21
135.5116988020077
 31
0.0
  0
LINE
  5
3810
330
1F
100
AcDbEntity
  8
想像線
100
AcDbLine
 10
81.91119324695682
 20
141.8348569472505
 30
0.0
 11
72.36083790129524
 21
141.8348569472505
 31
0.0
  0
LINE
  5
3812
330
1F
100
AcDbEntity
  8
想像線
100
AcDbLine
 10
81.91119324695682
 20
135.2734035883469
 30
0.0
 11
72.36083790129524
 21
135.2734035883469
 31
0.0
  0
LINE
  5
3813
330
1F
100
AcDbEntity
  8
太線
100
AcDbLine
 10
84.92140301388152
 20
144.127360047544
 30
0.0
 11
84.92140301388152
 21
144.127360047544
 31
0.0
  0
ARC
  5
3822
330
1F
100
AcDbEntity
  8
太線
100
AcDbCircle
 10
92.20363158356958
 20
140.5116988020077
 30
0.0
 40
1.0
100
AcDbArc
 50
0.0
 51
90.0
  0
ARC
  5
3823
330
1F
100
AcDbEntity
  8
太線
100
AcDbCircle
 10
92.20363158356958
 20
136.5116988020077
 30
0.0
 40
1.0
100
AcDbArc
 50
269.9999999999997
 51
0.0
  0
ARC
  5
3824
330
1F
100
AcDbEntity
  8
太線
100
AcDbCircle
 10
86.78348382584101
 20
143.1408639266065
 30
0.0
 40
1.0
100
AcDbArc
 50
0.0
 51
90.0
  0
ARC
  5
3825
330
1F
100
AcDbEntity
  8
太線
100
AcDbCircle
 10
86.78348382584097
 20
133.8825336774088
 30
0.0
 40
1.0
100
AcDbArc
 50
270.0
 51
359.9999999999998
  0
LINE
  5
393A
330
1F
100
AcDbEntity
  8
太線
100
AcDbLine
 10
87.76699694868876
 20
141.9783780609948
 30
0.0
 11
83.71929946727277
 21
141.9783780609948
 31
0.0
  0
LINE
  5
393B
330
1F
100
AcDbEntity
  8
太線
100
AcDbLine
 10
87.92890421367838
 20
134.8634241919459
 30
0.0
 11
83.88120673226216
 21
134.7017207533308
 31
0.0
  0
LINE
  5
3A59
330
1F
100
AcDbEntity
  8
想像線
100
AcDbLine
 10
81.91119324695682
 20
196.4519610215826
 30
0.0
 11
72.36083790129524
 21
196.4519610215826
 31
0.0
  0
LINE
  5
3A5A
330
1F
100
AcDbEntity
  8
想像線
100
AcDbLine
 10
81.91119324695682
 20
189.890507662679
 30
0.0
 11
72.36083790129524
 21
189.890507662679
 31
0.0
  0
LINE
  5
3A5B
330
1F
100
AcDbEntity
  8
太線
100
AcDbLine
 10
80.91119324695684
 20
204.6136658079218
 30
0.0
 11
72.36083790129524
 21
204.6136658079218
 31
0.0
  0
LINE
  5
3A5E
330
1F
100
AcDbEntity
  8
太線
100
AcDbLine
 10
29.86185418795885
 20
196.2136658079218
 30
0.0
 11
72.36083790129524
 21
196.2136658079218
 31
0.0
  0
LINE
  5
3A5F
330
1F
100
AcDbEntity
  8
太線
100
AcDbLine
 10
29.86185418795885
 20
190.2136658079218
 30
0.0
 11
72.36083790129524
 21
190.2136658079217
 31
0.0
  0
ARC
  5
3A60
330
1F
100
AcDbEntity
  8
太線
100
AcDbCircle
 10
29.86185418795885
 20
193.2136658079218
 30
0.0
 40
3.0
100
AcDbArc
 50
90.00000000000003
 51
270.0
  0
LINE
  5
3A61
330
1F
100
AcDbEntity
  8
太線
100
AcDbLine
 10
86.24231320052286
 20
198.8428309325206
 30
0.0
 11
86.24231320052285
 21
204.6136658079218
 31
0.0
  0
LINE
  5
3A62
330
1F
100
AcDbEntity
  8
太線
100
AcDbLine
 10
81.91119324695684
 20
188.1116988020077
 30
0.0
 11
81.91119324695684
 21
208.9116988020077
 31
0.0
  0
LINE
  5
3A63
330
1F
100
AcDbEntity
  8
太線
100
AcDbLine
 10
83.88294203362693
 20
187.5873240896687
 30
0.0
 11
83.88294203362693
 21
198.7433062459519
 31
0.0
  0
LINE
  5
3A64
330
1F
100
AcDbEntity
  8
太線
100
AcDbLine
 10
82.78348382584098
 20
198.8428309325206
 30
0.0
 11
82.78348382584098
 21
187.5845006833229
 31
0.0
  0
LINE
  5
3A65
330
1F
100
AcDbEntity
  8
太線
100
AcDbLine
 10
87.783483825841
 20
188.5845006833229
 30
0.0
 11
87.78348382584097
 21
197.8428309325206
 31
0.0
  0
LINE
  5
3A66
330
1F
100
AcDbEntity
  8
太線
100
AcDbLine
 10
93.20363158356958
 20
191.2136658079218
 30
0.0
 11
93.20363158356958
 21
195.2136658079218
 31
0.0
  0
LINE
  5
3A68
330
1F
100
AcDbEntity
  8
太線
100
AcDbLine
 10
87.92890421367838
 20
196.8619404179836
 30
0.0
 11
83.88120673226216
 21
197.0236438565987
 31
0.0
  0
ARC
  5
3A69
330
1F
100
AcDbEntity
  8
太線
100
AcDbCircle
 10
86.78348382584097
 20
197.8428309325206
 30
0.0
 40
1.0
100
AcDbArc
 50
0.0000000000001158
 51
90.00000000000003
  0
ARC
  5
3A6A
330
1F
100
AcDbEntity
  8
太線
100
AcDbCircle
 10
80.91119324695684
 20
203.6136658079218
 30
0.0
 40
1.0
100
AcDbArc
 50
0.0000000000000649
 51
90.00000000000003
  0
LINE
  5
3A6B
330
1F
100
AcDbEntity
  8
太線
100
AcDbLine
 10
86.78348382584097
 20
198.8428309325206
 30
0.0
 11
82.78348382584098
 21
198.8428309325206
 31
0.0
  0
LINE
  5
3A6C
330
1F
100
AcDbEntity
  8
太線
100
AcDbLine
 10
82.78348382584098
 20
196.2136658079218
 30
0.0
 11
81.91119324695682
 21
196.2136658079218
 31
0.0
  0
LINE
  5
3A6D
330
1F
100
AcDbEntity
  8
太線
100
AcDbLine
 10
92.20363158356958
 20
196.2136658079218
 30
0.0
 11
87.783483825841
 21
196.2136658079218
 31
0.0
  0
ARC
  5
3A6E
330
1F
100
AcDbEntity
  8
太線
100
AcDbCircle
 10
92.20363158356958
 20
195.2136658079218
 30
0.0
 40
1.0
100
AcDbArc
 50
0.0
 51
90.00000000000031
  0
LINE
  5
3A6F
330
1F
100
AcDbEntity
  8
太線
100
AcDbLine
 10
87.76699694868876
 20
189.7469865489347
 30
0.0
 11
83.71929946727277
 21
189.7469865489347
 31
0.0
  0
ARC
  5
3A70
330
1F
100
AcDbEntity
  8
太線
100
AcDbCircle
 10
86.78348382584101
 20
188.5845006833229
 30
0.0
 40
1.0
100
AcDbArc
 50
270.0
 51
0.0
  0
LINE
  5
3A71
330
1F
100
AcDbEntity
  8
太線
100
AcDbLine
 10
82.78348382584098
 20
187.5845006833229
 30
0.0
 11
86.78348382584101
 21
187.5845006833229
 31
0.0
  0
LINE
  5
3A72
330
1F
100
AcDbEntity
  8
太線
100
AcDbLine
 10
82.78348382584098
 20
190.2136658079218
 30
0.0
 11
81.91119324695682
 21
190.2136658079218
 31
0.0
  0
LINE
  5
3A73
330
1F
100
AcDbEntity
  8
太線
100
AcDbLine
 10
84.92140301388152
 20
187.5980045623855
 30
0.0
 11
84.92140301388152
 21
187.5980045623855
 31
0.0
  0
LINE
  5
3A74
330
1F
100
AcDbEntity
  8
構築線
100
AcDbLine
 10
86.42140301388153
 20
187.7136658079218
 30
0.0
 11
84.92140301388152
 21
187.5980045623855
 31
0.0
  0
LINE
  5
3A76
330
1F
100
AcDbEntity
  8
太線
100
AcDbLine
 10
87.783483825841
 20
190.2136658079218
 30
0.0
 11
92.20363158356958
 21
190.2136658079218
 31
0.0
  0
ARC
  5
3A77
330
1F
100
AcDbEntity
  8
太線
100
AcDbCircle
 10
92.20363158356958
 20
191.2136658079218
 30
0.0
 40
1.0
100
AcDbArc
 50
270.0
 51
0.0
  0
ARC
  5
3A7A
330
1F
100
AcDbEntity
  8
破線
100
AcDbCircle
 10
47.25208369424083
 20
209.8134945221374
 30
0.0
 40
25.51453227097006
100
AcDbArc
 50
54.01897339708031
 51
125.9810266029196
  0
ARC
  5
3A7B
330
1F
100
AcDbEntity
  8
破線
100
AcDbCircle
 10
47.05316064188257
 20
213.2033652729362
 30
0.0
 40
20.05494671398419
100
AcDbArc
 50
49.25288883713545
 51
128.9582280560769
  0
ARC
  5
3A7C
330
1F
100
AcDbEntity
  8
破線
100
AcDbCircle
 10
47.25208369424089
 20
243.3045196503917
 30
0.0
 40
19.74043606764334
100
AcDbArc
 50
220.5916019544362
 51
319.4083980455634
  0
ARC
  5
3A7D
330
1F
100
AcDbEntity
  8
破線
100
AcDbCircle
 10
72.43254270680487
 20
223.4662556439902
 30
0.0
 40
12.35942286673825
100
AcDbArc
 50
34.46310753478527
 51
145.5368924652148
  0
LINE
  5
3A7F
330
1F
100
AcDbEntity
  8
太線
100
AcDbLine
 10
81.91119324695684
 20
188.1116988020077
 30
0.0
 11
81.91119324695684
 21
148.9116988020077
 31
0.0
  0
LINE
  5
3A80
330
1F
100
AcDbEntity
  8
太線
100
AcDbLine
 10
81.91119324695682
 20
127.1116988020077
 30
0.0
 11
72.36083790129524
 21
127.1116988020077
 31
0.0
  0
LINE
  5
3A81
330
1F
100
AcDbEntity
  8
太線
100
AcDbLine
 10
72.36083790129524
 20
169.5116988020077
 30
0.0
 11
72.36083790129524
 21
167.5116988020077
 31
0.0
  0
CIRCLE
  5
3A82
330
1F
100
AcDbEntity
  8
太線
100
AcDbCircle
 10
106.0880104323252
 20
165.8636658079218
 30
0.0
 40
20.31726643613594
  0
CIRCLE
  5
3A83
330
1F
100
AcDbEntity
  8
太線
100
AcDbCircle
 10
106.0880104323252
 20
165.8636658079218
 30
0.0
 40
23.43855887345963
  0
LINE
  5
3A86
330
1F
100
AcDbEntity
  8
太線
100
AcDbLine
 10
81.91119324695684
 20
128.1116988020077
 30
0.0
 11
81.91119324695682
 21
127.1116988020077
 31
0.0
  0
LINE
  5
3A87
330
1F
100
AcDbEntity
  8
太線
100
AcDbLine
 10
80.91119324695684
 20
204.6136658079218
 30
0.0
 11
86.24355494332418
 21
204.6136658079218
 31
0.0
  0
LINE
  5
3A88
330
1F
100
AcDbEntity
  8
太線
100
AcDbLine
 10
81.91119324695682
 20
127.1116988020077
 30
0.0
 11
86.24231320052286
 21
127.1116988020076
 31
0.0
  0
LINE
  5
3A8B
330
1F
100
AcDbEntity
  8
破線
100
AcDbLine
 10
32.26185418795886
 20
184.6058792323038
 30
0.0
 11
32.26185418795885
 21
190.2136658079218
 31
0.0
  0
LINE
  5
3A8C
330
1F
100
AcDbEntity
  8
破線
100
AcDbLine
 10
82.62277221308689
 20
108.5116988020077
 30
0.0
 11
82.62277221308689
 21
127.1116988020076
 31
0.0
  0
XLINE
  5
3A8D
330
1F
100
AcDbEntity
  8
構築線
100
AcDbXline
 10
106.0880104323252
 20
165.8636658079218
 30
0.0
 11
-1.0
 21
0.0
 31
0.0
  0
LINE
  5
3A9D
330
1F
100
AcDbEntity
  8
構築線
100
AcDbLine
 10
72.36083790129524
 20
204.6136658079218
 30
0.0
 11
72.36083790129524
 21
169.5116988020077
 31
0.0
  0
LINE
  5
3A9E
330
1F
100
AcDbEntity
  8
太線
100
AcDbLine
 10
72.36083790129524
 20
204.6136658079218
 30
0.0
 11
72.36083790129524
 21
169.5116988020077
 31
0.0
  0
LINE
  5
3A9F
330
1F
100
AcDbEntity
  8
太線
100
AcDbLine
 10
86.33468206292249
 20
187.5845006833229
 30
0.0
 11
86.38391008495224
 21
181.5843690899722
 31
0.0
  0
LINE
  5
3AA2
330
1F
100
AcDbEntity
  8
太線
100
AcDbLine
 10
86.24231320052286
 20
144.1408639266065
 30
0.0
 11
86.24231320052286
 21
150.3046537679886
 31
0.0
  0
ARC
  5
3AA3
330
1F
100
AcDbEntity
  8
太線
100
AcDbCircle
 10
87.38387642982003
 20
181.5925733042445
 30
0.0
 40
1.0
100
AcDbArc
 50
180.4700721254851
 51
319.9384418492497
  0
ARC
  5
3AA4
330
1F
100
AcDbEntity
  8
太線
100
AcDbCircle
 10
87.24231320052286
 20
150.3046537679886
 30
0.0
 40
1.0
100
AcDbArc
 50
39.54308838055262
 51
180.0
  0
LINE
  5
3AA5
330
1F
100
AcDbEntity
  8
破線
100
AcDbLine
 10
32.26185418795885
 20
196.2136658079218
 30
0.0
 11
32.26185418795885
 21
230.4601498530951
 31
0.0
  0
LINE
  5
3AA6
330
1F
100
AcDbEntity
  8
破線
100
AcDbLine
 10
82.62277221308689
 20
204.6136658079219
 30
0.0
 11
82.62277221308689
 21
230.4601498530951
 31
0.0
  0
XLINE
  5
3AA8
330
1F
100
AcDbEntity
  8
構築線
100
AcDbXline
 10
106.0880104323252
 20
165.8636658079218
 30
0.0
 11
0.0
 21
1.0
 31
0.0
  0
LINE
  5
3AD0
330
1F
100
AcDbEntity
  8
太線
100
AcDbLine
 10
354.2518329243878
 20
127.1116988020076
 30
0.0
 11
424.2518329243877
 21
127.1116988020077
 31
0.0
  0
LINE
  5
3AD1
330
1F
100
AcDbEntity
  8
太線
100
AcDbLine
 10
354.2518329243878
 20
204.6136658079219
 30
0.0
 11
424.2518329243877
 21
204.6136658079219
 31
0.0
  0
CIRCLE
  5
3AD5
330
1F
100
AcDbEntity
  8
太線
100
AcDbCircle
 10
362.2518329243878
 20
137.8636658079218
 30
0.0
 40
4.0
  0
CIRCLE
  5
3AD7
330
1F
100
AcDbEntity
  8
太線
100
AcDbCircle
 10
362.2518329243878
 20
193.8636658079218
 30
0.0
 40
4.0
  0
CIRCLE
  5
3ADC
330
1F
100
AcDbEntity
  8
太線
100
AcDbCircle
 10
416.2518329243878
 20
137.8636658079218
 30
0.0
 40
4.0
  0
CIRCLE
  5
3ADE
330
1F
100
AcDbEntity
  8
太線
100
AcDbCircle
 10
416.2518329243878
 20
193.8636658079218
 30
0.0
 40
4.0
  0
CIRCLE
  5
3AF8
330
1F
100
AcDbEntity
  8
太線
100
AcDbCircle
 10
431.2518329243878
 20
137.8636658079218
 30
0.0
 40
4.0
  0
CIRCLE
  5
3AF9
330
1F
100
AcDbEntity
  8
太線
100
AcDbCircle
 10
348.2518329243878
 20
193.8636658079219
 30
0.0
 40
4.0
  0
LINE
  5
3AFD
330
1F
100
AcDbEntity
  8
太線
100
AcDbLine
 10
354.2518329243878
 20
204.6136658079219
 30
0.0
 11
343.2518329243878
 21
204.6136658079219
 31
0.0
  0
LINE
  5
3AFF
330
1F
100
AcDbEntity
  8
太線
100
AcDbLine
 10
343.2518329243878
 20
127.1116988020076
 30
0.0
 11
354.2518329243878
 21
127.1116988020076
 31
0.0
  0
LINE
  5
3B00
330
1F
100
AcDbEntity
  8
太線
100
AcDbLine
 10
424.2518329243877
 20
204.6136658079219
 30
0.0
 11
435.2518329243879
 21
204.6136658079219
 31
0.0
  0
LINE
  5
3B02
330
1F
100
AcDbEntity
  8
太線
100
AcDbLine
 10
435.2518329243879
 20
127.1116988020077
 30
0.0
 11
424.2518329243877
 21
127.1116988020077
 31
0.0
  0
ARC
  5
3B05
330
1F
100
AcDbEntity
  8
太線
100
AcDbCircle
 10
511.5341106202401
 20
165.8636658079218
 30
0.0
 40
23.43855887345964
100
AcDbArc
 50
143.5229030740925
 51
214.9092631786183
  0
ARC
  5
3B09
330
1F
100
AcDbEntity
  8
太線
100
AcDbCircle
 10
511.5341106202401
 20
165.8636658079218
 30
0.0
 40
27.39626169163269
100
AcDbArc
 50
139.9958753917844
 51
142.2036555312521
  0
LINE
  5
3B14
330
1F
100
AcDbEntity
  8
太線
100
AcDbLine
 10
488.0955517467805
 20
183.2665033277632
 30
0.0
 11
488.0955517467805
 21
204.6136658079218
 31
0.0
  0
LINE
  5
3B15
330
1F
100
AcDbEntity
  8
太線
100
AcDbLine
 10
488.0955517467805
 20
204.6136658079218
 30
0.0
 11
480.0955517467805
 21
204.6136658079218
 31
0.0
  0
LINE
  5
3B16
330
1F
100
AcDbEntity
  8
太線
100
AcDbLine
 10
480.0955517467805
 20
204.6136658079218
 30
0.0
 11
480.0955517467805
 21
127.1116988020076
 31
0.0
  0
LINE
  5
3B17
330
1F
100
AcDbEntity
  8
太線
100
AcDbLine
 10
480.0955517467805
 20
127.1116988020076
 30
0.0
 11
488.0955517467805
 21
127.1116988020076
 31
0.0
  0
LINE
  5
3B18
330
1F
100
AcDbEntity
  8
太線
100
AcDbLine
 10
488.0955517467805
 20
127.1116988020076
 30
0.0
 11
488.0955517467805
 21
148.4608282880804
 31
0.0
  0
ARC
  5
3B19
330
1F
100
AcDbEntity
  8
太線
100
AcDbCircle
 10
511.5341106202401
 20
165.8636658079218
 30
0.0
 40
27.39626169163269
100
AcDbArc
 50
217.7963444687477
 51
219.7606502100612
  0
ARC
  5
3B1A
330
1F
100
AcDbEntity
  8
太線
100
AcDbCircle
 10
489.0955517467806
 20
183.2665033277632
 30
0.0
 40
1.0
100
AcDbArc
 50
180.0
 51
322.2036555312529
  0
ARC
  5
3B1B
330
1F
100
AcDbEntity
  8
太線
100
AcDbCircle
 10
489.0955517467805
 20
148.4608282880804
 30
0.0
 40
1.0
100
AcDbArc
 50
37.79634446874704
 51
180.0
  0
XLINE
  5
3B20
330
1F
100
AcDbEntity
  8
構築線
100
AcDbXline
 10
389.2518329243878
 20
193.2136658079218
 30
0.0
 11
0.0
 21
1.0
 31
0.0
  0
ARC
  5
3B21
330
1F
100
AcDbEntity
  8
太線
100
AcDbCircle
 10
389.2518329243877
 20
261.3909881686223
 30
0.0
 40
23.43855887345964
100
AcDbArc
 50
235.5517123448913
 51
306.3038606198281
  0
LINE
  5
3B22
330
1F
100
AcDbEntity
  8
太線
100
AcDbLine
 10
342.2518329243878
 20
229.9524292951627
 30
0.0
 11
436.2518329243878
 21
229.9524292951627
 31
0.0
  0
LINE
  5
3B23
330
1F
100
AcDbEntity
  8
太線
100
AcDbLine
 10
436.2518329243878
 20
237.9524292951627
 30
0.0
 11
406.6546704442291
 21
237.9524292951627
 31
0.0
  0
ARC
  5
3B25
330
1F
100
AcDbEntity
  8
太線
100
AcDbCircle
 10
406.6546704442291
 20
238.9524292951627
 30
0.0
 40
1.0
100
AcDbArc
 50
127.796344468747
 51
270.0
  0
ARC
  5
3B26
330
1F
100
AcDbEntity
  8
太線
100
AcDbCircle
 10
389.2518329243877
 20
261.3909881686223
 30
0.0
 40
27.39626169163269
100
AcDbArc
 50
307.7963444687477
 51
311.4715563970935
  0
LINE
  5
3B28
330
1F
100
AcDbEntity
  8
太線
100
AcDbLine
 10
371.8489954045464
 20
237.9524292951627
 30
0.0
 11
342.2518329243878
 21
237.9524292951627
 31
0.0
  0
ARC
  5
3B29
330
1F
100
AcDbEntity
  8
太線
100
AcDbCircle
 10
371.8489954045463
 20
238.9524292951627
 30
0.0
 40
1.0
100
AcDbArc
 50
270.0
 51
52.20365553125298
  0
LINE
  5
3B35
330
1F
100
AcDbEntity
  8
太線
100
AcDbLine
 10
436.2518329243878
 20
237.9524292951627
 30
0.0
 11
436.2518329243878
 21
229.9524292951627
 31
0.0
  0
LINE
  5
3B36
330
1F
100
AcDbEntity
  8
太線
100
AcDbLine
 10
342.2518329243878
 20
237.9524292951627
 30
0.0
 11
342.2518329243878
 21
229.9524292951627
 31
0.0
  0
LINE
  5
3B37
330
1F
100
AcDbEntity
  8
破線
100
AcDbLine
 10
342.2518329243878
 20
233.9524292951627
 30
0.0
 11
436.2518329243878
 21
233.9524292951627
 31
0.0
  0
LINE
  5
3B38
330
1F
100
AcDbEntity
  8
破線
100
AcDbLine
 10
484.0955517467805
 20
204.6136658079218
 30
0.0
 11
484.0955517467805
 21
127.1116988020076
 31
0.0
  0
LINE
  5
3B41
330
1F
100
AcDbEntity
  8
想像線
100
AcDbLine
 10
420.2518329243877
 20
229.9524292951627
 30
0.0
 11
420.2518329243877
 21
237.9524292951627
 31
0.0
  0
LINE
  5
3B42
330
1F
100
AcDbEntity
  8
想像線
100
AcDbLine
 10
412.6903917978475
 20
237.9524292951627
 30
0.0
 11
412.6903917978475
 21
229.9524292951627
 31
0.0
  0
LINE
  5
3B43
330
1F
100
AcDbEntity
  8
想像線
100
AcDbLine
 10
366.2518329243878
 20
229.9524292951627
 30
0.0
 11
366.2518329243878
 21
237.9524292951627
 31
0.0
  0
LINE
  5
3B44
330
1F
100
AcDbEntity
  8
想像線
100
AcDbLine
 10
358.2518329243878
 20
237.9524292951627
 30
0.0
 11
358.2518329243878
 21
229.9524292951627
 31
0.0
  0
LINE
  5
3B45
330
1F
100
AcDbEntity
  8
想像線
100
AcDbLine
 10
488.0955517467805
 20
197.2136658079218
 30
0.0
 11
480.0955517467805
 21
197.2136658079218
 31
0.0
  0
LINE
  5
3B46
330
1F
100
AcDbEntity
  8
想像線
100
AcDbLine
 10
480.0955517467805
 20
189.3022246813814
 30
0.0
 11
488.0955517467805
 21
189.3022246813814
 31
0.0
  0
LINE
  5
3B47
330
1F
100
AcDbEntity
  8
想像線
100
AcDbLine
 10
488.0955517467805
 20
141.8348569472505
 30
0.0
 11
480.0955517467805
 21
141.8348569472505
 31
0.0
  0
LINE
  5
3B48
330
1F
100
AcDbEntity
  8
想像線
100
AcDbLine
 10
488.0955517467805
 20
134.5116988020077
 30
0.0
 11
480.0955517467805
 21
134.5116988020077
 31
0.0
  0
LINE
  5
3B51
330
1F
100
AcDbEntity
  8
想像線
100
AcDbLine
 10
410.5512157792264
 20
204.6136658079219
 30
0.0
 11
410.5512157792264
 21
127.1116988020077
 31
0.0
  0
LINE
  5
3B52
330
1F
100
AcDbEntity
  8
想像線
100
AcDbLine
 10
407.474276724593
 20
204.6136658079218
 30
0.0
 11
407.474276724593
 21
127.1116988020077
 31
0.0
  0
LINE
  5
3B53
330
1F
100
AcDbEntity
  8
想像線
100
AcDbLine
 10
371.2104605953356
 20
204.6136658079218
 30
0.0
 11
371.2104605953356
 21
127.1116988020076
 31
0.0
  0
LINE
  5
3B54
330
1F
100
AcDbEntity
  8
想像線
100
AcDbLine
 10
368.164096247771
 20
204.6136658079218
 30
0.0
 11
368.164096247771
 21
127.1116988020076
 31
0.0
  0
LINE
  5
3B56
330
1F
100
AcDbEntity
  8
太線
100
AcDbLine
 10
441.2518329243878
 20
186.9514024845386
 30
0.0
 11
337.2518329243878
 21
186.9514024845386
 31
0.0
  0
LINE
  5
3B57
330
1F
100
AcDbEntity
  8
太線
100
AcDbLine
 10
441.2518329243878
 20
183.9050381369741
 30
0.0
 11
337.2518329243878
 21
183.9050381369741
 31
0.0
  0
LINE
  5
3B58
330
1F
100
AcDbEntity
  8
太線
100
AcDbLine
 10
441.2518329243878
 20
147.6412220077166
 30
0.0
 11
337.2518329243878
 21
147.6412220077166
 31
0.0
  0
LINE
  5
3B59
330
1F
100
AcDbEntity
  8
太線
100
AcDbLine
 10
441.2518329243878
 20
144.5642829530831
 30
0.0
 11
337.2518329243878
 21
144.5642829530831
 31
0.0
  0
CIRCLE
  5
3B6B
330
1F
100
AcDbEntity
  8
太線
100
AcDbCircle
 10
431.2518329243878
 20
193.8636658079218
 30
0.0
 40
4.0
  0
LINE
  5
3B6C
330
1F
100
AcDbEntity
  8
太線
100
AcDbLine
 10
441.2518329243878
 20
198.6136658079218
 30
0.0
 11
441.2518329243878
 21
133.1116988020077
 31
0.0
  0
LINE
  5
3B6D
330
1F
100
AcDbEntity
  8
太線
100
AcDbLine
 10
337.2518329243878
 20
198.6136658079218
 30
0.0
 11
337.2518329243878
 21
133.1116988020076
 31
0.0
  0
LINE
  5
3B6E
330
1F
100
AcDbEntity
  8
太線
100
AcDbLine
 10
435.2518329243879
 20
204.6136658079219
 30
0.0
 11
441.2518329243878
 21
198.6136658079218
 31
0.0
  0
LINE
  5
3B6F
330
1F
100
AcDbEntity
  8
太線
100
AcDbLine
 10
441.2518329243878
 20
133.1116988020077
 30
0.0
 11
435.2518329243879
 21
127.1116988020077
 31
0.0
  0
LINE
  5
3B70
330
1F
100
AcDbEntity
  8
太線
100
AcDbLine
 10
343.2518329243878
 20
204.6136658079219
 30
0.0
 11
337.2518329243878
 21
198.6136658079218
 31
0.0
  0
LINE
  5
3B71
330
1F
100
AcDbEntity
  8
太線
100
AcDbLine
 10
337.2518329243878
 20
133.1116988020076
 30
0.0
 11
343.2518329243878
 21
127.1116988020076
 31
0.0
  0
DIMENSION
  5
3B76
330
1F
100
AcDbEntity
  8
寸法線
100
AcDbDimension
  2
*D2
 10
441.2518329243878
 20
94.88984311811611
 30
0.0
 11
389.2518329243878
 21
98.38984311811612
 31
0.0
 70
    32
 71
     5
 42
104.0
  3
sunpo
100
AcDbAlignedDimension
 13
337.2518329243878
 23
133.1116988020076
 33
0.0
 14
441.2518329243878
 24
133.1116988020077
 34
0.0
100
AcDbRotatedDimension
1001
ACAD
1000
DSTYLE
1002
{
1070
    40
1040
1.0
1002
}
  0
DIMENSION
  5
3B83
330
1F
100
AcDbEntity
  8
寸法線
100
AcDbDimension
  2
*D3
 10
463.5778720441106
 20
204.6136658079218
 30
0.0
 11
460.0778720441105
 21
165.8626823049648
 31
0.0
 70
    32
  1
78
 71
     5
 42
77.50196700591418
  3
sunpo
100
AcDbAlignedDimension
 13
435.2518329243879
 23
127.1116988020077
 33
0.0
 14
435.2518329243879
 24
204.6136658079219
 34
0.0
 50
90.0
100
AcDbRotatedDimension
1001
ACAD
1000
DSTYLE
1002
{
1070
    40
1040
1.0
1002
}
  0
DIMENSION
  5
3BAC
330
1F
100
AcDbEntity
  8
寸法線
100
AcDbDimension
  2
*D4
 10
416.2518329243878
 20
217.6142127347848
 30
0.0
 11
389.2518329243878
 21
221.1142127347847
 31
0.0
 70
    32
  1
56
 71
     5
 42
54.0
  3
sunpo
100
AcDbAlignedDimension
 13
362.2518329243878
 23
193.2136658079218
 33
0.0
 14
416.2518329243878
 24
193.2136658079218
 34
0.0
100
AcDbRotatedDimension
1001
ACAD
1000
DSTYLE
1002
{
1070
    40
1040
1.0
1002
}
  0
DIMENSION
  5
3BB9
330
1F
100
AcDbEntity
  8
寸法線
100
AcDbDimension
  2
*D5
 10
431.2518329243878
 20
111.5087685081675
 30
0.0
 11
389.7518329243878
 21
115.0087685081675
 31
0.0
 70
    32
 71
     5
 42
83.0
  3
sunpo
100
AcDbAlignedDimension
 13
348.2518329243878
 23
138.5116988020077
 33
0.0
 14
431.2518329243878
 24
138.5116988020077
 34
0.0
100
AcDbRotatedDimension
1001
ACAD
1000
DSTYLE
1002
{
1070
    40
1040
1.0
1002
}
  0
DIMENSION
  5
3BC6
330
1F
100
AcDbEntity
  8
寸法線
100
AcDbDimension
  2
*D6
 10
457.6073487920007
 20
237.9524292951626
 30
0.0
 11
454.1073487920006
 21
233.9524292951627
 31
0.0
 70
    32
 71
     5
 42
8.0
  3
sunpo
100
AcDbAlignedDimension
 13
436.2518329243878
 23
229.9524292951627
 33
0.0
 14
436.2518329243878
 24
237.9524292951627
 34
0.0
 50
90.0
100
AcDbRotatedDimension
1001
ACAD
1000
DSTYLE
1002
{
1070
    40
1040
1.0
1002
}
  0
LINE
  5
3BDB
330
1F
100
AcDbEntity
  8
太線
100
AcDbLine
 10
403.4144220581546
 20
242.3116988020077
 30
0.0
 11
407.3949567960423
 21
240.8633918443027
 31
0.0
  0
LINE
  5
3BDC
330
1F
100
AcDbEntity
  8
太線
100
AcDbLine
 10
376.6545050605043
 20
242.3116988020077
 30
0.0
 11
371.6883982186425
 21
240.4407836723079
 31
0.0
  0
LINE
  5
3BDD
330
1F
100
AcDbEntity
  8
太線
100
AcDbLine
 10
490.5486243504644
 20
183.4751541237195
 30
0.0
 11
492.9067285844928
 21
179.4206235957973
 31
0.0
  0
LINE
  5
3BDE
330
1F
100
AcDbEntity
  8
太線
100
AcDbLine
 10
492.3131009225071
 20
152.4502833760261
 30
0.0
 11
490.4739752648502
 21
148.3415125872391
 31
0.0
  0
LINE
  5
3BDF
330
1F
100
AcDbEntity
  8
太線
100
AcDbLine
 10
403.4144220581546
 20
242.3116988020077
 30
0.0
 11
403.1290414425501
 21
242.5021256881001
 31
0.0
  0
DIMENSION
  5
3CF7
330
1F
100
AcDbEntity
  8
寸法線
100
AcDbDimension
  2
*D7
 10
488.0955517467805
 20
215.8746170845599
 30
0.0
 11
490.5011401656366
 21
219.3746170845599
 31
0.0
 70
    32
  1
4
 71
     5
 42
4.811176837712309
  3
sunpo
100
AcDbAlignedDimension
 13
492.9067285844928
 23
179.4206235957973
 33
0.0
 14
488.0955517467805
 24
204.6136658079218
 34
0.0
100
AcDbRotatedDimension
1001
ACAD
1000
DSTYLE
1002
{
1070
    40
1040
1.0
1002
}
  0
CIRCLE
  5
3D46
330
1F
100
AcDbEntity
  8
太線
100
AcDbCircle
 10
348.2518329243878
 20
137.8636658079218
 30
0.0
 40
4.0
  0
DIMENSION
  5
3D49
330
1F
100
AcDbEntity
  8
寸法線
100
AcDbDimension
  2
*D8
 10
315.9622813652072
 20
137.8636658079218
 30
0.0
 11
312.4622813652071
 21
165.8636658079219
 31
0.0
 70
    32
 71
     5
 42
56.00000000000008
  3
sunpo
100
AcDbAlignedDimension
 13
348.2518329243878
 23
193.8636658079219
 33
0.0
 14
348.2518329243878
 24
137.8636658079218
 34
0.0
 50
90.0
100
AcDbRotatedDimension
1001
ACAD
1000
DSTYLE
1002
{
1070
    40
1040
1.0
1002
}
  0
VIEWPORT
  5
2E
330
1B
100
AcDbEntity
 67
     1
  8
0
100
AcDbViewport
 10
272.3615718425686
 20
114.0667812823735
 30
0.0
 40
700.7258236291884
 41
355.9007871330545
 68
     2
 69
     1
 12
272.3615718425686
 22
114.0667812823735
 13
0.0
 23
0.0
 14
10.0
 24
10.0
 15
10.0
 25
10.0
 16
0.0
 26
0.0
 36
1.0
 17
0.0
 27
0.0
 37
0.0
 42
50.0
 43
0.0
 44
0.0
 45
355.9007871330545
 50
0.0
 51
0.0
 72
   100
 90
    32800
  1

281
     0
 71
     1
 74
     0
110
0.0
120
0.0
130
0.0
111
1.0
121
0.0
131
0.0
112
0.0
122
1.0
132
0.0
 79
     0
146
0.0
  0
VIEWPORT
  5
30
330
1B
100
AcDbEntity
 67
     1
  8
70-0-CON
100
AcDbViewport
 10
141.8594093064315
 20
100.3480256368386
 30
0.0
 40
261.6199023344245
 41
192.6196987113174
 68
     1
 69
     2
 12
370.2180137584266
 22
177.154120921377
 13
0.0
 23
0.0
 14
5.0
 24
5.0
 15
10.0
 25
10.0
 16
0.0
 26
0.0
 36
1.0
 17
0.0
 27
0.0
 37
0.0
 42
50.0
 43
0.0
 44
0.0
 45
294.1600595353405
 50
0.0
 51
0.0
 72
   100
 90
    32864
  1

281
     0
 71
     1
 74
     0
110
0.0
120
0.0
130
0.0
111
1.0
121
0.0
131
0.0
112
0.0
122
1.0
132
0.0
 79
     0
146
0.0
  0
LWPOLYLINE
  5
45
330
1B
100
AcDbEntity
 67
     1
  8
50-0-CON
100
AcDbPolyline
 90
        4
 70
     1
 43
0.0
 10
11.04945813921926
 20
4.038176281179858
 10
272.2125713060605
 20
4.033520706629644
 10
273.4987754093466
 20
195.9297862125246
 10
11.04945813921926
 20
196.6578749924973
  0
LINE
  5
4A
330
1B
100
AcDbEntity
 67
     1
  8
50-0-CON
100
AcDbLine
 10
10.38768783662635
 20
100.3480256368386
 30
0.0
 11
-4.391850629656119
 21
100.3480256368386
 31
0.0
  0
LINE
  5
4B
330
1B
100
AcDbEntity
 67
     1
  8
50-0-CON
100
AcDbLine
 10
141.8594093064315
 20
197.098652626247
 30
0.0
 11
141.8594093064315
 21
202.387980773708
 31
0.0
  0
LINE
  5
4C
330
1B
100
AcDbEntity
 67
     1
  8
50-0-CON
100
AcDbLine
 10
272.4487699456857
 20
100.7888032705883
 30
0.0
 11
278.8458837249377
 21
100.7888032705883
 31
0.0
  0
LINE
  5
4D
330
1B
100
AcDbEntity
 67
     1
  8
50-0-CON
100
AcDbLine
 10
140.9770484758805
 20
4.038176281179858
 30
0.0
 11
140.9770484758805
 21
-3.455038652015446
 31
0.0
  0
ENDSEC
  0
SECTION
  2
OBJECTS
  0
DICTIONARY
  5
C
330
0
100
AcDbDictionary
281
     1
  3
ACAD_GROUP
350
D
  3
ACAD_LAYOUT
350
1A
  3
ACAD_MLINESTYLE
350
17
  3
ACAD_PLOTSETTINGS
350
19
  3
ACAD_PLOTSTYLENAME
350
E
  3
AcadDim
350
13D0
  3
AcDbVariableDictionary
350
6AD
  3
DWGPROPS
350
30F
  0
DICTIONARY
  5
D
102
{ACAD_REACTORS
330
C
102
}
330
C
100
AcDbDictionary
281
     1
  0
DICTIONARY
  5
1A
102
{ACAD_REACTORS
330
C
102
}
330
C
100
AcDbDictionary
281
     1
  3
A4
350
1E
  3
Model
350
22
  0
DICTIONARY
  5
17
102
{ACAD_REACTORS
330
C
102
}
330
C
100
AcDbDictionary
281
     1
  3
Standard
350
18
  0
DICTIONARY
  5
19
102
{ACAD_REACTORS
330
C
102
}
330
C
100
AcDbDictionary
281
     1
  0
ACDBDICTIONARYWDFLT
  5
E
102
{ACAD_REACTORS
330
C
102
}
330
C
100
AcDbDictionary
281
     1
  3
Normal
350
F
100
AcDbDictionaryWithDefault
340
F
  0
XRECORD
  5
13D0
102
{ACAD_REACTORS
330
C
102
}
330
C
100
AcDbXrecord
280
     1
 90
   990106
  3

 60
     0
 61
     0
 62
     1
 63
     3
 64
     0
 65
     0
 66
     0
 67
     3
 68
     1
 69
     0
 70
     0
 71
     0
 72
     0
 40
0.0
170
     0
340
0
  0
DICTIONARY
  5
6AD
102
{ACAD_REACTORS
330
C
102
}
330
C
100
AcDbDictionary
281
     1
  3
SORTENTS
350
6AE
  0
XRECORD
  5
30F
102
{ACAD_REACTORS
330
C
102
}
330
C
100
AcDbXrecord
280
     1
  1
DWGPROPS COOKIE
  2

  3

  4

  6

  7

  8

  9

300
=
301
=
302
=
303
=
304
=
305
=
306
=
307
=
308
=
309
=
 40
0.3303803125
 41
2452362.482225463
 42
2452370.969861285
  1

 90
        0
  0
LAYOUT
  5
1E
102
{ACAD_REACTORS
330
1A
102
}
330
1A
100
AcDbPlotSettings
  1

  2
EPSON PM-920C
  4
A4
  6

 40
3.757083177566528
 41
14.7637300491333
 42
3.757080078125
 43
3.757080078125
 44
209.9733276367187
 45
296.9683227539062
 46
0.0
 47
0.0
 48
0.0
 49
0.0
140
0.0
141
0.0
142
1.0
143
1.0
 70
   688
 72
     1
 73
     1
 74
     5
  7
joint.ctb
 75
    16
147
1.0
148
0.0
149
0.0
100
AcDbLayout
  1
A4
 70
     1
 71
     1
 10
-3.757080078125
 20
-3.757083177566528
 11
293.2112426757812
 21
206.2162444591522
 12
0.0
 22
0.0
 32
0.0
 14
-4.391850629656119
 24
-3.455038652015446
 34
0.0
 15
278.8458837249377
 25
202.387980773708
 35
0.0
146
0.0
 13
0.0
 23
0.0
 33
0.0
 16
1.0
 26
0.0
 36
0.0
 17
0.0
 27
1.0
 37
0.0
 76
     0
330
1B
331
30
  0
LAYOUT
  5
22
102
{ACAD_REACTORS
330
1A
102
}
330
1A
100
AcDbPlotSettings
  1

  2
EPSON PM-920C
  4
A4
  6

 40
3.757083177566528
 41
14.7637300491333
 42
3.757080078125
 43
3.757080078125
 44
209.9733276367187
 45
296.9683227539062
 46
0.0
 47
0.0
 48
0.0
 49
0.0
140
0.0
141
0.0
142
1.0
143
1.0
 70
 11952
 72
     1
 73
     1
 74
     0
  7

 75
     0
147
1.0
148
-45.64199848979289
149
-84.48806419330498
100
AcDbLayout
  1
Model
 70
     1
 71
     0
 10
0.0
 20
0.0
 11
12.0
 21
9.0
 12
0.0
 22
0.0
 32
0.0
 14
0.0
 24
0.0
 34
0.0
 15
0.0
 25
0.0
 35
0.0
146
0.0
 13
0.0
 23
0.0
 33
0.0
 16
1.0
 26
0.0
 36
0.0
 17
0.0
 27
1.0
 37
0.0
 76
     0
330
1F
  0
MLINESTYLE
  5
18
102
{ACAD_REACTORS
330
17
102
}
330
17
100
AcDbMlineStyle
  2
STANDARD
 70
     0
  3

 62
   256
 51
90.0
 52
90.0
 71
     2
 49
0.5
 62
   256
  6
BYLAYER
 49
-0.5
 62
   256
  6
BYLAYER
  0
ACDBPLACEHOLDER
  5
F
102
{ACAD_REACTORS
330
E
102
}
330
E
  0
DICTIONARYVAR
  5
6AE
102
{ACAD_REACTORS
330
6AD
102
}
330
6AD
100
DictionaryVariables
280
     0
  1
96
  0
ENDSEC
  0
EOF
