  0
SECTION
  2
HEADER
  9
$ACADVER
  1
AC1015
  9
$ACADMAINTVER
 70
     6
  9
$DWGCODEPAGE
  3
ANSI_932
  9
$INSBASE
 10
0.0
 20
0.0
 30
0.0
  9
$EXTMIN
 10
437.7764035586606
 20
73.13424859092458
 30
-0.00000001
  9
$EXTMAX
 10
892.8108072800542
 20
444.3902992789065
 30
0.00000001
  9
$LIMMIN
 10
0.0
 20
0.0
  9
$LIMMAX
 10
420.0
 20
297.0
  9
$ORTHOMODE
 70
     0
  9
$REGENMODE
 70
     1
  9
$FILLMODE
 70
     1
  9
$QTEXTMODE
 70
     0
  9
$MIRRTEXT
 70
     1
  9
$LTSCALE
 40
1.0
  9
$ATTMODE
 70
     1
  9
$TEXTSIZE
 40
5.0
  9
$TRACEWID
 40
1.0
  9
$TEXTSTYLE
  7
OKANO
  9
$CLAYER
  8
太線
  9
$CELTYPE
  6
ByLayer
  9
$CECOLOR
 62
   256
  9
$CELTSCALE
 40
1.0
  9
$DISPSILH
 70
     0
  9
$DIMSCALE
 40
0.0
  9
$DIMASZ
 40
3.0
  9
$DIMEXO
 40
2.0
  9
$DIMDLI
 40
8.0
  9
$DIMRND
 40
0.0
  9
$DIMDLE
 40
0.0
  9
$DIMEXE
 40
3.0
  9
$DIMTP
 40
0.0
  9
$DIMTM
 40
0.0
  9
$DIMTXT
 40
5.0
  9
$DIMCEN
 40
2.5
  9
$DIMTSZ
 40
0.0
  9
$DIMTOL
 70
     0
  9
$DIMLIM
 70
     0
  9
$DIMTIH
 70
     0
  9
$DIMTOH
 70
     0
  9
$DIMSE1
 70
     0
  9
$DIMSE2
 70
     0
  9
$DIMTAD
 70
     1
  9
$DIMZIN
 70
     8
  9
$DIMBLK
  1
Closed
  9
$DIMASO
 70
     1
  9
$DIMSHO
 70
     1
  9
$DIMPOST
  1

  9
$DIMAPOST
  1

  9
$DIMALT
 70
     0
  9
$DIMALTD
 70
     3
  9
$DIMALTF
 40
0.03937007874016
  9
$DIMLFAC
 40
1.0
  9
$DIMTOFL
 70
     1
  9
$DIMTVP
 40
0.0
  9
$DIMTIX
 70
     0
  9
$DIMSOXD
 70
     0
  9
$DIMSAH
 70
     0
  9
$DIMBLK1
  1

  9
$DIMBLK2
  1

  9
$DIMSTYLE
  2
sunpo
  9
$DIMCLRD
 70
     0
  9
$DIMCLRE
 70
     0
  9
$DIMCLRT
 70
     0
  9
$DIMTFAC
 40
1.0
  9
$DIMGAP
 40
1.0
  9
$DIMJUST
 70
     0
  9
$DIMSD1
 70
     0
  9
$DIMSD2
 70
     0
  9
$DIMTOLJ
 70
     0
  9
$DIMTZIN
 70
     8
  9
$DIMALTZ
 70
     0
  9
$DIMALTTZ
 70
     0
  9
$DIMUPT
 70
     0
  9
$DIMDEC
 70
     2
  9
$DIMTDEC
 70
     2
  9
$DIMALTU
 70
     2
  9
$DIMALTTD
 70
     3
  9
$DIMTXSTY
  7
OKANO
  9
$DIMAUNIT
 70
     0
  9
$DIMADEC
 70
     0
  9
$DIMALTRND
 40
0.0
  9
$DIMAZIN
 70
     0
  9
$DIMDSEP
 70
    46
  9
$DIMATFIT
 70
     3
  9
$DIMFRAC
 70
     0
  9
$DIMLDRBLK
  1
Closed
  9
$DIMLUNIT
 70
     2
  9
$DIMLWD
 70
    -2
  9
$DIMLWE
 70
    -2
  9
$DIMTMOVE
 70
     0
  9
$LUNITS
 70
     2
  9
$LUPREC
 70
     2
  9
$SKETCHINC
 40
1.0
  9
$FILLETRAD
 40
5.0
  9
$AUNITS
 70
     0
  9
$AUPREC
 70
     0
  9
$MENU
  1
.
  9
$ELEVATION
 40
0.0
  9
$PELEVATION
 40
0.0
  9
$THICKNESS
 40
0.0
  9
$LIMCHECK
 70
     0
  9
$CHAMFERA
 40
10.0
  9
$CHAMFERB
 40
10.0
  9
$CHAMFERC
 40
20.0
  9
$CHAMFERD
 40
0.0
  9
$SKPOLY
 70
     0
  9
$TDCREATE
 40
2452362.482225463
  9
$TDUCREATE
 40
2452362.107225463
  9
$TDUPDATE
 40
2455958.424282696
  9
$TDUUPDATE
 40
2455958.049282696
  9
$TDINDWG
 40
2.4843847685
  9
$TDUSRTIMER
 40
2.4843847685
  9
$USRTIMER
 70
     1
  9
$ANGBASE
 50
0.0
  9
$ANGDIR
 70
     0
  9
$PDMODE
 70
     0
  9
$PDSIZE
 40
0.0
  9
$PLINEWID
 40
0.0
  9
$SPLFRAME
 70
     0
  9
$SPLINETYPE
 70
     6
  9
$SPLINESEGS
 70
     8
  9
$HANDSEED
  5
3B41
  9
$SURFTAB1
 70
     6
  9
$SURFTAB2
 70
     6
  9
$SURFTYPE
 70
     6
  9
$SURFU
 70
     6
  9
$SURFV
 70
     6
  9
$UCSBASE
  2

  9
$UCSNAME
  2

  9
$UCSORG
 10
0.0
 20
0.0
 30
0.0
  9
$UCSXDIR
 10
1.0
 20
0.0
 30
0.0
  9
$UCSYDIR
 10
0.0
 20
1.0
 30
0.0
  9
$UCSORTHOREF
  2

  9
$UCSORTHOVIEW
 70
     0
  9
$UCSORGTOP
 10
0.0
 20
0.0
 30
0.0
  9
$UCSORGBOTTOM
 10
0.0
 20
0.0
 30
0.0
  9
$UCSORGLEFT
 10
0.0
 20
0.0
 30
0.0
  9
$UCSORGRIGHT
 10
0.0
 20
0.0
 30
0.0
  9
$UCSORGFRONT
 10
0.0
 20
0.0
 30
0.0
  9
$UCSORGBACK
 10
0.0
 20
0.0
 30
0.0
  9
$PUCSBASE
  2

  9
$PUCSNAME
  2

  9
$PUCSORG
 10
0.0
 20
0.0
 30
0.0
  9
$PUCSXDIR
 10
1.0
 20
0.0
 30
0.0
  9
$PUCSYDIR
 10
0.0
 20
1.0
 30
0.0
  9
$PUCSORTHOREF
  2

  9
$PUCSORTHOVIEW
 70
     0
  9
$PUCSORGTOP
 10
0.0
 20
0.0
 30
0.0
  9
$PUCSORGBOTTOM
 10
0.0
 20
0.0
 30
0.0
  9
$PUCSORGLEFT
 10
0.0
 20
0.0
 30
0.0
  9
$PUCSORGRIGHT
 10
0.0
 20
0.0
 30
0.0
  9
$PUCSORGFRONT
 10
0.0
 20
0.0
 30
0.0
  9
$PUCSORGBACK
 10
0.0
 20
0.0
 30
0.0
  9
$USERI1
 70
     0
  9
$USERI2
 70
     0
  9
$USERI3
 70
     0
  9
$USERI4
 70
     0
  9
$USERI5
 70
     0
  9
$USERR1
 40
0.0
  9
$USERR2
 40
0.0
  9
$USERR3
 40
0.0
  9
$USERR4
 40
0.0
  9
$USERR5
 40
0.0
  9
$WORLDVIEW
 70
     1
  9
$SHADEDGE
 70
     3
  9
$SHADEDIF
 70
    70
  9
$TILEMODE
 70
     0
  9
$MAXACTVP
 70
    64
  9
$PINSBASE
 10
0.0
 20
0.0
 30
0.0
  9
$PLIMCHECK
 70
     0
  9
$PEXTMIN
 10
-4.400932062405672
 20
-3.459116387827521
 30
-0.0015258207003583
  9
$PEXTMAX
 10
278.8478616361952
 20
202.393946056399
 30
0.0000000349246037
  9
$PLIMMIN
 10
-3.757080078125
 20
-3.757083177566528
  9
$PLIMMAX
 10
293.2112426757812
 20
206.2162444591522
  9
$UNITMODE
 70
     0
  9
$VISRETAIN
 70
     1
  9
$PLINEGEN
 70
     0
  9
$PSLTSCALE
 70
     1
  9
$TREEDEPTH
 70
  3020
  9
$CMLSTYLE
  2
Standard
  9
$CMLJUST
 70
     0
  9
$CMLSCALE
 40
20.0
  9
$PROXYGRAPHICS
 70
     1
  9
$MEASUREMENT
 70
     1
  9
$CELWEIGHT
370
    -1
  9
$ENDCAPS
280
     0
  9
$JOINSTYLE
280
     0
  9
$LWDISPLAY
290
     0
  9
$INSUNITS
 70
     4
  9
$HYPERLINKBASE
  1

  9
$STYLESHEET
  1

  9
$XEDIT
290
     1
  9
$CEPSNTYPE
380
     0
  9
$PSTYLEMODE
290
     1
  9
$FINGERPRINTGUID
  2
{FF7F33C3-4233-11D6-AEE0-0000F45FD7F4}
  9
$VERSIONGUID
  2
{7B896F21-22D8-4BA3-8FA1-6540B850C510}
  9
$EXTNAMES
290
     1
  9
$PSVPSCALE
 40
0.0
  9
$OLESTARTUP
290
     0
  0
ENDSEC
  0
SECTION
  2
CLASSES
  0
CLASS
  1
ACDBDICTIONARYWDFLT
  2
AcDbDictionaryWithDefault
  3
AutoCAD 2000
 90
        0
280
     0
281
     0
  0
CLASS
  1
ACDBPLACEHOLDER
  2
AcDbPlaceHolder
  3
AutoCAD 2000
 90
        0
280
     0
281
     0
  0
CLASS
  1
LAYOUT
  2
AcDbLayout
  3
AutoCAD 2000
 90
        0
280
     0
281
     0
  0
CLASS
  1
DICTIONARYVAR
  2
AcDbDictionaryVar
  3
AutoCAD 2000
 90
        0
280
     0
281
     0
  0
ENDSEC
  0
SECTION
  2
TABLES
  0
TABLE
  2
VPORT
  5
8
330
0
100
AcDbSymbolTable
 70
     1
  0
VPORT
  5
3B3A
330
8
100
AcDbSymbolTableRecord
100
AcDbViewportTableRecord
  2
*Active
 70
     0
 10
0.0
 20
0.0
 11
1.0
 21
1.0
 12
1179.205234583649
 22
497.431464955731
 13
0.0
 23
0.0
 14
5.0
 24
5.0
 15
10.0
 25
10.0
 16
0.0
 26
0.0
 36
1.0
 17
0.0
 27
0.0
 37
0.0
 40
1479.789725405641
 41
1.968879668049792
 42
50.0
 43
0.0
 44
0.0
 50
0.0
 51
0.0
 71
     0
 72
   100
 73
     1
 74
     3
 75
     0
 76
     0
 77
     0
 78
     0
281
     0
 65
     1
110
0.0
120
0.0
130
0.0
111
1.0
121
0.0
131
0.0
112
0.0
122
1.0
132
0.0
 79
     0
146
0.0
  0
ENDTAB
  0
TABLE
  2
LTYPE
  5
5
330
0
100
AcDbSymbolTable
 70
     5
  0
LTYPE
  5
14
330
5
100
AcDbSymbolTableRecord
100
AcDbLinetypeTableRecord
  2
ByBlock
 70
     0
  3

 72
    65
 73
     0
 40
0.0
  0
LTYPE
  5
15
330
5
100
AcDbSymbolTableRecord
100
AcDbLinetypeTableRecord
  2
ByLayer
 70
     0
  3

 72
    65
 73
     0
 40
0.0
  0
LTYPE
  5
16
330
5
100
AcDbSymbolTableRecord
100
AcDbLinetypeTableRecord
  2
Continuous
 70
     0
  3
Solid line
 72
    65
 73
     0
 40
0.0
  0
LTYPE
  5
33
330
5
100
AcDbSymbolTableRecord
100
AcDbLinetypeTableRecord
  2
DASHED2
 70
     0
  3
Dashed (.5x) _ _ _ _ _ _ _ _ _ _ _ _ _ _ _ _ _
 72
    65
 73
     2
 40
9.524999999999998
 49
6.349999999999999
 74
     0
 49
-3.174999999999999
 74
     0
  0
LTYPE
  5
34
330
5
100
AcDbSymbolTableRecord
100
AcDbLinetypeTableRecord
  2
CENTER2
 70
     0
  3
Center (.5x) ___ _ ___ _ ___ _ ___ _ ___ _ ___
 72
    65
 73
     4
 40
28.57499999999999
 49
19.05
 74
     0
 49
-3.174999999999999
 74
     0
 49
3.174999999999999
 74
     0
 49
-3.174999999999999
 74
     0
  0
LTYPE
  5
35
330
5
100
AcDbSymbolTableRecord
100
AcDbLinetypeTableRecord
  2
PHANTOM2
 70
     0
  3
Phantom (.5x) ___ _ _ ___ _ _ ___ _ _ ___ _ _
 72
    65
 73
     6
 40
31.75
 49
15.875
 74
     0
 49
-3.174999999999999
 74
     0
 49
3.174999999999999
 74
     0
 49
-3.174999999999999
 74
     0
 49
3.174999999999999
 74
     0
 49
-3.174999999999999
 74
     0
  0
LTYPE
  5
36
330
5
100
AcDbSymbolTableRecord
100
AcDbLinetypeTableRecord
  2
HIDDEN2
 70
     0
  3
Hidden (.5x) _ _ _ _ _ _ _ _ _ _ _ _ _ _ _ _ _
 72
    65
 73
     2
 40
4.762499999999999
 49
3.174999999999999
 74
     0
 49
-1.587499999999999
 74
     0
  0
ENDTAB
  0
TABLE
  2
LAYER
  5
2
330
0
100
AcDbSymbolTable
 70
    13
  0
LAYER
  5
10
330
2
100
AcDbSymbolTableRecord
100
AcDbLayerTableRecord
  2
0
 70
     0
 62
     7
  6
Continuous
370
    -3
390
F
  0
LAYER
  5
40
330
2
100
AcDbSymbolTableRecord
100
AcDbLayerTableRecord
  2
50-0-CON
 70
     0
 62
     4
  6
Continuous
370
    50
390
F
  0
LAYER
  5
41
330
2
100
AcDbSymbolTableRecord
100
AcDbLayerTableRecord
  2
70-0-CON
 70
     0
 62
   202
  6
Continuous
370
    70
390
F
  0
LAYER
  5
4E
330
2
100
AcDbSymbolTableRecord
100
AcDbLayerTableRecord
  2
極太線
 70
     0
 62
     7
  6
Continuous
370
    70
390
F
  0
LAYER
  5
4F
330
2
100
AcDbSymbolTableRecord
100
AcDbLayerTableRecord
  2
細線
 70
     0
 62
     8
  6
Continuous
370
    18
390
F
  0
LAYER
  5
AB
330
2
100
AcDbSymbolTableRecord
100
AcDbLayerTableRecord
  2
構築線
 70
     0
 62
    -2
  6
Continuous
290
     0
370
    18
390
F
  0
LAYER
  5
B8
330
2
100
AcDbSymbolTableRecord
100
AcDbLayerTableRecord
  2
太線
 70
     0
 62
     7
  6
Continuous
370
    35
390
F
  0
LAYER
  5
B9
330
2
100
AcDbSymbolTableRecord
100
AcDbLayerTableRecord
  2
寸法線
 70
     0
 62
     5
  6
Continuous
370
    18
390
F
  0
LAYER
  5
BA
330
2
100
AcDbSymbolTableRecord
100
AcDbLayerTableRecord
  2
破線
 70
     0
 62
     8
  6
HIDDEN2
370
    18
390
F
  0
LAYER
  5
BB
330
2
100
AcDbSymbolTableRecord
100
AcDbLayerTableRecord
  2
中心線
 70
     0
 62
     1
  6
CENTER2
370
    18
390
F
  0
LAYER
  5
BC
330
2
100
AcDbSymbolTableRecord
100
AcDbLayerTableRecord
  2
想像線
 70
     0
 62
     8
  6
PHANTOM2
370
    18
390
F
  0
LAYER
  5
BD
330
2
100
AcDbSymbolTableRecord
100
AcDbLayerTableRecord
  2
文字
 70
     0
 62
     7
  6
Continuous
370
    18
390
F
  0
LAYER
  5
180
330
2
100
AcDbSymbolTableRecord
100
AcDbLayerTableRecord
  2
Defpoints
 70
     0
 62
     7
  6
Continuous
290
     0
370
    -3
390
F
  0
ENDTAB
  0
TABLE
  2
STYLE
  5
3
330
0
100
AcDbSymbolTable
 70
     3
  0
STYLE
  5
11
330
3
100
AcDbSymbolTableRecord
100
AcDbTextStyleTableRecord
  2
Standard
 70
     0
 40
0.0
 41
1.0
 50
0.0
 71
     0
 42
3.0
  3
txt
  4

  0
STYLE
  5
32
330
3
100
AcDbSymbolTableRecord
100
AcDbTextStyleTableRecord
  2

 70
     1
 40
0.0
 41
1.0
 50
0.0
 71
     0
 42
2.5
  3
ltypeshp.shx
  4

  0
STYLE
  5
50
330
3
100
AcDbSymbolTableRecord
100
AcDbTextStyleTableRecord
  2
OKANO
 70
     0
 40
0.0
 41
1.0
 50
15.0
 71
     0
 42
5.0
  3
isocp.shx
  4
bigfont.shx
  0
ENDTAB
  0
TABLE
  2
VIEW
  5
6
330
0
100
AcDbSymbolTable
 70
     0
  0
ENDTAB
  0
TABLE
  2
UCS
  5
7
330
0
100
AcDbSymbolTable
 70
     0
  0
ENDTAB
  0
TABLE
  2
APPID
  5
9
330
0
100
AcDbSymbolTable
 70
     1
  0
APPID
  5
12
330
9
100
AcDbSymbolTableRecord
100
AcDbRegAppTableRecord
  2
ACAD
 70
     0
  0
ENDTAB
  0
TABLE
  2
DIMSTYLE
  5
A
330
0
100
AcDbSymbolTable
 70
     2
100
AcDbDimStyleTable
 71
     2
340
A2
340
27
  0
DIMSTYLE
105
27
330
A
100
AcDbSymbolTableRecord
100
AcDbDimStyleTableRecord
  2
ISO-25
 70
     0
 41
2.5
 42
0.625
 43
3.75
 44
1.25
 73
     0
 74
     0
 77
     1
 78
     8
140
2.5
141
2.5
143
0.03937007874016
147
0.625
171
     3
172
     1
271
     2
272
     2
274
     3
283
     0
284
     8
340
11
  0
DIMSTYLE
105
A2
102
{ACAD_REACTORS
330
3414
330
3412
330
3905
330
3912
330
391F
330
3986
330
3993
330
39A0
330
39AD
330
39BA
330
39D0
330
39EA
330
3A0D
330
3A23
330
3A38
330
3A44
330
3A82
102
}
330
A
100
AcDbSymbolTableRecord
100
AcDbDimStyleTableRecord
  2
sunpo
 70
     0
 40
0.0
 41
3.0
 42
2.0
 43
8.0
 44
3.0
 73
     0
 74
     0
 77
     1
 78
     8
140
5.0
141
2.5
143
0.03937007874016
147
1.0
171
     3
172
     1
271
     2
272
     2
274
     3
283
     0
284
     8
340
50
341
9B
342
9B
  0
ENDTAB
  0
TABLE
  2
BLOCK_RECORD
  5
1
330
0
100
AcDbSymbolTable
 70
    19
  0
BLOCK_RECORD
  5
1F
330
1
100
AcDbSymbolTableRecord
100
AcDbBlockTableRecord
  2
*Model_Space
340
22
  0
BLOCK_RECORD
  5
1B
330
1
100
AcDbSymbolTableRecord
100
AcDbBlockTableRecord
  2
*Paper_Space
340
1E
  0
BLOCK_RECORD
  5
9B
330
1
100
AcDbSymbolTableRecord
100
AcDbBlockTableRecord
  2
_Closed
340
0
102
{BLKREFS
331
352C
331
352D
331
3938
331
3939
331
398B
331
398C
331
3998
331
3999
331
39A5
331
39A6
331
39B2
331
39B3
331
39BF
331
39C0
331
39CA
331
39CB
331
39D5
331
39D6
331
39EF
331
39F0
331
39FA
331
39FB
331
3A1D
331
3A1E
331
3A29
331
3A2A
331
3A76
331
3A77
331
3A7E
331
3A7F
331
3ADE
331
3ADF
331
3AEA
331
3AEB
102
}
  0
BLOCK_RECORD
  5
1510
330
1
100
AcDbSymbolTableRecord
100
AcDbBlockTableRecord
  2
A$C10A573AC
340
0
  0
BLOCK_RECORD
  5
346A
330
1
100
AcDbSymbolTableRecord
100
AcDbBlockTableRecord
  2
*D2
340
0
  0
BLOCK_RECORD
  5
3490
330
1
100
AcDbSymbolTableRecord
100
AcDbBlockTableRecord
  2
*D3
340
0
  0
BLOCK_RECORD
  5
3906
330
1
100
AcDbSymbolTableRecord
100
AcDbBlockTableRecord
  2
*D4
340
0
  0
BLOCK_RECORD
  5
3913
330
1
100
AcDbSymbolTableRecord
100
AcDbBlockTableRecord
  2
*D5
340
0
  0
BLOCK_RECORD
  5
3920
330
1
100
AcDbSymbolTableRecord
100
AcDbBlockTableRecord
  2
*D6
340
0
  0
BLOCK_RECORD
  5
3987
330
1
100
AcDbSymbolTableRecord
100
AcDbBlockTableRecord
  2
*D7
340
0
  0
BLOCK_RECORD
  5
3994
330
1
100
AcDbSymbolTableRecord
100
AcDbBlockTableRecord
  2
*D8
340
0
  0
BLOCK_RECORD
  5
39A1
330
1
100
AcDbSymbolTableRecord
100
AcDbBlockTableRecord
  2
*D9
340
0
  0
BLOCK_RECORD
  5
39AE
330
1
100
AcDbSymbolTableRecord
100
AcDbBlockTableRecord
  2
*D10
340
0
  0
BLOCK_RECORD
  5
39BB
330
1
100
AcDbSymbolTableRecord
100
AcDbBlockTableRecord
  2
*D11
340
0
  0
BLOCK_RECORD
  5
39D1
330
1
100
AcDbSymbolTableRecord
100
AcDbBlockTableRecord
  2
*D12
340
0
  0
BLOCK_RECORD
  5
39EB
330
1
100
AcDbSymbolTableRecord
100
AcDbBlockTableRecord
  2
*D13
340
0
  0
BLOCK_RECORD
  5
3A0E
330
1
100
AcDbSymbolTableRecord
100
AcDbBlockTableRecord
  2
*D14
340
0
  0
BLOCK_RECORD
  5
3A24
330
1
100
AcDbSymbolTableRecord
100
AcDbBlockTableRecord
  2
*D15
340
0
  0
BLOCK_RECORD
  5
3A39
330
1
100
AcDbSymbolTableRecord
100
AcDbBlockTableRecord
  2
*D16
340
0
  0
BLOCK_RECORD
  5
3A45
330
1
100
AcDbSymbolTableRecord
100
AcDbBlockTableRecord
  2
*D17
340
0
  0
BLOCK_RECORD
  5
3A83
330
1
100
AcDbSymbolTableRecord
100
AcDbBlockTableRecord
  2
*D18
340
0
  0
ENDTAB
  0
ENDSEC
  0
SECTION
  2
BLOCKS
  0
BLOCK
  5
20
330
1F
100
AcDbEntity
  8
0
100
AcDbBlockBegin
  2
*Model_Space
 70
     0
 10
0.0
 20
0.0
 30
0.0
  3
*Model_Space
  1

  0
ENDBLK
  5
21
330
1F
100
AcDbEntity
  8
0
100
AcDbBlockEnd
  0
BLOCK
  5
1C
330
1B
100
AcDbEntity
 67
     1
  8
0
100
AcDbBlockBegin
  2
*Paper_Space
 70
     0
 10
0.0
 20
0.0
 30
0.0
  3
*Paper_Space
  1

  0
ENDBLK
  5
1D
330
1B
100
AcDbEntity
 67
     1
  8
0
100
AcDbBlockEnd
  0
BLOCK
  5
A0
330
9B
100
AcDbEntity
  8
0
100
AcDbBlockBegin
  2
_Closed
 70
     0
 10
0.0
 20
0.0
 30
0.0
  3
_Closed
  1

  0
LINE
  5
9C
330
9B
100
AcDbEntity
  8
0
 62
     0
370
    -2
100
AcDbLine
 10
-1.0
 20
0.1666666666666666
 30
0.0
 11
0.0
 21
0.0
 31
0.0
  0
LINE
  5
9D
330
9B
100
AcDbEntity
  8
0
 62
     0
370
    -2
100
AcDbLine
 10
0.0
 20
0.0
 30
0.0
 11
-1.0
 21
-0.1666666666666666
 31
0.0
  0
LINE
  5
9E
330
9B
100
AcDbEntity
  8
0
 62
     0
370
    -2
100
AcDbLine
 10
-1.0
 20
0.1666666666666666
 30
0.0
 11
-1.0
 21
-0.1666666666666666
 31
0.0
  0
LINE
  5
9F
330
9B
100
AcDbEntity
  8
0
 62
     0
370
    -2
100
AcDbLine
 10
0.0
 20
0.0
 30
0.0
 11
-1.0
 21
0.0
 31
0.0
  0
ENDBLK
  5
A1
330
9B
100
AcDbEntity
  8
0
100
AcDbBlockEnd
  0
BLOCK
  5
155B
330
1510
100
AcDbEntity
  8
0
100
AcDbBlockBegin
  2
A$C10A573AC
 70
     0
 10
0.0
 20
0.0
 30
0.0
  3
A$C10A573AC
  1

  0
TEXT
  5
1511
330
1510
100
AcDbEntity
  8
文字
100
AcDbText
 10
0.9844302777919438
 20
5.224957122252135
 30
0.0
 40
3.0
  1
Materal : Steel.
 51
15.0
  7
OKANO
100
AcDbText
  0
TEXT
  5
1512
330
1510
100
AcDbEntity
  8
文字
100
AcDbText
 10
-0.1141909619694843
 20
0.7500001922403499
 30
0.0
 40
3.0
  1
Surface treatment : Electro galvanized.
 51
15.0
  7
OKANO
100
AcDbText
  0
TEXT
  5
1513
330
1510
100
AcDbEntity
  8
文字
100
AcDbText
 10
-0.4901926332574931
 20
9.159967445193728
 30
0.0
 40
3.0
  1
5 TORGUE SCREW  M5-6
 51
15.0
  7
OKANO
100
AcDbText
  0
TEXT
  5
1514
330
1510
100
AcDbEntity
  8
文字
100
AcDbText
 10
1.364713526390005
 20
78.88822913323082
 30
0.0
 40
3.0
  1
Special standard,
 51
15.0
  7
OKANO
100
AcDbText
  0
TEXT
  5
1515
330
1510
100
AcDbEntity
  8
文字
100
AcDbText
 10
92.88160823408942
 20
89.92753849837379
 30
0.0
 40
3.0
  1
Screw Type
 51
15.0
  7
OKANO
100
AcDbText
  0
LINE
  5
1516
330
1510
100
AcDbEntity
  8
太線
100
AcDbLine
 10
113.9464587597784
 20
81.93930390144641
 30
0.0
 11
112.4464587597784
 21
81.93930390144641
 31
0.0
  0
LINE
  5
1517
330
1510
100
AcDbEntity
  8
太線
100
AcDbLine
 10
112.4464587597784
 20
76.9393039014464
 30
0.0
 11
121.4644995438761
 21
76.9393039014464
 31
0.0
  0
TEXT
  5
1518
330
1510
100
AcDbEntity
  8
文字
100
AcDbText
 10
93.46068240437217
 20
77.96976862235396
 30
0.0
 40
2.0
  1
17-30
 51
15.0
  7
OKANO
100
AcDbText
  0
LINE
  5
1519
330
1510
100
AcDbEntity
  8
太線
100
AcDbLine
 10
111.9464587597784
 20
81.43930390144641
 30
0.0
 11
111.9464587597784
 21
77.4393039014464
 31
0.0
  0
LINE
  5
151A
330
1510
100
AcDbEntity
  8
太線
100
AcDbLine
 10
91.94645875977846
 20
81.43930390144641
 30
0.0
 11
91.94645875977846
 21
77.43930390144639
 31
0.0
  0
LINE
  5
151B
330
1510
100
AcDbEntity
  8
太線
100
AcDbLine
 10
101.9644995438761
 20
77.4393039014464
 30
0.0
 11
101.9644995438761
 21
81.43930390144641
 31
0.0
  0
LINE
  5
151C
330
1510
100
AcDbEntity
  8
太線
100
AcDbLine
 10
92.44645875977846
 20
76.9393039014464
 30
0.0
 11
101.4644995438761
 21
76.9393039014464
 31
0.0
  0
ARC
  5
151D
330
1510
100
AcDbEntity
  8
太線
100
AcDbCircle
 10
92.44645875977846
 20
77.43930390144639
 30
0.0
 40
0.5
100
AcDbArc
 50
180.0
 51
270.0
  0
ARC
  5
151E
330
1510
100
AcDbEntity
  8
太線
100
AcDbCircle
 10
101.4644995438761
 20
77.4393039014464
 30
0.0
 40
0.5
100
AcDbArc
 50
270.0
 51
0.0
  0
ARC
  5
151F
330
1510
100
AcDbEntity
  8
太線
100
AcDbCircle
 10
112.4464587597784
 20
77.4393039014464
 30
0.0
 40
0.5
100
AcDbArc
 50
180.0
 51
270.0
  0
LINE
  5
1520
330
1510
100
AcDbEntity
  8
想像線
100
AcDbLine
 10
93.94645875977847
 20
81.93930390144641
 30
0.0
 11
99.96449954387617
 21
81.93930390144641
 31
0.0
  0
LINE
  5
1521
330
1510
100
AcDbEntity
  8
極太線
100
AcDbLine
 10
96.38762957111168
 20
85.43930390144641
 30
0.0
 11
97.50528794844525
 21
85.43930390144641
 31
0.0
  0
CIRCLE
  5
1522
330
1510
100
AcDbEntity
  8
太線
100
AcDbCircle
 10
96.94645875977847
 20
85.43930390144641
 30
0.0
 40
0.5588291886667776
  0
LINE
  5
1523
330
1510
100
AcDbEntity
  8
太線
100
AcDbLine
 10
99.46449954387617
 20
86.93930390144641
 30
0.0
 11
94.44645875977846
 21
86.93930390144641
 31
0.0
  0
LINE
  5
1524
330
1510
100
AcDbEntity
  8
太線
100
AcDbLine
 10
93.94645875977847
 20
86.43930390144641
 30
0.0
 11
93.94645875977847
 21
81.93930390144641
 31
0.0
  0
ARC
  5
1525
330
1510
100
AcDbEntity
  8
太線
100
AcDbCircle
 10
92.44645875977846
 20
81.43930390144641
 30
0.0
 40
0.5
100
AcDbArc
 50
90.0
 51
180.0
  0
LINE
  5
1526
330
1510
100
AcDbEntity
  8
太線
100
AcDbLine
 10
93.94645875977847
 20
81.93930390144641
 30
0.0
 11
92.44645875977846
 21
81.93930390144641
 31
0.0
  0
ARC
  5
1527
330
1510
100
AcDbEntity
  8
太線
100
AcDbCircle
 10
94.44645875977846
 20
86.43930390144641
 30
0.0
 40
0.5
100
AcDbArc
 50
90.0
 51
180.0
  0
LINE
  5
1528
330
1510
100
AcDbEntity
  8
太線
100
AcDbLine
 10
99.96449954387617
 20
81.93930390144641
 30
0.0
 11
99.96449954387617
 21
86.43930390144641
 31
0.0
  0
LINE
  5
1529
330
1510
100
AcDbEntity
  8
太線
100
AcDbLine
 10
101.4644995438761
 20
81.93930390144641
 30
0.0
 11
99.96449954387617
 21
81.93930390144641
 31
0.0
  0
ARC
  5
152A
330
1510
100
AcDbEntity
  8
太線
100
AcDbCircle
 10
101.4644995438761
 20
81.43930390144641
 30
0.0
 40
0.5
100
AcDbArc
 50
0.0
 51
90.0
  0
ARC
  5
152B
330
1510
100
AcDbEntity
  8
太線
100
AcDbCircle
 10
99.46449954387617
 20
86.43930390144641
 30
0.0
 40
0.5
100
AcDbArc
 50
0.0
 51
90.0
  0
LINE
  5
152C
330
1510
100
AcDbEntity
  8
極太線
100
AcDbLine
 10
96.94645875977847
 20
85.99813309011318
 30
0.0
 11
96.94645875977847
 21
84.88047471277964
 31
0.0
  0
ARC
  5
152D
330
1510
100
AcDbEntity
  8
太線
100
AcDbCircle
 10
112.4464587597784
 20
81.43930390144641
 30
0.0
 40
0.5
100
AcDbArc
 50
90.0
 51
180.0
  0
TEXT
  5
152E
330
1510
100
AcDbEntity
  8
文字
100
AcDbText
 10
134.3819212586066
 20
78.16263579228063
 30
0.0
 40
2.0
  1
101
 51
15.0
  7
OKANO
100
AcDbText
  0
TEXT
  5
152F
330
1510
100
AcDbEntity
  8
文字
100
AcDbText
 10
113.3422276612066
 20
77.96976862235396
 30
0.0
 40
2.0
  1
38-83
 51
15.0
  7
OKANO
100
AcDbText
  0
LINE
  5
1530
330
1510
100
AcDbEntity
  8
太線
100
AcDbLine
 10
141.9825403279738
 20
77.4393039014464
 30
0.0
 11
141.9825403279738
 21
81.43930390144641
 31
0.0
  0
LINE
  5
1531
330
1510
100
AcDbEntity
  8
太線
100
AcDbLine
 10
131.9644995438761
 20
81.43930390144641
 30
0.0
 11
131.9644995438761
 21
77.4393039014464
 31
0.0
  0
LINE
  5
1532
330
1510
100
AcDbEntity
  8
太線
100
AcDbLine
 10
121.9644995438761
 20
77.4393039014464
 30
0.0
 11
121.9644995438761
 21
81.43930390144641
 31
0.0
  0
ARC
  5
1533
330
1510
100
AcDbEntity
  8
太線
100
AcDbCircle
 10
121.4644995438761
 20
77.4393039014464
 30
0.0
 40
0.5
100
AcDbArc
 50
270.0
 51
0.0
  0
LINE
  5
1534
330
1510
100
AcDbEntity
  8
太線
100
AcDbLine
 10
132.4644995438761
 20
76.9393039014464
 30
0.0
 11
141.4825403279738
 21
76.9393039014464
 31
0.0
  0
ARC
  5
1535
330
1510
100
AcDbEntity
  8
太線
100
AcDbCircle
 10
132.4644995438761
 20
77.4393039014464
 30
0.0
 40
0.5
100
AcDbArc
 50
180.0
 51
270.0
  0
ARC
  5
1536
330
1510
100
AcDbEntity
  8
太線
100
AcDbCircle
 10
141.4825403279738
 20
77.4393039014464
 30
0.0
 40
0.5
100
AcDbArc
 50
270.0
 51
0.0
  0
ARC
  5
1537
330
1510
100
AcDbEntity
  8
太線
100
AcDbCircle
 10
121.4644995438761
 20
81.43930390144641
 30
0.0
 40
0.5
100
AcDbArc
 50
0.0
 51
90.0
  0
LINE
  5
1538
330
1510
100
AcDbEntity
  8
太線
100
AcDbLine
 10
119.9644995438761
 20
81.93930390144641
 30
0.0
 11
119.9644995438761
 21
86.43930390144641
 31
0.0
  0
LINE
  5
1539
330
1510
100
AcDbEntity
  8
太線
100
AcDbLine
 10
113.9464587597784
 20
86.43930390144641
 30
0.0
 11
113.9464587597784
 21
81.93930390144641
 31
0.0
  0
LINE
  5
153A
330
1510
100
AcDbEntity
  8
想像線
100
AcDbLine
 10
113.9464587597784
 20
81.93930390144641
 30
0.0
 11
119.9644995438761
 21
81.93930390144641
 31
0.0
  0
LINE
  5
153B
330
1510
100
AcDbEntity
  8
太線
100
AcDbLine
 10
121.4644995438761
 20
81.93930390144641
 30
0.0
 11
119.9644995438761
 21
81.93930390144641
 31
0.0
  0
LINE
  5
153C
330
1510
100
AcDbEntity
  8
太線
100
AcDbLine
 10
119.4644995438761
 20
86.93930390144641
 30
0.0
 11
114.4464587597784
 21
86.93930390144641
 31
0.0
  0
ARC
  5
153D
330
1510
100
AcDbEntity
  8
太線
100
AcDbCircle
 10
114.4464587597784
 20
86.43930390144641
 30
0.0
 40
0.5
100
AcDbArc
 50
90.0
 51
180.0
  0
CIRCLE
  5
153E
330
1510
100
AcDbEntity
  8
太線
100
AcDbCircle
 10
115.4464587597784
 20
85.43930390144641
 30
0.0
 40
0.5588291886667776
  0
LINE
  5
153F
330
1510
100
AcDbEntity
  8
極太線
100
AcDbLine
 10
115.4464587597784
 20
85.99813309011318
 30
0.0
 11
115.4464587597784
 21
84.88047471277964
 31
0.0
  0
LINE
  5
1540
330
1510
100
AcDbEntity
  8
極太線
100
AcDbLine
 10
114.8876295711116
 20
85.43930390144641
 30
0.0
 11
116.0052879484452
 21
85.43930390144641
 31
0.0
  0
ARC
  5
1541
330
1510
100
AcDbEntity
  8
太線
100
AcDbCircle
 10
119.4644995438761
 20
86.43930390144641
 30
0.0
 40
0.5
100
AcDbArc
 50
0.0
 51
90.0
  0
LINE
  5
1542
330
1510
100
AcDbEntity
  8
極太線
100
AcDbLine
 10
117.9056703552094
 20
85.43930390144641
 30
0.0
 11
119.0233287325429
 21
85.43930390144641
 31
0.0
  0
LINE
  5
1543
330
1510
100
AcDbEntity
  8
極太線
100
AcDbLine
 10
118.4644995438761
 20
85.99813309011318
 30
0.0
 11
118.4644995438761
 21
84.88047471277964
 31
0.0
  0
CIRCLE
  5
1544
330
1510
100
AcDbEntity
  8
太線
100
AcDbCircle
 10
118.4644995438761
 20
85.43930390144641
 30
0.0
 40
0.5588291886667776
  0
LINE
  5
1545
330
1510
100
AcDbEntity
  8
想像線
100
AcDbLine
 10
133.9644995438761
 20
81.93930390144641
 30
0.0
 11
139.9825403279738
 21
81.93930390144641
 31
0.0
  0
LINE
  5
1546
330
1510
100
AcDbEntity
  8
極太線
100
AcDbLine
 10
137.9237111393071
 20
85.43930390144641
 30
0.0
 11
139.0413695166406
 21
85.43930390144641
 31
0.0
  0
CIRCLE
  5
1547
330
1510
100
AcDbEntity
  8
太線
100
AcDbCircle
 10
138.4825403279738
 20
85.43930390144641
 30
0.0
 40
0.5588291886667776
  0
CIRCLE
  5
1548
330
1510
100
AcDbEntity
  8
太線
100
AcDbCircle
 10
138.4825403279738
 20
83.26342923362075
 30
0.0
 40
0.5588291886667776
  0
LINE
  5
1549
330
1510
100
AcDbEntity
  8
極太線
100
AcDbLine
 10
137.9237111393071
 20
83.26342923362075
 30
0.0
 11
139.0413695166406
 21
83.26342923362075
 31
0.0
  0
LINE
  5
154A
330
1510
100
AcDbEntity
  8
太線
100
AcDbLine
 10
139.4825403279738
 20
86.93930390144641
 30
0.0
 11
134.4644995438761
 21
86.93930390144641
 31
0.0
  0
LINE
  5
154B
330
1510
100
AcDbEntity
  8
太線
100
AcDbLine
 10
133.9644995438761
 20
86.43930390144641
 30
0.0
 11
133.9644995438761
 21
81.93930390144641
 31
0.0
  0
ARC
  5
154C
330
1510
100
AcDbEntity
  8
太線
100
AcDbCircle
 10
132.4644995438761
 20
81.43930390144641
 30
0.0
 40
0.5
100
AcDbArc
 50
90.0
 51
180.0
  0
LINE
  5
154D
330
1510
100
AcDbEntity
  8
太線
100
AcDbLine
 10
133.9644995438761
 20
81.93930390144641
 30
0.0
 11
132.4644995438761
 21
81.93930390144641
 31
0.0
  0
LINE
  5
154E
330
1510
100
AcDbEntity
  8
極太線
100
AcDbLine
 10
134.9056703552093
 20
83.26342923362075
 30
0.0
 11
136.0233287325429
 21
83.26342923362075
 31
0.0
  0
LINE
  5
154F
330
1510
100
AcDbEntity
  8
極太線
100
AcDbLine
 10
135.4644995438761
 20
83.82225842228752
 30
0.0
 11
135.4644995438761
 21
82.70460004495395
 31
0.0
  0
CIRCLE
  5
1550
330
1510
100
AcDbEntity
  8
太線
100
AcDbCircle
 10
135.4644995438761
 20
83.26342923362075
 30
0.0
 40
0.5588291886667776
  0
ARC
  5
1551
330
1510
100
AcDbEntity
  8
太線
100
AcDbCircle
 10
134.4644995438761
 20
86.43930390144641
 30
0.0
 40
0.5
100
AcDbArc
 50
90.0
 51
180.0
  0
CIRCLE
  5
1552
330
1510
100
AcDbEntity
  8
太線
100
AcDbCircle
 10
135.4644995438761
 20
85.43930390144641
 30
0.0
 40
0.5588291886667776
  0
LINE
  5
1553
330
1510
100
AcDbEntity
  8
極太線
100
AcDbLine
 10
135.4644995438761
 20
85.99813309011318
 30
0.0
 11
135.4644995438761
 21
84.88047471277964
 31
0.0
  0
LINE
  5
1554
330
1510
100
AcDbEntity
  8
極太線
100
AcDbLine
 10
134.9056703552093
 20
85.43930390144641
 30
0.0
 11
136.0233287325429
 21
85.43930390144641
 31
0.0
  0
LINE
  5
1555
330
1510
100
AcDbEntity
  8
太線
100
AcDbLine
 10
139.9825403279738
 20
81.93930390144641
 30
0.0
 11
139.9825403279738
 21
86.43930390144641
 31
0.0
  0
ARC
  5
1556
330
1510
100
AcDbEntity
  8
太線
100
AcDbCircle
 10
141.4825403279738
 20
81.43930390144641
 30
0.0
 40
0.5
100
AcDbArc
 50
0.0
 51
90.0
  0
LINE
  5
1557
330
1510
100
AcDbEntity
  8
極太線
100
AcDbLine
 10
138.4825403279738
 20
83.82225842228752
 30
0.0
 11
138.4825403279738
 21
82.70460004495395
 31
0.0
  0
LINE
  5
1558
330
1510
100
AcDbEntity
  8
太線
100
AcDbLine
 10
141.4825403279738
 20
81.93930390144641
 30
0.0
 11
139.9825403279738
 21
81.93930390144641
 31
0.0
  0
ARC
  5
1559
330
1510
100
AcDbEntity
  8
太線
100
AcDbCircle
 10
139.4825403279738
 20
86.43930390144641
 30
0.0
 40
0.5
100
AcDbArc
 50
0.0
 51
90.0
  0
LINE
  5
155A
330
1510
100
AcDbEntity
  8
極太線
100
AcDbLine
 10
138.4825403279738
 20
85.99813309011318
 30
0.0
 11
138.4825403279738
 21
84.88047471277964
 31
0.0
  0
ENDBLK
  5
155C
330
1510
100
AcDbEntity
  8
0
100
AcDbBlockEnd
  0
BLOCK
  5
3474
330
346A
100
AcDbEntity
  8
0
100
AcDbBlockBegin
  2
*D2
 70
     1
 10
0.0
 20
0.0
 30
0.0
  3
*D2
  1

  0
LINE
  5
39F7
330
346A
100
AcDbEntity
  8
寸法線
 62
     0
370
    -2
100
AcDbLine
 10
482.0337151808912
 20
263.1490861672506
 30
0.0
 11
482.0337151808912
 21
270.540308216012
 31
0.0
  0
LINE
  5
39F8
330
346A
100
AcDbEntity
  8
寸法線
 62
     0
370
    -2
100
AcDbLine
 10
541.0337151808912
 20
263.1490861672506
 30
0.0
 11
541.0337151808912
 21
270.540308216012
 31
0.0
  0
LINE
  5
39F9
330
346A
100
AcDbEntity
  8
寸法線
 62
     0
370
    -2
100
AcDbLine
 10
485.0337151808912
 20
267.540308216012
 30
0.0
 11
538.0337151808912
 21
267.540308216012
 31
0.0
  0
INSERT
  5
39FA
330
346A
100
AcDbEntity
  8
寸法線
 62
     0
370
    -2
100
AcDbBlockReference
  2
_Closed
 10
482.0337151808912
 20
267.540308216012
 30
0.0
 41
3.0
 42
3.0
 43
3.0
 50
180.0
  0
INSERT
  5
39FB
330
346A
100
AcDbEntity
  8
寸法線
 62
     0
370
    -2
100
AcDbBlockReference
  2
_Closed
 10
541.0337151808912
 20
267.540308216012
 30
0.0
 41
3.0
 42
3.0
 43
3.0
  0
MTEXT
  5
39FC
330
346A
100
AcDbEntity
  8
寸法線
 62
     0
100
AcDbMText
 10
511.5337151808912
 20
271.040308216012
 30
0.0
 40
5.0
 41
0.0
 71
     5
 72
     1
  1
58
  7
OKANO
 73
     1
 44
1.0
  0
POINT
  5
39FD
330
346A
100
AcDbEntity
  8
Defpoints
 62
     0
100
AcDbPoint
 10
482.0337151808912
 20
261.1490861672506
 30
0.0
  0
POINT
  5
39FE
330
346A
100
AcDbEntity
  8
Defpoints
 62
     0
100
AcDbPoint
 10
541.0337151808912
 20
261.1490861672506
 30
0.0
  0
POINT
  5
39FF
330
346A
100
AcDbEntity
  8
Defpoints
 62
     0
100
AcDbPoint
 10
541.0337151808912
 20
267.540308216012
 30
0.0
  0
ENDBLK
  5
3475
330
346A
100
AcDbEntity
  8
0
100
AcDbBlockEnd
  0
BLOCK
  5
349A
330
3490
100
AcDbEntity
  8
0
100
AcDbBlockBegin
  2
*D3
 70
     1
 10
0.0
 20
0.0
 30
0.0
  3
*D3
  1

  0
LINE
  5
3529
330
3490
100
AcDbEntity
  8
寸法線
 62
     0
370
    -2
100
AcDbLine
 10
486.9548094437586
 20
246.1033779082578
 30
0.0
 11
486.9548094437586
 21
242.3210645537116
 31
0.0
  0
LINE
  5
352A
330
3490
100
AcDbEntity
  8
寸法線
 62
     0
370
    -2
100
AcDbLine
 10
534.8565407348201
 20
246.1033779082578
 30
0.0
 11
534.8565407348201
 21
242.3210645537116
 31
0.0
  0
LINE
  5
352B
330
3490
100
AcDbEntity
  8
寸法線
 62
     0
370
    -2
100
AcDbLine
 10
489.9548094437586
 20
245.3210645537116
 30
0.0
 11
531.85654073482
 21
245.3210645537116
 31
0.0
  0
INSERT
  5
352C
330
3490
100
AcDbEntity
  8
寸法線
 62
     0
370
    -2
100
AcDbBlockReference
  2
_Closed
 10
486.9548094437586
 20
245.3210645537116
 30
0.0
 41
3.0
 42
3.0
 43
3.0
 50
180.0
  0
INSERT
  5
352D
330
3490
100
AcDbEntity
  8
寸法線
 62
     0
370
    -2
100
AcDbBlockReference
  2
_Closed
 10
534.8565407348201
 20
245.3210645537116
 30
0.0
 41
3.0
 42
3.0
 43
3.0
  0
MTEXT
  5
352E
330
3490
100
AcDbEntity
  8
寸法線
 62
     0
100
AcDbMText
 10
510.9056750892894
 20
248.8210645537116
 30
0.0
 40
5.0
 41
0.0
 71
     5
 72
     1
  1
49
  7
OKANO
 73
     1
 44
1.0
  0
POINT
  5
352F
330
3490
100
AcDbEntity
  8
Defpoints
 62
     0
100
AcDbPoint
 10
486.9548094437586
 20
248.1033779082578
 30
0.0
  0
POINT
  5
3530
330
3490
100
AcDbEntity
  8
Defpoints
 62
     0
100
AcDbPoint
 10
534.8565407348201
 20
248.1033779082578
 30
0.0
  0
POINT
  5
3531
330
3490
100
AcDbEntity
  8
Defpoints
 62
     0
100
AcDbPoint
 10
534.8565407348201
 20
245.3210645537116
 30
0.0
  0
ENDBLK
  5
349B
330
3490
100
AcDbEntity
  8
0
100
AcDbBlockEnd
  0
BLOCK
  5
3910
330
3906
100
AcDbEntity
  8
0
100
AcDbBlockBegin
  2
*D4
 70
     1
 10
0.0
 20
0.0
 30
0.0
  3
*D4
  1

  0
LINE
  5
39C7
330
3906
100
AcDbEntity
  8
寸法線
 62
     0
370
    -2
100
AcDbLine
 10
461.0337151808912
 20
99.75151561560075
 30
0.0
 11
461.0337151808912
 21
76.1699907034507
 31
0.0
  0
LINE
  5
39C8
330
3906
100
AcDbEntity
  8
寸法線
 62
     0
370
    -2
100
AcDbLine
 10
561.0337151808912
 20
99.75151561560075
 30
0.0
 11
561.0337151808912
 21
76.1699907034507
 31
0.0
  0
LINE
  5
39C9
330
3906
100
AcDbEntity
  8
寸法線
 62
     0
370
    -2
100
AcDbLine
 10
464.0337151808912
 20
79.1699907034507
 30
0.0
 11
558.0337151808912
 21
79.1699907034507
 31
0.0
  0
INSERT
  5
39CA
330
3906
100
AcDbEntity
  8
寸法線
 62
     0
370
    -2
100
AcDbBlockReference
  2
_Closed
 10
461.0337151808912
 20
79.1699907034507
 30
0.0
 41
3.0
 42
3.0
 43
3.0
 50
180.0
  0
INSERT
  5
39CB
330
3906
100
AcDbEntity
  8
寸法線
 62
     0
370
    -2
100
AcDbBlockReference
  2
_Closed
 10
561.0337151808912
 20
79.1699907034507
 30
0.0
 41
3.0
 42
3.0
 43
3.0
  0
MTEXT
  5
39CC
330
3906
100
AcDbEntity
  8
寸法線
 62
     0
100
AcDbMText
 10
511.0337151808912
 20
85.1699907034507
 30
0.0
 40
10.0
 41
0.0
 71
     5
 72
     1
  1
横（100）
  7
OKANO
 73
     1
 44
1.0
  0
POINT
  5
39CD
330
3906
100
AcDbEntity
  8
Defpoints
 62
     0
100
AcDbPoint
 10
461.0337151808912
 20
101.7515156156007
 30
0.0
  0
POINT
  5
39CE
330
3906
100
AcDbEntity
  8
Defpoints
 62
     0
100
AcDbPoint
 10
561.0337151808912
 20
101.7515156156007
 30
0.0
  0
POINT
  5
39CF
330
3906
100
AcDbEntity
  8
Defpoints
 62
     0
100
AcDbPoint
 10
561.0337151808912
 20
79.1699907034507
 30
0.0
  0
ENDBLK
  5
3911
330
3906
100
AcDbEntity
  8
0
100
AcDbBlockEnd
  0
BLOCK
  5
391D
330
3913
100
AcDbEntity
  8
0
100
AcDbBlockBegin
  2
*D5
 70
     1
 10
0.0
 20
0.0
 30
0.0
  3
*D5
  1

  0
LINE
  5
3935
330
3913
100
AcDbEntity
  8
寸法線
 62
     0
370
    -2
100
AcDbLine
 10
563.0337151808912
 20
201.7515156156007
 30
0.0
 11
596.0971086640479
 21
201.7515156156007
 31
0.0
  0
LINE
  5
3936
330
3913
100
AcDbEntity
  8
寸法線
 62
     0
370
    -2
100
AcDbLine
 10
563.0337151808912
 20
101.7515156156007
 30
0.0
 11
596.0971086640479
 21
101.7515156156007
 31
0.0
  0
LINE
  5
3937
330
3913
100
AcDbEntity
  8
寸法線
 62
     0
370
    -2
100
AcDbLine
 10
593.0971086640479
 20
198.7515156156007
 30
0.0
 11
593.0971086640479
 21
104.7515156156007
 31
0.0
  0
INSERT
  5
3938
330
3913
100
AcDbEntity
  8
寸法線
 62
     0
370
    -2
100
AcDbBlockReference
  2
_Closed
 10
593.0971086640479
 20
201.7515156156007
 30
0.0
 41
3.0
 42
3.0
 43
3.0
 50
90.0
  0
INSERT
  5
3939
330
3913
100
AcDbEntity
  8
寸法線
 62
     0
370
    -2
100
AcDbBlockReference
  2
_Closed
 10
593.0971086640479
 20
101.7515156156007
 30
0.0
 41
3.0
 42
3.0
 43
3.0
 50
270.0
  0
MTEXT
  5
393A
330
3913
100
AcDbEntity
  8
寸法線
 62
     0
100
AcDbMText
 10
586.5971086640479
 20
151.7515156156008
 30
0.0
 40
10.0
 41
0.0
 71
     5
 72
     1
  1
高さ（H)
  7
OKANO
 11
0.0000000000000001
 21
1.0
 31
0.0
 73
     1
 44
1.0
  0
POINT
  5
393B
330
3913
100
AcDbEntity
  8
Defpoints
 62
     0
100
AcDbPoint
 10
561.0337151808912
 20
201.7515156156007
 30
0.0
  0
POINT
  5
393C
330
3913
100
AcDbEntity
  8
Defpoints
 62
     0
100
AcDbPoint
 10
561.0337151808912
 20
101.7515156156007
 30
0.0
  0
POINT
  5
393D
330
3913
100
AcDbEntity
  8
Defpoints
 62
     0
100
AcDbPoint
 10
593.0971086640479
 20
101.7515156156007
 30
0.0
  0
ENDBLK
  5
391E
330
3913
100
AcDbEntity
  8
0
100
AcDbBlockEnd
  0
BLOCK
  5
392A
330
3920
100
AcDbEntity
  8
0
100
AcDbBlockBegin
  2
*D6
 70
     1
 10
0.0
 20
0.0
 30
0.0
  3
*D6
  1

  0
LINE
  5
3AE7
330
3920
100
AcDbEntity
  8
寸法線
 62
     0
370
    -2
100
AcDbLine
 10
771.6967474263042
 20
424.4764597527802
 30
0.0
 11
776.5001970075318
 21
424.4764597527802
 31
0.0
  0
LINE
  5
3AE8
330
3920
100
AcDbEntity
  8
寸法線
 62
     0
370
    -2
100
AcDbLine
 10
771.6967474263042
 20
283.8763652268474
 30
0.0
 11
776.5001970075318
 21
283.8763652268474
 31
0.0
  0
LINE
  5
3AE9
330
3920
100
AcDbEntity
  8
寸法線
 62
     0
370
    -2
100
AcDbLine
 10
773.5001970075318
 20
421.4764597527802
 30
0.0
 11
773.5001970075318
 21
286.8763652268475
 31
0.0
  0
INSERT
  5
3AEA
330
3920
100
AcDbEntity
  8
寸法線
 62
     0
370
    -2
100
AcDbBlockReference
  2
_Closed
 10
773.5001970075318
 20
424.4764597527802
 30
0.0
 41
3.0
 42
3.0
 43
3.0
 50
90.0
  0
INSERT
  5
3AEB
330
3920
100
AcDbEntity
  8
寸法線
 62
     0
370
    -2
100
AcDbBlockReference
  2
_Closed
 10
773.5001970075318
 20
283.8763652268474
 30
0.0
 41
3.0
 42
3.0
 43
3.0
 50
270.0
  0
MTEXT
  5
3AEC
330
3920
100
AcDbEntity
  8
寸法線
 62
     0
100
AcDbMText
 10
767.0001970075317
 20
354.1764124898139
 30
0.0
 40
10.0
 41
0.0
 71
     5
 72
     1
  1
カブセ有効巾（W)
  7
OKANO
 11
0.0000000000000001
 21
1.0
 31
0.0
 73
     1
 44
1.0
  0
POINT
  5
3AED
330
3920
100
AcDbEntity
  8
Defpoints
 62
     0
100
AcDbPoint
 10
769.6967474263042
 20
424.4764597527802
 30
0.0
  0
POINT
  5
3AEE
330
3920
100
AcDbEntity
  8
Defpoints
 62
     0
100
AcDbPoint
 10
769.6967474263042
 20
283.8763652268474
 30
0.0
  0
POINT
  5
3AEF
330
3920
100
AcDbEntity
  8
Defpoints
 62
     0
100
AcDbPoint
 10
773.5001970075318
 20
283.8763652268474
 30
0.0
  0
ENDBLK
  5
392B
330
3920
100
AcDbEntity
  8
0
100
AcDbBlockEnd
  0
BLOCK
  5
3991
330
3987
100
AcDbEntity
  8
0
100
AcDbBlockBegin
  2
*D7
 70
     1
 10
0.0
 20
0.0
 30
0.0
  3
*D7
  1

  0
LINE
  5
3988
330
3987
100
AcDbEntity
  8
寸法線
 62
     0
370
    -2
100
AcDbLine
 10
474.0337151808912
 20
404.6605912097641
 30
0.0
 11
444.434096104635
 21
404.6605912097641
 31
0.0
  0
LINE
  5
3989
330
3987
100
AcDbEntity
  8
寸法線
 62
     0
370
    -2
100
AcDbLine
 10
459.0337151808912
 20
429.6605912097641
 30
0.0
 11
444.434096104635
 21
429.6605912097641
 31
0.0
  0
LINE
  5
398A
330
3987
100
AcDbEntity
  8
寸法線
 62
     0
370
    -2
100
AcDbLine
 10
447.434096104635
 20
407.660591209764
 30
0.0
 11
447.434096104635
 21
426.6605912097641
 31
0.0
  0
INSERT
  5
398B
330
3987
100
AcDbEntity
  8
寸法線
 62
     0
370
    -2
100
AcDbBlockReference
  2
_Closed
 10
447.434096104635
 20
404.6605912097641
 30
0.0
 41
3.0
 42
3.0
 43
3.0
 50
270.0
  0
INSERT
  5
398C
330
3987
100
AcDbEntity
  8
寸法線
 62
     0
370
    -2
100
AcDbBlockReference
  2
_Closed
 10
447.434096104635
 20
429.6605912097641
 30
0.0
 41
3.0
 42
3.0
 43
3.0
 50
90.0
  0
MTEXT
  5
398D
330
3987
100
AcDbEntity
  8
寸法線
 62
     0
100
AcDbMText
 10
443.9336039786507
 20
417.1605912097642
 30
0.0
 40
5.0
 41
0.0
 71
     5
 72
     1
  1
25
  7
OKANO
 11
0.0000000000000001
 21
1.0
 31
0.0
 73
     1
 44
1.0
  0
POINT
  5
398E
330
3987
100
AcDbEntity
  8
Defpoints
 62
     0
100
AcDbPoint
 10
476.0337151808912
 20
404.6605912097641
 30
0.0
  0
POINT
  5
398F
330
3987
100
AcDbEntity
  8
Defpoints
 62
     0
100
AcDbPoint
 10
461.0337151808912
 20
429.6605912097641
 30
0.0
  0
POINT
  5
3990
330
3987
100
AcDbEntity
  8
Defpoints
 62
     0
100
AcDbPoint
 10
447.434096104635
 20
429.6605912097641
 30
0.0
  0
ENDBLK
  5
3992
330
3987
100
AcDbEntity
  8
0
100
AcDbBlockEnd
  0
BLOCK
  5
399E
330
3994
100
AcDbEntity
  8
0
100
AcDbBlockBegin
  2
*D8
 70
     1
 10
0.0
 20
0.0
 30
0.0
  3
*D8
  1

  0
LINE
  5
3995
330
3994
100
AcDbEntity
  8
寸法線
 62
     0
370
    -2
100
AcDbLine
 10
476.0337151808912
 20
406.660591209764
 30
0.0
 11
476.0337151808912
 21
441.6402992789065
 31
0.0
  0
LINE
  5
3996
330
3994
100
AcDbEntity
  8
寸法線
 62
     0
370
    -2
100
AcDbLine
 10
461.0337151808912
 20
406.660591209764
 30
0.0
 11
461.0337151808912
 21
441.6402992789065
 31
0.0
  0
LINE
  5
3997
330
3994
100
AcDbEntity
  8
寸法線
 62
     0
370
    -2
100
AcDbLine
 10
473.0337151808912
 20
438.6402992789065
 30
0.0
 11
464.0337151808912
 21
438.6402992789065
 31
0.0
  0
INSERT
  5
3998
330
3994
100
AcDbEntity
  8
寸法線
 62
     0
370
    -2
100
AcDbBlockReference
  2
_Closed
 10
476.0337151808912
 20
438.6402992789065
 30
0.0
 41
3.0
 42
3.0
 43
3.0
  0
INSERT
  5
3999
330
3994
100
AcDbEntity
  8
寸法線
 62
     0
370
    -2
100
AcDbBlockReference
  2
_Closed
 10
461.0337151808912
 20
438.6402992789065
 30
0.0
 41
3.0
 42
3.0
 43
3.0
 50
180.0
  0
MTEXT
  5
399A
330
3994
100
AcDbEntity
  8
寸法線
 62
     0
100
AcDbMText
 10
468.5337151808912
 20
442.1402992789065
 30
0.0
 40
5.0
 41
0.0
 71
     5
 72
     1
  1
15
  7
OKANO
 73
     1
 44
1.0
  0
POINT
  5
399B
330
3994
100
AcDbEntity
  8
Defpoints
 62
     0
100
AcDbPoint
 10
476.0337151808912
 20
404.6605912097641
 30
0.0
  0
POINT
  5
399C
330
3994
100
AcDbEntity
  8
Defpoints
 62
     0
100
AcDbPoint
 10
461.0337151808912
 20
404.6605912097641
 30
0.0
  0
POINT
  5
399D
330
3994
100
AcDbEntity
  8
Defpoints
 62
     0
100
AcDbPoint
 10
461.0337151808912
 20
438.6402992789065
 30
0.0
  0
ENDBLK
  5
399F
330
3994
100
AcDbEntity
  8
0
100
AcDbBlockEnd
  0
BLOCK
  5
39AB
330
39A1
100
AcDbEntity
  8
0
100
AcDbBlockBegin
  2
*D9
 70
     1
 10
0.0
 20
0.0
 30
0.0
  3
*D9
  1

  0
LINE
  5
39A2
330
39A1
100
AcDbEntity
  8
寸法線
 62
     0
370
    -2
100
AcDbLine
 10
484.0337151808912
 20
126.7515156156007
 30
0.0
 11
440.777387810629
 21
126.7515156156007
 31
0.0
  0
LINE
  5
39A3
330
39A1
100
AcDbEntity
  8
寸法線
 62
     0
370
    -2
100
AcDbLine
 10
459.0337151808912
 20
101.7515156156007
 30
0.0
 11
440.777387810629
 21
101.7515156156007
 31
0.0
  0
LINE
  5
39A4
330
39A1
100
AcDbEntity
  8
寸法線
 62
     0
370
    -2
100
AcDbLine
 10
443.777387810629
 20
123.7515156156007
 30
0.0
 11
443.777387810629
 21
104.7515156156007
 31
0.0
  0
INSERT
  5
39A5
330
39A1
100
AcDbEntity
  8
寸法線
 62
     0
370
    -2
100
AcDbBlockReference
  2
_Closed
 10
443.777387810629
 20
126.7515156156007
 30
0.0
 41
3.0
 42
3.0
 43
3.0
 50
90.0
  0
INSERT
  5
39A6
330
39A1
100
AcDbEntity
  8
寸法線
 62
     0
370
    -2
100
AcDbBlockReference
  2
_Closed
 10
443.777387810629
 20
101.7515156156007
 30
0.0
 41
3.0
 42
3.0
 43
3.0
 50
270.0
  0
MTEXT
  5
39A7
330
39A1
100
AcDbEntity
  8
寸法線
 62
     0
100
AcDbMText
 10
440.2768956846448
 20
114.2515156156008
 30
0.0
 40
5.0
 41
0.0
 71
     5
 72
     1
  1
25
  7
OKANO
 11
0.0000000000000001
 21
1.0
 31
0.0
 73
     1
 44
1.0
  0
POINT
  5
39A8
330
39A1
100
AcDbEntity
  8
Defpoints
 62
     0
100
AcDbPoint
 10
486.0337151808912
 20
126.7515156156007
 30
0.0
  0
POINT
  5
39A9
330
39A1
100
AcDbEntity
  8
Defpoints
 62
     0
100
AcDbPoint
 10
461.0337151808912
 20
101.7515156156007
 30
0.0
  0
POINT
  5
39AA
330
39A1
100
AcDbEntity
  8
Defpoints
 62
     0
100
AcDbPoint
 10
443.777387810629
 20
101.7515156156007
 30
0.0
  0
ENDBLK
  5
39AC
330
39A1
100
AcDbEntity
  8
0
100
AcDbBlockEnd
  0
BLOCK
  5
39B8
330
39AE
100
AcDbEntity
  8
0
100
AcDbBlockBegin
  2
*D10
 70
     1
 10
0.0
 20
0.0
 30
0.0
  3
*D10
  1

  0
LINE
  5
39AF
330
39AE
100
AcDbEntity
  8
寸法線
 62
     0
370
    -2
100
AcDbLine
 10
461.0337151808912
 20
128.7515156156007
 30
0.0
 11
461.0337151808912
 21
142.6824243143261
 31
0.0
  0
LINE
  5
39B0
330
39AE
100
AcDbEntity
  8
寸法線
 62
     0
370
    -2
100
AcDbLine
 10
486.0337151808912
 20
128.7515156156007
 30
0.0
 11
486.0337151808912
 21
142.6824243143261
 31
0.0
  0
LINE
  5
39B1
330
39AE
100
AcDbEntity
  8
寸法線
 62
     0
370
    -2
100
AcDbLine
 10
464.0337151808912
 20
139.6824243143261
 30
0.0
 11
483.0337151808912
 21
139.6824243143261
 31
0.0
  0
INSERT
  5
39B2
330
39AE
100
AcDbEntity
  8
寸法線
 62
     0
370
    -2
100
AcDbBlockReference
  2
_Closed
 10
461.0337151808912
 20
139.6824243143261
 30
0.0
 41
3.0
 42
3.0
 43
3.0
 50
180.0
  0
INSERT
  5
39B3
330
39AE
100
AcDbEntity
  8
寸法線
 62
     0
370
    -2
100
AcDbBlockReference
  2
_Closed
 10
486.0337151808912
 20
139.6824243143261
 30
0.0
 41
3.0
 42
3.0
 43
3.0
  0
MTEXT
  5
39B4
330
39AE
100
AcDbEntity
  8
寸法線
 62
     0
100
AcDbMText
 10
473.5337151808912
 20
143.1829164403103
 30
0.0
 40
5.0
 41
0.0
 71
     5
 72
     1
  1
25
  7
OKANO
 73
     1
 44
1.0
  0
POINT
  5
39B5
330
39AE
100
AcDbEntity
  8
Defpoints
 62
     0
100
AcDbPoint
 10
461.0337151808912
 20
126.7515156156007
 30
0.0
  0
POINT
  5
39B6
330
39AE
100
AcDbEntity
  8
Defpoints
 62
     0
100
AcDbPoint
 10
486.0337151808912
 20
126.7515156156007
 30
0.0
  0
POINT
  5
39B7
330
39AE
100
AcDbEntity
  8
Defpoints
 62
     0
100
AcDbPoint
 10
486.0337151808912
 20
139.6824243143261
 30
0.0
  0
ENDBLK
  5
39B9
330
39AE
100
AcDbEntity
  8
0
100
AcDbBlockEnd
  0
BLOCK
  5
39C5
330
39BB
100
AcDbEntity
  8
0
100
AcDbBlockBegin
  2
*D11
 70
     1
 10
0.0
 20
0.0
 30
0.0
  3
*D11
  1

  0
LINE
  5
39BC
330
39BB
100
AcDbEntity
  8
寸法線
 62
     0
370
    -2
100
AcDbLine
 10
486.0337151808912
 20
128.7515156156007
 30
0.0
 11
486.0337151808912
 21
142.6824243143261
 31
0.0
  0
LINE
  5
39BD
330
39BB
100
AcDbEntity
  8
寸法線
 62
     0
370
    -2
100
AcDbLine
 10
511.0337151808912
 20
128.7515156156007
 30
0.0
 11
511.0337151808912
 21
142.6824243143261
 31
0.0
  0
LINE
  5
39BE
330
39BB
100
AcDbEntity
  8
寸法線
 62
     0
370
    -2
100
AcDbLine
 10
489.0337151808912
 20
139.6824243143261
 30
0.0
 11
508.0337151808912
 21
139.6824243143261
 31
0.0
  0
INSERT
  5
39BF
330
39BB
100
AcDbEntity
  8
寸法線
 62
     0
370
    -2
100
AcDbBlockReference
  2
_Closed
 10
486.0337151808912
 20
139.6824243143261
 30
0.0
 41
3.0
 42
3.0
 43
3.0
 50
180.0
  0
INSERT
  5
39C0
330
39BB
100
AcDbEntity
  8
寸法線
 62
     0
370
    -2
100
AcDbBlockReference
  2
_Closed
 10
511.0337151808912
 20
139.6824243143261
 30
0.0
 41
3.0
 42
3.0
 43
3.0
  0
MTEXT
  5
39C1
330
39BB
100
AcDbEntity
  8
寸法線
 62
     0
100
AcDbMText
 10
498.5337151808912
 20
143.1829164403103
 30
0.0
 40
5.0
 41
0.0
 71
     5
 72
     1
  1
25
  7
OKANO
 73
     1
 44
1.0
  0
POINT
  5
39C2
330
39BB
100
AcDbEntity
  8
Defpoints
 62
     0
100
AcDbPoint
 10
486.0337151808912
 20
126.7515156156007
 30
0.0
  0
POINT
  5
39C3
330
39BB
100
AcDbEntity
  8
Defpoints
 62
     0
100
AcDbPoint
 10
511.0337151808912
 20
126.7515156156007
 30
0.0
  0
POINT
  5
39C4
330
39BB
100
AcDbEntity
  8
Defpoints
 62
     0
100
AcDbPoint
 10
511.0337151808912
 20
139.6824243143261
 30
0.0
  0
ENDBLK
  5
39C6
330
39BB
100
AcDbEntity
  8
0
100
AcDbBlockEnd
  0
BLOCK
  5
39DB
330
39D1
100
AcDbEntity
  8
0
100
AcDbBlockBegin
  2
*D12
 70
     1
 10
0.0
 20
0.0
 30
0.0
  3
*D12
  1

  0
LINE
  5
39D2
330
39D1
100
AcDbEntity
  8
寸法線
 62
     0
370
    -2
100
AcDbLine
 10
484.0337151808912
 20
176.7515156156007
 30
0.0
 11
447.7634076287158
 21
176.7515156156007
 31
0.0
  0
LINE
  5
39D3
330
39D1
100
AcDbEntity
  8
寸法線
 62
     0
370
    -2
100
AcDbLine
 10
459.0337151808912
 20
201.7515156156007
 30
0.0
 11
447.7634076287158
 21
201.7515156156007
 31
0.0
  0
LINE
  5
39D4
330
39D1
100
AcDbEntity
  8
寸法線
 62
     0
370
    -2
100
AcDbLine
 10
450.7634076287159
 20
179.7515156156007
 30
0.0
 11
450.7634076287159
 21
198.7515156156007
 31
0.0
  0
INSERT
  5
39D5
330
39D1
100
AcDbEntity
  8
寸法線
 62
     0
370
    -2
100
AcDbBlockReference
  2
_Closed
 10
450.7634076287159
 20
176.7515156156007
 30
0.0
 41
3.0
 42
3.0
 43
3.0
 50
270.0
  0
INSERT
  5
39D6
330
39D1
100
AcDbEntity
  8
寸法線
 62
     0
370
    -2
100
AcDbBlockReference
  2
_Closed
 10
450.7634076287159
 20
201.7515156156007
 30
0.0
 41
3.0
 42
3.0
 43
3.0
 50
90.0
  0
MTEXT
  5
39D7
330
39D1
100
AcDbEntity
  8
寸法線
 62
     0
100
AcDbMText
 10
447.2629155027315
 20
189.2515156156008
 30
0.0
 40
5.0
 41
0.0
 71
     5
 72
     1
  1
25
  7
OKANO
 11
0.0000000000000001
 21
1.0
 31
0.0
 73
     1
 44
1.0
  0
POINT
  5
39D8
330
39D1
100
AcDbEntity
  8
Defpoints
 62
     0
100
AcDbPoint
 10
486.0337151808912
 20
176.7515156156007
 30
0.0
  0
POINT
  5
39D9
330
39D1
100
AcDbEntity
  8
Defpoints
 62
     0
100
AcDbPoint
 10
461.0337151808912
 20
201.7515156156007
 30
0.0
  0
POINT
  5
39DA
330
39D1
100
AcDbEntity
  8
Defpoints
 62
     0
100
AcDbPoint
 10
450.7634076287159
 20
201.7515156156007
 30
0.0
  0
ENDBLK
  5
39DC
330
39D1
100
AcDbEntity
  8
0
100
AcDbBlockEnd
  0
BLOCK
  5
39F5
330
39EB
100
AcDbEntity
  8
0
100
AcDbBlockBegin
  2
*D13
 70
     1
 10
0.0
 20
0.0
 30
0.0
  3
*D13
  1

  0
LINE
  5
39EC
330
39EB
100
AcDbEntity
  8
寸法線
 62
     0
370
    -2
100
AcDbLine
 10
486.0337151808912
 20
174.7515156156007
 30
0.0
 11
486.0337151808912
 21
160.5706569459013
 31
0.0
  0
LINE
  5
39ED
330
39EB
100
AcDbEntity
  8
寸法線
 62
     0
370
    -2
100
AcDbLine
 10
461.0337151808912
 20
174.7515156156007
 30
0.0
 11
461.0337151808912
 21
160.5706569459013
 31
0.0
  0
LINE
  5
39EE
330
39EB
100
AcDbEntity
  8
寸法線
 62
     0
370
    -2
100
AcDbLine
 10
483.0337151808912
 20
163.5706569459013
 30
0.0
 11
464.0337151808912
 21
163.5706569459013
 31
0.0
  0
INSERT
  5
39EF
330
39EB
100
AcDbEntity
  8
寸法線
 62
     0
370
    -2
100
AcDbBlockReference
  2
_Closed
 10
486.0337151808912
 20
163.5706569459013
 30
0.0
 41
3.0
 42
3.0
 43
3.0
  0
INSERT
  5
39F0
330
39EB
100
AcDbEntity
  8
寸法線
 62
     0
370
    -2
100
AcDbBlockReference
  2
_Closed
 10
461.0337151808912
 20
163.5706569459013
 30
0.0
 41
3.0
 42
3.0
 43
3.0
 50
180.0
  0
MTEXT
  5
39F1
330
39EB
100
AcDbEntity
  8
寸法線
 62
     0
100
AcDbMText
 10
473.5337151808912
 20
167.0711490718855
 30
0.0
 40
5.0
 41
0.0
 71
     5
 72
     1
  1
25
  7
OKANO
 73
     1
 44
1.0
  0
POINT
  5
39F2
330
39EB
100
AcDbEntity
  8
Defpoints
 62
     0
100
AcDbPoint
 10
486.0337151808912
 20
176.7515156156007
 30
0.0
  0
POINT
  5
39F3
330
39EB
100
AcDbEntity
  8
Defpoints
 62
     0
100
AcDbPoint
 10
461.0337151808912
 20
176.7515156156007
 30
0.0
  0
POINT
  5
39F4
330
39EB
100
AcDbEntity
  8
Defpoints
 62
     0
100
AcDbPoint
 10
461.0337151808912
 20
163.5706569459013
 30
0.0
  0
ENDBLK
  5
39F6
330
39EB
100
AcDbEntity
  8
0
100
AcDbBlockEnd
  0
BLOCK
  5
3A18
330
3A0E
100
AcDbEntity
  8
0
100
AcDbBlockBegin
  2
*D14
 70
     1
 10
0.0
 20
0.0
 30
0.0
  3
*D14
  1

  0
LINE
  5
3A1A
330
3A0E
100
AcDbEntity
  8
寸法線
 62
     0
370
    -2
100
AcDbLine
 10
463.0337151808912
 20
201.7515156156007
 30
0.0
 11
472.9691666843323
 21
201.7515156156007
 31
0.0
  0
LINE
  5
3A1B
330
3A0E
100
AcDbEntity
  8
寸法線
 62
     0
370
    -2
100
AcDbLine
 10
480.0337151808912
 20
261.1490861672506
 30
0.0
 11
466.9691666843323
 21
261.1490861672506
 31
0.0
  0
LINE
  5
3A1C
330
3A0E
100
AcDbEntity
  8
寸法線
 62
     0
370
    -2
100
AcDbLine
 10
469.9691666843323
 20
204.7515156156007
 30
0.0
 11
469.9691666843323
 21
258.1490861672506
 31
0.0
  0
INSERT
  5
3A1D
330
3A0E
100
AcDbEntity
  8
寸法線
 62
     0
370
    -2
100
AcDbBlockReference
  2
_Closed
 10
469.9691666843323
 20
201.7515156156007
 30
0.0
 41
3.0
 42
3.0
 43
3.0
 50
270.0
  0
INSERT
  5
3A1E
330
3A0E
100
AcDbEntity
  8
寸法線
 62
     0
370
    -2
100
AcDbBlockReference
  2
_Closed
 10
469.9691666843323
 20
261.1490861672506
 30
0.0
 41
3.0
 42
3.0
 43
3.0
 50
90.0
  0
MTEXT
  5
3A1F
330
3A0E
100
AcDbEntity
  8
寸法線
 62
     0
100
AcDbMText
 10
466.4691666843323
 20
231.4503008914257
 30
0.0
 40
5.0
 41
0.0
 71
     5
 72
     1
  1
60
  7
OKANO
 11
0.0000000000000001
 21
1.0
 31
0.0
 73
     1
 44
1.0
  0
POINT
  5
3A20
330
3A0E
100
AcDbEntity
  8
Defpoints
 62
     0
100
AcDbPoint
 10
461.0337151808912
 20
201.7515156156007
 30
0.0
  0
POINT
  5
3A21
330
3A0E
100
AcDbEntity
  8
Defpoints
 62
     0
100
AcDbPoint
 10
482.0337151808912
 20
261.1490861672506
 30
0.0
  0
POINT
  5
3A22
330
3A0E
100
AcDbEntity
  8
Defpoints
 62
     0
100
AcDbPoint
 10
469.9691666843323
 20
261.1490861672506
 30
0.0
  0
ENDBLK
  5
3A19
330
3A0E
100
AcDbEntity
  8
0
100
AcDbBlockEnd
  0
BLOCK
  5
3A2D
330
3A24
100
AcDbEntity
  8
0
100
AcDbBlockBegin
  2
*D15
 70
     1
 10
0.0
 20
0.0
 30
0.0
  3
*D15
  1

  0
LINE
  5
3A25
330
3A24
100
AcDbEntity
  8
寸法線
 62
     0
370
    -2
100
AcDbLine
 10
524.8137763013335
 20
108.9589226378853
 30
0.0
 11
516.2384035241313
 21
120.0313058532687
 31
0.0
  0
LINE
  5
3A26
330
3A24
100
AcDbEntity
  8
寸法線
 62
     0
370
    -2
100
AcDbLine
 10
505.8290268376513
 20
133.4717253779328
 30
0.0
 11
503.9920780106254
 21
135.8435641175794
 31
0.0
  0
MTEXT
  5
3A27
330
3A24
100
AcDbEntity
  8
寸法線
 62
     0
100
AcDbMText
 10
524.2117095224996
 20
115.4523018406171
 30
0.0
 40
5.0
 41
0.0
 71
     5
 72
     1
  1
\U+220511
  7
OKANO
 11
0.6123162756752859
 21
-0.7906129132155304
 31
0.0
 73
     1
 44
1.0
  0
LINE
  5
3A28
330
3A24
100
AcDbEntity
  8
寸法線
 62
     0
370
    -2
100
AcDbLine
 10
507.6659756646771
 20
131.0998866382862
 30
0.0
 11
514.4014546971054
 21
122.4031445929153
 31
0.0
  0
INSERT
  5
3A29
330
3A24
100
AcDbEntity
  8
寸法線
 62
     0
370
    -2
100
AcDbBlockReference
  2
_Closed
 10
507.6659756646771
 20
131.0998866382862
 30
0.0
 41
3.0
 42
3.0
 43
3.0
 50
307.7571738740051
  0
INSERT
  5
3A2A
330
3A24
100
AcDbEntity
  8
寸法線
 62
     0
370
    -2
100
AcDbBlockReference
  2
_Closed
 10
514.4014546971054
 20
122.4031445929153
 30
0.0
 41
3.0
 42
3.0
 43
3.0
 50
127.7571738740051
  0
POINT
  5
3A2B
330
3A24
100
AcDbEntity
  8
Defpoints
 62
     0
100
AcDbPoint
 10
514.4014546971054
 20
122.4031445929153
 30
0.0
  0
POINT
  5
3A2C
330
3A24
100
AcDbEntity
  8
Defpoints
 62
     0
100
AcDbPoint
 10
507.6659756646771
 20
131.0998866382862
 30
0.0
  0
ENDBLK
  5
3A2E
330
3A24
100
AcDbEntity
  8
0
100
AcDbBlockEnd
  0
BLOCK
  5
3A42
330
3A39
100
AcDbEntity
  8
0
100
AcDbBlockBegin
  2
*D16
 70
     1
 10
0.0
 20
0.0
 30
0.0
  3
*D16
  1

  0
LINE
  5
3A72
330
3A39
100
AcDbEntity
  8
寸法線
 62
     0
370
    -2
100
AcDbLine
 10
509.3218563677957
 20
187.2904102123614
 30
0.0
 11
530.9175174543593
 21
178.770059849208
 31
0.0
  0
LINE
  5
3A73
330
3A39
100
AcDbEntity
  8
寸法線
 62
     0
370
    -2
100
AcDbLine
 10
541.1499129074232
 20
174.7329713819933
 30
0.0
 11
543.9405662128042
 21
173.6319472545712
 31
0.0
  0
MTEXT
  5
3A74
330
3A39
100
AcDbEntity
  8
寸法線
 62
     0
100
AcDbMText
 10
520.0088884070462
 20
186.836509284107
 30
0.0
 40
5.0
 41
0.0
 71
     5
 72
     1
  1
Φ5×4
  7
OKANO
 11
0.9302177684603526
 21
-0.3670080424740605
 31
0.0
 73
     1
 44
1.0
  0
LINE
  5
3A75
330
3A39
100
AcDbEntity
  8
寸法線
 62
     0
370
    -2
100
AcDbLine
 10
538.3592596020421
 20
175.8339955094155
 30
0.0
 11
533.7081707597404
 21
177.6690357217858
 31
0.0
  0
INSERT
  5
3A76
330
3A39
100
AcDbEntity
  8
寸法線
 62
     0
370
    -2
100
AcDbBlockReference
  2
_Closed
 10
538.3592596020421
 20
175.8339955094155
 30
0.0
 41
3.0
 42
3.0
 43
3.0
 50
158.4687865728815
  0
INSERT
  5
3A77
330
3A39
100
AcDbEntity
  8
寸法線
 62
     0
370
    -2
100
AcDbBlockReference
  2
_Closed
 10
533.7081707597404
 20
177.6690357217858
 30
0.0
 41
3.0
 42
3.0
 43
3.0
 50
338.4687865728815
  0
POINT
  5
3A78
330
3A39
100
AcDbEntity
  8
Defpoints
 62
     0
100
AcDbPoint
 10
533.7081707597404
 20
177.6690357217858
 30
0.0
  0
POINT
  5
3A79
330
3A39
100
AcDbEntity
  8
Defpoints
 62
     0
100
AcDbPoint
 10
538.3592596020421
 20
175.8339955094155
 30
0.0
  0
ENDBLK
  5
3A43
330
3A39
100
AcDbEntity
  8
0
100
AcDbBlockEnd
  0
BLOCK
  5
3A4E
330
3A45
100
AcDbEntity
  8
0
100
AcDbBlockBegin
  2
*D17
 70
     1
 10
0.0
 20
0.0
 30
0.0
  3
*D17
  1

  0
LINE
  5
3A7A
330
3A45
100
AcDbEntity
  8
寸法線
 62
     0
370
    -2
100
AcDbLine
 10
519.3596909578618
 20
415.2948816102385
 30
0.0
 11
540.9247640202023
 21
406.6974068709608
 31
0.0
  0
LINE
  5
3A7B
330
3A45
100
AcDbEntity
  8
寸法線
 62
     0
370
    -2
100
AcDbLine
 10
551.1426663415801
 20
402.6237755485674
 30
0.0
 11
553.9293669746832
 21
401.5127851879146
 31
0.0
  0
MTEXT
  5
3A7C
330
3A45
100
AcDbEntity
  8
寸法線
 62
     0
100
AcDbMText
 10
530.0450325932421
 20
414.8027901595463
 30
0.0
 40
5.0
 41
0.0
 71
     5
 72
     1
  1
Φ5×4
  7
OKANO
 11
0.9289002110343339
 21
-0.3703301202175833
 31
0.0
 73
     1
 44
1.0
  0
LINE
  5
3A7D
330
3A45
100
AcDbEntity
  8
寸法線
 62
     0
370
    -2
100
AcDbLine
 10
548.3559657084771
 20
403.7347659092201
 30
0.0
 11
543.7114646533053
 21
405.5864165103081
 31
0.0
  0
INSERT
  5
3A7E
330
3A45
100
AcDbEntity
  8
寸法線
 62
     0
370
    -2
100
AcDbBlockReference
  2
_Closed
 10
548.3559657084771
 20
403.7347659092201
 30
0.0
 41
3.0
 42
3.0
 43
3.0
 50
158.264021911974
  0
INSERT
  5
3A7F
330
3A45
100
AcDbEntity
  8
寸法線
 62
     0
370
    -2
100
AcDbBlockReference
  2
_Closed
 10
543.7114646533053
 20
405.5864165103081
 30
0.0
 41
3.0
 42
3.0
 43
3.0
 50
338.264021911974
  0
POINT
  5
3A80
330
3A45
100
AcDbEntity
  8
Defpoints
 62
     0
100
AcDbPoint
 10
543.7114646533053
 20
405.5864165103081
 30
0.0
  0
POINT
  5
3A81
330
3A45
100
AcDbEntity
  8
Defpoints
 62
     0
100
AcDbPoint
 10
548.3559657084771
 20
403.7347659092201
 30
0.0
  0
ENDBLK
  5
3A4F
330
3A45
100
AcDbEntity
  8
0
100
AcDbBlockEnd
  0
BLOCK
  5
3A8F
330
3A83
100
AcDbEntity
  8
0
100
AcDbBlockBegin
  2
*D18
 70
     1
 10
0.0
 20
0.0
 30
0.0
  3
*D18
  1

  0
LINE
  5
3AD9
330
3A83
100
AcDbEntity
  8
寸法線
 62
     0
370
    -2
100
AcDbLine
 10
818.5816268270546
 20
429.6605912097641
 30
0.0
 11
839.5824245742199
 21
429.6605912097641
 31
0.0
  0
LINE
  5
3ADA
330
3A83
100
AcDbEntity
  8
寸法線
 62
     0
370
    -2
100
AcDbLine
 10
818.5816268270546
 20
426.0805912097641
 30
0.0
 11
839.5824245742199
 21
426.0805912097641
 31
0.0
  0
LINE
  5
3ADB
330
3A83
100
AcDbEntity
  8
寸法線
 62
     0
370
    -2
100
AcDbLine
 10
836.5824245742199
 20
432.660591209764
 30
0.0
 11
836.5824245742199
 21
435.6605912097641
 31
0.0
  0
LINE
  5
3ADC
330
3A83
100
AcDbEntity
  8
寸法線
 62
     0
370
    -2
100
AcDbLine
 10
836.5824245742199
 20
423.0805912097641
 30
0.0
 11
836.5824245742199
 21
410.124819843824
 31
0.0
  0
LINE
  5
3ADD
330
3A83
100
AcDbEntity
  8
寸法線
 62
     0
370
    -2
100
AcDbLine
 10
836.5824245742199
 20
429.6605912097641
 30
0.0
 11
836.5824245742199
 21
426.0805912097641
 31
0.0
  0
INSERT
  5
3ADE
330
3A83
100
AcDbEntity
  8
寸法線
 62
     0
370
    -2
100
AcDbBlockReference
  2
_Closed
 10
836.5824245742199
 20
429.6605912097641
 30
0.0
 41
3.0
 42
3.0
 43
3.0
 50
270.0
  0
INSERT
  5
3ADF
330
3A83
100
AcDbEntity
  8
寸法線
 62
     0
370
    -2
100
AcDbBlockReference
  2
_Closed
 10
836.5824245742199
 20
426.0805912097641
 30
0.0
 41
3.0
 42
3.0
 43
3.0
 50
90.0
  0
MTEXT
  5
3AE0
330
3A83
100
AcDbEntity
  8
寸法線
 62
     0
100
AcDbMText
 10
833.0824245742197
 20
415.1027055267942
 30
0.0
 40
5.0
 41
0.0
 71
     5
 72
     1
  1
3.5
  7
OKANO
 11
0.0000000000000001
 21
1.0
 31
0.0
 73
     1
 44
1.0
  0
POINT
  5
3AE1
330
3A83
100
AcDbEntity
  8
Defpoints
 62
     0
100
AcDbPoint
 10
816.5816268270546
 20
429.6605912097641
 30
0.0
  0
POINT
  5
3AE2
330
3A83
100
AcDbEntity
  8
Defpoints
 62
     0
100
AcDbPoint
 10
816.5816268270546
 20
426.0805912097641
 30
0.0
  0
POINT
  5
3AE3
330
3A83
100
AcDbEntity
  8
Defpoints
 62
     0
100
AcDbPoint
 10
836.5824245742199
 20
426.0805912097641
 30
0.0
  0
ENDBLK
  5
3A90
330
3A83
100
AcDbEntity
  8
0
100
AcDbBlockEnd
  0
ENDSEC
  0
SECTION
  2
ENTITIES
  0
TEXT
  5
29C2
330
1F
100
AcDbEntity
  8
文字
100
AcDbText
 10
805.1034567121471
 20
76.69637196269568
 30
0.0
 40
5.759999999999999
  1
joint kogyo T.okano
 51
15.0
  7
OKANO
100
AcDbText
  0
TEXT
  5
29C3
330
1F
100
AcDbEntity
  8
文字
100
AcDbText
 10
796.1174810979907
 20
94.39921777144101
 30
0.0
 40
5.759999999999999
  1
F-999-20061010 Auto CAD
 51
15.0
  7
OKANO
100
AcDbText
  0
LINE
  5
29C4
330
1F
100
AcDbEntity
  8
太線
100
AcDbLine
 10
763.2108072800541
 20
93.29424859092458
 30
0.0
 11
892.8108072800542
 21
93.29424859092458
 31
0.0
  0
LWPOLYLINE
  5
29C5
330
1F
100
AcDbEntity
  8
太線
100
AcDbPolyline
 90
        4
 70
     1
 43
0.0
 10
763.2108072800541
 20
103.3742485909245
 10
892.8108072800542
 20
103.3742485909245
 10
892.8108072800542
 20
73.13424859092458
 10
763.2108072800541
 20
73.13424859092458
  0
TEXT
  5
29C6
330
1F
100
AcDbEntity
  8
文字
100
AcDbText
 10
767.8576675593232
 20
83.46203443230377
 30
0.0
 40
2.879999999999999
  1
CHECK
 51
15.0
  7
OKANO
100
AcDbText
  0
LINE
  5
29C7
330
1F
100
AcDbEntity
  8
太線
100
AcDbLine
 10
792.0108072800542
 20
103.3742485909245
 30
0.0
 11
792.0108072800542
 21
73.13424859092458
 31
0.0
  0
TEXT
  5
29C8
330
1F
100
AcDbEntity
  8
文字
100
AcDbText
 10
767.8576675593232
 20
75.15872130484479
 30
0.0
 40
2.879999999999999
  1
ISSUED
 51
15.0
  7
OKANO
100
AcDbText
  0
TEXT
  5
29C9
330
1F
100
AcDbEntity
  8
文字
100
AcDbText
 10
768.165484878804
 20
79.15661273196656
 30
0.0
 40
2.879999999999999
  1
APPR
 51
15.0
  7
OKANO
100
AcDbText
  0
TEXT
  5
29CA
330
1F
100
AcDbEntity
  8
文字
100
AcDbText
 10
765.7029528973002
 20
95.45570800544277
 30
0.0
 40
2.879999999999999
  1
FILM NAME
 51
15.0
  7
OKANO
100
AcDbText
  0
TEXT
  5
29CB
330
1F
100
AcDbEntity
  8
文字
100
AcDbText
 10
767.2420355500987
 20
87.7674554244146
 30
0.0
 40
2.879999999999999
  1
DRAWN
 51
15.0
  7
OKANO
100
AcDbText
  0
XLINE
  5
31A0
330
1F
100
AcDbEntity
  8
構築線
100
AcDbXline
 10
193.6925129998408
 20
354.660591209764
 30
0.0
 11
1.0
 21
0.0
 31
0.0
  0
DIMENSION
  5
3412
330
1F
100
AcDbEntity
  8
寸法線
100
AcDbDimension
  2
*D3
 10
534.8565407348201
 20
245.3210645537116
 30
0.0
 11
510.9056750892894
 21
248.8210645537116
 31
0.0
 70
    32
  1
49
 71
     5
 42
47.90173129106142
  3
sunpo
100
AcDbAlignedDimension
 13
486.9548094437586
 23
248.1033779082578
 33
0.0
 14
534.8565407348201
 24
248.1033779082578
 34
0.0
100
AcDbRotatedDimension
1001
ACAD
1000
DSTYLE
1002
{
1070
    40
1040
1.0
1002
}
  0
DIMENSION
  5
3414
330
1F
100
AcDbEntity
  8
寸法線
100
AcDbDimension
  2
*D2
 10
541.0337151808912
 20
267.540308216012
 30
0.0
 11
511.5337151808912
 21
271.040308216012
 31
0.0
 70
    32
  1
58
 71
     5
 42
59.0
  3
sunpo
100
AcDbAlignedDimension
 13
482.0337151808912
 23
261.1490861672506
 33
0.0
 14
541.0337151808912
 24
261.1490861672506
 34
0.0
100
AcDbRotatedDimension
1001
ACAD
1000
DSTYLE
1002
{
1070
    40
1040
1.0
1002
}
  0
LINE
  5
3417
330
1F
100
AcDbEntity
  8
太線
100
AcDbLine
 10
482.0337151808912
 20
261.1490861672506
 30
0.0
 11
541.0337151808912
 21
261.1490861672506
 31
0.0
  0
LINE
  5
341C
330
1F
100
AcDbEntity
  8
太線
100
AcDbLine
 10
482.0337151808912
 20
203.4805331655976
 30
0.0
 11
482.0337151808912
 21
261.1490861672506
 31
0.0
  0
LINE
  5
341E
330
1F
100
AcDbEntity
  8
太線
100
AcDbLine
 10
451.5337151808912
 20
196.7032693405661
 30
0.0
 11
451.5337151808913
 21
196.7032693405661
 31
0.0
  0
LINE
  5
342D
330
1F
100
AcDbEntity
  8
想像線
100
AcDbLine
 10
536.0337151808912
 20
261.1490861672506
 30
0.0
 11
536.0337151808912
 21
211.1490861672506
 31
0.0
  0
LINE
  5
342E
330
1F
100
AcDbEntity
  8
太線
100
AcDbLine
 10
541.0337151808912
 20
261.1490861672506
 30
0.0
 11
541.0337151808912
 21
203.9373961866353
 31
0.0
  0
LINE
  5
3449
330
1F
100
AcDbEntity
  8
太線
100
AcDbLine
 10
571.5337151808912
 20
196.7032693405662
 30
0.0
 11
571.5337151808912
 21
196.7032693405661
 31
0.0
  0
LINE
  5
3459
330
1F
100
AcDbEntity
  8
想像線
100
AcDbLine
 10
541.0337151808912
 20
246.6490861672506
 30
0.0
 11
536.0337151808912
 21
246.6490861672506
 31
0.0
  0
LINE
  5
345A
330
1F
100
AcDbEntity
  8
想像線
100
AcDbLine
 10
536.0337151808912
 20
251.6490861672506
 30
0.0
 11
541.0337151808912
 21
251.6490861672506
 31
0.0
  0
SPLINE
  5
3532
330
1F
100
AcDbEntity
  8
太線
100
AcDbSpline
210
0.0
220
0.0
230
1.0
 70
     8
 71
     3
 72
    12
 73
     8
 74
     0
 42
0.0000000001
 43
0.0000000001
 40
0.0
 40
0.0
 40
0.0
 40
0.0
 40
2.459425976549486
 40
5.289532862332183
 40
10.41502329012524
 40
15.89953919788664
 40
27.56090765402662
 40
27.56090765402662
 40
27.56090765402662
 40
27.56090765402662
 10
479.046921385943
 20
202.0082721372395
 30
0.0
 10
479.7070727419771
 20
202.5497798567388
 30
0.0
 10
481.1268724534343
 20
203.7144105082847
 30
0.0
 10
484.7872939953289
 20
203.2307265943618
 30
0.0
 10
489.1354117096693
 20
202.480826654358
 30
0.0
 10
496.5868108662692
 20
203.5902467390383
 30
0.0
 10
502.3035232456979
 20
203.0451428439958
 30
0.0
 10
506.1828231561041
 20
202.9634754185058
 30
0.0
  0
TEXT
  5
3533
330
1F
100
AcDbEntity
  8
文字
100
AcDbText
 10
564.1864067771912
 20
214.6286366052929
 30
0.0
 40
5.759999999999999
  1
溶接
 51
15.0
  7
OKANO
100
AcDbText
  0
LEADER
  5
3534
330
1F
100
AcDbEntity
  8
寸法線
100
AcDbLeader
  3
sunpo
 76
     2
 10
543.6596565771394
 20
203.4211127694496
 30
0.0
 10
564.1758623448106
 20
213.4145818081167
 30
0.0
1001
ACAD
1000
DSTYLE
1002
{
1070
   147
1040
1.0
1070
    77
1070
     0
1002
}
  0
TEXT
  5
35DE
330
1F
100
AcDbEntity
  8
文字
100
AcDbText
 10
804.643091512753
 20
85.47487249128698
 30
0.0
 40
5.759999999999999
  1
21-Ｗ000　カブセ支柱金具
 51
15.0
  7
OKANO
100
AcDbText
  0
CIRCLE
  5
36E6
330
1F
100
AcDbEntity
  8
太線
100
AcDbCircle
 10
511.0337151808912
 20
354.660591209764
 30
0.0
 40
24.5
  0
CIRCLE
  5
36E7
330
1F
100
AcDbEntity
  8
太線
100
AcDbCircle
 10
511.0337151808912
 20
354.660591209764
 30
0.0
 40
29.5
  0
LINE
  5
36E8
330
1F
100
AcDbEntity
  8
太線
  6
HIDDEN2
100
AcDbLine
 10
495.0139748829524
 20
383.4742192794369
 30
0.0
 11
494.2090376067437
 21
382.9061052413695
 31
0.0
  0
LINE
  5
36E9
330
1F
100
AcDbEntity
  8
想像線
  6
HIDDEN2
100
AcDbLine
 10
490.089883663915
 20
383.616574955794
 30
0.0
 11
491.2162048836065
 21
382.0207370183987
 31
0.0
  0
LINE
  5
36EA
330
1F
100
AcDbEntity
  8
想像線
  6
HIDDEN2
100
AcDbLine
 10
490.8948209401239
 20
384.1846889938612
 30
0.0
 11
492.0211421598154
 21
382.588851056466
 31
0.0
  0
LINE
  5
36EB
330
1F
100
AcDbEntity
  8
想像線
  6
HIDDEN2
100
AcDbLine
 10
491.6997582163328
 20
384.7528030319287
 30
0.0
 11
492.0211421598154
 21
382.588851056466
 31
0.0
  0
LINE
  5
36EC
330
1F
100
AcDbEntity
  8
太線
  6
HIDDEN2
100
AcDbLine
 10
492.1022268544373
 20
385.0368600509623
 30
0.0
 11
488.8824777496019
 21
382.7644038986931
 31
0.0
  0
LINE
  5
36F9
330
1F
100
AcDbEntity
  8
想像線
  6
HIDDEN2
100
AcDbLine
 10
487.3047276642505
 20
328.0150576871059
 30
0.0
 11
488.601194723037
 21
329.476040704748
 31
0.0
  0
LINE
  5
36FA
330
1F
100
AcDbEntity
  8
太線
  6
HIDDEN2
100
AcDbLine
 10
486.1993525538607
 20
328.9959605456042
 30
0.0
 11
489.1470195149
 21
326.3802195896086
 31
0.0
  0
LINE
  5
36FB
330
1F
100
AcDbEntity
  8
想像線
  6
HIDDEN2
100
AcDbLine
 10
488.77856114477
 20
326.7071872091081
 30
0.0
 11
489.3381114632967
 21
328.8221054657491
 31
0.0
  0
LINE
  5
36FC
330
1F
100
AcDbEntity
  8
想像線
  6
HIDDEN2
100
AcDbLine
 10
488.0416444045103
 20
327.361122448107
 30
0.0
 11
489.3381114632967
 21
328.8221054657491
 31
0.0
  0
LINE
  5
36FD
330
1F
100
AcDbEntity
  8
太線
  6
HIDDEN2
100
AcDbLine
 10
491.4772836020265
 20
328.2640021908885
 30
0.0
 11
492.2142003422863
 21
327.6100669518896
 31
0.0
  0
ARC
  5
36FE
330
1F
100
AcDbEntity
  8
太線
  6
HIDDEN2
100
AcDbCircle
 10
490.4548899928979
 20
327.8540530701285
 30
0.0
 40
1.970459417374236
100
AcDbArc
 50
228.4143536004834
 51
318.4143536004859
  0
LINE
  5
36FF
330
1F
100
AcDbEntity
  8
太線
  6
HIDDEN2
100
AcDbLine
 10
492.2556910929168
 20
326.9146409622603
 30
0.0
 11
491.9287234734174
 21
326.5461825921304
 31
0.0
  0
ARC
  5
3700
330
1F
100
AcDbEntity
  8
太線
  6
HIDDEN2
100
AcDbCircle
 10
491.887232722787
 20
327.2416085817599
 30
0.0
 40
0.4926148543435592
100
AcDbArc
 50
318.4143536004859
 51
48.41435360048346
  0
LINE
  5
3701
330
1F
100
AcDbEntity
  8
太線
  6
HIDDEN2
100
AcDbLine
 10
487.7926999007274
 20
331.533678385883
 30
0.0
 11
491.4772836020265
 21
328.2640021908885
 31
0.0
  0
LINE
  5
3702
330
1F
100
AcDbEntity
  8
太線
  6
HIDDEN2
100
AcDbLine
 10
487.0557831604676
 20
332.1876136248819
 30
0.0
 11
487.7926999007274
 21
331.533678385883
 31
0.0
  0
ARC
  5
3703
330
1F
100
AcDbEntity
  8
太線
  6
HIDDEN2
100
AcDbCircle
 10
486.7288155409682
 20
331.8191552547522
 30
0.0
 40
0.4926148543435592
100
AcDbArc
 50
48.41435360048346
 51
138.4143536004859
  0
LINE
  5
3704
330
1F
100
AcDbEntity
  8
太線
  6
HIDDEN2
100
AcDbLine
 10
486.0333895513389
 20
331.7776645041216
 30
0.0
 11
486.3603571708384
 21
332.1461228742515
 31
0.0
  0
ARC
  5
3705
330
1F
100
AcDbEntity
  8
太線
  6
HIDDEN2
100
AcDbCircle
 10
487.5072230318586
 20
330.469794026124
 30
0.0
 40
1.970459417374236
100
AcDbArc
 50
138.4143536004859
 51
228.4143536004834
  0
LINE
  5
3706
330
1F
100
AcDbEntity
  8
想像線
  6
HIDDEN2
100
AcDbLine
 10
488.601194723037
 20
329.476040704748
 30
0.0
 11
489.3381114632967
 21
328.8221054657491
 31
0.0
  0
LINE
  5
3707
330
1F
100
AcDbEntity
  8
想像線
  6
HIDDEN2
100
AcDbLine
 10
486.5678109239906
 20
328.6689929261048
 30
0.0
 11
488.601194723037
 21
329.476040704748
 31
0.0
  0
LINE
  5
3708
330
1F
100
AcDbEntity
  8
太線
100
AcDbLine
 10
490.1445154302503
 20
334.1839289464148
 30
0.0
 11
487.7926999007274
 21
331.533678385883
 31
0.0
  0
LINE
  5
3709
330
1F
100
AcDbEntity
  8
太線
100
AcDbLine
 10
497.9790862740075
 20
335.5908549816689
 30
0.0
 11
497.0293491466382
 21
334.5206003964042
 31
0.0
  0
LINE
  5
370A
330
1F
100
AcDbEntity
  8
太線
100
AcDbLine
 10
493.8480810257572
 20
330.9356433643884
 30
0.0
 11
491.4772836020265
 21
328.2640021908885
 31
0.0
  0
LINE
  5
370B
330
1F
100
AcDbEntity
  8
太線
  6
HIDDEN2
100
AcDbLine
 10
497.9790862740075
 20
335.5908549816689
 30
0.0
 11
499.1977592787076
 21
336.964172222442
 31
0.0
  0
LINE
  5
370C
330
1F
100
AcDbEntity
  8
太線
  6
HIDDEN2
100
AcDbLine
 10
496.2086015670378
 20
340.275339168067
 30
0.0
 11
499.1562685280771
 21
337.6595982120714
 31
0.0
  0
LINE
  5
370D
330
1F
100
AcDbEntity
  8
太線
100
AcDbLine
 10
494.252561724327
 20
338.8132682193709
 30
0.0
 11
493.4073035143952
 21
337.8607504659396
 31
0.0
  0
LINE
  5
370E
330
1F
100
AcDbEntity
  8
太線
100
AcDbLine
 10
494.252561724327
 20
338.8132682193709
 30
0.0
 11
495.5131755774084
 21
340.2338484174365
 31
0.0
  0
ARC
  5
370F
330
1F
100
AcDbEntity
  8
太線
  6
HIDDEN2
100
AcDbCircle
 10
495.8816339475385
 20
339.9068807979372
 30
0.0
 40
0.4926148543435592
100
AcDbArc
 50
48.41435360048346
 51
138.4143536004859
  0
LINE
  5
3710
330
1F
100
AcDbEntity
  8
想像線
100
AcDbLine
 10
505.7550689090501
 20
325.636706329604
 30
0.0
 11
506.3157378715898
 21
330.6191542704103
 31
0.0
  0
LINE
  5
3711
330
1F
100
AcDbEntity
  8
想像線
100
AcDbLine
 10
509.7299814476981
 20
325.1894141319319
 30
0.0
 11
510.2906504102379
 21
330.1718620727382
 31
0.0
  0
LINE
  5
3714
330
1F
100
AcDbEntity
  8
太線
  6
HIDDEN2
100
AcDbLine
 10
494.2090376067437
 20
382.9061052413695
 30
0.0
 11
490.1843512256992
 21
380.0655350510328
 31
0.0
  0
LINE
  5
3715
330
1F
100
AcDbEntity
  8
想像線
  6
HIDDEN2
100
AcDbLine
 10
489.2849463877062
 20
383.0484609177267
 30
0.0
 11
491.2162048836065
 21
382.0207370183987
 31
0.0
  0
LINE
  5
3716
330
1F
100
AcDbEntity
  8
太線
100
AcDbLine
 10
492.2440097629837
 20
377.1472900828887
 30
0.0
 11
490.1843512256992
 21
380.0655350510328
 31
0.0
  0
ARC
  5
3717
330
1F
100
AcDbEntity
  8
太線
  6
HIDDEN2
100
AcDbCircle
 10
490.0187058257367
 20
381.1545293462753
 30
0.0
 40
1.970459417374236
100
AcDbArc
 50
125.2139355850664
 51
215.213935585071
  0
LINE
  5
3718
330
1F
100
AcDbEntity
  8
太線
  6
HIDDEN2
100
AcDbLine
 10
488.6928882923524
 20
379.6158326320362
 30
0.0
 11
488.4088312733187
 21
380.0183012701406
 31
0.0
  0
LINE
  5
3719
330
1F
100
AcDbEntity
  8
太線
  6
HIDDEN2
100
AcDbLine
 10
490.1843512256992
 20
380.0655350510328
 30
0.0
 11
489.3794139494904
 21
379.4974210129655
 31
0.0
  0
ARC
  5
371A
330
1F
100
AcDbEntity
  8
太線
  6
HIDDEN2
100
AcDbCircle
 10
489.0953569304571
 20
379.8998896510699
 30
0.0
 40
0.4926148543435592
100
AcDbArc
 50
215.213935585071
 51
305.2139355850664
  0
LINE
  5
371B
330
1F
100
AcDbEntity
  8
太線
100
AcDbLine
 10
499.8211196098184
 20
374.9545784373789
 30
0.0
 11
500.9162929294489
 21
373.4028726709119
 31
0.0
  0
LINE
  5
371C
330
1F
100
AcDbEntity
  8
太線
  6
HIDDEN2
100
AcDbLine
 10
500.7978813103782
 20
372.7163470137737
 30
0.0
 11
497.5781322055427
 21
370.4438908615045
 31
0.0
  0
LINE
  5
371D
330
1F
100
AcDbEntity
  8
太線
100
AcDbLine
 10
495.8328698410148
 20
372.0623827186341
 30
0.0
 11
495.0077743845315
 21
373.2314263346188
 31
0.0
  0
LINE
  5
371E
330
1F
100
AcDbEntity
  8
太線
  6
HIDDEN2
100
AcDbLine
 10
495.8328698410148
 20
372.0623827186341
 30
0.0
 11
496.8916065484044
 21
370.5623024805752
 31
0.0
  0
ARC
  5
371F
330
1F
100
AcDbEntity
  8
太線
  6
HIDDEN2
100
AcDbCircle
 10
500.5138242913445
 20
373.1188156518783
 30
0.0
 40
0.4926148543435592
100
AcDbArc
 50
305.2139355850664
 51
35.213935585071
  0
LINE
  5
3720
330
1F
100
AcDbEntity
  8
想像線
  6
HIDDEN2
100
AcDbLine
 10
492.0211421598154
 20
382.588851056466
 30
0.0
 11
491.2162048836065
 21
382.0207370183987
 31
0.0
  0
LINE
  5
3721
330
1F
100
AcDbEntity
  8
太線
100
AcDbLine
 10
496.2522053970466
 20
380.011225330359
 30
0.0
 11
494.2090376067437
 21
382.9061052413695
 31
0.0
  0
LINE
  5
3722
330
1F
100
AcDbEntity
  8
太線
100
AcDbLine
 10
499.8211196098184
 20
374.9545784373789
 30
0.0
 11
499.0867914589315
 21
375.9950176133395
 31
0.0
  0
ARC
  5
372A
330
1F
100
AcDbEntity
  8
太線
  6
HIDDEN2
100
AcDbCircle
 10
494.7299178639191
 20
383.8766879175413
 30
0.0
 40
0.4926148543435592
100
AcDbArc
 50
305.2139355850664
 51
35.213935585071
  0
LINE
  5
372B
330
1F
100
AcDbEntity
  8
太線
  6
HIDDEN2
100
AcDbLine
 10
494.8483294829896
 20
384.5632135746793
 30
0.0
 11
495.1323865020232
 21
384.1607449365749
 31
0.0
  0
ARC
  5
372C
330
1F
100
AcDbEntity
  8
太線
  6
HIDDEN2
100
AcDbCircle
 10
493.2384549305721
 20
383.4269854985446
 30
0.0
 40
1.970459417374236
100
AcDbArc
 50
35.213935585071
 51
125.2139355850664
  0
LINE
  5
3737
330
1F
100
AcDbEntity
  8
太線
100
AcDbLine
 10
540.4445097012219
 20
352.368176395012
 30
0.0
 11
543.9877940982897
 21
352.368176395012
 31
0.0
  0
LINE
  5
3738
330
1F
100
AcDbEntity
  8
太線
100
AcDbLine
 10
540.415911263662
 20
357.2943249384477
 30
0.0
 11
543.9877940982897
 21
357.2943249384477
 31
0.0
  0
LINE
  5
3739
330
1F
100
AcDbEntity
  8
太線
  6
HIDDEN2
100
AcDbLine
 10
531.8633821664449
 20
352.8607912493556
 30
0.0
 11
531.863382166445
 21
356.801710084104
 31
0.0
  0
ARC
  5
373A
330
1F
100
AcDbEntity
  8
太線
  6
HIDDEN2
100
AcDbCircle
 10
532.3559970207885
 20
352.8607912493556
 30
0.0
 40
0.4926148543435592
100
AcDbArc
 50
180.0
 51
270.0
  0
LINE
  5
373B
330
1F
100
AcDbEntity
  8
太線
100
AcDbLine
 10
534.2552588209932
 20
352.368176395012
 30
0.0
 11
532.3559970207885
 21
352.368176395012
 31
0.0
  0
LINE
  5
373C
330
1F
100
AcDbEntity
  8
太線
100
AcDbLine
 10
534.2552588209932
 20
352.368176395012
 30
0.0
 11
535.5287389001696
 21
352.368176395012
 31
0.0
  0
LINE
  5
373D
330
1F
100
AcDbEntity
  8
太線
  6
HIDDEN2
100
AcDbLine
 10
534.1920700411746
 20
357.2943249384477
 30
0.0
 11
532.3559970207885
 21
357.2943249384477
 31
0.0
  0
LINE
  5
373E
330
1F
100
AcDbEntity
  8
太線
100
AcDbLine
 10
534.1920700411746
 20
357.2943249384477
 30
0.0
 11
535.6229597952729
 21
357.2943249384477
 31
0.0
  0
LINE
  5
373F
330
1F
100
AcDbEntity
  8
想像線
  6
HIDDEN2
100
AcDbLine
 10
546.943483224351
 20
356.3090952297605
 30
0.0
 11
544.9902043880459
 21
355.3238655210734
 31
0.0
  0
LINE
  5
3740
330
1F
100
AcDbEntity
  8
太線
  6
HIDDEN2
100
AcDbLine
 10
543.9877940982897
 20
352.368176395012
 30
0.0
 11
543.9877940982897
 21
357.2943249384477
 31
0.0
  0
LINE
  5
3741
330
1F
100
AcDbEntity
  8
太線
  6
HIDDEN2
100
AcDbLine
 10
546.943483224351
 20
352.8607912493556
 30
0.0
 11
546.943483224351
 21
356.801710084104
 31
0.0
  0
LINE
  5
3742
330
1F
100
AcDbEntity
  8
想像線
  6
HIDDEN2
100
AcDbLine
 10
546.943483224351
 20
353.3534061036992
 30
0.0
 11
544.9902043880459
 21
354.3386358123863
 31
0.0
  0
LINE
  5
3743
330
1F
100
AcDbEntity
  8
想像線
  6
HIDDEN2
100
AcDbLine
 10
546.943483224351
 20
354.3386358123863
 30
0.0
 11
544.9902043880459
 21
354.3386358123863
 31
0.0
  0
LINE
  5
3744
330
1F
100
AcDbEntity
  8
想像線
  6
HIDDEN2
100
AcDbLine
 10
546.943483224351
 20
355.3238655210734
 30
0.0
 11
544.9902043880459
 21
355.3238655210734
 31
0.0
  0
LINE
  5
3745
330
1F
100
AcDbEntity
  8
想像線
  6
HIDDEN2
100
AcDbLine
 10
544.9902043880459
 20
354.3386358123863
 30
0.0
 11
544.9902043880459
 21
355.3238655210734
 31
0.0
  0
ARC
  5
3746
330
1F
100
AcDbEntity
  8
太線
  6
HIDDEN2
100
AcDbCircle
 10
544.9730238069767
 20
352.8607912493556
 30
0.0
 40
1.970459417374236
100
AcDbArc
 50
270.0
 51
0.0
  0
LINE
  5
3747
330
1F
100
AcDbEntity
  8
太線
  6
HIDDEN2
100
AcDbLine
 10
544.9730238069767
 20
350.8903318319814
 30
0.0
 11
544.4804089526331
 21
350.8903318319814
 31
0.0
  0
ARC
  5
3748
330
1F
100
AcDbEntity
  8
太線
  6
HIDDEN2
100
AcDbCircle
 10
544.4804089526331
 20
351.3829466863249
 30
0.0
 40
0.4926148543435592
100
AcDbArc
 50
180.0
 51
270.0
  0
LINE
  5
3749
330
1F
100
AcDbEntity
  8
太線
  6
HIDDEN2
100
AcDbLine
 10
543.9877940982897
 20
351.3829466863249
 30
0.0
 11
543.9877940982897
 21
352.368176395012
 31
0.0
  0
ARC
  5
374A
330
1F
100
AcDbEntity
  8
太線
  6
HIDDEN2
100
AcDbCircle
 10
544.4804089526331
 20
358.2795546471347
 30
0.0
 40
0.4926148543435592
100
AcDbArc
 50
90.0
 51
180.0
  0
LINE
  5
374B
330
1F
100
AcDbEntity
  8
太線
  6
HIDDEN2
100
AcDbLine
 10
543.9877940982897
 20
357.2943249384477
 30
0.0
 11
543.9877940982897
 21
358.2795546471347
 31
0.0
  0
LINE
  5
374C
330
1F
100
AcDbEntity
  8
太線
  6
HIDDEN2
100
AcDbLine
 10
544.4804089526331
 20
358.7721695014783
 30
0.0
 11
544.9730238069767
 21
358.7721695014783
 31
0.0
  0
ARC
  5
374D
330
1F
100
AcDbEntity
  8
太線
  6
HIDDEN2
100
AcDbCircle
 10
544.9730238069767
 20
356.801710084104
 30
0.0
 40
1.970459417374236
100
AcDbArc
 50
0.0
 51
90.0
  0
LINE
  5
37F8
330
1F
100
AcDbEntity
  8
太線
100
AcDbLine
 10
487.8046342706778
 20
250.157350851799
 30
0.0
 11
486.3737445165794
 21
250.157350851799
 31
0.0
  0
LINE
  5
37F9
330
1F
100
AcDbEntity
  8
太線
100
AcDbLine
 10
487.7414454908591
 20
245.2312023083635
 30
0.0
 11
486.4679654116828
 21
245.2312023083635
 31
0.0
  0
ARC
  5
37FA
330
1F
100
AcDbEntity
  8
太線
  6
HIDDEN2
100
AcDbCircle
 10
489.6407072910639
 20
245.723817162707
 30
0.0
 40
0.4926148543435592
100
AcDbArc
 50
270.0
 51
0.000000000000007
  0
LINE
  5
37FB
330
1F
100
AcDbEntity
  8
太線
  6
HIDDEN2
100
AcDbLine
 10
490.1333221454075
 20
245.723817162707
 30
0.0
 11
490.1333221454073
 21
249.6647359974554
 31
0.0
  0
LINE
  5
37FC
330
1F
100
AcDbEntity
  8
太線
100
AcDbLine
 10
487.7414454908591
 20
245.2312023083635
 30
0.0
 11
489.6407072910639
 21
245.2312023083635
 31
0.0
  0
LINE
  5
37FD
330
1F
100
AcDbEntity
  8
太線
  6
HIDDEN2
100
AcDbLine
 10
487.8046342706778
 20
250.157350851799
 30
0.0
 11
489.6407072910639
 21
250.157350851799
 31
0.0
  0
ARC
  5
37FE
330
1F
100
AcDbEntity
  8
太線
  6
HIDDEN2
100
AcDbCircle
 10
477.0236805048758
 20
249.6647359974554
 30
0.0
 40
1.970459417374236
100
AcDbArc
 50
90.0
 51
180.0
  0
LINE
  5
37FF
330
1F
100
AcDbEntity
  8
太線
  6
HIDDEN2
100
AcDbLine
 10
478.0089102135628
 20
245.2312023083635
 30
0.0
 11
478.0089102135628
 21
250.157350851799
 31
0.0
  0
LINE
  5
3800
330
1F
100
AcDbEntity
  8
太線
100
AcDbLine
 10
481.5521946106305
 20
245.2312023083635
 30
0.0
 11
478.0089102135628
 21
245.2312023083635
 31
0.0
  0
ARC
  5
3801
330
1F
100
AcDbEntity
  8
太線
  6
HIDDEN2
100
AcDbCircle
 10
477.5162953592192
 20
244.2459725996763
 30
0.0
 40
0.4926148543435592
100
AcDbArc
 50
270.0
 51
0.000000000000007
  0
LINE
  5
3802
330
1F
100
AcDbEntity
  8
太線
  6
HIDDEN2
100
AcDbLine
 10
477.0236805048758
 20
243.7533577453328
 30
0.0
 11
477.5162953592192
 21
243.7533577453328
 31
0.0
  0
LINE
  5
3803
330
1F
100
AcDbEntity
  8
想像線
  6
HIDDEN2
100
AcDbLine
 10
475.0532210875014
 20
248.1868914344248
 30
0.0
 11
477.0064999238065
 21
248.1868914344248
 31
0.0
  0
LINE
  5
3804
330
1F
100
AcDbEntity
  8
想像線
  6
HIDDEN2
100
AcDbLine
 10
475.0532210875014
 20
247.2016617257377
 30
0.0
 11
477.0064999238065
 21
247.2016617257377
 31
0.0
  0
LINE
  5
3805
330
1F
100
AcDbEntity
  8
想像線
  6
HIDDEN2
100
AcDbLine
 10
475.0532210875014
 20
246.2164320170506
 30
0.0
 11
477.0064999238065
 21
247.2016617257377
 31
0.0
  0
LINE
  5
3806
330
1F
100
AcDbEntity
  8
想像線
  6
HIDDEN2
100
AcDbLine
 10
475.0532210875014
 20
249.1721211431118
 30
0.0
 11
477.0064999238065
 21
248.1868914344248
 31
0.0
  0
LINE
  5
3807
330
1F
100
AcDbEntity
  8
太線
  6
HIDDEN2
100
AcDbLine
 10
478.0089102135628
 20
244.2459725996763
 30
0.0
 11
478.0089102135628
 21
245.2312023083635
 31
0.0
  0
LINE
  5
3808
330
1F
100
AcDbEntity
  8
想像線
  6
HIDDEN2
100
AcDbLine
 10
477.0064999238065
 20
247.2016617257377
 30
0.0
 11
477.0064999238065
 21
248.1868914344248
 31
0.0
  0
LINE
  5
3809
330
1F
100
AcDbEntity
  8
太線
  6
HIDDEN2
100
AcDbLine
 10
475.0532210875014
 20
245.723817162707
 30
0.0
 11
475.0532210875014
 21
249.6647359974554
 31
0.0
  0
ARC
  5
380A
330
1F
100
AcDbEntity
  8
太線
  6
HIDDEN2
100
AcDbCircle
 10
477.0236805048758
 20
245.723817162707
 30
0.0
 40
1.970459417374236
100
AcDbArc
 50
180.0
 51
270.0
  0
LINE
  5
380B
330
1F
100
AcDbEntity
  8
太線
100
AcDbLine
 10
481.5807930481903
 20
250.157350851799
 30
0.0
 11
478.0089102135628
 21
250.157350851799
 31
0.0
  0
LINE
  5
380C
330
1F
100
AcDbEntity
  8
太線
  6
HIDDEN2
100
AcDbLine
 10
477.5162953592192
 20
251.6351954148297
 30
0.0
 11
477.0236805048758
 21
251.6351954148297
 31
0.0
  0
LINE
  5
380D
330
1F
100
AcDbEntity
  8
太線
  6
HIDDEN2
100
AcDbLine
 10
478.0089102135628
 20
250.157350851799
 30
0.0
 11
478.0089102135628
 21
251.1425805604861
 31
0.0
  0
ARC
  5
380E
330
1F
100
AcDbEntity
  8
太線
  6
HIDDEN2
100
AcDbCircle
 10
477.5162953592192
 20
251.1425805604861
 30
0.0
 40
0.4926148543435592
100
AcDbArc
 50
0.000000000000007
 51
90.0
  0
XLINE
  5
3819
330
1F
100
AcDbEntity
  8
構築線
100
AcDbXline
 10
511.0337151808912
 20
261.1490861672506
 30
0.0
 11
0.0
 21
1.0
 31
0.0
  0
LINE
  5
381F
330
1F
100
AcDbEntity
  8
太線
100
AcDbLine
 10
557.5337151808912
 20
101.7515156156007
 30
0.0
 11
561.0337151808912
 21
101.7515156156007
 31
0.0
  0
LINE
  5
3820
330
1F
100
AcDbEntity
  8
太線
100
AcDbLine
 10
561.0337151808912
 20
101.7515156156007
 30
0.0
 11
561.0337151808912
 21
201.7515156156007
 31
0.0
  0
LINE
  5
3821
330
1F
100
AcDbEntity
  8
太線
100
AcDbLine
 10
561.0337151808912
 20
201.7515156156007
 30
0.0
 11
461.0337151808912
 21
201.7515156156007
 31
0.0
  0
LINE
  5
3822
330
1F
100
AcDbEntity
  8
太線
100
AcDbLine
 10
461.0337151808912
 20
201.7515156156007
 30
0.0
 11
461.0337151808912
 21
101.7515156156007
 31
0.0
  0
LINE
  5
3823
330
1F
100
AcDbEntity
  8
太線
100
AcDbLine
 10
461.0337151808912
 20
101.7515156156007
 30
0.0
 11
557.5337151808912
 21
101.7515156156007
 31
0.0
  0
CIRCLE
  5
382B
330
1F
100
AcDbEntity
  8
太線
100
AcDbCircle
 10
536.0337151808912
 20
176.7515156156007
 30
0.0
 40
2.5
  0
CIRCLE
  5
382C
330
1F
100
AcDbEntity
  8
太線
100
AcDbCircle
 10
536.0337151808912
 20
126.7515156156007
 30
0.0
 40
2.5
  0
CIRCLE
  5
382D
330
1F
100
AcDbEntity
  8
太線
100
AcDbCircle
 10
486.0337151808912
 20
176.7515156156007
 30
0.0
 40
2.5
  0
CIRCLE
  5
382E
330
1F
100
AcDbEntity
  8
太線
100
AcDbCircle
 10
486.0337151808912
 20
126.7515156156007
 30
0.0
 40
2.5
  0
CIRCLE
  5
382F
330
1F
100
AcDbEntity
  8
太線
100
AcDbCircle
 10
511.0337151808912
 20
126.7515156156007
 30
0.0
 40
5.5
  0
ARC
  5
3830
330
1F
100
AcDbEntity
  8
太線
100
AcDbCircle
 10
511.0337151808912
 20
201.7515156156007
 30
0.0
 40
5.0
100
AcDbArc
 50
0.0
 51
180.0
  0
SPLINE
  5
3831
330
1F
100
AcDbEntity
  8
太線
100
AcDbSpline
210
0.0
220
0.0
230
1.0
 70
     8
 71
     3
 72
    13
 73
     9
 74
     0
 42
0.0000000001
 43
0.0000000001
 40
37.16873504659734
 40
37.16873504659734
 40
37.16873504659734
 40
37.16873504659734
 40
40.06622254250475
 40
50.82062870847845
 40
59.50781024718184
 40
63.86365678346696
 40
66.54433645012566
 40
66.71898905401784
 40
66.71898905401784
 40
66.71898905401784
 40
66.71898905401784
 10
515.7671495739506
 20
203.3622914679743
 30
0.0
 10
516.7325983778826
 20
203.4253226869389
 30
0.0
 10
521.2880283677277
 20
203.6879407408136
 30
0.0
 10
528.8195935810493
 20
203.3776895274745
 30
0.0
 10
536.4679198152948
 20
203.7170253569338
 30
0.0
 10
542.1786303102499
 20
204.2528800609999
 30
0.0
 10
543.8731055647748
 20
202.3764224326668
 30
0.0
 10
544.6061832075424
 20
201.7416995881195
 30
0.0
 10
544.6512495637668
 20
201.703269340566
 30
0.0
  0
LINE
  5
3843
330
1F
100
AcDbEntity
  8
太線
100
AcDbLine
 10
561.0337151808912
 20
279.660591209764
 30
0.0
 11
461.0337151808912
 21
279.660591209764
 31
0.0
  0
LINE
  5
3844
330
1F
100
AcDbEntity
  8
太線
100
AcDbLine
 10
461.0337151808912
 20
279.660591209764
 30
0.0
 11
461.0337151808912
 21
429.6605912097641
 31
0.0
  0
LINE
  5
3845
330
1F
100
AcDbEntity
  8
太線
100
AcDbLine
 10
461.0337151808912
 20
429.6605912097641
 30
0.0
 11
561.0337151808912
 21
429.6605912097641
 31
0.0
  0
LINE
  5
3846
330
1F
100
AcDbEntity
  8
太線
100
AcDbLine
 10
561.0337151808912
 20
429.6605912097641
 30
0.0
 11
561.0337151808912
 21
279.660591209764
 31
0.0
  0
CIRCLE
  5
384D
330
1F
100
AcDbEntity
  8
太線
100
AcDbCircle
 10
546.0337151808912
 20
404.6605912097641
 30
0.0
 40
2.5
  0
CIRCLE
  5
384E
330
1F
100
AcDbEntity
  8
太線
100
AcDbCircle
 10
546.0337151808912
 20
304.660591209764
 30
0.0
 40
2.5
  0
CIRCLE
  5
384F
330
1F
100
AcDbEntity
  8
太線
100
AcDbCircle
 10
476.0337151808912
 20
404.6605912097641
 30
0.0
 40
2.5
  0
CIRCLE
  5
3850
330
1F
100
AcDbEntity
  8
太線
100
AcDbCircle
 10
476.0337151808912
 20
304.660591209764
 30
0.0
 40
2.5
  0
LINE
  5
3853
330
1F
100
AcDbEntity
  8
想像線
100
AcDbLine
 10
461.0337151808912
 20
426.0805912097641
 30
0.0
 11
561.0337151808912
 21
426.0805912097641
 31
0.0
  0
LINE
  5
3854
330
1F
100
AcDbEntity
  8
想像線
100
AcDbLine
 10
461.0337151808912
 20
283.2405912097641
 30
0.0
 11
561.0337151808912
 21
283.2405912097641
 31
0.0
  0
LINE
  5
3855
330
1F
100
AcDbEntity
  8
想像線
100
AcDbLine
 10
486.0337151808912
 20
261.1490861672506
 30
0.0
 11
486.0337151808912
 21
203.0233021376779
 31
0.0
  0
LINE
  5
3856
330
1F
100
AcDbEntity
  8
想像線
100
AcDbLine
 10
536.0337151808912
 20
261.1490861672506
 30
0.0
 11
536.0337151808912
 21
201.7515156156007
 31
0.0
  0
LINE
  5
3862
330
1F
100
AcDbEntity
  8
想像線
100
AcDbLine
 10
657.1840562754048
 20
379.660591209764
 30
0.0
 11
716.5816268270546
 21
379.660591209764
 31
0.0
  0
LINE
  5
3863
330
1F
100
AcDbEntity
  8
想像線
100
AcDbLine
 10
657.1840562754048
 20
329.660591209764
 30
0.0
 11
715.3098403049774
 21
329.660591209764
 31
0.0
  0
LINE
  5
3864
330
1F
100
AcDbEntity
  8
太線
100
AcDbLine
 10
657.1840562754048
 20
384.6605912097641
 30
0.0
 11
714.3957462560201
 21
384.6605912097641
 31
0.0
  0
LINE
  5
3865
330
1F
100
AcDbEntity
  8
想像線
100
AcDbLine
 10
657.1840562754048
 20
379.660591209764
 30
0.0
 11
707.1840562754048
 21
379.660591209764
 31
0.0
  0
LINE
  5
3866
330
1F
100
AcDbEntity
  8
太線
100
AcDbLine
 10
714.8526092770577
 20
325.660591209764
 30
0.0
 11
657.1840562754048
 21
325.660591209764
 31
0.0
  0
SPLINE
  5
3867
330
1F
100
AcDbEntity
  8
太線
100
AcDbSpline
210
0.0
220
0.0
230
1.0
 70
     8
 71
     3
 72
    13
 73
     9
 74
     0
 42
0.0000000001
 43
0.0000000001
 40
37.16873504659734
 40
37.16873504659734
 40
37.16873504659734
 40
37.16873504659734
 40
40.06622254250475
 40
50.82062870847845
 40
59.50781024718184
 40
63.86365678346696
 40
66.54433645012566
 40
66.71898905401784
 40
66.71898905401784
 40
66.71898905401784
 40
66.71898905401784
 10
714.970850974681
 20
359.3940256028234
 30
0.0
 10
714.9078197557164
 20
360.3594744067554
 30
0.0
 10
714.6452017018418
 20
364.9149043966005
 30
0.0
 10
714.9554529151807
 20
372.4464696099221
 30
0.0
 10
714.6161170857216
 20
380.0947958441677
 30
0.0
 10
714.0802623816555
 20
385.8055063391227
 30
0.0
 10
715.9567200099886
 20
387.4999815936476
 30
0.0
 10
716.5914428545359
 20
388.2330592364153
 30
0.0
 10
716.6298731020892
 20
388.2781255926397
 30
0.0
  0
SPLINE
  5
3868
330
1F
100
AcDbEntity
  8
太線
100
AcDbSpline
210
0.0
220
0.0
230
1.0
 70
     8
 71
     3
 72
    12
 73
     8
 74
     0
 42
0.0000000001
 43
0.0000000001
 40
0.0
 40
0.0
 40
0.0
 40
0.0
 40
2.459425976549486
 40
5.289532862332183
 40
10.41502329012524
 40
15.89953919788664
 40
27.56090765402662
 40
27.56090765402662
 40
27.56090765402662
 40
27.56090765402662
 10
716.3248703054157
 20
322.6737974148158
 30
0.0
 10
715.7833625859166
 20
323.3339487708499
 30
0.0
 10
714.6187319343706
 20
324.7537484823071
 30
0.0
 10
715.1024158482934
 20
328.4141700242016
 30
0.0
 10
715.8523157882973
 20
332.7622877385422
 30
0.0
 10
714.7428957036169
 20
340.2136868951421
 30
0.0
 10
715.2879995986595
 20
345.9303992745707
 30
0.0
 10
715.3696670241496
 20
349.809699184977
 30
0.0
  0
ARC
  5
3875
330
1F
100
AcDbEntity
  8
太線
100
AcDbCircle
 10
716.5816268270546
 20
354.6605912097641
 30
0.0
 40
5.0
100
AcDbArc
 50
90.0
 51
270.0
  0
LINE
  5
3876
330
1F
100
AcDbEntity
  8
太線
100
AcDbLine
 10
721.6298731020891
 20
415.160591209764
 30
0.0
 11
721.6298731020892
 21
415.160591209764
 31
0.0
  0
LINE
  5
3878
330
1F
100
AcDbEntity
  8
太線
100
AcDbLine
 10
657.1840562754048
 20
325.660591209764
 30
0.0
 11
657.1840562754048
 21
384.6605912097641
 31
0.0
  0
ARC
  5
387B
330
1F
100
AcDbEntity
  8
太線
  6
HIDDEN2
100
AcDbCircle
 10
668.6684064451999
 20
320.6505565337486
 30
0.0
 40
1.970459417374236
100
AcDbArc
 50
180.0
 51
270.0
  0
LINE
  5
387C
330
1F
100
AcDbEntity
  8
太線
100
AcDbLine
 10
673.1019401342919
 20
331.368321519732
 30
0.0
 11
673.1019401342919
 21
330.0948414405556
 31
0.0
  0
LINE
  5
387D
330
1F
100
AcDbEntity
  8
太線
100
AcDbLine
 10
668.1757915908563
 20
331.4315102995507
 30
0.0
 11
668.1757915908563
 21
330.0006205454522
 31
0.0
  0
LINE
  5
387E
330
1F
100
AcDbEntity
  8
太線
100
AcDbLine
 10
668.1757915908563
 20
325.2076690770631
 30
0.0
 11
668.1757915908563
 21
321.6357862424356
 31
0.0
  0
LINE
  5
387F
330
1F
100
AcDbEntity
  8
太線
100
AcDbLine
 10
673.1019401342919
 20
325.1790706395033
 30
0.0
 11
673.1019401342919
 21
321.6357862424356
 31
0.0
  0
ARC
  5
3880
330
1F
100
AcDbEntity
  8
太線
  6
HIDDEN2
100
AcDbCircle
 10
667.1905618821691
 20
321.1431713880922
 30
0.0
 40
0.4926148543435592
100
AcDbArc
 50
90.00000000000003
 51
180.0
  0
LINE
  5
3881
330
1F
100
AcDbEntity
  8
太線
  6
HIDDEN2
100
AcDbLine
 10
668.1757915908563
 20
321.6357862424356
 30
0.0
 11
667.1905618821693
 21
321.6357862424356
 31
0.0
  0
LINE
  5
3882
330
1F
100
AcDbEntity
  8
太線
  6
HIDDEN2
100
AcDbLine
 10
666.6979470278256
 20
321.1431713880921
 30
0.0
 11
666.6979470278256
 21
320.6505565337486
 31
0.0
  0
ARC
  5
3883
330
1F
100
AcDbEntity
  8
太線
  6
HIDDEN2
100
AcDbCircle
 10
672.6093252799483
 20
320.6505565337486
 30
0.0
 40
1.970459417374236
100
AcDbArc
 50
270.0
 51
0.0
  0
LINE
  5
3884
330
1F
100
AcDbEntity
  8
太線
  6
HIDDEN2
100
AcDbLine
 10
672.6093252799483
 20
318.6800971163743
 30
0.0
 11
668.6684064451999
 21
318.6800971163743
 31
0.0
  0
LINE
  5
3885
330
1F
100
AcDbEntity
  8
想像線
  6
HIDDEN2
100
AcDbLine
 10
671.1314807169176
 20
320.6333759526793
 30
0.0
 11
670.1462510082306
 21
320.6333759526793
 31
0.0
  0
LINE
  5
3886
330
1F
100
AcDbEntity
  8
太線
  6
HIDDEN2
100
AcDbLine
 10
674.087169842979
 20
321.6357862424356
 30
0.0
 11
673.1019401342919
 21
321.6357862424356
 31
0.0
  0
LINE
  5
3887
330
1F
100
AcDbEntity
  8
想像線
  6
HIDDEN2
100
AcDbLine
 10
669.1610212995435
 20
318.6800971163743
 30
0.0
 11
670.1462510082306
 21
320.6333759526793
 31
0.0
  0
LINE
  5
3888
330
1F
100
AcDbEntity
  8
想像線
  6
HIDDEN2
100
AcDbLine
 10
672.1167104256047
 20
318.6800971163743
 30
0.0
 11
671.1314807169176
 21
320.6333759526793
 31
0.0
  0
LINE
  5
3889
330
1F
100
AcDbEntity
  8
想像線
  6
HIDDEN2
100
AcDbLine
 10
671.1314807169176
 20
318.6800971163743
 30
0.0
 11
671.1314807169176
 21
320.6333759526793
 31
0.0
  0
LINE
  5
388A
330
1F
100
AcDbEntity
  8
想像線
  6
HIDDEN2
100
AcDbLine
 10
670.1462510082306
 20
318.6800971163743
 30
0.0
 11
670.1462510082306
 21
320.6333759526793
 31
0.0
  0
LINE
  5
388B
330
1F
100
AcDbEntity
  8
太線
  6
HIDDEN2
100
AcDbLine
 10
674.5797846973225
 20
320.6505565337486
 30
0.0
 11
674.5797846973225
 21
321.1431713880921
 31
0.0
  0
ARC
  5
388C
330
1F
100
AcDbEntity
  8
太線
  6
HIDDEN2
100
AcDbCircle
 10
674.0871698429789
 20
321.1431713880922
 30
0.0
 40
0.4926148543435592
100
AcDbArc
 50
0.0
 51
90.00000000000003
  0
LINE
  5
388D
330
1F
100
AcDbEntity
  8
太線
  6
HIDDEN2
100
AcDbLine
 10
673.1019401342919
 20
321.6357862424356
 30
0.0
 11
668.1757915908563
 21
321.6357862424356
 31
0.0
  0
LINE
  5
388E
330
1F
100
AcDbEntity
  8
太線
  6
HIDDEN2
100
AcDbLine
 10
668.1757915908563
 20
331.4315102995507
 30
0.0
 11
668.1757915908563
 21
333.2675833199367
 31
0.0
  0
LINE
  5
388F
330
1F
100
AcDbEntity
  8
太線
100
AcDbLine
 10
673.1019401342919
 20
331.368321519732
 30
0.0
 11
673.1019401342919
 21
333.2675833199367
 31
0.0
  0
LINE
  5
3890
330
1F
100
AcDbEntity
  8
太線
  6
HIDDEN2
100
AcDbLine
 10
672.6093252799483
 20
333.7601981742803
 30
0.0
 11
668.6684064451999
 21
333.7601981742802
 31
0.0
  0
ARC
  5
3891
330
1F
100
AcDbEntity
  8
太線
  6
HIDDEN2
100
AcDbCircle
 10
672.6093252799483
 20
333.2675833199368
 30
0.0
 40
0.4926148543435592
100
AcDbArc
 50
0.0
 51
90.00000000000003
  0
LINE
  5
3892
330
1F
100
AcDbEntity
  8
想像線
100
AcDbLine
 10
666.6840562754048
 20
379.660591209764
 30
0.0
 11
666.6840562754048
 21
384.6605912097641
 31
0.0
  0
LINE
  5
3893
330
1F
100
AcDbEntity
  8
想像線
100
AcDbLine
 10
671.6840562754048
 20
384.6605912097641
 30
0.0
 11
671.6840562754048
 21
379.660591209764
 31
0.0
  0
LINE
  5
38F7
330
1F
100
AcDbEntity
  8
太線
100
AcDbLine
 10
816.5816268270546
 20
426.0805912097641
 30
0.0
 11
816.5816268270546
 21
429.6605912097641
 31
0.0
  0
LINE
  5
38F8
330
1F
100
AcDbEntity
  8
太線
100
AcDbLine
 10
816.5816268270546
 20
429.6605912097641
 30
0.0
 11
721.5816268270546
 21
429.6605912097641
 31
0.0
  0
LINE
  5
38F9
330
1F
100
AcDbEntity
  8
太線
100
AcDbLine
 10
716.5816268270546
 20
424.660591209764
 30
0.0
 11
716.5816268270546
 21
304.660591209764
 31
0.0
  0
LINE
  5
38FA
330
1F
100
AcDbEntity
  8
太線
100
AcDbLine
 10
716.5816268270546
 20
304.660591209764
 30
0.0
 11
716.5816268270546
 21
284.6605912097641
 31
0.0
  0
LINE
  5
38FB
330
1F
100
AcDbEntity
  8
太線
100
AcDbLine
 10
721.5816268270546
 20
279.660591209764
 30
0.0
 11
816.5816268270546
 21
279.660591209764
 31
0.0
  0
LINE
  5
38FC
330
1F
100
AcDbEntity
  8
太線
100
AcDbLine
 10
816.5816268270546
 20
279.660591209764
 30
0.0
 11
816.5816268270546
 21
283.2405912097641
 31
0.0
  0
LINE
  5
38FD
330
1F
100
AcDbEntity
  8
太線
100
AcDbLine
 10
816.5816268270546
 20
283.2405912097641
 30
0.0
 11
725.0816268270547
 21
283.2405912097641
 31
0.0
  0
LINE
  5
38FE
330
1F
100
AcDbEntity
  8
太線
100
AcDbLine
 10
720.0816268270547
 20
288.240591209764
 30
0.0
 11
720.0816268270547
 21
421.0805912097641
 31
0.0
  0
LINE
  5
38FF
330
1F
100
AcDbEntity
  8
太線
100
AcDbLine
 10
725.0816268270547
 20
426.0805912097641
 30
0.0
 11
816.5816268270546
 21
426.0805912097641
 31
0.0
  0
LINE
  5
3900
330
1F
100
AcDbEntity
  8
想像線
100
AcDbLine
 10
461.0337151808912
 20
198.2515156156007
 30
0.0
 11
561.0337151808912
 21
198.2515156156007
 31
0.0
  0
ARC
  5
3901
330
1F
100
AcDbEntity
  8
太線
100
AcDbCircle
 10
721.5816268270546
 20
424.660591209764
 30
0.0
 40
5.0
100
AcDbArc
 50
90.0
 51
180.0
  0
ARC
  5
3902
330
1F
100
AcDbEntity
  8
太線
100
AcDbCircle
 10
725.0816268270547
 20
421.0805912097641
 30
0.0
 40
5.0
100
AcDbArc
 50
90.0
 51
180.0
  0
ARC
  5
3903
330
1F
100
AcDbEntity
  8
太線
100
AcDbCircle
 10
725.0816268270547
 20
288.240591209764
 30
0.0
 40
5.0
100
AcDbArc
 50
179.9999999999999
 51
270.0
  0
ARC
  5
3904
330
1F
100
AcDbEntity
  8
太線
100
AcDbCircle
 10
721.5816268270546
 20
284.6605912097641
 30
0.0
 40
5.0
100
AcDbArc
 50
180.0
 51
270.0
  0
DIMENSION
  5
3905
330
1F
100
AcDbEntity
  8
寸法線
100
AcDbDimension
  2
*D4
 10
561.0337151808912
 20
79.1699907034507
 30
0.0
 11
511.0337151808912
 21
85.1699907034507
 31
0.0
 70
    32
  1
横（100）
 71
     5
 42
100.0
  3
sunpo
100
AcDbAlignedDimension
 13
461.0337151808912
 23
101.7515156156007
 33
0.0
 14
561.0337151808912
 24
101.7515156156007
 34
0.0
100
AcDbRotatedDimension
1001
ACAD
1000
DSTYLE
1002
{
1070
   140
1040
10.0
1070
    40
1040
1.0
1002
}
  0
DIMENSION
  5
3912
330
1F
100
AcDbEntity
  8
寸法線
100
AcDbDimension
  2
*D5
 10
593.0971086640479
 20
101.7515156156007
 30
0.0
 11
586.5971086640479
 21
151.7515156156008
 31
0.0
 70
    32
  1
高さ（H)
 71
     5
 42
100.0
  3
sunpo
100
AcDbAlignedDimension
 13
561.0337151808912
 23
201.7515156156007
 33
0.0
 14
561.0337151808912
 24
101.7515156156007
 34
0.0
 50
90.0
100
AcDbRotatedDimension
1001
ACAD
1000
DSTYLE
1002
{
1070
   140
1040
10.0
1070
    40
1040
1.0
1002
}
  0
DIMENSION
  5
391F
330
1F
100
AcDbEntity
  8
寸法線
100
AcDbDimension
  2
*D6
 10
773.5001970075318
 20
283.8763652268474
 30
0.0
 11
767.0001970075317
 21
354.1764124898139
 31
0.0
 70
    32
  1
カブセ有効巾（W)
 71
     5
 42
140.6000945259327
  3
sunpo
100
AcDbAlignedDimension
 13
769.6967474263042
 23
424.4764597527802
 33
0.0
 14
769.6967474263042
 24
283.8763652268474
 34
0.0
 50
90.0
100
AcDbRotatedDimension
1001
ACAD
1000
DSTYLE
1002
{
1070
   140
1040
10.0
1070
    40
1040
1.0
1002
}
  0
DIMENSION
  5
3986
330
1F
100
AcDbEntity
  8
寸法線
100
AcDbDimension
  2
*D7
 10
447.434096104635
 20
429.6605912097641
 30
0.0
 11
443.9336039786507
 21
417.1605912097642
 31
0.0
 70
    32
 71
     5
 42
25.0
  3
sunpo
100
AcDbAlignedDimension
 13
476.0337151808912
 23
404.6605912097641
 33
0.0
 14
461.0337151808912
 24
429.6605912097641
 34
0.0
 50
90.0
100
AcDbRotatedDimension
1001
ACAD
1000
DSTYLE
1002
{
1070
    40
1040
1.0
1002
}
  0
DIMENSION
  5
3993
330
1F
100
AcDbEntity
  8
寸法線
100
AcDbDimension
  2
*D8
 10
461.0337151808912
 20
438.6402992789065
 30
0.0
 11
468.5337151808912
 21
442.1402992789065
 31
0.0
 70
    32
 71
     5
 42
15.0
  3
sunpo
100
AcDbAlignedDimension
 13
476.0337151808912
 23
404.6605912097641
 33
0.0
 14
461.0337151808912
 24
404.6605912097641
 34
0.0
100
AcDbRotatedDimension
1001
ACAD
1000
DSTYLE
1002
{
1070
    40
1040
1.0
1002
}
  0
DIMENSION
  5
39A0
330
1F
100
AcDbEntity
  8
寸法線
100
AcDbDimension
  2
*D9
 10
443.777387810629
 20
101.7515156156007
 30
0.0
 11
440.2768956846448
 21
114.2515156156008
 31
0.0
 70
    32
 71
     5
 42
25.00000000000001
  3
sunpo
100
AcDbAlignedDimension
 13
486.0337151808912
 23
126.7515156156007
 33
0.0
 14
461.0337151808912
 24
101.7515156156007
 34
0.0
 50
90.0
100
AcDbRotatedDimension
1001
ACAD
1000
DSTYLE
1002
{
1070
    40
1040
1.0
1002
}
  0
DIMENSION
  5
39AD
330
1F
100
AcDbEntity
  8
寸法線
100
AcDbDimension
  2
*D10
 10
486.0337151808912
 20
139.6824243143261
 30
0.0
 11
473.5337151808912
 21
143.1829164403103
 31
0.0
 70
    32
 71
     5
 42
25.0
  3
sunpo
100
AcDbAlignedDimension
 13
461.0337151808912
 23
126.7515156156007
 33
0.0
 14
486.0337151808912
 24
126.7515156156007
 34
0.0
100
AcDbRotatedDimension
1001
ACAD
1000
DSTYLE
1002
{
1070
    40
1040
1.0
1002
}
  0
DIMENSION
  5
39BA
330
1F
100
AcDbEntity
  8
寸法線
100
AcDbDimension
  2
*D11
 10
511.0337151808912
 20
139.6824243143261
 30
0.0
 11
498.5337151808912
 21
143.1829164403103
 31
0.0
 70
    32
 71
     5
 42
25.0
  3
sunpo
100
AcDbAlignedDimension
 13
486.0337151808912
 23
126.7515156156007
 33
0.0
 14
511.0337151808912
 24
126.7515156156007
 34
0.0
100
AcDbRotatedDimension
1001
ACAD
1000
DSTYLE
1002
{
1070
    40
1040
1.0
1070
   279
1070
     1
1002
}
  0
DIMENSION
  5
39D0
330
1F
100
AcDbEntity
  8
寸法線
100
AcDbDimension
  2
*D12
 10
450.7634076287159
 20
201.7515156156007
 30
0.0
 11
447.2629155027315
 21
189.2515156156008
 31
0.0
 70
    32
 71
     5
 42
25.0
  3
sunpo
100
AcDbAlignedDimension
 13
486.0337151808912
 23
176.7515156156007
 33
0.0
 14
461.0337151808912
 24
201.7515156156007
 34
0.0
 50
90.0
100
AcDbRotatedDimension
1001
ACAD
1000
DSTYLE
1002
{
1070
    40
1040
1.0
1002
}
  0
DIMENSION
  5
39EA
330
1F
100
AcDbEntity
  8
寸法線
100
AcDbDimension
  2
*D13
 10
461.0337151808912
 20
163.5706569459013
 30
0.0
 11
473.5337151808912
 21
167.0711490718855
 31
0.0
 70
    32
 71
     5
 42
25.0
  3
sunpo
100
AcDbAlignedDimension
 13
486.0337151808912
 23
176.7515156156007
 33
0.0
 14
461.0337151808912
 24
176.7515156156007
 34
0.0
100
AcDbRotatedDimension
1001
ACAD
1000
DSTYLE
1002
{
1070
    40
1040
1.0
1002
}
  0
DIMENSION
  5
3A0D
330
1F
100
AcDbEntity
  8
寸法線
100
AcDbDimension
  2
*D14
 10
469.9691666843323
 20
261.1490861672506
 30
0.0
 11
466.4691666843323
 21
231.4503008914257
 31
0.0
 70
    32
  1
60
 71
     5
 42
59.39757055164989
  3
sunpo
100
AcDbAlignedDimension
 13
461.0337151808912
 23
201.7515156156007
 33
0.0
 14
482.0337151808912
 24
261.1490861672506
 34
0.0
 50
90.0
100
AcDbRotatedDimension
1001
ACAD
1000
DSTYLE
1002
{
1070
    40
1040
1.0
1002
}
  0
DIMENSION
  5
3A23
330
1F
100
AcDbEntity
  8
寸法線
100
AcDbDimension
  2
*D15
 10
507.6659756646771
 20
131.0998866382862
 30
0.0
 11
521.4445643262453
 21
113.3091948757536
 31
0.0
 70
    35
 71
     5
 42
11.00000000000011
  3
sunpo
100
AcDbDiametricDimension
 15
514.4014546971054
 25
122.4031445929153
 35
0.0
 40
0.0
1001
ACAD
1000
DSTYLE
1002
{
1070
    40
1040
1.0
1070
   288
1070
     1
1002
}
  0
DIMENSION
  5
3A38
330
1F
100
AcDbEntity
  8
寸法線
100
AcDbDimension
  2
*D16
 10
538.3592596020421
 20
175.8339955094155
 30
0.0
 11
520.0088884070462
 21
186.836509284107
 31
0.0
 70
    35
  1
Φ5×4
 71
     5
 42
5.0
  3
sunpo
100
AcDbDiametricDimension
 15
533.7081707597404
 25
177.6690357217858
 35
0.0
 40
0.0
1001
ACAD
1000
DSTYLE
1002
{
1070
    40
1040
1.0
1070
   288
1070
     1
1002
}
  0
DIMENSION
  5
3A44
330
1F
100
AcDbEntity
  8
寸法線
100
AcDbDimension
  2
*D17
 10
548.3559657084771
 20
403.7347659092201
 30
0.0
 11
528.7488771724806
 21
411.5516394209261
 31
0.0
 70
    35
  1
Φ5×4
 71
     5
 42
5.000000000000113
  3
sunpo
100
AcDbDiametricDimension
 15
543.7114646533053
 25
405.5864165103081
 35
0.0
 40
0.0
1001
ACAD
1000
DSTYLE
1002
{
1070
    40
1040
1.0
1070
   288
1070
     1
1002
}
  0
LEADER
  5
3A50
330
1F
100
AcDbEntity
  8
寸法線
100
AcDbLeader
  3
sunpo
 76
     2
 10
670.5644107889939
 20
316.0970145635307
 30
0.0
 10
680.5797645999533
 20
295.4958591244388
 30
0.0
1001
ACAD
1000
DSTYLE
1002
{
1070
   147
1040
1.0
1070
    77
1070
     0
1002
}
  0
TEXT
  5
3A51
330
1F
100
AcDbEntity
  8
文字
100
AcDbText
 10
666.302387436363
 20
285.9193576612491
 30
0.0
 40
5.759999999999999
  1
Ｍ5-8ｍｍ×3
 51
15.0
  7
OKANO
100
AcDbText
  0
TEXT
  5
3A52
330
1F
100
AcDbEntity
  8
文字
100
AcDbText
 10
562.9566728712929
 20
235.515188039287
 30
0.0
 40
5.759999999999999
  1
水抜き×3
 51
15.0
  7
OKANO
100
AcDbText
  0
LEADER
  5
3A53
330
1F
100
AcDbEntity
  8
寸法線
100
AcDbLeader
  3
sunpo
 76
     2
 10
514.7029308019478
 20
206.8165420632902
 30
0.0
 10
560.8180144060106
 20
236.3034386010505
 30
0.0
1001
ACAD
1000
DSTYLE
1002
{
1070
   147
1040
1.0
1070
    77
1070
     0
1002
}
  0
TEXT
  5
3A68
330
1F
100
AcDbEntity
  8
文字
100
AcDbText
 10
498.1399660855149
 20
306.6564754065117
 30
0.0
 40
5.759999999999999
  1
Φ3.5ｍｍ
 51
15.0
  7
OKANO
100
AcDbText
  0
LEADER
  5
3A69
330
1F
100
AcDbEntity
  8
寸法線
100
AcDbLeader
  3
sunpo
 76
     2
 10
507.4824259342133
 20
324.7045141933143
 30
0.0
 10
502.1099807641233
 20
313.1435839985596
 30
0.0
1001
ACAD
1000
DSTYLE
1002
{
1070
   147
1040
1.0
1070
    77
1070
     0
1002
}
  0
DIMENSION
  5
3A82
330
1F
100
AcDbEntity
  8
寸法線
100
AcDbDimension
  2
*D18
 10
836.5824245742199
 20
426.0805912097641
 30
0.0
 11
833.0824245742197
 21
415.1027055267942
 31
0.0
 70
    32
  1
3.5
 71
     5
 42
3.579999999999984
  3
sunpo
100
AcDbAlignedDimension
 13
816.5816268270546
 23
429.6605912097641
 33
0.0
 14
816.5816268270546
 24
426.0805912097641
 34
0.0
 50
90.0
100
AcDbRotatedDimension
1001
ACAD
1000
DSTYLE
1002
{
1070
    40
1040
1.0
1002
}
  0
TEXT
  5
3A9C
330
1F
100
AcDbEntity
  8
文字
100
AcDbText
 10
651.8555922005636
 20
213.944232014234
 30
0.0
 40
5.759999999999999
  1
21-Ｗ75
 51
15.0
  7
OKANO
100
AcDbText
  0
TEXT
  5
3AAA
330
1F
100
AcDbEntity
  8
文字
100
AcDbText
 10
651.8555922005636
 20
200.3365170265815
 30
0.0
 40
5.759999999999999
  1
21-Ｗ90
 51
15.0
  7
OKANO
100
AcDbText
  0
TEXT
  5
3AAB
330
1F
100
AcDbEntity
  8
文字
100
AcDbText
 10
651.8555922005636
 20
182.7265316068353
 30
0.0
 40
5.759999999999999
  1
21-Ｗ100
 51
15.0
  7
OKANO
100
AcDbText
  0
TEXT
  5
3AAC
330
1F
100
AcDbEntity
  8
文字
100
AcDbText
 10
651.8555922005636
 20
169.1188166191827
 30
0.0
 40
5.759999999999999
  1
21-Ｗ105
 51
15.0
  7
OKANO
100
AcDbText
  0
TEXT
  5
3AAD
330
1F
100
AcDbEntity
  8
文字
100
AcDbText
 10
651.8555922005636
 20
153.1097391588709
 30
0.0
 40
5.759999999999999
  1
21-Ｗ120
 51
15.0
  7
OKANO
100
AcDbText
  0
TEXT
  5
3AAE
330
1F
100
AcDbEntity
  8
文字
100
AcDbText
 10
651.8555922005636
 20
139.5020241712184
 30
0.0
 40
5.759999999999999
  1
21-Ｗ150
 51
15.0
  7
OKANO
100
AcDbText
  0
TEXT
  5
3AAF
330
1F
100
AcDbEntity
  8
文字
100
AcDbText
 10
706.4933666642546
 20
228.2623080885598
 30
0.0
 40
5.759999999999999
  1
有効巾（Ｗ）
 51
15.0
  7
OKANO
100
AcDbText
  0
TEXT
  5
3AB0
330
1F
100
AcDbEntity
  8
文字
100
AcDbText
 10
763.9435896267379
 20
228.3518370640824
 30
0.0
 40
5.759999999999999
  1
高さ（Ｈ）
 51
15.0
  7
OKANO
100
AcDbText
  0
TEXT
  5
3AB1
330
1F
100
AcDbEntity
  8
文字
100
AcDbText
 10
654.4775334302591
 20
229.0067272326982
 30
0.0
 40
5.759999999999999
  1
サイズ呼称
 51
15.0
  7
OKANO
100
AcDbText
  0
TEXT
  5
3AB2
330
1F
100
AcDbEntity
  8
文字
100
AcDbText
 10
717.636618861798
 20
213.1998128700956
 30
0.0
 40
5.759999999999999
  1
75
 51
15.0
  7
OKANO
100
AcDbText
  0
TEXT
  5
3AB4
330
1F
100
AcDbEntity
  8
文字
100
AcDbText
 10
770.0754473983852
 20
213.1998128700956
 30
0.0
 40
5.759999999999999
  1
75
 51
15.0
  7
OKANO
100
AcDbText
  0
TEXT
  5
3AB5
330
1F
100
AcDbEntity
  8
文字
100
AcDbText
 10
717.636618861798
 20
198.1373165846166
 30
0.0
 40
5.759999999999999
  1
90
 51
15.0
  7
OKANO
100
AcDbText
  0
TEXT
  5
3AB6
330
1F
100
AcDbEntity
  8
文字
100
AcDbText
 10
770.7309327058092
 20
198.1373165846166
 30
0.0
 40
5.759999999999999
  1
90
 51
15.0
  7
OKANO
100
AcDbText
  0
TEXT
  5
3AB7
330
1F
100
AcDbEntity
  8
文字
100
AcDbText
 10
766.7980208612657
 20
183.0748213661527
 30
0.0
 40
5.759999999999999
  1
100
 51
15.0
  7
OKANO
100
AcDbText
  0
TEXT
  5
3AB8
330
1F
100
AcDbEntity
  8
文字
100
AcDbText
 10
766.7980208612657
 20
168.0123250806737
 30
0.0
 40
5.759999999999999
  1
100
 51
15.0
  7
OKANO
100
AcDbText
  0
TEXT
  5
3AB9
330
1F
100
AcDbEntity
  8
文字
100
AcDbText
 10
766.7980208612657
 20
152.9498298622096
 30
0.0
 40
5.759999999999999
  1
100
 51
15.0
  7
OKANO
100
AcDbText
  0
TEXT
  5
3ABA
330
1F
100
AcDbEntity
  8
文字
100
AcDbText
 10
766.7980208612657
 20
137.8873335767306
 30
0.0
 40
5.759999999999999
  1
100
 51
15.0
  7
OKANO
100
AcDbText
  0
TEXT
  5
3ABB
330
1F
100
AcDbEntity
  8
文字
100
AcDbText
 10
714.3591923246786
 20
183.0748213661527
 30
0.0
 40
5.759999999999999
  1
100
 51
15.0
  7
OKANO
100
AcDbText
  0
TEXT
  5
3ABC
330
1F
100
AcDbEntity
  8
文字
100
AcDbText
 10
714.3591923246786
 20
168.6672163163045
 30
0.0
 40
5.759999999999999
  1
105
 51
15.0
  7
OKANO
100
AcDbText
  0
TEXT
  5
3ABD
330
1F
100
AcDbEntity
  8
文字
100
AcDbText
 10
714.3591923246786
 20
152.2949386265787
 30
0.0
 40
5.759999999999999
  1
120
 51
15.0
  7
OKANO
100
AcDbText
  0
TEXT
  5
3ABE
330
1F
100
AcDbEntity
  8
文字
100
AcDbText
 10
714.3591923246786
 20
137.8873335767306
 30
0.0
 40
5.759999999999999
  1
150
 51
15.0
  7
OKANO
100
AcDbText
  0
LINE
  5
3ABF
330
1F
100
AcDbEntity
  8
太線
100
AcDbLine
 10
644.8740574236312
 20
239.5587550971206
 30
0.0
 11
804.3089141239033
 21
239.5587550971206
 31
0.0
  0
LINE
  5
3AC0
330
1F
100
AcDbEntity
  8
太線
100
AcDbLine
 10
804.3089141239033
 20
239.5587550971206
 30
0.0
 11
804.3089141239033
 21
134.5587550971206
 31
0.0
  0
LINE
  5
3AC1
330
1F
100
AcDbEntity
  8
太線
100
AcDbLine
 10
804.3089141239033
 20
134.5587550971206
 30
0.0
 11
644.8740574236312
 21
134.5587550971206
 31
0.0
  0
LINE
  5
3AC2
330
1F
100
AcDbEntity
  8
太線
100
AcDbLine
 10
644.8740574236312
 20
134.5587550971206
 30
0.0
 11
644.8740574236312
 21
239.5587550971206
 31
0.0
  0
LINE
  5
3AC3
330
1F
100
AcDbEntity
  8
太線
100
AcDbLine
 10
644.8740574236312
 20
224.5587550971206
 30
0.0
 11
804.3089141239033
 21
224.5587550971206
 31
0.0
  0
LINE
  5
3AC4
330
1F
100
AcDbEntity
  8
太線
100
AcDbLine
 10
644.8740574236312
 20
209.5587550971206
 30
0.0
 11
856.3089141239034
 21
209.5587550971206
 31
0.0
  0
LINE
  5
3AC5
330
1F
100
AcDbEntity
  8
太線
100
AcDbLine
 10
644.8740574236312
 20
194.5587550971206
 30
0.0
 11
856.3089141239034
 21
194.5587550971206
 31
0.0
  0
LINE
  5
3AC6
330
1F
100
AcDbEntity
  8
太線
100
AcDbLine
 10
644.8740574236312
 20
179.5587550971206
 30
0.0
 11
856.3089141239034
 21
179.5587550971206
 31
0.0
  0
LINE
  5
3AC7
330
1F
100
AcDbEntity
  8
太線
100
AcDbLine
 10
644.8740574236312
 20
164.5587550971206
 30
0.0
 11
856.3089141239034
 21
164.5587550971206
 31
0.0
  0
LINE
  5
3AC8
330
1F
100
AcDbEntity
  8
太線
100
AcDbLine
 10
644.8740574236312
 20
149.5587550971206
 30
0.0
 11
856.3089141239034
 21
149.5587550971206
 31
0.0
  0
LINE
  5
3AC9
330
1F
100
AcDbEntity
  8
太線
100
AcDbLine
 10
697.7519480403048
 20
239.5587550971206
 30
0.0
 11
697.7519480403048
 21
134.5587550971206
 31
0.0
  0
LINE
  5
3ACA
330
1F
100
AcDbEntity
  8
太線
100
AcDbLine
 10
750.6298406283153
 20
239.5587550971206
 30
0.0
 11
750.6298406283153
 21
134.5587550971206
 31
0.0
  0
TEXT
  5
3AE5
330
1F
100
AcDbEntity
  8
文字
100
AcDbText
 10
639.6108251426062
 20
102.6909598344915
 30
0.0
 40
5.759999999999999
  1
材質　鉄
 51
15.0
  7
OKANO
100
AcDbText
  0
TEXT
  5
3AE6
330
1F
100
AcDbEntity
  8
文字
100
AcDbText
 10
640.311063434086
 20
90.58884532992545
 30
0.0
 40
5.759999999999999
  1
表面処理　亜鉛ドブ漬け
 51
15.0
  7
OKANO
100
AcDbText
  0
LINE
  5
3B1F
330
1F
100
AcDbEntity
  8
太線
100
AcDbLine
 10
804.3089141239033
 20
239.5587550971206
 30
0.0
 11
856.3089141239034
 21
239.5587550971206
 31
0.0
  0
LINE
  5
3B20
330
1F
100
AcDbEntity
  8
太線
100
AcDbLine
 10
856.3089141239034
 20
239.5587550971206
 30
0.0
 11
856.3089141239034
 21
134.5587550971206
 31
0.0
  0
LINE
  5
3B21
330
1F
100
AcDbEntity
  8
太線
100
AcDbLine
 10
856.3089141239034
 20
134.5587550971206
 30
0.0
 11
804.3089141239033
 21
134.5587550971206
 31
0.0
  0
LINE
  5
3B22
330
1F
100
AcDbEntity
  8
太線
100
AcDbLine
 10
644.8740574236312
 20
224.5587550971206
 30
0.0
 11
856.3089141239034
 21
224.5587550971206
 31
0.0
  0
TEXT
  5
3B23
330
1F
100
AcDbEntity
  8
文字
100
AcDbText
 10
816.2592329053971
 20
228.3518370640824
 30
0.0
 40
5.759999999999999
  1
横（S）
 51
15.0
  7
OKANO
100
AcDbText
  0
TEXT
  5
3B24
330
1F
100
AcDbEntity
  8
文字
100
AcDbText
 10
824.786118702857
 20
183.0748213661527
 30
0.0
 40
5.759999999999999
  1
100
 51
15.0
  7
OKANO
100
AcDbText
  0
TEXT
  5
3B25
330
1F
100
AcDbEntity
  8
文字
100
AcDbText
 10
824.786118702857
 20
168.0123250806737
 30
0.0
 40
5.759999999999999
  1
100
 51
15.0
  7
OKANO
100
AcDbText
  0
TEXT
  5
3B26
330
1F
100
AcDbEntity
  8
文字
100
AcDbText
 10
824.786118702857
 20
152.9498298622096
 30
0.0
 40
5.759999999999999
  1
100
 51
15.0
  7
OKANO
100
AcDbText
  0
TEXT
  5
3B27
330
1F
100
AcDbEntity
  8
文字
100
AcDbText
 10
824.786118702857
 20
137.8873335767306
 30
0.0
 40
5.759999999999999
  1
100
 51
15.0
  7
OKANO
100
AcDbText
  0
TEXT
  5
3B28
330
1F
100
AcDbEntity
  8
文字
100
AcDbText
 10
824.786118702857
 20
213.4589888031255
 30
0.0
 40
5.759999999999999
  1
100
 51
15.0
  7
OKANO
100
AcDbText
  0
TEXT
  5
3B29
330
1F
100
AcDbEntity
  8
文字
100
AcDbText
 10
824.786118702857
 20
198.3964925176465
 30
0.0
 40
5.759999999999999
  1
100
 51
15.0
  7
OKANO
100
AcDbText
  0
VIEWPORT
  5
2E
330
1B
100
AcDbEntity
 67
     1
  8
0
100
AcDbViewport
 10
249.2162165471054
 20
120.3266121400892
 30
0.0
 40
560.9339426359547
 41
284.9000635938147
 68
     2
 69
     1
 12
249.2162165471054
 22
120.3266121400892
 13
0.0
 23
0.0
 14
10.0
 24
10.0
 15
10.0
 25
10.0
 16
0.0
 26
0.0
 36
1.0
 17
0.0
 27
0.0
 37
0.0
 42
50.0
 43
0.0
 44
0.0
 45
284.9000635938147
 50
0.0
 51
0.0
 72
   100
 90
    32800
  1

281
     0
 71
     1
 74
     0
110
0.0
120
0.0
130
0.0
111
1.0
121
0.0
131
0.0
112
0.0
122
1.0
132
0.0
 79
     0
146
0.0
  0
VIEWPORT
  5
30
330
1B
100
AcDbEntity
 67
     1
  8
70-0-CON
100
AcDbViewport
 10
141.8594093064315
 20
100.3480256368386
 30
0.0
 40
261.6199023344245
 41
192.6196987113174
 68
     1
 69
     2
 12
634.7964485380201
 22
266.7991508905713
 13
0.0
 23
0.0
 14
5.0
 24
5.0
 15
10.0
 25
10.0
 16
0.0
 26
0.0
 36
1.0
 17
0.0
 27
0.0
 37
0.0
 42
50.0
 43
0.0
 44
0.0
 45
428.998991647203
 50
0.0
 51
0.0
 72
   100
 90
    32864
  1

281
     0
 71
     1
 74
     0
110
0.0
120
0.0
130
0.0
111
1.0
121
0.0
131
0.0
112
0.0
122
1.0
132
0.0
 79
     0
146
0.0
  0
LWPOLYLINE
  5
45
330
1B
100
AcDbEntity
 67
     1
  8
50-0-CON
100
AcDbPolyline
 90
        4
 70
     1
 43
0.0
 10
11.04945813921926
 20
4.038176281179858
 10
272.2125713060605
 20
4.033520706629644
 10
273.4987754093466
 20
195.9297862125246
 10
11.04945813921926
 20
196.6578749924973
  0
LINE
  5
4A
330
1B
100
AcDbEntity
 67
     1
  8
50-0-CON
100
AcDbLine
 10
10.38768783662635
 20
100.3480256368386
 30
0.0
 11
-4.391850629656119
 21
100.3480256368386
 31
0.0
  0
LINE
  5
4B
330
1B
100
AcDbEntity
 67
     1
  8
50-0-CON
100
AcDbLine
 10
141.8594093064315
 20
197.098652626247
 30
0.0
 11
141.8594093064315
 21
202.387980773708
 31
0.0
  0
LINE
  5
4C
330
1B
100
AcDbEntity
 67
     1
  8
50-0-CON
100
AcDbLine
 10
272.4487699456857
 20
100.7888032705883
 30
0.0
 11
278.8458837249377
 21
100.7888032705883
 31
0.0
  0
LINE
  5
4D
330
1B
100
AcDbEntity
 67
     1
  8
50-0-CON
100
AcDbLine
 10
140.9770484758805
 20
4.038176281179858
 30
0.0
 11
140.9770484758805
 21
-3.455038652015446
 31
0.0
  0
ENDSEC
  0
SECTION
  2
OBJECTS
  0
DICTIONARY
  5
C
330
0
100
AcDbDictionary
281
     1
  3
ACAD_GROUP
350
D
  3
ACAD_LAYOUT
350
1A
  3
ACAD_MLINESTYLE
350
17
  3
ACAD_PLOTSETTINGS
350
19
  3
ACAD_PLOTSTYLENAME
350
E
  3
AcadDim
350
3360
  3
AcDbVariableDictionary
350
6AD
  3
DWGPROPS
350
30F
  0
DICTIONARY
  5
D
102
{ACAD_REACTORS
330
C
102
}
330
C
100
AcDbDictionary
281
     1
  0
DICTIONARY
  5
1A
102
{ACAD_REACTORS
330
C
102
}
330
C
100
AcDbDictionary
281
     1
  3
A4
350
1E
  3
Model
350
22
  0
DICTIONARY
  5
17
102
{ACAD_REACTORS
330
C
102
}
330
C
100
AcDbDictionary
281
     1
  3
Standard
350
18
  0
DICTIONARY
  5
19
102
{ACAD_REACTORS
330
C
102
}
330
C
100
AcDbDictionary
281
     1
  0
ACDBDICTIONARYWDFLT
  5
E
102
{ACAD_REACTORS
330
C
102
}
330
C
100
AcDbDictionary
281
     1
  3
Normal
350
F
100
AcDbDictionaryWithDefault
340
F
  0
XRECORD
  5
3360
102
{ACAD_REACTORS
330
C
102
}
330
C
100
AcDbXrecord
280
     1
 90
   990106
  3

 60
     0
 61
     0
 62
     1
 63
     3
 64
     0
 65
     0
 66
     0
 67
     3
 68
     1
 69
     0
 70
     0
 71
     0
 72
     0
 40
1.846837060016151
170
     0
  0
DICTIONARY
  5
6AD
102
{ACAD_REACTORS
330
C
102
}
330
C
100
AcDbDictionary
281
     1
  3
SORTENTS
350
6AE
  0
XRECORD
  5
30F
102
{ACAD_REACTORS
330
C
102
}
330
C
100
AcDbXrecord
280
     1
  1
DWGPROPS COOKIE
  2

  3

  4

  6

  7

  8

  9

300
=
301
=
302
=
303
=
304
=
305
=
306
=
307
=
308
=
309
=
 40
0.3303803125
 41
2452362.482225463
 42
2452370.969861285
  1

 90
        0
  0
LAYOUT
  5
1E
102
{ACAD_REACTORS
330
1A
102
}
330
1A
100
AcDbPlotSettings
  1

  2
EPSON PM-920C
  4
A4
  6

 40
3.757083177566528
 41
14.7637300491333
 42
3.757080078125
 43
3.757080078125
 44
209.9733276367187
 45
296.9683227539062
 46
0.0
 47
0.0
 48
0.0
 49
0.0
140
0.0
141
0.0
142
1.0
143
1.0
 70
   688
 72
     1
 73
     1
 74
     5
  7
joint.ctb
 75
    16
147
1.0
148
0.0
149
0.0
100
AcDbLayout
  1
A4
 70
     1
 71
     1
 10
-3.757080078125
 20
-3.757083177566528
 11
293.2112426757812
 21
206.2162444591522
 12
0.0
 22
0.0
 32
0.0
 14
-4.400932062405672
 24
-3.459116387827521
 34
-0.0015258207003583
 15
278.8478616361952
 25
202.393946056399
 35
0.0000000349246037
146
0.0
 13
0.0
 23
0.0
 33
0.0
 16
1.0
 26
0.0
 36
0.0
 17
0.0
 27
1.0
 37
0.0
 76
     0
330
1B
331
30
  0
LAYOUT
  5
22
102
{ACAD_REACTORS
330
1A
102
}
330
1A
100
AcDbPlotSettings
  1

  2
EPSON PM-920C
  4
A4
  6

 40
3.757083177566528
 41
14.7637300491333
 42
3.757080078125
 43
3.757080078125
 44
209.9733276367187
 45
296.9683227539062
 46
0.0
 47
0.0
 48
0.0
 49
0.0
140
0.0
141
0.0
142
1.0
143
1.0
 70
 11952
 72
     1
 73
     1
 74
     0
  7

 75
     0
147
1.0
148
-45.64199848979289
149
-84.48806419330498
100
AcDbLayout
  1
Model
 70
     1
 71
     0
 10
0.0
 20
0.0
 11
12.0
 21
9.0
 12
0.0
 22
0.0
 32
0.0
 14
0.0
 24
0.0
 34
0.0
 15
0.0
 25
0.0
 35
0.0
146
0.0
 13
0.0
 23
0.0
 33
0.0
 16
1.0
 26
0.0
 36
0.0
 17
0.0
 27
1.0
 37
0.0
 76
     0
330
1F
  0
MLINESTYLE
  5
18
102
{ACAD_REACTORS
330
17
102
}
330
17
100
AcDbMlineStyle
  2
STANDARD
 70
     0
  3

 62
   256
 51
90.0
 52
90.0
 71
     2
 49
0.5
 62
   256
  6
BYLAYER
 49
-0.5
 62
   256
  6
BYLAYER
  0
ACDBPLACEHOLDER
  5
F
102
{ACAD_REACTORS
330
E
102
}
330
E
  0
DICTIONARYVAR
  5
6AE
102
{ACAD_REACTORS
330
6AD
102
}
330
6AD
100
DictionaryVariables
280
     0
  1
96
  0
ENDSEC
  0
EOF
