  0
SECTION
  2
HEADER
  9
$ACADVER
  1
AC1015
  9
$ACADMAINTVER
 70
     6
  9
$DWGCODEPAGE
  3
ANSI_932
  9
$INSBASE
 10
0.0
 20
0.0
 30
0.0
  9
$EXTMIN
 10
62.78791593933257
 20
144.0116988020077
 30
-0.0000139493854636
  9
$EXTMAX
 10
413.3911891509857
 20
356.4132771093003
 30
0.0000107712654013
  9
$LIMMIN
 10
0.0
 20
0.0
  9
$LIMMAX
 10
420.0
 20
297.0
  9
$ORTHOMODE
 70
     1
  9
$REGENMODE
 70
     1
  9
$FILLMODE
 70
     1
  9
$QTEXTMODE
 70
     0
  9
$MIRRTEXT
 70
     1
  9
$LTSCALE
 40
1.0
  9
$ATTMODE
 70
     1
  9
$TEXTSIZE
 40
5.0
  9
$TRACEWID
 40
1.0
  9
$TEXTSTYLE
  7
OKANO
  9
$CLAYER
  8
太線
  9
$CELTYPE
  6
ByLayer
  9
$CECOLOR
 62
   256
  9
$CELTSCALE
 40
1.0
  9
$DISPSILH
 70
     0
  9
$DIMSCALE
 40
0.0
  9
$DIMASZ
 40
3.0
  9
$DIMEXO
 40
2.0
  9
$DIMDLI
 40
8.0
  9
$DIMRND
 40
0.0
  9
$DIMDLE
 40
0.0
  9
$DIMEXE
 40
3.0
  9
$DIMTP
 40
0.0
  9
$DIMTM
 40
0.0
  9
$DIMTXT
 40
5.0
  9
$DIMCEN
 40
2.5
  9
$DIMTSZ
 40
0.0
  9
$DIMTOL
 70
     0
  9
$DIMLIM
 70
     0
  9
$DIMTIH
 70
     0
  9
$DIMTOH
 70
     0
  9
$DIMSE1
 70
     0
  9
$DIMSE2
 70
     0
  9
$DIMTAD
 70
     1
  9
$DIMZIN
 70
     8
  9
$DIMBLK
  1
Closed
  9
$DIMASO
 70
     1
  9
$DIMSHO
 70
     1
  9
$DIMPOST
  1

  9
$DIMAPOST
  1

  9
$DIMALT
 70
     0
  9
$DIMALTD
 70
     3
  9
$DIMALTF
 40
0.03937007874016
  9
$DIMLFAC
 40
1.0
  9
$DIMTOFL
 70
     1
  9
$DIMTVP
 40
0.0
  9
$DIMTIX
 70
     0
  9
$DIMSOXD
 70
     0
  9
$DIMSAH
 70
     0
  9
$DIMBLK1
  1

  9
$DIMBLK2
  1

  9
$DIMSTYLE
  2
sunpo
  9
$DIMCLRD
 70
     0
  9
$DIMCLRE
 70
     0
  9
$DIMCLRT
 70
     0
  9
$DIMTFAC
 40
1.0
  9
$DIMGAP
 40
1.0
  9
$DIMJUST
 70
     0
  9
$DIMSD1
 70
     0
  9
$DIMSD2
 70
     0
  9
$DIMTOLJ
 70
     0
  9
$DIMTZIN
 70
     8
  9
$DIMALTZ
 70
     0
  9
$DIMALTTZ
 70
     0
  9
$DIMUPT
 70
     0
  9
$DIMDEC
 70
     2
  9
$DIMTDEC
 70
     2
  9
$DIMALTU
 70
     2
  9
$DIMALTTD
 70
     3
  9
$DIMTXSTY
  7
OKANO
  9
$DIMAUNIT
 70
     0
  9
$DIMADEC
 70
     0
  9
$DIMALTRND
 40
0.0
  9
$DIMAZIN
 70
     0
  9
$DIMDSEP
 70
    46
  9
$DIMATFIT
 70
     3
  9
$DIMFRAC
 70
     0
  9
$DIMLDRBLK
  1
Closed
  9
$DIMLUNIT
 70
     2
  9
$DIMLWD
 70
    -2
  9
$DIMLWE
 70
    -2
  9
$DIMTMOVE
 70
     0
  9
$LUNITS
 70
     2
  9
$LUPREC
 70
     2
  9
$SKETCHINC
 40
1.0
  9
$FILLETRAD
 40
1.0
  9
$AUNITS
 70
     0
  9
$AUPREC
 70
     0
  9
$MENU
  1
.
  9
$ELEVATION
 40
0.0
  9
$PELEVATION
 40
0.0
  9
$THICKNESS
 40
0.0
  9
$LIMCHECK
 70
     0
  9
$CHAMFERA
 40
10.0
  9
$CHAMFERB
 40
10.0
  9
$CHAMFERC
 40
20.0
  9
$CHAMFERD
 40
0.0
  9
$SKPOLY
 70
     0
  9
$TDCREATE
 40
2452362.482225463
  9
$TDUCREATE
 40
2452362.107225463
  9
$TDUPDATE
 40
2455957.662748831
  9
$TDUUPDATE
 40
2455957.287748831
  9
$TDINDWG
 40
2.8856518519
  9
$TDUSRTIMER
 40
2.8856518519
  9
$USRTIMER
 70
     1
  9
$ANGBASE
 50
0.0
  9
$ANGDIR
 70
     0
  9
$PDMODE
 70
     0
  9
$PDSIZE
 40
0.0
  9
$PLINEWID
 40
0.0
  9
$SPLFRAME
 70
     0
  9
$SPLINETYPE
 70
     6
  9
$SPLINESEGS
 70
     8
  9
$HANDSEED
  5
3C39
  9
$SURFTAB1
 70
     6
  9
$SURFTAB2
 70
     6
  9
$SURFTYPE
 70
     6
  9
$SURFU
 70
     6
  9
$SURFV
 70
     6
  9
$UCSBASE
  2

  9
$UCSNAME
  2

  9
$UCSORG
 10
0.0
 20
0.0
 30
0.0
  9
$UCSXDIR
 10
1.0
 20
0.0
 30
0.0
  9
$UCSYDIR
 10
0.0
 20
1.0
 30
0.0
  9
$UCSORTHOREF
  2

  9
$UCSORTHOVIEW
 70
     0
  9
$UCSORGTOP
 10
0.0
 20
0.0
 30
0.0
  9
$UCSORGBOTTOM
 10
0.0
 20
0.0
 30
0.0
  9
$UCSORGLEFT
 10
0.0
 20
0.0
 30
0.0
  9
$UCSORGRIGHT
 10
0.0
 20
0.0
 30
0.0
  9
$UCSORGFRONT
 10
0.0
 20
0.0
 30
0.0
  9
$UCSORGBACK
 10
0.0
 20
0.0
 30
0.0
  9
$PUCSBASE
  2

  9
$PUCSNAME
  2

  9
$PUCSORG
 10
0.0
 20
0.0
 30
0.0
  9
$PUCSXDIR
 10
1.0
 20
0.0
 30
0.0
  9
$PUCSYDIR
 10
0.0
 20
1.0
 30
0.0
  9
$PUCSORTHOREF
  2

  9
$PUCSORTHOVIEW
 70
     0
  9
$PUCSORGTOP
 10
0.0
 20
0.0
 30
0.0
  9
$PUCSORGBOTTOM
 10
0.0
 20
0.0
 30
0.0
  9
$PUCSORGLEFT
 10
0.0
 20
0.0
 30
0.0
  9
$PUCSORGRIGHT
 10
0.0
 20
0.0
 30
0.0
  9
$PUCSORGFRONT
 10
0.0
 20
0.0
 30
0.0
  9
$PUCSORGBACK
 10
0.0
 20
0.0
 30
0.0
  9
$USERI1
 70
     0
  9
$USERI2
 70
     0
  9
$USERI3
 70
     0
  9
$USERI4
 70
     0
  9
$USERI5
 70
     0
  9
$USERR1
 40
0.0
  9
$USERR2
 40
0.0
  9
$USERR3
 40
0.0
  9
$USERR4
 40
0.0
  9
$USERR5
 40
0.0
  9
$WORLDVIEW
 70
     1
  9
$SHADEDGE
 70
     3
  9
$SHADEDIF
 70
    70
  9
$TILEMODE
 70
     0
  9
$MAXACTVP
 70
    64
  9
$PINSBASE
 10
0.0
 20
0.0
 30
0.0
  9
$PLIMCHECK
 70
     0
  9
$PEXTMIN
 10
-4.391850629656119
 20
-3.455038652015446
 30
0.0
  9
$PEXTMAX
 10
278.8458837249377
 20
202.387980773708
 30
0.0
  9
$PLIMMIN
 10
-3.757080078125
 20
-3.757083177566528
  9
$PLIMMAX
 10
293.2112426757812
 20
206.2162444591522
  9
$UNITMODE
 70
     0
  9
$VISRETAIN
 70
     1
  9
$PLINEGEN
 70
     0
  9
$PSLTSCALE
 70
     1
  9
$TREEDEPTH
 70
  3020
  9
$CMLSTYLE
  2
Standard
  9
$CMLJUST
 70
     0
  9
$CMLSCALE
 40
20.0
  9
$PROXYGRAPHICS
 70
     1
  9
$MEASUREMENT
 70
     1
  9
$CELWEIGHT
370
    -1
  9
$ENDCAPS
280
     0
  9
$JOINSTYLE
280
     0
  9
$LWDISPLAY
290
     0
  9
$INSUNITS
 70
     4
  9
$HYPERLINKBASE
  1

  9
$STYLESHEET
  1

  9
$XEDIT
290
     1
  9
$CEPSNTYPE
380
     0
  9
$PSTYLEMODE
290
     1
  9
$FINGERPRINTGUID
  2
{FF7F33C3-4233-11D6-AEE0-0000F45FD7F4}
  9
$VERSIONGUID
  2
{44FC6AE3-93FF-4046-AD80-8C4D8DC27362}
  9
$EXTNAMES
290
     1
  9
$PSVPSCALE
 40
0.0
  9
$OLESTARTUP
290
     0
  0
ENDSEC
  0
SECTION
  2
CLASSES
  0
CLASS
  1
ACDBDICTIONARYWDFLT
  2
AcDbDictionaryWithDefault
  3
AutoCAD 2000
 90
        0
280
     0
281
     0
  0
CLASS
  1
ACDBPLACEHOLDER
  2
AcDbPlaceHolder
  3
AutoCAD 2000
 90
        0
280
     0
281
     0
  0
CLASS
  1
LAYOUT
  2
AcDbLayout
  3
AutoCAD 2000
 90
        0
280
     0
281
     0
  0
CLASS
  1
DICTIONARYVAR
  2
AcDbDictionaryVar
  3
AutoCAD 2000
 90
        0
280
     0
281
     0
  0
ENDSEC
  0
SECTION
  2
TABLES
  0
TABLE
  2
VPORT
  5
8
330
0
100
AcDbSymbolTable
 70
     2
  0
VPORT
  5
3C38
330
8
100
AcDbSymbolTableRecord
100
AcDbViewportTableRecord
  2
*Active
 70
     0
 10
0.0
 20
0.0
 11
1.0
 21
1.0
 12
371.0210443994171
 22
238.6224404522382
 13
0.0
 23
0.0
 14
5.0
 24
5.0
 15
10.0
 25
10.0
 16
0.0
 26
0.0
 36
1.0
 17
0.0
 27
0.0
 37
0.0
 40
395.6029071865481
 41
1.968879668049792
 42
50.0
 43
0.0
 44
0.0
 50
0.0
 51
0.0
 71
     0
 72
   100
 73
     1
 74
     3
 75
     0
 76
     0
 77
     0
 78
     0
281
     0
 65
     1
110
0.0
120
0.0
130
0.0
111
1.0
121
0.0
131
0.0
112
0.0
122
1.0
132
0.0
 79
     0
146
0.0
  0
ENDTAB
  0
TABLE
  2
LTYPE
  5
5
330
0
100
AcDbSymbolTable
 70
     5
  0
LTYPE
  5
14
330
5
100
AcDbSymbolTableRecord
100
AcDbLinetypeTableRecord
  2
ByBlock
 70
     0
  3

 72
    65
 73
     0
 40
0.0
  0
LTYPE
  5
15
330
5
100
AcDbSymbolTableRecord
100
AcDbLinetypeTableRecord
  2
ByLayer
 70
     0
  3

 72
    65
 73
     0
 40
0.0
  0
LTYPE
  5
16
330
5
100
AcDbSymbolTableRecord
100
AcDbLinetypeTableRecord
  2
Continuous
 70
     0
  3
Solid line
 72
    65
 73
     0
 40
0.0
  0
LTYPE
  5
33
330
5
100
AcDbSymbolTableRecord
100
AcDbLinetypeTableRecord
  2
DASHED2
 70
     0
  3
Dashed (.5x) _ _ _ _ _ _ _ _ _ _ _ _ _ _ _ _ _
 72
    65
 73
     2
 40
9.524999999999998
 49
6.349999999999999
 74
     0
 49
-3.174999999999999
 74
     0
  0
LTYPE
  5
34
330
5
100
AcDbSymbolTableRecord
100
AcDbLinetypeTableRecord
  2
CENTER2
 70
     0
  3
Center (.5x) ___ _ ___ _ ___ _ ___ _ ___ _ ___
 72
    65
 73
     4
 40
28.57499999999999
 49
19.05
 74
     0
 49
-3.174999999999999
 74
     0
 49
3.174999999999999
 74
     0
 49
-3.174999999999999
 74
     0
  0
LTYPE
  5
35
330
5
100
AcDbSymbolTableRecord
100
AcDbLinetypeTableRecord
  2
PHANTOM2
 70
     0
  3
Phantom (.5x) ___ _ _ ___ _ _ ___ _ _ ___ _ _
 72
    65
 73
     6
 40
31.75
 49
15.875
 74
     0
 49
-3.174999999999999
 74
     0
 49
3.174999999999999
 74
     0
 49
-3.174999999999999
 74
     0
 49
3.174999999999999
 74
     0
 49
-3.174999999999999
 74
     0
  0
LTYPE
  5
36
330
5
100
AcDbSymbolTableRecord
100
AcDbLinetypeTableRecord
  2
HIDDEN2
 70
     0
  3
Hidden (.5x) _ _ _ _ _ _ _ _ _ _ _ _ _ _ _ _ _
 72
    65
 73
     2
 40
4.762499999999999
 49
3.174999999999999
 74
     0
 49
-1.587499999999999
 74
     0
  0
ENDTAB
  0
TABLE
  2
LAYER
  5
2
330
0
100
AcDbSymbolTable
 70
    13
  0
LAYER
  5
10
330
2
100
AcDbSymbolTableRecord
100
AcDbLayerTableRecord
  2
0
 70
     0
 62
     7
  6
Continuous
370
    -3
390
F
  0
LAYER
  5
40
330
2
100
AcDbSymbolTableRecord
100
AcDbLayerTableRecord
  2
50-0-CON
 70
     0
 62
     4
  6
Continuous
370
    50
390
F
  0
LAYER
  5
41
330
2
100
AcDbSymbolTableRecord
100
AcDbLayerTableRecord
  2
70-0-CON
 70
     0
 62
   202
  6
Continuous
370
    70
390
F
  0
LAYER
  5
4E
330
2
100
AcDbSymbolTableRecord
100
AcDbLayerTableRecord
  2
極太線
 70
     0
 62
     7
  6
Continuous
370
    70
390
F
  0
LAYER
  5
4F
330
2
100
AcDbSymbolTableRecord
100
AcDbLayerTableRecord
  2
細線
 70
     0
 62
     8
  6
Continuous
370
    18
390
F
  0
LAYER
  5
AB
330
2
100
AcDbSymbolTableRecord
100
AcDbLayerTableRecord
  2
構築線
 70
     0
 62
    -2
  6
Continuous
370
    18
390
F
  0
LAYER
  5
B8
330
2
100
AcDbSymbolTableRecord
100
AcDbLayerTableRecord
  2
太線
 70
     0
 62
     7
  6
Continuous
370
    35
390
F
  0
LAYER
  5
B9
330
2
100
AcDbSymbolTableRecord
100
AcDbLayerTableRecord
  2
寸法線
 70
     0
 62
     5
  6
Continuous
370
    18
390
F
  0
LAYER
  5
BA
330
2
100
AcDbSymbolTableRecord
100
AcDbLayerTableRecord
  2
破線
 70
     0
 62
     8
  6
HIDDEN2
370
    18
390
F
  0
LAYER
  5
BB
330
2
100
AcDbSymbolTableRecord
100
AcDbLayerTableRecord
  2
中心線
 70
     0
 62
     1
  6
CENTER2
370
    18
390
F
  0
LAYER
  5
BC
330
2
100
AcDbSymbolTableRecord
100
AcDbLayerTableRecord
  2
想像線
 70
     0
 62
     8
  6
PHANTOM2
370
    18
390
F
  0
LAYER
  5
BD
330
2
100
AcDbSymbolTableRecord
100
AcDbLayerTableRecord
  2
文字
 70
     0
 62
     7
  6
Continuous
370
    18
390
F
  0
LAYER
  5
180
330
2
100
AcDbSymbolTableRecord
100
AcDbLayerTableRecord
  2
Defpoints
 70
     0
 62
     7
  6
Continuous
290
     0
370
    -3
390
F
  0
ENDTAB
  0
TABLE
  2
STYLE
  5
3
330
0
100
AcDbSymbolTable
 70
     3
  0
STYLE
  5
11
330
3
100
AcDbSymbolTableRecord
100
AcDbTextStyleTableRecord
  2
Standard
 70
     0
 40
0.0
 41
1.0
 50
0.0
 71
     0
 42
3.0
  3
txt
  4

  0
STYLE
  5
32
330
3
100
AcDbSymbolTableRecord
100
AcDbTextStyleTableRecord
  2

 70
     1
 40
0.0
 41
1.0
 50
0.0
 71
     0
 42
2.5
  3
ltypeshp.shx
  4

  0
STYLE
  5
50
330
3
100
AcDbSymbolTableRecord
100
AcDbTextStyleTableRecord
  2
OKANO
 70
     0
 40
0.0
 41
1.0
 50
15.0
 71
     0
 42
5.0
  3
isocp.shx
  4
bigfont.shx
  0
ENDTAB
  0
TABLE
  2
VIEW
  5
6
330
0
100
AcDbSymbolTable
 70
     0
  0
ENDTAB
  0
TABLE
  2
UCS
  5
7
330
0
100
AcDbSymbolTable
 70
     0
  0
ENDTAB
  0
TABLE
  2
APPID
  5
9
330
0
100
AcDbSymbolTable
 70
     1
  0
APPID
  5
12
330
9
100
AcDbSymbolTableRecord
100
AcDbRegAppTableRecord
  2
ACAD
 70
     0
  0
ENDTAB
  0
TABLE
  2
DIMSTYLE
  5
A
330
0
100
AcDbSymbolTable
 70
     2
100
AcDbDimStyleTable
 71
     2
340
A2
340
27
  0
DIMSTYLE
105
27
330
A
100
AcDbSymbolTableRecord
100
AcDbDimStyleTableRecord
  2
ISO-25
 70
     0
 41
2.5
 42
0.625
 43
3.75
 44
1.25
 73
     0
 74
     0
 77
     1
 78
     8
140
2.5
141
2.5
143
0.03937007874016
147
0.625
171
     3
172
     1
271
     2
272
     2
274
     3
283
     0
284
     8
340
11
  0
DIMSTYLE
105
A2
102
{ACAD_REACTORS
330
3A63
330
3AC7
330
3AD4
330
3AEA
330
3AF6
330
3BD2
102
}
330
A
100
AcDbSymbolTableRecord
100
AcDbDimStyleTableRecord
  2
sunpo
 70
     0
 40
0.0
 41
3.0
 42
2.0
 43
8.0
 44
3.0
 73
     0
 74
     0
 77
     1
 78
     8
140
5.0
141
2.5
143
0.03937007874016
147
1.0
171
     3
172
     1
271
     2
272
     2
274
     3
283
     0
284
     8
340
50
341
9B
342
9B
  0
ENDTAB
  0
TABLE
  2
BLOCK_RECORD
  5
1
330
0
100
AcDbSymbolTable
 70
     8
  0
BLOCK_RECORD
  5
1F
330
1
100
AcDbSymbolTableRecord
100
AcDbBlockTableRecord
  2
*Model_Space
340
22
  0
BLOCK_RECORD
  5
1B
330
1
100
AcDbSymbolTableRecord
100
AcDbBlockTableRecord
  2
*Paper_Space
340
1E
  0
BLOCK_RECORD
  5
9B
330
1
100
AcDbSymbolTableRecord
100
AcDbBlockTableRecord
  2
_Closed
340
0
102
{BLKREFS
331
3A6A
331
3A6B
331
3AF0
331
3AF1
331
3B49
331
3B4A
331
3BEB
331
3BEC
331
3BF6
331
3BF7
331
3C26
331
3C27
102
}
  0
BLOCK_RECORD
  5
1510
330
1
100
AcDbSymbolTableRecord
100
AcDbBlockTableRecord
  2
A$C10A573AC
340
0
  0
BLOCK_RECORD
  5
3A64
330
1
100
AcDbSymbolTableRecord
100
AcDbBlockTableRecord
  2
*D2
340
0
  0
BLOCK_RECORD
  5
3AC8
330
1
100
AcDbSymbolTableRecord
100
AcDbBlockTableRecord
  2
*D3
340
0
  0
BLOCK_RECORD
  5
3AD5
330
1
100
AcDbSymbolTableRecord
100
AcDbBlockTableRecord
  2
*D4
340
0
  0
BLOCK_RECORD
  5
3AEB
330
1
100
AcDbSymbolTableRecord
100
AcDbBlockTableRecord
  2
*D5
340
0
  0
BLOCK_RECORD
  5
3AF7
330
1
100
AcDbSymbolTableRecord
100
AcDbBlockTableRecord
  2
*D6
340
0
  0
BLOCK_RECORD
  5
3BD3
330
1
100
AcDbSymbolTableRecord
100
AcDbBlockTableRecord
  2
*D7
340
0
  0
ENDTAB
  0
ENDSEC
  0
SECTION
  2
BLOCKS
  0
BLOCK
  5
20
330
1F
100
AcDbEntity
  8
0
100
AcDbBlockBegin
  2
*Model_Space
 70
     0
 10
0.0
 20
0.0
 30
0.0
  3
*Model_Space
  1

  0
ENDBLK
  5
21
330
1F
100
AcDbEntity
  8
0
100
AcDbBlockEnd
  0
BLOCK
  5
1C
330
1B
100
AcDbEntity
 67
     1
  8
0
100
AcDbBlockBegin
  2
*Paper_Space
 70
     0
 10
0.0
 20
0.0
 30
0.0
  3
*Paper_Space
  1

  0
ENDBLK
  5
1D
330
1B
100
AcDbEntity
 67
     1
  8
0
100
AcDbBlockEnd
  0
BLOCK
  5
A0
330
9B
100
AcDbEntity
  8
0
100
AcDbBlockBegin
  2
_Closed
 70
     0
 10
0.0
 20
0.0
 30
0.0
  3
_Closed
  1

  0
LINE
  5
9C
330
9B
100
AcDbEntity
  8
0
 62
     0
370
    -2
100
AcDbLine
 10
-1.0
 20
0.1666666666666666
 30
0.0
 11
0.0
 21
0.0
 31
0.0
  0
LINE
  5
9D
330
9B
100
AcDbEntity
  8
0
 62
     0
370
    -2
100
AcDbLine
 10
0.0
 20
0.0
 30
0.0
 11
-1.0
 21
-0.1666666666666666
 31
0.0
  0
LINE
  5
9E
330
9B
100
AcDbEntity
  8
0
 62
     0
370
    -2
100
AcDbLine
 10
-1.0
 20
0.1666666666666666
 30
0.0
 11
-1.0
 21
-0.1666666666666666
 31
0.0
  0
LINE
  5
9F
330
9B
100
AcDbEntity
  8
0
 62
     0
370
    -2
100
AcDbLine
 10
0.0
 20
0.0
 30
0.0
 11
-1.0
 21
0.0
 31
0.0
  0
ENDBLK
  5
A1
330
9B
100
AcDbEntity
  8
0
100
AcDbBlockEnd
  0
BLOCK
  5
155B
330
1510
100
AcDbEntity
  8
0
100
AcDbBlockBegin
  2
A$C10A573AC
 70
     0
 10
0.0
 20
0.0
 30
0.0
  3
A$C10A573AC
  1

  0
TEXT
  5
1511
330
1510
100
AcDbEntity
  8
文字
100
AcDbText
 10
0.9844302777919438
 20
5.224957122252135
 30
0.0
 40
3.0
  1
Materal : Steel.
 51
15.0
  7
OKANO
100
AcDbText
  0
TEXT
  5
1512
330
1510
100
AcDbEntity
  8
文字
100
AcDbText
 10
-0.1141909619694843
 20
0.7500001922403499
 30
0.0
 40
3.0
  1
Surface treatment : Electro galvanized.
 51
15.0
  7
OKANO
100
AcDbText
  0
TEXT
  5
1513
330
1510
100
AcDbEntity
  8
文字
100
AcDbText
 10
-0.4901926332574931
 20
9.159967445193728
 30
0.0
 40
3.0
  1
5 TORGUE SCREW  M5-6
 51
15.0
  7
OKANO
100
AcDbText
  0
TEXT
  5
1514
330
1510
100
AcDbEntity
  8
文字
100
AcDbText
 10
1.364713526390005
 20
78.88822913323082
 30
0.0
 40
3.0
  1
Special standard,
 51
15.0
  7
OKANO
100
AcDbText
  0
TEXT
  5
1515
330
1510
100
AcDbEntity
  8
文字
100
AcDbText
 10
92.88160823408942
 20
89.92753849837379
 30
0.0
 40
3.0
  1
Screw Type
 51
15.0
  7
OKANO
100
AcDbText
  0
LINE
  5
1516
330
1510
100
AcDbEntity
  8
太線
100
AcDbLine
 10
113.9464587597784
 20
81.93930390144641
 30
0.0
 11
112.4464587597784
 21
81.93930390144641
 31
0.0
  0
LINE
  5
1517
330
1510
100
AcDbEntity
  8
太線
100
AcDbLine
 10
112.4464587597784
 20
76.9393039014464
 30
0.0
 11
121.4644995438761
 21
76.9393039014464
 31
0.0
  0
TEXT
  5
1518
330
1510
100
AcDbEntity
  8
文字
100
AcDbText
 10
93.46068240437217
 20
77.96976862235396
 30
0.0
 40
2.0
  1
17-30
 51
15.0
  7
OKANO
100
AcDbText
  0
LINE
  5
1519
330
1510
100
AcDbEntity
  8
太線
100
AcDbLine
 10
111.9464587597784
 20
81.43930390144641
 30
0.0
 11
111.9464587597784
 21
77.4393039014464
 31
0.0
  0
LINE
  5
151A
330
1510
100
AcDbEntity
  8
太線
100
AcDbLine
 10
91.94645875977846
 20
81.43930390144641
 30
0.0
 11
91.94645875977846
 21
77.43930390144639
 31
0.0
  0
LINE
  5
151B
330
1510
100
AcDbEntity
  8
太線
100
AcDbLine
 10
101.9644995438761
 20
77.4393039014464
 30
0.0
 11
101.9644995438761
 21
81.43930390144641
 31
0.0
  0
LINE
  5
151C
330
1510
100
AcDbEntity
  8
太線
100
AcDbLine
 10
92.44645875977846
 20
76.9393039014464
 30
0.0
 11
101.4644995438761
 21
76.9393039014464
 31
0.0
  0
ARC
  5
151D
330
1510
100
AcDbEntity
  8
太線
100
AcDbCircle
 10
92.44645875977846
 20
77.43930390144639
 30
0.0
 40
0.5
100
AcDbArc
 50
180.0
 51
270.0
  0
ARC
  5
151E
330
1510
100
AcDbEntity
  8
太線
100
AcDbCircle
 10
101.4644995438761
 20
77.4393039014464
 30
0.0
 40
0.5
100
AcDbArc
 50
270.0
 51
0.0
  0
ARC
  5
151F
330
1510
100
AcDbEntity
  8
太線
100
AcDbCircle
 10
112.4464587597784
 20
77.4393039014464
 30
0.0
 40
0.5
100
AcDbArc
 50
180.0
 51
270.0
  0
LINE
  5
1520
330
1510
100
AcDbEntity
  8
想像線
100
AcDbLine
 10
93.94645875977847
 20
81.93930390144641
 30
0.0
 11
99.96449954387617
 21
81.93930390144641
 31
0.0
  0
LINE
  5
1521
330
1510
100
AcDbEntity
  8
極太線
100
AcDbLine
 10
96.38762957111168
 20
85.43930390144641
 30
0.0
 11
97.50528794844525
 21
85.43930390144641
 31
0.0
  0
CIRCLE
  5
1522
330
1510
100
AcDbEntity
  8
太線
100
AcDbCircle
 10
96.94645875977847
 20
85.43930390144641
 30
0.0
 40
0.5588291886667776
  0
LINE
  5
1523
330
1510
100
AcDbEntity
  8
太線
100
AcDbLine
 10
99.46449954387617
 20
86.93930390144641
 30
0.0
 11
94.44645875977846
 21
86.93930390144641
 31
0.0
  0
LINE
  5
1524
330
1510
100
AcDbEntity
  8
太線
100
AcDbLine
 10
93.94645875977847
 20
86.43930390144641
 30
0.0
 11
93.94645875977847
 21
81.93930390144641
 31
0.0
  0
ARC
  5
1525
330
1510
100
AcDbEntity
  8
太線
100
AcDbCircle
 10
92.44645875977846
 20
81.43930390144641
 30
0.0
 40
0.5
100
AcDbArc
 50
90.0
 51
180.0
  0
LINE
  5
1526
330
1510
100
AcDbEntity
  8
太線
100
AcDbLine
 10
93.94645875977847
 20
81.93930390144641
 30
0.0
 11
92.44645875977846
 21
81.93930390144641
 31
0.0
  0
ARC
  5
1527
330
1510
100
AcDbEntity
  8
太線
100
AcDbCircle
 10
94.44645875977846
 20
86.43930390144641
 30
0.0
 40
0.5
100
AcDbArc
 50
90.0
 51
180.0
  0
LINE
  5
1528
330
1510
100
AcDbEntity
  8
太線
100
AcDbLine
 10
99.96449954387617
 20
81.93930390144641
 30
0.0
 11
99.96449954387617
 21
86.43930390144641
 31
0.0
  0
LINE
  5
1529
330
1510
100
AcDbEntity
  8
太線
100
AcDbLine
 10
101.4644995438761
 20
81.93930390144641
 30
0.0
 11
99.96449954387617
 21
81.93930390144641
 31
0.0
  0
ARC
  5
152A
330
1510
100
AcDbEntity
  8
太線
100
AcDbCircle
 10
101.4644995438761
 20
81.43930390144641
 30
0.0
 40
0.5
100
AcDbArc
 50
0.0
 51
90.0
  0
ARC
  5
152B
330
1510
100
AcDbEntity
  8
太線
100
AcDbCircle
 10
99.46449954387617
 20
86.43930390144641
 30
0.0
 40
0.5
100
AcDbArc
 50
0.0
 51
90.0
  0
LINE
  5
152C
330
1510
100
AcDbEntity
  8
極太線
100
AcDbLine
 10
96.94645875977847
 20
85.99813309011318
 30
0.0
 11
96.94645875977847
 21
84.88047471277964
 31
0.0
  0
ARC
  5
152D
330
1510
100
AcDbEntity
  8
太線
100
AcDbCircle
 10
112.4464587597784
 20
81.43930390144641
 30
0.0
 40
0.5
100
AcDbArc
 50
90.0
 51
180.0
  0
TEXT
  5
152E
330
1510
100
AcDbEntity
  8
文字
100
AcDbText
 10
134.3819212586066
 20
78.16263579228063
 30
0.0
 40
2.0
  1
101
 51
15.0
  7
OKANO
100
AcDbText
  0
TEXT
  5
152F
330
1510
100
AcDbEntity
  8
文字
100
AcDbText
 10
113.3422276612066
 20
77.96976862235396
 30
0.0
 40
2.0
  1
38-83
 51
15.0
  7
OKANO
100
AcDbText
  0
LINE
  5
1530
330
1510
100
AcDbEntity
  8
太線
100
AcDbLine
 10
141.9825403279738
 20
77.4393039014464
 30
0.0
 11
141.9825403279738
 21
81.43930390144641
 31
0.0
  0
LINE
  5
1531
330
1510
100
AcDbEntity
  8
太線
100
AcDbLine
 10
131.9644995438761
 20
81.43930390144641
 30
0.0
 11
131.9644995438761
 21
77.4393039014464
 31
0.0
  0
LINE
  5
1532
330
1510
100
AcDbEntity
  8
太線
100
AcDbLine
 10
121.9644995438761
 20
77.4393039014464
 30
0.0
 11
121.9644995438761
 21
81.43930390144641
 31
0.0
  0
ARC
  5
1533
330
1510
100
AcDbEntity
  8
太線
100
AcDbCircle
 10
121.4644995438761
 20
77.4393039014464
 30
0.0
 40
0.5
100
AcDbArc
 50
270.0
 51
0.0
  0
LINE
  5
1534
330
1510
100
AcDbEntity
  8
太線
100
AcDbLine
 10
132.4644995438761
 20
76.9393039014464
 30
0.0
 11
141.4825403279738
 21
76.9393039014464
 31
0.0
  0
ARC
  5
1535
330
1510
100
AcDbEntity
  8
太線
100
AcDbCircle
 10
132.4644995438761
 20
77.4393039014464
 30
0.0
 40
0.5
100
AcDbArc
 50
180.0
 51
270.0
  0
ARC
  5
1536
330
1510
100
AcDbEntity
  8
太線
100
AcDbCircle
 10
141.4825403279738
 20
77.4393039014464
 30
0.0
 40
0.5
100
AcDbArc
 50
270.0
 51
0.0
  0
ARC
  5
1537
330
1510
100
AcDbEntity
  8
太線
100
AcDbCircle
 10
121.4644995438761
 20
81.43930390144641
 30
0.0
 40
0.5
100
AcDbArc
 50
0.0
 51
90.0
  0
LINE
  5
1538
330
1510
100
AcDbEntity
  8
太線
100
AcDbLine
 10
119.9644995438761
 20
81.93930390144641
 30
0.0
 11
119.9644995438761
 21
86.43930390144641
 31
0.0
  0
LINE
  5
1539
330
1510
100
AcDbEntity
  8
太線
100
AcDbLine
 10
113.9464587597784
 20
86.43930390144641
 30
0.0
 11
113.9464587597784
 21
81.93930390144641
 31
0.0
  0
LINE
  5
153A
330
1510
100
AcDbEntity
  8
想像線
100
AcDbLine
 10
113.9464587597784
 20
81.93930390144641
 30
0.0
 11
119.9644995438761
 21
81.93930390144641
 31
0.0
  0
LINE
  5
153B
330
1510
100
AcDbEntity
  8
太線
100
AcDbLine
 10
121.4644995438761
 20
81.93930390144641
 30
0.0
 11
119.9644995438761
 21
81.93930390144641
 31
0.0
  0
LINE
  5
153C
330
1510
100
AcDbEntity
  8
太線
100
AcDbLine
 10
119.4644995438761
 20
86.93930390144641
 30
0.0
 11
114.4464587597784
 21
86.93930390144641
 31
0.0
  0
ARC
  5
153D
330
1510
100
AcDbEntity
  8
太線
100
AcDbCircle
 10
114.4464587597784
 20
86.43930390144641
 30
0.0
 40
0.5
100
AcDbArc
 50
90.0
 51
180.0
  0
CIRCLE
  5
153E
330
1510
100
AcDbEntity
  8
太線
100
AcDbCircle
 10
115.4464587597784
 20
85.43930390144641
 30
0.0
 40
0.5588291886667776
  0
LINE
  5
153F
330
1510
100
AcDbEntity
  8
極太線
100
AcDbLine
 10
115.4464587597784
 20
85.99813309011318
 30
0.0
 11
115.4464587597784
 21
84.88047471277964
 31
0.0
  0
LINE
  5
1540
330
1510
100
AcDbEntity
  8
極太線
100
AcDbLine
 10
114.8876295711116
 20
85.43930390144641
 30
0.0
 11
116.0052879484452
 21
85.43930390144641
 31
0.0
  0
ARC
  5
1541
330
1510
100
AcDbEntity
  8
太線
100
AcDbCircle
 10
119.4644995438761
 20
86.43930390144641
 30
0.0
 40
0.5
100
AcDbArc
 50
0.0
 51
90.0
  0
LINE
  5
1542
330
1510
100
AcDbEntity
  8
極太線
100
AcDbLine
 10
117.9056703552094
 20
85.43930390144641
 30
0.0
 11
119.0233287325429
 21
85.43930390144641
 31
0.0
  0
LINE
  5
1543
330
1510
100
AcDbEntity
  8
極太線
100
AcDbLine
 10
118.4644995438761
 20
85.99813309011318
 30
0.0
 11
118.4644995438761
 21
84.88047471277964
 31
0.0
  0
CIRCLE
  5
1544
330
1510
100
AcDbEntity
  8
太線
100
AcDbCircle
 10
118.4644995438761
 20
85.43930390144641
 30
0.0
 40
0.5588291886667776
  0
LINE
  5
1545
330
1510
100
AcDbEntity
  8
想像線
100
AcDbLine
 10
133.9644995438761
 20
81.93930390144641
 30
0.0
 11
139.9825403279738
 21
81.93930390144641
 31
0.0
  0
LINE
  5
1546
330
1510
100
AcDbEntity
  8
極太線
100
AcDbLine
 10
137.9237111393071
 20
85.43930390144641
 30
0.0
 11
139.0413695166406
 21
85.43930390144641
 31
0.0
  0
CIRCLE
  5
1547
330
1510
100
AcDbEntity
  8
太線
100
AcDbCircle
 10
138.4825403279738
 20
85.43930390144641
 30
0.0
 40
0.5588291886667776
  0
CIRCLE
  5
1548
330
1510
100
AcDbEntity
  8
太線
100
AcDbCircle
 10
138.4825403279738
 20
83.26342923362075
 30
0.0
 40
0.5588291886667776
  0
LINE
  5
1549
330
1510
100
AcDbEntity
  8
極太線
100
AcDbLine
 10
137.9237111393071
 20
83.26342923362075
 30
0.0
 11
139.0413695166406
 21
83.26342923362075
 31
0.0
  0
LINE
  5
154A
330
1510
100
AcDbEntity
  8
太線
100
AcDbLine
 10
139.4825403279738
 20
86.93930390144641
 30
0.0
 11
134.4644995438761
 21
86.93930390144641
 31
0.0
  0
LINE
  5
154B
330
1510
100
AcDbEntity
  8
太線
100
AcDbLine
 10
133.9644995438761
 20
86.43930390144641
 30
0.0
 11
133.9644995438761
 21
81.93930390144641
 31
0.0
  0
ARC
  5
154C
330
1510
100
AcDbEntity
  8
太線
100
AcDbCircle
 10
132.4644995438761
 20
81.43930390144641
 30
0.0
 40
0.5
100
AcDbArc
 50
90.0
 51
180.0
  0
LINE
  5
154D
330
1510
100
AcDbEntity
  8
太線
100
AcDbLine
 10
133.9644995438761
 20
81.93930390144641
 30
0.0
 11
132.4644995438761
 21
81.93930390144641
 31
0.0
  0
LINE
  5
154E
330
1510
100
AcDbEntity
  8
極太線
100
AcDbLine
 10
134.9056703552093
 20
83.26342923362075
 30
0.0
 11
136.0233287325429
 21
83.26342923362075
 31
0.0
  0
LINE
  5
154F
330
1510
100
AcDbEntity
  8
極太線
100
AcDbLine
 10
135.4644995438761
 20
83.82225842228752
 30
0.0
 11
135.4644995438761
 21
82.70460004495395
 31
0.0
  0
CIRCLE
  5
1550
330
1510
100
AcDbEntity
  8
太線
100
AcDbCircle
 10
135.4644995438761
 20
83.26342923362075
 30
0.0
 40
0.5588291886667776
  0
ARC
  5
1551
330
1510
100
AcDbEntity
  8
太線
100
AcDbCircle
 10
134.4644995438761
 20
86.43930390144641
 30
0.0
 40
0.5
100
AcDbArc
 50
90.0
 51
180.0
  0
CIRCLE
  5
1552
330
1510
100
AcDbEntity
  8
太線
100
AcDbCircle
 10
135.4644995438761
 20
85.43930390144641
 30
0.0
 40
0.5588291886667776
  0
LINE
  5
1553
330
1510
100
AcDbEntity
  8
極太線
100
AcDbLine
 10
135.4644995438761
 20
85.99813309011318
 30
0.0
 11
135.4644995438761
 21
84.88047471277964
 31
0.0
  0
LINE
  5
1554
330
1510
100
AcDbEntity
  8
極太線
100
AcDbLine
 10
134.9056703552093
 20
85.43930390144641
 30
0.0
 11
136.0233287325429
 21
85.43930390144641
 31
0.0
  0
LINE
  5
1555
330
1510
100
AcDbEntity
  8
太線
100
AcDbLine
 10
139.9825403279738
 20
81.93930390144641
 30
0.0
 11
139.9825403279738
 21
86.43930390144641
 31
0.0
  0
ARC
  5
1556
330
1510
100
AcDbEntity
  8
太線
100
AcDbCircle
 10
141.4825403279738
 20
81.43930390144641
 30
0.0
 40
0.5
100
AcDbArc
 50
0.0
 51
90.0
  0
LINE
  5
1557
330
1510
100
AcDbEntity
  8
極太線
100
AcDbLine
 10
138.4825403279738
 20
83.82225842228752
 30
0.0
 11
138.4825403279738
 21
82.70460004495395
 31
0.0
  0
LINE
  5
1558
330
1510
100
AcDbEntity
  8
太線
100
AcDbLine
 10
141.4825403279738
 20
81.93930390144641
 30
0.0
 11
139.9825403279738
 21
81.93930390144641
 31
0.0
  0
ARC
  5
1559
330
1510
100
AcDbEntity
  8
太線
100
AcDbCircle
 10
139.4825403279738
 20
86.43930390144641
 30
0.0
 40
0.5
100
AcDbArc
 50
0.0
 51
90.0
  0
LINE
  5
155A
330
1510
100
AcDbEntity
  8
極太線
100
AcDbLine
 10
138.4825403279738
 20
85.99813309011318
 30
0.0
 11
138.4825403279738
 21
84.88047471277964
 31
0.0
  0
ENDBLK
  5
155C
330
1510
100
AcDbEntity
  8
0
100
AcDbBlockEnd
  0
BLOCK
  5
3A70
330
3A64
100
AcDbEntity
  8
0
100
AcDbBlockBegin
  2
*D2
 70
     1
 10
0.0
 20
0.0
 30
0.0
  3
*D2
  1

  0
LINE
  5
3A65
330
3A64
100
AcDbEntity
  8
寸法線
 62
     0
370
    -2
100
AcDbLine
 10
267.7153656515304
 20
311.6965850561076
 30
0.0
 11
267.7153656515304
 21
321.7428790909372
 31
0.0
  0
LINE
  5
3A66
330
3A64
100
AcDbEntity
  8
寸法線
 62
     0
370
    -2
100
AcDbLine
 10
274.7153656515304
 20
311.6965850561076
 30
0.0
 11
274.7153656515304
 21
321.7428790909372
 31
0.0
  0
LINE
  5
3A67
330
3A64
100
AcDbEntity
  8
寸法線
 62
     0
370
    -2
100
AcDbLine
 10
264.7153656515304
 20
318.7428790909372
 30
0.0
 11
261.7153656515304
 21
318.7428790909372
 31
0.0
  0
LINE
  5
3A68
330
3A64
100
AcDbEntity
  8
寸法線
 62
     0
370
    -2
100
AcDbLine
 10
277.7153656515304
 20
318.7428790909372
 30
0.0
 11
280.7153656515304
 21
318.7428790909372
 31
0.0
  0
LINE
  5
3A69
330
3A64
100
AcDbEntity
  8
寸法線
 62
     0
370
    -2
100
AcDbLine
 10
267.7153656515304
 20
318.7428790909372
 30
0.0
 11
274.7153656515304
 21
318.7428790909372
 31
0.0
  0
INSERT
  5
3A6A
330
3A64
100
AcDbEntity
  8
寸法線
 62
     0
370
    -2
100
AcDbBlockReference
  2
_Closed
 10
267.7153656515304
 20
318.7428790909372
 30
0.0
 41
3.0
 42
3.0
 43
3.0
  0
INSERT
  5
3A6B
330
3A64
100
AcDbEntity
  8
寸法線
 62
     0
370
    -2
100
AcDbBlockReference
  2
_Closed
 10
274.7153656515304
 20
318.7428790909372
 30
0.0
 41
3.0
 42
3.0
 43
3.0
 50
180.0
  0
MTEXT
  5
3A6C
330
3A64
100
AcDbEntity
  8
寸法線
 62
     0
100
AcDbMText
 10
271.2153656515304
 20
322.2428790909372
 30
0.0
 40
5.0
 41
0.0
 71
     5
 72
     1
  1
7
  7
OKANO
 73
     1
 44
1.0
  0
POINT
  5
3A6D
330
3A64
100
AcDbEntity
  8
Defpoints
 62
     0
100
AcDbPoint
 10
267.7153656515304
 20
309.6965850561076
 30
0.0
  0
POINT
  5
3A6E
330
3A64
100
AcDbEntity
  8
Defpoints
 62
     0
100
AcDbPoint
 10
274.7153656515304
 20
309.6965850561076
 30
0.0
  0
POINT
  5
3A6F
330
3A64
100
AcDbEntity
  8
Defpoints
 62
     0
100
AcDbPoint
 10
274.7153656515304
 20
318.7428790909372
 30
0.0
  0
ENDBLK
  5
3A71
330
3A64
100
AcDbEntity
  8
0
100
AcDbBlockEnd
  0
BLOCK
  5
3AD2
330
3AC8
100
AcDbEntity
  8
0
100
AcDbBlockBegin
  2
*D3
 70
     1
 10
0.0
 20
0.0
 30
0.0
  3
*D3
  1

  0
LINE
  5
3B46
330
3AC8
100
AcDbEntity
  8
寸法線
 62
     0
370
    -2
100
AcDbLine
 10
202.6708658263676
 20
275.1854968054512
 30
0.0
 11
202.6708658263676
 21
339.8886154374922
 31
0.0
  0
LINE
  5
3B47
330
3AC8
100
AcDbEntity
  8
寸法線
 62
     0
370
    -2
100
AcDbLine
 10
242.4687587042292
 20
304.1414603744679
 30
0.0
 11
242.4687587042292
 21
339.8886154374922
 31
0.0
  0
LINE
  5
3B48
330
3AC8
100
AcDbEntity
  8
寸法線
 62
     0
370
    -2
100
AcDbLine
 10
205.6708658263675
 20
336.8886154374922
 30
0.0
 11
239.4687587042292
 21
336.8886154374922
 31
0.0
  0
INSERT
  5
3B49
330
3AC8
100
AcDbEntity
  8
寸法線
 62
     0
370
    -2
100
AcDbBlockReference
  2
_Closed
 10
202.6708658263676
 20
336.8886154374922
 30
0.0
 41
3.0
 42
3.0
 43
3.0
 50
180.0
  0
INSERT
  5
3B4A
330
3AC8
100
AcDbEntity
  8
寸法線
 62
     0
370
    -2
100
AcDbBlockReference
  2
_Closed
 10
242.4687587042292
 20
336.8886154374922
 30
0.0
 41
3.0
 42
3.0
 43
3.0
  0
MTEXT
  5
3B4B
330
3AC8
100
AcDbEntity
  8
寸法線
 62
     0
100
AcDbMText
 10
222.5698122652984
 20
340.3886154374922
 30
0.0
 40
5.0
 41
0.0
 71
     5
 72
     1
  1
40
  7
OKANO
 73
     1
 44
1.0
  0
POINT
  5
3B4C
330
3AC8
100
AcDbEntity
  8
Defpoints
 62
     0
100
AcDbPoint
 10
202.6708658263676
 20
273.1854968054512
 30
0.0
  0
POINT
  5
3B4D
330
3AC8
100
AcDbEntity
  8
Defpoints
 62
     0
100
AcDbPoint
 10
242.4687587042292
 20
302.1414603744679
 30
0.0
  0
POINT
  5
3B4E
330
3AC8
100
AcDbEntity
  8
Defpoints
 62
     0
100
AcDbPoint
 10
242.4687587042292
 20
336.8886154374922
 30
0.0
  0
ENDBLK
  5
3AD3
330
3AC8
100
AcDbEntity
  8
0
100
AcDbBlockEnd
  0
BLOCK
  5
3ADF
330
3AD5
100
AcDbEntity
  8
0
100
AcDbBlockBegin
  2
*D4
 70
     1
 10
0.0
 20
0.0
 30
0.0
  3
*D4
  1

  0
LINE
  5
3C23
330
3AD5
100
AcDbEntity
  8
寸法線
 62
     0
370
    -2
100
AcDbLine
 10
242.4687587042292
 20
304.1414603744679
 30
0.0
 11
242.4687587042292
 21
339.8886154374922
 31
0.0
  0
LINE
  5
3C24
330
3AD5
100
AcDbEntity
  8
寸法線
 62
     0
370
    -2
100
AcDbLine
 10
291.1535613264175
 20
302.5971419820099
 30
0.0
 11
291.1535613264175
 21
339.8886154374922
 31
0.0
  0
LINE
  5
3C25
330
3AD5
100
AcDbEntity
  8
寸法線
 62
     0
370
    -2
100
AcDbLine
 10
245.4687587042292
 20
336.8886154374922
 30
0.0
 11
288.1535613264174
 21
336.8886154374922
 31
0.0
  0
INSERT
  5
3C26
330
3AD5
100
AcDbEntity
  8
寸法線
 62
     0
370
    -2
100
AcDbBlockReference
  2
_Closed
 10
242.4687587042292
 20
336.8886154374922
 30
0.0
 41
3.0
 42
3.0
 43
3.0
 50
180.0
  0
INSERT
  5
3C27
330
3AD5
100
AcDbEntity
  8
寸法線
 62
     0
370
    -2
100
AcDbBlockReference
  2
_Closed
 10
291.1535613264175
 20
336.8886154374922
 30
0.0
 41
3.0
 42
3.0
 43
3.0
  0
MTEXT
  5
3C28
330
3AD5
100
AcDbEntity
  8
寸法線
 62
     0
100
AcDbMText
 10
266.8111600153233
 20
340.3886154374922
 30
0.0
 40
5.0
 41
0.0
 71
     5
 72
     1
  1
50
  7
OKANO
 73
     1
 44
1.0
  0
POINT
  5
3C29
330
3AD5
100
AcDbEntity
  8
Defpoints
 62
     0
100
AcDbPoint
 10
242.4687587042292
 20
302.1414603744679
 30
0.0
  0
POINT
  5
3C2A
330
3AD5
100
AcDbEntity
  8
Defpoints
 62
     0
100
AcDbPoint
 10
291.1535613264175
 20
300.5971419820099
 30
0.0
  0
POINT
  5
3C2B
330
3AD5
100
AcDbEntity
  8
Defpoints
 62
     0
100
AcDbPoint
 10
291.1535613264175
 20
336.8886154374922
 30
0.0
  0
ENDBLK
  5
3AE0
330
3AD5
100
AcDbEntity
  8
0
100
AcDbBlockEnd
  0
BLOCK
  5
3AF4
330
3AEB
100
AcDbEntity
  8
0
100
AcDbBlockBegin
  2
*D5
 70
     1
 10
0.0
 20
0.0
 30
0.0
  3
*D5
  1

  0
LINE
  5
3AEC
330
3AEB
100
AcDbEntity
  8
寸法線
 62
     0
370
    -2
100
AcDbLine
 10
334.415916023827
 20
278.7700325509261
 30
0.0
 11
323.4035404593364
 21
290.2968391435524
 31
0.0
  0
LINE
  5
3AED
330
3AEB
100
AcDbEntity
  8
寸法線
 62
     0
370
    -2
100
AcDbLine
 10
305.4430530740337
 20
309.0963309686628
 30
0.0
 11
303.3706891449604
 21
311.2655031023293
 31
0.0
  0
MTEXT
  5
3AEE
330
3AEB
100
AcDbEntity
  8
寸法線
 62
     0
100
AcDbMText
 10
332.4769668640531
 20
285.866947652371
 30
0.0
 40
5.0
 41
0.0
 71
     5
 72
     1
  1
\U+220520
  7
OKANO
 11
0.69078797635779
 21
-0.7230573778888571
 31
0.0
 73
     1
 44
1.0
  0
LINE
  5
3AEF
330
3AEB
100
AcDbEntity
  8
寸法線
 62
     0
370
    -2
100
AcDbLine
 10
307.5154170031071
 20
306.9271588349962
 30
0.0
 11
321.331176530263
 21
292.466011277219
 31
0.0
  0
INSERT
  5
3AF0
330
3AEB
100
AcDbEntity
  8
寸法線
 62
     0
370
    -2
100
AcDbBlockReference
  2
_Closed
 10
307.5154170031071
 20
306.9271588349962
 30
0.0
 41
3.0
 42
3.0
 43
3.0
 50
313.6925164328193
  0
INSERT
  5
3AF1
330
3AEB
100
AcDbEntity
  8
寸法線
 62
     0
370
    -2
100
AcDbBlockReference
  2
_Closed
 10
321.331176530263
 20
292.466011277219
 30
0.0
 41
3.0
 42
3.0
 43
3.0
 50
133.6925164328192
  0
POINT
  5
3AF2
330
3AEB
100
AcDbEntity
  8
Defpoints
 62
     0
100
AcDbPoint
 10
321.331176530263
 20
292.466011277219
 30
0.0
  0
POINT
  5
3AF3
330
3AEB
100
AcDbEntity
  8
Defpoints
 62
     0
100
AcDbPoint
 10
307.5154170031071
 20
306.9271588349962
 30
0.0
  0
ENDBLK
  5
3AF5
330
3AEB
100
AcDbEntity
  8
0
100
AcDbBlockEnd
  0
BLOCK
  5
3B03
330
3AF7
100
AcDbEntity
  8
0
100
AcDbBlockBegin
  2
*D6
 70
     1
 10
0.0
 20
0.0
 30
0.0
  3
*D6
  1

  0
LINE
  5
3BF1
330
3AF7
100
AcDbEntity
  8
寸法線
 62
     0
370
    -2
100
AcDbLine
 10
244.8551459096611
 20
247.3181700213507
 30
0.0
 11
250.8296682177516
 21
247.3181700213507
 31
0.0
  0
LINE
  5
3BF2
330
3AF7
100
AcDbEntity
  8
寸法線
 62
     0
370
    -2
100
AcDbLine
 10
244.0823714987975
 20
241.5269777649707
 30
0.0
 11
250.8296682177516
 21
241.5269777649707
 31
0.0
  0
LINE
  5
3BF3
330
3AF7
100
AcDbEntity
  8
寸法線
 62
     0
370
    -2
100
AcDbLine
 10
247.8296682177516
 20
250.3181700213507
 30
0.0
 11
247.8296682177516
 21
253.3181700213507
 31
0.0
  0
LINE
  5
3BF4
330
3AF7
100
AcDbEntity
  8
寸法線
 62
     0
370
    -2
100
AcDbLine
 10
247.8296682177516
 20
238.5269777649707
 30
0.0
 11
247.8296682177516
 21
219.6234508191185
 31
0.0
  0
LINE
  5
3BF5
330
3AF7
100
AcDbEntity
  8
寸法線
 62
     0
370
    -2
100
AcDbLine
 10
247.8296682177516
 20
247.3181700213507
 30
0.0
 11
247.8296682177516
 21
241.5269777649707
 31
0.0
  0
INSERT
  5
3BF6
330
3AF7
100
AcDbEntity
  8
寸法線
 62
     0
370
    -2
100
AcDbBlockReference
  2
_Closed
 10
247.8296682177516
 20
247.3181700213507
 30
0.0
 41
3.0
 42
3.0
 43
3.0
 50
270.0
  0
INSERT
  5
3BF7
330
3AF7
100
AcDbEntity
  8
寸法線
 62
     0
370
    -2
100
AcDbBlockReference
  2
_Closed
 10
247.8296682177516
 20
241.5269777649707
 30
0.0
 41
3.0
 42
3.0
 43
3.0
 50
90.0
  0
MTEXT
  5
3BF8
330
3AF7
100
AcDbEntity
  8
寸法線
 62
     0
100
AcDbMText
 10
244.3296682177515
 20
227.5752142920446
 30
0.0
 40
5.0
 41
0.0
 71
     5
 72
     1
  1
Φ5.5
  7
OKANO
 11
0.0000000000000001
 21
1.0
 31
0.0
 73
     1
 44
1.0
  0
POINT
  5
3BF9
330
3AF7
100
AcDbEntity
  8
Defpoints
 62
     0
100
AcDbPoint
 10
242.8551459096611
 20
247.3181700213507
 30
0.0
  0
POINT
  5
3BFA
330
3AF7
100
AcDbEntity
  8
Defpoints
 62
     0
100
AcDbPoint
 10
242.0823714987975
 20
241.5269777649707
 30
0.0
  0
POINT
  5
3BFB
330
3AF7
100
AcDbEntity
  8
Defpoints
 62
     0
100
AcDbPoint
 10
247.8296682177516
 20
241.5269777649707
 30
0.0
  0
ENDBLK
  5
3B04
330
3AF7
100
AcDbEntity
  8
0
100
AcDbBlockEnd
  0
BLOCK
  5
3BDD
330
3BD3
100
AcDbEntity
  8
0
100
AcDbBlockBegin
  2
*D7
 70
     1
 10
0.0
 20
0.0
 30
0.0
  3
*D7
  1

  0
LINE
  5
3BE8
330
3BD3
100
AcDbEntity
  8
寸法線
 62
     0
370
    -2
100
AcDbLine
 10
69.33522637886153
 20
253.87541380817
 30
0.0
 11
69.33522637886153
 21
259.0518232755041
 31
0.0
  0
LINE
  5
3BE9
330
3BD3
100
AcDbEntity
  8
寸法線
 62
     0
370
    -2
100
AcDbLine
 10
118.6561491113119
 20
253.87541380817
 30
0.0
 11
118.6561491113119
 21
259.0518232755041
 31
0.0
  0
LINE
  5
3BEA
330
3BD3
100
AcDbEntity
  8
寸法線
 62
     0
370
    -2
100
AcDbLine
 10
72.33522637886153
 20
256.0518232755041
 30
0.0
 11
115.6561491113119
 21
256.0518232755041
 31
0.0
  0
INSERT
  5
3BEB
330
3BD3
100
AcDbEntity
  8
寸法線
 62
     0
370
    -2
100
AcDbBlockReference
  2
_Closed
 10
69.33522637886153
 20
256.0518232755041
 30
0.0
 41
3.0
 42
3.0
 43
3.0
 50
180.0
  0
INSERT
  5
3BEC
330
3BD3
100
AcDbEntity
  8
寸法線
 62
     0
370
    -2
100
AcDbBlockReference
  2
_Closed
 10
118.6561491113119
 20
256.0518232755041
 30
0.0
 41
3.0
 42
3.0
 43
3.0
  0
MTEXT
  5
3BED
330
3BD3
100
AcDbEntity
  8
寸法線
 62
     0
100
AcDbMText
 10
93.99568774508674
 20
259.5518232755041
 30
0.0
 40
5.0
 41
0.0
 71
     5
 72
     1
  1
単管48.6
  7
OKANO
 73
     1
 44
1.0
  0
POINT
  5
3BEE
330
3BD3
100
AcDbEntity
  8
Defpoints
 62
     0
100
AcDbPoint
 10
69.33522637886153
 20
251.87541380817
 30
0.0
  0
POINT
  5
3BEF
330
3BD3
100
AcDbEntity
  8
Defpoints
 62
     0
100
AcDbPoint
 10
118.6561491113119
 20
251.87541380817
 30
0.0
  0
POINT
  5
3BF0
330
3BD3
100
AcDbEntity
  8
Defpoints
 62
     0
100
AcDbPoint
 10
118.6561491113119
 20
256.0518232755041
 30
0.0
  0
ENDBLK
  5
3BDE
330
3BD3
100
AcDbEntity
  8
0
100
AcDbBlockEnd
  0
ENDSEC
  0
SECTION
  2
ENTITIES
  0
TEXT
  5
29C1
330
1F
100
AcDbEntity
  8
文字
100
AcDbText
 10
368.8096346128602
 20
156.5665766323917
 30
0.0
 40
3.599999999999999
  1
SET SCREW COUP
 51
15.0
  7
OKANO
100
AcDbText
  0
TEXT
  5
29C2
330
1F
100
AcDbEntity
  8
文字
100
AcDbText
 10
340.3017303443964
 20
149.062140690531
 30
0.0
 40
4.799999999999999
  1
joint kogyo T.okano
 51
15.0
  7
OKANO
100
AcDbText
  0
TEXT
  5
29C3
330
1F
100
AcDbEntity
  8
文字
100
AcDbText
 10
332.8134173325996
 20
163.8145121978188
 30
0.0
 40
4.799999999999999
  1
F-999-20070109 Auto CAD
 51
15.0
  7
OKANO
100
AcDbText
  0
LINE
  5
29C4
330
1F
100
AcDbEntity
  8
太線
100
AcDbLine
 10
305.3911891509857
 20
162.8937045473884
 30
0.0
 11
413.3911891509857
 21
162.8937045473884
 31
0.0
  0
LWPOLYLINE
  5
29C5
330
1F
100
AcDbEntity
  8
太線
100
AcDbPolyline
 90
        4
 70
     1
 43
0.0
 10
305.3911891509857
 20
171.2937045473884
 10
413.3911891509857
 20
171.2937045473884
 10
413.3911891509857
 20
146.0937045473884
 10
305.3911891509857
 20
146.0937045473884
  0
TEXT
  5
29C6
330
1F
100
AcDbEntity
  8
文字
100
AcDbText
 10
309.2635727170432
 20
154.7001927485378
 30
0.0
 40
2.399999999999999
  1
CHECK
 51
15.0
  7
OKANO
100
AcDbText
  0
LINE
  5
29C7
330
1F
100
AcDbEntity
  8
太線
100
AcDbLine
 10
329.3911891509857
 20
171.2937045473884
 30
0.0
 11
329.3911891509857
 21
146.0937045473884
 31
0.0
  0
TEXT
  5
29C8
330
1F
100
AcDbEntity
  8
文字
100
AcDbText
 10
309.2635727170432
 20
147.7807651423219
 30
0.0
 40
2.399999999999999
  1
ISSUED
 51
15.0
  7
OKANO
100
AcDbText
  0
TEXT
  5
29C9
330
1F
100
AcDbEntity
  8
文字
100
AcDbText
 10
309.5200871499439
 20
151.1123413315901
 30
0.0
 40
2.399999999999999
  1
APPR
 51
15.0
  7
OKANO
100
AcDbText
  0
TEXT
  5
29CA
330
1F
100
AcDbEntity
  8
文字
100
AcDbText
 10
307.4679771653575
 20
164.6949207261536
 30
0.0
 40
2.399999999999999
  1
FILM NAME
 51
15.0
  7
OKANO
100
AcDbText
  0
TEXT
  5
29CB
330
1F
100
AcDbEntity
  8
文字
100
AcDbText
 10
308.7505460426895
 20
158.2880435752968
 30
0.0
 40
2.399999999999999
  1
DRAWN
 51
15.0
  7
OKANO
100
AcDbText
  0
TEXT
  5
29CC
330
1F
100
AcDbEntity
  8
文字
100
AcDbText
 10
334.5563283056212
 20
155.0394810155994
 30
0.0
 40
4.799999999999999
  1
22-1J
 51
15.0
  7
OKANO
100
AcDbText
  0
CIRCLE
  5
3378
330
1F
100
AcDbEntity
  8
構築線
100
AcDbCircle
 10
231.3765083008218
 20
217.4711488256961
 30
0.0
 40
2.0
  0
LINE
  5
364A
330
1F
100
AcDbEntity
  8
構築線
100
AcDbLine
 10
86.42140301388153
 20
144.0116988020077
 30
0.0
 11
84.92140301388152
 21
144.127360047544
 31
0.0
  0
LINE
  5
3672
330
1F
100
AcDbEntity
  8
太線
100
AcDbLine
 10
233.1955054425005
 20
247.8116988020077
 30
0.0
 11
241.6955054425006
 21
247.8116988020078
 31
0.0
  0
LINE
  5
3673
330
1F
100
AcDbEntity
  8
太線
100
AcDbLine
 10
233.1955054425005
 20
241.8116988020077
 30
0.0
 11
241.6955054425006
 21
241.8116988020077
 31
0.0
  0
LINE
  5
368B
330
1F
100
AcDbEntity
  8
太線
100
AcDbLine
 10
233.1955054425005
 20
296.8116988020076
 30
0.0
 11
267.7153656515304
 21
296.8116988020074
 31
0.0
  0
LINE
  5
368C
330
1F
100
AcDbEntity
  8
太線
100
AcDbLine
 10
233.1955054425005
 20
302.8116988020077
 30
0.0
 11
267.7153656515304
 21
302.8116988020077
 31
0.0
  0
LINE
  5
368E
330
1F
100
AcDbEntity
  8
太線
100
AcDbLine
 10
260.3343563976983
 20
302.8116988020077
 30
0.0
 11
254.9142086399697
 21
302.8116988020076
 31
0.0
  0
LINE
  5
368F
330
1F
100
AcDbEntity
  8
太線
100
AcDbLine
 10
254.9142086399697
 20
296.8116988020076
 30
0.0
 11
260.3343563976983
 21
296.8116988020076
 31
0.0
  0
ARC
  5
3699
330
1F
100
AcDbEntity
  8
太線
100
AcDbCircle
 10
233.1955054425005
 20
272.3116988020076
 30
0.0
 40
24.49999999999988
100
AcDbArc
 50
90.0
 51
270.0
  0
ARC
  5
369A
330
1F
100
AcDbEntity
  8
太線
100
AcDbCircle
 10
233.1955054425005
 20
272.3116988020076
 30
0.0
 40
30.5
100
AcDbArc
 50
90.0
 51
270.0
  0
CIRCLE
  5
369C
330
1F
100
AcDbEntity
  8
破線
100
AcDbCircle
 10
233.1955054425005
 20
272.3116988020076
 30
0.0
 40
23.24372168253205
  0
CIRCLE
  5
369D
330
1F
100
AcDbEntity
  8
破線
100
AcDbCircle
 10
233.1955054425005
 20
272.3116988020076
 30
0.0
 40
21.80390088218211
  0
LINE
  5
36A3
330
1F
100
AcDbEntity
  8
太線
100
AcDbLine
 10
242.6955054425005
 20
302.8116988020077
 30
0.0
 11
242.6955054425005
 21
296.8116988020075
 31
0.0
  0
LINE
  5
36A6
330
1F
100
AcDbEntity
  8
太線
100
AcDbLine
 10
242.6955054425005
 20
297.4197200465845
 30
0.0
 11
267.7153656515304
 21
297.4197200465845
 31
0.0
  0
LINE
  5
39DD
330
1F
100
AcDbEntity
  8
太線
100
AcDbLine
 10
242.6955054425005
 20
246.8116988020077
 30
0.0
 11
242.6955054425006
 21
242.8116988020077
 31
0.0
  0
LINE
  5
39E0
330
1F
100
AcDbEntity
  8
太線
100
AcDbLine
 10
286.019079367304
 20
297.5546063006845
 30
0.0
 11
290.4392271250326
 21
297.5546063006845
 31
0.0
  0
LINE
  5
39E2
330
1F
100
AcDbEntity
  8
太線
100
AcDbLine
 10
286.019079367304
 20
296.9465850561076
 30
0.0
 11
290.4392271250326
 21
296.9465850561076
 31
0.0
  0
LINE
  5
39E3
330
1F
100
AcDbEntity
  8
太線
100
AcDbLine
 10
290.4392271250326
 20
302.9465850561077
 30
0.0
 11
286.019079367304
 21
302.9465850561076
 31
0.0
  0
LINE
  5
39E4
330
1F
100
AcDbEntity
  8
太線
100
AcDbLine
 10
281.019079367304
 20
306.0757501807064
 30
0.0
 11
281.019079367304
 21
293.8174199315087
 31
0.0
  0
LINE
  5
39E5
330
1F
100
AcDbEntity
  8
太線
100
AcDbLine
 10
282.11853757509
 20
293.8174199315087
 30
0.0
 11
282.11853757509
 21
306.0757501807064
 31
0.0
  0
LINE
  5
39E6
330
1F
100
AcDbEntity
  8
太線
100
AcDbLine
 10
286.019079367304
 20
294.3174199315087
 30
0.0
 11
286.019079367304
 21
305.5757501807064
 31
0.0
  0
LINE
  5
39E7
330
1F
100
AcDbEntity
  8
太線
100
AcDbLine
 10
282.11853757509
 20
297.1965850561076
 30
0.0
 11
286.019079367304
 21
297.1965850561076
 31
0.0
  0
LINE
  5
39E8
330
1F
100
AcDbEntity
  8
太線
100
AcDbLine
 10
282.11853757509
 20
294.3174199315087
 30
0.0
 11
286.019079367304
 21
294.3174199315087
 31
0.0
  0
LINE
  5
39E9
330
1F
100
AcDbEntity
  8
太線
100
AcDbLine
 10
286.019079367304
 20
302.6965850561076
 30
0.0
 11
282.11853757509
 21
302.6965850561076
 31
0.0
  0
LINE
  5
39EA
330
1F
100
AcDbEntity
  8
太線
100
AcDbLine
 10
286.019079367304
 20
305.5757501807064
 30
0.0
 11
282.11853757509
 21
305.5757501807065
 31
0.0
  0
LINE
  5
39EB
330
1F
100
AcDbEntity
  8
太線
100
AcDbLine
 10
291.4392271250326
 20
297.9465850561076
 30
0.0
 11
291.4392271250326
 21
301.9465850561077
 31
0.0
  0
LINE
  5
3A03
330
1F
100
AcDbEntity
  8
太線
100
AcDbLine
 10
267.7153656515304
 20
309.6965850561076
 30
0.0
 11
274.7153656515304
 21
309.6965850561076
 31
0.0
  0
LINE
  5
3A04
330
1F
100
AcDbEntity
  8
太線
100
AcDbLine
 10
274.7153656515304
 20
309.6965850561076
 30
0.0
 11
274.7153656515304
 21
289.6965850561077
 31
0.0
  0
LINE
  5
3A05
330
1F
100
AcDbEntity
  8
太線
100
AcDbLine
 10
274.7153656515304
 20
289.6965850561077
 30
0.0
 11
267.7153656515304
 21
289.6965850561077
 31
0.0
  0
LINE
  5
3A06
330
1F
100
AcDbEntity
  8
太線
100
AcDbLine
 10
267.7153656515304
 20
289.6965850561077
 30
0.0
 11
267.7153656515304
 21
309.6965850561076
 31
0.0
  0
LINE
  5
3A0B
330
1F
100
AcDbEntity
  8
太線
100
AcDbLine
 10
242.6955054425005
 20
302.2406091717302
 30
0.0
 11
267.7153656515304
 21
302.2406091717302
 31
0.0
  0
LINE
  5
3A0C
330
1F
100
AcDbEntity
  8
太線
100
AcDbLine
 10
274.7153656515304
 20
302.2406091717302
 30
0.0
 11
277.2624562693056
 21
302.2406091717302
 31
0.0
  0
LINE
  5
3A0D
330
1F
100
AcDbEntity
  8
太線
100
AcDbLine
 10
286.019079367304
 20
302.2406091717302
 30
0.0
 11
290.4392271250326
 21
302.2406091717302
 31
0.0
  0
LINE
  5
3A0E
330
1F
100
AcDbEntity
  8
太線
100
AcDbLine
 10
281.019079367304
 20
302.2406091717302
 30
0.0
 11
279.7624562693056
 21
302.2406091717302
 31
0.0
  0
LINE
  5
3A0F
330
1F
100
AcDbEntity
  8
太線
100
AcDbLine
 10
279.7624562693056
 20
302.8116988020075
 30
0.0
 11
281.019079367304
 21
302.8116988020076
 31
0.0
  0
LINE
  5
3A10
330
1F
100
AcDbEntity
  8
太線
100
AcDbLine
 10
279.7624562693056
 20
302.2406091717302
 30
0.0
 11
281.019079367304
 21
302.2406091717302
 31
0.0
  0
LINE
  5
3A11
330
1F
100
AcDbEntity
  8
太線
100
AcDbLine
 10
279.7624562693056
 20
297.4197200465845
 30
0.0
 11
281.019079367304
 21
297.4197200465845
 31
0.0
  0
LINE
  5
3A12
330
1F
100
AcDbEntity
  8
太線
100
AcDbLine
 10
279.7624562693056
 20
296.8116988020073
 30
0.0
 11
281.019079367304
 21
296.8116988020074
 31
0.0
  0
LINE
  5
3A13
330
1F
100
AcDbEntity
  8
太線
100
AcDbLine
 10
274.7153656515304
 20
296.8116988020073
 30
0.0
 11
277.2624562693056
 21
296.8116988020073
 31
0.0
  0
LINE
  5
3A14
330
1F
100
AcDbEntity
  8
太線
100
AcDbLine
 10
274.7153656515304
 20
297.4197200465845
 30
0.0
 11
277.2624562693056
 21
297.4197200465845
 31
0.0
  0
LINE
  5
3A15
330
1F
100
AcDbEntity
  8
太線
100
AcDbLine
 10
274.7153656515304
 20
302.2406091717302
 30
0.0
 11
277.2624562693056
 21
302.2406091717302
 31
0.0
  0
LINE
  5
3A16
330
1F
100
AcDbEntity
  8
太線
100
AcDbLine
 10
274.7153656515304
 20
302.8116988020077
 30
0.0
 11
277.2624562693056
 21
302.8116988020076
 31
0.0
  0
ARC
  5
3A25
330
1F
100
AcDbEntity
  8
太線
100
AcDbCircle
 10
303.2624562693056
 20
299.6965850561076
 30
0.0
 40
26.00000000000005
100
AcDbArc
 50
157.3801350519596
 51
202.6198649480403
  0
LINE
  5
3A26
330
1F
100
AcDbEntity
  8
太線
100
AcDbLine
 10
279.7624562693056
 20
309.6965850561076
 30
0.0
 11
279.7624562693056
 21
302.8116988020075
 31
0.0
  0
LINE
  5
3A27
330
1F
100
AcDbEntity
  8
太線
100
AcDbLine
 10
279.7624562693056
 20
289.6965850561077
 30
0.0
 11
279.2624562693056
 21
289.6965850561077
 31
0.0
  0
LINE
  5
3A28
330
1F
100
AcDbEntity
  8
太線
100
AcDbLine
 10
279.2624562693056
 20
309.6965850561076
 30
0.0
 11
279.7624562693056
 21
309.6965850561076
 31
0.0
  0
ARC
  5
3A2B
330
1F
100
AcDbEntity
  8
太線
100
AcDbCircle
 10
289.2434849873122
 20
299.8116988020075
 30
0.0
 40
9.94434037790673
100
AcDbArc
 50
162.4415162100108
 51
197.5584837899899
  0
LINE
  5
3A2C
330
1F
100
AcDbEntity
  8
太線
100
AcDbLine
 10
279.7624562693056
 20
296.8116988020073
 30
0.0
 11
279.7624562693056
 21
289.6965850561077
 31
0.0
  0
LINE
  5
3A2D
330
1F
100
AcDbEntity
  8
想像線
100
AcDbLine
 10
274.7153656515304
 20
302.8116988020077
 30
0.0
 11
267.7153656515304
 21
302.8116988020077
 31
0.0
  0
LINE
  5
3A2E
330
1F
100
AcDbEntity
  8
想像線
100
AcDbLine
 10
274.7153656515304
 20
296.8116988020073
 30
0.0
 11
267.7153656515304
 21
296.8116988020074
 31
0.0
  0
ARC
  5
3A2F
330
1F
100
AcDbEntity
  8
太線
100
AcDbCircle
 10
241.6955054425006
 20
246.8116988020077
 30
0.0
 40
1.0
100
AcDbArc
 50
0.0
 51
90.0000000000003
  0
ARC
  5
3A30
330
1F
100
AcDbEntity
  8
太線
100
AcDbCircle
 10
241.6955054425006
 20
242.8116988020077
 30
0.0
 40
1.0
100
AcDbArc
 50
270.0
 51
0.0
  0
ARC
  5
3A31
330
1F
100
AcDbEntity
  8
太線
100
AcDbCircle
 10
290.4392271250326
 20
301.9465850561077
 30
0.0
 40
1.0
100
AcDbArc
 50
0.0
 51
90.00000000000062
  0
ARC
  5
3A32
330
1F
100
AcDbEntity
  8
太線
100
AcDbCircle
 10
290.4392271250326
 20
297.9465850561076
 30
0.0
 40
1.0
100
AcDbArc
 50
270.0
 51
0.0
  0
LINE
  5
3A33
330
1F
100
AcDbEntity
  8
想像線
100
AcDbLine
 10
290.4392271250326
 20
302.9465850561077
 30
0.0
 11
290.4392271250326
 21
296.9465850561076
 31
0.0
  0
LINE
  5
3A39
330
1F
100
AcDbEntity
  8
太線
100
AcDbLine
 10
282.11853757509
 20
306.0757501807064
 30
0.0
 11
281.019079367304
 21
306.0757501807064
 31
0.0
  0
LINE
  5
3A3A
330
1F
100
AcDbEntity
  8
太線
100
AcDbLine
 10
282.11853757509
 20
293.8174199315087
 30
0.0
 11
281.019079367304
 21
293.8174199315087
 31
0.0
  0
CIRCLE
  5
3A3B
330
1F
100
AcDbEntity
  8
太線
100
AcDbCircle
 10
314.4232967666851
 20
299.6965850561076
 30
0.0
 40
2.544024115622619
  0
CIRCLE
  5
3A3C
330
1F
100
AcDbEntity
  8
太線
100
AcDbCircle
 10
314.4232967666851
 20
299.6965850561076
 30
0.0
 40
6.379165124598785
  0
CIRCLE
  5
3A3D
330
1F
100
AcDbEntity
  8
太線
100
AcDbCircle
 10
314.4232967666851
 20
299.6965850561076
 30
0.0
 40
10.0
  0
LWPOLYLINE
  5
3A3E
330
1F
100
AcDbEntity
  8
太線
100
AcDbPolyline
 90
        6
 70
     1
 43
0.0
 10
314.4232967666851
 20
305.5757501807064
 10
309.331790415739
 20
302.636167618407
 10
309.331790415739
 20
296.7570024938082
 10
314.4232967666851
 20
293.8174199315088
 10
319.5148031176311
 20
296.7570024938082
 10
319.5148031176311
 20
302.636167618407
  0
CIRCLE
  5
3A3F
330
1F
100
AcDbEntity
  8
太線
100
AcDbCircle
 10
314.4232967666851
 20
299.6965850561076
 30
0.0
 40
2.204802774432096
  0
ARC
  5
3A47
330
1F
100
AcDbEntity
  8
構築線
100
AcDbCircle
 10
303.5963967072473
 20
346.4132771093002
 30
0.0
 40
25.99999999999994
100
AcDbArc
 50
337.3801350519594
 51
22.61986494804053
  0
DIMENSION
  5
3A63
330
1F
100
AcDbEntity
  8
寸法線
100
AcDbDimension
  2
*D2
 10
274.7153656515304
 20
318.7428790909372
 30
0.0
 11
271.2153656515304
 21
322.2428790909372
 31
0.0
 70
    32
 71
     5
 42
7.0
  3
sunpo
100
AcDbAlignedDimension
 13
267.7153656515304
 23
309.6965850561076
 33
0.0
 14
274.7153656515304
 24
309.6965850561076
 34
0.0
100
AcDbRotatedDimension
1001
ACAD
1000
DSTYLE
1002
{
1070
    40
1040
1.0
1002
}
  0
DIMENSION
  5
3AC7
330
1F
100
AcDbEntity
  8
寸法線
100
AcDbDimension
  2
*D3
 10
242.4687587042292
 20
336.8886154374922
 30
0.0
 11
222.5698122652984
 21
340.3886154374922
 31
0.0
 70
    32
  1
40
 71
     5
 42
39.79789287786161
  3
sunpo
100
AcDbAlignedDimension
 13
202.6708658263676
 23
273.1854968054512
 33
0.0
 14
242.4687587042292
 24
302.1414603744679
 34
0.0
100
AcDbRotatedDimension
1001
ACAD
1000
DSTYLE
1002
{
1070
    40
1040
1.0
1002
}
  0
DIMENSION
  5
3AD4
330
1F
100
AcDbEntity
  8
寸法線
100
AcDbDimension
  2
*D4
 10
291.1535613264175
 20
336.8886154374922
 30
0.0
 11
266.8111600153233
 21
340.3886154374922
 31
0.0
 70
    32
  1
50
 71
     5
 42
48.68480262218827
  3
sunpo
100
AcDbAlignedDimension
 13
242.4687587042292
 23
302.1414603744679
 33
0.0
 14
291.1535613264175
 24
300.5971419820099
 34
0.0
100
AcDbRotatedDimension
1001
ACAD
1000
DSTYLE
1002
{
1070
    40
1040
1.0
1070
   279
1070
     1
1002
}
  0
DIMENSION
  5
3AEA
330
1F
100
AcDbEntity
  8
寸法線
100
AcDbDimension
  2
*D5
 10
307.5154170031071
 20
306.9271588349962
 30
0.0
 11
329.9459102061184
 21
283.448849780406
 31
0.0
 70
    35
 71
     5
 42
20.00000000000005
  3
sunpo
100
AcDbDiametricDimension
 15
321.331176530263
 25
292.466011277219
 35
0.0
 40
0.0
1001
ACAD
1000
DSTYLE
1002
{
1070
    40
1040
1.0
1070
   288
1070
     1
1002
}
  0
DIMENSION
  5
3AF6
330
1F
100
AcDbEntity
  8
寸法線
100
AcDbDimension
  2
*D6
 10
247.8296682177516
 20
241.5269777649707
 30
0.0
 11
244.3296682177515
 21
227.5752142920446
 31
0.0
 70
    32
  1
Φ5.5
 71
     5
 42
5.791192256379986
  3
sunpo
100
AcDbAlignedDimension
 13
242.8551459096611
 23
247.3181700213507
 33
0.0
 14
242.0823714987975
 24
241.5269777649707
 34
0.0
 50
90.0
100
AcDbRotatedDimension
1001
ACAD
1000
DSTYLE
1002
{
1070
    40
1040
1.0
1002
}
  0
LEADER
  5
3B5C
330
1F
100
AcDbEntity
  8
寸法線
100
AcDbLeader
  3
sunpo
 76
     2
 10
275.4326454154629
 20
289.7533738012451
 30
0.0
 10
316.0022184545664
 20
249.2161195777451
 30
0.0
1001
ACAD
1000
DSTYLE
1002
{
1070
   147
1040
1.0
1070
    77
1070
     0
1002
}
  0
TEXT
  5
3B5D
330
1F
100
AcDbEntity
  8
文字
100
AcDbText
 10
287.3479495880004
 20
243.3724289042881
 30
0.0
 40
4.799999999999999
  1
耐候性の良いスポンジタイプパッキング
 51
15.0
  7
OKANO
100
AcDbText
  0
SPLINE
  5
3B73
330
1F
100
AcDbEntity
  8
太線
100
AcDbSpline
 70
     0
 71
     3
 72
    16
 73
    12
 74
     0
 42
0.0000000001
 43
0.0000000001
 40
19.43369740125417
 40
19.43369740125417
 40
19.43369740125417
 40
19.43369740125417
 40
19.7082439194738
 40
24.7082439194738
 40
29.5623658792107
 40
34.4164878389476
 40
39.4164878389476
 40
44.4164878389476
 40
49.2706097986845
 40
54.12473175842141
 40
58.88986129442045
 40
58.88986129442045
 40
58.88986129442045
 40
58.88986129442045
 10
118.8305338863743
 20
275.9562217370535
 30
0.0000042231744412
 10
118.8216615817261
 20
275.8845253719162
 30
0.0000027133912142
 10
118.7351931408445
 20
274.5060831216387
 30
-0.0000245368160252
 10
121.8561109877397
 20
271.8032891631243
 30
0.0000106121329219
 10
125.9025100815171
 20
267.7427080309033
 30
-0.0000028050993723
 10
121.8573813741133
 20
263.6714578960438
 30
0.0000007768645333
 10
117.2738923673531
 20
259.7406679845728
 30
-0.0000002109665243
 10
121.8607749695829
 20
255.8115388547741
 30
0.0000000546914106
 10
125.8893964508242
 20
251.7354512619867
 30
-0.0000000144569069
 10
121.9695701172967
 20
247.7572290905246
 30
0.0000000037103331
 10
118.8610597552198
 20
245.1453547471217
 30
0.0000000007754383
 10
118.8132923821061
 20
243.9214126962591
 30
0.0000000000945192
  0
SPLINE
  5
3B74
330
1F
100
AcDbEntity
  8
太線
100
AcDbSpline
 70
     0
 71
     3
 72
    16
 73
    12
 74
     0
 42
0.0000000001
 43
0.0000000001
 40
19.43369740125417
 40
19.43369740125417
 40
19.43369740125417
 40
19.43369740125417
 40
19.7082439194738
 40
24.7082439194738
 40
29.5623658792107
 40
34.4164878389476
 40
39.4164878389476
 40
44.4164878389476
 40
49.2706097986845
 40
54.12473175842141
 40
58.88986129442045
 40
58.88986129442045
 40
58.88986129442045
 40
58.88986129442045
 10
118.8305338863743
 20
244.0596074773011
 30
0.0000042231744412
 10
118.8216615817261
 20
243.9879111121637
 30
0.0000027133912142
 10
118.7351931408445
 20
242.6094688618862
 30
-0.0000245368160252
 10
121.8561109877397
 20
239.9066749033718
 30
0.0000106121329219
 10
125.9025100815171
 20
235.8460937711508
 30
-0.0000028050993723
 10
121.8573813741133
 20
231.7748436362914
 30
0.0000007768645333
 10
117.2738923673531
 20
227.8440537248203
 30
-0.0000002109665243
 10
121.8607749695829
 20
223.9149245950217
 30
0.0000000546914106
 10
125.8893964508242
 20
219.8388370022343
 30
-0.0000000144569069
 10
121.9695701172967
 20
215.8606148307721
 30
0.0000000037103331
 10
118.8610597552198
 20
213.2487404873692
 30
0.0000000007754383
 10
118.8132923821061
 20
212.0247984365067
 30
0.0000000000945192
  0
SPLINE
  5
3B75
330
1F
100
AcDbEntity
  8
太線
100
AcDbSpline
 70
     0
 71
     3
 72
    16
 73
    12
 74
     0
 42
0.0000000001
 43
0.0000000001
 40
19.43369740125417
 40
19.43369740125417
 40
19.43369740125417
 40
19.43369740125417
 40
19.7082439194738
 40
24.7082439194738
 40
29.5623658792107
 40
34.4164878389476
 40
39.4164878389476
 40
44.4164878389476
 40
49.2706097986845
 40
54.12473175842141
 40
58.88986129442045
 40
58.88986129442045
 40
58.88986129442045
 40
58.88986129442045
 10
118.8112920040613
 20
307.981163545982
 30
0.0000042231744412
 10
118.802419699413
 20
307.9094671808447
 30
0.0000027133912142
 10
118.7159512585315
 20
306.5310249305672
 30
-0.0000245368160252
 10
121.8368691054266
 20
303.8282309720528
 30
0.0000106121329219
 10
125.883268199204
 20
299.7676498398318
 30
-0.0000028050993723
 10
121.8381394918003
 20
295.6963997049724
 30
0.0000007768645333
 10
117.2546504850401
 20
291.7656097935013
 30
-0.0000002109665243
 10
121.8415330872698
 20
287.8364806637027
 30
0.0000000546914106
 10
125.8701545685111
 20
283.7603930709153
 30
-0.0000000144569069
 10
121.9503282349837
 20
279.7821708994531
 30
0.0000000037103331
 10
118.8418178729067
 20
277.1702965560502
 30
0.0000000007754383
 10
118.794050499793
 20
275.9463545051876
 30
0.0000000000945192
  0
SPLINE
  5
3B76
330
1F
100
AcDbEntity
  8
太線
100
AcDbSpline
 70
     0
 71
     3
 72
    16
 73
    12
 74
     0
 42
0.0000000001
 43
0.0000000001
 40
19.43369740125417
 40
19.43369740125417
 40
19.43369740125417
 40
19.43369740125417
 40
19.7082439194738
 40
24.7082439194738
 40
29.5623658792107
 40
34.4164878389476
 40
39.4164878389476
 40
44.4164878389476
 40
49.2706097986845
 40
54.12473175842141
 40
58.88986129442045
 40
58.88986129442045
 40
58.88986129442045
 40
58.88986129442045
 10
118.8112920040613
 20
339.8777778057344
 30
0.0000042231744412
 10
118.802419699413
 20
339.8060814405971
 30
0.0000027133912142
 10
118.7159512585315
 20
338.4276391903196
 30
-0.0000245368160252
 10
121.8368691054266
 20
335.7248452318052
 30
0.0000106121329219
 10
125.883268199204
 20
331.6642640995842
 30
-0.0000028050993723
 10
121.8381394918003
 20
327.5930139647248
 30
0.0000007768645333
 10
117.2546504850401
 20
323.6622240532537
 30
-0.0000002109665243
 10
121.8415330872698
 20
319.7330949234551
 30
0.0000000546914106
 10
125.8701545685111
 20
315.6570073306677
 30
-0.0000000144569069
 10
121.9503282349837
 20
311.6787851592055
 30
0.0000000037103331
 10
118.8418178729067
 20
309.0669108158026
 30
0.0000000007754383
 10
118.794050499793
 20
307.8429687649401
 30
0.0000000000945192
  0
SPLINE
  5
3B77
330
1F
100
AcDbEntity
  8
太線
100
AcDbSpline
210
0.0
220
0.0
230
1.0
 70
     8
 71
     3
 72
    16
 73
    12
 74
     0
 42
0.0000000001
 43
0.0000000001
 40
19.44709416526352
 40
19.44709416526352
 40
19.44709416526352
 40
19.44709416526352
 40
19.70615220735591
 40
24.56027416709281
 40
29.56027416709281
 40
34.56027416709281
 40
39.41439612682971
 40
44.26851808656661
 40
49.26851808656661
 40
54.26851808656661
 40
58.89687667760302
 40
58.89687667760302
 40
58.89687667760302
 40
58.89687667760302
 10
118.5630714767434
 20
307.9885672133074
 30
0.0
 10
118.5542940679947
 20
307.9141414432172
 30
0.0
 10
118.4541450149676
 20
306.4489345200563
 30
0.0
 10
121.2685471972071
 20
303.7178342830764
 30
0.0
 10
125.8378127651818
 20
299.7602241058586
 30
0.0
 10
121.2583825297921
 20
295.8362745747455
 30
0.0
 10
117.2146608649167
 20
291.7662156064501
 30
0.0
 10
121.2514515427059
 20
287.694179240132
 30
0.0
 10
125.8665115012419
 20
283.776340769177
 30
0.0
 10
121.2338548743628
 20
279.8568932723168
 30
0.0
 10
118.8591575811595
 20
277.3089059711421
 30
0.0
 10
118.5823133590565
 20
275.9636254043789
 30
0.0
  0
SPLINE
  5
3B78
330
1F
100
AcDbEntity
  8
太線
100
AcDbSpline
210
0.0
220
0.0
230
1.0
 70
     8
 71
     3
 72
    16
 73
    12
 74
     0
 42
0.0000000001
 43
0.0000000001
 40
19.44709416526352
 40
19.44709416526352
 40
19.44709416526352
 40
19.44709416526352
 40
19.70615220735591
 40
24.56027416709281
 40
29.56027416709281
 40
34.56027416709281
 40
39.41439612682971
 40
44.26851808656661
 40
49.26851808656661
 40
54.26851808656661
 40
58.89687667760302
 40
58.89687667760302
 40
58.89687667760302
 40
58.89687667760302
 10
118.5823133590565
 20
244.0670111446264
 30
0.0
 10
118.5735359503078
 20
243.9925853745362
 30
0.0
 10
118.4733868972806
 20
242.5273784513753
 30
0.0
 10
121.2877890795202
 20
239.7962782143954
 30
0.0
 10
125.8570546474949
 20
235.8386680371777
 30
0.0
 10
121.2776244121052
 20
231.9147185060646
 30
0.0
 10
117.2339027472298
 20
227.8446595377691
 30
0.0
 10
121.270693425019
 20
223.772623171451
 30
0.0
 10
125.885753383555
 20
219.854784700496
 30
0.0
 10
121.2530967566758
 20
215.9353372036358
 30
0.0
 10
118.8783994634726
 20
213.3873499024611
 30
0.0
 10
118.6015552413696
 20
212.0420693356979
 30
0.0
  0
SPLINE
  5
3B79
330
1F
100
AcDbEntity
  8
太線
100
AcDbSpline
210
0.0
220
0.0
230
1.0
 70
     8
 71
     3
 72
    16
 73
    12
 74
     0
 42
0.0000000001
 43
0.0000000001
 40
19.44709416526352
 40
19.44709416526352
 40
19.44709416526352
 40
19.44709416526352
 40
19.70615220735591
 40
24.56027416709281
 40
29.56027416709281
 40
34.56027416709281
 40
39.41439612682971
 40
44.26851808656661
 40
49.26851808656661
 40
54.26851808656661
 40
58.89687667760302
 40
58.89687667760302
 40
58.89687667760302
 40
58.89687667760302
 10
118.5823133590565
 20
275.9636254043789
 30
0.0
 10
118.5735359503078
 20
275.8891996342887
 30
0.0
 10
118.4733868972806
 20
274.4239927111277
 30
0.0
 10
121.2877890795202
 20
271.6928924741478
 30
0.0
 10
125.8570546474949
 20
267.7352822969301
 30
0.0
 10
121.2776244121052
 20
263.811332765817
 30
0.0
 10
117.2339027472298
 20
259.7412737975216
 30
0.0
 10
121.270693425019
 20
255.6692374312035
 30
0.0
 10
125.885753383555
 20
251.7513989602484
 30
0.0
 10
121.2530967566758
 20
247.8319514633883
 30
0.0
 10
118.8783994634726
 20
245.2839641622135
 30
0.0
 10
118.6015552413696
 20
243.9386835954503
 30
0.0
  0
SPLINE
  5
3B7A
330
1F
100
AcDbEntity
  8
太線
100
AcDbSpline
210
-0.0000000019319824
220
-0.0000000033836651
230
1.0
 70
     8
 71
     3
 72
     8
 73
     4
 74
     0
 42
0.0000000001
 43
0.0000000001
 40
68.68540621720438
 40
68.68540621720438
 40
68.68540621720438
 40
68.68540621720438
 40
68.97885371815831
 40
68.97885371815831
 40
68.97885371815831
 40
68.97885371815831
 10
124.3172975642127
 20
235.8838131358761
 30
0.0000000000015349
 10
124.3966529145079
 20
235.8324903491683
 30
0.0000000000005446
 10
124.4798458728513
 20
235.7847668911099
 30
0.0
 10
124.5672975638782
 20
235.740947499861
 30
0.0
  0
SPLINE
  5
3B7B
330
1F
100
AcDbEntity
  8
太線
100
AcDbSpline
210
0.0
220
0.0
230
1.0
 70
     8
 71
     3
 72
    16
 73
    12
 74
     0
 42
0.0000000001
 43
0.0000000001
 40
19.44709416526352
 40
19.44709416526352
 40
19.44709416526352
 40
19.44709416526352
 40
19.70615220735591
 40
24.56027416709281
 40
29.56027416709281
 40
34.56027416709281
 40
39.41439612682971
 40
44.26851808656661
 40
49.26851808656661
 40
54.26851808656661
 40
58.89687667760302
 40
58.89687667760302
 40
58.89687667760302
 40
58.89687667760302
 10
118.5630714767434
 20
339.8851814730598
 30
0.0
 10
118.5542940679947
 20
339.8107557029697
 30
0.0
 10
118.4541450149676
 20
338.3455487798087
 30
0.0
 10
121.2685471972071
 20
335.6144485428288
 30
0.0
 10
125.8378127651818
 20
331.656838365611
 30
0.0
 10
121.2583825297921
 20
327.732888834498
 30
0.0
 10
117.2146608649167
 20
323.6628298662025
 30
0.0
 10
121.2514515427059
 20
319.5907934998844
 30
0.0
 10
125.8665115012419
 20
315.6729550289294
 30
0.0
 10
121.2338548743628
 20
311.7535075320692
 30
0.0
 10
118.8591575811595
 20
309.2055202308945
 30
0.0
 10
118.5823133590565
 20
307.8602396641313
 30
0.0
  0
SPLINE
  5
3B7C
330
1F
100
AcDbEntity
  8
太線
100
AcDbSpline
210
-0.0000000019319824
220
-0.0000000033836651
230
1.0
 70
     8
 71
     3
 72
     8
 73
     4
 74
     0
 42
0.0000000001
 43
0.0000000001
 40
68.68540621720438
 40
68.68540621720438
 40
68.68540621720438
 40
68.68540621720438
 40
68.97885371815831
 40
68.97885371815831
 40
68.97885371815831
 40
68.97885371815831
 10
124.2980556818996
 20
299.805369204557
 30
0.0000000000015349
 10
124.3774110321948
 20
299.7540464178493
 30
0.0000000000005446
 10
124.4606039905382
 20
299.7063229597909
 30
0.0
 10
124.5480556815651
 20
299.6625035685419
 30
0.0
  0
LINE
  5
3B89
330
1F
100
AcDbEntity
  8
太線
100
AcDbLine
 10
135.1485465408217
 20
303.0008205867821
 30
0.0
 11
139.4355813864617
 21
303.0008205867821
 31
0.0
  0
LINE
  5
3B8A
330
1F
100
AcDbEntity
  8
太線
100
AcDbLine
 10
135.1485465408217
 20
302.4297309565047
 30
0.0
 11
137.6956371585969
 21
302.4297309565047
 31
0.0
  0
LINE
  5
3B8B
330
1F
100
AcDbEntity
  8
太線
100
AcDbLine
 10
135.1485465408217
 20
297.608841831359
 30
0.0
 11
139.4441318533827
 21
297.608841831359
 31
0.0
  0
LINE
  5
3B8C
330
1F
100
AcDbEntity
  8
太線
100
AcDbLine
 10
135.1485465408217
 20
297.0008205867817
 30
0.0
 11
139.3744771281148
 21
297.0008205867817
 31
0.0
  0
LINE
  5
3B8D
330
1F
100
AcDbEntity
  8
太線
100
AcDbLine
 10
135.1485465408217
 20
302.4297309565047
 30
0.0
 11
139.4896717777777
 21
302.4297309565047
 31
0.0
  0
LINE
  5
3B8E
330
1F
100
AcDbEntity
  8
太線
100
AcDbLine
 10
103.1286863317918
 20
302.4297309565047
 30
0.0
 11
128.1485465408217
 21
302.4297309565047
 31
0.0
  0
LINE
  5
3B8F
330
1F
100
AcDbEntity
  8
太線
100
AcDbLine
 10
103.1286863317918
 20
297.608841831359
 30
0.0
 11
128.1485465408217
 21
297.608841831359
 31
0.0
  0
LINE
  5
3B90
330
1F
100
AcDbEntity
  8
太線
100
AcDbLine
 10
65.38816963219527
 20
303.0008205867821
 30
0.0
 11
128.1485465408217
 21
303.0008205867821
 31
0.0
  0
LINE
  5
3B91
330
1F
100
AcDbEntity
  8
太線
100
AcDbLine
 10
65.81623592274026
 20
297.0008205867823
 30
0.0
 11
128.1485465408217
 21
297.0008205867818
 31
0.0
  0
LINE
  5
3B92
330
1F
100
AcDbEntity
  8
太線
100
AcDbLine
 10
103.1286863317918
 20
303.0008205867821
 30
0.0
 11
103.1286863317918
 21
297.000820586782
 31
0.0
  0
LINE
  5
3B93
330
1F
100
AcDbEntity
  8
太線
100
AcDbLine
 10
128.1485465408217
 20
289.8857068408821
 30
0.0
 11
128.1485465408217
 21
309.8857068408821
 31
0.0
  0
LINE
  5
3B94
330
1F
100
AcDbEntity
  8
太線
100
AcDbLine
 10
135.1485465408217
 20
309.8857068408821
 30
0.0
 11
135.1485465408217
 21
289.8857068408821
 31
0.0
  0
LINE
  5
3B95
330
1F
100
AcDbEntity
  8
太線
100
AcDbLine
 10
115.347389529261
 20
297.0008205867821
 30
0.0
 11
120.7675372869895
 21
297.0008205867821
 31
0.0
  0
LINE
  5
3B96
330
1F
100
AcDbEntity
  8
太線
100
AcDbLine
 10
120.7675372869895
 20
303.0008205867821
 30
0.0
 11
115.347389529261
 21
303.0008205867821
 31
0.0
  0
LINE
  5
3B97
330
1F
100
AcDbEntity
  8
太線
100
AcDbLine
 10
135.1485465408217
 20
289.8857068408821
 30
0.0
 11
128.1485465408217
 21
289.8857068408821
 31
0.0
  0
LINE
  5
3B98
330
1F
100
AcDbEntity
  8
想像線
100
AcDbLine
 10
135.1485465408217
 20
297.0008205867817
 30
0.0
 11
128.1485465408217
 21
297.0008205867818
 31
0.0
  0
LINE
  5
3B99
330
1F
100
AcDbEntity
  8
想像線
100
AcDbLine
 10
135.1485465408217
 20
303.0008205867821
 30
0.0
 11
128.1485465408217
 21
303.0008205867821
 31
0.0
  0
LINE
  5
3B9A
330
1F
100
AcDbEntity
  8
太線
100
AcDbLine
 10
128.1485465408217
 20
309.8857068408821
 30
0.0
 11
135.1485465408217
 21
309.8857068408821
 31
0.0
  0
LINE
  5
3B9D
330
1F
100
AcDbEntity
  8
太線
100
AcDbLine
 10
146.4522602565953
 20
294.5065417162832
 30
0.0
 11
146.4522602565953
 21
305.7648719654808
 31
0.0
  0
LINE
  5
3B9E
330
1F
100
AcDbEntity
  8
太線
100
AcDbLine
 10
142.5517184643812
 20
294.0065417162831
 30
0.0
 11
142.5517184643812
 21
306.2648719654808
 31
0.0
  0
LINE
  5
3B9F
330
1F
100
AcDbEntity
  8
太線
100
AcDbLine
 10
141.4522602565953
 20
306.2648719654808
 30
0.0
 11
141.4522602565953
 21
294.0065417162831
 31
0.0
  0
LINE
  5
3BA3
330
1F
100
AcDbEntity
  8
太線
100
AcDbLine
 10
146.4522602565953
 20
302.8857068408821
 30
0.0
 11
142.5517184643812
 21
302.8857068408821
 31
0.0
  0
LINE
  5
3BA4
330
1F
100
AcDbEntity
  8
太線
100
AcDbLine
 10
142.5517184643812
 20
294.5065417162832
 30
0.0
 11
146.4522602565953
 21
294.5065417162832
 31
0.0
  0
LINE
  5
3BA5
330
1F
100
AcDbEntity
  8
太線
100
AcDbLine
 10
142.5517184643812
 20
297.385706840882
 30
0.0
 11
146.4522602565953
 21
297.385706840882
 31
0.0
  0
LINE
  5
3BA7
330
1F
100
AcDbEntity
  8
太線
100
AcDbLine
 10
142.5517184643812
 20
294.0065417162831
 30
0.0
 11
141.4522602565953
 21
294.0065417162831
 31
0.0
  0
LINE
  5
3BA8
330
1F
100
AcDbEntity
  8
太線
100
AcDbLine
 10
139.8744771281148
 20
297.0008205867817
 30
0.0
 11
141.4522602565953
 21
297.0008205867818
 31
0.0
  0
LINE
  5
3BA9
330
1F
100
AcDbEntity
  8
太線
100
AcDbLine
 10
139.9441318533827
 20
297.608841831359
 30
0.0
 11
141.4522602565953
 21
297.608841831359
 31
0.0
  0
LINE
  5
3BAA
330
1F
100
AcDbEntity
  8
太線
100
AcDbLine
 10
140.1956371585969
 20
302.4297309565047
 30
0.0
 11
141.4522602565953
 21
302.4297309565047
 31
0.0
  0
LINE
  5
3BAB
330
1F
100
AcDbEntity
  8
太線
100
AcDbLine
 10
139.9355813864618
 20
303.000820586782
 30
0.0
 11
141.4522602565953
 21
303.0008205867821
 31
0.0
  0
LINE
  5
3BAC
330
1F
100
AcDbEntity
  8
太線
100
AcDbLine
 10
141.4522602565953
 20
302.4297309565047
 30
0.0
 11
139.9896717777777
 21
302.4297309565047
 31
0.0
  0
LINE
  5
3BAD
330
1F
100
AcDbEntity
  8
想像線
100
AcDbLine
 10
150.8724080143239
 20
303.1357068408821
 30
0.0
 11
150.8724080143239
 21
297.1357068408821
 31
0.0
  0
LINE
  5
3BAE
330
1F
100
AcDbEntity
  8
太線
100
AcDbLine
 10
151.8724080143239
 20
298.1357068408821
 30
0.0
 11
151.8724080143239
 21
302.1357068408821
 31
0.0
  0
LINE
  5
3BAF
330
1F
100
AcDbEntity
  8
太線
100
AcDbLine
 10
146.4522602565953
 20
297.1357068408821
 30
0.0
 11
150.8724080143239
 21
297.1357068408821
 31
0.0
  0
LINE
  5
3BB0
330
1F
100
AcDbEntity
  8
太線
100
AcDbLine
 10
146.4522602565953
 20
297.7437280854589
 30
0.0
 11
150.8724080143239
 21
297.743728085459
 31
0.0
  0
ARC
  5
3BB1
330
1F
100
AcDbEntity
  8
太線
100
AcDbCircle
 10
150.8724080143239
 20
298.1357068408821
 30
0.0
 40
1.0
100
AcDbArc
 50
270.0
 51
0.0
  0
LINE
  5
3BB2
330
1F
100
AcDbEntity
  8
太線
100
AcDbLine
 10
146.4522602565953
 20
302.4297309565047
 30
0.0
 11
150.8724080143239
 21
302.4297309565047
 31
0.0
  0
LINE
  5
3BB3
330
1F
100
AcDbEntity
  8
太線
100
AcDbLine
 10
150.8724080143239
 20
303.1357068408821
 30
0.0
 11
146.4522602565953
 21
303.135706840882
 31
0.0
  0
ARC
  5
3BB4
330
1F
100
AcDbEntity
  8
太線
100
AcDbCircle
 10
150.8724080143239
 20
302.1357068408821
 30
0.0
 40
1.0
100
AcDbArc
 50
0.0
 51
90.00000000000062
  0
LINE
  5
3BB5
330
1F
100
AcDbEntity
  8
太線
100
AcDbLine
 10
146.4522602565953
 20
305.7648719654808
 30
0.0
 11
142.5517184643812
 21
305.7648719654809
 31
0.0
  0
LINE
  5
3BB7
330
1F
100
AcDbEntity
  8
太線
100
AcDbLine
 10
142.5517184643812
 20
306.2648719654808
 30
0.0
 11
141.4522602565953
 21
306.2648719654808
 31
0.0
  0
XLINE
  5
3BBC
330
1F
100
AcDbEntity
  8
構築線
100
AcDbXline
 10
256.6775113176114
 20
299.7103367165236
 30
0.0
 11
-1.0
 21
0.0
 31
0.0
  0
ARC
  5
3BBE
330
1F
100
AcDbEntity
  8
太線
100
AcDbCircle
 10
66.27102487387626
 20
300.0560090887853
 30
0.0
 40
3.074304496385801
100
AcDbArc
 50
106.6887441390913
 51
269.9966137557371
  0
XLINE
  5
3BC1
330
1F
100
AcDbEntity
  8
構築線
100
AcDbXline
 10
94.27965847889106
 20
346.2317309019141
 30
0.0
 11
0.0
 21
1.0
 31
0.0
  0
LINE
  5
3BC2
330
1F
100
AcDbEntity
  8
太線
100
AcDbLine
 10
118.6577057593352
 20
346.7789911954752
 30
0.0
 11
118.6577057593352
 21
302.4297309565047
 31
0.0
  0
LINE
  5
3BC3
330
1F
100
AcDbEntity
  8
太線
100
AcDbLine
 10
118.6577057593352
 20
297.0008205867819
 30
0.0
 11
118.6577057593352
 21
221.3927754452297
 31
0.0
  0
LINE
  5
3BC4
330
1F
100
AcDbEntity
  8
太線
100
AcDbLine
 10
69.26114385501285
 20
346.7789911954752
 30
0.0
 11
69.26114385501285
 21
303.0008205867821
 31
0.0
  0
LINE
  5
3BC5
330
1F
100
AcDbEntity
  8
太線
100
AcDbLine
 10
69.26114385501285
 20
297.0008205867823
 30
0.0
 11
69.26114385501285
 21
221.3927754452297
 31
0.0
  0
ARC
  5
3BC6
330
1F
100
AcDbEntity
  8
太線
100
AcDbCircle
 10
82.32137453014443
 20
354.958464568
 30
0.0
 40
15.41017228779389
100
AcDbArc
 50
212.0584439930159
 51
323.5282983637582
  0
ARC
  5
3BC7
330
1F
100
AcDbEntity
  8
太線
100
AcDbCircle
 10
81.89752155209772
 20
332.7503067312945
 30
0.0
 40
19.21407067318436
100
AcDbArc
 50
46.40260950901261
 51
131.6892288700754
  0
ARC
  5
3BC8
330
1F
100
AcDbEntity
  8
太線
100
AcDbCircle
 10
106.5906669596987
 20
331.8783001778472
 30
0.0
 40
18.69768299411003
100
AcDbArc
 50
50.14406551476078
 51
127.7358009693977
  0
ARC
  5
3BC9
330
1F
100
AcDbEntity
  8
太線
100
AcDbCircle
 10
82.58498879930305
 20
334.9866234616698
 30
0.0
 40
15.63559168693683
100
AcDbArc
 50
41.58672933538034
 51
134.0115828760559
  0
ARC
  5
3BCA
330
1F
100
AcDbEntity
  8
太線
100
AcDbCircle
 10
86.89239352902895
 20
354.4745602201615
 30
0.0
 40
17.26573740182768
100
AcDbArc
 50
208.5163571423831
 51
231.139705642238
  0
ARC
  5
3BCC
330
1F
100
AcDbEntity
  8
太線
100
AcDbCircle
 10
106.3417793852691
 20
236.4429960270956
 30
0.0
 40
19.44713814457635
100
AcDbArc
 50
230.3960171036787
 51
309.2942171444978
  0
ARC
  5
3BCE
330
1F
100
AcDbEntity
  8
太線
100
AcDbCircle
 10
105.5471490269196
 20
208.4499313113043
 30
0.0
 40
18.20761383471954
100
AcDbArc
 50
45.55771125244199
 51
130.4955638695218
  0
ARC
  5
3BCF
330
1F
100
AcDbEntity
  8
太線
100
AcDbCircle
 10
81.81084123068735
 20
235.5430630681018
 30
0.0
 40
18.63534792745171
100
AcDbArc
 50
227.753618513377
 51
310.369497238262
  0
ARC
  5
3BD0
330
1F
100
AcDbEntity
  8
太線
100
AcDbCircle
 10
106.4061100616545
 20
236.3500377928776
 30
0.0
 40
17.84274149458465
100
AcDbArc
 50
230.6425716928443
 51
302.7589483288126
  0
ARC
  5
3BD1
330
1F
100
AcDbEntity
  8
太線
100
AcDbCircle
 10
97.87767615012398
 20
202.5682810461912
 30
0.0
 40
25.85014005885158
100
AcDbArc
 50
45.29877285620153
 51
65.98309030549566
  0
DIMENSION
  5
3BD2
330
1F
100
AcDbEntity
  8
寸法線
100
AcDbDimension
  2
*D7
 10
118.6561491113119
 20
256.0518232755041
 30
0.0
 11
93.99568774508674
 21
259.5518232755041
 31
0.0
 70
    32
  1
単管48.6
 71
     5
 42
49.32092273245041
  3
sunpo
100
AcDbAlignedDimension
 13
69.33522637886153
 23
251.87541380817
 33
0.0
 14
118.6561491113119
 24
251.87541380817
 34
0.0
100
AcDbRotatedDimension
1001
ACAD
1000
DSTYLE
1002
{
1070
    40
1040
1.0
1002
}
  0
LINE
  5
3BFE
330
1F
100
AcDbEntity
  8
想像線
100
AcDbLine
 10
256.3620091295168
 20
315.0182242404008
 30
0.0
 11
258.1010795543726
 21
310.3016503495363
 31
0.0
  0
LINE
  5
3BFF
330
1F
100
AcDbEntity
  8
想像線
100
AcDbLine
 10
258.1010795543726
 20
310.3016503495363
 30
0.0
 11
260.0885881789885
 21
315.266464880859
 31
0.0
  0
LINE
  5
3C00
330
1F
100
AcDbEntity
  8
想像線
100
AcDbLine
 10
260.0885881789885
 20
315.266464880859
 30
0.0
 11
261.3307822043239
 21
310.3016503495363
 31
0.0
  0
LINE
  5
3C01
330
1F
100
AcDbEntity
  8
想像線
100
AcDbLine
 10
261.3307822043239
 20
310.3016503495363
 30
0.0
 11
262.3245370210546
 21
315.266464880859
 31
0.0
  0
LINE
  5
3C02
330
1F
100
AcDbEntity
  8
想像線
100
AcDbLine
 10
262.3245370210546
 20
315.266464880859
 30
0.0
 11
262.3245370210546
 21
227.8857261445023
 31
0.0
  0
LINE
  5
3C03
330
1F
100
AcDbEntity
  8
想像線
100
AcDbLine
 10
262.3245370210546
 20
227.8857261445023
 30
0.0
 11
261.3307822043239
 21
231.6093368994811
 31
0.0
  0
LINE
  5
3C04
330
1F
100
AcDbEntity
  8
想像線
100
AcDbLine
 10
261.3307822043239
 20
231.6093368994811
 30
0.0
 11
260.3370273875936
 21
227.637485504044
 31
0.0
  0
LINE
  5
3C05
330
1F
100
AcDbEntity
  8
想像線
100
AcDbLine
 10
260.3370273875936
 20
227.637485504044
 30
0.0
 11
259.3432725708631
 21
231.8575781139923
 31
0.0
  0
LINE
  5
3C06
330
1F
100
AcDbEntity
  8
想像線
100
AcDbLine
 10
259.3432725708631
 20
231.8575781139923
 30
0.0
 11
256.6104473292767
 21
226.6445223681583
 31
0.0
  0
LINE
  5
3C07
330
1F
100
AcDbEntity
  8
想像線
100
AcDbLine
 10
256.6104473292767
 20
226.6445223681583
 30
0.0
 11
256.3620091295168
 21
314.7699835999427
 31
0.0
  0
TEXT
  5
3C08
330
1F
100
AcDbEntity
  8
文字
100
AcDbText
 10
274.4260111683447
 20
235.387538663855
 30
0.0
 40
4.799999999999999
  1
波板
 51
15.0
  7
OKANO
100
AcDbText
  0
LEADER
  5
3C09
330
1F
100
AcDbEntity
  8
寸法線
100
AcDbLeader
  3
sunpo
 76
     3
 10
260.1782422272961
 20
247.0818008468537
 30
0.0
 10
273.4051157912666
 20
238.8215904500725
 30
0.0
 10
273.7357879834616
 20
239.8128153532544
 30
0.0
1001
ACAD
1000
DSTYLE
1002
{
1070
   147
1040
1.0
1070
    77
1070
     0
1002
}
  0
LEADER
  5
3C0A
330
1F
100
AcDbEntity
  8
寸法線
100
AcDbLeader
  3
sunpo
 76
     2
 10
123.941443307787
 20
248.7338429262099
 30
0.0
 10
145.7657847892227
 20
233.5350559109432
 30
0.0
1001
ACAD
1000
DSTYLE
1002
{
1070
   147
1040
1.0
1070
    77
1070
     0
1002
}
  0
TEXT
  5
3C0B
330
1F
100
AcDbEntity
  8
文字
100
AcDbText
 10
144.7652874605701
 20
228.1164578765407
 30
0.0
 40
4.799999999999999
  1
波板
 51
15.0
  7
OKANO
100
AcDbText
  0
LEADER
  5
3C0C
330
1F
100
AcDbEntity
  8
寸法線
100
AcDbLeader
  3
sunpo
 76
     2
 10
290.4121179037878
 20
296.156390791476
 30
0.0
 10
309.2228463161931
 20
276.1609196309545
 30
0.0
1001
ACAD
1000
DSTYLE
1002
{
1070
   147
1040
1.0
1070
    77
1070
     0
1002
}
  0
TEXT
  5
3C0D
330
1F
100
AcDbEntity
  8
文字
100
AcDbText
 10
308.8169986209109
 20
269.9722701574011
 30
0.0
 40
4.799999999999999
  1
Ｍ-6
 51
15.0
  7
OKANO
100
AcDbText
  0
LEADER
  5
3C12
330
1F
100
AcDbEntity
  8
寸法線
100
AcDbLeader
  3
sunpo
 76
     2
 10
280.8304620478846
 20
310.5599306041815
 30
0.0
 10
298.0452368221407
 20
324.1607702832841
 30
0.0
1001
ACAD
1000
DSTYLE
1002
{
1070
   147
1040
1.0
1070
    77
1070
     0
1002
}
  0
TEXT
  5
3C13
330
1F
100
AcDbEntity
  8
文字
100
AcDbText
 10
294.0020918618447
 20
328.3833671970832
 30
0.0
 40
4.799999999999999
  1
曲がりワシャー
 51
15.0
  7
OKANO
100
AcDbText
  0
LEADER
  5
3C14
330
1F
100
AcDbEntity
  8
寸法線
100
AcDbLeader
  3
sunpo
 76
     2
 10
287.199932840536
 20
306.5139436987341
 30
0.0
 10
305.9634725223564
 20
319.6081987628423
 30
0.0
1001
ACAD
1000
DSTYLE
1002
{
1070
   147
1040
1.0
1070
    77
1070
     0
1002
}
  0
TEXT
  5
3C15
330
1F
100
AcDbEntity
  8
文字
100
AcDbText
 10
307.1884824887567
 20
318.674929968167
 30
0.0
 40
4.799999999999999
  1
10ｍｍ六角Ｗ付ナット
 51
15.0
  7
OKANO
100
AcDbText
  0
ARC
  5
3C1E
330
1F
100
AcDbEntity
  8
太線
100
AcDbCircle
 10
113.5800433693678
 20
300.2638233550321
 30
0.0
 40
25.99999999999994
100
AcDbArc
 50
337.3801350519594
 51
22.61986494804053
  0
ARC
  5
3C1F
330
1F
100
AcDbEntity
  8
太線
100
AcDbCircle
 10
114.0800433693678
 20
300.2638233550321
 30
0.0
 40
25.99999999999994
100
AcDbArc
 50
337.3801350519594
 51
22.61986494804053
  0
LINE
  5
3C20
330
1F
100
AcDbEntity
  8
太線
100
AcDbLine
 10
138.0800433693677
 20
290.2638233550321
 30
0.0
 11
137.5800433693677
 21
290.2638233550321
 31
0.0
  0
LINE
  5
3C21
330
1F
100
AcDbEntity
  8
太線
100
AcDbLine
 10
138.0800433693677
 20
310.2638233550321
 30
0.0
 11
137.5800433693677
 21
310.2638233550321
 31
0.0
  0
TEXT
  5
3C2C
330
1F
100
AcDbEntity
  8
文字
100
AcDbText
 10
183.0826733490773
 20
206.0987946376692
 30
0.0
 40
4.799999999999999
  1
Rは、7-1Ｓ-Ｂ　9-1Ｚ-ＢのU字ボルトと同じ
 51
15.0
  7
OKANO
100
AcDbText
  0
LEADER
  5
3C2D
330
1F
100
AcDbEntity
  8
寸法線
100
AcDbLeader
  3
sunpo
 76
     2
 10
206.3360666940198
 20
266.5367993208677
 30
0.0
 10
188.9978570000917
 20
213.1776547453034
 30
0.0
1001
ACAD
1000
DSTYLE
1002
{
1070
   147
1040
1.0
1070
    77
1070
     0
1002
}
  0
XLINE
  5
3C36
330
1F
100
AcDbEntity
  8
構築線
100
AcDbXline
 10
233.1955054425005
 20
272.3116988020076
 30
0.0
 11
0.0
 21
-1.0
 31
0.0
  0
XLINE
  5
3C37
330
1F
100
AcDbEntity
  8
構築線
100
AcDbXline
 10
233.1955054425005
 20
272.3116988020076
 30
0.0
 11
1.0
 21
0.0
 31
0.0
  0
VIEWPORT
  5
2E
330
1B
100
AcDbEntity
 67
     1
  8
0
100
AcDbViewport
 10
234.4913694900864
 20
114.0667812823735
 30
0.0
 40
572.3148774834024
 41
290.6804751812433
 68
     2
 69
     1
 12
234.4913694900864
 22
114.0667812823735
 13
0.0
 23
0.0
 14
10.0
 24
10.0
 15
10.0
 25
10.0
 16
0.0
 26
0.0
 36
1.0
 17
0.0
 27
0.0
 37
0.0
 42
50.0
 43
0.0
 44
0.0
 45
290.6804751812433
 50
0.0
 51
0.0
 72
   100
 90
    32800
  1

281
     0
 71
     1
 74
     0
110
0.0
120
0.0
130
0.0
111
1.0
121
0.0
131
0.0
112
0.0
122
1.0
132
0.0
 79
     0
146
0.0
  0
VIEWPORT
  5
30
330
1B
100
AcDbEntity
 67
     1
  8
70-0-CON
100
AcDbViewport
 10
141.8594093064315
 20
100.3480256368386
 30
0.0
 40
261.6199023344245
 41
192.6196987113174
 68
     1
 69
     2
 12
225.9845585505338
 22
279.9545555645621
 13
0.0
 23
0.0
 14
5.0
 24
5.0
 15
10.0
 25
10.0
 16
0.0
 26
0.0
 36
1.0
 17
0.0
 27
0.0
 37
0.0
 42
50.0
 43
0.0
 44
0.0
 45
294.1600602227043
 50
0.0
 51
0.0
 72
   100
 90
    32864
  1

281
     0
 71
     1
 74
     0
110
0.0
120
0.0
130
0.0
111
1.0
121
0.0
131
0.0
112
0.0
122
1.0
132
0.0
 79
     0
146
0.0
  0
LWPOLYLINE
  5
45
330
1B
100
AcDbEntity
 67
     1
  8
50-0-CON
100
AcDbPolyline
 90
        4
 70
     1
 43
0.0
 10
11.04945813921926
 20
4.038176281179858
 10
272.2125713060605
 20
4.033520706629644
 10
273.4987754093466
 20
195.9297862125246
 10
11.04945813921926
 20
196.6578749924973
  0
LINE
  5
4A
330
1B
100
AcDbEntity
 67
     1
  8
50-0-CON
100
AcDbLine
 10
10.38768783662635
 20
100.3480256368386
 30
0.0
 11
-4.391850629656119
 21
100.3480256368386
 31
0.0
  0
LINE
  5
4B
330
1B
100
AcDbEntity
 67
     1
  8
50-0-CON
100
AcDbLine
 10
141.8594093064315
 20
197.098652626247
 30
0.0
 11
141.8594093064315
 21
202.387980773708
 31
0.0
  0
LINE
  5
4C
330
1B
100
AcDbEntity
 67
     1
  8
50-0-CON
100
AcDbLine
 10
272.4487699456857
 20
100.7888032705883
 30
0.0
 11
278.8458837249377
 21
100.7888032705883
 31
0.0
  0
LINE
  5
4D
330
1B
100
AcDbEntity
 67
     1
  8
50-0-CON
100
AcDbLine
 10
140.9770484758805
 20
4.038176281179858
 30
0.0
 11
140.9770484758805
 21
-3.455038652015446
 31
0.0
  0
ENDSEC
  0
SECTION
  2
OBJECTS
  0
DICTIONARY
  5
C
330
0
100
AcDbDictionary
281
     1
  3
ACAD_GROUP
350
D
  3
ACAD_LAYOUT
350
1A
  3
ACAD_MLINESTYLE
350
17
  3
ACAD_PLOTSETTINGS
350
19
  3
ACAD_PLOTSTYLENAME
350
E
  3
AcadDim
350
3C11
  3
AcDbVariableDictionary
350
6AD
  3
DWGPROPS
350
30F
  0
DICTIONARY
  5
D
102
{ACAD_REACTORS
330
C
102
}
330
C
100
AcDbDictionary
281
     1
  0
DICTIONARY
  5
1A
102
{ACAD_REACTORS
330
C
102
}
330
C
100
AcDbDictionary
281
     1
  3
A4
350
1E
  3
Model
350
22
  0
DICTIONARY
  5
17
102
{ACAD_REACTORS
330
C
102
}
330
C
100
AcDbDictionary
281
     1
  3
Standard
350
18
  0
DICTIONARY
  5
19
102
{ACAD_REACTORS
330
C
102
}
330
C
100
AcDbDictionary
281
     1
  0
ACDBDICTIONARYWDFLT
  5
E
102
{ACAD_REACTORS
330
C
102
}
330
C
100
AcDbDictionary
281
     1
  3
Normal
350
F
100
AcDbDictionaryWithDefault
340
F
  0
XRECORD
  5
3C11
102
{ACAD_REACTORS
330
C
102
}
330
C
100
AcDbXrecord
280
     1
 90
   990106
  3

 60
     0
 61
     0
 62
     1
 63
     3
 64
     0
 65
     0
 66
     0
 67
     3
 68
     1
 69
     0
 70
     0
 71
     0
 72
     0
 40
0.4902034846934475
170
     0
  0
DICTIONARY
  5
6AD
102
{ACAD_REACTORS
330
C
102
}
330
C
100
AcDbDictionary
281
     1
  3
SORTENTS
350
6AE
  0
XRECORD
  5
30F
102
{ACAD_REACTORS
330
C
102
}
330
C
100
AcDbXrecord
280
     1
  1
DWGPROPS COOKIE
  2

  3

  4

  6

  7

  8

  9

300
=
301
=
302
=
303
=
304
=
305
=
306
=
307
=
308
=
309
=
 40
0.3303803125
 41
2452362.482225463
 42
2452370.969861285
  1

 90
        0
  0
LAYOUT
  5
1E
102
{ACAD_REACTORS
330
1A
102
}
330
1A
100
AcDbPlotSettings
  1

  2
EPSON PM-920C
  4
A4
  6

 40
3.757083177566528
 41
14.7637300491333
 42
3.757080078125
 43
3.757080078125
 44
209.9733276367187
 45
296.9683227539062
 46
0.0
 47
0.0
 48
0.0
 49
0.0
140
0.0
141
0.0
142
1.0
143
1.0
 70
   688
 72
     1
 73
     1
 74
     5
  7
joint.ctb
 75
    16
147
1.0
148
0.0
149
0.0
100
AcDbLayout
  1
A4
 70
     1
 71
     1
 10
-3.757080078125
 20
-3.757083177566528
 11
293.2112426757812
 21
206.2162444591522
 12
0.0
 22
0.0
 32
0.0
 14
-4.391850629656119
 24
-3.455038652015446
 34
0.0
 15
278.8458837249377
 25
202.387980773708
 35
0.0
146
0.0
 13
0.0
 23
0.0
 33
0.0
 16
1.0
 26
0.0
 36
0.0
 17
0.0
 27
1.0
 37
0.0
 76
     0
330
1B
331
30
  0
LAYOUT
  5
22
102
{ACAD_REACTORS
330
1A
102
}
330
1A
100
AcDbPlotSettings
  1

  2
EPSON PM-920C
  4
A4
  6

 40
3.757083177566528
 41
14.7637300491333
 42
3.757080078125
 43
3.757080078125
 44
209.9733276367187
 45
296.9683227539062
 46
0.0
 47
0.0
 48
0.0
 49
0.0
140
0.0
141
0.0
142
1.0
143
1.0
 70
 11952
 72
     1
 73
     1
 74
     0
  7

 75
     0
147
1.0
148
-45.64199848979289
149
-84.48806419330498
100
AcDbLayout
  1
Model
 70
     1
 71
     0
 10
0.0
 20
0.0
 11
12.0
 21
9.0
 12
0.0
 22
0.0
 32
0.0
 14
0.0
 24
0.0
 34
0.0
 15
0.0
 25
0.0
 35
0.0
146
0.0
 13
0.0
 23
0.0
 33
0.0
 16
1.0
 26
0.0
 36
0.0
 17
0.0
 27
1.0
 37
0.0
 76
     0
330
1F
  0
MLINESTYLE
  5
18
102
{ACAD_REACTORS
330
17
102
}
330
17
100
AcDbMlineStyle
  2
STANDARD
 70
     0
  3

 62
   256
 51
90.0
 52
90.0
 71
     2
 49
0.5
 62
   256
  6
BYLAYER
 49
-0.5
 62
   256
  6
BYLAYER
  0
ACDBPLACEHOLDER
  5
F
102
{ACAD_REACTORS
330
E
102
}
330
E
  0
DICTIONARYVAR
  5
6AE
102
{ACAD_REACTORS
330
6AD
102
}
330
6AD
100
DictionaryVariables
280
     0
  1
96
  0
ENDSEC
  0
EOF
