  0
SECTION
  2
HEADER
  9
$ACADVER
  1
AC1015
  9
$ACADMAINTVER
 70
     6
  9
$DWGCODEPAGE
  3
ANSI_932
  9
$INSBASE
 10
0.0
 20
0.0
 30
0.0
  9
$EXTMIN
 10
-8.81118740281388
 20
42.13855773025279
 30
0.0
  9
$EXTMAX
 10
207.5531955616331
 20
182.5898093871457
 30
0.0
  9
$LIMMIN
 10
0.0
 20
0.0
  9
$LIMMAX
 10
420.0
 20
297.0
  9
$ORTHOMODE
 70
     0
  9
$REGENMODE
 70
     1
  9
$FILLMODE
 70
     1
  9
$QTEXTMODE
 70
     0
  9
$MIRRTEXT
 70
     1
  9
$LTSCALE
 40
1.0
  9
$ATTMODE
 70
     1
  9
$TEXTSIZE
 40
2.0
  9
$TRACEWID
 40
1.0
  9
$TEXTSTYLE
  7
OKANO
  9
$CLAYER
  8
構築線
  9
$CELTYPE
  6
ByLayer
  9
$CECOLOR
 62
   256
  9
$CELTSCALE
 40
1.0
  9
$DISPSILH
 70
     0
  9
$DIMSCALE
 40
0.0
  9
$DIMASZ
 40
3.0
  9
$DIMEXO
 40
2.0
  9
$DIMDLI
 40
8.0
  9
$DIMRND
 40
0.0
  9
$DIMDLE
 40
0.0
  9
$DIMEXE
 40
3.0
  9
$DIMTP
 40
0.0
  9
$DIMTM
 40
0.0
  9
$DIMTXT
 40
5.0
  9
$DIMCEN
 40
2.5
  9
$DIMTSZ
 40
0.0
  9
$DIMTOL
 70
     0
  9
$DIMLIM
 70
     0
  9
$DIMTIH
 70
     0
  9
$DIMTOH
 70
     0
  9
$DIMSE1
 70
     0
  9
$DIMSE2
 70
     0
  9
$DIMTAD
 70
     1
  9
$DIMZIN
 70
     8
  9
$DIMBLK
  1
Closed
  9
$DIMASO
 70
     1
  9
$DIMSHO
 70
     1
  9
$DIMPOST
  1

  9
$DIMAPOST
  1

  9
$DIMALT
 70
     0
  9
$DIMALTD
 70
     3
  9
$DIMALTF
 40
0.03937007874016
  9
$DIMLFAC
 40
1.0
  9
$DIMTOFL
 70
     1
  9
$DIMTVP
 40
0.0
  9
$DIMTIX
 70
     0
  9
$DIMSOXD
 70
     0
  9
$DIMSAH
 70
     0
  9
$DIMBLK1
  1

  9
$DIMBLK2
  1

  9
$DIMSTYLE
  2
sunpo
  9
$DIMCLRD
 70
     0
  9
$DIMCLRE
 70
     0
  9
$DIMCLRT
 70
     0
  9
$DIMTFAC
 40
1.0
  9
$DIMGAP
 40
1.0
  9
$DIMJUST
 70
     0
  9
$DIMSD1
 70
     0
  9
$DIMSD2
 70
     0
  9
$DIMTOLJ
 70
     0
  9
$DIMTZIN
 70
     8
  9
$DIMALTZ
 70
     0
  9
$DIMALTTZ
 70
     0
  9
$DIMUPT
 70
     0
  9
$DIMDEC
 70
     2
  9
$DIMTDEC
 70
     2
  9
$DIMALTU
 70
     2
  9
$DIMALTTD
 70
     3
  9
$DIMTXSTY
  7
OKANO
  9
$DIMAUNIT
 70
     0
  9
$DIMADEC
 70
     0
  9
$DIMALTRND
 40
0.0
  9
$DIMAZIN
 70
     0
  9
$DIMDSEP
 70
    46
  9
$DIMATFIT
 70
     3
  9
$DIMFRAC
 70
     0
  9
$DIMLDRBLK
  1
Closed
  9
$DIMLUNIT
 70
     2
  9
$DIMLWD
 70
    -2
  9
$DIMLWE
 70
    -2
  9
$DIMTMOVE
 70
     0
  9
$LUNITS
 70
     2
  9
$LUPREC
 70
     2
  9
$SKETCHINC
 40
1.0
  9
$FILLETRAD
 40
0.5
  9
$AUNITS
 70
     0
  9
$AUPREC
 70
     0
  9
$MENU
  1
.
  9
$ELEVATION
 40
0.0
  9
$PELEVATION
 40
0.0
  9
$THICKNESS
 40
0.0
  9
$LIMCHECK
 70
     0
  9
$CHAMFERA
 40
10.0
  9
$CHAMFERB
 40
10.0
  9
$CHAMFERC
 40
20.0
  9
$CHAMFERD
 40
0.0
  9
$SKPOLY
 70
     0
  9
$TDCREATE
 40
2452362.482225463
  9
$TDUCREATE
 40
2452362.107225463
  9
$TDUPDATE
 40
2455957.665402303
  9
$TDUUPDATE
 40
2455957.290402303
  9
$TDINDWG
 40
1.9910434144
  9
$TDUSRTIMER
 40
1.9910434144
  9
$USRTIMER
 70
     1
  9
$ANGBASE
 50
0.0
  9
$ANGDIR
 70
     0
  9
$PDMODE
 70
     0
  9
$PDSIZE
 40
0.0
  9
$PLINEWID
 40
0.0
  9
$SPLFRAME
 70
     0
  9
$SPLINETYPE
 70
     6
  9
$SPLINESEGS
 70
     8
  9
$HANDSEED
  5
1FE9
  9
$SURFTAB1
 70
     6
  9
$SURFTAB2
 70
     6
  9
$SURFTYPE
 70
     6
  9
$SURFU
 70
     6
  9
$SURFV
 70
     6
  9
$UCSBASE
  2

  9
$UCSNAME
  2

  9
$UCSORG
 10
0.0
 20
0.0
 30
0.0
  9
$UCSXDIR
 10
1.0
 20
0.0
 30
0.0
  9
$UCSYDIR
 10
0.0
 20
1.0
 30
0.0
  9
$UCSORTHOREF
  2

  9
$UCSORTHOVIEW
 70
     0
  9
$UCSORGTOP
 10
0.0
 20
0.0
 30
0.0
  9
$UCSORGBOTTOM
 10
0.0
 20
0.0
 30
0.0
  9
$UCSORGLEFT
 10
0.0
 20
0.0
 30
0.0
  9
$UCSORGRIGHT
 10
0.0
 20
0.0
 30
0.0
  9
$UCSORGFRONT
 10
0.0
 20
0.0
 30
0.0
  9
$UCSORGBACK
 10
0.0
 20
0.0
 30
0.0
  9
$PUCSBASE
  2

  9
$PUCSNAME
  2

  9
$PUCSORG
 10
0.0
 20
0.0
 30
0.0
  9
$PUCSXDIR
 10
1.0
 20
0.0
 30
0.0
  9
$PUCSYDIR
 10
0.0
 20
1.0
 30
0.0
  9
$PUCSORTHOREF
  2

  9
$PUCSORTHOVIEW
 70
     0
  9
$PUCSORGTOP
 10
0.0
 20
0.0
 30
0.0
  9
$PUCSORGBOTTOM
 10
0.0
 20
0.0
 30
0.0
  9
$PUCSORGLEFT
 10
0.0
 20
0.0
 30
0.0
  9
$PUCSORGRIGHT
 10
0.0
 20
0.0
 30
0.0
  9
$PUCSORGFRONT
 10
0.0
 20
0.0
 30
0.0
  9
$PUCSORGBACK
 10
0.0
 20
0.0
 30
0.0
  9
$USERI1
 70
     0
  9
$USERI2
 70
     0
  9
$USERI3
 70
     0
  9
$USERI4
 70
     0
  9
$USERI5
 70
     0
  9
$USERR1
 40
0.0
  9
$USERR2
 40
0.0
  9
$USERR3
 40
0.0
  9
$USERR4
 40
0.0
  9
$USERR5
 40
0.0
  9
$WORLDVIEW
 70
     1
  9
$SHADEDGE
 70
     3
  9
$SHADEDIF
 70
    70
  9
$TILEMODE
 70
     0
  9
$MAXACTVP
 70
    64
  9
$PINSBASE
 10
0.0
 20
0.0
 30
0.0
  9
$PLIMCHECK
 70
     0
  9
$PEXTMIN
 10
-4.391850629656119
 20
-3.455038652015446
 30
0.0
  9
$PEXTMAX
 10
278.8458837249377
 20
202.387980773708
 30
0.0
  9
$PLIMMIN
 10
-3.757080078125
 20
-3.757083177566528
  9
$PLIMMAX
 10
293.2112426757812
 20
206.2162444591522
  9
$UNITMODE
 70
     0
  9
$VISRETAIN
 70
     1
  9
$PLINEGEN
 70
     0
  9
$PSLTSCALE
 70
     1
  9
$TREEDEPTH
 70
  3020
  9
$CMLSTYLE
  2
Standard
  9
$CMLJUST
 70
     0
  9
$CMLSCALE
 40
20.0
  9
$PROXYGRAPHICS
 70
     1
  9
$MEASUREMENT
 70
     1
  9
$CELWEIGHT
370
    -1
  9
$ENDCAPS
280
     0
  9
$JOINSTYLE
280
     0
  9
$LWDISPLAY
290
     0
  9
$INSUNITS
 70
     4
  9
$HYPERLINKBASE
  1

  9
$STYLESHEET
  1

  9
$XEDIT
290
     1
  9
$CEPSNTYPE
380
     0
  9
$PSTYLEMODE
290
     1
  9
$FINGERPRINTGUID
  2
{FF7F33C3-4233-11D6-AEE0-0000F45FD7F4}
  9
$VERSIONGUID
  2
{8D15E22F-CECC-4926-AA31-926F3D0945F1}
  9
$EXTNAMES
290
     1
  9
$PSVPSCALE
 40
0.0
  9
$OLESTARTUP
290
     0
  0
ENDSEC
  0
SECTION
  2
CLASSES
  0
CLASS
  1
ACDBDICTIONARYWDFLT
  2
AcDbDictionaryWithDefault
  3
AutoCAD 2000
 90
        0
280
     0
281
     0
  0
CLASS
  1
ACDBPLACEHOLDER
  2
AcDbPlaceHolder
  3
AutoCAD 2000
 90
        0
280
     0
281
     0
  0
CLASS
  1
LAYOUT
  2
AcDbLayout
  3
AutoCAD 2000
 90
        0
280
     0
281
     0
  0
CLASS
  1
DICTIONARYVAR
  2
AcDbDictionaryVar
  3
AutoCAD 2000
 90
        0
280
     0
281
     0
  0
ENDSEC
  0
SECTION
  2
TABLES
  0
TABLE
  2
VPORT
  5
8
330
0
100
AcDbSymbolTable
 70
     3
  0
VPORT
  5
1FE8
330
8
100
AcDbSymbolTableRecord
100
AcDbViewportTableRecord
  2
*Active
 70
     0
 10
0.0
 20
0.0
 11
1.0
 21
1.0
 12
130.3373063478998
 22
88.04348815267662
 13
0.0
 23
0.0
 14
5.0
 24
5.0
 15
10.0
 25
10.0
 16
0.0
 26
0.0
 36
1.0
 17
0.0
 27
0.0
 37
0.0
 40
212.8056145289065
 41
1.968879668049792
 42
50.0
 43
0.0
 44
0.0
 50
0.0
 51
0.0
 71
     0
 72
   100
 73
     1
 74
     3
 75
     0
 76
     0
 77
     0
 78
     0
281
     0
 65
     1
110
0.0
120
0.0
130
0.0
111
1.0
121
0.0
131
0.0
112
0.0
122
1.0
132
0.0
 79
     0
146
0.0
  0
ENDTAB
  0
TABLE
  2
LTYPE
  5
5
330
0
100
AcDbSymbolTable
 70
     5
  0
LTYPE
  5
14
330
5
100
AcDbSymbolTableRecord
100
AcDbLinetypeTableRecord
  2
ByBlock
 70
     0
  3

 72
    65
 73
     0
 40
0.0
  0
LTYPE
  5
15
330
5
100
AcDbSymbolTableRecord
100
AcDbLinetypeTableRecord
  2
ByLayer
 70
     0
  3

 72
    65
 73
     0
 40
0.0
  0
LTYPE
  5
16
330
5
100
AcDbSymbolTableRecord
100
AcDbLinetypeTableRecord
  2
Continuous
 70
     0
  3
Solid line
 72
    65
 73
     0
 40
0.0
  0
LTYPE
  5
33
330
5
100
AcDbSymbolTableRecord
100
AcDbLinetypeTableRecord
  2
DASHED2
 70
     0
  3
Dashed (.5x) _ _ _ _ _ _ _ _ _ _ _ _ _ _ _ _ _
 72
    65
 73
     2
 40
9.524999999999998
 49
6.349999999999999
 74
     0
 49
-3.174999999999999
 74
     0
  0
LTYPE
  5
34
330
5
100
AcDbSymbolTableRecord
100
AcDbLinetypeTableRecord
  2
CENTER2
 70
     0
  3
Center (.5x) ___ _ ___ _ ___ _ ___ _ ___ _ ___
 72
    65
 73
     4
 40
28.57499999999999
 49
19.05
 74
     0
 49
-3.174999999999999
 74
     0
 49
3.174999999999999
 74
     0
 49
-3.174999999999999
 74
     0
  0
LTYPE
  5
35
330
5
100
AcDbSymbolTableRecord
100
AcDbLinetypeTableRecord
  2
PHANTOM2
 70
     0
  3
Phantom (.5x) ___ _ _ ___ _ _ ___ _ _ ___ _ _
 72
    65
 73
     6
 40
31.75
 49
15.875
 74
     0
 49
-3.174999999999999
 74
     0
 49
3.174999999999999
 74
     0
 49
-3.174999999999999
 74
     0
 49
3.174999999999999
 74
     0
 49
-3.174999999999999
 74
     0
  0
LTYPE
  5
36
330
5
100
AcDbSymbolTableRecord
100
AcDbLinetypeTableRecord
  2
HIDDEN2
 70
     0
  3
Hidden (.5x) _ _ _ _ _ _ _ _ _ _ _ _ _ _ _ _ _
 72
    65
 73
     2
 40
4.762499999999999
 49
3.174999999999999
 74
     0
 49
-1.587499999999999
 74
     0
  0
ENDTAB
  0
TABLE
  2
LAYER
  5
2
330
0
100
AcDbSymbolTable
 70
    13
  0
LAYER
  5
10
330
2
100
AcDbSymbolTableRecord
100
AcDbLayerTableRecord
  2
0
 70
     0
 62
     7
  6
Continuous
370
    -3
390
F
  0
LAYER
  5
40
330
2
100
AcDbSymbolTableRecord
100
AcDbLayerTableRecord
  2
50-0-CON
 70
     0
 62
     4
  6
Continuous
370
    50
390
F
  0
LAYER
  5
41
330
2
100
AcDbSymbolTableRecord
100
AcDbLayerTableRecord
  2
70-0-CON
 70
     0
 62
   202
  6
Continuous
370
    70
390
F
  0
LAYER
  5
4E
330
2
100
AcDbSymbolTableRecord
100
AcDbLayerTableRecord
  2
極太線
 70
     0
 62
     7
  6
Continuous
370
    70
390
F
  0
LAYER
  5
4F
330
2
100
AcDbSymbolTableRecord
100
AcDbLayerTableRecord
  2
細線
 70
     0
 62
     8
  6
Continuous
370
    18
390
F
  0
LAYER
  5
AB
330
2
100
AcDbSymbolTableRecord
100
AcDbLayerTableRecord
  2
構築線
 70
     0
 62
     2
  6
Continuous
290
     0
370
    18
390
F
  0
LAYER
  5
B8
330
2
100
AcDbSymbolTableRecord
100
AcDbLayerTableRecord
  2
太線
 70
     0
 62
     7
  6
Continuous
370
    35
390
F
  0
LAYER
  5
B9
330
2
100
AcDbSymbolTableRecord
100
AcDbLayerTableRecord
  2
寸法線
 70
     0
 62
     5
  6
Continuous
370
    18
390
F
  0
LAYER
  5
BA
330
2
100
AcDbSymbolTableRecord
100
AcDbLayerTableRecord
  2
破線
 70
     0
 62
     8
  6
HIDDEN2
370
    18
390
F
  0
LAYER
  5
BB
330
2
100
AcDbSymbolTableRecord
100
AcDbLayerTableRecord
  2
中心線
 70
     0
 62
     1
  6
CENTER2
370
    18
390
F
  0
LAYER
  5
BC
330
2
100
AcDbSymbolTableRecord
100
AcDbLayerTableRecord
  2
想像線
 70
     0
 62
     8
  6
PHANTOM2
370
    18
390
F
  0
LAYER
  5
BD
330
2
100
AcDbSymbolTableRecord
100
AcDbLayerTableRecord
  2
文字
 70
     0
 62
     7
  6
Continuous
370
    18
390
F
  0
LAYER
  5
180
330
2
100
AcDbSymbolTableRecord
100
AcDbLayerTableRecord
  2
Defpoints
 70
     0
 62
     7
  6
Continuous
290
     0
370
    -3
390
F
  0
ENDTAB
  0
TABLE
  2
STYLE
  5
3
330
0
100
AcDbSymbolTable
 70
     3
  0
STYLE
  5
11
330
3
100
AcDbSymbolTableRecord
100
AcDbTextStyleTableRecord
  2
Standard
 70
     0
 40
0.0
 41
1.0
 50
0.0
 71
     0
 42
3.0
  3
txt
  4

  0
STYLE
  5
32
330
3
100
AcDbSymbolTableRecord
100
AcDbTextStyleTableRecord
  2

 70
     1
 40
0.0
 41
1.0
 50
0.0
 71
     0
 42
2.5
  3
ltypeshp.shx
  4

  0
STYLE
  5
50
330
3
100
AcDbSymbolTableRecord
100
AcDbTextStyleTableRecord
  2
OKANO
 70
     0
 40
0.0
 41
1.0
 50
15.0
 71
     0
 42
2.0
  3
isocp.shx
  4
bigfont.shx
  0
ENDTAB
  0
TABLE
  2
VIEW
  5
6
330
0
100
AcDbSymbolTable
 70
     0
  0
ENDTAB
  0
TABLE
  2
UCS
  5
7
330
0
100
AcDbSymbolTable
 70
     0
  0
ENDTAB
  0
TABLE
  2
APPID
  5
9
330
0
100
AcDbSymbolTable
 70
     1
  0
APPID
  5
12
330
9
100
AcDbSymbolTableRecord
100
AcDbRegAppTableRecord
  2
ACAD
 70
     0
  0
ENDTAB
  0
TABLE
  2
DIMSTYLE
  5
A
330
0
100
AcDbSymbolTable
 70
     2
100
AcDbDimStyleTable
 71
     2
340
A2
340
27
  0
DIMSTYLE
105
27
330
A
100
AcDbSymbolTableRecord
100
AcDbDimStyleTableRecord
  2
ISO-25
 70
     0
 41
2.5
 42
0.625
 43
3.75
 44
1.25
 73
     0
 74
     0
 77
     1
 78
     8
140
2.5
141
2.5
143
0.03937007874016
147
0.625
171
     3
172
     1
271
     2
272
     2
274
     3
283
     0
284
     8
340
11
  0
DIMSTYLE
105
A2
102
{ACAD_REACTORS
330
1B51
330
1C50
330
1EC5
330
1F12
330
1EC7
102
}
330
A
100
AcDbSymbolTableRecord
100
AcDbDimStyleTableRecord
  2
sunpo
 70
     0
 40
0.0
 41
3.0
 42
2.0
 43
8.0
 44
3.0
 73
     0
 74
     0
 77
     1
 78
     8
140
5.0
141
2.5
143
0.03937007874016
147
1.0
171
     3
172
     1
271
     2
272
     2
274
     3
283
     0
284
     8
340
50
341
9B
342
9B
  0
ENDTAB
  0
TABLE
  2
BLOCK_RECORD
  5
1
330
0
100
AcDbSymbolTable
 70
     6
  0
BLOCK_RECORD
  5
1F
330
1
100
AcDbSymbolTableRecord
100
AcDbBlockTableRecord
  2
*Model_Space
340
22
  0
BLOCK_RECORD
  5
1B
330
1
100
AcDbSymbolTableRecord
100
AcDbBlockTableRecord
  2
*Paper_Space
340
1E
  0
BLOCK_RECORD
  5
9B
330
1
100
AcDbSymbolTableRecord
100
AcDbBlockTableRecord
  2
_Closed
340
0
102
{BLKREFS
331
1F68
331
1F82
331
1F83
331
1F8B
331
1F8C
331
1F9C
331
1F9D
331
1FBA
331
1FBB
102
}
  0
BLOCK_RECORD
  5
1B52
330
1
100
AcDbSymbolTableRecord
100
AcDbBlockTableRecord
  2
*D1
340
0
  0
BLOCK_RECORD
  5
1C51
330
1
100
AcDbSymbolTableRecord
100
AcDbBlockTableRecord
  2
*D2
340
0
  0
BLOCK_RECORD
  5
1F22
330
1
100
AcDbSymbolTableRecord
100
AcDbBlockTableRecord
  2
*D3
340
0
  0
BLOCK_RECORD
  5
1F2E
330
1
100
AcDbSymbolTableRecord
100
AcDbBlockTableRecord
  2
*D4
340
0
  0
BLOCK_RECORD
  5
1F3A
330
1
100
AcDbSymbolTableRecord
100
AcDbBlockTableRecord
  2
*D5
340
0
  0
ENDTAB
  0
ENDSEC
  0
SECTION
  2
BLOCKS
  0
BLOCK
  5
20
330
1F
100
AcDbEntity
  8
0
100
AcDbBlockBegin
  2
*Model_Space
 70
     0
 10
0.0
 20
0.0
 30
0.0
  3
*Model_Space
  1

  0
ENDBLK
  5
21
330
1F
100
AcDbEntity
  8
0
100
AcDbBlockEnd
  0
BLOCK
  5
1C
330
1B
100
AcDbEntity
 67
     1
  8
0
100
AcDbBlockBegin
  2
*Paper_Space
 70
     0
 10
0.0
 20
0.0
 30
0.0
  3
*Paper_Space
  1

  0
ENDBLK
  5
1D
330
1B
100
AcDbEntity
 67
     1
  8
0
100
AcDbBlockEnd
  0
BLOCK
  5
A0
330
9B
100
AcDbEntity
  8
0
100
AcDbBlockBegin
  2
_Closed
 70
     0
 10
0.0
 20
0.0
 30
0.0
  3
_Closed
  1

  0
LINE
  5
9C
330
9B
100
AcDbEntity
  8
0
 62
     0
370
    -2
100
AcDbLine
 10
-1.0
 20
0.1666666666666666
 30
0.0
 11
0.0
 21
0.0
 31
0.0
  0
LINE
  5
9D
330
9B
100
AcDbEntity
  8
0
 62
     0
370
    -2
100
AcDbLine
 10
0.0
 20
0.0
 30
0.0
 11
-1.0
 21
-0.1666666666666666
 31
0.0
  0
LINE
  5
9E
330
9B
100
AcDbEntity
  8
0
 62
     0
370
    -2
100
AcDbLine
 10
-1.0
 20
0.1666666666666666
 30
0.0
 11
-1.0
 21
-0.1666666666666666
 31
0.0
  0
LINE
  5
9F
330
9B
100
AcDbEntity
  8
0
 62
     0
370
    -2
100
AcDbLine
 10
0.0
 20
0.0
 30
0.0
 11
-1.0
 21
0.0
 31
0.0
  0
ENDBLK
  5
A1
330
9B
100
AcDbEntity
  8
0
100
AcDbBlockEnd
  0
BLOCK
  5
1B5C
330
1B52
100
AcDbEntity
  8
0
100
AcDbBlockBegin
  2
*D1
 70
     1
 10
0.0
 20
0.0
 30
0.0
  3
*D1
  1

  0
LINE
  5
1FB7
330
1B52
100
AcDbEntity
  8
寸法線
 62
     0
370
    -2
100
AcDbLine
 10
112.0033904760773
 20
140.34992457058
 30
0.0
 11
112.0033904760773
 21
143.5896378406633
 31
0.0
  0
LINE
  5
1FB8
330
1B52
100
AcDbEntity
  8
寸法線
 62
     0
370
    -2
100
AcDbLine
 10
158.1550204896621
 20
139.4458328870741
 30
0.0
 11
158.1550204896621
 21
143.5896378406633
 31
0.0
  0
LINE
  5
1FB9
330
1B52
100
AcDbEntity
  8
寸法線
 62
     0
370
    -2
100
AcDbLine
 10
115.0033904760773
 20
140.5896378406633
 30
0.0
 11
155.1550204896621
 21
140.5896378406633
 31
0.0
  0
INSERT
  5
1FBA
330
1B52
100
AcDbEntity
  8
寸法線
 62
     0
370
    -2
100
AcDbBlockReference
  2
_Closed
 10
112.0033904760773
 20
140.5896378406633
 30
0.0
 41
3.0
 42
3.0
 43
3.0
 50
180.0
  0
INSERT
  5
1FBB
330
1B52
100
AcDbEntity
  8
寸法線
 62
     0
370
    -2
100
AcDbBlockReference
  2
_Closed
 10
158.1550204896621
 20
140.5896378406633
 30
0.0
 41
3.0
 42
3.0
 43
3.0
  0
MTEXT
  5
1FBC
330
1B52
100
AcDbEntity
  8
寸法線
 62
     0
100
AcDbMText
 10
135.0792054828697
 20
143.0899331162539
 30
0.0
 40
3.0
 41
0.0
 71
     5
 72
     1
  1
72
  7
OKANO
 73
     1
 44
1.0
  0
POINT
  5
1FBD
330
1B52
100
AcDbEntity
  8
Defpoints
 62
     0
100
AcDbPoint
 10
112.0033904760773
 20
138.34992457058
 30
0.0
  0
POINT
  5
1FBE
330
1B52
100
AcDbEntity
  8
Defpoints
 62
     0
100
AcDbPoint
 10
158.1550204896621
 20
137.4458328870741
 30
0.0
  0
POINT
  5
1FBF
330
1B52
100
AcDbEntity
  8
Defpoints
 62
     0
100
AcDbPoint
 10
158.1550204896621
 20
140.5896378406633
 30
0.0
  0
ENDBLK
  5
1B5D
330
1B52
100
AcDbEntity
  8
0
100
AcDbBlockEnd
  0
BLOCK
  5
1C57
330
1C51
100
AcDbEntity
  8
0
100
AcDbBlockBegin
  2
*D2
 70
     1
 10
0.0
 20
0.0
 30
0.0
  3
*D2
  1

  0
LINE
  5
1F66
330
1C51
100
AcDbEntity
  8
寸法線
 62
     0
370
    -2
100
AcDbLine
 10
138.4315202527158
 20
154.9475975921279
 30
0.0
 11
130.6439961553907
 21
170.3979699923344
 31
0.0
  0
MTEXT
  5
1F67
330
1C51
100
AcDbEntity
  8
寸法線
 62
     0
100
AcDbMText
 10
138.5304207374824
 20
162.5275400504027
 30
0.0
 40
5.0
 41
0.0
 71
     5
 72
     1
  1
48.6
  7
OKANO
 11
0.4500936158628415
 21
-0.8929813754830012
 31
0.0
 73
     1
 44
1.0
  0
INSERT
  5
1F68
330
1C51
100
AcDbEntity
  8
寸法線
 62
     0
370
    -2
100
AcDbBlockReference
  2
_Closed
 10
129.2937153078021
 20
173.0769141187834
 30
0.0
 41
3.0
 42
3.0
 43
3.0
 50
116.7496904050591
  0
POINT
  5
1F69
330
1C51
100
AcDbEntity
  8
Defpoints
 62
     0
100
AcDbPoint
 10
129.2937153078021
 20
173.0769141187834
 30
0.0
  0
POINT
  5
1F6A
330
1C51
100
AcDbEntity
  8
Defpoints
 62
     0
100
AcDbPoint
 10
140.0959620885103
 20
151.6453611071915
 30
0.0
  0
ENDBLK
  5
1C58
330
1C51
100
AcDbEntity
  8
0
100
AcDbBlockEnd
  0
BLOCK
  5
1F2C
330
1F22
100
AcDbEntity
  8
0
100
AcDbBlockBegin
  2
*D3
 70
     1
 10
0.0
 20
0.0
 30
0.0
  3
*D3
  1

  0
LINE
  5
1F7F
330
1F22
100
AcDbEntity
  8
寸法線
 62
     0
370
    -2
100
AcDbLine
 10
26.83421321403808
 20
137.5637761761507
 30
0.0
 11
30.65143506253293
 21
129.1580630858915
 31
0.0
  0
LINE
  5
1F80
330
1F22
100
AcDbEntity
  8
寸法線
 62
     0
370
    -2
100
AcDbLine
 10
66.65130550062804
 20
155.6456061158423
 30
0.0
 11
70.46852734912289
 21
147.2398930255831
 31
0.0
  0
LINE
  5
1F81
330
1F22
100
AcDbEntity
  8
寸法線
 62
     0
370
    -2
100
AcDbLine
 10
32.14251890344662
 20
133.1300486069334
 30
0.0
 11
66.49654182808103
 21
148.7309768664968
 31
0.0
  0
INSERT
  5
1F82
330
1F22
100
AcDbEntity
  8
寸法線
 62
     0
370
    -2
100
AcDbBlockReference
  2
_Closed
 10
29.41098422246884
 20
131.8895977668693
 30
0.0
 41
3.0
 42
3.0
 43
3.0
 50
204.4238586345632
  0
INSERT
  5
1F83
330
1F22
100
AcDbEntity
  8
寸法線
 62
     0
370
    -2
100
AcDbBlockReference
  2
_Closed
 10
69.2280765090588
 20
149.9714277065609
 30
0.0
 41
3.0
 42
3.0
 43
3.0
 50
24.42385863456331
  0
MTEXT
  5
1F84
330
1F22
100
AcDbEntity
  8
寸法線
 62
     0
100
AcDbMText
 10
48.28569924075898
 20
143.2070604893685
 30
0.0
 40
3.0
 41
0.0
 71
     5
 72
     1
  1
126
  7
OKANO
 11
0.9105115603259221
 21
0.4134836133546952
 31
0.0
 73
     1
 44
1.0
  0
POINT
  5
1F85
330
1F22
100
AcDbEntity
  8
Defpoints
 62
     0
100
AcDbPoint
 10
26.0072459873287
 20
139.3847992968026
 30
0.0
  0
POINT
  5
1F86
330
1F22
100
AcDbEntity
  8
Defpoints
 62
     0
100
AcDbPoint
 10
65.82433827391866
 20
157.4666292364942
 30
0.0
  0
POINT
  5
1F87
330
1F22
100
AcDbEntity
  8
Defpoints
 62
     0
100
AcDbPoint
 10
69.2280765090588
 20
149.9714277065609
 30
0.0
  0
ENDBLK
  5
1F2D
330
1F22
100
AcDbEntity
  8
0
100
AcDbBlockEnd
  0
BLOCK
  5
1F38
330
1F2E
100
AcDbEntity
  8
0
100
AcDbBlockBegin
  2
*D4
 70
     1
 10
0.0
 20
0.0
 30
0.0
  3
*D4
  1

  0
LINE
  5
1F88
330
1F2E
100
AcDbEntity
  8
寸法線
 62
     0
370
    -2
100
AcDbLine
 10
48.63059401362136
 20
178.4796715744511
 30
0.0
 11
48.63059401362136
 21
181.5892188359646
 31
0.0
  0
LINE
  5
1F89
330
1F2E
100
AcDbEntity
  8
寸法線
 62
     0
370
    -2
100
AcDbLine
 10
63.71282569825382
 20
178.4796715744511
 30
0.0
 11
63.71282569825382
 21
181.5892188359646
 31
0.0
  0
LINE
  5
1F8A
330
1F2E
100
AcDbEntity
  8
寸法線
 62
     0
370
    -2
100
AcDbLine
 10
51.63059401362136
 20
178.5892188359646
 30
0.0
 11
60.71282569825382
 21
178.5892188359646
 31
0.0
  0
INSERT
  5
1F8B
330
1F2E
100
AcDbEntity
  8
寸法線
 62
     0
370
    -2
100
AcDbBlockReference
  2
_Closed
 10
48.63059401362136
 20
178.5892188359646
 30
0.0
 41
3.0
 42
3.0
 43
3.0
 50
180.0
  0
INSERT
  5
1F8C
330
1F2E
100
AcDbEntity
  8
寸法線
 62
     0
370
    -2
100
AcDbBlockReference
  2
_Closed
 10
63.71282569825382
 20
178.5892188359646
 30
0.0
 41
3.0
 42
3.0
 43
3.0
  0
MTEXT
  5
1F8D
330
1F2E
100
AcDbEntity
  8
寸法線
 62
     0
100
AcDbMText
 10
56.17170985593759
 20
181.0895141115551
 30
0.0
 40
3.0
 41
0.0
 71
     5
 72
     1
  1
20
  7
OKANO
 73
     1
 44
1.0
  0
POINT
  5
1F8E
330
1F2E
100
AcDbEntity
  8
Defpoints
 62
     0
100
AcDbPoint
 10
48.63059401362136
 20
176.4796715744511
 30
0.0
  0
POINT
  5
1F8F
330
1F2E
100
AcDbEntity
  8
Defpoints
 62
     0
100
AcDbPoint
 10
63.71282569825382
 20
176.4796715744511
 30
0.0
  0
POINT
  5
1F90
330
1F2E
100
AcDbEntity
  8
Defpoints
 62
     0
100
AcDbPoint
 10
63.71282569825382
 20
178.5892188359646
 30
0.0
  0
ENDBLK
  5
1F39
330
1F2E
100
AcDbEntity
  8
0
100
AcDbBlockEnd
  0
BLOCK
  5
1F46
330
1F3A
100
AcDbEntity
  8
0
100
AcDbBlockBegin
  2
*D5
 70
     1
 10
0.0
 20
0.0
 30
0.0
  3
*D5
  1

  0
LINE
  5
1F97
330
1F3A
100
AcDbEntity
  8
寸法線
 62
     0
370
    -2
100
AcDbLine
 10
17.06941995168892
 20
152.6719287050583
 30
0.0
 11
0.0822533073694578
 21
152.6719287050583
 31
0.0
  0
LINE
  5
1F98
330
1F3A
100
AcDbEntity
  8
寸法線
 62
     0
370
    -2
100
AcDbLine
 10
16.76777529802268
 20
147.548743564361
 30
0.0
 11
0.0822533073694566
 21
147.548743564361
 31
0.0
  0
LINE
  5
1F99
330
1F3A
100
AcDbEntity
  8
寸法線
 62
     0
370
    -2
100
AcDbLine
 10
3.082253307369457
 20
155.6719287050583
 30
0.0
 11
3.082253307369458
 21
158.6719287050583
 31
0.0
  0
LINE
  5
1F9A
330
1F3A
100
AcDbEntity
  8
寸法線
 62
     0
370
    -2
100
AcDbLine
 10
3.082253307369454
 20
144.548743564361
 30
0.0
 11
3.082253307369452
 21
134.775280744797
 31
0.0
  0
LINE
  5
1F9B
330
1F3A
100
AcDbEntity
  8
寸法線
 62
     0
370
    -2
100
AcDbLine
 10
3.082253307369456
 20
152.6719287050583
 30
0.0
 11
3.082253307369455
 21
147.548743564361
 31
0.0
  0
INSERT
  5
1F9C
330
1F3A
100
AcDbEntity
  8
寸法線
 62
     0
370
    -2
100
AcDbBlockReference
  2
_Closed
 10
3.082253307369456
 20
152.6719287050583
 30
0.0
 41
3.0
 42
3.0
 43
3.0
 50
270.0
  0
INSERT
  5
1F9D
330
1F3A
100
AcDbEntity
  8
寸法線
 62
     0
370
    -2
100
AcDbBlockReference
  2
_Closed
 10
3.082253307369455
 20
147.548743564361
 30
0.0
 41
3.0
 42
3.0
 43
3.0
 50
90.0
  0
MTEXT
  5
1F9E
330
1F3A
100
AcDbEntity
  8
寸法線
 62
     0
100
AcDbMText
 10
0.5822533073694314
 20
138.162012154579
 30
0.0
 40
3.0
 41
0.0
 71
     5
 72
     1
  1
5.5
  7
OKANO
 11
0.0000000000000001
 21
1.0
 31
0.0
 73
     1
 44
1.0
  0
POINT
  5
1F9F
330
1F3A
100
AcDbEntity
  8
Defpoints
 62
     0
100
AcDbPoint
 10
19.06941995168892
 20
152.6719287050583
 30
0.0
  0
POINT
  5
1FA0
330
1F3A
100
AcDbEntity
  8
Defpoints
 62
     0
100
AcDbPoint
 10
18.76777529802268
 20
147.548743564361
 30
0.0
  0
POINT
  5
1FA1
330
1F3A
100
AcDbEntity
  8
Defpoints
 62
     0
100
AcDbPoint
 10
3.082253307369455
 20
147.548743564361
 30
0.0
  0
ENDBLK
  5
1F47
330
1F3A
100
AcDbEntity
  8
0
100
AcDbBlockEnd
  0
ENDSEC
  0
SECTION
  2
ENTITIES
  0
LINE
  5
148
330
1F
100
AcDbEntity
  8
構築線
100
AcDbLine
 10
69.56968016977703
 20
47.00404052475369
 30
0.0
 11
69.56968016977703
 21
47.00404052475369
 31
0.0
  0
LWPOLYLINE
  5
DAF
330
1F
100
AcDbEntity
  8
太線
100
AcDbPolyline
 90
        4
 70
     1
 43
0.0
 10
117.5531955616331
 20
63.13855773025278
 10
207.5531955616331
 20
63.13855773025278
 10
207.5531955616331
 20
42.13855773025279
 10
117.5531955616331
 20
42.13855773025279
  0
LINE
  5
DB0
330
1F
100
AcDbEntity
  8
太線
100
AcDbLine
 10
117.5531955616331
 20
56.13855773025278
 30
0.0
 11
207.5531955616331
 21
56.13855773025278
 31
0.0
  0
LINE
  5
DB1
330
1F
100
AcDbEntity
  8
太線
100
AcDbLine
 10
137.5531955616331
 20
63.13855773025278
 30
0.0
 11
137.5531955616331
 21
42.13855773025279
 31
0.0
  0
TEXT
  5
F80
330
1F
100
AcDbEntity
  8
文字
100
AcDbText
 10
119.2838522402763
 20
57.63957121255709
 30
0.0
 40
2.0
  1
FILM NAME
 51
15.0
  7
OKANO
100
AcDbText
  0
TEXT
  5
F81
330
1F
100
AcDbEntity
  8
文字
100
AcDbText
 10
120.352659638053
 20
52.30050692017641
 30
0.0
 40
2.0
  1
DRAWN
 51
15.0
  7
OKANO
100
AcDbText
  0
TEXT
  5
F82
330
1F
100
AcDbEntity
  8
文字
100
AcDbText
 10
120.7801818666811
 20
49.31063123121055
 30
0.0
 40
2.0
  1
CHECK
 51
15.0
  7
OKANO
100
AcDbText
  0
TEXT
  5
F83
330
1F
100
AcDbEntity
  8
文字
100
AcDbText
 10
120.9939438940983
 20
46.32075505042081
 30
0.0
 40
2.0
  1
APPR
 51
15.0
  7
OKANO
100
AcDbText
  0
TEXT
  5
F84
330
1F
100
AcDbEntity
  8
文字
100
AcDbText
 10
120.7801818666811
 20
43.54444155936403
 30
0.0
 40
2.0
  1
ISSUED
 51
15.0
  7
OKANO
100
AcDbText
  0
TEXT
  5
F85
330
1F
100
AcDbEntity
  8
文字
100
AcDbText
 10
143.4388919425821
 20
57.63957121255709
 30
0.0
 40
4.0
  1
B999-20071013 Auto CAD
 51
15.0
  7
OKANO
100
AcDbText
  0
TEXT
  5
F86
330
1F
100
AcDbEntity
  8
文字
100
AcDbText
 10
146.2177900810775
 20
50.80556907569349
 30
0.0
 40
4.0
  1
23-1S(ｽﾃﾝAP48A)
 51
15.0
  7
OKANO
100
AcDbText
  0
TEXT
  5
F87
330
1F
100
AcDbEntity
  8
文字
100
AcDbText
 10
146.6453132228088
 20
44.61225451620492
 30
0.0
 40
4.0
  1
joint kogyo T.okano
 51
15.0
  7
OKANO
100
AcDbText
  0
LINE
  5
14A7
330
1F
100
AcDbEntity
  8
太線
100
AcDbLine
 10
75.24420352234381
 20
165.5302232313145
 30
0.0
 11
75.24420352234381
 21
165.5302232313145
 31
0.0
  0
TEXT
  5
15A3
330
1F
100
AcDbEntity
  8
文字
100
AcDbText
 10
-8.890731620249681
 20
63.55631357345462
 30
0.0
 40
3.0
  1
Materal : Stainless  Steel (SUS304) t0.6mm
 51
15.0
  7
OKANO
100
AcDbText
  0
TEXT
  5
15A4
330
1F
100
AcDbEntity
  8
文字
100
AcDbText
 10
-8.698090474345718
 20
69.92694487894329
 30
0.0
 40
3.0
  1
BODY
 51
15.0
  7
OKANO
100
AcDbText
  0
CIRCLE
  5
1860
330
1F
100
AcDbEntity
  8
太線
100
AcDbCircle
 10
134.6948386981562
 20
162.3611376129874
 30
0.0
 40
11.72000374006566
  0
ARC
  5
1861
330
1F
100
AcDbEntity
  8
太線
100
AcDbCircle
 10
134.6948386981562
 20
162.3611376129874
 30
0.0
 40
15.12676677568722
100
AcDbArc
 50
0.0
 51
180.0
  0
ARC
  5
1862
330
1F
100
AcDbEntity
  8
太線
100
AcDbCircle
 10
134.6948386981562
 20
162.3611376129874
 30
0.0
 40
12.0
100
AcDbArc
 50
0.0
 51
180.0
  0
ARC
  5
1863
330
1F
100
AcDbEntity
  8
太線
100
AcDbCircle
 10
134.6948386981562
 20
162.3611376129874
 30
0.0
 40
12.0
100
AcDbArc
 50
0.0
 51
180.0
  0
LINE
  5
188C
330
1F
100
AcDbEntity
  8
太線
100
AcDbLine
 10
121.1948386981562
 20
150.3611376129873
 30
0.0
 11
105.6948386981562
 21
150.3611376129873
 31
0.0
  0
LINE
  5
188D
330
1F
100
AcDbEntity
  8
太線
100
AcDbLine
 10
105.6948386981562
 20
151.3611376129873
 30
0.0
 11
120.068071922469
 21
151.3611376129873
 31
0.0
  0
LINE
  5
188E
330
1F
100
AcDbEntity
  8
太線
100
AcDbLine
 10
105.6948386981562
 20
150.3611376129873
 30
0.0
 11
105.6948386981562
 21
151.3611376129873
 31
0.0
  0
LINE
  5
188F
330
1F
100
AcDbEntity
  8
太線
100
AcDbLine
 10
108.9448386981562
 20
151.3611376129873
 30
0.0
 11
108.9448386981562
 21
150.3611376129873
 31
0.0
  0
LINE
  5
1890
330
1F
100
AcDbEntity
  8
太線
100
AcDbLine
 10
114.4448386981562
 20
151.3611376129873
 30
0.0
 11
114.4448386981562
 21
150.3611376129873
 31
0.0
  0
LINE
  5
1891
330
1F
100
AcDbEntity
  8
太線
100
AcDbLine
 10
122.6948386981562
 20
162.3611376129874
 30
0.0
 11
122.6948386981562
 21
153.3611376129873
 31
0.0
  0
LINE
  5
1892
330
1F
100
AcDbEntity
  8
太線
100
AcDbLine
 10
119.568071922469
 20
153.3611376129873
 30
0.0
 11
119.568071922469
 21
162.3611376129874
 31
0.0
  0
LINE
  5
1893
330
1F
100
AcDbEntity
  8
太線
100
AcDbLine
 10
120.568071922469
 20
153.3611376129873
 30
0.0
 11
119.568071922469
 21
153.3611376129873
 31
0.0
  0
LINE
  5
1894
330
1F
100
AcDbEntity
  8
太線
100
AcDbLine
 10
121.6948386981562
 20
153.3611376129873
 30
0.0
 11
121.6948386981562
 21
150.8611376129873
 31
0.0
  0
LINE
  5
1895
330
1F
100
AcDbEntity
  8
太線
100
AcDbLine
 10
122.6948386981562
 20
153.3611376129873
 30
0.0
 11
121.6948386981562
 21
153.3611376129873
 31
0.0
  0
LINE
  5
1896
330
1F
100
AcDbEntity
  8
太線
100
AcDbLine
 10
120.568071922469
 20
151.8611376129873
 30
0.0
 11
120.568071922469
 21
153.3611376129873
 31
0.0
  0
LINE
  5
18A4
330
1F
100
AcDbEntity
  8
太線
100
AcDbLine
 10
163.6948386981562
 20
150.3611376129873
 30
0.0
 11
148.1948386981562
 21
150.3611376129873
 31
0.0
  0
LINE
  5
18A5
330
1F
100
AcDbEntity
  8
太線
100
AcDbLine
 10
149.3216054738434
 20
151.3611376129873
 30
0.0
 11
163.6948386981562
 21
151.3611376129873
 31
0.0
  0
LINE
  5
18A6
330
1F
100
AcDbEntity
  8
太線
100
AcDbLine
 10
146.6948386981562
 20
153.3611376129873
 30
0.0
 11
146.6948386981562
 21
162.3611376129874
 31
0.0
  0
LINE
  5
18A7
330
1F
100
AcDbEntity
  8
太線
100
AcDbLine
 10
149.8216054738434
 20
162.3611376129873
 30
0.0
 11
149.8216054738434
 21
153.3611376129873
 31
0.0
  0
LINE
  5
18A8
330
1F
100
AcDbEntity
  8
太線
100
AcDbLine
 10
148.8216054738434
 20
153.3611376129873
 30
0.0
 11
148.8216054738434
 21
151.8611376129873
 31
0.0
  0
LINE
  5
18A9
330
1F
100
AcDbEntity
  8
太線
100
AcDbLine
 10
149.8216054738434
 20
153.3611376129873
 30
0.0
 11
148.8216054738434
 21
153.3611376129873
 31
0.0
  0
LINE
  5
18AA
330
1F
100
AcDbEntity
  8
太線
100
AcDbLine
 10
147.6948386981562
 20
153.3611376129873
 30
0.0
 11
147.6948386981562
 21
150.8611376129873
 31
0.0
  0
LINE
  5
18AB
330
1F
100
AcDbEntity
  8
太線
100
AcDbLine
 10
146.6948386981562
 20
153.3611376129873
 30
0.0
 11
147.6948386981562
 21
153.3611376129873
 31
0.0
  0
LINE
  5
18AC
330
1F
100
AcDbEntity
  8
太線
100
AcDbLine
 10
154.9448386981562
 20
151.3611376129873
 30
0.0
 11
154.9448386981562
 21
150.3611376129873
 31
0.0
  0
LINE
  5
18AD
330
1F
100
AcDbEntity
  8
太線
100
AcDbLine
 10
160.4448386981562
 20
151.3611376129873
 30
0.0
 11
160.4448386981562
 21
150.3611376129873
 31
0.0
  0
LINE
  5
18AE
330
1F
100
AcDbEntity
  8
太線
100
AcDbLine
 10
163.6948386981562
 20
151.3611376129873
 30
0.0
 11
163.6948386981562
 21
150.3611376129873
 31
0.0
  0
LINE
  5
19A4
330
1F
100
AcDbEntity
  8
太線
100
AcDbLine
 10
112.324683967699
 20
153.3291489098214
 30
0.0
 11
112.324683967699
 21
154.31443028406
 31
0.0
  0
LINE
  5
19A5
330
1F
100
AcDbEntity
  8
太線
100
AcDbLine
 10
111.324683967699
 20
154.3291489098214
 30
0.0
 11
111.324683967699
 21
153.3291489098214
 31
0.0
  0
ARC
  5
19A6
330
1F
100
AcDbEntity
  8
太線
100
AcDbCircle
 10
111.824683967699
 20
145.8291489098214
 30
0.0
 40
8.5
100
AcDbArc
 50
61.92751306414703
 51
86.62771331656612
  0
LINE
  5
19A7
330
1F
100
AcDbEntity
  8
太線
100
AcDbLine
 10
107.8246839676989
 20
151.5388639489061
 30
0.0
 11
115.824683967699
 21
151.5388639489061
 31
0.0
  0
LINE
  5
19A8
330
1F
100
AcDbEntity
  8
太線
100
AcDbLine
 10
107.8246839676989
 20
153.3291489098214
 30
0.0
 11
107.8246839676989
 21
151.5388639489061
 31
0.0
  0
LINE
  5
19B0
330
1F
100
AcDbEntity
  8
太線
100
AcDbLine
 10
111.324683967699
 20
153.3291489098214
 30
0.0
 11
112.324683967699
 21
153.3291489098214
 31
0.0
  0
LINE
  5
19B1
330
1F
100
AcDbEntity
  8
太線
100
AcDbLine
 10
109.324683967699
 20
151.5388639489061
 30
0.0
 11
109.324683967699
 21
151.3611376129873
 31
0.0
  0
LINE
  5
19B4
330
1F
100
AcDbEntity
  8
太線
100
AcDbLine
 10
109.074683967699
 20
151.3611376129873
 30
0.0
 11
109.074683967699
 21
150.3611376129873
 31
0.0
  0
LINE
  5
19B5
330
1F
100
AcDbEntity
  8
太線
100
AcDbLine
 10
115.824683967699
 20
151.5388639489061
 30
0.0
 11
115.824683967699
 21
153.3291489098214
 31
0.0
  0
LINE
  5
19B6
330
1F
100
AcDbEntity
  8
太線
100
AcDbLine
 10
114.324683967699
 20
151.5388639489061
 30
0.0
 11
114.324683967699
 21
151.3291489098214
 31
0.0
  0
LINE
  5
19B9
330
1F
100
AcDbEntity
  8
太線
100
AcDbLine
 10
114.574683967699
 20
151.3611376129873
 30
0.0
 11
114.574683967699
 21
150.3611376129873
 31
0.0
  0
ARC
  5
19BD
330
1F
100
AcDbEntity
  8
太線
100
AcDbCircle
 10
111.824683967699
 20
145.8291489098214
 30
0.0
 40
8.5
100
AcDbArc
 50
93.37228668343387
 51
118.0724869358529
  0
LINE
  5
19BF
330
1F
100
AcDbEntity
  8
太線
100
AcDbLine
 10
155.8592594999581
 20
141.9696653745102
 30
0.0
 11
159.8592594999581
 21
142.1792964916424
 31
0.0
  0
LINE
  5
19C0
330
1F
100
AcDbEntity
  8
太線
100
AcDbLine
 10
155.3592594999581
 20
147.8718291561007
 30
0.0
 11
155.3592594999581
 21
139.9407167928728
 31
0.0
  0
LINE
  5
19C1
330
1F
100
AcDbEntity
  8
太線
100
AcDbLine
 10
160.3592594999581
 20
140.2027556892881
 30
0.0
 11
160.3592594999581
 21
147.8718291561007
 31
0.0
  0
LINE
  5
19C2
330
1F
100
AcDbEntity
  8
太線
100
AcDbLine
 10
155.8592594999581
 20
139.9669206825144
 30
0.0
 11
159.8592594999581
 21
140.1765517996466
 31
0.0
  0
LINE
  5
19C3
330
1F
100
AcDbEntity
  8
太線
100
AcDbLine
 10
155.8592594999581
 20
140.9682930285123
 30
0.0
 11
159.8592594999581
 21
141.1779241456445
 31
0.0
  0
LINE
  5
19C4
330
1F
100
AcDbEntity
  8
太線
100
AcDbLine
 10
155.8592594999581
 20
139.3291489098214
 30
0.0
 11
159.8592594999581
 21
139.3291489098214
 31
0.0
  0
LINE
  5
19C5
330
1F
100
AcDbEntity
  8
太線
100
AcDbLine
 10
155.3592594999581
 20
139.9407167928728
 30
0.0
 11
155.8592594999581
 21
139.3291489098214
 31
0.0
  0
LINE
  5
19C6
330
1F
100
AcDbEntity
  8
太線
100
AcDbLine
 10
159.8592594999581
 20
139.3291489098214
 30
0.0
 11
160.3592594999581
 21
140.2027556892881
 31
0.0
  0
ARC
  5
19C7
330
1F
100
AcDbEntity
  8
太線
100
AcDbCircle
 10
157.8592594999581
 20
145.8291489098214
 30
0.0
 40
8.5
100
AcDbArc
 50
61.92751306414703
 51
86.62771331656612
  0
ARC
  5
19C8
330
1F
100
AcDbEntity
  8
太線
100
AcDbCircle
 10
157.8592594999581
 20
145.8291489098214
 30
0.0
 40
8.5
100
AcDbArc
 50
93.37228668343387
 51
118.0724869358529
  0
LINE
  5
19C9
330
1F
100
AcDbEntity
  8
太線
100
AcDbLine
 10
157.3592594999581
 20
154.3291489098214
 30
0.0
 11
157.3592594999581
 21
153.3291489098214
 31
0.0
  0
LINE
  5
19CA
330
1F
100
AcDbEntity
  8
太線
100
AcDbLine
 10
158.3592594999581
 20
153.3291489098214
 30
0.0
 11
158.3592594999581
 21
154.31443028406
 31
0.0
  0
LINE
  5
19CB
330
1F
100
AcDbEntity
  8
太線
100
AcDbLine
 10
155.8592594999581
 20
142.9710377205081
 30
0.0
 11
159.8592594999581
 21
143.1806688376403
 31
0.0
  0
LINE
  5
19CC
330
1F
100
AcDbEntity
  8
太線
100
AcDbLine
 10
155.8592594999581
 20
143.9724100665061
 30
0.0
 11
159.8592594999581
 21
144.1820411836382
 31
0.0
  0
LINE
  5
19CD
330
1F
100
AcDbEntity
  8
太線
100
AcDbLine
 10
155.8592594999581
 20
144.973782412504
 30
0.0
 11
159.8592594999581
 21
145.1834135296361
 31
0.0
  0
LINE
  5
19CE
330
1F
100
AcDbEntity
  8
太線
100
AcDbLine
 10
155.8592594999581
 20
145.9751547585019
 30
0.0
 11
159.8592594999581
 21
146.1847858756341
 31
0.0
  0
LINE
  5
19CF
330
1F
100
AcDbEntity
  8
太線
100
AcDbLine
 10
155.8592594999581
 20
146.9765271044998
 30
0.0
 11
159.8592594999581
 21
147.186158221632
 31
0.0
  0
LINE
  5
19D0
330
1F
100
AcDbEntity
  8
太線
100
AcDbLine
 10
155.8592594999581
 20
147.9171707204613
 30
0.0
 11
159.8592594999581
 21
148.2342444779884
 31
0.0
  0
LINE
  5
19D1
330
1F
100
AcDbEntity
  8
太線
100
AcDbLine
 10
157.3592594999581
 20
153.3291489098214
 30
0.0
 11
158.3592594999581
 21
153.3291489098214
 31
0.0
  0
LINE
  5
19D2
330
1F
100
AcDbEntity
  8
太線
100
AcDbLine
 10
155.8592594999581
 20
148.8718291561007
 30
0.0
 11
159.8592594999581
 21
149.1889029136278
 31
0.0
  0
LINE
  5
19D3
330
1F
100
AcDbEntity
  8
太線
100
AcDbLine
 10
155.8592594999581
 20
149.9806441424935
 30
0.0
 11
159.8592594999581
 21
150.1902752596257
 31
0.0
  0
LINE
  5
19D4
330
1F
100
AcDbEntity
  8
太線
100
AcDbLine
 10
153.8592594999581
 20
151.5388639489061
 30
0.0
 11
161.8592594999581
 21
151.5388639489061
 31
0.0
  0
LINE
  5
19D5
330
1F
100
AcDbEntity
  8
太線
100
AcDbLine
 10
155.3592594999581
 20
148.8718291561007
 30
0.0
 11
155.3592594999581
 21
147.8718291561007
 31
0.0
  0
LINE
  5
19D6
330
1F
100
AcDbEntity
  8
太線
100
AcDbLine
 10
155.1092594999581
 20
151.3611376129873
 30
0.0
 11
155.1092594999581
 21
150.3611376129873
 31
0.0
  0
LINE
  5
19D7
330
1F
100
AcDbEntity
  8
太線
100
AcDbLine
 10
155.3592594999581
 20
150.3611376129873
 30
0.0
 11
155.3592594999581
 21
148.8718291561007
 31
0.0
  0
LINE
  5
19D8
330
1F
100
AcDbEntity
  8
太線
100
AcDbLine
 10
155.3592594999581
 20
151.5388639489061
 30
0.0
 11
155.3592594999581
 21
151.3611376129873
 31
0.0
  0
LINE
  5
19D9
330
1F
100
AcDbEntity
  8
太線
100
AcDbLine
 10
153.8592594999581
 20
153.3291489098214
 30
0.0
 11
153.8592594999581
 21
151.5388639489061
 31
0.0
  0
LINE
  5
19DA
330
1F
100
AcDbEntity
  8
太線
100
AcDbLine
 10
154.9794142304153
 20
151.3611376129873
 30
0.0
 11
154.9794142304153
 21
150.3611376129873
 31
0.0
  0
LINE
  5
19DB
330
1F
100
AcDbEntity
  8
太線
100
AcDbLine
 10
160.3592594999581
 20
148.8718291561007
 30
0.0
 11
160.3592594999581
 21
147.8718291561007
 31
0.0
  0
LINE
  5
19DC
330
1F
100
AcDbEntity
  8
太線
100
AcDbLine
 10
160.6092594999581
 20
151.3611376129873
 30
0.0
 11
160.6092594999581
 21
150.3611376129873
 31
0.0
  0
LINE
  5
19DD
330
1F
100
AcDbEntity
  8
太線
100
AcDbLine
 10
160.3592594999581
 20
150.3611376129873
 30
0.0
 11
160.3592594999581
 21
148.8718291561007
 31
0.0
  0
LINE
  5
19DE
330
1F
100
AcDbEntity
  8
太線
100
AcDbLine
 10
160.3592594999581
 20
151.5388639489061
 30
0.0
 11
160.3592594999581
 21
151.3291489098214
 31
0.0
  0
LINE
  5
19DF
330
1F
100
AcDbEntity
  8
太線
100
AcDbLine
 10
161.8592594999581
 20
151.5388639489061
 30
0.0
 11
161.8592594999581
 21
153.3291489098214
 31
0.0
  0
LINE
  5
19E0
330
1F
100
AcDbEntity
  8
太線
100
AcDbLine
 10
160.4794142304153
 20
151.3611376129873
 30
0.0
 11
160.4794142304153
 21
150.3611376129873
 31
0.0
  0
ARC
  5
19ED
330
1F
100
AcDbEntity
  8
太線
100
AcDbCircle
 10
134.6948386981562
 20
162.3611376129874
 30
0.0
 40
14.13078863986925
100
AcDbArc
 50
354.0874387019235
 51
185.4689636479116
  0
ARC
  5
19EE
330
1F
100
AcDbEntity
  8
太線
100
AcDbCircle
 10
134.6948386981562
 20
162.3611376129874
 30
0.0
 40
13.07374957109721
100
AcDbArc
 50
354.8828986539205
 51
184.7570883878193
  0
LINE
  5
19EF
330
1F
100
AcDbEntity
  8
太線
100
AcDbLine
 10
120.568071922469
 20
153.3611376129873
 30
0.0
 11
120.6460994772363
 21
163.2640405772663
 31
0.0
  0
LINE
  5
19F0
330
1F
100
AcDbEntity
  8
太線
100
AcDbLine
 10
121.6948386981562
 20
153.3611376129873
 30
0.0
 11
121.66136970447
 21
162.5878242476306
 31
0.0
  0
LINE
  5
19F1
330
1F
100
AcDbEntity
  8
太線
100
AcDbLine
 10
147.6948386981562
 20
153.3611376129873
 30
0.0
 11
147.7199570070627
 21
162.4525812470914
 31
0.0
  0
LINE
  5
19F2
330
1F
100
AcDbEntity
  8
太線
100
AcDbLine
 10
148.8216054738434
 20
153.3611376129873
 30
0.0
 11
148.7352272342964
 21
162.5202025262044
 31
0.0
  0
LINE
  5
19F3
330
1F
100
AcDbEntity
  8
太線
370
     5
100
AcDbLine
 10
105.7397673218821
 20
88.30817916409722
 30
0.0
 11
110.2741367664601
 21
93.88374658546338
 31
0.0
  0
LINE
  5
19F4
330
1F
100
AcDbEntity
  8
太線
370
     5
100
AcDbLine
 10
110.6620500031239
 20
93.56827341573088
 30
0.0
 11
105.7722158722706
 21
87.55561824744267
 31
0.0
  0
LINE
  5
19FD
330
1F
100
AcDbEntity
  8
太線
370
     5
100
AcDbLine
 10
71.2694642741734
 20
95.90273028646242
 30
0.0
 11
74.76207500025674
 21
89.6218761529731
 31
0.0
  0
LINE
  5
19FE
330
1F
100
AcDbEntity
  8
太線
370
     5
100
AcDbLine
 10
74.59888997637756
 20
88.88650448525693
 30
0.0
 11
70.83248158312063
 21
95.65973619657489
 31
0.0
  0
LINE
  5
1A06
330
1F
100
AcDbEntity
  8
太線
370
     5
100
AcDbLine
 10
70.83248158312063
 20
95.65973619657489
 30
0.0
 11
71.2694642741734
 21
95.90273028646242
 31
0.0
  0
ARC
  5
1A2E
330
1F
100
AcDbEntity
  8
太線
370
     5
100
AcDbCircle
 10
90.79866836185761
 20
90.11420748637778
 30
0.0
 40
7.065394319934625
100
AcDbArc
 50
354.0874387019235
 51
185.4689636479116
  0
ARC
  5
1A2F
330
1F
100
AcDbEntity
  8
太線
370
     5
100
AcDbCircle
 10
90.79866836185761
 20
90.11420748637778
 30
0.0
 40
6.536874785548604
100
AcDbArc
 50
354.8828986539205
 51
184.7570883878193
  0
ARC
  5
1A30
330
1F
100
AcDbEntity
  8
太線
370
     5
100
AcDbCircle
 10
90.79866836185761
 20
90.11420748637778
 30
0.0
 40
6.0
100
AcDbArc
 50
0.0
 51
180.0
  0
ARC
  5
1A31
330
1F
100
AcDbEntity
  8
太線
370
     5
100
AcDbCircle
 10
90.79866836185761
 20
90.11420748637778
 30
0.0
 40
6.0
100
AcDbArc
 50
0.0
 51
180.0
  0
ARC
  5
1A32
330
1F
100
AcDbEntity
  8
太線
370
     5
100
AcDbCircle
 10
90.79866836185761
 20
90.11420748637778
 30
0.0
 40
7.563383387843613
100
AcDbArc
 50
0.0
 51
180.0
  0
CIRCLE
  5
1A33
330
1F
100
AcDbEntity
  8
太線
370
     5
100
AcDbCircle
 10
90.79866836185761
 20
90.11420748637778
 30
0.0
 40
5.860001870032832
  0
LINE
  5
1A34
330
1F
100
AcDbEntity
  8
太線
370
     5
100
AcDbLine
 10
76.03133509447968
 20
89.39699540939315
 30
0.0
 11
80.05510468192658
 21
91.6536511017837
 31
0.0
  0
LINE
  5
1A35
330
1F
100
AcDbEntity
  8
太線
370
     5
100
AcDbLine
 10
75.75753742730609
 20
89.88937298722182
 30
0.0
 11
80.10389484852799
 21
92.26162318941295
 31
0.0
  0
LINE
  5
1A36
330
1F
100
AcDbEntity
  8
太線
370
     5
100
AcDbLine
 10
75.51454333741856
 20
90.3263556782746
 30
0.0
 11
79.44738755689349
 21
92.51330248726253
 31
0.0
  0
LINE
  5
1A37
330
1F
100
AcDbEntity
  8
太線
370
     5
100
AcDbLine
 10
80.20717340384226
 20
91.1469595273283
 30
0.0
 11
76.27432918436728
 21
88.96001271834037
 31
0.0
  0
LINE
  5
1A38
330
1F
100
AcDbEntity
  8
太線
370
     5
100
AcDbLine
 10
75.75753742730609
 20
89.88937298722182
 30
0.0
 11
75.51454333741856
 21
90.3263556782746
 31
0.0
  0
LINE
  5
1A39
330
1F
100
AcDbEntity
  8
太線
370
     5
100
AcDbLine
 10
75.10206339072692
 20
89.52488185239047
 30
0.0
 11
75.75753742730609
 21
89.88937298722182
 31
0.0
  0
LINE
  5
1A3A
330
1F
100
AcDbEntity
  8
太線
370
     5
100
AcDbLine
 10
76.27432918436728
 20
88.96001271834037
 30
0.0
 11
76.03133509447968
 21
89.39699540939315
 31
0.0
  0
LINE
  5
1A3B
330
1F
100
AcDbEntity
  8
太線
370
     5
100
AcDbLine
 10
76.03133509447968
 20
89.39699540939315
 30
0.0
 11
74.93887836684774
 21
88.78951018467427
 31
0.0
  0
LINE
  5
1A3C
330
1F
100
AcDbEntity
  8
太線
370
     5
100
AcDbLine
 10
104.8062042636884
 20
88.74516888523027
 30
0.0
 11
101.2260317313631
 21
91.60110086270831
 31
0.0
  0
LINE
  5
1A3D
330
1F
100
AcDbEntity
  8
太線
370
     5
100
AcDbLine
 10
104.4507395774131
 20
88.30808113830824
 30
0.0
 11
100.9319724038907
 21
91.18593140351057
 31
0.0
  0
LINE
  5
1A3E
330
1F
100
AcDbEntity
  8
太線
370
     5
100
AcDbLine
 10
101.630458303447
 20
91.97234064948622
 30
0.0
 11
105.1216774334208
 21
89.133082121894
 31
0.0
  0
LINE
  5
1A3F
330
1F
100
AcDbEntity
  8
太線
370
     5
100
AcDbLine
 10
104.1352664076806
 20
87.92016790164451
 30
0.0
 11
100.6440472777068
 21
90.75942642923672
 31
0.0
  0
LINE
  5
1A40
330
1F
100
AcDbEntity
  8
太線
370
     5
100
AcDbLine
 10
104.1352664076806
 20
87.92016790164451
 30
0.0
 11
104.4507395774131
 21
88.30808113830824
 31
0.0
  0
LINE
  5
1A41
330
1F
100
AcDbEntity
  8
太線
370
     5
100
AcDbLine
 10
104.4507395774131
 20
88.30808113830824
 30
0.0
 11
105.4205226690725
 21
87.51939821397703
 31
0.0
  0
LINE
  5
1A42
330
1F
100
AcDbEntity
  8
太線
370
     5
100
AcDbLine
 10
105.1216774334208
 20
89.133082121894
 30
0.0
 11
104.8062042636884
 21
88.74516888523027
 31
0.0
  0
LINE
  5
1A43
330
1F
100
AcDbEntity
  8
太線
370
     5
100
AcDbLine
 10
104.8062042636884
 20
88.74516888523027
 30
0.0
 11
105.388074118684
 21
88.27195913063155
 31
0.0
  0
LINE
  5
1A67
330
1F
100
AcDbEntity
  8
太線
370
     5
100
AcDbLine
 10
110.2741367664601
 20
93.88374658546338
 30
0.0
 11
110.6620500031239
 21
93.56827341573088
 31
0.0
  0
LINE
  5
1A7D
330
1F
100
AcDbEntity
  8
太線
370
     5
100
AcDbLine
 10
84.0486683618576
 20
83.561220931696
 30
0.0
 11
76.29866836185761
 21
83.56122093169602
 31
0.0
  0
LINE
  5
1A7E
330
1F
100
AcDbEntity
  8
太線
370
     5
100
AcDbLine
 10
76.29866836185761
 20
84.06122093169603
 30
0.0
 11
83.48528497401401
 21
84.06122093169603
 31
0.0
  0
LINE
  5
1A7F
330
1F
100
AcDbEntity
  8
太線
370
     5
100
AcDbLine
 10
76.29866836185761
 20
83.56122093169602
 30
0.0
 11
76.29866836185761
 21
84.06122093169603
 31
0.0
  0
LINE
  5
1A80
330
1F
100
AcDbEntity
  8
太線
370
     5
100
AcDbLine
 10
84.79866836185761
 20
89.56122093169602
 30
0.0
 11
84.79866836185761
 21
85.06122093169603
 31
0.0
  0
LINE
  5
1A81
330
1F
100
AcDbEntity
  8
太線
370
     5
100
AcDbLine
 10
83.23528497401401
 20
85.06122093169603
 30
0.0
 11
83.23528497401401
 21
89.56122093169602
 31
0.0
  0
LINE
  5
1A82
330
1F
100
AcDbEntity
  8
太線
370
     5
100
AcDbLine
 10
83.735284974014
 20
85.06122093169603
 30
0.0
 11
83.77429875139768
 21
90.01267241383548
 31
0.0
  0
LINE
  5
1A83
330
1F
100
AcDbEntity
  8
太線
370
     5
100
AcDbLine
 10
84.29866836185761
 20
85.06122093169603
 30
0.0
 11
84.28193386501453
 21
89.67456424901767
 31
0.0
  0
LINE
  5
1A84
330
1F
100
AcDbEntity
  8
太線
370
     5
100
AcDbLine
 10
84.29866836185761
 20
85.06122093169603
 30
0.0
 11
84.29866836185761
 21
83.81122093169599
 31
0.0
  0
LINE
  5
1A85
330
1F
100
AcDbEntity
  8
太線
370
     5
100
AcDbLine
 10
84.79866836185761
 20
85.06122093169603
 30
0.0
 11
84.29866836185761
 21
85.06122093169603
 31
0.0
  0
LINE
  5
1A86
330
1F
100
AcDbEntity
  8
太線
370
     5
100
AcDbLine
 10
83.735284974014
 20
84.31122093169603
 30
0.0
 11
83.735284974014
 21
85.06122093169603
 31
0.0
  0
LINE
  5
1A87
330
1F
100
AcDbEntity
  8
太線
370
     5
100
AcDbLine
 10
83.735284974014
 20
85.06122093169603
 30
0.0
 11
83.23528497401401
 21
85.06122093169603
 31
0.0
  0
LINE
  5
1A88
330
1F
100
AcDbEntity
  8
太線
370
     5
100
AcDbLine
 10
105.2986683618576
 20
83.56122093169602
 30
0.0
 11
97.54866836185762
 21
83.561220931696
 31
0.0
  0
LINE
  5
1A89
330
1F
100
AcDbEntity
  8
太線
370
     5
100
AcDbLine
 10
98.11205174970121
 20
84.06122093169603
 30
0.0
 11
105.2986683618576
 21
84.06122093169603
 31
0.0
  0
LINE
  5
1A8A
330
1F
100
AcDbEntity
  8
太線
370
     5
100
AcDbLine
 10
96.79866836185761
 20
85.06122093169603
 30
0.0
 11
96.79866836185761
 21
89.56122093169602
 31
0.0
  0
LINE
  5
1A8B
330
1F
100
AcDbEntity
  8
太線
370
     5
100
AcDbLine
 10
98.36205174970121
 20
89.561220931696
 30
0.0
 11
98.36205174970121
 21
85.06122093169603
 31
0.0
  0
LINE
  5
1A8C
330
1F
100
AcDbEntity
  8
太線
370
     5
100
AcDbLine
 10
97.29866836185761
 20
85.06122093169603
 30
0.0
 11
97.31122751631085
 21
89.60694274874802
 31
0.0
  0
LINE
  5
1A8D
330
1F
100
AcDbEntity
  8
太線
370
     5
100
AcDbLine
 10
97.8620517497012
 20
85.06122093169603
 30
0.0
 11
97.8188626299277
 21
89.64075338830454
 31
0.0
  0
LINE
  5
1A8E
330
1F
100
AcDbEntity
  8
太線
370
     5
100
AcDbLine
 10
98.36205174970121
 20
85.06122093169603
 30
0.0
 11
97.8620517497012
 21
85.06122093169603
 31
0.0
  0
LINE
  5
1A8F
330
1F
100
AcDbEntity
  8
太線
370
     5
100
AcDbLine
 10
97.8620517497012
 20
85.06122093169603
 30
0.0
 11
97.8620517497012
 21
84.31122093169603
 31
0.0
  0
LINE
  5
1A90
330
1F
100
AcDbEntity
  8
太線
370
     5
100
AcDbLine
 10
97.29866836185761
 20
85.06122093169603
 30
0.0
 11
97.29866836185761
 21
83.81122093169599
 31
0.0
  0
LINE
  5
1A91
330
1F
100
AcDbEntity
  8
太線
370
     5
100
AcDbLine
 10
96.79866836185761
 20
85.06122093169603
 30
0.0
 11
97.29866836185761
 21
85.06122093169603
 31
0.0
  0
LINE
  5
1A92
330
1F
100
AcDbEntity
  8
太線
370
     5
100
AcDbLine
 10
105.2986683618576
 20
84.06122093169603
 30
0.0
 11
105.2986683618576
 21
83.56122093169602
 31
0.0
  0
LINE
  5
1A94
330
1F
100
AcDbEntity
  8
太線
370
     5
100
AcDbLine
 10
101.630458303447
 20
91.97234064948622
 30
0.0
 11
95.44855526594256
 21
96.01530593610068
 31
0.0
  0
LINE
  5
1A95
330
1F
100
AcDbEntity
  8
太線
370
     5
100
AcDbLine
 10
100.6440472777068
 20
90.75942642923672
 30
0.0
 11
94.23499473498599
 21
94.98657662877395
 31
0.0
  0
LINE
  5
1A96
330
1F
100
AcDbEntity
  8
太線
370
     5
100
AcDbLine
 10
100.9319724038907
 20
91.18593140351057
 30
0.0
 11
94.56596582656027
 21
95.39072038000512
 31
0.0
  0
LINE
  5
1A97
330
1F
100
AcDbEntity
  8
太線
370
     5
100
AcDbLine
 10
101.2260317313631
 20
91.60110086270831
 30
0.0
 11
94.60274057648963
 21
96.01530593610068
 31
0.0
  0
LINE
  5
1A99
330
1F
100
AcDbEntity
  8
太線
370
     5
100
AcDbLine
 10
79.44738755689349
 20
92.51330248726253
 30
0.0
 11
87.32579995934395
 21
96.7501123946284
 31
0.0
  0
LINE
  5
1A9A
330
1F
100
AcDbEntity
  8
太線
370
     5
100
AcDbLine
 10
80.10389484852799
 20
92.26162318941295
 30
0.0
 11
87.1051527031102
 21
96.0520462369114
 31
0.0
  0
LINE
  5
1A9B
330
1F
100
AcDbEntity
  8
太線
370
     5
100
AcDbLine
 10
80.05510468192658
 20
91.6536511017837
 30
0.0
 11
87.03160361769892
 21
95.39072038000512
 31
0.0
  0
LINE
  5
1A9C
330
1F
100
AcDbEntity
  8
太線
370
     5
100
AcDbLine
 10
80.20717340384226
 20
91.1469595273283
 30
0.0
 11
87.84064397167004
 21
95.28049925641637
 31
0.0
  0
CIRCLE
  5
1A9D
330
1F
100
AcDbEntity
  8
太線
370
     5
100
AcDbCircle
 10
90.79866836185761
 20
90.11420748637778
 30
0.0
 40
5.180998760831505
  0
LINE
  5
1AAB
330
1F
100
AcDbEntity
  8
太線
370
     5
100
AcDbLine
 10
72.13981549896544
 20
94.33755468673201
 30
0.0
 11
71.70209743585366
 21
94.09588303584461
 31
0.0
  0
LINE
  5
1AAC
330
1F
100
AcDbEntity
  8
太線
370
     5
100
AcDbLine
 10
73.03857105021847
 20
91.69246722932669
 30
0.0
 11
73.47628911333027
 21
91.9341388802141
 31
0.0
  0
LINE
  5
1AAD
330
1F
100
AcDbEntity
  8
太線
370
     5
100
AcDbLine
 10
78.07245231863709
 20
84.06122093169603
 30
0.0
 11
78.07245231863709
 21
83.56122093169602
 31
0.0
  0
LINE
  5
1AAE
330
1F
100
AcDbEntity
  8
太線
370
     5
100
AcDbLine
 10
80.82245231863709
 20
84.06122093169603
 30
0.0
 11
80.82245231863709
 21
83.561220931696
 31
0.0
  0
LINE
  5
1AAF
330
1F
100
AcDbEntity
  8
太線
370
     5
100
AcDbLine
 10
100.7728712349641
 20
84.06122093169603
 30
0.0
 11
100.7728712349641
 21
83.561220931696
 31
0.0
  0
LINE
  5
1AB0
330
1F
100
AcDbEntity
  8
太線
370
     5
100
AcDbLine
 10
103.5228712349641
 20
84.06122093169603
 30
0.0
 11
103.5228712349641
 21
83.56122093169602
 31
0.0
  0
LINE
  5
1AB1
330
1F
100
AcDbEntity
  8
太線
370
     5
100
AcDbLine
 10
107.4314835860407
 20
90.38835331045323
 30
0.0
 11
107.8206000200834
 21
90.0743596205447
 31
0.0
  0
LINE
  5
1AB2
330
1F
100
AcDbEntity
  8
太線
370
     5
100
AcDbLine
 10
109.1665986390777
 20
92.52189162934859
 30
0.0
 11
109.5557150731204
 21
92.20789793944005
 31
0.0
  0
LINE
  5
1AC3
330
1F
100
AcDbEntity
  8
太線
370
     5
100
AcDbLine
 10
74.29866836185761
 20
111.3250766341521
 30
0.0
 11
74.7986683618576
 21
111.3250766341521
 31
0.0
  0
LINE
  5
1AC4
330
1F
100
AcDbEntity
  8
太線
370
     5
100
AcDbLine
 10
74.7986683618576
 20
111.3250766341521
 30
0.0
 11
74.7986683618576
 21
103.5750766341521
 31
0.0
  0
LINE
  5
1AC5
330
1F
100
AcDbEntity
  8
太線
370
     5
100
AcDbLine
 10
75.04866836185761
 20
103.3250766341521
 30
0.0
 11
75.79866836185761
 21
103.3250766341521
 31
0.0
  0
LINE
  5
1AC6
330
1F
100
AcDbEntity
  8
太線
370
     5
100
AcDbLine
 10
75.79866836185761
 20
103.3250766341521
 30
0.0
 11
75.79866836185761
 21
103.8250766341521
 31
0.0
  0
LINE
  5
1AC7
330
1F
100
AcDbEntity
  8
太線
370
     5
100
AcDbLine
 10
75.79866836185761
 20
103.8250766341521
 30
0.0
 11
105.7986683618576
 21
103.8250766341521
 31
0.0
  0
LINE
  5
1AC8
330
1F
100
AcDbEntity
  8
太線
370
     5
100
AcDbLine
 10
105.7986683618576
 20
103.8250766341521
 30
0.0
 11
105.7986683618576
 21
103.3250766341521
 31
0.0
  0
LINE
  5
1AC9
330
1F
100
AcDbEntity
  8
太線
370
     5
100
AcDbLine
 10
105.7986683618576
 20
103.3250766341521
 30
0.0
 11
106.5486683618576
 21
103.3250766341521
 31
0.0
  0
LINE
  5
1ACA
330
1F
100
AcDbEntity
  8
太線
370
     5
100
AcDbLine
 10
106.7986683618576
 20
103.5750766341521
 30
0.0
 11
106.7986683618576
 21
111.3250766341521
 31
0.0
  0
LINE
  5
1ACB
330
1F
100
AcDbEntity
  8
太線
370
     5
100
AcDbLine
 10
106.7986683618576
 20
111.3250766341521
 30
0.0
 11
107.2986683618576
 21
111.3250766341521
 31
0.0
  0
LINE
  5
1ACD
330
1F
100
AcDbEntity
  8
太線
370
     5
100
AcDbLine
 10
107.2986683618576
 20
111.3250766341521
 30
0.0
 11
107.2986683618576
 21
103.0750766341521
 31
0.0
  0
LINE
  5
1ACE
330
1F
100
AcDbEntity
  8
太線
370
     5
100
AcDbLine
 10
107.0486683618576
 20
102.8250766341521
 30
0.0
 11
105.7986683618576
 21
102.8250766341521
 31
0.0
  0
LINE
  5
1ACF
330
1F
100
AcDbEntity
  8
太線
370
     5
100
AcDbLine
 10
105.7986683618576
 20
102.8250766341521
 30
0.0
 11
105.7986683618576
 21
102.3250766341521
 31
0.0
  0
LINE
  5
1AD0
330
1F
100
AcDbEntity
  8
太線
370
     5
100
AcDbLine
 10
105.7986683618576
 20
102.3250766341521
 30
0.0
 11
75.79866836185761
 21
102.3250766341521
 31
0.0
  0
LINE
  5
1AD1
330
1F
100
AcDbEntity
  8
太線
370
     5
100
AcDbLine
 10
75.79866836185761
 20
102.3250766341521
 30
0.0
 11
75.79866836185761
 21
102.8250766341521
 31
0.0
  0
LINE
  5
1AD2
330
1F
100
AcDbEntity
  8
太線
370
     5
100
AcDbLine
 10
75.79866836185761
 20
102.8250766341521
 30
0.0
 11
74.54866836185761
 21
102.8250766341521
 31
0.0
  0
LINE
  5
1AD3
330
1F
100
AcDbEntity
  8
太線
370
     5
100
AcDbLine
 10
74.29866836185761
 20
103.0750766341521
 30
0.0
 11
74.29866836185761
 21
111.3250766341521
 31
0.0
  0
LINE
  5
1AD4
330
1F
100
AcDbEntity
  8
太線
370
     5
100
AcDbLine
 10
74.29866836185761
 20
109.5750766341521
 30
0.0
 11
74.7986683618576
 21
109.5750766341521
 31
0.0
  0
LINE
  5
1AD5
330
1F
100
AcDbEntity
  8
太線
370
     5
100
AcDbLine
 10
74.29866836185761
 20
106.8250766341521
 30
0.0
 11
74.7986683618576
 21
106.8250766341521
 31
0.0
  0
LINE
  5
1AD6
330
1F
100
AcDbEntity
  8
太線
370
     5
100
AcDbLine
 10
107.2986683618576
 20
109.5750766341521
 30
0.0
 11
106.7986683618576
 21
109.5750766341521
 31
0.0
  0
LINE
  5
1AD7
330
1F
100
AcDbEntity
  8
太線
370
     5
100
AcDbLine
 10
106.7986683618576
 20
106.8250766341521
 30
0.0
 11
107.2986683618576
 21
106.8250766341521
 31
0.0
  0
LINE
  5
1AD8
330
1F
100
AcDbEntity
  8
太線
370
     5
100
AcDbLine
 10
75.79866836185761
 20
103.3250766341521
 30
0.0
 11
105.7986683618576
 21
103.3250766341521
 31
0.0
  0
LINE
  5
1AD9
330
1F
100
AcDbEntity
  8
太線
370
     5
100
AcDbLine
 10
105.7986683618576
 20
102.8250766341521
 30
0.0
 11
75.79866836185761
 21
102.8250766341521
 31
0.0
  0
LINE
  5
1ADA
330
1F
100
AcDbEntity
  8
太線
370
     5
100
AcDbLine
 10
105.7986683618576
 20
103.3250766341521
 30
0.0
 11
105.7986683618576
 21
102.8250766341521
 31
0.0
  0
LINE
  5
1ADB
330
1F
100
AcDbEntity
  8
太線
370
     5
100
AcDbLine
 10
75.79866836185761
 20
103.3250766341521
 30
0.0
 11
75.79866836185761
 21
102.8250766341521
 31
0.0
  0
ARC
  5
1ADC
330
1F
100
AcDbEntity
  8
太線
370
     5
100
AcDbCircle
 10
74.54866836185761
 20
103.0750766341521
 30
0.0
 40
0.25
100
AcDbArc
 50
180.0
 51
270.0
  0
ARC
  5
1ADD
330
1F
100
AcDbEntity
  8
太線
370
     5
100
AcDbCircle
 10
75.04866836185761
 20
103.5750766341521
 30
0.0
 40
0.25
100
AcDbArc
 50
180.0
 51
270.0
  0
ARC
  5
1ADE
330
1F
100
AcDbEntity
  8
太線
370
     5
100
AcDbCircle
 10
106.5486683618576
 20
103.5750766341521
 30
0.0
 40
0.25
100
AcDbArc
 50
270.0
 51
0.0
  0
ARC
  5
1ADF
330
1F
100
AcDbEntity
  8
太線
370
     5
100
AcDbCircle
 10
107.0486683618576
 20
103.0750766341521
 30
0.0
 40
0.25
100
AcDbArc
 50
270.0
 51
0.0
  0
ARC
  5
1AE0
330
1F
100
AcDbEntity
  8
太線
370
     5
100
AcDbCircle
 10
105.5782592539387
 20
87.71335483230894
 30
0.0
 40
0.25
100
AcDbArc
 50
230.8800236942208
 51
320.8800236942211
  0
ARC
  5
1AE1
330
1F
100
AcDbEntity
  8
太線
370
     5
100
AcDbCircle
 10
105.5458107035502
 20
88.46591574896345
 30
0.0
 40
0.25
100
AcDbArc
 50
230.8800236942207
 51
320.8800236942211
  0
ARC
  5
1AE2
330
1F
100
AcDbEntity
  8
太線
370
     5
100
AcDbCircle
 10
74.98056634578313
 20
89.74337319791686
 30
0.0
 40
0.25
100
AcDbArc
 50
209.0772355627331
 51
299.0772355627327
  0
ARC
  5
1AE3
330
1F
100
AcDbEntity
  8
太線
370
     5
100
AcDbCircle
 10
74.817381321904
 20
89.00800153020066
 30
0.0
 40
0.25
100
AcDbArc
 50
209.0772355627328
 51
299.0772355627328
  0
ARC
  5
1AE4
330
1F
100
AcDbEntity
  8
太線
370
     5
100
AcDbCircle
 10
98.11205174970121
 20
84.31122093169603
 30
0.0
 40
0.25
100
AcDbArc
 50
180.0
 51
270.0
  0
ARC
  5
1AE5
330
1F
100
AcDbEntity
  8
太線
370
     5
100
AcDbCircle
 10
97.54866836185762
 20
83.81122093169599
 30
0.0
 40
0.25
100
AcDbArc
 50
180.0
 51
270.0000000000001
  0
ARC
  5
1AE6
330
1F
100
AcDbEntity
  8
太線
370
     5
100
AcDbCircle
 10
84.0486683618576
 20
83.81122093169599
 30
0.0
 40
0.25
100
AcDbArc
 50
269.9999999999998
 51
0.0
  0
ARC
  5
1AE7
330
1F
100
AcDbEntity
  8
太線
370
     5
100
AcDbCircle
 10
83.48528497401401
 20
84.31122093169603
 30
0.0
 40
0.25
100
AcDbArc
 50
270.0
 51
0.0
  0
ARC
  5
1AE8
330
1F
100
AcDbEntity
  8
太線
100
AcDbCircle
 10
149.3216054738434
 20
151.8611376129873
 30
0.0
 40
0.5
100
AcDbArc
 50
180.0
 51
270.0
  0
ARC
  5
1AE9
330
1F
100
AcDbEntity
  8
太線
100
AcDbCircle
 10
148.1948386981562
 20
150.8611376129873
 30
0.0
 40
0.5
100
AcDbArc
 50
180.0
 51
270.0000000000001
  0
ARC
  5
1AEA
330
1F
100
AcDbEntity
  8
太線
100
AcDbCircle
 10
121.1948386981562
 20
150.8611376129873
 30
0.0
 40
0.5
100
AcDbArc
 50
269.9999999999998
 51
0.0
  0
ARC
  5
1AEB
330
1F
100
AcDbEntity
  8
太線
100
AcDbCircle
 10
120.068071922469
 20
151.8611376129873
 30
0.0
 40
0.5
100
AcDbArc
 50
270.0
 51
0.0
  0
TEXT
  5
1AF2
330
1F
100
AcDbEntity
  8
文字
100
AcDbText
 10
-8.890731620249681
 20
52.2272550302257
 30
0.0
 40
3.0
  1
Materal : PVC  Gray
 51
15.0
  7
OKANO
100
AcDbText
  0
TEXT
  5
1AF3
330
1F
100
AcDbEntity
  8
文字
100
AcDbText
 10
-9.301379781678548
 20
57.56735901060062
 30
0.0
 40
3.0
  1
Protect Cover
 51
15.0
  7
OKANO
100
AcDbText
  0
DIMENSION
  5
1B51
330
1F
100
AcDbEntity
  8
寸法線
100
AcDbDimension
  2
*D1
 10
158.1550204896621
 20
140.5896378406633
 30
0.0
 11
135.0792054828697
 21
140.5896378406633
 31
0.0
 70
   160
  1
72
 71
     5
 42
46.15163001358474
  3
sunpo
100
AcDbAlignedDimension
 13
112.0033904760773
 23
138.34992457058
 33
0.0
 14
158.1550204896621
 24
137.4458328870741
 34
0.0
100
AcDbRotatedDimension
1001
ACAD
1000
DSTYLE
1002
{
1070
   140
1040
3.0
1070
    40
1040
1.0
1002
}
  0
DIMENSION
  5
1C50
330
1F
100
AcDbEntity
  8
寸法線
100
AcDbDimension
  2
*D2
 10
140.0959620885103
 20
151.6453611071915
 30
0.0
 11
135.4049859232919
 21
160.9522123948828
 31
0.0
 70
   163
  1
48.6
 71
     5
 42
23.99999999999991
  3
sunpo
100
AcDbDiametricDimension
 15
129.2937153078021
 25
173.0769141187834
 35
0.0
 40
0.0
1001
ACAD
1000
DSTYLE
1002
{
1070
    40
1040
1.0
1070
   279
1070
     1
1070
   288
1070
     1
1002
}
  0
LINE
  5
1EBA
330
1F
100
AcDbEntity
  8
太線
100
AcDbLine
 10
61.10499820882274
 20
155.8996563188264
 30
0.0
 11
61.10499820882274
 21
154.3827740726522
 31
0.0
  0
LINE
  5
1EBB
330
1F
100
AcDbEntity
  8
太線
100
AcDbLine
 10
63.89607359652046
 20
156.4219862913174
 30
0.0
 11
61.10499820882274
 21
155.1520812838346
 31
0.0
  0
LINE
  5
1EBC
330
1F
100
AcDbEntity
  8
太線
100
AcDbLine
 10
58.39607359652046
 20
156.8990971149718
 30
0.0
 11
54.00328210790997
 21
154.8911072246054
 31
0.0
  0
ARC
  5
1EBD
330
1F
100
AcDbEntity
  8
太線
100
AcDbCircle
 10
52.76105806751917
 20
154.909105218056
 30
0.0
 40
1.112735811610016
100
AcDbArc
 50
113.4185543698743
 51
210.6808259626234
  0
ARC
  5
1EBE
330
1F
100
AcDbEntity
  8
太線
100
AcDbCircle
 10
18.27383301822175
 20
145.4220178449906
 30
0.0
 40
11.58814552332622
100
AcDbArc
 50
46.80370271167001
 51
84.61197256028635
  0
LINE
  5
1EBF
330
1F
100
AcDbEntity
  8
太線
100
AcDbLine
 10
45.73839725650924
 20
155.8996563188264
 30
0.0
 11
26.70591857399915
 21
147.0107754045041
 31
0.0
  0
LINE
  5
1EC0
330
1F
100
AcDbEntity
  8
太線
100
AcDbLine
 10
26.70591857399915
 20
146.8279605170817
 30
0.0
 11
48.89607359652046
 21
156.8923707746935
 31
0.0
  0
LINE
  5
1EC1
330
1F
100
AcDbEntity
  8
太線
100
AcDbLine
 10
30.59919127201704
 20
142.1333543344637
 30
0.0
 11
61.10499820882274
 21
155.8996563188264
 31
0.0
  0
LINE
  5
1EC2
330
1F
100
AcDbEntity
  8
太線
100
AcDbLine
 10
27.19185604061192
 20
142.1001553509226
 30
0.0
 11
57.27080174410923
 21
155.8996563188264
 31
0.0
  0
LINE
  5
1EC3
330
1F
100
AcDbEntity
  8
太線
100
AcDbLine
 10
49.83529812855602
 20
155.6180908126396
 30
0.0
 11
26.70591857399915
 21
145.3349041697171
 31
0.0
  0
LINE
  5
1EC4
330
1F
100
AcDbEntity
  8
太線
100
AcDbLine
 10
49.852632377237
 20
155.3365253064528
 30
0.0
 11
26.70591857399915
 21
144.8199078576086
 31
0.0
  0
DIMENSION
  5
1EC5
330
1F
100
AcDbEntity
  8
寸法線
100
AcDbDimension
  2
*D3
 10
69.2280765090588
 20
149.9714277065609
 30
0.0
 11
48.28569924075898
 21
143.2070604893685
 31
0.0
 70
    33
  1
126
 71
     5
 42
43.73046320503305
  3
sunpo
100
AcDbAlignedDimension
 13
26.0072459873287
 23
139.3847992968026
 33
0.0
 14
65.82433827391866
 24
157.4666292364942
 34
0.0
1001
ACAD
1000
DSTYLE
1002
{
1070
   140
1040
3.0
1070
    40
1040
1.0
1002
}
  0
ARC
  5
1EC6
330
1F
100
AcDbEntity
  8
太線
100
AcDbCircle
 10
19.20591857399915
 20
146.0963071945672
 30
0.0
 40
10.875
100
AcDbArc
 50
46.39718102729639
 51
133.6028189727036
  0
DIMENSION
  5
1EC7
330
1F
100
AcDbEntity
  8
寸法線
100
AcDbDimension
  2
*D5
 10
3.082253307369455
 20
147.548743564361
 30
0.0
 11
0.5822533073694314
 21
138.162012154579
 31
0.0
 70
    32
  1
5.5
 71
     5
 42
5.123185140697273
  3
sunpo
100
AcDbAlignedDimension
 13
19.06941995168892
 23
152.6719287050583
 33
0.0
 14
18.76777529802268
 24
147.548743564361
 34
0.0
 50
90.0
100
AcDbRotatedDimension
1001
ACAD
1000
DSTYLE
1002
{
1070
   140
1040
3.0
1070
    40
1040
1.0
1002
}
  0
LINE
  5
1EC8
330
1F
100
AcDbEntity
  8
太線
100
AcDbLine
 10
61.10499820882274
 20
154.3827740726522
 30
0.0
 11
30.59919127201704
 21
140.4382579067032
 31
0.0
  0
LINE
  5
1EC9
330
1F
100
AcDbEntity
  8
太線
100
AcDbLine
 10
11.70591857399915
 20
139.4713071945672
 30
0.0
 11
17.20591857399915
 21
139.4713071945672
 31
0.0
  0
LINE
  5
1ECA
330
1F
100
AcDbEntity
  8
太線
100
AcDbLine
 10
11.70591857399915
 20
153.9713071945672
 30
0.0
 11
11.70591857399915
 21
139.9713071945672
 31
0.0
  0
LINE
  5
1ECB
330
1F
100
AcDbEntity
  8
太線
100
AcDbLine
 10
11.70591857399915
 20
139.9713071945672
 30
0.0
 11
11.70591857399915
 21
139.4713071945672
 31
0.0
  0
LINE
  5
1ECC
330
1F
100
AcDbEntity
  8
太線
100
AcDbLine
 10
27.08223820118121
 20
142.1001553509226
 30
0.0
 11
30.59919127201704
 21
142.1001553509226
 31
0.0
  0
LINE
  5
1ECD
330
1F
100
AcDbEntity
  8
太線
100
AcDbLine
 10
30.59919127201704
 20
140.3852495191734
 30
0.0
 11
28.67683062401386
 21
140.3852495191734
 31
0.0
  0
LINE
  5
1ECE
330
1F
100
AcDbEntity
  8
太線
100
AcDbLine
 10
26.20591857399915
 20
140.0476124004451
 30
0.0
 11
26.20591857399915
 21
153.869925006271
 31
0.0
  0
LINE
  5
1ECF
330
1F
100
AcDbEntity
  8
太線
100
AcDbLine
 10
26.70591857399915
 20
153.9713071945672
 30
0.0
 11
26.70591857399915
 21
140.0502436144409
 31
0.0
  0
LINE
  5
1ED0
330
1F
100
AcDbEntity
  8
太線
100
AcDbLine
 10
21.29776877052532
 20
139.4713071945672
 30
0.0
 11
26.20591857399915
 21
139.4713071945672
 31
0.0
  0
ARC
  5
1ED1
330
1F
100
AcDbEntity
  8
太線
100
AcDbCircle
 10
19.25184367226222
 20
137.6657172914017
 30
0.0
 40
2.728729449050582
100
AcDbArc
 50
41.28112221805065
 51
138.5706368211059
  0
LINE
  5
1ED2
330
1F
100
AcDbEntity
  8
太線
100
AcDbLine
 10
27.08223820118121
 20
142.1001553509226
 30
0.0
 11
27.19185604061192
 21
141.6270777906047
 31
0.0
  0
LINE
  5
1ED3
330
1F
100
AcDbEntity
  8
太線
100
AcDbLine
 10
27.19185604061192
 20
141.6270777906047
 30
0.0
 11
30.09919127201703
 21
141.6270777906047
 31
0.0
  0
LINE
  5
1ED4
330
1F
100
AcDbEntity
  8
太線
100
AcDbLine
 10
30.09919127201703
 20
140.7991922763172
 30
0.0
 11
30.09919127201686
 21
141.0448200956761
 31
0.0
  0
LINE
  5
1ED5
330
1F
100
AcDbEntity
  8
太線
100
AcDbLine
 10
29.56949610859169
 20
140.7991922763172
 30
0.0
 11
30.09919127201703
 21
140.7991922763172
 31
0.0
  0
LINE
  5
1ED6
330
1F
100
AcDbEntity
  8
太線
100
AcDbLine
 10
30.09919127201703
 20
141.594140998926
 30
0.0
 11
30.09919127201703
 21
141.0448200956762
 31
0.0
  0
LINE
  5
1ED7
330
1F
100
AcDbEntity
  8
太線
100
AcDbLine
 10
26.20591857399915
 20
139.4713071945672
 30
0.0
 11
26.64082776873744
 21
139.4713071945672
 31
0.0
  0
LINE
  5
1ED8
330
1F
100
AcDbEntity
  8
太線
100
AcDbLine
 10
26.20591857399915
 20
139.4713071945672
 30
0.0
 11
26.20591857399915
 21
140.0476124004451
 31
0.0
  0
LINE
  5
1ED9
330
1F
100
AcDbEntity
  8
太線
100
AcDbLine
 10
26.20591857399915
 20
139.8227497579367
 30
0.0
 11
26.20591857399915
 21
140.0476124004451
 31
0.0
  0
LINE
  5
1EDA
330
1F
100
AcDbEntity
  8
太線
100
AcDbLine
 10
26.70591857399915
 20
140.0502436144409
 30
0.0
 11
30.09919127201703
 21
141.594140998926
 31
0.0
  0
LINE
  5
1EDB
330
1F
100
AcDbEntity
  8
太線
100
AcDbLine
 10
30.09919127201703
 20
141.0448200956762
 30
0.0
 11
26.70591857399915
 21
139.4713071945672
 31
0.0
  0
CIRCLE
  5
1EDC
330
1F
100
AcDbEntity
  8
太線
100
AcDbCircle
 10
19.20591857399915
 20
149.9713071945672
 30
0.0
 40
2.75
  0
ARC
  5
1EDD
330
1F
100
AcDbEntity
  8
太線
100
AcDbCircle
 10
19.70483180771913
 20
149.9249634767017
 30
0.0
 40
2.749303858562473
100
AcDbArc
 50
98.41843932848318
 51
259.5446673885394
  0
LINE
  5
1EDE
330
1F
100
AcDbEntity
  8
太線
100
AcDbLine
 10
26.70591857399915
 20
153.869925006271
 30
0.0
 11
26.20591857399915
 21
153.869925006271
 31
0.0
  0
LINE
  5
1EDF
330
1F
100
AcDbEntity
  8
太線
100
AcDbLine
 10
30.59919127201704
 20
142.1001553509226
 30
0.0
 11
30.59919127201704
 21
140.3852495191734
 31
0.0
  0
ARC
  5
1F02
330
1F
100
AcDbEntity
  8
太線
100
AcDbCircle
 10
50.72082840727586
 20
163.9163456139978
 30
0.0
 40
9.636100495445221
100
AcDbArc
 50
276.4546020820062
 51
290.4170611078359
  0
LINE
  5
1F10
330
1F
100
AcDbEntity
  8
太線
100
AcDbLine
 10
49.81796387987498
 20
155.8996563188264
 30
0.0
 11
45.73839725650924
 21
155.8996563188264
 31
0.0
  0
LINE
  5
1F11
330
1F
100
AcDbEntity
  8
太線
100
AcDbLine
 10
32.66512365674816
 20
178.5908959284723
 30
0.0
 11
32.66512365674816
 21
178.5908959284723
 31
0.0
  0
DIMENSION
  5
1F12
330
1F
100
AcDbEntity
  8
寸法線
100
AcDbDimension
  2
*D4
 10
63.71282569825382
 20
178.5892188359646
 30
0.0
 11
56.17170985593759
 21
181.0895141115551
 31
0.0
 70
    32
  1
20
 71
     5
 42
15.08223168463246
  3
sunpo
100
AcDbAlignedDimension
 13
48.63059401362136
 23
176.4796715744511
 33
0.0
 14
63.71282569825382
 24
176.4796715744511
 34
0.0
100
AcDbRotatedDimension
1001
ACAD
1000
DSTYLE
1002
{
1070
   140
1040
3.0
1070
    40
1040
1.0
1002
}
  0
ARC
  5
1F13
330
1F
100
AcDbEntity
  8
太線
100
AcDbCircle
 10
56.79130277896314
 20
166.8501951195905
 30
0.0
 40
2.736515812026525
100
AcDbArc
 50
96.12026020074942
 51
261.6958494935828
  0
CIRCLE
  5
1F14
330
1F
100
AcDbEntity
  8
太線
100
AcDbCircle
 10
56.39607359652046
 20
166.8923707746935
 30
0.0
 40
2.75
  0
LINE
  5
1F15
330
1F
100
AcDbEntity
  8
太線
100
AcDbLine
 10
63.39607359652046
 20
170.8093665455578
 30
0.0
 11
63.39607359652046
 21
156.743813338063
 31
0.0
  0
LINE
  5
1F16
330
1F
100
AcDbEntity
  8
太線
100
AcDbLine
 10
63.89607359652046
 20
170.8923707746935
 30
0.0
 11
63.89607359652052
 21
156.9713071945672
 31
0.0
  0
LINE
  5
1F17
330
1F
100
AcDbEntity
  8
太線
100
AcDbLine
 10
48.89607359652046
 20
170.8923707746935
 30
0.0
 11
48.89607359652046
 21
156.8923707746935
 31
0.0
  0
ARC
  5
1F18
330
1F
100
AcDbEntity
  8
太線
100
AcDbCircle
 10
56.49625378011013
 20
155.1949678523621
 30
0.0
 40
2.600903072682835
100
AcDbArc
 50
43.07618474961507
 51
136.9238152503849
  0
LINE
  5
1F19
330
1F
100
AcDbEntity
  8
太線
100
AcDbLine
 10
57.27080174410923
 20
155.8996563188264
 30
0.0
 11
61.10499820882274
 21
155.8996563188264
 31
0.0
  0
LINE
  5
1F1A
330
1F
100
AcDbEntity
  8
太線
100
AcDbLine
 10
54.48812606750476
 20
156.9217985481472
 30
0.0
 11
52.31880670416751
 21
155.9301804934658
 31
0.0
  0
LINE
  5
1F1B
330
1F
100
AcDbEntity
  8
太線
100
AcDbLine
 10
54.48812606750471
 20
156.9217985481471
 30
0.0
 11
48.89607359652046
 21
156.8923707746935
 31
0.0
  0
LINE
  5
1F1C
330
1F
100
AcDbEntity
  8
太線
100
AcDbLine
 10
49.852632377237
 20
155.3365253064528
 30
0.0
 11
49.81796387987498
 21
155.8996563188264
 31
0.0
  0
LINE
  5
1F1D
330
1F
100
AcDbEntity
  8
太線
100
AcDbLine
 10
63.39607359652046
 20
156.7022019608464
 30
0.0
 11
61.10499820882274
 21
155.6549279829004
 31
0.0
  0
LINE
  5
1F1E
330
1F
100
AcDbEntity
  8
太線
100
AcDbLine
 10
58.39607359652046
 20
156.9713071945672
 30
0.0
 11
63.89607359652052
 21
156.9713071945672
 31
0.0
  0
LINE
  5
1F1F
330
1F
100
AcDbEntity
  8
太線
100
AcDbLine
 10
63.89607359652046
 20
156.4219862913174
 30
0.0
 11
63.89607359652046
 21
156.9713071945671
 31
0.0
  0
ARC
  5
1F20
330
1F
100
AcDbEntity
  8
太線
100
AcDbCircle
 10
56.17616449942881
 20
163.1837778074895
 30
0.0
 40
10.5012709217704
100
AcDbArc
 50
46.56531955593883
 51
88.45248192091634
  0
ARC
  5
1F21
330
1F
100
AcDbEntity
  8
太線
100
AcDbCircle
 10
56.39607359652046
 20
163.0173707746935
 30
0.0
 40
10.875
100
AcDbArc
 50
46.39718102729639
 51
133.6028189727036
  0
LINE
  5
1FC1
330
1F
100
AcDbEntity
  8
太線
100
AcDbLine
 10
109.6557080451177
 20
150.3611376129873
 30
0.0
 11
109.6557080451177
 21
135.6685406785416
 31
0.0
  0
LINE
  5
1FC2
330
1F
100
AcDbEntity
  8
太線
100
AcDbLine
 10
109.6557080451177
 20
135.6685406785416
 30
0.0
 11
111.820256020801
 21
128.8972560643226
 31
0.0
  0
LINE
  5
1FC3
330
1F
100
AcDbEntity
  8
太線
100
AcDbLine
 10
111.820256020801
 20
128.8972560643226
 30
0.0
 11
113.898802552395
 21
135.6685406785416
 31
0.0
  0
LINE
  5
1FC4
330
1F
100
AcDbEntity
  8
太線
100
AcDbLine
 10
113.898802552395
 20
135.6685406785416
 30
0.0
 11
113.898802552395
 21
150.3611376129873
 31
0.0
  0
LINE
  5
1FC8
330
1F
100
AcDbEntity
  8
太線
100
AcDbLine
 10
113.878036217153
 20
149.453388192416
 30
0.0
 11
109.7127393618566
 21
147.9844543213639
 31
0.0
  0
LINE
  5
1FC9
330
1F
100
AcDbEntity
  8
太線
100
AcDbLine
 10
113.878036217153
 20
148.2292767972414
 30
0.0
 11
109.7127393618566
 21
146.7603429261894
 31
0.0
  0
LINE
  5
1FCA
330
1F
100
AcDbEntity
  8
太線
100
AcDbLine
 10
113.9597083144897
 20
146.8419504181485
 30
0.0
 11
109.7944114591932
 21
145.3730165470965
 31
0.0
  0
LINE
  5
1FCB
330
1F
100
AcDbEntity
  8
太線
100
AcDbLine
 10
113.9597083144897
 20
145.617839022974
 30
0.0
 11
109.7944114591932
 21
144.1489051519219
 31
0.0
  0
LINE
  5
1FCC
330
1F
100
AcDbEntity
  8
太線
100
AcDbLine
 10
113.878036217153
 20
144.3121201358402
 30
0.0
 11
109.7127393618566
 21
142.8431862647881
 31
0.0
  0
LINE
  5
1FCD
330
1F
100
AcDbEntity
  8
太線
100
AcDbLine
 10
113.878036217153
 20
143.0880087406657
 30
0.0
 11
109.7127393618566
 21
141.6190748696136
 31
0.0
  0
LINE
  5
1FCE
330
1F
100
AcDbEntity
  8
太線
100
AcDbLine
 10
113.9597083144897
 20
141.7006823615728
 30
0.0
 11
109.7944114591932
 21
140.2317484905207
 31
0.0
  0
LINE
  5
1FCF
330
1F
100
AcDbEntity
  8
太線
100
AcDbLine
 10
113.9597083144897
 20
140.4765709663982
 30
0.0
 11
109.7944114591932
 21
139.0076370953462
 31
0.0
  0
LINE
  5
1FD0
330
1F
100
AcDbEntity
  8
太線
100
AcDbLine
 10
113.9597083144897
 20
139.0892445873052
 30
0.0
 11
109.7944114591932
 21
137.6203107162532
 31
0.0
  0
LINE
  5
1FD1
330
1F
100
AcDbEntity
  8
太線
100
AcDbLine
 10
113.9597083144897
 20
137.8651331921307
 30
0.0
 11
109.7944114591932
 21
136.3961993210787
 31
0.0
  0
LINE
  5
1FD2
330
1F
100
AcDbEntity
  8
太線
100
AcDbLine
 10
113.878036217153
 20
136.4778073051442
 30
0.0
 11
109.8760844213614
 21
135.0904809260513
 31
0.0
  0
LINE
  5
1FD3
330
1F
100
AcDbEntity
  8
太線
100
AcDbLine
 10
113.7146920224797
 20
134.8456589422802
 30
0.0
 11
110.3661195998762
 21
133.5399400551465
 31
0.0
  0
LINE
  5
1FD5
330
1F
100
AcDbEntity
  8
太線
100
AcDbLine
 10
112.4880780809181
 20
131.370932077532
 30
0.0
 11
111.3950321836727
 21
130.6988248736702
 31
0.0
  0
LINE
  5
1FD6
330
1F
100
AcDbEntity
  8
太線
100
AcDbLine
 10
113.0766409237305
 20
133.0512010713996
 30
0.0
 11
110.8064693408603
 21
132.2110665744659
 31
0.0
  0
LINE
  5
1FD7
330
1F
100
AcDbEntity
  8
太線
100
AcDbLine
 10
111.983595026485
 20
150.2739545677438
 30
0.0
 11
109.6293436552355
 21
149.3498066703274
 31
0.0
  0
TEXT
  5
1FE6
330
1F
100
AcDbEntity
  8
文字
100
AcDbText
 10
113.1406984148806
 20
118.4442902818126
 30
0.0
 40
4.0
  1
止めビス付いていません
 51
15.0
  7
OKANO
100
AcDbText
  0
VIEWPORT
  5
2E
330
1B
100
AcDbEntity
 67
     1
  8
0
100
AcDbViewport
 10
150.2021248481614
 20
107.5641116034542
 30
0.0
 40
479.2713433942931
 41
243.4233798904628
 68
     2
 69
     1
 12
150.2021248481614
 22
107.5641116034542
 13
0.0
 23
0.0
 14
10.0
 24
10.0
 15
10.0
 25
10.0
 16
0.0
 26
0.0
 36
1.0
 17
0.0
 27
0.0
 37
0.0
 42
50.0
 43
0.0
 44
0.0
 45
243.4233798904628
 50
0.0
 51
0.0
 72
   100
 90
    32800
  1

281
     0
 71
     1
 74
     0
110
0.0
120
0.0
130
0.0
111
1.0
121
0.0
131
0.0
112
0.0
122
1.0
132
0.0
 79
     0
146
0.0
  0
VIEWPORT
  5
30
330
1B
100
AcDbEntity
 67
     1
  8
70-0-CON
100
AcDbViewport
 10
141.8594093064315
 20
100.3480256368386
 30
0.0
 40
261.6199023344245
 41
192.6196987113174
 68
     1
 69
     2
 12
90.20088156493157
 22
128.1833729692164
 13
0.0
 23
0.0
 14
5.0
 24
5.0
 15
10.0
 25
10.0
 16
0.0
 26
0.0
 36
1.0
 17
0.0
 27
0.0
 37
0.0
 42
50.0
 43
0.0
 44
0.0
 45
187.0316600207294
 50
0.0
 51
0.0
 72
   100
 90
    32864
  1

281
     0
 71
     1
 74
     0
110
0.0
120
0.0
130
0.0
111
1.0
121
0.0
131
0.0
112
0.0
122
1.0
132
0.0
 79
     0
146
0.0
  0
LWPOLYLINE
  5
45
330
1B
100
AcDbEntity
 67
     1
  8
50-0-CON
100
AcDbPolyline
 90
        4
 70
     1
 43
0.0
 10
11.04945813921926
 20
4.038176281179858
 10
272.2125713060605
 20
4.033520706629644
 10
273.4987754093466
 20
195.9297862125246
 10
11.04945813921926
 20
196.6578749924973
  0
LINE
  5
4A
330
1B
100
AcDbEntity
 67
     1
  8
50-0-CON
100
AcDbLine
 10
10.38768783662635
 20
100.3480256368386
 30
0.0
 11
-4.391850629656119
 21
100.3480256368386
 31
0.0
  0
LINE
  5
4B
330
1B
100
AcDbEntity
 67
     1
  8
50-0-CON
100
AcDbLine
 10
141.8594093064315
 20
197.098652626247
 30
0.0
 11
141.8594093064315
 21
202.387980773708
 31
0.0
  0
LINE
  5
4C
330
1B
100
AcDbEntity
 67
     1
  8
50-0-CON
100
AcDbLine
 10
272.4487699456857
 20
100.7888032705883
 30
0.0
 11
278.8458837249377
 21
100.7888032705883
 31
0.0
  0
LINE
  5
4D
330
1B
100
AcDbEntity
 67
     1
  8
50-0-CON
100
AcDbLine
 10
140.9770484758805
 20
4.038176281179858
 30
0.0
 11
140.9770484758805
 21
-3.455038652015446
 31
0.0
  0
ENDSEC
  0
SECTION
  2
OBJECTS
  0
DICTIONARY
  5
C
330
0
100
AcDbDictionary
281
     1
  3
ACAD_GROUP
350
D
  3
ACAD_LAYOUT
350
1A
  3
ACAD_MLINESTYLE
350
17
  3
ACAD_PLOTSETTINGS
350
19
  3
ACAD_PLOTSTYLENAME
350
E
  3
AcadDim
350
11BC
  3
AcDbVariableDictionary
350
6AD
  3
DWGPROPS
350
30F
  0
DICTIONARY
  5
D
102
{ACAD_REACTORS
330
C
102
}
330
C
100
AcDbDictionary
281
     1
  0
DICTIONARY
  5
1A
102
{ACAD_REACTORS
330
C
102
}
330
C
100
AcDbDictionary
281
     1
  3
A4
350
1E
  3
Model
350
22
  0
DICTIONARY
  5
17
102
{ACAD_REACTORS
330
C
102
}
330
C
100
AcDbDictionary
281
     1
  3
Standard
350
18
  0
DICTIONARY
  5
19
102
{ACAD_REACTORS
330
C
102
}
330
C
100
AcDbDictionary
281
     1
  0
ACDBDICTIONARYWDFLT
  5
E
102
{ACAD_REACTORS
330
C
102
}
330
C
100
AcDbDictionary
281
     1
  3
Normal
350
F
100
AcDbDictionaryWithDefault
340
F
  0
XRECORD
  5
11BC
102
{ACAD_REACTORS
330
C
102
}
330
C
100
AcDbXrecord
280
     1
 90
   990106
  3

 60
     0
 61
     0
 62
     1
 63
     3
 64
     0
 65
     0
 66
     0
 67
     3
 68
     1
 69
     0
 70
     0
 71
     0
 72
     0
 40
0.2090598027293709
170
     0
  0
DICTIONARY
  5
6AD
102
{ACAD_REACTORS
330
C
102
}
330
C
100
AcDbDictionary
281
     1
  3
SORTENTS
350
6AE
  0
XRECORD
  5
30F
102
{ACAD_REACTORS
330
C
102
}
330
C
100
AcDbXrecord
280
     1
  1
DWGPROPS COOKIE
  2

  3

  4

  6

  7

  8

  9

300
=
301
=
302
=
303
=
304
=
305
=
306
=
307
=
308
=
309
=
 40
0.3303803125
 41
2452362.482225463
 42
2452370.969861285
  1

 90
        0
  0
LAYOUT
  5
1E
102
{ACAD_REACTORS
330
1A
102
}
330
1A
100
AcDbPlotSettings
  1

  2
EPSON PM-920C
  4
A4
  6

 40
3.757083177566528
 41
14.7637300491333
 42
3.757080078125
 43
3.757080078125
 44
209.9733276367187
 45
296.9683227539062
 46
0.0
 47
0.0
 48
0.0
 49
0.0
140
0.0
141
0.0
142
1.0
143
1.0
 70
   688
 72
     1
 73
     1
 74
     5
  7
joint.ctb
 75
    16
147
1.0
148
0.0
149
0.0
100
AcDbLayout
  1
A4
 70
     1
 71
     1
 10
-3.757080078125
 20
-3.757083177566528
 11
293.2112426757812
 21
206.2162444591522
 12
0.0
 22
0.0
 32
0.0
 14
-4.391850629656119
 24
-3.455038652015446
 34
0.0
 15
278.8458837249377
 25
202.387980773708
 35
0.0
146
0.0
 13
0.0
 23
0.0
 33
0.0
 16
1.0
 26
0.0
 36
0.0
 17
0.0
 27
1.0
 37
0.0
 76
     0
330
1B
331
30
  0
LAYOUT
  5
22
102
{ACAD_REACTORS
330
1A
102
}
330
1A
100
AcDbPlotSettings
  1

  2
EPSON PM-920C
  4
A4
  6

 40
3.757083177566528
 41
14.7637300491333
 42
3.757080078125
 43
3.757080078125
 44
209.9733276367187
 45
296.9683227539062
 46
0.0
 47
0.0
 48
0.0
 49
0.0
140
0.0
141
0.0
142
1.0
143
1.0
 70
 11952
 72
     1
 73
     1
 74
     0
  7

 75
     0
147
1.0
148
-45.64199848979289
149
-84.48806419330498
100
AcDbLayout
  1
Model
 70
     1
 71
     0
 10
0.0
 20
0.0
 11
12.0
 21
9.0
 12
0.0
 22
0.0
 32
0.0
 14
0.0
 24
0.0
 34
0.0
 15
0.0
 25
0.0
 35
0.0
146
0.0
 13
0.0
 23
0.0
 33
0.0
 16
1.0
 26
0.0
 36
0.0
 17
0.0
 27
1.0
 37
0.0
 76
     0
330
1F
  0
MLINESTYLE
  5
18
102
{ACAD_REACTORS
330
17
102
}
330
17
100
AcDbMlineStyle
  2
STANDARD
 70
     0
  3

 62
   256
 51
90.0
 52
90.0
 71
     2
 49
0.5
 62
   256
  6
BYLAYER
 49
-0.5
 62
   256
  6
BYLAYER
  0
ACDBPLACEHOLDER
  5
F
102
{ACAD_REACTORS
330
E
102
}
330
E
  0
DICTIONARYVAR
  5
6AE
102
{ACAD_REACTORS
330
6AD
102
}
330
6AD
100
DictionaryVariables
280
     0
  1
96
  0
ENDSEC
  0
EOF
