  0
SECTION
  2
HEADER
  9
$ACADVER
  1
AC1015
  9
$ACADMAINTVER
 70
     6
  9
$DWGCODEPAGE
  3
ANSI_932
  9
$INSBASE
 10
0.0
 20
0.0
 30
0.0
  9
$EXTMIN
 10
-487.2283560872178
 20
-4.721196850235052
 30
0.0
  9
$EXTMAX
 10
563.7104183757384
 20
267.5249086473529
 30
0.0
  9
$LIMMIN
 10
0.0
 20
0.0
  9
$LIMMAX
 10
420.0
 20
297.0
  9
$ORTHOMODE
 70
     1
  9
$REGENMODE
 70
     1
  9
$FILLMODE
 70
     1
  9
$QTEXTMODE
 70
     0
  9
$MIRRTEXT
 70
     1
  9
$LTSCALE
 40
1.0
  9
$ATTMODE
 70
     1
  9
$TEXTSIZE
 40
5.0
  9
$TRACEWID
 40
1.0
  9
$TEXTSTYLE
  7
OKANO
  9
$CLAYER
  8
太線
  9
$CELTYPE
  6
ByLayer
  9
$CECOLOR
 62
   256
  9
$CELTSCALE
 40
1.0
  9
$DISPSILH
 70
     0
  9
$DIMSCALE
 40
0.0
  9
$DIMASZ
 40
3.0
  9
$DIMEXO
 40
2.0
  9
$DIMDLI
 40
8.0
  9
$DIMRND
 40
0.0
  9
$DIMDLE
 40
0.0
  9
$DIMEXE
 40
3.0
  9
$DIMTP
 40
0.0
  9
$DIMTM
 40
0.0
  9
$DIMTXT
 40
5.0
  9
$DIMCEN
 40
2.5
  9
$DIMTSZ
 40
0.0
  9
$DIMTOL
 70
     0
  9
$DIMLIM
 70
     0
  9
$DIMTIH
 70
     0
  9
$DIMTOH
 70
     0
  9
$DIMSE1
 70
     0
  9
$DIMSE2
 70
     0
  9
$DIMTAD
 70
     1
  9
$DIMZIN
 70
     8
  9
$DIMBLK
  1
Closed
  9
$DIMASO
 70
     1
  9
$DIMSHO
 70
     1
  9
$DIMPOST
  1

  9
$DIMAPOST
  1

  9
$DIMALT
 70
     0
  9
$DIMALTD
 70
     3
  9
$DIMALTF
 40
0.03937007874016
  9
$DIMLFAC
 40
1.0
  9
$DIMTOFL
 70
     1
  9
$DIMTVP
 40
0.0
  9
$DIMTIX
 70
     0
  9
$DIMSOXD
 70
     0
  9
$DIMSAH
 70
     0
  9
$DIMBLK1
  1

  9
$DIMBLK2
  1

  9
$DIMSTYLE
  2
sunpo
  9
$DIMCLRD
 70
     0
  9
$DIMCLRE
 70
     0
  9
$DIMCLRT
 70
     0
  9
$DIMTFAC
 40
1.0
  9
$DIMGAP
 40
1.0
  9
$DIMJUST
 70
     0
  9
$DIMSD1
 70
     0
  9
$DIMSD2
 70
     0
  9
$DIMTOLJ
 70
     0
  9
$DIMTZIN
 70
     8
  9
$DIMALTZ
 70
     0
  9
$DIMALTTZ
 70
     0
  9
$DIMUPT
 70
     0
  9
$DIMDEC
 70
     2
  9
$DIMTDEC
 70
     2
  9
$DIMALTU
 70
     2
  9
$DIMALTTD
 70
     3
  9
$DIMTXSTY
  7
OKANO
  9
$DIMAUNIT
 70
     0
  9
$DIMADEC
 70
     0
  9
$DIMALTRND
 40
0.0
  9
$DIMAZIN
 70
     0
  9
$DIMDSEP
 70
    46
  9
$DIMATFIT
 70
     3
  9
$DIMFRAC
 70
     0
  9
$DIMLDRBLK
  1
Closed
  9
$DIMLUNIT
 70
     2
  9
$DIMLWD
 70
    -2
  9
$DIMLWE
 70
    -2
  9
$DIMTMOVE
 70
     0
  9
$LUNITS
 70
     2
  9
$LUPREC
 70
     2
  9
$SKETCHINC
 40
1.0
  9
$FILLETRAD
 40
5.0
  9
$AUNITS
 70
     0
  9
$AUPREC
 70
     0
  9
$MENU
  1
.
  9
$ELEVATION
 40
0.0
  9
$PELEVATION
 40
0.0
  9
$THICKNESS
 40
0.0
  9
$LIMCHECK
 70
     0
  9
$CHAMFERA
 40
10.0
  9
$CHAMFERB
 40
10.0
  9
$CHAMFERC
 40
20.0
  9
$CHAMFERD
 40
0.0
  9
$SKPOLY
 70
     0
  9
$TDCREATE
 40
2452362.482225463
  9
$TDUCREATE
 40
2452362.107225463
  9
$TDUPDATE
 40
2455957.672603738
  9
$TDUUPDATE
 40
2455957.297603738
  9
$TDINDWG
 40
2.1170915972
  9
$TDUSRTIMER
 40
2.1170915972
  9
$USRTIMER
 70
     1
  9
$ANGBASE
 50
0.0
  9
$ANGDIR
 70
     0
  9
$PDMODE
 70
     0
  9
$PDSIZE
 40
0.0
  9
$PLINEWID
 40
0.0
  9
$SPLFRAME
 70
     0
  9
$SPLINETYPE
 70
     6
  9
$SPLINESEGS
 70
     8
  9
$HANDSEED
  5
2F7C
  9
$SURFTAB1
 70
     6
  9
$SURFTAB2
 70
     6
  9
$SURFTYPE
 70
     6
  9
$SURFU
 70
     6
  9
$SURFV
 70
     6
  9
$UCSBASE
  2

  9
$UCSNAME
  2

  9
$UCSORG
 10
0.0
 20
0.0
 30
0.0
  9
$UCSXDIR
 10
1.0
 20
0.0
 30
0.0
  9
$UCSYDIR
 10
0.0
 20
1.0
 30
0.0
  9
$UCSORTHOREF
  2

  9
$UCSORTHOVIEW
 70
     0
  9
$UCSORGTOP
 10
0.0
 20
0.0
 30
0.0
  9
$UCSORGBOTTOM
 10
0.0
 20
0.0
 30
0.0
  9
$UCSORGLEFT
 10
0.0
 20
0.0
 30
0.0
  9
$UCSORGRIGHT
 10
0.0
 20
0.0
 30
0.0
  9
$UCSORGFRONT
 10
0.0
 20
0.0
 30
0.0
  9
$UCSORGBACK
 10
0.0
 20
0.0
 30
0.0
  9
$PUCSBASE
  2

  9
$PUCSNAME
  2

  9
$PUCSORG
 10
0.0
 20
0.0
 30
0.0
  9
$PUCSXDIR
 10
1.0
 20
0.0
 30
0.0
  9
$PUCSYDIR
 10
0.0
 20
1.0
 30
0.0
  9
$PUCSORTHOREF
  2

  9
$PUCSORTHOVIEW
 70
     0
  9
$PUCSORGTOP
 10
0.0
 20
0.0
 30
0.0
  9
$PUCSORGBOTTOM
 10
0.0
 20
0.0
 30
0.0
  9
$PUCSORGLEFT
 10
0.0
 20
0.0
 30
0.0
  9
$PUCSORGRIGHT
 10
0.0
 20
0.0
 30
0.0
  9
$PUCSORGFRONT
 10
0.0
 20
0.0
 30
0.0
  9
$PUCSORGBACK
 10
0.0
 20
0.0
 30
0.0
  9
$USERI1
 70
     0
  9
$USERI2
 70
     0
  9
$USERI3
 70
     0
  9
$USERI4
 70
     0
  9
$USERI5
 70
     0
  9
$USERR1
 40
0.0
  9
$USERR2
 40
0.0
  9
$USERR3
 40
0.0
  9
$USERR4
 40
0.0
  9
$USERR5
 40
0.0
  9
$WORLDVIEW
 70
     1
  9
$SHADEDGE
 70
     3
  9
$SHADEDIF
 70
    70
  9
$TILEMODE
 70
     0
  9
$MAXACTVP
 70
    64
  9
$PINSBASE
 10
0.0
 20
0.0
 30
0.0
  9
$PLIMCHECK
 70
     0
  9
$PEXTMIN
 10
-4.391850629656119
 20
-3.455038652015446
 30
0.0
  9
$PEXTMAX
 10
278.8458837249377
 20
202.387980773708
 30
0.0
  9
$PLIMMIN
 10
-3.757080078125
 20
-3.757083177566528
  9
$PLIMMAX
 10
293.2112426757812
 20
206.2162444591522
  9
$UNITMODE
 70
     0
  9
$VISRETAIN
 70
     1
  9
$PLINEGEN
 70
     0
  9
$PSLTSCALE
 70
     1
  9
$TREEDEPTH
 70
  3020
  9
$CMLSTYLE
  2
Standard
  9
$CMLJUST
 70
     0
  9
$CMLSCALE
 40
20.0
  9
$PROXYGRAPHICS
 70
     1
  9
$MEASUREMENT
 70
     1
  9
$CELWEIGHT
370
    -1
  9
$ENDCAPS
280
     0
  9
$JOINSTYLE
280
     0
  9
$LWDISPLAY
290
     0
  9
$INSUNITS
 70
     4
  9
$HYPERLINKBASE
  1

  9
$STYLESHEET
  1

  9
$XEDIT
290
     1
  9
$CEPSNTYPE
380
     0
  9
$PSTYLEMODE
290
     1
  9
$FINGERPRINTGUID
  2
{FF7F33C3-4233-11D6-AEE0-0000F45FD7F4}
  9
$VERSIONGUID
  2
{57DCC374-3CA1-49AD-8CF5-DFF1F7D3C1D4}
  9
$EXTNAMES
290
     1
  9
$PSVPSCALE
 40
0.0
  9
$OLESTARTUP
290
     0
  0
ENDSEC
  0
SECTION
  2
CLASSES
  0
CLASS
  1
ACDBDICTIONARYWDFLT
  2
AcDbDictionaryWithDefault
  3
AutoCAD 2000
 90
        0
280
     0
281
     0
  0
CLASS
  1
ACDBPLACEHOLDER
  2
AcDbPlaceHolder
  3
AutoCAD 2000
 90
        0
280
     0
281
     0
  0
CLASS
  1
LAYOUT
  2
AcDbLayout
  3
AutoCAD 2000
 90
        0
280
     0
281
     0
  0
CLASS
  1
DICTIONARYVAR
  2
AcDbDictionaryVar
  3
AutoCAD 2000
 90
        0
280
     0
281
     0
  0
ENDSEC
  0
SECTION
  2
TABLES
  0
TABLE
  2
VPORT
  5
8
330
0
100
AcDbSymbolTable
 70
     2
  0
VPORT
  5
2F7B
330
8
100
AcDbSymbolTableRecord
100
AcDbViewportTableRecord
  2
*Active
 70
     0
 10
0.0
 20
0.0
 11
1.0
 21
1.0
 12
396.6215973643139
 22
147.8919832614401
 13
0.0
 23
0.0
 14
5.0
 24
5.0
 15
10.0
 25
10.0
 16
0.0
 26
0.0
 36
1.0
 17
0.0
 27
0.0
 37
0.0
 40
323.4079753679529
 41
1.968879668049792
 42
50.0
 43
0.0
 44
0.0
 50
0.0
 51
0.0
 71
     0
 72
   100
 73
     1
 74
     3
 75
     0
 76
     0
 77
     0
 78
     0
281
     0
 65
     1
110
0.0
120
0.0
130
0.0
111
1.0
121
0.0
131
0.0
112
0.0
122
1.0
132
0.0
 79
     0
146
0.0
  0
ENDTAB
  0
TABLE
  2
LTYPE
  5
5
330
0
100
AcDbSymbolTable
 70
     5
  0
LTYPE
  5
14
330
5
100
AcDbSymbolTableRecord
100
AcDbLinetypeTableRecord
  2
ByBlock
 70
     0
  3

 72
    65
 73
     0
 40
0.0
  0
LTYPE
  5
15
330
5
100
AcDbSymbolTableRecord
100
AcDbLinetypeTableRecord
  2
ByLayer
 70
     0
  3

 72
    65
 73
     0
 40
0.0
  0
LTYPE
  5
16
330
5
100
AcDbSymbolTableRecord
100
AcDbLinetypeTableRecord
  2
Continuous
 70
     0
  3
Solid line
 72
    65
 73
     0
 40
0.0
  0
LTYPE
  5
33
330
5
100
AcDbSymbolTableRecord
100
AcDbLinetypeTableRecord
  2
DASHED2
 70
     0
  3
Dashed (.5x) _ _ _ _ _ _ _ _ _ _ _ _ _ _ _ _ _
 72
    65
 73
     2
 40
9.524999999999998
 49
6.349999999999999
 74
     0
 49
-3.174999999999999
 74
     0
  0
LTYPE
  5
34
330
5
100
AcDbSymbolTableRecord
100
AcDbLinetypeTableRecord
  2
CENTER2
 70
     0
  3
Center (.5x) ___ _ ___ _ ___ _ ___ _ ___ _ ___
 72
    65
 73
     4
 40
28.57499999999999
 49
19.05
 74
     0
 49
-3.174999999999999
 74
     0
 49
3.174999999999999
 74
     0
 49
-3.174999999999999
 74
     0
  0
LTYPE
  5
35
330
5
100
AcDbSymbolTableRecord
100
AcDbLinetypeTableRecord
  2
PHANTOM2
 70
     0
  3
Phantom (.5x) ___ _ _ ___ _ _ ___ _ _ ___ _ _
 72
    65
 73
     6
 40
31.75
 49
15.875
 74
     0
 49
-3.174999999999999
 74
     0
 49
3.174999999999999
 74
     0
 49
-3.174999999999999
 74
     0
 49
3.174999999999999
 74
     0
 49
-3.174999999999999
 74
     0
  0
LTYPE
  5
36
330
5
100
AcDbSymbolTableRecord
100
AcDbLinetypeTableRecord
  2
HIDDEN2
 70
     0
  3
Hidden (.5x) _ _ _ _ _ _ _ _ _ _ _ _ _ _ _ _ _
 72
    65
 73
     2
 40
4.762499999999999
 49
3.174999999999999
 74
     0
 49
-1.587499999999999
 74
     0
  0
ENDTAB
  0
TABLE
  2
LAYER
  5
2
330
0
100
AcDbSymbolTable
 70
    13
  0
LAYER
  5
10
330
2
100
AcDbSymbolTableRecord
100
AcDbLayerTableRecord
  2
0
 70
     0
 62
     7
  6
Continuous
370
    -3
390
F
  0
LAYER
  5
40
330
2
100
AcDbSymbolTableRecord
100
AcDbLayerTableRecord
  2
50-0-CON
 70
     0
 62
     4
  6
Continuous
370
    50
390
F
  0
LAYER
  5
41
330
2
100
AcDbSymbolTableRecord
100
AcDbLayerTableRecord
  2
70-0-CON
 70
     0
 62
   202
  6
Continuous
370
    70
390
F
  0
LAYER
  5
4E
330
2
100
AcDbSymbolTableRecord
100
AcDbLayerTableRecord
  2
極太線
 70
     0
 62
     7
  6
Continuous
370
    70
390
F
  0
LAYER
  5
4F
330
2
100
AcDbSymbolTableRecord
100
AcDbLayerTableRecord
  2
細線
 70
     0
 62
     8
  6
Continuous
370
    18
390
F
  0
LAYER
  5
AB
330
2
100
AcDbSymbolTableRecord
100
AcDbLayerTableRecord
  2
構築線
 70
     0
 62
    -2
  6
Continuous
290
     0
370
    18
390
F
  0
LAYER
  5
B8
330
2
100
AcDbSymbolTableRecord
100
AcDbLayerTableRecord
  2
太線
 70
     0
 62
     7
  6
Continuous
370
    35
390
F
  0
LAYER
  5
B9
330
2
100
AcDbSymbolTableRecord
100
AcDbLayerTableRecord
  2
寸法線
 70
     0
 62
     5
  6
Continuous
370
    18
390
F
  0
LAYER
  5
BA
330
2
100
AcDbSymbolTableRecord
100
AcDbLayerTableRecord
  2
破線
 70
     0
 62
     8
  6
HIDDEN2
370
    18
390
F
  0
LAYER
  5
BB
330
2
100
AcDbSymbolTableRecord
100
AcDbLayerTableRecord
  2
中心線
 70
     0
 62
     1
  6
CENTER2
370
    18
390
F
  0
LAYER
  5
BC
330
2
100
AcDbSymbolTableRecord
100
AcDbLayerTableRecord
  2
想像線
 70
     0
 62
     8
  6
PHANTOM2
370
    18
390
F
  0
LAYER
  5
BD
330
2
100
AcDbSymbolTableRecord
100
AcDbLayerTableRecord
  2
文字
 70
     0
 62
     7
  6
Continuous
370
    18
390
F
  0
LAYER
  5
180
330
2
100
AcDbSymbolTableRecord
100
AcDbLayerTableRecord
  2
Defpoints
 70
     0
 62
     7
  6
Continuous
290
     0
370
    -3
390
F
  0
ENDTAB
  0
TABLE
  2
STYLE
  5
3
330
0
100
AcDbSymbolTable
 70
     3
  0
STYLE
  5
11
330
3
100
AcDbSymbolTableRecord
100
AcDbTextStyleTableRecord
  2
Standard
 70
     0
 40
0.0
 41
1.0
 50
0.0
 71
     0
 42
3.0
  3
txt
  4

  0
STYLE
  5
32
330
3
100
AcDbSymbolTableRecord
100
AcDbTextStyleTableRecord
  2

 70
     1
 40
0.0
 41
1.0
 50
0.0
 71
     0
 42
2.5
  3
ltypeshp.shx
  4

  0
STYLE
  5
50
330
3
100
AcDbSymbolTableRecord
100
AcDbTextStyleTableRecord
  2
OKANO
 70
     0
 40
0.0
 41
1.0
 50
15.0
 71
     0
 42
5.0
  3
isocp.shx
  4
bigfont.shx
  0
ENDTAB
  0
TABLE
  2
VIEW
  5
6
330
0
100
AcDbSymbolTable
 70
     0
  0
ENDTAB
  0
TABLE
  2
UCS
  5
7
330
0
100
AcDbSymbolTable
 70
     0
  0
ENDTAB
  0
TABLE
  2
APPID
  5
9
330
0
100
AcDbSymbolTable
 70
     1
  0
APPID
  5
12
330
9
100
AcDbSymbolTableRecord
100
AcDbRegAppTableRecord
  2
ACAD
 70
     0
  0
ENDTAB
  0
TABLE
  2
DIMSTYLE
  5
A
330
0
100
AcDbSymbolTable
 70
     2
100
AcDbDimStyleTable
 71
     2
340
A2
340
27
  0
DIMSTYLE
105
27
330
A
100
AcDbSymbolTableRecord
100
AcDbDimStyleTableRecord
  2
ISO-25
 70
     0
 41
2.5
 42
0.625
 43
3.75
 44
1.25
 73
     0
 74
     0
 77
     1
 78
     8
140
2.5
141
2.5
143
0.03937007874016
147
0.625
171
     3
172
     1
271
     2
272
     2
274
     3
283
     0
284
     8
340
11
  0
DIMSTYLE
105
A2
102
{ACAD_REACTORS
330
2A5B
330
2AA4
330
2AB1
330
2ABE
330
2ACD
330
2ADA
330
2B11
330
2B27
330
2B7C
330
2B89
330
2B96
330
2E0E
330
2EB7
330
2EC4
330
2EF6
102
}
330
A
100
AcDbSymbolTableRecord
100
AcDbDimStyleTableRecord
  2
sunpo
 70
     0
 40
0.0
 41
3.0
 42
2.0
 43
8.0
 44
3.0
 73
     0
 74
     0
 77
     1
 78
     8
140
5.0
141
2.5
143
0.03937007874016
147
1.0
171
     3
172
     1
271
     2
272
     2
274
     3
283
     0
284
     8
340
50
341
9B
342
9B
  0
ENDTAB
  0
TABLE
  2
BLOCK_RECORD
  5
1
330
0
100
AcDbSymbolTable
 70
    18
  0
BLOCK_RECORD
  5
1F
330
1
100
AcDbSymbolTableRecord
100
AcDbBlockTableRecord
  2
*Model_Space
340
22
  0
BLOCK_RECORD
  5
1B
330
1
100
AcDbSymbolTableRecord
100
AcDbBlockTableRecord
  2
*Paper_Space
340
1E
  0
BLOCK_RECORD
  5
9B
330
1
100
AcDbSymbolTableRecord
100
AcDbBlockTableRecord
  2
_Closed
340
0
102
{BLKREFS
331
2BFA
331
2BFB
331
2C03
331
2C04
331
2C0C
331
2C0D
331
2C15
331
2C16
331
2C20
331
2C21
331
2C2B
331
2C2C
331
2C34
331
2C35
331
2C3D
331
2C3E
331
2C46
331
2C47
331
2C4F
331
2C50
331
2C59
331
2C5A
331
2EDE
331
2EDF
331
2EE7
331
2EE8
331
2EF0
331
2EF1
331
2F06
331
2F07
331
2F57
331
2F58
102
}
  0
BLOCK_RECORD
  5
1510
330
1
100
AcDbSymbolTableRecord
100
AcDbBlockTableRecord
  2
A$C10A573AC
340
0
  0
BLOCK_RECORD
  5
2A5C
330
1
100
AcDbSymbolTableRecord
100
AcDbBlockTableRecord
  2
*D2
340
0
  0
BLOCK_RECORD
  5
2AA5
330
1
100
AcDbSymbolTableRecord
100
AcDbBlockTableRecord
  2
*D3
340
0
  0
BLOCK_RECORD
  5
2AB2
330
1
100
AcDbSymbolTableRecord
100
AcDbBlockTableRecord
  2
*D4
340
0
  0
BLOCK_RECORD
  5
2ABF
330
1
100
AcDbSymbolTableRecord
100
AcDbBlockTableRecord
  2
*D5
340
0
  0
BLOCK_RECORD
  5
2ACE
330
1
100
AcDbSymbolTableRecord
100
AcDbBlockTableRecord
  2
*D6
340
0
  0
BLOCK_RECORD
  5
2ADB
330
1
100
AcDbSymbolTableRecord
100
AcDbBlockTableRecord
  2
*D7
340
0
  0
BLOCK_RECORD
  5
2B12
330
1
100
AcDbSymbolTableRecord
100
AcDbBlockTableRecord
  2
*D8
340
0
  0
BLOCK_RECORD
  5
2B28
330
1
100
AcDbSymbolTableRecord
100
AcDbBlockTableRecord
  2
*D9
340
0
  0
BLOCK_RECORD
  5
2B7D
330
1
100
AcDbSymbolTableRecord
100
AcDbBlockTableRecord
  2
*D10
340
0
  0
BLOCK_RECORD
  5
2B8A
330
1
100
AcDbSymbolTableRecord
100
AcDbBlockTableRecord
  2
*D11
340
0
  0
BLOCK_RECORD
  5
2B97
330
1
100
AcDbSymbolTableRecord
100
AcDbBlockTableRecord
  2
*D12
340
0
  0
BLOCK_RECORD
  5
2E0F
330
1
100
AcDbSymbolTableRecord
100
AcDbBlockTableRecord
  2
*D13
340
0
  0
BLOCK_RECORD
  5
2EB8
330
1
100
AcDbSymbolTableRecord
100
AcDbBlockTableRecord
  2
*D14
340
0
  0
BLOCK_RECORD
  5
2EC5
330
1
100
AcDbSymbolTableRecord
100
AcDbBlockTableRecord
  2
*D15
340
0
  0
BLOCK_RECORD
  5
2EF7
330
1
100
AcDbSymbolTableRecord
100
AcDbBlockTableRecord
  2
*D16
340
0
  0
ENDTAB
  0
ENDSEC
  0
SECTION
  2
BLOCKS
  0
BLOCK
  5
20
330
1F
100
AcDbEntity
  8
0
100
AcDbBlockBegin
  2
*Model_Space
 70
     0
 10
0.0
 20
0.0
 30
0.0
  3
*Model_Space
  1

  0
ENDBLK
  5
21
330
1F
100
AcDbEntity
  8
0
100
AcDbBlockEnd
  0
BLOCK
  5
1C
330
1B
100
AcDbEntity
 67
     1
  8
0
100
AcDbBlockBegin
  2
*Paper_Space
 70
     0
 10
0.0
 20
0.0
 30
0.0
  3
*Paper_Space
  1

  0
ENDBLK
  5
1D
330
1B
100
AcDbEntity
 67
     1
  8
0
100
AcDbBlockEnd
  0
BLOCK
  5
A0
330
9B
100
AcDbEntity
  8
0
100
AcDbBlockBegin
  2
_Closed
 70
     0
 10
0.0
 20
0.0
 30
0.0
  3
_Closed
  1

  0
LINE
  5
9C
330
9B
100
AcDbEntity
  8
0
 62
     0
370
    -2
100
AcDbLine
 10
-1.0
 20
0.1666666666666666
 30
0.0
 11
0.0
 21
0.0
 31
0.0
  0
LINE
  5
9D
330
9B
100
AcDbEntity
  8
0
 62
     0
370
    -2
100
AcDbLine
 10
0.0
 20
0.0
 30
0.0
 11
-1.0
 21
-0.1666666666666666
 31
0.0
  0
LINE
  5
9E
330
9B
100
AcDbEntity
  8
0
 62
     0
370
    -2
100
AcDbLine
 10
-1.0
 20
0.1666666666666666
 30
0.0
 11
-1.0
 21
-0.1666666666666666
 31
0.0
  0
LINE
  5
9F
330
9B
100
AcDbEntity
  8
0
 62
     0
370
    -2
100
AcDbLine
 10
0.0
 20
0.0
 30
0.0
 11
-1.0
 21
0.0
 31
0.0
  0
ENDBLK
  5
A1
330
9B
100
AcDbEntity
  8
0
100
AcDbBlockEnd
  0
BLOCK
  5
155B
330
1510
100
AcDbEntity
  8
0
100
AcDbBlockBegin
  2
A$C10A573AC
 70
     0
 10
0.0
 20
0.0
 30
0.0
  3
A$C10A573AC
  1

  0
TEXT
  5
1511
330
1510
100
AcDbEntity
  8
文字
100
AcDbText
 10
0.9844302777919438
 20
5.224957122252135
 30
0.0
 40
3.0
  1
Materal : Steel.
 51
15.0
  7
OKANO
100
AcDbText
  0
TEXT
  5
1512
330
1510
100
AcDbEntity
  8
文字
100
AcDbText
 10
-0.1141909619694843
 20
0.7500001922403499
 30
0.0
 40
3.0
  1
Surface treatment : Electro galvanized.
 51
15.0
  7
OKANO
100
AcDbText
  0
TEXT
  5
1513
330
1510
100
AcDbEntity
  8
文字
100
AcDbText
 10
-0.4901926332574931
 20
9.159967445193728
 30
0.0
 40
3.0
  1
5 TORGUE SCREW  M5-6
 51
15.0
  7
OKANO
100
AcDbText
  0
TEXT
  5
1514
330
1510
100
AcDbEntity
  8
文字
100
AcDbText
 10
1.364713526390005
 20
78.88822913323082
 30
0.0
 40
3.0
  1
Special standard,
 51
15.0
  7
OKANO
100
AcDbText
  0
TEXT
  5
1515
330
1510
100
AcDbEntity
  8
文字
100
AcDbText
 10
92.88160823408942
 20
89.92753849837379
 30
0.0
 40
3.0
  1
Screw Type
 51
15.0
  7
OKANO
100
AcDbText
  0
LINE
  5
1516
330
1510
100
AcDbEntity
  8
太線
100
AcDbLine
 10
113.9464587597784
 20
81.93930390144641
 30
0.0
 11
112.4464587597784
 21
81.93930390144641
 31
0.0
  0
LINE
  5
1517
330
1510
100
AcDbEntity
  8
太線
100
AcDbLine
 10
112.4464587597784
 20
76.9393039014464
 30
0.0
 11
121.4644995438761
 21
76.9393039014464
 31
0.0
  0
TEXT
  5
1518
330
1510
100
AcDbEntity
  8
文字
100
AcDbText
 10
93.46068240437217
 20
77.96976862235396
 30
0.0
 40
2.0
  1
17-30
 51
15.0
  7
OKANO
100
AcDbText
  0
LINE
  5
1519
330
1510
100
AcDbEntity
  8
太線
100
AcDbLine
 10
111.9464587597784
 20
81.43930390144641
 30
0.0
 11
111.9464587597784
 21
77.4393039014464
 31
0.0
  0
LINE
  5
151A
330
1510
100
AcDbEntity
  8
太線
100
AcDbLine
 10
91.94645875977846
 20
81.43930390144641
 30
0.0
 11
91.94645875977846
 21
77.43930390144639
 31
0.0
  0
LINE
  5
151B
330
1510
100
AcDbEntity
  8
太線
100
AcDbLine
 10
101.9644995438761
 20
77.4393039014464
 30
0.0
 11
101.9644995438761
 21
81.43930390144641
 31
0.0
  0
LINE
  5
151C
330
1510
100
AcDbEntity
  8
太線
100
AcDbLine
 10
92.44645875977846
 20
76.9393039014464
 30
0.0
 11
101.4644995438761
 21
76.9393039014464
 31
0.0
  0
ARC
  5
151D
330
1510
100
AcDbEntity
  8
太線
100
AcDbCircle
 10
92.44645875977846
 20
77.43930390144639
 30
0.0
 40
0.5
100
AcDbArc
 50
180.0
 51
270.0
  0
ARC
  5
151E
330
1510
100
AcDbEntity
  8
太線
100
AcDbCircle
 10
101.4644995438761
 20
77.4393039014464
 30
0.0
 40
0.5
100
AcDbArc
 50
270.0
 51
0.0
  0
ARC
  5
151F
330
1510
100
AcDbEntity
  8
太線
100
AcDbCircle
 10
112.4464587597784
 20
77.4393039014464
 30
0.0
 40
0.5
100
AcDbArc
 50
180.0
 51
270.0
  0
LINE
  5
1520
330
1510
100
AcDbEntity
  8
想像線
100
AcDbLine
 10
93.94645875977847
 20
81.93930390144641
 30
0.0
 11
99.96449954387617
 21
81.93930390144641
 31
0.0
  0
LINE
  5
1521
330
1510
100
AcDbEntity
  8
極太線
100
AcDbLine
 10
96.38762957111168
 20
85.43930390144641
 30
0.0
 11
97.50528794844525
 21
85.43930390144641
 31
0.0
  0
CIRCLE
  5
1522
330
1510
100
AcDbEntity
  8
太線
100
AcDbCircle
 10
96.94645875977847
 20
85.43930390144641
 30
0.0
 40
0.5588291886667776
  0
LINE
  5
1523
330
1510
100
AcDbEntity
  8
太線
100
AcDbLine
 10
99.46449954387617
 20
86.93930390144641
 30
0.0
 11
94.44645875977846
 21
86.93930390144641
 31
0.0
  0
LINE
  5
1524
330
1510
100
AcDbEntity
  8
太線
100
AcDbLine
 10
93.94645875977847
 20
86.43930390144641
 30
0.0
 11
93.94645875977847
 21
81.93930390144641
 31
0.0
  0
ARC
  5
1525
330
1510
100
AcDbEntity
  8
太線
100
AcDbCircle
 10
92.44645875977846
 20
81.43930390144641
 30
0.0
 40
0.5
100
AcDbArc
 50
90.0
 51
180.0
  0
LINE
  5
1526
330
1510
100
AcDbEntity
  8
太線
100
AcDbLine
 10
93.94645875977847
 20
81.93930390144641
 30
0.0
 11
92.44645875977846
 21
81.93930390144641
 31
0.0
  0
ARC
  5
1527
330
1510
100
AcDbEntity
  8
太線
100
AcDbCircle
 10
94.44645875977846
 20
86.43930390144641
 30
0.0
 40
0.5
100
AcDbArc
 50
90.0
 51
180.0
  0
LINE
  5
1528
330
1510
100
AcDbEntity
  8
太線
100
AcDbLine
 10
99.96449954387617
 20
81.93930390144641
 30
0.0
 11
99.96449954387617
 21
86.43930390144641
 31
0.0
  0
LINE
  5
1529
330
1510
100
AcDbEntity
  8
太線
100
AcDbLine
 10
101.4644995438761
 20
81.93930390144641
 30
0.0
 11
99.96449954387617
 21
81.93930390144641
 31
0.0
  0
ARC
  5
152A
330
1510
100
AcDbEntity
  8
太線
100
AcDbCircle
 10
101.4644995438761
 20
81.43930390144641
 30
0.0
 40
0.5
100
AcDbArc
 50
0.0
 51
90.0
  0
ARC
  5
152B
330
1510
100
AcDbEntity
  8
太線
100
AcDbCircle
 10
99.46449954387617
 20
86.43930390144641
 30
0.0
 40
0.5
100
AcDbArc
 50
0.0
 51
90.0
  0
LINE
  5
152C
330
1510
100
AcDbEntity
  8
極太線
100
AcDbLine
 10
96.94645875977847
 20
85.99813309011318
 30
0.0
 11
96.94645875977847
 21
84.88047471277964
 31
0.0
  0
ARC
  5
152D
330
1510
100
AcDbEntity
  8
太線
100
AcDbCircle
 10
112.4464587597784
 20
81.43930390144641
 30
0.0
 40
0.5
100
AcDbArc
 50
90.0
 51
180.0
  0
TEXT
  5
152E
330
1510
100
AcDbEntity
  8
文字
100
AcDbText
 10
134.3819212586066
 20
78.16263579228063
 30
0.0
 40
2.0
  1
101
 51
15.0
  7
OKANO
100
AcDbText
  0
TEXT
  5
152F
330
1510
100
AcDbEntity
  8
文字
100
AcDbText
 10
113.3422276612066
 20
77.96976862235396
 30
0.0
 40
2.0
  1
38-83
 51
15.0
  7
OKANO
100
AcDbText
  0
LINE
  5
1530
330
1510
100
AcDbEntity
  8
太線
100
AcDbLine
 10
141.9825403279738
 20
77.4393039014464
 30
0.0
 11
141.9825403279738
 21
81.43930390144641
 31
0.0
  0
LINE
  5
1531
330
1510
100
AcDbEntity
  8
太線
100
AcDbLine
 10
131.9644995438761
 20
81.43930390144641
 30
0.0
 11
131.9644995438761
 21
77.4393039014464
 31
0.0
  0
LINE
  5
1532
330
1510
100
AcDbEntity
  8
太線
100
AcDbLine
 10
121.9644995438761
 20
77.4393039014464
 30
0.0
 11
121.9644995438761
 21
81.43930390144641
 31
0.0
  0
ARC
  5
1533
330
1510
100
AcDbEntity
  8
太線
100
AcDbCircle
 10
121.4644995438761
 20
77.4393039014464
 30
0.0
 40
0.5
100
AcDbArc
 50
270.0
 51
0.0
  0
LINE
  5
1534
330
1510
100
AcDbEntity
  8
太線
100
AcDbLine
 10
132.4644995438761
 20
76.9393039014464
 30
0.0
 11
141.4825403279738
 21
76.9393039014464
 31
0.0
  0
ARC
  5
1535
330
1510
100
AcDbEntity
  8
太線
100
AcDbCircle
 10
132.4644995438761
 20
77.4393039014464
 30
0.0
 40
0.5
100
AcDbArc
 50
180.0
 51
270.0
  0
ARC
  5
1536
330
1510
100
AcDbEntity
  8
太線
100
AcDbCircle
 10
141.4825403279738
 20
77.4393039014464
 30
0.0
 40
0.5
100
AcDbArc
 50
270.0
 51
0.0
  0
ARC
  5
1537
330
1510
100
AcDbEntity
  8
太線
100
AcDbCircle
 10
121.4644995438761
 20
81.43930390144641
 30
0.0
 40
0.5
100
AcDbArc
 50
0.0
 51
90.0
  0
LINE
  5
1538
330
1510
100
AcDbEntity
  8
太線
100
AcDbLine
 10
119.9644995438761
 20
81.93930390144641
 30
0.0
 11
119.9644995438761
 21
86.43930390144641
 31
0.0
  0
LINE
  5
1539
330
1510
100
AcDbEntity
  8
太線
100
AcDbLine
 10
113.9464587597784
 20
86.43930390144641
 30
0.0
 11
113.9464587597784
 21
81.93930390144641
 31
0.0
  0
LINE
  5
153A
330
1510
100
AcDbEntity
  8
想像線
100
AcDbLine
 10
113.9464587597784
 20
81.93930390144641
 30
0.0
 11
119.9644995438761
 21
81.93930390144641
 31
0.0
  0
LINE
  5
153B
330
1510
100
AcDbEntity
  8
太線
100
AcDbLine
 10
121.4644995438761
 20
81.93930390144641
 30
0.0
 11
119.9644995438761
 21
81.93930390144641
 31
0.0
  0
LINE
  5
153C
330
1510
100
AcDbEntity
  8
太線
100
AcDbLine
 10
119.4644995438761
 20
86.93930390144641
 30
0.0
 11
114.4464587597784
 21
86.93930390144641
 31
0.0
  0
ARC
  5
153D
330
1510
100
AcDbEntity
  8
太線
100
AcDbCircle
 10
114.4464587597784
 20
86.43930390144641
 30
0.0
 40
0.5
100
AcDbArc
 50
90.0
 51
180.0
  0
CIRCLE
  5
153E
330
1510
100
AcDbEntity
  8
太線
100
AcDbCircle
 10
115.4464587597784
 20
85.43930390144641
 30
0.0
 40
0.5588291886667776
  0
LINE
  5
153F
330
1510
100
AcDbEntity
  8
極太線
100
AcDbLine
 10
115.4464587597784
 20
85.99813309011318
 30
0.0
 11
115.4464587597784
 21
84.88047471277964
 31
0.0
  0
LINE
  5
1540
330
1510
100
AcDbEntity
  8
極太線
100
AcDbLine
 10
114.8876295711116
 20
85.43930390144641
 30
0.0
 11
116.0052879484452
 21
85.43930390144641
 31
0.0
  0
ARC
  5
1541
330
1510
100
AcDbEntity
  8
太線
100
AcDbCircle
 10
119.4644995438761
 20
86.43930390144641
 30
0.0
 40
0.5
100
AcDbArc
 50
0.0
 51
90.0
  0
LINE
  5
1542
330
1510
100
AcDbEntity
  8
極太線
100
AcDbLine
 10
117.9056703552094
 20
85.43930390144641
 30
0.0
 11
119.0233287325429
 21
85.43930390144641
 31
0.0
  0
LINE
  5
1543
330
1510
100
AcDbEntity
  8
極太線
100
AcDbLine
 10
118.4644995438761
 20
85.99813309011318
 30
0.0
 11
118.4644995438761
 21
84.88047471277964
 31
0.0
  0
CIRCLE
  5
1544
330
1510
100
AcDbEntity
  8
太線
100
AcDbCircle
 10
118.4644995438761
 20
85.43930390144641
 30
0.0
 40
0.5588291886667776
  0
LINE
  5
1545
330
1510
100
AcDbEntity
  8
想像線
100
AcDbLine
 10
133.9644995438761
 20
81.93930390144641
 30
0.0
 11
139.9825403279738
 21
81.93930390144641
 31
0.0
  0
LINE
  5
1546
330
1510
100
AcDbEntity
  8
極太線
100
AcDbLine
 10
137.9237111393071
 20
85.43930390144641
 30
0.0
 11
139.0413695166406
 21
85.43930390144641
 31
0.0
  0
CIRCLE
  5
1547
330
1510
100
AcDbEntity
  8
太線
100
AcDbCircle
 10
138.4825403279738
 20
85.43930390144641
 30
0.0
 40
0.5588291886667776
  0
CIRCLE
  5
1548
330
1510
100
AcDbEntity
  8
太線
100
AcDbCircle
 10
138.4825403279738
 20
83.26342923362075
 30
0.0
 40
0.5588291886667776
  0
LINE
  5
1549
330
1510
100
AcDbEntity
  8
極太線
100
AcDbLine
 10
137.9237111393071
 20
83.26342923362075
 30
0.0
 11
139.0413695166406
 21
83.26342923362075
 31
0.0
  0
LINE
  5
154A
330
1510
100
AcDbEntity
  8
太線
100
AcDbLine
 10
139.4825403279738
 20
86.93930390144641
 30
0.0
 11
134.4644995438761
 21
86.93930390144641
 31
0.0
  0
LINE
  5
154B
330
1510
100
AcDbEntity
  8
太線
100
AcDbLine
 10
133.9644995438761
 20
86.43930390144641
 30
0.0
 11
133.9644995438761
 21
81.93930390144641
 31
0.0
  0
ARC
  5
154C
330
1510
100
AcDbEntity
  8
太線
100
AcDbCircle
 10
132.4644995438761
 20
81.43930390144641
 30
0.0
 40
0.5
100
AcDbArc
 50
90.0
 51
180.0
  0
LINE
  5
154D
330
1510
100
AcDbEntity
  8
太線
100
AcDbLine
 10
133.9644995438761
 20
81.93930390144641
 30
0.0
 11
132.4644995438761
 21
81.93930390144641
 31
0.0
  0
LINE
  5
154E
330
1510
100
AcDbEntity
  8
極太線
100
AcDbLine
 10
134.9056703552093
 20
83.26342923362075
 30
0.0
 11
136.0233287325429
 21
83.26342923362075
 31
0.0
  0
LINE
  5
154F
330
1510
100
AcDbEntity
  8
極太線
100
AcDbLine
 10
135.4644995438761
 20
83.82225842228752
 30
0.0
 11
135.4644995438761
 21
82.70460004495395
 31
0.0
  0
CIRCLE
  5
1550
330
1510
100
AcDbEntity
  8
太線
100
AcDbCircle
 10
135.4644995438761
 20
83.26342923362075
 30
0.0
 40
0.5588291886667776
  0
ARC
  5
1551
330
1510
100
AcDbEntity
  8
太線
100
AcDbCircle
 10
134.4644995438761
 20
86.43930390144641
 30
0.0
 40
0.5
100
AcDbArc
 50
90.0
 51
180.0
  0
CIRCLE
  5
1552
330
1510
100
AcDbEntity
  8
太線
100
AcDbCircle
 10
135.4644995438761
 20
85.43930390144641
 30
0.0
 40
0.5588291886667776
  0
LINE
  5
1553
330
1510
100
AcDbEntity
  8
極太線
100
AcDbLine
 10
135.4644995438761
 20
85.99813309011318
 30
0.0
 11
135.4644995438761
 21
84.88047471277964
 31
0.0
  0
LINE
  5
1554
330
1510
100
AcDbEntity
  8
極太線
100
AcDbLine
 10
134.9056703552093
 20
85.43930390144641
 30
0.0
 11
136.0233287325429
 21
85.43930390144641
 31
0.0
  0
LINE
  5
1555
330
1510
100
AcDbEntity
  8
太線
100
AcDbLine
 10
139.9825403279738
 20
81.93930390144641
 30
0.0
 11
139.9825403279738
 21
86.43930390144641
 31
0.0
  0
ARC
  5
1556
330
1510
100
AcDbEntity
  8
太線
100
AcDbCircle
 10
141.4825403279738
 20
81.43930390144641
 30
0.0
 40
0.5
100
AcDbArc
 50
0.0
 51
90.0
  0
LINE
  5
1557
330
1510
100
AcDbEntity
  8
極太線
100
AcDbLine
 10
138.4825403279738
 20
83.82225842228752
 30
0.0
 11
138.4825403279738
 21
82.70460004495395
 31
0.0
  0
LINE
  5
1558
330
1510
100
AcDbEntity
  8
太線
100
AcDbLine
 10
141.4825403279738
 20
81.93930390144641
 30
0.0
 11
139.9825403279738
 21
81.93930390144641
 31
0.0
  0
ARC
  5
1559
330
1510
100
AcDbEntity
  8
太線
100
AcDbCircle
 10
139.4825403279738
 20
86.43930390144641
 30
0.0
 40
0.5
100
AcDbArc
 50
0.0
 51
90.0
  0
LINE
  5
155A
330
1510
100
AcDbEntity
  8
極太線
100
AcDbLine
 10
138.4825403279738
 20
85.99813309011318
 30
0.0
 11
138.4825403279738
 21
84.88047471277964
 31
0.0
  0
ENDBLK
  5
155C
330
1510
100
AcDbEntity
  8
0
100
AcDbBlockEnd
  0
BLOCK
  5
2A65
330
2A5C
100
AcDbEntity
  8
0
100
AcDbBlockBegin
  2
*D2
 70
     1
 10
0.0
 20
0.0
 30
0.0
  3
*D2
  1

  0
LINE
  5
2C55
330
2A5C
100
AcDbEntity
  8
寸法線
 62
     0
370
    -2
100
AcDbLine
 10
-383.1429880330976
 20
166.3011608047489
 30
0.0
 11
-396.3797068504222
 21
150.2181350850342
 31
0.0
  0
LINE
  5
2C56
330
2A5C
100
AcDbEntity
  8
寸法線
 62
     0
370
    -2
100
AcDbLine
 10
-404.0054040385304
 20
140.9526754420765
 30
0.0
 11
-405.9118283355575
 21
138.636310531337
 31
0.0
  0
MTEXT
  5
2C57
330
2A5C
100
AcDbEntity
  8
寸法線
 62
     0
100
AcDbMText
 10
-388.7099602765173
 20
165.0448092320938
 30
0.0
 40
5.0
 41
0.0
 71
     5
 72
     1
  1
\U+22056
  7
OKANO
 11
0.6354747656756823
 21
0.7721216369131465
 31
0.0
 73
     1
 44
1.0
  0
LINE
  5
2C58
330
2A5C
100
AcDbEntity
  8
寸法線
 62
     0
370
    -2
100
AcDbLine
 10
-402.0989797415033
 20
143.2690403528159
 30
0.0
 11
-398.2861311474493
 21
147.9017701742948
 31
0.0
  0
INSERT
  5
2C59
330
2A5C
100
AcDbEntity
  8
寸法線
 62
     0
370
    -2
100
AcDbBlockReference
  2
_Closed
 10
-402.0989797415033
 20
143.2690403528159
 30
0.0
 41
3.0
 42
3.0
 43
3.0
 50
50.54479415024471
  0
INSERT
  5
2C5A
330
2A5C
100
AcDbEntity
  8
寸法線
 62
     0
370
    -2
100
AcDbBlockReference
  2
_Closed
 10
-398.2861311474493
 20
147.9017701742948
 30
0.0
 41
3.0
 42
3.0
 43
3.0
 50
230.5447941502447
  0
POINT
  5
2C5B
330
2A5C
100
AcDbEntity
  8
Defpoints
 62
     0
100
AcDbPoint
 10
-398.2861311474493
 20
147.9017701742948
 30
0.0
  0
POINT
  5
2C5C
330
2A5C
100
AcDbEntity
  8
Defpoints
 62
     0
100
AcDbPoint
 10
-402.0989797415033
 20
143.2690403528159
 30
0.0
  0
ENDBLK
  5
2A66
330
2A5C
100
AcDbEntity
  8
0
100
AcDbBlockEnd
  0
BLOCK
  5
2AAF
330
2AA5
100
AcDbEntity
  8
0
100
AcDbBlockBegin
  2
*D3
 70
     1
 10
0.0
 20
0.0
 30
0.0
  3
*D3
  1

  0
LINE
  5
2C43
330
2AA5
100
AcDbEntity
  8
寸法線
 62
     0
370
    -2
100
AcDbLine
 10
-436.7023425889025
 20
210.4711488256961
 30
0.0
 11
-484.4783560872177
 21
210.4711488256961
 31
0.0
  0
LINE
  5
2C44
330
2AA5
100
AcDbEntity
  8
寸法線
 62
     0
370
    -2
100
AcDbLine
 10
-460.7023425889025
 20
150.4711488256961
 30
0.0
 11
-484.4783560872177
 21
150.4711488256961
 31
0.0
  0
LINE
  5
2C45
330
2AA5
100
AcDbEntity
  8
寸法線
 62
     0
370
    -2
100
AcDbLine
 10
-481.4783560872178
 20
207.4711488256961
 30
0.0
 11
-481.4783560872178
 21
153.4711488256961
 31
0.0
  0
INSERT
  5
2C46
330
2AA5
100
AcDbEntity
  8
寸法線
 62
     0
370
    -2
100
AcDbBlockReference
  2
_Closed
 10
-481.4783560872178
 20
210.4711488256961
 30
0.0
 41
3.0
 42
3.0
 43
3.0
 50
90.0
  0
INSERT
  5
2C47
330
2AA5
100
AcDbEntity
  8
寸法線
 62
     0
370
    -2
100
AcDbBlockReference
  2
_Closed
 10
-481.4783560872178
 20
150.4711488256961
 30
0.0
 41
3.0
 42
3.0
 43
3.0
 50
270.0
  0
MTEXT
  5
2C48
330
2AA5
100
AcDbEntity
  8
寸法線
 62
     0
100
AcDbMText
 10
-484.9783560872178
 20
180.471148825696
 30
0.0
 40
5.0
 41
0.0
 71
     5
 72
     1
  1
57.3
  7
OKANO
 11
0.0000000000000001
 21
1.0
 31
0.0
 73
     1
 44
1.0
  0
POINT
  5
2C49
330
2AA5
100
AcDbEntity
  8
Defpoints
 62
     0
100
AcDbPoint
 10
-434.7023425889025
 20
210.4711488256961
 30
0.0
  0
POINT
  5
2C4A
330
2AA5
100
AcDbEntity
  8
Defpoints
 62
     0
100
AcDbPoint
 10
-458.7023425889025
 20
150.4711488256961
 30
0.0
  0
POINT
  5
2C4B
330
2AA5
100
AcDbEntity
  8
Defpoints
 62
     0
100
AcDbPoint
 10
-481.4783560872178
 20
150.4711488256961
 30
0.0
  0
ENDBLK
  5
2AB0
330
2AA5
100
AcDbEntity
  8
0
100
AcDbBlockEnd
  0
BLOCK
  5
2ABC
330
2AB2
100
AcDbEntity
  8
0
100
AcDbBlockBegin
  2
*D4
 70
     1
 10
0.0
 20
0.0
 30
0.0
  3
*D4
  1

  0
LINE
  5
2C09
330
2AB2
100
AcDbEntity
  8
寸法線
 62
     0
370
    -2
100
AcDbLine
 10
-460.7023425889025
 20
150.4711488256961
 30
0.0
 11
-484.4783560872177
 21
150.4711488256961
 31
0.0
  0
LINE
  5
2C0A
330
2AB2
100
AcDbEntity
  8
寸法線
 62
     0
370
    -2
100
AcDbLine
 10
-466.7023425889025
 20
115.4711488256961
 30
0.0
 11
-484.4783560872177
 21
115.4711488256961
 31
0.0
  0
LINE
  5
2C0B
330
2AB2
100
AcDbEntity
  8
寸法線
 62
     0
370
    -2
100
AcDbLine
 10
-481.4783560872177
 20
147.4711488256961
 30
0.0
 11
-481.4783560872178
 21
118.4711488256961
 31
0.0
  0
INSERT
  5
2C0C
330
2AB2
100
AcDbEntity
  8
寸法線
 62
     0
370
    -2
100
AcDbBlockReference
  2
_Closed
 10
-481.4783560872177
 20
150.4711488256961
 30
0.0
 41
3.0
 42
3.0
 43
3.0
 50
90.0
  0
INSERT
  5
2C0D
330
2AB2
100
AcDbEntity
  8
寸法線
 62
     0
370
    -2
100
AcDbBlockReference
  2
_Closed
 10
-481.4783560872178
 20
115.4711488256961
 30
0.0
 41
3.0
 42
3.0
 43
3.0
 50
270.0
  0
MTEXT
  5
2C0E
330
2AB2
100
AcDbEntity
  8
寸法線
 62
     0
100
AcDbMText
 10
-484.9783560872177
 20
132.971148825696
 30
0.0
 40
5.0
 41
0.0
 71
     5
 72
     1
  1
35
  7
OKANO
 11
0.0000000000000001
 21
1.0
 31
0.0
 73
     1
 44
1.0
  0
POINT
  5
2C0F
330
2AB2
100
AcDbEntity
  8
Defpoints
 62
     0
100
AcDbPoint
 10
-458.7023425889025
 20
150.4711488256961
 30
0.0
  0
POINT
  5
2C10
330
2AB2
100
AcDbEntity
  8
Defpoints
 62
     0
100
AcDbPoint
 10
-464.7023425889025
 20
115.4711488256961
 30
0.0
  0
POINT
  5
2C11
330
2AB2
100
AcDbEntity
  8
Defpoints
 62
     0
100
AcDbPoint
 10
-481.4783560872178
 20
115.4711488256961
 30
0.0
  0
ENDBLK
  5
2ABD
330
2AB2
100
AcDbEntity
  8
0
100
AcDbBlockEnd
  0
BLOCK
  5
2ACB
330
2ABF
100
AcDbEntity
  8
0
100
AcDbBlockBegin
  2
*D5
 70
     1
 10
0.0
 20
0.0
 30
0.0
  3
*D5
  1

  0
LINE
  5
2C26
330
2ABF
100
AcDbEntity
  8
寸法線
 62
     0
370
    -2
100
AcDbLine
 10
-404.7023425889025
 20
113.4711488256961
 30
0.0
 11
-404.7023425889025
 21
101.5868095881867
 31
0.0
  0
LINE
  5
2C27
330
2ABF
100
AcDbEntity
  8
寸法線
 62
     0
370
    -2
100
AcDbLine
 10
-409.7023425889025
 20
113.4711488256961
 30
0.0
 11
-409.7023425889025
 21
101.5868095881867
 31
0.0
  0
LINE
  5
2C28
330
2ABF
100
AcDbEntity
  8
寸法線
 62
     0
370
    -2
100
AcDbLine
 10
-401.7023425889025
 20
104.5868095881867
 30
0.0
 11
-398.7023425889025
 21
104.5868095881867
 31
0.0
  0
LINE
  5
2C29
330
2ABF
100
AcDbEntity
  8
寸法線
 62
     0
370
    -2
100
AcDbLine
 10
-412.7023425889025
 20
104.5868095881867
 30
0.0
 11
-415.7023425889025
 21
104.5868095881867
 31
0.0
  0
LINE
  5
2C2A
330
2ABF
100
AcDbEntity
  8
寸法線
 62
     0
370
    -2
100
AcDbLine
 10
-404.7023425889025
 20
104.5868095881867
 30
0.0
 11
-409.7023425889025
 21
104.5868095881867
 31
0.0
  0
INSERT
  5
2C2B
330
2ABF
100
AcDbEntity
  8
寸法線
 62
     0
370
    -2
100
AcDbBlockReference
  2
_Closed
 10
-404.7023425889025
 20
104.5868095881867
 30
0.0
 41
3.0
 42
3.0
 43
3.0
 50
180.0
  0
INSERT
  5
2C2C
330
2ABF
100
AcDbEntity
  8
寸法線
 62
     0
370
    -2
100
AcDbBlockReference
  2
_Closed
 10
-409.7023425889025
 20
104.5868095881867
 30
0.0
 41
3.0
 42
3.0
 43
3.0
  0
MTEXT
  5
2C2D
330
2ABF
100
AcDbEntity
  8
寸法線
 62
     0
100
AcDbMText
 10
-407.2023425889025
 20
108.0868095881867
 30
0.0
 40
5.0
 41
0.0
 71
     5
 72
     1
  1
4
  7
OKANO
 73
     1
 44
1.0
  0
POINT
  5
2C2E
330
2ABF
100
AcDbEntity
  8
Defpoints
 62
     0
100
AcDbPoint
 10
-404.7023425889025
 20
115.4711488256961
 30
0.0
  0
POINT
  5
2C2F
330
2ABF
100
AcDbEntity
  8
Defpoints
 62
     0
100
AcDbPoint
 10
-409.7023425889025
 20
115.4711488256961
 30
0.0
  0
POINT
  5
2C30
330
2ABF
100
AcDbEntity
  8
Defpoints
 62
     0
100
AcDbPoint
 10
-409.7023425889025
 20
104.5868095881867
 30
0.0
  0
ENDBLK
  5
2ACC
330
2ABF
100
AcDbEntity
  8
0
100
AcDbBlockEnd
  0
BLOCK
  5
2AD8
330
2ACE
100
AcDbEntity
  8
0
100
AcDbBlockBegin
  2
*D6
 70
     1
 10
0.0
 20
0.0
 30
0.0
  3
*D6
  1

  0
LINE
  5
2C12
330
2ACE
100
AcDbEntity
  8
寸法線
 62
     0
370
    -2
100
AcDbLine
 10
-409.7023425889025
 20
113.4711488256961
 30
0.0
 11
-409.7023425889025
 21
101.5868095881867
 31
0.0
  0
LINE
  5
2C13
330
2ACE
100
AcDbEntity
  8
寸法線
 62
     0
370
    -2
100
AcDbLine
 10
-459.7023425889025
 20
113.4711488256961
 30
0.0
 11
-459.7023425889025
 21
101.5868095881867
 31
0.0
  0
LINE
  5
2C14
330
2ACE
100
AcDbEntity
  8
寸法線
 62
     0
370
    -2
100
AcDbLine
 10
-412.7023425889025
 20
104.5868095881867
 30
0.0
 11
-456.7023425889025
 21
104.5868095881867
 31
0.0
  0
INSERT
  5
2C15
330
2ACE
100
AcDbEntity
  8
寸法線
 62
     0
370
    -2
100
AcDbBlockReference
  2
_Closed
 10
-409.7023425889025
 20
104.5868095881867
 30
0.0
 41
3.0
 42
3.0
 43
3.0
  0
INSERT
  5
2C16
330
2ACE
100
AcDbEntity
  8
寸法線
 62
     0
370
    -2
100
AcDbBlockReference
  2
_Closed
 10
-459.7023425889025
 20
104.5868095881867
 30
0.0
 41
3.0
 42
3.0
 43
3.0
 50
180.0
  0
MTEXT
  5
2C17
330
2ACE
100
AcDbEntity
  8
寸法線
 62
     0
100
AcDbMText
 10
-434.7023425889025
 20
108.0868095881867
 30
0.0
 40
5.0
 41
0.0
 71
     5
 72
     1
  1
49.3
  7
OKANO
 73
     1
 44
1.0
  0
POINT
  5
2C18
330
2ACE
100
AcDbEntity
  8
Defpoints
 62
     0
100
AcDbPoint
 10
-409.7023425889025
 20
115.4711488256961
 30
0.0
  0
POINT
  5
2C19
330
2ACE
100
AcDbEntity
  8
Defpoints
 62
     0
100
AcDbPoint
 10
-459.7023425889025
 20
115.4711488256961
 30
0.0
  0
POINT
  5
2C1A
330
2ACE
100
AcDbEntity
  8
Defpoints
 62
     0
100
AcDbPoint
 10
-459.7023425889025
 20
104.5868095881867
 30
0.0
  0
ENDBLK
  5
2AD9
330
2ACE
100
AcDbEntity
  8
0
100
AcDbBlockEnd
  0
BLOCK
  5
2AE7
330
2ADB
100
AcDbEntity
  8
0
100
AcDbBlockBegin
  2
*D7
 70
     1
 10
0.0
 20
0.0
 30
0.0
  3
*D7
  1

  0
LINE
  5
2C1B
330
2ADB
100
AcDbEntity
  8
寸法線
 62
     0
370
    -2
100
AcDbLine
 10
-459.7023425889025
 20
113.4711488256961
 30
0.0
 11
-459.7023425889025
 21
101.5868095881867
 31
0.0
  0
LINE
  5
2C1C
330
2ADB
100
AcDbEntity
  8
寸法線
 62
     0
370
    -2
100
AcDbLine
 10
-464.7023425889025
 20
113.4711488256961
 30
0.0
 11
-464.7023425889025
 21
101.5868095881867
 31
0.0
  0
LINE
  5
2C1D
330
2ADB
100
AcDbEntity
  8
寸法線
 62
     0
370
    -2
100
AcDbLine
 10
-456.7023425889025
 20
104.5868095881867
 30
0.0
 11
-453.7023425889024
 21
104.5868095881867
 31
0.0
  0
LINE
  5
2C1E
330
2ADB
100
AcDbEntity
  8
寸法線
 62
     0
370
    -2
100
AcDbLine
 10
-467.7023425889025
 20
104.5868095881867
 30
0.0
 11
-470.7023425889025
 21
104.5868095881867
 31
0.0
  0
LINE
  5
2C1F
330
2ADB
100
AcDbEntity
  8
寸法線
 62
     0
370
    -2
100
AcDbLine
 10
-459.7023425889025
 20
104.5868095881867
 30
0.0
 11
-464.7023425889025
 21
104.5868095881867
 31
0.0
  0
INSERT
  5
2C20
330
2ADB
100
AcDbEntity
  8
寸法線
 62
     0
370
    -2
100
AcDbBlockReference
  2
_Closed
 10
-459.7023425889025
 20
104.5868095881867
 30
0.0
 41
3.0
 42
3.0
 43
3.0
 50
180.0
  0
INSERT
  5
2C21
330
2ADB
100
AcDbEntity
  8
寸法線
 62
     0
370
    -2
100
AcDbBlockReference
  2
_Closed
 10
-464.7023425889025
 20
104.5868095881867
 30
0.0
 41
3.0
 42
3.0
 43
3.0
  0
MTEXT
  5
2C22
330
2ADB
100
AcDbEntity
  8
寸法線
 62
     0
100
AcDbMText
 10
-462.2023425889024
 20
108.0868095881867
 30
0.0
 40
5.0
 41
0.0
 71
     5
 72
     1
  1
4
  7
OKANO
 73
     1
 44
1.0
  0
POINT
  5
2C23
330
2ADB
100
AcDbEntity
  8
Defpoints
 62
     0
100
AcDbPoint
 10
-459.7023425889025
 20
115.4711488256961
 30
0.0
  0
POINT
  5
2C24
330
2ADB
100
AcDbEntity
  8
Defpoints
 62
     0
100
AcDbPoint
 10
-464.7023425889025
 20
115.4711488256961
 30
0.0
  0
POINT
  5
2C25
330
2ADB
100
AcDbEntity
  8
Defpoints
 62
     0
100
AcDbPoint
 10
-464.7023425889025
 20
104.5868095881867
 30
0.0
  0
ENDBLK
  5
2AE8
330
2ADB
100
AcDbEntity
  8
0
100
AcDbBlockEnd
  0
BLOCK
  5
2B1C
330
2B12
100
AcDbEntity
  8
0
100
AcDbBlockBegin
  2
*D8
 70
     1
 10
0.0
 20
0.0
 30
0.0
  3
*D8
  1

  0
LINE
  5
2C3A
330
2B12
100
AcDbEntity
  8
寸法線
 62
     0
370
    -2
100
AcDbLine
 10
-464.7023425889025
 20
182.4711488256961
 30
0.0
 11
-464.7023425889025
 21
226.1568078052726
 31
0.0
  0
LINE
  5
2C3B
330
2B12
100
AcDbEntity
  8
寸法線
 62
     0
370
    -2
100
AcDbLine
 10
-369.7023425889025
 20
212.4711488256961
 30
0.0
 11
-369.7023425889025
 21
226.1568078052726
 31
0.0
  0
LINE
  5
2C3C
330
2B12
100
AcDbEntity
  8
寸法線
 62
     0
370
    -2
100
AcDbLine
 10
-461.7023425889025
 20
223.1568078052727
 30
0.0
 11
-372.7023425889025
 21
223.1568078052727
 31
0.0
  0
INSERT
  5
2C3D
330
2B12
100
AcDbEntity
  8
寸法線
 62
     0
370
    -2
100
AcDbBlockReference
  2
_Closed
 10
-464.7023425889025
 20
223.1568078052727
 30
0.0
 41
3.0
 42
3.0
 43
3.0
 50
180.0
  0
INSERT
  5
2C3E
330
2B12
100
AcDbEntity
  8
寸法線
 62
     0
370
    -2
100
AcDbBlockReference
  2
_Closed
 10
-369.7023425889025
 20
223.1568078052727
 30
0.0
 41
3.0
 42
3.0
 43
3.0
  0
MTEXT
  5
2C3F
330
2B12
100
AcDbEntity
  8
寸法線
 62
     0
100
AcDbMText
 10
-417.2023425889025
 20
226.6585083288061
 30
0.0
 40
5.0
 41
0.0
 71
     5
 72
     1
  1
92.3
  7
OKANO
 73
     1
 44
1.0
  0
POINT
  5
2C40
330
2B12
100
AcDbEntity
  8
Defpoints
 62
     0
100
AcDbPoint
 10
-464.7023425889025
 20
180.4711488256961
 30
0.0
  0
POINT
  5
2C41
330
2B12
100
AcDbEntity
  8
Defpoints
 62
     0
100
AcDbPoint
 10
-369.7023425889025
 20
210.4711488256961
 30
0.0
  0
POINT
  5
2C42
330
2B12
100
AcDbEntity
  8
Defpoints
 62
     0
100
AcDbPoint
 10
-369.7023425889025
 20
223.1568078052727
 30
0.0
  0
ENDBLK
  5
2B1D
330
2B12
100
AcDbEntity
  8
0
100
AcDbBlockEnd
  0
BLOCK
  5
2B32
330
2B28
100
AcDbEntity
  8
0
100
AcDbBlockBegin
  2
*D9
 70
     1
 10
0.0
 20
0.0
 30
0.0
  3
*D9
  1

  0
LINE
  5
2C31
330
2B28
100
AcDbEntity
  8
寸法線
 62
     0
370
    -2
100
AcDbLine
 10
-459.7023425889025
 20
152.4711488256961
 30
0.0
 11
-459.7023425889025
 21
165.2736217044059
 31
0.0
  0
LINE
  5
2C32
330
2B28
100
AcDbEntity
  8
寸法線
 62
     0
370
    -2
100
AcDbLine
 10
-410.7023425889025
 20
152.4711488256961
 30
0.0
 11
-410.7023425889025
 21
165.2736217044059
 31
0.0
  0
LINE
  5
2C33
330
2B28
100
AcDbEntity
  8
寸法線
 62
     0
370
    -2
100
AcDbLine
 10
-456.7023425889025
 20
162.2736217044059
 30
0.0
 11
-413.7023425889025
 21
162.2736217044059
 31
0.0
  0
INSERT
  5
2C34
330
2B28
100
AcDbEntity
  8
寸法線
 62
     0
370
    -2
100
AcDbBlockReference
  2
_Closed
 10
-459.7023425889025
 20
162.2736217044059
 30
0.0
 41
3.0
 42
3.0
 43
3.0
 50
180.0
  0
INSERT
  5
2C35
330
2B28
100
AcDbEntity
  8
寸法線
 62
     0
370
    -2
100
AcDbBlockReference
  2
_Closed
 10
-410.7023425889025
 20
162.2736217044059
 30
0.0
 41
3.0
 42
3.0
 43
3.0
  0
MTEXT
  5
2C36
330
2B28
100
AcDbEntity
  8
寸法線
 62
     0
100
AcDbMText
 10
-435.2023425889025
 20
165.7736217044059
 30
0.0
 40
5.0
 41
0.0
 71
     5
 72
     1
  1
49.0
  7
OKANO
 73
     1
 44
1.0
  0
POINT
  5
2C37
330
2B28
100
AcDbEntity
  8
Defpoints
 62
     0
100
AcDbPoint
 10
-459.7023425889025
 20
150.4711488256961
 30
0.0
  0
POINT
  5
2C38
330
2B28
100
AcDbEntity
  8
Defpoints
 62
     0
100
AcDbPoint
 10
-410.7023425889025
 20
150.4711488256961
 30
0.0
  0
POINT
  5
2C39
330
2B28
100
AcDbEntity
  8
Defpoints
 62
     0
100
AcDbPoint
 10
-410.7023425889025
 20
162.2736217044059
 30
0.0
  0
ENDBLK
  5
2B33
330
2B28
100
AcDbEntity
  8
0
100
AcDbBlockEnd
  0
BLOCK
  5
2B87
330
2B7D
100
AcDbEntity
  8
0
100
AcDbBlockBegin
  2
*D10
 70
     1
 10
0.0
 20
0.0
 30
0.0
  3
*D10
  1

  0
LINE
  5
2C00
330
2B7D
100
AcDbEntity
  8
寸法線
 62
     0
370
    -2
100
AcDbLine
 10
-404.7023425889025
 20
123.4711488256961
 30
0.0
 11
-404.7023425889025
 21
116.9750373452174
 31
0.0
  0
LINE
  5
2C01
330
2B7D
100
AcDbEntity
  8
寸法線
 62
     0
370
    -2
100
AcDbLine
 10
-379.7023425889025
 20
148.4711488256961
 30
0.0
 11
-379.7023425889025
 21
116.9750373452174
 31
0.0
  0
LINE
  5
2C02
330
2B7D
100
AcDbEntity
  8
寸法線
 62
     0
370
    -2
100
AcDbLine
 10
-401.7023425889025
 20
119.9750373452173
 30
0.0
 11
-382.7023425889025
 21
119.9750373452173
 31
0.0
  0
INSERT
  5
2C03
330
2B7D
100
AcDbEntity
  8
寸法線
 62
     0
370
    -2
100
AcDbBlockReference
  2
_Closed
 10
-404.7023425889025
 20
119.9750373452173
 30
0.0
 41
3.0
 42
3.0
 43
3.0
 50
180.0
  0
INSERT
  5
2C04
330
2B7D
100
AcDbEntity
  8
寸法線
 62
     0
370
    -2
100
AcDbBlockReference
  2
_Closed
 10
-379.7023425889025
 20
119.9750373452173
 30
0.0
 41
3.0
 42
3.0
 43
3.0
  0
MTEXT
  5
2C05
330
2B7D
100
AcDbEntity
  8
寸法線
 62
     0
100
AcDbMText
 10
-392.2023425889025
 20
123.4755294712016
 30
0.0
 40
5.0
 41
0.0
 71
     5
 72
     1
  1
25
  7
OKANO
 73
     1
 44
1.0
  0
POINT
  5
2C06
330
2B7D
100
AcDbEntity
  8
Defpoints
 62
     0
100
AcDbPoint
 10
-404.7023425889025
 20
125.4711488256961
 30
0.0
  0
POINT
  5
2C07
330
2B7D
100
AcDbEntity
  8
Defpoints
 62
     0
100
AcDbPoint
 10
-379.7023425889025
 20
150.4711488256961
 30
0.0
  0
POINT
  5
2C08
330
2B7D
100
AcDbEntity
  8
Defpoints
 62
     0
100
AcDbPoint
 10
-379.7023425889025
 20
119.9750373452173
 30
0.0
  0
ENDBLK
  5
2B88
330
2B7D
100
AcDbEntity
  8
0
100
AcDbBlockEnd
  0
BLOCK
  5
2B94
330
2B8A
100
AcDbEntity
  8
0
100
AcDbBlockBegin
  2
*D11
 70
     1
 10
0.0
 20
0.0
 30
0.0
  3
*D11
  1

  0
LINE
  5
2BF7
330
2B8A
100
AcDbEntity
  8
寸法線
 62
     0
370
    -2
100
AcDbLine
 10
-377.7023425889025
 20
150.4711488256961
 30
0.0
 11
-369.9326198796862
 21
150.4711488256961
 31
0.0
  0
LINE
  5
2BF8
330
2B8A
100
AcDbEntity
  8
寸法線
 62
     0
370
    -2
100
AcDbLine
 10
-402.7023425889025
 20
125.4711488256961
 30
0.0
 11
-369.9326198796863
 21
125.4711488256961
 31
0.0
  0
LINE
  5
2BF9
330
2B8A
100
AcDbEntity
  8
寸法線
 62
     0
370
    -2
100
AcDbLine
 10
-372.9326198796862
 20
147.4711488256961
 30
0.0
 11
-372.9326198796862
 21
128.4711488256961
 31
0.0
  0
INSERT
  5
2BFA
330
2B8A
100
AcDbEntity
  8
寸法線
 62
     0
370
    -2
100
AcDbBlockReference
  2
_Closed
 10
-372.9326198796862
 20
150.4711488256961
 30
0.0
 41
3.0
 42
3.0
 43
3.0
 50
90.0
  0
INSERT
  5
2BFB
330
2B8A
100
AcDbEntity
  8
寸法線
 62
     0
370
    -2
100
AcDbBlockReference
  2
_Closed
 10
-372.9326198796862
 20
125.4711488256961
 30
0.0
 41
3.0
 42
3.0
 43
3.0
 50
270.0
  0
MTEXT
  5
2BFC
330
2B8A
100
AcDbEntity
  8
寸法線
 62
     0
100
AcDbMText
 10
-376.4331120056705
 20
137.971148825696
 30
0.0
 40
5.0
 41
0.0
 71
     5
 72
     1
  1
25
  7
OKANO
 11
0.0000000000000001
 21
1.0
 31
0.0
 73
     1
 44
1.0
  0
POINT
  5
2BFD
330
2B8A
100
AcDbEntity
  8
Defpoints
 62
     0
100
AcDbPoint
 10
-379.7023425889025
 20
150.4711488256961
 30
0.0
  0
POINT
  5
2BFE
330
2B8A
100
AcDbEntity
  8
Defpoints
 62
     0
100
AcDbPoint
 10
-404.7023425889025
 20
125.4711488256961
 30
0.0
  0
POINT
  5
2BFF
330
2B8A
100
AcDbEntity
  8
Defpoints
 62
     0
100
AcDbPoint
 10
-372.9326198796862
 20
125.4711488256961
 30
0.0
  0
ENDBLK
  5
2B95
330
2B8A
100
AcDbEntity
  8
0
100
AcDbBlockEnd
  0
BLOCK
  5
2BA1
330
2B97
100
AcDbEntity
  8
0
100
AcDbBlockBegin
  2
*D12
 70
     1
 10
0.0
 20
0.0
 30
0.0
  3
*D12
  1

  0
LINE
  5
2C4C
330
2B97
100
AcDbEntity
  8
寸法線
 62
     0
370
    -2
100
AcDbLine
 10
-367.7023425889025
 20
210.4711488256961
 30
0.0
 11
-350.8854302253567
 21
210.4711488256961
 31
0.0
  0
LINE
  5
2C4D
330
2B97
100
AcDbEntity
  8
寸法線
 62
     0
370
    -2
100
AcDbLine
 10
-367.9326198796863
 20
150.4711488256961
 30
0.0
 11
-350.8854302253567
 21
150.4711488256961
 31
0.0
  0
LINE
  5
2C4E
330
2B97
100
AcDbEntity
  8
寸法線
 62
     0
370
    -2
100
AcDbLine
 10
-353.8854302253568
 20
207.4711488256961
 30
0.0
 11
-353.8854302253568
 21
153.4711488256961
 31
0.0
  0
INSERT
  5
2C4F
330
2B97
100
AcDbEntity
  8
寸法線
 62
     0
370
    -2
100
AcDbBlockReference
  2
_Closed
 10
-353.8854302253568
 20
210.4711488256961
 30
0.0
 41
3.0
 42
3.0
 43
3.0
 50
90.0
  0
INSERT
  5
2C50
330
2B97
100
AcDbEntity
  8
寸法線
 62
     0
370
    -2
100
AcDbBlockReference
  2
_Closed
 10
-353.8854302253568
 20
150.4711488256961
 30
0.0
 41
3.0
 42
3.0
 43
3.0
 50
270.0
  0
MTEXT
  5
2C51
330
2B97
100
AcDbEntity
  8
寸法線
 62
     0
100
AcDbMText
 10
-357.3854302253568
 20
180.4711488256961
 30
0.0
 40
5.0
 41
0.0
 71
     5
 72
     1
  1
57.3
  7
OKANO
 11
0.0000000000000001
 21
1.0
 31
0.0
 73
     1
 44
1.0
  0
POINT
  5
2C52
330
2B97
100
AcDbEntity
  8
Defpoints
 62
     0
100
AcDbPoint
 10
-369.7023425889025
 20
210.4711488256961
 30
0.0
  0
POINT
  5
2C53
330
2B97
100
AcDbEntity
  8
Defpoints
 62
     0
100
AcDbPoint
 10
-369.9326198796863
 20
150.4711488256961
 30
0.0
  0
POINT
  5
2C54
330
2B97
100
AcDbEntity
  8
Defpoints
 62
     0
100
AcDbPoint
 10
-353.8854302253568
 20
150.4711488256961
 30
0.0
  0
ENDBLK
  5
2BA2
330
2B97
100
AcDbEntity
  8
0
100
AcDbBlockEnd
  0
BLOCK
  5
2E19
330
2E0F
100
AcDbEntity
  8
0
100
AcDbBlockBegin
  2
*D13
 70
     1
 10
0.0
 20
0.0
 30
0.0
  3
*D13
  1

  0
LINE
  5
2EDB
330
2E0F
100
AcDbEntity
  8
寸法線
 62
     0
370
    -2
100
AcDbLine
 10
342.0912165472359
 20
181.4790921915069
 30
0.0
 11
342.0912165472359
 21
195.2323409144899
 31
0.0
  0
LINE
  5
2EDC
330
2E0F
100
AcDbEntity
  8
寸法線
 62
     0
370
    -2
100
AcDbLine
 10
402.0912165472359
 20
181.4790921915069
 30
0.0
 11
402.0912165472359
 21
195.2323409144899
 31
0.0
  0
LINE
  5
2EDD
330
2E0F
100
AcDbEntity
  8
寸法線
 62
     0
370
    -2
100
AcDbLine
 10
345.0912165472359
 20
192.2323409144899
 30
0.0
 11
399.0912165472359
 21
192.2323409144899
 31
0.0
  0
INSERT
  5
2EDE
330
2E0F
100
AcDbEntity
  8
寸法線
 62
     0
370
    -2
100
AcDbBlockReference
  2
_Closed
 10
342.0912165472359
 20
192.2323409144899
 30
0.0
 41
3.0
 42
3.0
 43
3.0
 50
180.0
  0
INSERT
  5
2EDF
330
2E0F
100
AcDbEntity
  8
寸法線
 62
     0
370
    -2
100
AcDbBlockReference
  2
_Closed
 10
402.0912165472359
 20
192.2323409144899
 30
0.0
 41
3.0
 42
3.0
 43
3.0
  0
MTEXT
  5
2EE0
330
2E0F
100
AcDbEntity
  8
寸法線
 62
     0
100
AcDbMText
 10
372.0912165472359
 20
195.7323409144898
 30
0.0
 40
5.0
 41
0.0
 71
     5
 72
     1
  1
57
  7
OKANO
 73
     1
 44
1.0
  0
POINT
  5
2EE1
330
2E0F
100
AcDbEntity
  8
Defpoints
 62
     0
100
AcDbPoint
 10
342.0912165472359
 20
179.4790921915069
 30
0.0
  0
POINT
  5
2EE2
330
2E0F
100
AcDbEntity
  8
Defpoints
 62
     0
100
AcDbPoint
 10
402.0912165472359
 20
179.4790921915069
 30
0.0
  0
POINT
  5
2EE3
330
2E0F
100
AcDbEntity
  8
Defpoints
 62
     0
100
AcDbPoint
 10
402.0912165472359
 20
192.2323409144899
 30
0.0
  0
ENDBLK
  5
2E1A
330
2E0F
100
AcDbEntity
  8
0
100
AcDbBlockEnd
  0
BLOCK
  5
2EC2
330
2EB8
100
AcDbEntity
  8
0
100
AcDbBlockBegin
  2
*D14
 70
     1
 10
0.0
 20
0.0
 30
0.0
  3
*D14
  1

  0
LINE
  5
2EED
330
2EB8
100
AcDbEntity
  8
寸法線
 62
     0
370
    -2
100
AcDbLine
 10
308.0912165472359
 20
84.47909219150698
 30
0.0
 11
308.0912165472359
 21
69.58298987331204
 31
0.0
  0
LINE
  5
2EEE
330
2EB8
100
AcDbEntity
  8
寸法線
 62
     0
370
    -2
100
AcDbLine
 10
402.0912165472358
 20
88.47909219150697
 30
0.0
 11
402.0912165472358
 21
69.58298987331204
 31
0.0
  0
LINE
  5
2EEF
330
2EB8
100
AcDbEntity
  8
寸法線
 62
     0
370
    -2
100
AcDbLine
 10
311.0912165472359
 20
72.58298987331205
 30
0.0
 11
399.0912165472359
 21
72.58298987331205
 31
0.0
  0
INSERT
  5
2EF0
330
2EB8
100
AcDbEntity
  8
寸法線
 62
     0
370
    -2
100
AcDbBlockReference
  2
_Closed
 10
308.0912165472359
 20
72.58298987331205
 30
0.0
 41
3.0
 42
3.0
 43
3.0
 50
180.0
  0
INSERT
  5
2EF1
330
2EB8
100
AcDbEntity
  8
寸法線
 62
     0
370
    -2
100
AcDbBlockReference
  2
_Closed
 10
402.0912165472358
 20
72.58298987331205
 30
0.0
 41
3.0
 42
3.0
 43
3.0
  0
MTEXT
  5
2EF2
330
2EB8
100
AcDbEntity
  8
寸法線
 62
     0
100
AcDbMText
 10
355.0912165472359
 20
76.08469039684553
 30
0.0
 40
5.0
 41
0.0
 71
     5
 72
     1
  1
92
  7
OKANO
 73
     1
 44
1.0
  0
POINT
  5
2EF3
330
2EB8
100
AcDbEntity
  8
Defpoints
 62
     0
100
AcDbPoint
 10
308.0912165472359
 20
86.47909219150697
 30
0.0
  0
POINT
  5
2EF4
330
2EB8
100
AcDbEntity
  8
Defpoints
 62
     0
100
AcDbPoint
 10
402.0912165472358
 20
90.47909219150696
 30
0.0
  0
POINT
  5
2EF5
330
2EB8
100
AcDbEntity
  8
Defpoints
 62
     0
100
AcDbPoint
 10
402.0912165472358
 20
72.58298987331205
 30
0.0
  0
ENDBLK
  5
2EC3
330
2EB8
100
AcDbEntity
  8
0
100
AcDbBlockEnd
  0
BLOCK
  5
2ECF
330
2EC5
100
AcDbEntity
  8
0
100
AcDbBlockBegin
  2
*D15
 70
     1
 10
0.0
 20
0.0
 30
0.0
  3
*D15
  1

  0
LINE
  5
2EE4
330
2EC5
100
AcDbEntity
  8
寸法線
 62
     0
370
    -2
100
AcDbLine
 10
306.0912165472359
 20
145.4790921915069
 30
0.0
 11
287.5577989312569
 21
145.4790921915069
 31
0.0
  0
LINE
  5
2EE5
330
2EC5
100
AcDbEntity
  8
寸法線
 62
     0
370
    -2
100
AcDbLine
 10
306.0912165472359
 20
85.47909219150698
 30
0.0
 11
287.5577989312569
 21
85.479092191507
 31
0.0
  0
LINE
  5
2EE6
330
2EC5
100
AcDbEntity
  8
寸法線
 62
     0
370
    -2
100
AcDbLine
 10
290.5577989312569
 20
142.4790921915069
 30
0.0
 11
290.5577989312569
 21
88.47909219150698
 31
0.0
  0
INSERT
  5
2EE7
330
2EC5
100
AcDbEntity
  8
寸法線
 62
     0
370
    -2
100
AcDbBlockReference
  2
_Closed
 10
290.5577989312569
 20
145.4790921915069
 30
0.0
 41
3.0
 42
3.0
 43
3.0
 50
90.0
  0
INSERT
  5
2EE8
330
2EC5
100
AcDbEntity
  8
寸法線
 62
     0
370
    -2
100
AcDbBlockReference
  2
_Closed
 10
290.5577989312569
 20
85.47909219150698
 30
0.0
 41
3.0
 42
3.0
 43
3.0
 50
270.0
  0
MTEXT
  5
2EE9
330
2EC5
100
AcDbEntity
  8
寸法線
 62
     0
100
AcDbMText
 10
287.0577989312569
 20
115.479092191507
 30
0.0
 40
5.0
 41
0.0
 71
     5
 72
     1
  1
57
  7
OKANO
 11
0.0000000000000001
 21
1.0
 31
0.0
 73
     1
 44
1.0
  0
POINT
  5
2EEA
330
2EC5
100
AcDbEntity
  8
Defpoints
 62
     0
100
AcDbPoint
 10
308.0912165472359
 20
145.4790921915069
 30
0.0
  0
POINT
  5
2EEB
330
2EC5
100
AcDbEntity
  8
Defpoints
 62
     0
100
AcDbPoint
 10
308.0912165472359
 20
85.47909219150698
 30
0.0
  0
POINT
  5
2EEC
330
2EC5
100
AcDbEntity
  8
Defpoints
 62
     0
100
AcDbPoint
 10
290.5577989312569
 20
85.47909219150698
 30
0.0
  0
ENDBLK
  5
2ED0
330
2EC5
100
AcDbEntity
  8
0
100
AcDbBlockEnd
  0
BLOCK
  5
2F01
330
2EF7
100
AcDbEntity
  8
0
100
AcDbBlockBegin
  2
*D16
 70
     1
 10
0.0
 20
0.0
 30
0.0
  3
*D16
  1

  0
LINE
  5
2F03
330
2EF7
100
AcDbEntity
  8
寸法線
 62
     0
370
    -2
100
AcDbLine
 10
396.0508956516723
 20
85.3853701199057
 30
0.0
 11
427.9230296479012
 21
85.38537011990568
 31
0.0
  0
LINE
  5
2F04
330
2EF7
100
AcDbEntity
  8
寸法線
 62
     0
370
    -2
100
AcDbLine
 10
403.0912165472359
 20
180.4790921915069
 30
0.0
 11
427.9230296479012
 21
180.4790921915069
 31
0.0
  0
LINE
  5
2F05
330
2EF7
100
AcDbEntity
  8
寸法線
 62
     0
370
    -2
100
AcDbLine
 10
424.9230296479012
 20
88.38537011990569
 30
0.0
 11
424.9230296479013
 21
177.4790921915069
 31
0.0
  0
INSERT
  5
2F06
330
2EF7
100
AcDbEntity
  8
寸法線
 62
     0
370
    -2
100
AcDbBlockReference
  2
_Closed
 10
424.9230296479012
 20
85.38537011990568
 30
0.0
 41
3.0
 42
3.0
 43
3.0
 50
270.0
  0
INSERT
  5
2F07
330
2EF7
100
AcDbEntity
  8
寸法線
 62
     0
370
    -2
100
AcDbBlockReference
  2
_Closed
 10
424.9230296479013
 20
180.4790921915069
 30
0.0
 41
3.0
 42
3.0
 43
3.0
 50
90.0
  0
MTEXT
  5
2F08
330
2EF7
100
AcDbEntity
  8
寸法線
 62
     0
100
AcDbMText
 10
421.4213291243678
 20
132.9322311557063
 30
0.0
 40
5.0
 41
0.0
 71
     5
 72
     1
  1
92
  7
OKANO
 11
0.0000000000000001
 21
1.0
 31
0.0
 73
     1
 44
1.0
  0
POINT
  5
2F09
330
2EF7
100
AcDbEntity
  8
Defpoints
 62
     0
100
AcDbPoint
 10
394.0508956516723
 20
85.3853701199057
 30
0.0
  0
POINT
  5
2F0A
330
2EF7
100
AcDbEntity
  8
Defpoints
 62
     0
100
AcDbPoint
 10
401.0912165472359
 20
180.4790921915069
 30
0.0
  0
POINT
  5
2F0B
330
2EF7
100
AcDbEntity
  8
Defpoints
 62
     0
100
AcDbPoint
 10
424.9230296479013
 20
180.4790921915069
 30
0.0
  0
ENDBLK
  5
2F02
330
2EF7
100
AcDbEntity
  8
0
100
AcDbBlockEnd
  0
ENDSEC
  0
SECTION
  2
ENTITIES
  0
ARC
  5
28DE
330
1F
100
AcDbEntity
  8
太線
100
AcDbCircle
 10
-434.7023425889025
 20
180.4711488256961
 30
0.0
 40
30.0
100
AcDbArc
 50
90.0
 51
180.0
  0
LINE
  5
28E0
330
1F
100
AcDbEntity
  8
太線
100
AcDbLine
 10
-464.7023425889025
 20
180.4711488256961
 30
0.0
 11
-464.7023425889025
 21
115.4711488256961
 31
0.0
  0
LINE
  5
28E2
330
1F
100
AcDbEntity
  8
太線
100
AcDbLine
 10
-404.7023425889025
 20
115.4711488256961
 30
0.0
 11
-404.7023425889025
 21
150.4711488256961
 31
0.0
  0
LINE
  5
28E3
330
1F
100
AcDbEntity
  8
太線
100
AcDbLine
 10
-404.7023425889025
 20
150.4711488256961
 30
0.0
 11
-369.7023425889025
 21
150.4711488256961
 31
0.0
  0
LINE
  5
28E5
330
1F
100
AcDbEntity
  8
太線
100
AcDbLine
 10
-369.7023425889025
 20
210.4711488256961
 30
0.0
 11
-434.7023425889025
 21
210.4711488256961
 31
0.0
  0
CIRCLE
  5
28F0
330
1F
100
AcDbEntity
  8
太線
100
AcDbCircle
 10
372.0154853519475
 20
237.3178018661664
 30
0.0
 40
25.0
  0
LINE
  5
28F2
330
1F
100
AcDbEntity
  8
太線
100
AcDbLine
 10
342.0154853519475
 20
267.3178018661664
 30
0.0
 11
308.0154853519475
 21
267.3178018661664
 31
0.0
  0
LINE
  5
28F8
330
1F
100
AcDbEntity
  8
想像線
100
AcDbLine
 10
-459.7023425889025
 20
115.4711488256961
 30
0.0
 11
-459.7023425889025
 21
150.4711488256961
 31
0.0
  0
LINE
  5
28F9
330
1F
100
AcDbEntity
  8
想像線
100
AcDbLine
 10
-459.7023425889025
 20
150.4711488256961
 30
0.0
 11
-409.7023425889025
 21
150.4711488256961
 31
0.0
  0
LINE
  5
28FA
330
1F
100
AcDbEntity
  8
想像線
100
AcDbLine
 10
-409.7023425889025
 20
150.4711488256961
 30
0.0
 11
-409.7023425889025
 21
115.4711488256961
 31
0.0
  0
LINE
  5
28FB
330
1F
100
AcDbEntity
  8
想像線
100
AcDbLine
 10
-369.7023425889025
 20
155.4711488256961
 30
0.0
 11
-404.7023425889025
 21
155.4711488256961
 31
0.0
  0
LINE
  5
28FC
330
1F
100
AcDbEntity
  8
想像線
100
AcDbLine
 10
-404.7023425889025
 20
155.4711488256961
 30
0.0
 11
-404.7023425889025
 21
205.4711488256961
 31
0.0
  0
LINE
  5
28FD
330
1F
100
AcDbEntity
  8
想像線
100
AcDbLine
 10
-404.7023425889025
 20
205.4711488256961
 30
0.0
 11
-369.7023425889025
 21
205.4711488256961
 31
0.0
  0
LINE
  5
28FE
330
1F
100
AcDbEntity
  8
想像線
100
AcDbLine
 10
307.0154853519475
 20
262.3178018661664
 30
0.0
 11
342.0154853519475
 21
262.3178018661664
 31
0.0
  0
LINE
  5
28FF
330
1F
100
AcDbEntity
  8
想像線
100
AcDbLine
 10
342.0154853519475
 20
262.3178018661664
 30
0.0
 11
342.0154853519475
 21
212.3178018661664
 31
0.0
  0
LINE
  5
2900
330
1F
100
AcDbEntity
  8
想像線
100
AcDbLine
 10
342.0154853519475
 20
212.3178018661664
 30
0.0
 11
307.0154853519475
 21
212.3178018661664
 31
0.0
  0
TEXT
  5
29C1
330
1F
100
AcDbEntity
  8
文字
100
AcDbText
 10
512.3590509458601
 20
43.5600217897221
 30
0.0
 40
3.599999999999999
  1
SET SCREW COUP
 51
15.0
  7
OKANO
100
AcDbText
  0
TEXT
  5
29C2
330
1F
100
AcDbEntity
  8
文字
100
AcDbText
 10
490.6209595691491
 20
35.18999699617363
 30
0.0
 40
4.799999999999999
  1
joint kogyo T.okano
 51
15.0
  7
OKANO
100
AcDbText
  0
TEXT
  5
29C3
330
1F
100
AcDbEntity
  8
文字
100
AcDbText
 10
483.1326465573523
 20
49.94236850346142
 30
0.0
 40
4.799999999999999
  1
F-999-20080310 Auto CAD
 51
15.0
  7
OKANO
100
AcDbText
  0
LINE
  5
29C4
330
1F
100
AcDbEntity
  8
太線
100
AcDbLine
 10
455.7104183757384
 20
49.02156085303106
 30
0.0
 11
563.7104183757384
 21
49.02156085303106
 31
0.0
  0
LWPOLYLINE
  5
29C5
330
1F
100
AcDbEntity
  8
太線
100
AcDbPolyline
 90
        4
 70
     1
 43
0.0
 10
455.7104183757384
 20
57.42156085303107
 10
563.7104183757384
 20
57.42156085303107
 10
563.7104183757384
 20
32.22156085303106
 10
455.7104183757384
 20
32.22156085303106
  0
TEXT
  5
29C6
330
1F
100
AcDbEntity
  8
文字
100
AcDbText
 10
459.5828019417959
 20
40.82804905418038
 30
0.0
 40
2.399999999999999
  1
CHECK
 51
15.0
  7
OKANO
100
AcDbText
  0
LINE
  5
29C7
330
1F
100
AcDbEntity
  8
太線
100
AcDbLine
 10
479.7104183757384
 20
57.42156085303107
 30
0.0
 11
479.7104183757384
 21
32.22156085303106
 31
0.0
  0
TEXT
  5
29C8
330
1F
100
AcDbEntity
  8
文字
100
AcDbText
 10
459.5828019417959
 20
33.90862144796456
 30
0.0
 40
2.399999999999999
  1
ISSUED
 51
15.0
  7
OKANO
100
AcDbText
  0
TEXT
  5
29C9
330
1F
100
AcDbEntity
  8
文字
100
AcDbText
 10
459.8393163746966
 20
37.24019763723269
 30
0.0
 40
2.399999999999999
  1
APPR
 51
15.0
  7
OKANO
100
AcDbText
  0
TEXT
  5
29CA
330
1F
100
AcDbEntity
  8
文字
100
AcDbText
 10
457.7872063901102
 20
50.82277703179622
 30
0.0
 40
2.399999999999999
  1
FILM NAME
 51
15.0
  7
OKANO
100
AcDbText
  0
TEXT
  5
29CB
330
1F
100
AcDbEntity
  8
文字
100
AcDbText
 10
459.0697752674422
 20
44.41589988093942
 30
0.0
 40
2.399999999999999
  1
DRAWN
 51
15.0
  7
OKANO
100
AcDbText
  0
TEXT
  5
29CC
330
1F
100
AcDbEntity
  8
文字
100
AcDbText
 10
490.1079317990715
 20
42.62197446755989
 30
0.0
 40
4.799999999999999
  1
25-2L
 51
15.0
  7
OKANO
100
AcDbText
  0
CIRCLE
  5
29D8
330
1F
100
AcDbEntity
  8
太線
100
AcDbCircle
 10
482.1228993814941
 20
115.683638052856
 30
0.0
 40
25.0
  0
LINE
  5
29F6
330
1F
100
AcDbEntity
  8
太線
100
AcDbLine
 10
-379.7023425889025
 20
150.4711488256961
 30
0.0
 11
-404.7023425889025
 21
125.4711488256961
 31
0.0
  0
CIRCLE
  5
29FA
330
1F
100
AcDbEntity
  8
太線
100
AcDbCircle
 10
-400.1925554444763
 20
145.5854052635554
 30
0.0
 40
3.0
  0
DIMENSION
  5
2A5B
330
1F
100
AcDbEntity
  8
寸法線
100
AcDbDimension
  2
*D2
 10
-402.0989797415033
 20
143.2690403528159
 30
0.0
 11
-386.0075345473213
 21
162.820647552229
 31
0.0
 70
   163
 71
     5
 42
6.000000000000028
  3
sunpo
100
AcDbDiametricDimension
 15
-398.2861311474493
 25
147.9017701742948
 35
0.0
 40
0.0
1001
ACAD
1000
DSTYLE
1002
{
1070
    40
1040
1.0
1070
   288
1070
     1
1002
}
  0
LINE
  5
2A77
330
1F
100
AcDbEntity
  8
想像線
100
AcDbLine
 10
-458.7023425889025
 20
156.4711488256961
 30
0.0
 11
-404.7023425889025
 21
156.4711488256961
 31
0.0
  0
ARC
  5
2A79
330
1F
100
AcDbEntity
  8
想像線
100
AcDbCircle
 10
-434.7023425889025
 20
180.4711488256961
 30
0.0
 40
23.71293940890467
100
AcDbArc
 50
89.9999999999988
 51
180.0
  0
LINE
  5
2A7A
330
1F
100
AcDbEntity
  8
想像線
100
AcDbLine
 10
-434.7023425889025
 20
204.1840882346008
 30
0.0
 11
-404.7023425889025
 21
204.4711488256961
 31
0.0
  0
LINE
  5
2A7B
330
1F
100
AcDbEntity
  8
想像線
100
AcDbLine
 10
-458.4152819978071
 20
180.4711488256961
 30
0.0
 11
-458.7023425889025
 21
156.4711488256961
 31
0.0
  0
LINE
  5
2A7C
330
1F
100
AcDbEntity
  8
想像線
100
AcDbLine
 10
-458.7023425889025
 20
156.4711488256961
 30
0.0
 11
-458.7023425889025
 21
150.4711488256961
 31
0.0
  0
LINE
  5
2A7D
330
1F
100
AcDbEntity
  8
想像線
100
AcDbLine
 10
-410.7023425889025
 20
150.4711488256961
 30
0.0
 11
-410.7023425889025
 21
156.4711488256961
 31
0.0
  0
LINE
  5
2A80
330
1F
100
AcDbEntity
  8
太線
100
AcDbLine
 10
-464.7023425889025
 20
115.4711488256961
 30
0.0
 11
-404.7023425889025
 21
115.4711488256961
 31
0.0
  0
LINE
  5
2A81
330
1F
100
AcDbEntity
  8
太線
100
AcDbLine
 10
307.0154853519476
 20
266.3178018661664
 30
0.0
 11
307.0154853519476
 21
208.3178018661664
 31
0.0
  0
LINE
  5
2A82
330
1F
100
AcDbEntity
  8
太線
100
AcDbLine
 10
453.1228993814941
 20
180.683638052856
 30
0.0
 11
511.1228993814942
 21
180.683638052856
 31
0.0
  0
LINE
  5
2A84
330
1F
100
AcDbEntity
  8
太線
100
AcDbLine
 10
-369.7023425889025
 20
210.4711488256961
 30
0.0
 11
-369.7023425889025
 21
150.4711488256961
 31
0.0
  0
DIMENSION
  5
2AA4
330
1F
100
AcDbEntity
  8
寸法線
100
AcDbDimension
  2
*D3
 10
-481.4783560872178
 20
150.4711488256961
 30
0.0
 11
-484.9783560872178
 21
180.471148825696
 31
0.0
 70
    32
  1
57.3
 71
     5
 42
60.00000000000003
  3
sunpo
100
AcDbAlignedDimension
 13
-434.7023425889025
 23
210.4711488256961
 33
0.0
 14
-458.7023425889025
 24
150.4711488256961
 34
0.0
 50
90.0
100
AcDbRotatedDimension
1001
ACAD
1000
DSTYLE
1002
{
1070
    40
1040
1.0
1002
}
  0
DIMENSION
  5
2AB1
330
1F
100
AcDbEntity
  8
寸法線
100
AcDbDimension
  2
*D4
 10
-481.4783560872178
 20
115.4711488256961
 30
0.0
 11
-484.9783560872177
 21
132.971148825696
 31
0.0
 70
    32
 71
     5
 42
35.0
  3
sunpo
100
AcDbAlignedDimension
 13
-458.7023425889025
 23
150.4711488256961
 33
0.0
 14
-464.7023425889025
 24
115.4711488256961
 34
0.0
 50
90.0
100
AcDbRotatedDimension
1001
ACAD
1000
DSTYLE
1002
{
1070
    40
1040
1.0
1070
   279
1070
     1
1002
}
  0
DIMENSION
  5
2ABE
330
1F
100
AcDbEntity
  8
寸法線
100
AcDbDimension
  2
*D5
 10
-409.7023425889025
 20
104.5868095881867
 30
0.0
 11
-407.2023425889025
 21
108.0868095881867
 31
0.0
 70
    32
  1
4
 71
     5
 42
5.0
  3
sunpo
100
AcDbAlignedDimension
 13
-404.7023425889025
 23
115.4711488256961
 33
0.0
 14
-409.7023425889025
 24
115.4711488256961
 34
0.0
100
AcDbRotatedDimension
1001
ACAD
1000
DSTYLE
1002
{
1070
    40
1040
1.0
1002
}
  0
DIMENSION
  5
2ACD
330
1F
100
AcDbEntity
  8
寸法線
100
AcDbDimension
  2
*D6
 10
-459.7023425889025
 20
104.5868095881867
 30
0.0
 11
-434.7023425889025
 21
108.0868095881867
 31
0.0
 70
    32
  1
49.3
 71
     5
 42
50.0
  3
sunpo
100
AcDbAlignedDimension
 13
-409.7023425889025
 23
115.4711488256961
 33
0.0
 14
-459.7023425889025
 24
115.4711488256961
 34
0.0
100
AcDbRotatedDimension
1001
ACAD
1000
DSTYLE
1002
{
1070
    40
1040
1.0
1070
   279
1070
     1
1002
}
  0
DIMENSION
  5
2ADA
330
1F
100
AcDbEntity
  8
寸法線
100
AcDbDimension
  2
*D7
 10
-464.7023425889025
 20
104.5868095881867
 30
0.0
 11
-462.2023425889024
 21
108.0868095881867
 31
0.0
 70
    32
  1
4
 71
     5
 42
5.0
  3
sunpo
100
AcDbAlignedDimension
 13
-459.7023425889025
 23
115.4711488256961
 33
0.0
 14
-464.7023425889025
 24
115.4711488256961
 34
0.0
100
AcDbRotatedDimension
1001
ACAD
1000
DSTYLE
1002
{
1070
    40
1040
1.0
1070
   279
1070
     1
1002
}
  0
DIMENSION
  5
2B11
330
1F
100
AcDbEntity
  8
寸法線
100
AcDbDimension
  2
*D8
 10
-369.7023425889025
 20
223.1568078052727
 30
0.0
 11
-417.2023425889025
 21
226.6585083288061
 31
0.0
 70
    32
  1
92.3
 71
     5
 42
95.0
  3
sunpo
100
AcDbAlignedDimension
 13
-464.7023425889025
 23
180.4711488256961
 33
0.0
 14
-369.7023425889025
 24
210.4711488256961
 34
0.0
100
AcDbRotatedDimension
1001
ACAD
1000
DSTYLE
1002
{
1070
    40
1040
1.0
1002
}
  0
DIMENSION
  5
2B27
330
1F
100
AcDbEntity
  8
寸法線
100
AcDbDimension
  2
*D9
 10
-410.7023425889025
 20
162.2736217044059
 30
0.0
 11
-435.2023425889025
 21
165.7736217044059
 31
0.0
 70
    32
  1
49.0
 71
     5
 42
49.0
  3
sunpo
100
AcDbAlignedDimension
 13
-459.7023425889025
 23
150.4711488256961
 33
0.0
 14
-410.7023425889025
 24
150.4711488256961
 34
0.0
100
AcDbRotatedDimension
1001
ACAD
1000
DSTYLE
1002
{
1070
    40
1040
1.0
1002
}
  0
DIMENSION
  5
2B7C
330
1F
100
AcDbEntity
  8
寸法線
100
AcDbDimension
  2
*D10
 10
-379.7023425889025
 20
119.9750373452173
 30
0.0
 11
-392.2023425889025
 21
123.4755294712016
 31
0.0
 70
    32
 71
     5
 42
25.0
  3
sunpo
100
AcDbAlignedDimension
 13
-404.7023425889025
 23
125.4711488256961
 33
0.0
 14
-379.7023425889025
 24
150.4711488256961
 34
0.0
100
AcDbRotatedDimension
1001
ACAD
1000
DSTYLE
1002
{
1070
    40
1040
1.0
1002
}
  0
DIMENSION
  5
2B89
330
1F
100
AcDbEntity
  8
寸法線
100
AcDbDimension
  2
*D11
 10
-372.9326198796862
 20
125.4711488256961
 30
0.0
 11
-376.4331120056705
 21
137.971148825696
 31
0.0
 70
    32
 71
     5
 42
25.0
  3
sunpo
100
AcDbAlignedDimension
 13
-379.7023425889025
 23
150.4711488256961
 33
0.0
 14
-404.7023425889025
 24
125.4711488256961
 34
0.0
 50
90.0
100
AcDbRotatedDimension
1001
ACAD
1000
DSTYLE
1002
{
1070
    40
1040
1.0
1002
}
  0
DIMENSION
  5
2B96
330
1F
100
AcDbEntity
  8
寸法線
100
AcDbDimension
  2
*D12
 10
-353.8854302253568
 20
150.4711488256961
 30
0.0
 11
-357.3854302253568
 21
180.4711488256961
 31
0.0
 70
    32
  1
57.3
 71
     5
 42
60.0
  3
sunpo
100
AcDbAlignedDimension
 13
-369.7023425889025
 23
210.4711488256961
 33
0.0
 14
-369.9326198796863
 24
150.4711488256961
 34
0.0
 50
90.0
100
AcDbRotatedDimension
1001
ACAD
1000
DSTYLE
1002
{
1070
    40
1040
1.0
1002
}
  0
TEXT
  5
2BE3
330
1F
100
AcDbEntity
  8
文字
100
AcDbText
 10
-291.747514880383
 20
36.40693993906816
 30
0.0
 40
4.799999999999999
  1
注記　内面バリは最小限にする
 51
15.0
  7
OKANO
100
AcDbText
  0
TEXT
  5
2BEF
330
1F
100
AcDbEntity
  8
文字
100
AcDbText
 10
-239.4507441280314
 20
-4.76237434029597
 30
0.0
 40
4.799999999999999
  1
JAN 4562182301048
 51
15.0
  7
OKANO
100
AcDbText
  0
LINE
  5
2C72
330
1F
100
AcDbEntity
  8
太線
100
AcDbLine
 10
402.0912165472359
 20
115.4790921915069
 30
0.0
 11
402.0912165472359
 21
180.4790921915069
 31
0.0
  0
LINE
  5
2C73
330
1F
100
AcDbEntity
  8
太線
100
AcDbLine
 10
342.0912165472359
 20
179.4790921915069
 30
0.0
 11
342.0912165472359
 21
146.4790921915069
 31
0.0
  0
LINE
  5
2C7A
330
1F
100
AcDbEntity
  8
太線
100
AcDbLine
 10
401.0912165472359
 20
180.4790921915069
 30
0.0
 11
343.0912165472359
 21
180.4790921915069
 31
0.0
  0
LINE
  5
2C88
330
1F
100
AcDbEntity
  8
太線
100
AcDbLine
 10
341.0912165472359
 20
145.4790921915069
 30
0.0
 11
308.0912165472359
 21
145.4790921915069
 31
0.0
  0
LINE
  5
2C8A
330
1F
100
AcDbEntity
  8
太線
100
AcDbLine
 10
308.0912165472359
 20
85.47909219150698
 30
0.0
 11
372.0912165472359
 21
85.47909219150696
 31
0.0
  0
LINE
  5
2C90
330
1F
100
AcDbEntity
  8
太線
100
AcDbLine
 10
307.0912165472359
 20
86.47909219150697
 30
0.0
 11
307.0912165472359
 21
144.4790921915069
 31
0.0
  0
LINE
  5
2D8E
330
1F
100
AcDbEntity
  8
太線
100
AcDbLine
 10
512.1228993814942
 20
179.683638052856
 30
0.0
 11
512.1228993814942
 21
90.47909219150696
 31
0.0
  0
LINE
  5
2D90
330
1F
100
AcDbEntity
  8
太線
100
AcDbLine
 10
507.1228993814941
 20
85.47909219150696
 30
0.0
 11
480.8484557658247
 21
85.47909219150696
 31
0.0
  0
LINE
  5
2D96
330
1F
100
AcDbEntity
  8
太線
100
AcDbLine
 10
308.0154853519475
 20
207.3178018661664
 30
0.0
 11
397.0912165472359
 21
207.3178018661663
 31
0.0
  0
LINE
  5
2D98
330
1F
100
AcDbEntity
  8
太線
100
AcDbLine
 10
402.0912165472359
 20
212.3178018661663
 30
0.0
 11
402.0912165472359
 21
238.97403100934
 31
0.0
  0
LINE
  5
2D99
330
1F
100
AcDbEntity
  8
太線
100
AcDbLine
 10
372.0912165472359
 20
85.47909219150696
 30
0.0
 11
397.0912165472359
 21
85.47909219150696
 31
0.0
  0
LINE
  5
2D9A
330
1F
100
AcDbEntity
  8
太線
100
AcDbLine
 10
402.0912165472358
 20
90.47909219150696
 30
0.0
 11
402.0912165472359
 21
179.4790921915069
 31
0.0
  0
XLINE
  5
2DD4
330
1F
100
AcDbEntity
  8
構築線
100
AcDbXline
 10
372.0912165472359
 20
180.4790921915069
 30
0.0
 11
0.0
 21
1.0
 31
0.0
  0
XLINE
  5
2DD5
330
1F
100
AcDbEntity
  8
構築線
100
AcDbXline
 10
482.1228993814941
 20
115.683638052856
 30
0.0
 11
0.0
 21
1.0
 31
0.0
  0
XLINE
  5
2DD6
330
1F
100
AcDbEntity
  8
構築線
100
AcDbXline
 10
372.0154853519475
 20
237.3178018661664
 30
0.0
 11
1.0
 21
0.0
 31
0.0
  0
ARC
  5
2DD9
330
1F
100
AcDbEntity
  8
太線
100
AcDbCircle
 10
307.5912165472359
 20
144.9790921915069
 30
0.0
 40
0.5
100
AcDbArc
 50
90.0
 51
180.0
  0
ARC
  5
2DDA
330
1F
100
AcDbEntity
  8
太線
100
AcDbCircle
 10
307.5912165472359
 20
144.9790921915069
 30
0.0
 40
0.5
100
AcDbArc
 50
81.10420471349181
 51
180.0
  0
ARC
  5
2DDB
330
1F
100
AcDbEntity
  8
太線
100
AcDbCircle
 10
308.0912165472359
 20
144.4790921915069
 30
0.0
 40
1.0
100
AcDbArc
 50
90.00000000000005
 51
97.70204684935944
  0
ARC
  5
2DDC
330
1F
100
AcDbEntity
  8
太線
100
AcDbCircle
 10
343.0912165472359
 20
179.4790921915069
 30
0.0
 40
1.0
100
AcDbArc
 50
90.0
 51
179.9999999999998
  0
ARC
  5
2DDD
330
1F
100
AcDbEntity
  8
太線
100
AcDbCircle
 10
401.0912165472359
 20
179.4790921915069
 30
0.0
 40
1.0
100
AcDbArc
 50
0.0
 51
89.99999999999998
  0
ARC
  5
2DDE
330
1F
100
AcDbEntity
  8
太線
100
AcDbCircle
 10
308.0912165472359
 20
86.47909219150697
 30
0.0
 40
1.0
100
AcDbArc
 50
180.0
 51
270.0
  0
ARC
  5
2DDF
330
1F
100
AcDbEntity
  8
太線
100
AcDbCircle
 10
307.8231733722862
 20
146.461049016557
 30
0.0
 40
1.0
100
AcDbArc
 50
261.1042047134915
 51
277.7020468493594
  0
ARC
  5
2DE0
330
1F
100
AcDbEntity
  8
太線
100
AcDbCircle
 10
453.1228993814941
 20
179.683638052856
 30
0.0
 40
1.0
100
AcDbArc
 50
90.0
 51
180.0
  0
ARC
  5
2DE1
330
1F
100
AcDbEntity
  8
太線
100
AcDbCircle
 10
511.1228993814942
 20
179.683638052856
 30
0.0
 40
1.0
100
AcDbArc
 50
0.0
 51
90.0
  0
ARC
  5
2DE4
330
1F
100
AcDbEntity
  8
太線
100
AcDbCircle
 10
341.0912165472359
 20
146.4790921915069
 30
0.0
 40
1.0
100
AcDbArc
 50
270.0000000000001
 51
0.0
  0
ARC
  5
2DE5
330
1F
100
AcDbEntity
  8
太線
100
AcDbCircle
 10
308.0154853519475
 20
266.3178018661664
 30
0.0
 40
1.0
100
AcDbArc
 50
90.0
 51
180.0
  0
ARC
  5
2DE6
330
1F
100
AcDbEntity
  8
太線
100
AcDbCircle
 10
308.0154853519475
 20
208.3178018661664
 30
0.0
 40
1.0
100
AcDbArc
 50
179.9999999999999
 51
270.0
  0
ARC
  5
2DE9
330
1F
100
AcDbEntity
  8
太線
100
AcDbCircle
 10
397.0912165472359
 20
212.3178018661663
 30
0.0
 40
5.0
100
AcDbArc
 50
270.0
 51
0.0
  0
ARC
  5
2DEA
330
1F
100
AcDbEntity
  8
太線
100
AcDbCircle
 10
397.0912165472359
 20
90.47909219150696
 30
0.0
 40
5.0
100
AcDbArc
 50
270.0
 51
0.0
  0
ARC
  5
2DEB
330
1F
100
AcDbEntity
  8
太線
100
AcDbCircle
 10
507.1228993814941
 20
90.47909219150696
 30
0.0
 40
5.0
100
AcDbArc
 50
270.0
 51
0.0
  0
DIMENSION
  5
2E0E
330
1F
100
AcDbEntity
  8
寸法線
100
AcDbDimension
  2
*D13
 10
402.0912165472359
 20
192.2323409144899
 30
0.0
 11
372.0912165472359
 21
195.7323409144898
 31
0.0
 70
    32
  1
57
 71
     5
 42
60.0
  3
sunpo
100
AcDbAlignedDimension
 13
342.0912165472359
 23
179.4790921915069
 33
0.0
 14
402.0912165472359
 24
179.4790921915069
 34
0.0
100
AcDbRotatedDimension
1001
ACAD
1000
DSTYLE
1002
{
1070
    40
1040
1.0
1002
}
  0
DIMENSION
  5
2EB7
330
1F
100
AcDbEntity
  8
寸法線
100
AcDbDimension
  2
*D14
 10
402.0912165472358
 20
72.58298987331205
 30
0.0
 11
355.0912165472359
 21
76.08469039684553
 31
0.0
 70
    32
  1
92
 71
     5
 42
93.99999999999995
  3
sunpo
100
AcDbAlignedDimension
 13
308.0912165472359
 23
86.47909219150697
 33
0.0
 14
402.0912165472358
 24
90.47909219150696
 34
0.0
100
AcDbRotatedDimension
1001
ACAD
1000
DSTYLE
1002
{
1070
    40
1040
1.0
1002
}
  0
DIMENSION
  5
2EC4
330
1F
100
AcDbEntity
  8
寸法線
100
AcDbDimension
  2
*D15
 10
290.5577989312569
 20
85.47909219150698
 30
0.0
 11
287.0577989312569
 21
115.479092191507
 31
0.0
 70
    32
  1
57
 71
     5
 42
59.99999999999992
  3
sunpo
100
AcDbAlignedDimension
 13
308.0912165472359
 23
145.4790921915069
 33
0.0
 14
308.0912165472359
 24
85.47909219150698
 34
0.0
 50
90.0
100
AcDbRotatedDimension
1001
ACAD
1000
DSTYLE
1002
{
1070
    40
1040
1.0
1002
}
  0
DIMENSION
  5
2EF6
330
1F
100
AcDbEntity
  8
寸法線
100
AcDbDimension
  2
*D16
 10
424.9230296479013
 20
180.4790921915069
 30
0.0
 11
421.4213291243678
 21
132.9322311557063
 31
0.0
 70
    32
  1
92
 71
     5
 42
95.09372207160126
  3
sunpo
100
AcDbAlignedDimension
 13
394.0508956516723
 23
85.3853701199057
 33
0.0
 14
401.0912165472359
 24
180.4790921915069
 34
0.0
 50
90.0
100
AcDbRotatedDimension
1001
ACAD
1000
DSTYLE
1002
{
1070
    40
1040
1.0
1002
}
  0
LINE
  5
2F19
330
1F
100
AcDbEntity
  8
太線
100
AcDbLine
 10
308.0154853519475
 20
267.3178018661664
 30
0.0
 11
342.0154853519475
 21
267.3178018661664
 31
0.0
  0
LINE
  5
2F2A
330
1F
100
AcDbEntity
  8
太線
100
AcDbLine
 10
452.1228993814942
 20
145.4123301145782
 30
0.0
 11
512.1228993814942
 21
145.4123301145782
 31
0.0
  0
LINE
  5
2F2C
330
1F
100
AcDbEntity
  8
太線
100
AcDbLine
 10
342.0154853519475
 20
267.3178018661664
 30
0.0
 11
342.0154853519475
 21
207.3178018661664
 31
0.0
  0
LINE
  5
2F33
330
1F
100
AcDbEntity
  8
想像線
100
AcDbLine
 10
508.1228993814942
 20
145.4123301145782
 30
0.0
 11
508.1228993814942
 21
180.4790921915069
 31
0.0
  0
LINE
  5
2F34
330
1F
100
AcDbEntity
  8
想像線
100
AcDbLine
 10
456.1228993814942
 20
145.4123301145782
 30
0.0
 11
456.1228993814942
 21
180.4790921915069
 31
0.0
  0
ARC
  5
2F3C
330
1F
100
AcDbEntity
  8
太線
100
AcDbCircle
 10
372.0912165472359
 20
237.3178018661664
 30
0.0
 40
30.00000000000005
100
AcDbArc
 50
0.0
 51
180.0
  0
CIRCLE
  5
2F3D
330
1F
100
AcDbEntity
  8
太線
100
AcDbCircle
 10
372.0154853519475
 20
237.3178018661664
 30
0.0
 40
23.52583164097779
  0
LINE
  5
2F41
330
1F
100
AcDbEntity
  8
太線
100
AcDbLine
 10
342.0154853519475
 20
267.3178018661664
 30
0.0
 11
371.9360527724179
 21
267.3279915186128
 31
0.0
  0
LINE
  5
2F45
330
1F
100
AcDbEntity
  8
太線
100
AcDbLine
 10
452.1228993814942
 20
179.683638052856
 30
0.0
 11
452.1228993814942
 21
145.4123301145782
 31
0.0
  0
LINE
  5
2F46
330
1F
100
AcDbEntity
  8
太線
100
AcDbLine
 10
452.1228993814942
 20
145.4123301145782
 30
0.0
 11
452.1228993814942
 21
111.9501681895976
 31
0.0
  0
ARC
  5
2F49
330
1F
100
AcDbEntity
  8
太線
100
AcDbCircle
 10
482.1228993814941
 20
115.683638052856
 30
0.0
 40
30.00000000000005
100
AcDbArc
 50
90.0
 51
270.0
  0
CIRCLE
  5
2F4A
330
1F
100
AcDbEntity
  8
太線
100
AcDbCircle
 10
482.1228993814941
 20
115.683638052856
 30
0.0
 40
22.72224418985695
  0
XLINE
  5
2F60
330
1F
100
AcDbEntity
  8
構築線
100
AcDbXline
 10
484.419178783377
 20
120.4123301145782
 30
0.0
 11
1.0
 21
0.0
 31
0.0
  0
LINE
  5
2F62
330
1F
100
AcDbEntity
  8
太線
100
AcDbLine
 10
342.0154853519475
 20
170.4123301145782
 30
0.0
 11
317.0154853519475
 21
145.4790921915069
 31
0.0
  0
LINE
  5
2F67
330
1F
100
AcDbEntity
  8
太線
100
AcDbLine
 10
342.1579574530443
 20
239.3178018661664
 30
0.0
 11
317.0154853519475
 21
239.3178018661664
 31
0.0
  0
LINE
  5
2F68
330
1F
100
AcDbEntity
  8
太線
100
AcDbLine
 10
317.0154853519475
 20
239.3178018661664
 30
0.0
 11
317.0154853519475
 21
235.3178018661663
 31
0.0
  0
LINE
  5
2F69
330
1F
100
AcDbEntity
  8
太線
100
AcDbLine
 10
317.0154853519475
 20
235.3178018661663
 30
0.0
 11
342.0154853519475
 21
235.3178018661663
 31
0.0
  0
LINE
  5
2F6A
330
1F
100
AcDbEntity
  8
太線
100
AcDbLine
 10
480.1228993814942
 20
145.4123301145782
 30
0.0
 11
480.1228993814942
 21
170.4123301145782
 31
0.0
  0
LINE
  5
2F6B
330
1F
100
AcDbEntity
  8
太線
100
AcDbLine
 10
480.1228993814942
 20
170.4123301145782
 30
0.0
 11
484.1228993814942
 21
170.4123301145782
 31
0.0
  0
LINE
  5
2F6C
330
1F
100
AcDbEntity
  8
太線
100
AcDbLine
 10
484.1228993814942
 20
170.4123301145782
 30
0.0
 11
484.1228993814942
 21
145.4123301145782
 31
0.0
  0
CIRCLE
  5
2F6E
330
1F
100
AcDbEntity
  8
太線
100
AcDbCircle
 10
338.3375356107476
 20
149.5004261902811
 30
0.0
 40
3.0
  0
LINE
  5
2F71
330
1F
100
AcDbEntity
  8
想像線
100
AcDbLine
 10
335.0471017770992
 20
239.3178018661664
 30
0.0
 11
335.0471017770992
 21
235.3178018661663
 31
0.0
  0
LINE
  5
2F72
330
1F
100
AcDbEntity
  8
想像線
100
AcDbLine
 10
480.1228993814942
 20
153.0924017591926
 30
0.0
 11
484.1228993814942
 21
153.0924017591926
 31
0.0
  0
VIEWPORT
  5
2E
330
1B
100
AcDbEntity
 67
     1
  8
0
100
AcDbViewport
 10
215.7514220544569
 20
79.10506126070029
 30
0.0
 40
547.6982948529386
 41
278.1776376386895
 68
     1
 69
     1
 12
215.7514220544569
 22
79.10506126070029
 13
0.0
 23
0.0
 14
10.0
 24
10.0
 15
10.0
 25
10.0
 16
0.0
 26
0.0
 36
1.0
 17
0.0
 27
0.0
 37
0.0
 42
50.0
 43
0.0
 44
0.0
 45
278.1776376386895
 50
0.0
 51
0.0
 72
   100
 90
    32800
  1

281
     0
 71
     1
 74
     0
110
0.0
120
0.0
130
0.0
111
1.0
121
0.0
131
0.0
112
0.0
122
1.0
132
0.0
 79
     0
146
0.0
  0
VIEWPORT
  5
30
330
1B
100
AcDbEntity
 67
     1
  8
70-0-CON
100
AcDbViewport
 10
141.8594093064315
 20
100.3480256368386
 30
0.0
 40
261.6199023344245
 41
192.6196987113174
 68
     2
 69
     2
 12
406.3022422593108
 22
165.1638894031457
 13
0.0
 23
0.0
 14
5.0
 24
5.0
 15
10.0
 25
10.0
 16
0.0
 26
0.0
 36
1.0
 17
0.0
 27
0.0
 37
0.0
 42
50.0
 43
0.0
 44
0.0
 45
291.3732545053921
 50
0.0
 51
0.0
 72
   100
 90
    32864
  1

281
     0
 71
     1
 74
     0
110
0.0
120
0.0
130
0.0
111
1.0
121
0.0
131
0.0
112
0.0
122
1.0
132
0.0
 79
     0
146
0.0
  0
LWPOLYLINE
  5
45
330
1B
100
AcDbEntity
 67
     1
  8
50-0-CON
100
AcDbPolyline
 90
        4
 70
     1
 43
0.0
 10
11.04945813921926
 20
4.038176281179858
 10
272.2125713060605
 20
4.033520706629644
 10
273.4987754093466
 20
195.9297862125246
 10
11.04945813921926
 20
196.6578749924973
  0
LINE
  5
4A
330
1B
100
AcDbEntity
 67
     1
  8
50-0-CON
100
AcDbLine
 10
10.38768783662635
 20
100.3480256368386
 30
0.0
 11
-4.391850629656119
 21
100.3480256368386
 31
0.0
  0
LINE
  5
4B
330
1B
100
AcDbEntity
 67
     1
  8
50-0-CON
100
AcDbLine
 10
141.8594093064315
 20
197.098652626247
 30
0.0
 11
141.8594093064315
 21
202.387980773708
 31
0.0
  0
LINE
  5
4C
330
1B
100
AcDbEntity
 67
     1
  8
50-0-CON
100
AcDbLine
 10
272.4487699456857
 20
100.7888032705883
 30
0.0
 11
278.8458837249377
 21
100.7888032705883
 31
0.0
  0
LINE
  5
4D
330
1B
100
AcDbEntity
 67
     1
  8
50-0-CON
100
AcDbLine
 10
140.9770484758805
 20
4.038176281179858
 30
0.0
 11
140.9770484758805
 21
-3.455038652015446
 31
0.0
  0
ENDSEC
  0
SECTION
  2
OBJECTS
  0
DICTIONARY
  5
C
330
0
100
AcDbDictionary
281
     1
  3
ACAD_GROUP
350
D
  3
ACAD_LAYOUT
350
1A
  3
ACAD_MLINESTYLE
350
17
  3
ACAD_PLOTSETTINGS
350
19
  3
ACAD_PLOTSTYLENAME
350
E
  3
AcadDim
350
13D0
  3
AcDbVariableDictionary
350
6AD
  3
DWGPROPS
350
30F
  0
DICTIONARY
  5
D
102
{ACAD_REACTORS
330
C
102
}
330
C
100
AcDbDictionary
281
     1
  0
DICTIONARY
  5
1A
102
{ACAD_REACTORS
330
C
102
}
330
C
100
AcDbDictionary
281
     1
  3
A4
350
1E
  3
Model
350
22
  0
DICTIONARY
  5
17
102
{ACAD_REACTORS
330
C
102
}
330
C
100
AcDbDictionary
281
     1
  3
Standard
350
18
  0
DICTIONARY
  5
19
102
{ACAD_REACTORS
330
C
102
}
330
C
100
AcDbDictionary
281
     1
  0
ACDBDICTIONARYWDFLT
  5
E
102
{ACAD_REACTORS
330
C
102
}
330
C
100
AcDbDictionary
281
     1
  3
Normal
350
F
100
AcDbDictionaryWithDefault
340
F
  0
XRECORD
  5
13D0
102
{ACAD_REACTORS
330
C
102
}
330
C
100
AcDbXrecord
280
     1
 90
   990106
  3

 60
     0
 61
     0
 62
     1
 63
     3
 64
     0
 65
     0
 66
     0
 67
     3
 68
     1
 69
     0
 70
     0
 71
     0
 72
     0
 40
0.0
170
     0
340
0
  0
DICTIONARY
  5
6AD
102
{ACAD_REACTORS
330
C
102
}
330
C
100
AcDbDictionary
281
     1
  3
SORTENTS
350
6AE
  0
XRECORD
  5
30F
102
{ACAD_REACTORS
330
C
102
}
330
C
100
AcDbXrecord
280
     1
  1
DWGPROPS COOKIE
  2

  3

  4

  6

  7

  8

  9

300
=
301
=
302
=
303
=
304
=
305
=
306
=
307
=
308
=
309
=
 40
0.3303803125
 41
2452362.482225463
 42
2452370.969861285
  1

 90
        0
  0
LAYOUT
  5
1E
102
{ACAD_REACTORS
330
1A
102
}
330
1A
100
AcDbPlotSettings
  1

  2
EPSON PM-920C
  4
A4
  6

 40
3.757083177566528
 41
14.7637300491333
 42
3.757080078125
 43
3.757080078125
 44
209.9733276367187
 45
296.9683227539062
 46
0.0
 47
0.0
 48
0.0
 49
0.0
140
0.0
141
0.0
142
1.0
143
1.0
 70
   688
 72
     1
 73
     1
 74
     5
  7
joint.ctb
 75
    16
147
1.0
148
0.0
149
0.0
100
AcDbLayout
  1
A4
 70
     1
 71
     1
 10
-3.757080078125
 20
-3.757083177566528
 11
293.2112426757812
 21
206.2162444591522
 12
0.0
 22
0.0
 32
0.0
 14
-4.391850629656119
 24
-3.455038652015446
 34
0.0
 15
278.8458837249377
 25
202.387980773708
 35
0.0
146
0.0
 13
0.0
 23
0.0
 33
0.0
 16
1.0
 26
0.0
 36
0.0
 17
0.0
 27
1.0
 37
0.0
 76
     0
330
1B
331
2E
  0
LAYOUT
  5
22
102
{ACAD_REACTORS
330
1A
102
}
330
1A
100
AcDbPlotSettings
  1

  2
EPSON PM-920C
  4
A4
  6

 40
3.757083177566528
 41
14.7637300491333
 42
3.757080078125
 43
3.757080078125
 44
209.9733276367187
 45
296.9683227539062
 46
0.0
 47
0.0
 48
0.0
 49
0.0
140
0.0
141
0.0
142
1.0
143
1.0
 70
 11952
 72
     1
 73
     1
 74
     0
  7

 75
     0
147
1.0
148
-45.64199848979289
149
-84.48806419330498
100
AcDbLayout
  1
Model
 70
     1
 71
     0
 10
0.0
 20
0.0
 11
12.0
 21
9.0
 12
0.0
 22
0.0
 32
0.0
 14
0.0
 24
0.0
 34
0.0
 15
0.0
 25
0.0
 35
0.0
146
0.0
 13
0.0
 23
0.0
 33
0.0
 16
1.0
 26
0.0
 36
0.0
 17
0.0
 27
1.0
 37
0.0
 76
     0
330
1F
  0
MLINESTYLE
  5
18
102
{ACAD_REACTORS
330
17
102
}
330
17
100
AcDbMlineStyle
  2
STANDARD
 70
     0
  3

 62
   256
 51
90.0
 52
90.0
 71
     2
 49
0.5
 62
   256
  6
BYLAYER
 49
-0.5
 62
   256
  6
BYLAYER
  0
ACDBPLACEHOLDER
  5
F
102
{ACAD_REACTORS
330
E
102
}
330
E
  0
DICTIONARYVAR
  5
6AE
102
{ACAD_REACTORS
330
6AD
102
}
330
6AD
100
DictionaryVariables
280
     0
  1
96
  0
ENDSEC
  0
EOF
