  0
SECTION
  2
HEADER
  9
$ACADVER
  1
AC1015
  9
$ACADMAINTVER
 70
     6
  9
$DWGCODEPAGE
  3
ANSI_932
  9
$INSBASE
 10
0.0
 20
0.0
 30
0.0
  9
$EXTMIN
 10
87.20151402540432
 20
-158.7709459538343
 30
0.0
  9
$EXTMAX
 10
614.5541036867489
 20
288.9711488256961
 30
0.0
  9
$LIMMIN
 10
0.0
 20
0.0
  9
$LIMMAX
 10
420.0
 20
297.0
  9
$ORTHOMODE
 70
     0
  9
$REGENMODE
 70
     1
  9
$FILLMODE
 70
     1
  9
$QTEXTMODE
 70
     0
  9
$MIRRTEXT
 70
     1
  9
$LTSCALE
 40
1.0
  9
$ATTMODE
 70
     2
  9
$TEXTSIZE
 40
5.0
  9
$TRACEWID
 40
1.0
  9
$TEXTSTYLE
  7
OKANO
  9
$CLAYER
  8
太線
  9
$CELTYPE
  6
ByLayer
  9
$CECOLOR
 62
   256
  9
$CELTSCALE
 40
1.0
  9
$DISPSILH
 70
     0
  9
$DIMSCALE
 40
1.0
  9
$DIMASZ
 40
2.5
  9
$DIMEXO
 40
0.625
  9
$DIMDLI
 40
3.75
  9
$DIMRND
 40
0.0
  9
$DIMDLE
 40
0.0
  9
$DIMEXE
 40
1.25
  9
$DIMTP
 40
0.0
  9
$DIMTM
 40
0.0
  9
$DIMTXT
 40
2.5
  9
$DIMCEN
 40
2.5
  9
$DIMTSZ
 40
0.0
  9
$DIMTOL
 70
     0
  9
$DIMLIM
 70
     0
  9
$DIMTIH
 70
     0
  9
$DIMTOH
 70
     0
  9
$DIMSE1
 70
     0
  9
$DIMSE2
 70
     0
  9
$DIMTAD
 70
     1
  9
$DIMZIN
 70
     8
  9
$DIMBLK
  1

  9
$DIMASO
 70
     1
  9
$DIMSHO
 70
     1
  9
$DIMPOST
  1

  9
$DIMAPOST
  1

  9
$DIMALT
 70
     0
  9
$DIMALTD
 70
     3
  9
$DIMALTF
 40
0.03937007874016
  9
$DIMLFAC
 40
1.0
  9
$DIMTOFL
 70
     1
  9
$DIMTVP
 40
0.0
  9
$DIMTIX
 70
     0
  9
$DIMSOXD
 70
     0
  9
$DIMSAH
 70
     0
  9
$DIMBLK1
  1

  9
$DIMBLK2
  1

  9
$DIMSTYLE
  2
ISO-25
  9
$DIMCLRD
 70
     0
  9
$DIMCLRE
 70
     0
  9
$DIMCLRT
 70
     0
  9
$DIMTFAC
 40
1.0
  9
$DIMGAP
 40
0.625
  9
$DIMJUST
 70
     0
  9
$DIMSD1
 70
     0
  9
$DIMSD2
 70
     0
  9
$DIMTOLJ
 70
     0
  9
$DIMTZIN
 70
     8
  9
$DIMALTZ
 70
     0
  9
$DIMALTTZ
 70
     0
  9
$DIMUPT
 70
     0
  9
$DIMDEC
 70
     2
  9
$DIMTDEC
 70
     2
  9
$DIMALTU
 70
     2
  9
$DIMALTTD
 70
     3
  9
$DIMTXSTY
  7
Standard
  9
$DIMAUNIT
 70
     0
  9
$DIMADEC
 70
     0
  9
$DIMALTRND
 40
0.0
  9
$DIMAZIN
 70
     0
  9
$DIMDSEP
 70
    46
  9
$DIMATFIT
 70
     3
  9
$DIMFRAC
 70
     0
  9
$DIMLDRBLK
  1

  9
$DIMLUNIT
 70
     2
  9
$DIMLWD
 70
    -2
  9
$DIMLWE
 70
    -2
  9
$DIMTMOVE
 70
     0
  9
$LUNITS
 70
     2
  9
$LUPREC
 70
     2
  9
$SKETCHINC
 40
1.0
  9
$FILLETRAD
 40
3.0
  9
$AUNITS
 70
     0
  9
$AUPREC
 70
     0
  9
$MENU
  1
.
  9
$ELEVATION
 40
0.0
  9
$PELEVATION
 40
0.0
  9
$THICKNESS
 40
0.0
  9
$LIMCHECK
 70
     0
  9
$CHAMFERA
 40
10.0
  9
$CHAMFERB
 40
10.0
  9
$CHAMFERC
 40
20.0
  9
$CHAMFERD
 40
0.0
  9
$SKPOLY
 70
     0
  9
$TDCREATE
 40
2452362.482225463
  9
$TDUCREATE
 40
2452362.107225463
  9
$TDUPDATE
 40
2455957.676061377
  9
$TDUUPDATE
 40
2455957.301061377
  9
$TDINDWG
 40
2.7070659028
  9
$TDUSRTIMER
 40
2.7070659028
  9
$USRTIMER
 70
     1
  9
$ANGBASE
 50
0.0
  9
$ANGDIR
 70
     0
  9
$PDMODE
 70
     0
  9
$PDSIZE
 40
0.0
  9
$PLINEWID
 40
0.0
  9
$SPLFRAME
 70
     0
  9
$SPLINETYPE
 70
     6
  9
$SPLINESEGS
 70
     8
  9
$HANDSEED
  5
377E
  9
$SURFTAB1
 70
     6
  9
$SURFTAB2
 70
     6
  9
$SURFTYPE
 70
     6
  9
$SURFU
 70
     6
  9
$SURFV
 70
     6
  9
$UCSBASE
  2

  9
$UCSNAME
  2

  9
$UCSORG
 10
0.0
 20
0.0
 30
0.0
  9
$UCSXDIR
 10
1.0
 20
0.0
 30
0.0
  9
$UCSYDIR
 10
0.0
 20
1.0
 30
0.0
  9
$UCSORTHOREF
  2

  9
$UCSORTHOVIEW
 70
     0
  9
$UCSORGTOP
 10
0.0
 20
0.0
 30
0.0
  9
$UCSORGBOTTOM
 10
0.0
 20
0.0
 30
0.0
  9
$UCSORGLEFT
 10
0.0
 20
0.0
 30
0.0
  9
$UCSORGRIGHT
 10
0.0
 20
0.0
 30
0.0
  9
$UCSORGFRONT
 10
0.0
 20
0.0
 30
0.0
  9
$UCSORGBACK
 10
0.0
 20
0.0
 30
0.0
  9
$PUCSBASE
  2

  9
$PUCSNAME
  2

  9
$PUCSORG
 10
0.0
 20
0.0
 30
0.0
  9
$PUCSXDIR
 10
1.0
 20
0.0
 30
0.0
  9
$PUCSYDIR
 10
0.0
 20
1.0
 30
0.0
  9
$PUCSORTHOREF
  2

  9
$PUCSORTHOVIEW
 70
     0
  9
$PUCSORGTOP
 10
0.0
 20
0.0
 30
0.0
  9
$PUCSORGBOTTOM
 10
0.0
 20
0.0
 30
0.0
  9
$PUCSORGLEFT
 10
0.0
 20
0.0
 30
0.0
  9
$PUCSORGRIGHT
 10
0.0
 20
0.0
 30
0.0
  9
$PUCSORGFRONT
 10
0.0
 20
0.0
 30
0.0
  9
$PUCSORGBACK
 10
0.0
 20
0.0
 30
0.0
  9
$USERI1
 70
     0
  9
$USERI2
 70
     0
  9
$USERI3
 70
     0
  9
$USERI4
 70
     0
  9
$USERI5
 70
     0
  9
$USERR1
 40
0.0
  9
$USERR2
 40
0.0
  9
$USERR3
 40
0.0
  9
$USERR4
 40
0.0
  9
$USERR5
 40
0.0
  9
$WORLDVIEW
 70
     1
  9
$SHADEDGE
 70
     3
  9
$SHADEDIF
 70
    70
  9
$TILEMODE
 70
     0
  9
$MAXACTVP
 70
    64
  9
$PINSBASE
 10
0.0
 20
0.0
 30
0.0
  9
$PLIMCHECK
 70
     0
  9
$PEXTMIN
 10
-4.391850629656119
 20
-3.455038652015446
 30
0.0
  9
$PEXTMAX
 10
278.8458837249377
 20
202.387980773708
 30
0.0
  9
$PLIMMIN
 10
-3.757080078125
 20
-3.757083177566528
  9
$PLIMMAX
 10
293.2112426757812
 20
206.2162444591522
  9
$UNITMODE
 70
     0
  9
$VISRETAIN
 70
     1
  9
$PLINEGEN
 70
     0
  9
$PSLTSCALE
 70
     1
  9
$TREEDEPTH
 70
  3020
  9
$CMLSTYLE
  2
Standard
  9
$CMLJUST
 70
     0
  9
$CMLSCALE
 40
20.0
  9
$PROXYGRAPHICS
 70
     1
  9
$MEASUREMENT
 70
     1
  9
$CELWEIGHT
370
    -1
  9
$ENDCAPS
280
     0
  9
$JOINSTYLE
280
     0
  9
$LWDISPLAY
290
     0
  9
$INSUNITS
 70
     4
  9
$HYPERLINKBASE
  1

  9
$STYLESHEET
  1

  9
$XEDIT
290
     1
  9
$CEPSNTYPE
380
     0
  9
$PSTYLEMODE
290
     1
  9
$FINGERPRINTGUID
  2
{FF7F33C3-4233-11D6-AEE0-0000F45FD7F4}
  9
$VERSIONGUID
  2
{8C715839-860B-4AE9-8273-1F034C104F61}
  9
$EXTNAMES
290
     1
  9
$PSVPSCALE
 40
0.0
  9
$OLESTARTUP
290
     0
  0
ENDSEC
  0
SECTION
  2
CLASSES
  0
CLASS
  1
ACDBDICTIONARYWDFLT
  2
AcDbDictionaryWithDefault
  3
AutoCAD 2000
 90
        0
280
     0
281
     0
  0
CLASS
  1
ACDBPLACEHOLDER
  2
AcDbPlaceHolder
  3
AutoCAD 2000
 90
        0
280
     0
281
     0
  0
CLASS
  1
LAYOUT
  2
AcDbLayout
  3
AutoCAD 2000
 90
        0
280
     0
281
     0
  0
CLASS
  1
DICTIONARYVAR
  2
AcDbDictionaryVar
  3
AutoCAD 2000
 90
        0
280
     0
281
     0
  0
ENDSEC
  0
SECTION
  2
TABLES
  0
TABLE
  2
VPORT
  5
8
330
0
100
AcDbSymbolTable
 70
     2
  0
VPORT
  5
377D
330
8
100
AcDbSymbolTableRecord
100
AcDbViewportTableRecord
  2
*Active
 70
     0
 10
0.0
 20
0.0
 11
1.0
 21
1.0
 12
468.2659963568908
 22
55.56079866495821
 13
0.0
 23
0.0
 14
5.0
 24
5.0
 15
10.0
 25
10.0
 16
0.0
 26
0.0
 36
1.0
 17
0.0
 27
0.0
 37
0.0
 40
751.2195916179563
 41
1.968879668049792
 42
50.0
 43
0.0
 44
0.0
 50
0.0
 51
0.0
 71
     0
 72
   100
 73
     1
 74
     2
 75
     0
 76
     0
 77
     0
 78
     0
281
     0
 65
     1
110
0.0
120
0.0
130
0.0
111
1.0
121
0.0
131
0.0
112
0.0
122
1.0
132
0.0
 79
     0
146
0.0
  0
ENDTAB
  0
TABLE
  2
LTYPE
  5
5
330
0
100
AcDbSymbolTable
 70
     5
  0
LTYPE
  5
14
330
5
100
AcDbSymbolTableRecord
100
AcDbLinetypeTableRecord
  2
ByBlock
 70
     0
  3

 72
    65
 73
     0
 40
0.0
  0
LTYPE
  5
15
330
5
100
AcDbSymbolTableRecord
100
AcDbLinetypeTableRecord
  2
ByLayer
 70
     0
  3

 72
    65
 73
     0
 40
0.0
  0
LTYPE
  5
16
330
5
100
AcDbSymbolTableRecord
100
AcDbLinetypeTableRecord
  2
Continuous
 70
     0
  3
Solid line
 72
    65
 73
     0
 40
0.0
  0
LTYPE
  5
33
330
5
100
AcDbSymbolTableRecord
100
AcDbLinetypeTableRecord
  2
DASHED2
 70
     0
  3
Dashed (.5x) _ _ _ _ _ _ _ _ _ _ _ _ _ _ _ _ _
 72
    65
 73
     2
 40
9.524999999999998
 49
6.349999999999999
 74
     0
 49
-3.174999999999999
 74
     0
  0
LTYPE
  5
34
330
5
100
AcDbSymbolTableRecord
100
AcDbLinetypeTableRecord
  2
CENTER2
 70
     0
  3
Center (.5x) ___ _ ___ _ ___ _ ___ _ ___ _ ___
 72
    65
 73
     4
 40
28.57499999999999
 49
19.05
 74
     0
 49
-3.174999999999999
 74
     0
 49
3.174999999999999
 74
     0
 49
-3.174999999999999
 74
     0
  0
LTYPE
  5
35
330
5
100
AcDbSymbolTableRecord
100
AcDbLinetypeTableRecord
  2
PHANTOM2
 70
     0
  3
Phantom (.5x) ___ _ _ ___ _ _ ___ _ _ ___ _ _
 72
    65
 73
     6
 40
31.75
 49
15.875
 74
     0
 49
-3.174999999999999
 74
     0
 49
3.174999999999999
 74
     0
 49
-3.174999999999999
 74
     0
 49
3.174999999999999
 74
     0
 49
-3.174999999999999
 74
     0
  0
LTYPE
  5
36
330
5
100
AcDbSymbolTableRecord
100
AcDbLinetypeTableRecord
  2
HIDDEN2
 70
     0
  3
Hidden (.5x) _ _ _ _ _ _ _ _ _ _ _ _ _ _ _ _ _
 72
    65
 73
     2
 40
4.762499999999999
 49
3.174999999999999
 74
     0
 49
-1.587499999999999
 74
     0
  0
ENDTAB
  0
TABLE
  2
LAYER
  5
2
330
0
100
AcDbSymbolTable
 70
    13
  0
LAYER
  5
10
330
2
100
AcDbSymbolTableRecord
100
AcDbLayerTableRecord
  2
0
 70
     0
 62
     7
  6
Continuous
370
    -3
390
F
  0
LAYER
  5
40
330
2
100
AcDbSymbolTableRecord
100
AcDbLayerTableRecord
  2
50-0-CON
 70
     0
 62
     4
  6
Continuous
370
    50
390
F
  0
LAYER
  5
41
330
2
100
AcDbSymbolTableRecord
100
AcDbLayerTableRecord
  2
70-0-CON
 70
     0
 62
   202
  6
Continuous
370
    70
390
F
  0
LAYER
  5
4E
330
2
100
AcDbSymbolTableRecord
100
AcDbLayerTableRecord
  2
極太線
 70
     0
 62
     7
  6
Continuous
370
    70
390
F
  0
LAYER
  5
4F
330
2
100
AcDbSymbolTableRecord
100
AcDbLayerTableRecord
  2
細線
 70
     0
 62
     8
  6
Continuous
370
    18
390
F
  0
LAYER
  5
AB
330
2
100
AcDbSymbolTableRecord
100
AcDbLayerTableRecord
  2
構築線
 70
     0
 62
    -2
  6
Continuous
370
    18
390
F
  0
LAYER
  5
B8
330
2
100
AcDbSymbolTableRecord
100
AcDbLayerTableRecord
  2
太線
 70
     0
 62
     7
  6
Continuous
370
    35
390
F
  0
LAYER
  5
B9
330
2
100
AcDbSymbolTableRecord
100
AcDbLayerTableRecord
  2
寸法線
 70
     0
 62
     5
  6
Continuous
370
    18
390
F
  0
LAYER
  5
BA
330
2
100
AcDbSymbolTableRecord
100
AcDbLayerTableRecord
  2
破線
 70
     0
 62
     8
  6
HIDDEN2
370
    18
390
F
  0
LAYER
  5
BB
330
2
100
AcDbSymbolTableRecord
100
AcDbLayerTableRecord
  2
中心線
 70
     0
 62
     1
  6
CENTER2
370
    18
390
F
  0
LAYER
  5
BC
330
2
100
AcDbSymbolTableRecord
100
AcDbLayerTableRecord
  2
想像線
 70
     0
 62
     8
  6
PHANTOM2
370
    18
390
F
  0
LAYER
  5
BD
330
2
100
AcDbSymbolTableRecord
100
AcDbLayerTableRecord
  2
文字
 70
     0
 62
     7
  6
Continuous
370
    18
390
F
  0
LAYER
  5
180
330
2
100
AcDbSymbolTableRecord
100
AcDbLayerTableRecord
  2
Defpoints
 70
     0
 62
     7
  6
Continuous
290
     0
370
    -3
390
F
  0
ENDTAB
  0
TABLE
  2
STYLE
  5
3
330
0
100
AcDbSymbolTable
 70
     3
  0
STYLE
  5
11
330
3
100
AcDbSymbolTableRecord
100
AcDbTextStyleTableRecord
  2
Standard
 70
     0
 40
0.0
 41
1.0
 50
0.0
 71
     0
 42
3.0
  3
txt
  4

  0
STYLE
  5
32
330
3
100
AcDbSymbolTableRecord
100
AcDbTextStyleTableRecord
  2

 70
     1
 40
0.0
 41
1.0
 50
0.0
 71
     0
 42
2.5
  3
ltypeshp.shx
  4

  0
STYLE
  5
50
330
3
100
AcDbSymbolTableRecord
100
AcDbTextStyleTableRecord
  2
OKANO
 70
     0
 40
0.0
 41
1.0
 50
15.0
 71
     0
 42
5.0
  3
isocp.shx
  4
bigfont.shx
  0
ENDTAB
  0
TABLE
  2
VIEW
  5
6
330
0
100
AcDbSymbolTable
 70
     0
  0
ENDTAB
  0
TABLE
  2
UCS
  5
7
330
0
100
AcDbSymbolTable
 70
     0
  0
ENDTAB
  0
TABLE
  2
APPID
  5
9
330
0
100
AcDbSymbolTable
 70
     1
  0
APPID
  5
12
330
9
100
AcDbSymbolTableRecord
100
AcDbRegAppTableRecord
  2
ACAD
 70
     0
  0
ENDTAB
  0
TABLE
  2
DIMSTYLE
  5
A
330
0
100
AcDbSymbolTable
 70
     2
100
AcDbDimStyleTable
 71
     2
340
27
340
A2
  0
DIMSTYLE
105
27
102
{ACAD_REACTORS
330
3707
330
3714
330
3721
102
}
330
A
100
AcDbSymbolTableRecord
100
AcDbDimStyleTableRecord
  2
ISO-25
 70
     0
 41
2.5
 42
0.625
 43
3.75
 44
1.25
 73
     0
 74
     0
 77
     1
 78
     8
140
2.5
141
2.5
143
0.03937007874016
147
0.625
171
     3
172
     1
271
     2
272
     2
274
     3
283
     0
284
     8
340
11
  0
DIMSTYLE
105
A2
330
A
100
AcDbSymbolTableRecord
100
AcDbDimStyleTableRecord
  2
sunpo
 70
     0
 40
0.0
 41
3.0
 42
2.0
 43
8.0
 44
3.0
 73
     0
 74
     0
 77
     1
 78
     8
140
5.0
141
2.5
143
0.03937007874016
147
1.0
171
     3
172
     1
271
     2
272
     2
274
     3
283
     0
284
     8
340
50
341
9B
342
9B
  0
ENDTAB
  0
TABLE
  2
BLOCK_RECORD
  5
1
330
0
100
AcDbSymbolTable
 70
     5
  0
BLOCK_RECORD
  5
1F
330
1
100
AcDbSymbolTableRecord
100
AcDbBlockTableRecord
  2
*Model_Space
340
22
  0
BLOCK_RECORD
  5
1B
330
1
100
AcDbSymbolTableRecord
100
AcDbBlockTableRecord
  2
*Paper_Space
340
1E
  0
BLOCK_RECORD
  5
9B
330
1
100
AcDbSymbolTableRecord
100
AcDbBlockTableRecord
  2
_Closed
340
0
  0
BLOCK_RECORD
  5
1510
330
1
100
AcDbSymbolTableRecord
100
AcDbBlockTableRecord
  2
A$C10A573AC
340
0
  0
BLOCK_RECORD
  5
3708
330
1
100
AcDbSymbolTableRecord
100
AcDbBlockTableRecord
  2
*D2
340
0
  0
BLOCK_RECORD
  5
3715
330
1
100
AcDbSymbolTableRecord
100
AcDbBlockTableRecord
  2
*D3
340
0
  0
BLOCK_RECORD
  5
3722
330
1
100
AcDbSymbolTableRecord
100
AcDbBlockTableRecord
  2
*D4
340
0
  0
ENDTAB
  0
ENDSEC
  0
SECTION
  2
BLOCKS
  0
BLOCK
  5
20
330
1F
100
AcDbEntity
  8
0
100
AcDbBlockBegin
  2
*Model_Space
 70
     0
 10
0.0
 20
0.0
 30
0.0
  3
*Model_Space
  1

  0
ENDBLK
  5
21
330
1F
100
AcDbEntity
  8
0
100
AcDbBlockEnd
  0
BLOCK
  5
1C
330
1B
100
AcDbEntity
 67
     1
  8
0
100
AcDbBlockBegin
  2
*Paper_Space
 70
     0
 10
0.0
 20
0.0
 30
0.0
  3
*Paper_Space
  1

  0
ENDBLK
  5
1D
330
1B
100
AcDbEntity
 67
     1
  8
0
100
AcDbBlockEnd
  0
BLOCK
  5
A0
330
9B
100
AcDbEntity
  8
0
100
AcDbBlockBegin
  2
_Closed
 70
     0
 10
0.0
 20
0.0
 30
0.0
  3
_Closed
  1

  0
LINE
  5
9C
330
9B
100
AcDbEntity
  8
0
 62
     0
370
    -2
100
AcDbLine
 10
-1.0
 20
0.1666666666666666
 30
0.0
 11
0.0
 21
0.0
 31
0.0
  0
LINE
  5
9D
330
9B
100
AcDbEntity
  8
0
 62
     0
370
    -2
100
AcDbLine
 10
0.0
 20
0.0
 30
0.0
 11
-1.0
 21
-0.1666666666666666
 31
0.0
  0
LINE
  5
9E
330
9B
100
AcDbEntity
  8
0
 62
     0
370
    -2
100
AcDbLine
 10
-1.0
 20
0.1666666666666666
 30
0.0
 11
-1.0
 21
-0.1666666666666666
 31
0.0
  0
LINE
  5
9F
330
9B
100
AcDbEntity
  8
0
 62
     0
370
    -2
100
AcDbLine
 10
0.0
 20
0.0
 30
0.0
 11
-1.0
 21
0.0
 31
0.0
  0
ENDBLK
  5
A1
330
9B
100
AcDbEntity
  8
0
100
AcDbBlockEnd
  0
BLOCK
  5
155B
330
1510
100
AcDbEntity
  8
0
100
AcDbBlockBegin
  2
A$C10A573AC
 70
     0
 10
0.0
 20
0.0
 30
0.0
  3
A$C10A573AC
  1

  0
TEXT
  5
1511
330
1510
100
AcDbEntity
  8
文字
100
AcDbText
 10
0.9844302777919438
 20
5.224957122252135
 30
0.0
 40
3.0
  1
Materal : Steel.
 51
15.0
  7
OKANO
100
AcDbText
  0
TEXT
  5
1512
330
1510
100
AcDbEntity
  8
文字
100
AcDbText
 10
-0.1141909619694843
 20
0.7500001922403499
 30
0.0
 40
3.0
  1
Surface treatment : Electro galvanized.
 51
15.0
  7
OKANO
100
AcDbText
  0
TEXT
  5
1513
330
1510
100
AcDbEntity
  8
文字
100
AcDbText
 10
-0.4901926332574931
 20
9.159967445193728
 30
0.0
 40
3.0
  1
5 TORGUE SCREW  M5-6
 51
15.0
  7
OKANO
100
AcDbText
  0
TEXT
  5
1514
330
1510
100
AcDbEntity
  8
文字
100
AcDbText
 10
1.364713526390005
 20
78.88822913323082
 30
0.0
 40
3.0
  1
Special standard,
 51
15.0
  7
OKANO
100
AcDbText
  0
TEXT
  5
1515
330
1510
100
AcDbEntity
  8
文字
100
AcDbText
 10
92.88160823408942
 20
89.92753849837379
 30
0.0
 40
3.0
  1
Screw Type
 51
15.0
  7
OKANO
100
AcDbText
  0
LINE
  5
1516
330
1510
100
AcDbEntity
  8
太線
100
AcDbLine
 10
113.9464587597784
 20
81.93930390144641
 30
0.0
 11
112.4464587597784
 21
81.93930390144641
 31
0.0
  0
LINE
  5
1517
330
1510
100
AcDbEntity
  8
太線
100
AcDbLine
 10
112.4464587597784
 20
76.9393039014464
 30
0.0
 11
121.4644995438761
 21
76.9393039014464
 31
0.0
  0
TEXT
  5
1518
330
1510
100
AcDbEntity
  8
文字
100
AcDbText
 10
93.46068240437217
 20
77.96976862235396
 30
0.0
 40
2.0
  1
17-30
 51
15.0
  7
OKANO
100
AcDbText
  0
LINE
  5
1519
330
1510
100
AcDbEntity
  8
太線
100
AcDbLine
 10
111.9464587597784
 20
81.43930390144641
 30
0.0
 11
111.9464587597784
 21
77.4393039014464
 31
0.0
  0
LINE
  5
151A
330
1510
100
AcDbEntity
  8
太線
100
AcDbLine
 10
91.94645875977846
 20
81.43930390144641
 30
0.0
 11
91.94645875977846
 21
77.43930390144639
 31
0.0
  0
LINE
  5
151B
330
1510
100
AcDbEntity
  8
太線
100
AcDbLine
 10
101.9644995438761
 20
77.4393039014464
 30
0.0
 11
101.9644995438761
 21
81.43930390144641
 31
0.0
  0
LINE
  5
151C
330
1510
100
AcDbEntity
  8
太線
100
AcDbLine
 10
92.44645875977846
 20
76.9393039014464
 30
0.0
 11
101.4644995438761
 21
76.9393039014464
 31
0.0
  0
ARC
  5
151D
330
1510
100
AcDbEntity
  8
太線
100
AcDbCircle
 10
92.44645875977846
 20
77.43930390144639
 30
0.0
 40
0.5
100
AcDbArc
 50
180.0
 51
270.0
  0
ARC
  5
151E
330
1510
100
AcDbEntity
  8
太線
100
AcDbCircle
 10
101.4644995438761
 20
77.4393039014464
 30
0.0
 40
0.5
100
AcDbArc
 50
270.0
 51
0.0
  0
ARC
  5
151F
330
1510
100
AcDbEntity
  8
太線
100
AcDbCircle
 10
112.4464587597784
 20
77.4393039014464
 30
0.0
 40
0.5
100
AcDbArc
 50
180.0
 51
270.0
  0
LINE
  5
1520
330
1510
100
AcDbEntity
  8
想像線
100
AcDbLine
 10
93.94645875977847
 20
81.93930390144641
 30
0.0
 11
99.96449954387617
 21
81.93930390144641
 31
0.0
  0
LINE
  5
1521
330
1510
100
AcDbEntity
  8
極太線
100
AcDbLine
 10
96.38762957111168
 20
85.43930390144641
 30
0.0
 11
97.50528794844525
 21
85.43930390144641
 31
0.0
  0
CIRCLE
  5
1522
330
1510
100
AcDbEntity
  8
太線
100
AcDbCircle
 10
96.94645875977847
 20
85.43930390144641
 30
0.0
 40
0.5588291886667776
  0
LINE
  5
1523
330
1510
100
AcDbEntity
  8
太線
100
AcDbLine
 10
99.46449954387617
 20
86.93930390144641
 30
0.0
 11
94.44645875977846
 21
86.93930390144641
 31
0.0
  0
LINE
  5
1524
330
1510
100
AcDbEntity
  8
太線
100
AcDbLine
 10
93.94645875977847
 20
86.43930390144641
 30
0.0
 11
93.94645875977847
 21
81.93930390144641
 31
0.0
  0
ARC
  5
1525
330
1510
100
AcDbEntity
  8
太線
100
AcDbCircle
 10
92.44645875977846
 20
81.43930390144641
 30
0.0
 40
0.5
100
AcDbArc
 50
90.0
 51
180.0
  0
LINE
  5
1526
330
1510
100
AcDbEntity
  8
太線
100
AcDbLine
 10
93.94645875977847
 20
81.93930390144641
 30
0.0
 11
92.44645875977846
 21
81.93930390144641
 31
0.0
  0
ARC
  5
1527
330
1510
100
AcDbEntity
  8
太線
100
AcDbCircle
 10
94.44645875977846
 20
86.43930390144641
 30
0.0
 40
0.5
100
AcDbArc
 50
90.0
 51
180.0
  0
LINE
  5
1528
330
1510
100
AcDbEntity
  8
太線
100
AcDbLine
 10
99.96449954387617
 20
81.93930390144641
 30
0.0
 11
99.96449954387617
 21
86.43930390144641
 31
0.0
  0
LINE
  5
1529
330
1510
100
AcDbEntity
  8
太線
100
AcDbLine
 10
101.4644995438761
 20
81.93930390144641
 30
0.0
 11
99.96449954387617
 21
81.93930390144641
 31
0.0
  0
ARC
  5
152A
330
1510
100
AcDbEntity
  8
太線
100
AcDbCircle
 10
101.4644995438761
 20
81.43930390144641
 30
0.0
 40
0.5
100
AcDbArc
 50
0.0
 51
90.0
  0
ARC
  5
152B
330
1510
100
AcDbEntity
  8
太線
100
AcDbCircle
 10
99.46449954387617
 20
86.43930390144641
 30
0.0
 40
0.5
100
AcDbArc
 50
0.0
 51
90.0
  0
LINE
  5
152C
330
1510
100
AcDbEntity
  8
極太線
100
AcDbLine
 10
96.94645875977847
 20
85.99813309011318
 30
0.0
 11
96.94645875977847
 21
84.88047471277964
 31
0.0
  0
ARC
  5
152D
330
1510
100
AcDbEntity
  8
太線
100
AcDbCircle
 10
112.4464587597784
 20
81.43930390144641
 30
0.0
 40
0.5
100
AcDbArc
 50
90.0
 51
180.0
  0
TEXT
  5
152E
330
1510
100
AcDbEntity
  8
文字
100
AcDbText
 10
134.3819212586066
 20
78.16263579228063
 30
0.0
 40
2.0
  1
101
 51
15.0
  7
OKANO
100
AcDbText
  0
TEXT
  5
152F
330
1510
100
AcDbEntity
  8
文字
100
AcDbText
 10
113.3422276612066
 20
77.96976862235396
 30
0.0
 40
2.0
  1
38-83
 51
15.0
  7
OKANO
100
AcDbText
  0
LINE
  5
1530
330
1510
100
AcDbEntity
  8
太線
100
AcDbLine
 10
141.9825403279738
 20
77.4393039014464
 30
0.0
 11
141.9825403279738
 21
81.43930390144641
 31
0.0
  0
LINE
  5
1531
330
1510
100
AcDbEntity
  8
太線
100
AcDbLine
 10
131.9644995438761
 20
81.43930390144641
 30
0.0
 11
131.9644995438761
 21
77.4393039014464
 31
0.0
  0
LINE
  5
1532
330
1510
100
AcDbEntity
  8
太線
100
AcDbLine
 10
121.9644995438761
 20
77.4393039014464
 30
0.0
 11
121.9644995438761
 21
81.43930390144641
 31
0.0
  0
ARC
  5
1533
330
1510
100
AcDbEntity
  8
太線
100
AcDbCircle
 10
121.4644995438761
 20
77.4393039014464
 30
0.0
 40
0.5
100
AcDbArc
 50
270.0
 51
0.0
  0
LINE
  5
1534
330
1510
100
AcDbEntity
  8
太線
100
AcDbLine
 10
132.4644995438761
 20
76.9393039014464
 30
0.0
 11
141.4825403279738
 21
76.9393039014464
 31
0.0
  0
ARC
  5
1535
330
1510
100
AcDbEntity
  8
太線
100
AcDbCircle
 10
132.4644995438761
 20
77.4393039014464
 30
0.0
 40
0.5
100
AcDbArc
 50
180.0
 51
270.0
  0
ARC
  5
1536
330
1510
100
AcDbEntity
  8
太線
100
AcDbCircle
 10
141.4825403279738
 20
77.4393039014464
 30
0.0
 40
0.5
100
AcDbArc
 50
270.0
 51
0.0
  0
ARC
  5
1537
330
1510
100
AcDbEntity
  8
太線
100
AcDbCircle
 10
121.4644995438761
 20
81.43930390144641
 30
0.0
 40
0.5
100
AcDbArc
 50
0.0
 51
90.0
  0
LINE
  5
1538
330
1510
100
AcDbEntity
  8
太線
100
AcDbLine
 10
119.9644995438761
 20
81.93930390144641
 30
0.0
 11
119.9644995438761
 21
86.43930390144641
 31
0.0
  0
LINE
  5
1539
330
1510
100
AcDbEntity
  8
太線
100
AcDbLine
 10
113.9464587597784
 20
86.43930390144641
 30
0.0
 11
113.9464587597784
 21
81.93930390144641
 31
0.0
  0
LINE
  5
153A
330
1510
100
AcDbEntity
  8
想像線
100
AcDbLine
 10
113.9464587597784
 20
81.93930390144641
 30
0.0
 11
119.9644995438761
 21
81.93930390144641
 31
0.0
  0
LINE
  5
153B
330
1510
100
AcDbEntity
  8
太線
100
AcDbLine
 10
121.4644995438761
 20
81.93930390144641
 30
0.0
 11
119.9644995438761
 21
81.93930390144641
 31
0.0
  0
LINE
  5
153C
330
1510
100
AcDbEntity
  8
太線
100
AcDbLine
 10
119.4644995438761
 20
86.93930390144641
 30
0.0
 11
114.4464587597784
 21
86.93930390144641
 31
0.0
  0
ARC
  5
153D
330
1510
100
AcDbEntity
  8
太線
100
AcDbCircle
 10
114.4464587597784
 20
86.43930390144641
 30
0.0
 40
0.5
100
AcDbArc
 50
90.0
 51
180.0
  0
CIRCLE
  5
153E
330
1510
100
AcDbEntity
  8
太線
100
AcDbCircle
 10
115.4464587597784
 20
85.43930390144641
 30
0.0
 40
0.5588291886667776
  0
LINE
  5
153F
330
1510
100
AcDbEntity
  8
極太線
100
AcDbLine
 10
115.4464587597784
 20
85.99813309011318
 30
0.0
 11
115.4464587597784
 21
84.88047471277964
 31
0.0
  0
LINE
  5
1540
330
1510
100
AcDbEntity
  8
極太線
100
AcDbLine
 10
114.8876295711116
 20
85.43930390144641
 30
0.0
 11
116.0052879484452
 21
85.43930390144641
 31
0.0
  0
ARC
  5
1541
330
1510
100
AcDbEntity
  8
太線
100
AcDbCircle
 10
119.4644995438761
 20
86.43930390144641
 30
0.0
 40
0.5
100
AcDbArc
 50
0.0
 51
90.0
  0
LINE
  5
1542
330
1510
100
AcDbEntity
  8
極太線
100
AcDbLine
 10
117.9056703552094
 20
85.43930390144641
 30
0.0
 11
119.0233287325429
 21
85.43930390144641
 31
0.0
  0
LINE
  5
1543
330
1510
100
AcDbEntity
  8
極太線
100
AcDbLine
 10
118.4644995438761
 20
85.99813309011318
 30
0.0
 11
118.4644995438761
 21
84.88047471277964
 31
0.0
  0
CIRCLE
  5
1544
330
1510
100
AcDbEntity
  8
太線
100
AcDbCircle
 10
118.4644995438761
 20
85.43930390144641
 30
0.0
 40
0.5588291886667776
  0
LINE
  5
1545
330
1510
100
AcDbEntity
  8
想像線
100
AcDbLine
 10
133.9644995438761
 20
81.93930390144641
 30
0.0
 11
139.9825403279738
 21
81.93930390144641
 31
0.0
  0
LINE
  5
1546
330
1510
100
AcDbEntity
  8
極太線
100
AcDbLine
 10
137.9237111393071
 20
85.43930390144641
 30
0.0
 11
139.0413695166406
 21
85.43930390144641
 31
0.0
  0
CIRCLE
  5
1547
330
1510
100
AcDbEntity
  8
太線
100
AcDbCircle
 10
138.4825403279738
 20
85.43930390144641
 30
0.0
 40
0.5588291886667776
  0
CIRCLE
  5
1548
330
1510
100
AcDbEntity
  8
太線
100
AcDbCircle
 10
138.4825403279738
 20
83.26342923362075
 30
0.0
 40
0.5588291886667776
  0
LINE
  5
1549
330
1510
100
AcDbEntity
  8
極太線
100
AcDbLine
 10
137.9237111393071
 20
83.26342923362075
 30
0.0
 11
139.0413695166406
 21
83.26342923362075
 31
0.0
  0
LINE
  5
154A
330
1510
100
AcDbEntity
  8
太線
100
AcDbLine
 10
139.4825403279738
 20
86.93930390144641
 30
0.0
 11
134.4644995438761
 21
86.93930390144641
 31
0.0
  0
LINE
  5
154B
330
1510
100
AcDbEntity
  8
太線
100
AcDbLine
 10
133.9644995438761
 20
86.43930390144641
 30
0.0
 11
133.9644995438761
 21
81.93930390144641
 31
0.0
  0
ARC
  5
154C
330
1510
100
AcDbEntity
  8
太線
100
AcDbCircle
 10
132.4644995438761
 20
81.43930390144641
 30
0.0
 40
0.5
100
AcDbArc
 50
90.0
 51
180.0
  0
LINE
  5
154D
330
1510
100
AcDbEntity
  8
太線
100
AcDbLine
 10
133.9644995438761
 20
81.93930390144641
 30
0.0
 11
132.4644995438761
 21
81.93930390144641
 31
0.0
  0
LINE
  5
154E
330
1510
100
AcDbEntity
  8
極太線
100
AcDbLine
 10
134.9056703552093
 20
83.26342923362075
 30
0.0
 11
136.0233287325429
 21
83.26342923362075
 31
0.0
  0
LINE
  5
154F
330
1510
100
AcDbEntity
  8
極太線
100
AcDbLine
 10
135.4644995438761
 20
83.82225842228752
 30
0.0
 11
135.4644995438761
 21
82.70460004495395
 31
0.0
  0
CIRCLE
  5
1550
330
1510
100
AcDbEntity
  8
太線
100
AcDbCircle
 10
135.4644995438761
 20
83.26342923362075
 30
0.0
 40
0.5588291886667776
  0
ARC
  5
1551
330
1510
100
AcDbEntity
  8
太線
100
AcDbCircle
 10
134.4644995438761
 20
86.43930390144641
 30
0.0
 40
0.5
100
AcDbArc
 50
90.0
 51
180.0
  0
CIRCLE
  5
1552
330
1510
100
AcDbEntity
  8
太線
100
AcDbCircle
 10
135.4644995438761
 20
85.43930390144641
 30
0.0
 40
0.5588291886667776
  0
LINE
  5
1553
330
1510
100
AcDbEntity
  8
極太線
100
AcDbLine
 10
135.4644995438761
 20
85.99813309011318
 30
0.0
 11
135.4644995438761
 21
84.88047471277964
 31
0.0
  0
LINE
  5
1554
330
1510
100
AcDbEntity
  8
極太線
100
AcDbLine
 10
134.9056703552093
 20
85.43930390144641
 30
0.0
 11
136.0233287325429
 21
85.43930390144641
 31
0.0
  0
LINE
  5
1555
330
1510
100
AcDbEntity
  8
太線
100
AcDbLine
 10
139.9825403279738
 20
81.93930390144641
 30
0.0
 11
139.9825403279738
 21
86.43930390144641
 31
0.0
  0
ARC
  5
1556
330
1510
100
AcDbEntity
  8
太線
100
AcDbCircle
 10
141.4825403279738
 20
81.43930390144641
 30
0.0
 40
0.5
100
AcDbArc
 50
0.0
 51
90.0
  0
LINE
  5
1557
330
1510
100
AcDbEntity
  8
極太線
100
AcDbLine
 10
138.4825403279738
 20
83.82225842228752
 30
0.0
 11
138.4825403279738
 21
82.70460004495395
 31
0.0
  0
LINE
  5
1558
330
1510
100
AcDbEntity
  8
太線
100
AcDbLine
 10
141.4825403279738
 20
81.93930390144641
 30
0.0
 11
139.9825403279738
 21
81.93930390144641
 31
0.0
  0
ARC
  5
1559
330
1510
100
AcDbEntity
  8
太線
100
AcDbCircle
 10
139.4825403279738
 20
86.43930390144641
 30
0.0
 40
0.5
100
AcDbArc
 50
0.0
 51
90.0
  0
LINE
  5
155A
330
1510
100
AcDbEntity
  8
極太線
100
AcDbLine
 10
138.4825403279738
 20
85.99813309011318
 30
0.0
 11
138.4825403279738
 21
84.88047471277964
 31
0.0
  0
ENDBLK
  5
155C
330
1510
100
AcDbEntity
  8
0
100
AcDbBlockEnd
  0
BLOCK
  5
3712
330
3708
100
AcDbEntity
  8
0
100
AcDbBlockBegin
  2
*D2
 70
     1
 10
0.0
 20
0.0
 30
0.0
  3
*D2
  1

  0
LINE
  5
3749
330
3708
100
AcDbEntity
  8
寸法線
 62
     0
370
    -2
100
AcDbLine
 10
416.535198150007
 20
-50.64876769549323
 30
0.0
 11
495.133456738044
 21
-50.64876769549325
 31
0.0
  0
LINE
  5
374A
330
3708
100
AcDbEntity
  8
寸法線
 62
     0
370
    -2
100
AcDbLine
 10
416.535198150007
 20
150.8280104485436
 30
0.0
 11
495.133456738044
 21
150.8280104485436
 31
0.0
  0
LINE
  5
374B
330
3708
100
AcDbEntity
  8
寸法線
 62
     0
370
    -2
100
AcDbLine
 10
493.883456738044
 20
-48.14876769549325
 30
0.0
 11
493.883456738044
 21
148.3280104485436
 31
0.0
  0
SOLID
  5
374C
330
3708
100
AcDbEntity
  8
寸法線
 62
     0
100
AcDbTrace
 10
493.4667900713773
 20
-48.14876769549325
 30
0.0
 11
494.3001234047106
 21
-48.14876769549325
 31
0.0
 12
493.883456738044
 22
-50.64876769549325
 32
0.0
 13
493.883456738044
 23
-50.64876769549325
 33
0.0
  0
SOLID
  5
374D
330
3708
100
AcDbEntity
  8
寸法線
 62
     0
100
AcDbTrace
 10
493.4667900713773
 20
148.3280104485436
 30
0.0
 11
494.3001234047107
 21
148.3280104485436
 31
0.0
 12
493.883456738044
 22
150.8280104485436
 32
0.0
 13
493.883456738044
 23
150.8280104485436
 33
0.0
  0
MTEXT
  5
374E
330
3708
100
AcDbEntity
  8
寸法線
 62
     0
100
AcDbMText
 10
488.2584567380439
 20
50.08962137652526
 30
0.0
 40
10.0
 41
0.0
 71
     5
 72
     1
  1
200
 11
0.0000000000000001
 21
1.0
 31
0.0
 73
     1
 44
1.0
  0
POINT
  5
374F
330
3708
100
AcDbEntity
  8
Defpoints
 62
     0
100
AcDbPoint
 10
415.9101981500071
 20
-50.64876769549323
 30
0.0
  0
POINT
  5
3750
330
3708
100
AcDbEntity
  8
Defpoints
 62
     0
100
AcDbPoint
 10
415.9101981500071
 20
150.8280104485436
 30
0.0
  0
POINT
  5
3751
330
3708
100
AcDbEntity
  8
Defpoints
 62
     0
100
AcDbPoint
 10
493.883456738044
 20
150.8280104485436
 30
0.0
  0
ENDBLK
  5
3713
330
3708
100
AcDbEntity
  8
0
100
AcDbBlockEnd
  0
BLOCK
  5
371F
330
3715
100
AcDbEntity
  8
0
100
AcDbBlockBegin
  2
*D3
 70
     1
 10
0.0
 20
0.0
 30
0.0
  3
*D3
  1

  0
LINE
  5
375B
330
3715
100
AcDbEntity
  8
寸法線
 62
     0
370
    -2
100
AcDbLine
 10
256.1601133748681
 20
133.3961302531663
 30
0.0
 11
256.1601133748681
 21
196.745033319024
 31
0.0
  0
LINE
  5
375C
330
3715
100
AcDbEntity
  8
寸法線
 62
     0
370
    -2
100
AcDbLine
 10
447.2896796860677
 20
133.3961302531663
 30
0.0
 11
447.2896796860677
 21
196.745033319024
 31
0.0
  0
LINE
  5
375D
330
3715
100
AcDbEntity
  8
寸法線
 62
     0
370
    -2
100
AcDbLine
 10
258.6601133748681
 20
195.495033319024
 30
0.0
 11
444.7896796860677
 21
195.495033319024
 31
0.0
  0
SOLID
  5
375E
330
3715
100
AcDbEntity
  8
寸法線
 62
     0
100
AcDbTrace
 10
258.6601133748681
 20
195.9116999856907
 30
0.0
 11
258.6601133748681
 21
195.0783666523573
 31
0.0
 12
256.1601133748681
 22
195.495033319024
 32
0.0
 13
256.1601133748681
 23
195.495033319024
 33
0.0
  0
SOLID
  5
375F
330
3715
100
AcDbEntity
  8
寸法線
 62
     0
100
AcDbTrace
 10
444.7896796860677
 20
195.9116999856907
 30
0.0
 11
444.7896796860677
 21
195.0783666523573
 31
0.0
 12
447.2896796860677
 22
195.495033319024
 32
0.0
 13
447.2896796860677
 23
195.495033319024
 33
0.0
  0
MTEXT
  5
3760
330
3715
100
AcDbEntity
  8
寸法線
 62
     0
100
AcDbMText
 10
351.7248965304679
 20
201.120033319024
 30
0.0
 40
10.0
 41
0.0
 71
     5
 72
     1
  1
190
 73
     1
 44
1.0
  0
POINT
  5
3761
330
3715
100
AcDbEntity
  8
Defpoints
 62
     0
100
AcDbPoint
 10
256.1601133748681
 20
132.7711302531663
 30
0.0
  0
POINT
  5
3762
330
3715
100
AcDbEntity
  8
Defpoints
 62
     0
100
AcDbPoint
 10
447.2896796860677
 20
132.7711302531663
 30
0.0
  0
POINT
  5
3763
330
3715
100
AcDbEntity
  8
Defpoints
 62
     0
100
AcDbPoint
 10
447.2896796860677
 20
195.495033319024
 30
0.0
  0
ENDBLK
  5
3720
330
3715
100
AcDbEntity
  8
0
100
AcDbBlockEnd
  0
BLOCK
  5
372C
330
3722
100
AcDbEntity
  8
0
100
AcDbBlockBegin
  2
*D4
 70
     1
 10
0.0
 20
0.0
 30
0.0
  3
*D4
  1

  0
LINE
  5
376D
330
3722
100
AcDbEntity
  8
寸法線
 62
     0
370
    -2
100
AcDbLine
 10
322.7226496282
 20
-28.46507625120262
 30
0.0
 11
322.7226496282
 21
-69.95564948492893
 31
0.0
  0
LINE
  5
376E
330
3722
100
AcDbEntity
  8
寸法線
 62
     0
370
    -2
100
AcDbLine
 10
256.1601133748681
 20
-28.46507625120262
 30
0.0
 11
256.1601133748681
 21
-69.95564948492893
 31
0.0
  0
LINE
  5
376F
330
3722
100
AcDbEntity
  8
寸法線
 62
     0
370
    -2
100
AcDbLine
 10
320.2226496282
 20
-68.70564948492893
 30
0.0
 11
258.6601133748681
 21
-68.70564948492893
 31
0.0
  0
SOLID
  5
3770
330
3722
100
AcDbEntity
  8
寸法線
 62
     0
100
AcDbTrace
 10
320.2226496282
 20
-68.28898281826226
 30
0.0
 11
320.2226496282
 21
-69.12231615159559
 31
0.0
 12
322.7226496282
 22
-68.70564948492893
 32
0.0
 13
322.7226496282
 23
-68.70564948492893
 33
0.0
  0
SOLID
  5
3771
330
3722
100
AcDbEntity
  8
寸法線
 62
     0
100
AcDbTrace
 10
258.6601133748681
 20
-68.28898281826226
 30
0.0
 11
258.6601133748681
 21
-69.12231615159559
 31
0.0
 12
256.1601133748681
 22
-68.70564948492893
 32
0.0
 13
256.1601133748681
 23
-68.70564948492893
 33
0.0
  0
MTEXT
  5
3772
330
3722
100
AcDbEntity
  8
寸法線
 62
     0
100
AcDbMText
 10
289.4413815015341
 20
-63.08064948492893
 30
0.0
 40
10.0
 41
0.0
 71
     5
 72
     1
  1
66
 73
     1
 44
1.0
  0
POINT
  5
3773
330
3722
100
AcDbEntity
  8
Defpoints
 62
     0
100
AcDbPoint
 10
322.7226496282
 20
-27.84007625120262
 30
0.0
  0
POINT
  5
3774
330
3722
100
AcDbEntity
  8
Defpoints
 62
     0
100
AcDbPoint
 10
256.1601133748681
 20
-27.84007625120262
 30
0.0
  0
POINT
  5
3775
330
3722
100
AcDbEntity
  8
Defpoints
 62
     0
100
AcDbPoint
 10
256.1601133748681
 20
-68.70564948492893
 30
0.0
  0
ENDBLK
  5
372D
330
3722
100
AcDbEntity
  8
0
100
AcDbBlockEnd
  0
ENDSEC
  0
SECTION
  2
ENTITIES
  0
TEXT
  5
29C1
330
1F
100
AcDbEntity
  8
文字
100
AcDbText
 10
521.346960263831
 20
-141.6859776375852
 30
0.0
 40
6.119999999999999
  1
SET SCREW COUP
 51
15.0
  7
OKANO
100
AcDbText
  0
TEXT
  5
29C2
330
1F
100
AcDbEntity
  8
文字
100
AcDbText
 10
490.302023715547
 20
-153.7246045104918
 30
0.0
 40
8.16
  1
joint kogyo T.okano
 51
15.0
  7
OKANO
100
AcDbText
  0
TEXT
  5
29C3
330
1F
100
AcDbEntity
  8
文字
100
AcDbText
 10
477.5718915954924
 20
-128.6455729481026
 30
0.0
 40
8.16
  1
F-999-20080409 Auto CAD
 51
15.0
  7
OKANO
100
AcDbText
  0
LINE
  5
29C4
330
1F
100
AcDbEntity
  8
太線
100
AcDbLine
 10
430.9541036867488
 20
-130.2109459538342
 30
0.0
 11
614.5541036867489
 21
-130.2109459538342
 31
0.0
  0
LWPOLYLINE
  5
29C5
330
1F
100
AcDbEntity
  8
太線
100
AcDbPolyline
 90
        4
 70
     1
 43
0.0
 10
430.9541036867488
 20
-115.9309459538342
 10
614.5541036867489
 20
-115.9309459538342
 10
614.5541036867489
 20
-158.7709459538343
 10
430.9541036867488
 20
-158.7709459538343
  0
TEXT
  5
29C6
330
1F
100
AcDbEntity
  8
文字
100
AcDbText
 10
437.5371557490466
 20
-144.1399160118804
 30
0.0
 40
4.08
  1
CHECK
 51
15.0
  7
OKANO
100
AcDbText
  0
LINE
  5
29C7
330
1F
100
AcDbEntity
  8
太線
100
AcDbLine
 10
471.7541036867488
 20
-115.9309459538342
 30
0.0
 11
471.7541036867488
 21
-158.7709459538342
 31
0.0
  0
TEXT
  5
29C8
330
1F
100
AcDbEntity
  8
文字
100
AcDbText
 10
437.5371557490466
 20
-155.9029429424473
 30
0.0
 40
4.08
  1
ISSUED
 51
15.0
  7
OKANO
100
AcDbText
  0
TEXT
  5
29C9
330
1F
100
AcDbEntity
  8
文字
100
AcDbText
 10
437.9732302849778
 20
-150.2392634206914
 30
0.0
 40
4.08
  1
APPR
 51
15.0
  7
OKANO
100
AcDbText
  0
TEXT
  5
29CA
330
1F
100
AcDbEntity
  8
文字
100
AcDbText
 10
434.4846433111809
 20
-127.1488784499334
 30
0.0
 40
4.08
  1
FILM NAME
 51
15.0
  7
OKANO
100
AcDbText
  0
TEXT
  5
29CB
330
1F
100
AcDbEntity
  8
文字
100
AcDbText
 10
436.6650104026454
 20
-138.04056960639
 30
0.0
 40
4.08
  1
DRAWN
 51
15.0
  7
OKANO
100
AcDbText
  0
TEXT
  5
29CC
330
1F
100
AcDbEntity
  8
文字
100
AcDbText
 10
477.039269313782
 20
-142.9633830074765
 30
0.0
 40
8.16
  1
26-1H
 51
15.0
  7
OKANO
100
AcDbText
  0
XLINE
  5
29D1
330
1F
100
AcDbEntity
  8
構築線
370
     5
100
AcDbXline
 10
40.70151402540432
 20
260.4711488256961
 30
0.0
 11
1.0
 21
0.0
 31
0.0
  0
XLINE
  5
3255
330
1F
100
AcDbEntity
  8
構築線
370
     5
100
AcDbXline
 10
147.2015140254043
 20
178.0193172078315
 30
0.0
 11
0.0
 21
-1.0
 31
0.0
  0
LINE
  5
33B5
330
1F
100
AcDbEntity
  8
構築線
100
AcDbLine
 10
87.20151402540432
 20
76.12114882569617
 30
0.0
 11
91.20151402540432
 21
76.12114882569617
 31
0.0
  0
XLINE
  5
353C
330
1F
100
AcDbEntity
  8
構築線
100
AcDbXline
 10
147.3338840484805
 20
50.68869380459137
 30
0.0
 11
1.0
 21
0.0
 31
0.0
  0
LINE
  5
3541
102
{ACAD_REACTORS
330
36FC
102
}
330
1F
100
AcDbEntity
  8
太線
100
AcDbLine
 10
157.2015140254043
 20
-46.31130619540863
 30
0.0
 11
157.2015140254043
 21
20.68869380459136
 31
0.0
  0
LINE
  5
3542
330
1F
100
AcDbEntity
  8
太線
100
AcDbLine
 10
157.2015140254043
 20
20.68869380459136
 30
0.0
 11
172.7015140254043
 21
20.68869380459136
 31
0.0
  0
LINE
  5
3543
330
1F
100
AcDbEntity
  8
太線
100
AcDbLine
 10
175.7015140254043
 20
23.68869380459136
 30
0.0
 11
175.7015140254043
 21
77.68869380459136
 31
0.0
  0
LINE
  5
3544
330
1F
100
AcDbEntity
  8
太線
100
AcDbLine
 10
172.7015140254043
 20
80.68869380459137
 30
0.0
 11
157.2015140254043
 21
80.68869380459137
 31
0.0
  0
LINE
  5
3545
102
{ACAD_REACTORS
330
36FC
102
}
330
1F
100
AcDbEntity
  8
太線
100
AcDbLine
 10
157.2015140254043
 20
80.68869380459137
 30
0.0
 11
157.2015140254043
 21
147.6886938045913
 31
0.0
  0
LINE
  5
3546
102
{ACAD_REACTORS
330
36FC
102
}
330
1F
100
AcDbEntity
  8
太線
100
AcDbLine
 10
154.2015140254043
 20
150.6886938045913
 30
0.0
 11
140.2015140254043
 21
150.6886938045913
 31
0.0
  0
LINE
  5
3547
102
{ACAD_REACTORS
330
36FC
102
}
330
1F
100
AcDbEntity
  8
太線
100
AcDbLine
 10
137.2015140254043
 20
147.6886938045913
 30
0.0
 11
137.2015140254043
 21
80.68869380459137
 31
0.0
  0
LINE
  5
3548
330
1F
100
AcDbEntity
  8
太線
100
AcDbLine
 10
137.2015140254043
 20
80.68869380459137
 30
0.0
 11
121.7015140254043
 21
80.68869380459137
 31
0.0
  0
LINE
  5
3549
330
1F
100
AcDbEntity
  8
太線
100
AcDbLine
 10
118.7015140254043
 20
77.68869380459136
 30
0.0
 11
118.7015140254043
 21
23.68869380459138
 31
0.0
  0
LINE
  5
354A
330
1F
100
AcDbEntity
  8
太線
100
AcDbLine
 10
121.7015140254043
 20
20.68869380459138
 30
0.0
 11
137.2015140254043
 21
20.68869380459136
 31
0.0
  0
LINE
  5
354B
102
{ACAD_REACTORS
330
36FC
102
}
330
1F
100
AcDbEntity
  8
太線
100
AcDbLine
 10
137.2015140254043
 20
20.68869380459136
 30
0.0
 11
137.2015140254043
 21
-46.31130619540863
 31
0.0
  0
LINE
  5
354C
102
{ACAD_REACTORS
330
36FC
102
}
330
1F
100
AcDbEntity
  8
太線
100
AcDbLine
 10
140.2015140254043
 20
-49.31130619540863
 30
0.0
 11
154.2015140254043
 21
-49.31130619540863
 31
0.0
  0
LINE
  5
354D
102
{ACAD_REACTORS
330
36FC
102
}
330
1F
100
AcDbEntity
  8
太線
100
AcDbLine
 10
137.2015140254043
 20
80.68869380459137
 30
0.0
 11
137.2015140254043
 21
20.68869380459136
 31
0.0
  0
LINE
  5
354E
102
{ACAD_REACTORS
330
36FC
102
}
330
1F
100
AcDbEntity
  8
太線
100
AcDbLine
 10
157.2015140254043
 20
80.68869380459137
 30
0.0
 11
157.2015140254043
 21
20.68869380459136
 31
0.0
  0
XLINE
  5
3575
330
1F
100
AcDbEntity
  8
構築線
100
AcDbXline
 10
351.4738950707664
 20
80.38755481770341
 30
0.0
 11
0.0
 21
1.0
 31
0.0
  0
LINE
  5
357E
330
1F
100
AcDbEntity
  8
太線
100
AcDbLine
 10
376.9738950707665
 20
20.68869380459136
 30
0.0
 11
325.9738950707665
 21
20.68869380459136
 31
0.0
  0
LINE
  5
357F
330
1F
100
AcDbEntity
  8
太線
100
AcDbLine
 10
376.9738950707665
 20
80.68869380459139
 30
0.0
 11
325.9738950707665
 21
80.68869380459137
 31
0.0
  0
LINE
  5
3594
330
1F
100
AcDbEntity
  8
想像線
100
AcDbLine
 10
375.9738950707665
 20
80.68869380459137
 30
0.0
 11
375.9738950707665
 21
20.68869380459136
 31
0.0
  0
LINE
  5
359C
102
{ACAD_REACTORS
330
36FC
102
}
330
1F
100
AcDbEntity
  8
太線
100
AcDbLine
 10
256.9738950707665
 20
130.6886938045913
 30
0.0
 11
256.9738950707665
 21
-29.31130619540863
 31
0.0
  0
LINE
  5
359D
102
{ACAD_REACTORS
330
36FC
102
}
330
1F
100
AcDbEntity
  8
太線
100
AcDbLine
 10
322.9738950707665
 20
83.68869380459136
 30
0.0
 11
322.9738950707665
 21
130.6886938045913
 31
0.0
  0
LINE
  5
359E
102
{ACAD_REACTORS
330
36FC
102
}
330
1F
100
AcDbEntity
  8
太線
100
AcDbLine
 10
322.9738950707665
 20
17.68869380459136
 30
0.0
 11
322.9738950707665
 21
-29.31130619540863
 31
0.0
  0
LINE
  5
359F
102
{ACAD_REACTORS
330
36FC
102
}
330
1F
100
AcDbEntity
  8
太線
100
AcDbLine
 10
276.9738950707665
 20
130.6886938045913
 30
0.0
 11
276.9738950707665
 21
-29.31130619540862
 31
0.0
  0
ARC
  5
35A0
102
{ACAD_REACTORS
330
36FC
102
}
330
1F
100
AcDbEntity
  8
太線
100
AcDbCircle
 10
289.9738950707665
 20
-13.47314476892383
 30
0.0
 40
36.60392543664401
100
AcDbArc
 50
205.6384113294783
 51
334.3615886705216
  0
ARC
  5
35A1
102
{ACAD_REACTORS
330
36FC
102
}
330
1F
100
AcDbEntity
  8
太線
100
AcDbCircle
 10
291.9738950707665
 20
-22.60191530851533
 30
0.0
 40
16.43216133298137
100
AcDbArc
 50
204.0986206338694
 51
335.9013793661304
  0
ARC
  5
35A2
102
{ACAD_REACTORS
330
36FC
102
}
330
1F
100
AcDbEntity
  8
太線
100
AcDbCircle
 10
291.9738950707665
 20
124.2073153406547
 30
0.0
 40
16.34038759616128
100
AcDbArc
 50
23.3687815751096
 51
156.6312184248904
  0
ARC
  5
35A3
102
{ACAD_REACTORS
330
36FC
102
}
330
1F
100
AcDbEntity
  8
太線
100
AcDbCircle
 10
289.9738950707664
 20
113.2530943343585
 30
0.0
 40
37.32291693968169
100
AcDbArc
 50
27.84980053409168
 51
152.1501994659082
  0
LINE
  5
35A5
102
{ACAD_REACTORS
330
36FC
102
}
330
1F
100
AcDbEntity
  8
太線
100
AcDbLine
 10
306.9738950707665
 20
130.6886938045913
 30
0.0
 11
316.9738950707665
 21
50.68869380459137
 31
0.0
  0
LINE
  5
35A6
102
{ACAD_REACTORS
330
36FC
102
}
330
1F
100
AcDbEntity
  8
太線
100
AcDbLine
 10
316.9738950707665
 20
50.68869380459137
 30
0.0
 11
306.9738950707665
 21
-29.31130619540863
 31
0.0
  0
LINE
  5
35A7
330
1F
100
AcDbEntity
  8
破線
100
AcDbLine
 10
326.9738950707665
 20
80.68869380459137
 30
0.0
 11
326.9738950707665
 21
80.68869380459137
 31
0.0
  0
ARC
  5
35AA
330
1F
100
AcDbEntity
  8
太線
100
AcDbCircle
 10
325.9738950707665
 20
83.68869380459136
 30
0.0
 40
3.0
100
AcDbArc
 50
180.0
 51
270.0
  0
ARC
  5
35AB
330
1F
100
AcDbEntity
  8
太線
100
AcDbCircle
 10
325.9738950707665
 20
17.68869380459136
 30
0.0
 40
3.0
100
AcDbArc
 50
90.0
 51
180.0
  0
ARC
  5
35AD
102
{ACAD_REACTORS
330
36FC
102
}
330
1F
100
AcDbEntity
  8
太線
100
AcDbCircle
 10
154.2015140254043
 20
147.6886938045913
 30
0.0
 40
3.0
100
AcDbArc
 50
0.0
 51
90.0
  0
ARC
  5
35AE
102
{ACAD_REACTORS
330
36FC
102
}
330
1F
100
AcDbEntity
  8
太線
100
AcDbCircle
 10
140.2015140254043
 20
147.6886938045913
 30
0.0
 40
3.0
100
AcDbArc
 50
90.0
 51
180.0
  0
ARC
  5
35AF
102
{ACAD_REACTORS
330
36FC
102
}
330
1F
100
AcDbEntity
  8
太線
100
AcDbCircle
 10
154.2015140254043
 20
-46.31130619540863
 30
0.0
 40
3.0
100
AcDbArc
 50
270.0
 51
0.0
  0
ARC
  5
35B0
102
{ACAD_REACTORS
330
36FC
102
}
330
1F
100
AcDbEntity
  8
太線
100
AcDbCircle
 10
140.2015140254043
 20
-46.31130619540863
 30
0.0
 40
3.0
100
AcDbArc
 50
180.0
 51
270.0
  0
ARC
  5
35B1
330
1F
100
AcDbEntity
  8
太線
100
AcDbCircle
 10
172.7015140254043
 20
77.68869380459136
 30
0.0
 40
3.0
100
AcDbArc
 50
0.0
 51
90.0
  0
ARC
  5
35B2
330
1F
100
AcDbEntity
  8
太線
100
AcDbCircle
 10
121.7015140254043
 20
77.68869380459136
 30
0.0
 40
3.0
100
AcDbArc
 50
90.0
 51
180.0
  0
ARC
  5
35B3
330
1F
100
AcDbEntity
  8
太線
100
AcDbCircle
 10
172.7015140254043
 20
23.68869380459136
 30
0.0
 40
3.0
100
AcDbArc
 50
270.0
 51
0.0
  0
ARC
  5
35B4
330
1F
100
AcDbEntity
  8
太線
100
AcDbCircle
 10
121.7015140254043
 20
23.68869380459138
 30
0.0
 40
3.0
100
AcDbArc
 50
180.0
 51
269.9999999999998
  0
LINE
  5
35BA
330
1F
100
AcDbEntity
  8
太線
100
AcDbLine
 10
327.9738950707665
 20
130.6886938045913
 30
0.0
 11
327.9738950707665
 21
80.68869380459137
 31
0.0
  0
LINE
  5
35BB
330
1F
100
AcDbEntity
  8
太線
100
AcDbLine
 10
374.9738950707665
 20
130.6886938045913
 30
0.0
 11
374.9738950707665
 21
80.68869380459139
 31
0.0
  0
LINE
  5
35BC
330
1F
100
AcDbEntity
  8
太線
100
AcDbLine
 10
327.9738950707665
 20
20.68869380459136
 30
0.0
 11
327.9738950707665
 21
-29.31130619540862
 31
0.0
  0
LINE
  5
35BD
330
1F
100
AcDbEntity
  8
太線
100
AcDbLine
 10
374.9738950707665
 20
20.68869380459137
 30
0.0
 11
374.9738950707665
 21
-29.31130619540863
 31
0.0
  0
ARC
  5
35BF
330
1F
100
AcDbEntity
  8
太線
100
AcDbCircle
 10
339.7238950707665
 20
150.9450206435344
 30
0.0
 40
23.41754207866586
100
AcDbArc
 50
239.883451020304
 51
300.1165489796959
  0
ARC
  5
35C0
330
1F
100
AcDbEntity
  8
太線
100
AcDbCircle
 10
339.7238950707664
 20
103.5742076031595
 30
0.0
 40
29.55093673587416
100
AcDbArc
 50
66.57061459144451
 51
113.4293854085552
  0
ARC
  5
35C1
330
1F
100
AcDbEntity
  8
太線
100
AcDbCircle
 10
363.2238950707665
 20
106.7361757120127
 30
0.0
 40
26.67931076649664
100
AcDbArc
 50
63.8695622476583
 51
116.1304377523416
  0
ARC
  5
35C2
330
1F
100
AcDbEntity
  8
太線
100
AcDbCircle
 10
340.3488488961926
 20
105.9040199302708
 30
0.0
 40
26.13606841265145
100
AcDbArc
 50
69.51280091835643
 51
113.6669429632041
  0
ARC
  5
35C3
330
1F
100
AcDbEntity
  8
太線
100
AcDbCircle
 10
363.2238950707665
 20
-47.83462005007428
 30
0.0
 40
21.93571644962727
100
AcDbArc
 50
57.61158355754282
 51
122.3884164424571
  0
ARC
  5
35C4
330
1F
100
AcDbEntity
  8
太線
100
AcDbCircle
 10
363.2238950707665
 20
-15.39443897086202
 30
0.0
 40
18.21377756934731
100
AcDbArc
 50
229.8256239359348
 51
310.1743760640651
  0
ARC
  5
35C6
330
1F
100
AcDbEntity
  8
太線
100
AcDbCircle
 10
339.7238950707665
 20
-13.93970748161453
 30
0.0
 40
19.34808897586312
100
AcDbArc
 50
232.6058216052306
 51
307.3941783947693
  0
ARC
  5
35C7
330
1F
100
AcDbEntity
  8
太線
100
AcDbCircle
 10
363.1021736913936
 20
-16.431468814699
 30
0.0
 40
15.87038802847435
100
AcDbArc
 50
230.719084362748
 51
310.9165275941014
  0
ARC
  5
35CF
330
1F
100
AcDbEntity
  8
太線
100
AcDbCircle
 10
351.4738950707664
 20
260.4711488256961
 30
0.0
 40
24.5
100
AcDbArc
 50
90.0
 51
270.0
  0
LINE
  5
35D0
330
1F
100
AcDbEntity
  8
太線
100
AcDbLine
 10
322.9738950707665
 20
250.4711488256961
 30
0.0
 11
266.9738950707665
 21
250.4711488256962
 31
0.0
  0
LINE
  5
35D2
330
1F
100
AcDbEntity
  8
太線
100
AcDbLine
 10
266.9738950707665
 20
270.4711488256961
 30
0.0
 11
322.9738950707665
 21
270.4711488256961
 31
0.0
  0
LINE
  5
35D4
330
1F
100
AcDbEntity
  8
構築線
100
AcDbLine
 10
351.4738950707664
 20
231.9711488256961
 30
0.0
 11
379.9738950707665
 21
231.9711488256961
 31
0.0
  0
LINE
  5
35E7
330
1F
100
AcDbEntity
  8
構築線
100
AcDbLine
 10
445.7588023097123
 20
76.12114882569617
 30
0.0
 11
449.7588023097123
 21
76.12114882569617
 31
0.0
  0
ARC
  5
36AC
330
1F
100
AcDbEntity
  8
太線
100
AcDbCircle
 10
266.9738950707665
 20
260.4711488256961
 30
0.0
 40
10.00000000000005
100
AcDbArc
 50
90.0
 51
270.0
  0
ARC
  5
36AD
330
1F
100
AcDbEntity
  8
想像線
100
AcDbCircle
 10
266.9738950707665
 20
260.4711488256961
 30
0.0
 40
10.00000000000005
100
AcDbArc
 50
270.0
 51
90.0
  0
LINE
  5
36B2
330
1F
100
AcDbEntity
  8
太線
100
AcDbLine
 10
322.9738950707665
 20
270.4711488256961
 30
0.0
 11
322.9738950707665
 21
250.4711488256961
 31
0.0
  0
ARC
  5
36B3
330
1F
100
AcDbEntity
  8
太線
100
AcDbCircle
 10
351.4738950707664
 20
260.4711488256961
 30
0.0
 40
23.00153063767071
100
AcDbArc
 50
90.0
 51
270.0
  0
ARC
  5
36B4
330
1F
100
AcDbEntity
  8
太線
100
AcDbCircle
 10
351.4738950707664
 20
260.4711488256961
 30
0.0
 40
28.5
100
AcDbArc
 50
90.00000000000012
 51
270.0
  0
ARC
  5
36B5
330
1F
100
AcDbEntity
  8
太線
100
AcDbCircle
 10
323.3305113389642
 20
248.0291121472237
 30
0.0
 40
2.525873838747279
100
AcDbArc
 50
48.76151054100155
 51
100.3011809096207
  0
ARC
  5
36B6
330
1F
100
AcDbEntity
  8
太線
100
AcDbCircle
 10
322.9954672045926
 20
273.0696557264006
 30
0.0
 40
2.697356104069517
100
AcDbArc
 50
270.7205384302503
 51
344.0460574587632
  0
ARC
  5
36B7
330
1F
100
AcDbEntity
  8
想像線
100
AcDbCircle
 10
289.3764853809016
 20
260.0855969287553
 30
0.0
 40
14.86710973380175
100
AcDbArc
 50
322.1428738619896
 51
45.01547546986118
  0
ARC
  5
36BF
102
{ACAD_REACTORS
330
36FC
102
}
330
1F
100
AcDbEntity
  8
太線
100
AcDbCircle
 10
412.9738950707666
 20
113.2530943343585
 30
0.0
 40
37.32291693968169
100
AcDbArc
 50
27.84980053409176
 51
152.1501994659083
  0
ARC
  5
36C0
102
{ACAD_REACTORS
330
36FC
102
}
330
1F
100
AcDbEntity
  8
太線
100
AcDbCircle
 10
410.9738950707664
 20
124.2073153406547
 30
0.0
 40
16.34038759616128
100
AcDbArc
 50
23.36878157510962
 51
156.6312184248904
  0
ARC
  5
36C1
102
{ACAD_REACTORS
330
36FC
102
}
330
1F
100
AcDbEntity
  8
太線
100
AcDbCircle
 10
410.9738950707664
 20
-22.60191530851533
 30
0.0
 40
16.43216133298137
100
AcDbArc
 50
204.0986206338696
 51
335.9013793661306
  0
ARC
  5
36C2
102
{ACAD_REACTORS
330
36FC
102
}
330
1F
100
AcDbEntity
  8
太線
100
AcDbCircle
 10
412.9738950707664
 20
-13.47314476892383
 30
0.0
 40
36.60392543664401
100
AcDbArc
 50
205.6384113294784
 51
334.3615886705216
  0
LINE
  5
36C3
102
{ACAD_REACTORS
330
36FC
102
}
330
1F
100
AcDbEntity
  8
太線
100
AcDbLine
 10
425.9738950707665
 20
130.6886938045913
 30
0.0
 11
425.9738950707665
 21
-29.31130619540862
 31
0.0
  0
LINE
  5
36C4
102
{ACAD_REACTORS
330
36FC
102
}
330
1F
100
AcDbEntity
  8
太線
100
AcDbLine
 10
445.9738950707665
 20
130.6886938045913
 30
0.0
 11
445.9738950707665
 21
-29.31130619540863
 31
0.0
  0
LINE
  5
36C5
102
{ACAD_REACTORS
330
36FC
102
}
330
1F
100
AcDbEntity
  8
太線
100
AcDbLine
 10
385.9738950707665
 20
50.68869380459137
 30
0.0
 11
395.9738950707665
 21
-29.31130619540863
 31
0.0
  0
LINE
  5
36C6
102
{ACAD_REACTORS
330
36FC
102
}
330
1F
100
AcDbEntity
  8
太線
100
AcDbLine
 10
379.9738950707664
 20
17.68869380459136
 30
0.0
 11
379.9738950707665
 21
-29.31130619540863
 31
0.0
  0
LINE
  5
36C7
102
{ACAD_REACTORS
330
36FC
102
}
330
1F
100
AcDbEntity
  8
太線
100
AcDbLine
 10
395.9738950707665
 20
130.6886938045913
 30
0.0
 11
385.9738950707665
 21
50.68869380459137
 31
0.0
  0
LINE
  5
36C8
102
{ACAD_REACTORS
330
36FC
102
}
330
1F
100
AcDbEntity
  8
太線
100
AcDbLine
 10
379.9738950707664
 20
83.68869380459136
 30
0.0
 11
379.9738950707665
 21
130.6886938045913
 31
0.0
  0
ARC
  5
36C9
330
1F
100
AcDbEntity
  8
太線
100
AcDbCircle
 10
376.9738950707664
 20
17.68869380459136
 30
0.0
 40
3.0
100
AcDbArc
 50
0.000000000000007
 51
90.0
  0
ARC
  5
36CA
330
1F
100
AcDbEntity
  8
太線
100
AcDbCircle
 10
376.9738950707664
 20
83.68869380459136
 30
0.0
 40
3.0
100
AcDbArc
 50
270.0
 51
0.000000000000007
  0
LINE
  5
36CB
330
1F
100
AcDbEntity
  8
太線
100
AcDbLine
 10
435.9738950707664
 20
270.4711488256961
 30
0.0
 11
379.9738950707665
 21
270.4711488256961
 31
0.0
  0
LINE
  5
36CC
330
1F
100
AcDbEntity
  8
太線
100
AcDbLine
 10
379.9738950707665
 20
250.4711488256961
 30
0.0
 11
435.9738950707664
 21
250.4711488256962
 31
0.0
  0
ARC
  5
36CD
330
1F
100
AcDbEntity
  8
太線
100
AcDbCircle
 10
435.9738950707664
 20
260.4711488256961
 30
0.0
 40
10.00000000000005
100
AcDbArc
 50
270.0
 51
90.0
  0
ARC
  5
36CE
330
1F
100
AcDbEntity
  8
想像線
100
AcDbCircle
 10
435.9738950707664
 20
260.4711488256961
 30
0.0
 40
10.00000000000005
100
AcDbArc
 50
90.0
 51
270.0
  0
ARC
  5
36CF
330
1F
100
AcDbEntity
  8
太線
100
AcDbCircle
 10
351.4738950707664
 20
260.4711488256961
 30
0.0
 40
24.5
100
AcDbArc
 50
270.0
 51
90.0
  0
ARC
  5
36D0
330
1F
100
AcDbEntity
  8
太線
100
AcDbCircle
 10
351.4738950707664
 20
260.4711488256961
 30
0.0
 40
23.00153063767071
100
AcDbArc
 50
270.0
 51
90.0
  0
ARC
  5
36D1
330
1F
100
AcDbEntity
  8
太線
100
AcDbCircle
 10
351.4738950707664
 20
260.4711488256961
 30
0.0
 40
28.5
100
AcDbArc
 50
270.0
 51
89.99999999999991
  0
ARC
  5
36D2
330
1F
100
AcDbEntity
  8
想像線
100
AcDbCircle
 10
413.5713047606314
 20
260.0855969287553
 30
0.0
 40
14.86710973380175
100
AcDbArc
 50
134.9845245301388
 51
217.8571261380103
  0
LINE
  5
36D3
330
1F
100
AcDbEntity
  8
太線
100
AcDbLine
 10
379.9738950707665
 20
270.4711488256961
 30
0.0
 11
379.9738950707665
 21
250.4711488256961
 31
0.0
  0
ARC
  5
36D4
330
1F
100
AcDbEntity
  8
太線
100
AcDbCircle
 10
379.6172788025687
 20
248.0291121472237
 30
0.0
 40
2.525873838747279
100
AcDbArc
 50
79.69881909037927
 51
131.2384894589984
  0
ARC
  5
36D5
330
1F
100
AcDbEntity
  8
太線
100
AcDbCircle
 10
379.9523229369404
 20
273.0696557264006
 30
0.0
 40
2.697356104069517
100
AcDbArc
 50
195.9539425412367
 51
269.2794615697496
  0
LINE
  5
36D6
102
{ACAD_REACTORS
330
36FC
102
}
330
1F
100
AcDbEntity
  8
太線
100
AcDbLine
 10
379.9738950707664
 20
83.68869380459136
 30
0.0
 11
379.9738950707664
 21
17.68869380459136
 31
0.0
  0
LINE
  5
36D7
102
{ACAD_REACTORS
330
36FC
102
}
330
1F
100
AcDbEntity
  8
太線
100
AcDbLine
 10
322.9738950707665
 20
83.68869380459136
 30
0.0
 11
322.9738950707665
 21
17.68869380459137
 31
0.0
  0
LINE
  5
36D8
330
1F
100
AcDbEntity
  8
想像線
100
AcDbLine
 10
327.9738950707665
 20
80.68869380459137
 30
0.0
 11
327.9738950707665
 21
20.68869380459136
 31
0.0
  0
HATCH
  5
36FC
330
1F
100
AcDbEntity
  8
想像線
100
AcDbHatch
 10
0.0
 20
0.0
 30
0.0
210
0.0
220
0.0
230
1.0
  2
ANSI31
 70
     0
 71
     1
 91
        5
 92
        7
 72
     1
 73
     1
 93
        6
 10
445.9738950707665
 20
130.6886938045913
 42
0.6026459839226978
 10
379.9738950707665
 20
130.6886938045911
 42
0.0
 10
379.9738950707664
 20
83.68869380459136
 42
0.0
 10
379.9738950707664
 20
17.68869380459136
 42
0.0
 10
379.9738950707665
 20
-29.31130619540888
 42
0.6292655760654269
 10
445.9738950707665
 20
-29.31130619540864
 42
0.0
 97
        6
330
36BF
330
36C8
330
36D6
330
36C6
330
36C2
330
36C4
 92
       22
 72
     1
 73
     1
 93
        5
 10
425.9738950707665
 20
-29.31130619540865
 42
-0.6481846964058603
 10
395.9738950707665
 20
-29.31130619540902
 42
0.0
 10
385.9738950707664
 20
50.68869380459162
 42
0.0
 10
395.9738950707665
 20
130.6886938045913
 42
-0.6572672754816428
 10
425.9738950707665
 20
130.6886938045913
 42
0.0
 97
        5
330
36C1
330
36C5
330
36C7
330
36C0
330
36C3
 92
        7
 72
     1
 73
     1
 93
        6
 10
322.9738950707665
 20
17.68869380459136
 42
0.0
 10
322.9738950707665
 20
83.68869380459136
 42
0.0
 10
322.9738950707665
 20
130.6886938045911
 42
0.6026459839226978
 10
256.9738950707665
 20
130.6886938045913
 42
0.0
 10
256.9738950707665
 20
-29.31130619540866
 42
0.6292655760654271
 10
322.9738950707665
 20
-29.3113061954089
 42
0.0
 97
        6
330
36D7
330
359D
330
35A3
330
359C
330
35A0
330
359E
 92
       22
 72
     1
 73
     1
 93
        5
 10
276.9738950707665
 20
130.6886938045913
 42
-0.6572672754816428
 10
306.9738950707665
 20
130.6886938045913
 42
0.0
 10
316.9738950707665
 20
50.68869380459146
 42
0.0
 10
306.9738950707664
 20
-29.311306195409
 42
-0.6481846964058603
 10
276.9738950707665
 20
-29.31130619540862
 42
0.0
 97
        5
330
35A2
330
35A5
330
35A6
330
35A1
330
359F
 92
        7
 72
     1
 73
     1
 93
       12
 10
157.2015140254043
 20
147.6886938045913
 42
0.4142135623730951
 10
154.2015140254043
 20
150.6886938045913
 42
0.0
 10
140.2015140254043
 20
150.6886938045913
 42
0.4142135623730951
 10
137.2015140254043
 20
147.6886938045913
 42
0.0
 10
137.2015140254043
 20
80.68869380459137
 42
0.0
 10
137.2015140254043
 20
20.68869380459136
 42
0.0
 10
137.2015140254043
 20
-46.31130619540863
 42
0.4142135623730951
 10
140.2015140254043
 20
-49.31130619540863
 42
0.0
 10
154.2015140254043
 20
-49.31130619540863
 42
0.4142135623730951
 10
157.2015140254043
 20
-46.31130619540863
 42
0.0
 10
157.2015140254043
 20
20.68869380459136
 42
0.0
 10
157.2015140254043
 20
80.68869380459137
 42
0.0
 97
       12
330
35AD
330
3546
330
35AE
330
3547
330
354D
330
354B
330
35B0
330
354C
330
35AF
330
3541
330
354E
330
3545
 75
     0
 76
     1
 52
0.0
 41
1.0
 77
     0
 78
     1
 53
45.0
 43
0.0
 44
0.0
 45
-2.245064030267287
 46
2.245064030267288
 79
     0
 47
0.7758891161437825
 98
        5
 10
444.4452753629148
 20
40.25014534813817
 10
444.4452753629148
 20
40.25014534813817
 10
275.9430995836669
 20
-3.199645690011266
 10
275.9430995836669
 20
-3.199645690011266
 10
156.3609114401429
 20
96.11416239718733
  0
DIMENSION
  5
3707
330
1F
100
AcDbEntity
  8
寸法線
100
AcDbDimension
  2
*D2
 10
493.883456738044
 20
150.8280104485436
 30
0.0
 11
488.2584567380439
 21
50.08962137652526
 31
0.0
 70
    32
  1
200
 71
     5
 42
201.4767781440368
  3
ISO-25
100
AcDbAlignedDimension
 13
415.9101981500071
 23
-50.64876769549323
 33
0.0
 14
415.9101981500071
 24
150.8280104485436
 34
0.0
 50
90.0
100
AcDbRotatedDimension
1001
ACAD
1000
DSTYLE
1002
{
1070
   140
1040
10.0
1002
}
  0
DIMENSION
  5
3714
330
1F
100
AcDbEntity
  8
寸法線
100
AcDbDimension
  2
*D3
 10
447.2896796860677
 20
195.495033319024
 30
0.0
 11
351.7248965304679
 21
201.120033319024
 31
0.0
 70
    32
  1
190
 71
     5
 42
191.1295663111996
  3
ISO-25
100
AcDbAlignedDimension
 13
256.1601133748681
 23
132.7711302531663
 33
0.0
 14
447.2896796860677
 24
132.7711302531663
 34
0.0
100
AcDbRotatedDimension
1001
ACAD
1000
DSTYLE
1002
{
1070
   140
1040
10.0
1002
}
  0
DIMENSION
  5
3721
330
1F
100
AcDbEntity
  8
寸法線
100
AcDbDimension
  2
*D4
 10
256.1601133748681
 20
-68.70564948492893
 30
0.0
 11
289.4413815015341
 21
-63.08064948492893
 31
0.0
 70
    32
  1
66
 71
     5
 42
66.56253625333192
  3
ISO-25
100
AcDbAlignedDimension
 13
322.7226496282
 23
-27.84007625120262
 33
0.0
 14
256.1601133748681
 24
-27.84007625120262
 34
0.0
100
AcDbRotatedDimension
1001
ACAD
1000
DSTYLE
1002
{
1070
   140
1040
10.0
1002
}
  0
VIEWPORT
  5
2E
330
1B
100
AcDbEntity
 67
     1
  8
0
100
AcDbViewport
 10
263.8644818821808
 20
185.3607887887512
 30
0.0
 40
817.0228792052764
 41
414.9684170463047
 68
     2
 69
     1
 12
263.8644818821808
 22
185.3607887887512
 13
0.0
 23
0.0
 14
10.0
 24
10.0
 15
10.0
 25
10.0
 16
0.0
 26
0.0
 36
1.0
 17
0.0
 27
0.0
 37
0.0
 42
50.0
 43
0.0
 44
0.0
 45
414.9684170463047
 50
0.0
 51
0.0
 72
   100
 90
    32800
  1

281
     0
 71
     1
 74
     0
110
0.0
120
0.0
130
0.0
111
1.0
121
0.0
131
0.0
112
0.0
122
1.0
132
0.0
 79
     0
146
0.0
  0
VIEWPORT
  5
30
330
1B
100
AcDbEntity
 67
     1
  8
70-0-CON
100
AcDbViewport
 10
141.8594093064315
 20
100.3480256368386
 30
0.0
 40
261.6199023344245
 41
192.6196987113174
 68
     1
 69
     2
 12
296.4920480037034
 22
81.76483747875499
 13
0.0
 23
0.0
 14
5.0
 24
5.0
 15
10.0
 25
10.0
 16
0.0
 26
0.0
 36
1.0
 17
0.0
 27
0.0
 37
0.0
 42
50.0
 43
0.0
 44
0.0
 45
528.674098223438
 50
0.0
 51
0.0
 72
   100
 90
    32864
  1

281
     0
 71
     1
 74
     0
110
0.0
120
0.0
130
0.0
111
1.0
121
0.0
131
0.0
112
0.0
122
1.0
132
0.0
 79
     0
146
0.0
  0
LWPOLYLINE
  5
45
330
1B
100
AcDbEntity
 67
     1
  8
50-0-CON
100
AcDbPolyline
 90
        4
 70
     1
 43
0.0
 10
11.04945813921926
 20
4.038176281179858
 10
272.2125713060605
 20
4.033520706629644
 10
273.4987754093466
 20
195.9297862125246
 10
11.04945813921926
 20
196.6578749924973
  0
LINE
  5
4A
330
1B
100
AcDbEntity
 67
     1
  8
50-0-CON
100
AcDbLine
 10
10.38768783662635
 20
100.3480256368386
 30
0.0
 11
-4.391850629656119
 21
100.3480256368386
 31
0.0
  0
LINE
  5
4B
330
1B
100
AcDbEntity
 67
     1
  8
50-0-CON
100
AcDbLine
 10
141.8594093064315
 20
197.098652626247
 30
0.0
 11
141.8594093064315
 21
202.387980773708
 31
0.0
  0
LINE
  5
4C
330
1B
100
AcDbEntity
 67
     1
  8
50-0-CON
100
AcDbLine
 10
272.4487699456857
 20
100.7888032705883
 30
0.0
 11
278.8458837249377
 21
100.7888032705883
 31
0.0
  0
LINE
  5
4D
330
1B
100
AcDbEntity
 67
     1
  8
50-0-CON
100
AcDbLine
 10
140.9770484758805
 20
4.038176281179858
 30
0.0
 11
140.9770484758805
 21
-3.455038652015446
 31
0.0
  0
ENDSEC
  0
SECTION
  2
OBJECTS
  0
DICTIONARY
  5
C
330
0
100
AcDbDictionary
281
     1
  3
ACAD_GROUP
350
D
  3
ACAD_LAYOUT
350
1A
  3
ACAD_MLINESTYLE
350
17
  3
ACAD_PLOTSETTINGS
350
19
  3
ACAD_PLOTSTYLENAME
350
E
  3
AcadDim
350
13D0
  3
AcDbVariableDictionary
350
6AD
  3
DWGPROPS
350
30F
  0
DICTIONARY
  5
D
102
{ACAD_REACTORS
330
C
102
}
330
C
100
AcDbDictionary
281
     1
  0
DICTIONARY
  5
1A
102
{ACAD_REACTORS
330
C
102
}
330
C
100
AcDbDictionary
281
     1
  3
A4
350
1E
  3
Model
350
22
  0
DICTIONARY
  5
17
102
{ACAD_REACTORS
330
C
102
}
330
C
100
AcDbDictionary
281
     1
  3
Standard
350
18
  0
DICTIONARY
  5
19
102
{ACAD_REACTORS
330
C
102
}
330
C
100
AcDbDictionary
281
     1
  0
ACDBDICTIONARYWDFLT
  5
E
102
{ACAD_REACTORS
330
C
102
}
330
C
100
AcDbDictionary
281
     1
  3
Normal
350
F
100
AcDbDictionaryWithDefault
340
F
  0
XRECORD
  5
13D0
102
{ACAD_REACTORS
330
C
102
}
330
C
100
AcDbXrecord
280
     1
 90
   990106
  3

 60
     0
 61
     0
 62
     1
 63
     3
 64
     0
 65
     0
 66
     0
 67
     3
 68
     1
 69
     0
 70
     0
 71
     0
 72
     0
 40
0.0
170
     0
340
0
  0
DICTIONARY
  5
6AD
102
{ACAD_REACTORS
330
C
102
}
330
C
100
AcDbDictionary
281
     1
  3
SORTENTS
350
6AE
  0
XRECORD
  5
30F
102
{ACAD_REACTORS
330
C
102
}
330
C
100
AcDbXrecord
280
     1
  1
DWGPROPS COOKIE
  2

  3

  4

  6

  7

  8

  9

300
=
301
=
302
=
303
=
304
=
305
=
306
=
307
=
308
=
309
=
 40
0.3303803125
 41
2452362.482225463
 42
2452370.969861285
  1

 90
        0
  0
LAYOUT
  5
1E
102
{ACAD_REACTORS
330
1A
102
}
330
1A
100
AcDbPlotSettings
  1

  2
EPSON PM-920C
  4
A4
  6

 40
3.757083177566528
 41
14.7637300491333
 42
3.757080078125
 43
3.757080078125
 44
209.9733276367187
 45
296.9683227539062
 46
0.0
 47
0.0
 48
0.0
 49
0.0
140
0.0
141
0.0
142
1.0
143
1.0
 70
   688
 72
     1
 73
     1
 74
     5
  7
joint.ctb
 75
    16
147
1.0
148
0.0
149
0.0
100
AcDbLayout
  1
A4
 70
     1
 71
     1
 10
-3.757080078125
 20
-3.757083177566528
 11
293.2112426757812
 21
206.2162444591522
 12
0.0
 22
0.0
 32
0.0
 14
-4.391850629656119
 24
-3.455038652015446
 34
0.0
 15
278.8458837249377
 25
202.387980773708
 35
0.0
146
0.0
 13
0.0
 23
0.0
 33
0.0
 16
1.0
 26
0.0
 36
0.0
 17
0.0
 27
1.0
 37
0.0
 76
     0
330
1B
331
30
  0
LAYOUT
  5
22
102
{ACAD_REACTORS
330
1A
102
}
330
1A
100
AcDbPlotSettings
  1

  2
EPSON PM-920C
  4
A4
  6

 40
3.757083177566528
 41
14.7637300491333
 42
3.757080078125
 43
3.757080078125
 44
209.9733276367187
 45
296.9683227539062
 46
0.0
 47
0.0
 48
0.0
 49
0.0
140
0.0
141
0.0
142
1.0
143
1.0
 70
 11952
 72
     1
 73
     1
 74
     0
  7

 75
     0
147
1.0
148
-45.64199848979289
149
-84.48806419330498
100
AcDbLayout
  1
Model
 70
     1
 71
     0
 10
0.0
 20
0.0
 11
12.0
 21
9.0
 12
0.0
 22
0.0
 32
0.0
 14
0.0
 24
0.0
 34
0.0
 15
0.0
 25
0.0
 35
0.0
146
0.0
 13
0.0
 23
0.0
 33
0.0
 16
1.0
 26
0.0
 36
0.0
 17
0.0
 27
1.0
 37
0.0
 76
     0
330
1F
  0
MLINESTYLE
  5
18
102
{ACAD_REACTORS
330
17
102
}
330
17
100
AcDbMlineStyle
  2
STANDARD
 70
     0
  3

 62
   256
 51
90.0
 52
90.0
 71
     2
 49
0.5
 62
   256
  6
BYLAYER
 49
-0.5
 62
   256
  6
BYLAYER
  0
ACDBPLACEHOLDER
  5
F
102
{ACAD_REACTORS
330
E
102
}
330
E
  0
DICTIONARYVAR
  5
6AE
102
{ACAD_REACTORS
330
6AD
102
}
330
6AD
100
DictionaryVariables
280
     0
  1
96
  0
ENDSEC
  0
EOF
