  0
SECTION
  2
HEADER
  9
$ACADVER
  1
AC1015
  9
$ACADMAINTVER
 70
     6
  9
$DWGCODEPAGE
  3
ANSI_932
  9
$INSBASE
 10
0.0
 20
0.0
 30
0.0
  9
$EXTMIN
 10
90.21689077640429
 20
59.02473910296181
 30
0.0
  9
$EXTMAX
 10
475.1453282158542
 20
350.7813670914018
 30
0.0
  9
$LIMMIN
 10
0.0
 20
0.0
  9
$LIMMAX
 10
420.0
 20
297.0
  9
$ORTHOMODE
 70
     0
  9
$REGENMODE
 70
     1
  9
$FILLMODE
 70
     1
  9
$QTEXTMODE
 70
     0
  9
$MIRRTEXT
 70
     1
  9
$LTSCALE
 40
1.0
  9
$ATTMODE
 70
     1
  9
$TEXTSIZE
 40
5.0
  9
$TRACEWID
 40
1.0
  9
$TEXTSTYLE
  7
OKANO
  9
$CLAYER
  8
太線
  9
$CELTYPE
  6
ByLayer
  9
$CECOLOR
 62
   256
  9
$CELTSCALE
 40
1.0
  9
$DISPSILH
 70
     0
  9
$DIMSCALE
 40
0.0
  9
$DIMASZ
 40
3.0
  9
$DIMEXO
 40
2.0
  9
$DIMDLI
 40
8.0
  9
$DIMRND
 40
0.0
  9
$DIMDLE
 40
0.0
  9
$DIMEXE
 40
3.0
  9
$DIMTP
 40
0.0
  9
$DIMTM
 40
0.0
  9
$DIMTXT
 40
5.0
  9
$DIMCEN
 40
2.5
  9
$DIMTSZ
 40
0.0
  9
$DIMTOL
 70
     0
  9
$DIMLIM
 70
     0
  9
$DIMTIH
 70
     0
  9
$DIMTOH
 70
     0
  9
$DIMSE1
 70
     0
  9
$DIMSE2
 70
     0
  9
$DIMTAD
 70
     1
  9
$DIMZIN
 70
     8
  9
$DIMBLK
  1
Closed
  9
$DIMASO
 70
     1
  9
$DIMSHO
 70
     1
  9
$DIMPOST
  1

  9
$DIMAPOST
  1

  9
$DIMALT
 70
     0
  9
$DIMALTD
 70
     3
  9
$DIMALTF
 40
0.03937007874016
  9
$DIMLFAC
 40
1.0
  9
$DIMTOFL
 70
     1
  9
$DIMTVP
 40
0.0
  9
$DIMTIX
 70
     0
  9
$DIMSOXD
 70
     0
  9
$DIMSAH
 70
     0
  9
$DIMBLK1
  1

  9
$DIMBLK2
  1

  9
$DIMSTYLE
  2
sunpo
  9
$DIMCLRD
 70
     0
  9
$DIMCLRE
 70
     0
  9
$DIMCLRT
 70
     0
  9
$DIMTFAC
 40
1.0
  9
$DIMGAP
 40
1.0
  9
$DIMJUST
 70
     0
  9
$DIMSD1
 70
     0
  9
$DIMSD2
 70
     0
  9
$DIMTOLJ
 70
     0
  9
$DIMTZIN
 70
     8
  9
$DIMALTZ
 70
     0
  9
$DIMALTTZ
 70
     0
  9
$DIMUPT
 70
     0
  9
$DIMDEC
 70
     2
  9
$DIMTDEC
 70
     2
  9
$DIMALTU
 70
     2
  9
$DIMALTTD
 70
     3
  9
$DIMTXSTY
  7
OKANO
  9
$DIMAUNIT
 70
     0
  9
$DIMADEC
 70
     0
  9
$DIMALTRND
 40
0.0
  9
$DIMAZIN
 70
     0
  9
$DIMDSEP
 70
    46
  9
$DIMATFIT
 70
     3
  9
$DIMFRAC
 70
     0
  9
$DIMLDRBLK
  1
Closed
  9
$DIMLUNIT
 70
     2
  9
$DIMLWD
 70
    -2
  9
$DIMLWE
 70
    -2
  9
$DIMTMOVE
 70
     0
  9
$LUNITS
 70
     2
  9
$LUPREC
 70
     2
  9
$SKETCHINC
 40
1.0
  9
$FILLETRAD
 40
3.0
  9
$AUNITS
 70
     0
  9
$AUPREC
 70
     0
  9
$MENU
  1
.
  9
$ELEVATION
 40
0.0
  9
$PELEVATION
 40
0.0
  9
$THICKNESS
 40
0.0
  9
$LIMCHECK
 70
     0
  9
$CHAMFERA
 40
10.0
  9
$CHAMFERB
 40
10.0
  9
$CHAMFERC
 40
20.0
  9
$CHAMFERD
 40
0.0
  9
$SKPOLY
 70
     0
  9
$TDCREATE
 40
2452362.482225463
  9
$TDUCREATE
 40
2452362.107225463
  9
$TDUPDATE
 40
2455957.677959363
  9
$TDUUPDATE
 40
2455957.302959363
  9
$TDINDWG
 40
2.3387225347
  9
$TDUSRTIMER
 40
2.3387225347
  9
$USRTIMER
 70
     1
  9
$ANGBASE
 50
0.0
  9
$ANGDIR
 70
     0
  9
$PDMODE
 70
     0
  9
$PDSIZE
 40
0.0
  9
$PLINEWID
 40
0.0
  9
$SPLFRAME
 70
     0
  9
$SPLINETYPE
 70
     6
  9
$SPLINESEGS
 70
     8
  9
$HANDSEED
  5
385A
  9
$SURFTAB1
 70
     6
  9
$SURFTAB2
 70
     6
  9
$SURFTYPE
 70
     6
  9
$SURFU
 70
     6
  9
$SURFV
 70
     6
  9
$UCSBASE
  2

  9
$UCSNAME
  2

  9
$UCSORG
 10
0.0
 20
0.0
 30
0.0
  9
$UCSXDIR
 10
1.0
 20
0.0
 30
0.0
  9
$UCSYDIR
 10
0.0
 20
1.0
 30
0.0
  9
$UCSORTHOREF
  2

  9
$UCSORTHOVIEW
 70
     0
  9
$UCSORGTOP
 10
0.0
 20
0.0
 30
0.0
  9
$UCSORGBOTTOM
 10
0.0
 20
0.0
 30
0.0
  9
$UCSORGLEFT
 10
0.0
 20
0.0
 30
0.0
  9
$UCSORGRIGHT
 10
0.0
 20
0.0
 30
0.0
  9
$UCSORGFRONT
 10
0.0
 20
0.0
 30
0.0
  9
$UCSORGBACK
 10
0.0
 20
0.0
 30
0.0
  9
$PUCSBASE
  2

  9
$PUCSNAME
  2

  9
$PUCSORG
 10
0.0
 20
0.0
 30
0.0
  9
$PUCSXDIR
 10
1.0
 20
0.0
 30
0.0
  9
$PUCSYDIR
 10
0.0
 20
1.0
 30
0.0
  9
$PUCSORTHOREF
  2

  9
$PUCSORTHOVIEW
 70
     0
  9
$PUCSORGTOP
 10
0.0
 20
0.0
 30
0.0
  9
$PUCSORGBOTTOM
 10
0.0
 20
0.0
 30
0.0
  9
$PUCSORGLEFT
 10
0.0
 20
0.0
 30
0.0
  9
$PUCSORGRIGHT
 10
0.0
 20
0.0
 30
0.0
  9
$PUCSORGFRONT
 10
0.0
 20
0.0
 30
0.0
  9
$PUCSORGBACK
 10
0.0
 20
0.0
 30
0.0
  9
$USERI1
 70
     0
  9
$USERI2
 70
     0
  9
$USERI3
 70
     0
  9
$USERI4
 70
     0
  9
$USERI5
 70
     0
  9
$USERR1
 40
0.0
  9
$USERR2
 40
0.0
  9
$USERR3
 40
0.0
  9
$USERR4
 40
0.0
  9
$USERR5
 40
0.0
  9
$WORLDVIEW
 70
     1
  9
$SHADEDGE
 70
     3
  9
$SHADEDIF
 70
    70
  9
$TILEMODE
 70
     0
  9
$MAXACTVP
 70
    64
  9
$PINSBASE
 10
0.0
 20
0.0
 30
0.0
  9
$PLIMCHECK
 70
     0
  9
$PEXTMIN
 10
-4.391850629656119
 20
-3.455038652015446
 30
0.0
  9
$PEXTMAX
 10
278.8458837249377
 20
202.387980773708
 30
0.0
  9
$PLIMMIN
 10
-3.757080078125
 20
-3.757083177566528
  9
$PLIMMAX
 10
293.2112426757812
 20
206.2162444591522
  9
$UNITMODE
 70
     0
  9
$VISRETAIN
 70
     1
  9
$PLINEGEN
 70
     0
  9
$PSLTSCALE
 70
     1
  9
$TREEDEPTH
 70
  3020
  9
$CMLSTYLE
  2
Standard
  9
$CMLJUST
 70
     0
  9
$CMLSCALE
 40
20.0
  9
$PROXYGRAPHICS
 70
     1
  9
$MEASUREMENT
 70
     1
  9
$CELWEIGHT
370
    -1
  9
$ENDCAPS
280
     0
  9
$JOINSTYLE
280
     0
  9
$LWDISPLAY
290
     0
  9
$INSUNITS
 70
     4
  9
$HYPERLINKBASE
  1

  9
$STYLESHEET
  1

  9
$XEDIT
290
     1
  9
$CEPSNTYPE
380
     0
  9
$PSTYLEMODE
290
     1
  9
$FINGERPRINTGUID
  2
{FF7F33C3-4233-11D6-AEE0-0000F45FD7F4}
  9
$VERSIONGUID
  2
{63A05B52-F5ED-4E6E-A9DE-1334967C37B8}
  9
$EXTNAMES
290
     1
  9
$PSVPSCALE
 40
0.0
  9
$OLESTARTUP
290
     0
  0
ENDSEC
  0
SECTION
  2
CLASSES
  0
CLASS
  1
ACDBDICTIONARYWDFLT
  2
AcDbDictionaryWithDefault
  3
AutoCAD 2000
 90
        0
280
     0
281
     0
  0
CLASS
  1
ACDBPLACEHOLDER
  2
AcDbPlaceHolder
  3
AutoCAD 2000
 90
        0
280
     0
281
     0
  0
CLASS
  1
LAYOUT
  2
AcDbLayout
  3
AutoCAD 2000
 90
        0
280
     0
281
     0
  0
CLASS
  1
DICTIONARYVAR
  2
AcDbDictionaryVar
  3
AutoCAD 2000
 90
        0
280
     0
281
     0
  0
ENDSEC
  0
SECTION
  2
TABLES
  0
TABLE
  2
VPORT
  5
8
330
0
100
AcDbSymbolTable
 70
     2
  0
VPORT
  5
3859
330
8
100
AcDbSymbolTableRecord
100
AcDbViewportTableRecord
  2
*Active
 70
     0
 10
0.0
 20
0.0
 11
1.0
 21
1.0
 12
416.6075924260708
 22
135.4851615796093
 13
0.0
 23
0.0
 14
5.0
 24
5.0
 15
10.0
 25
10.0
 16
0.0
 26
0.0
 36
1.0
 17
0.0
 27
0.0
 37
0.0
 40
591.6030085861616
 41
1.968879668049792
 42
50.0
 43
0.0
 44
0.0
 50
0.0
 51
0.0
 71
     0
 72
   100
 73
     1
 74
     3
 75
     0
 76
     0
 77
     0
 78
     0
281
     0
 65
     1
110
0.0
120
0.0
130
0.0
111
1.0
121
0.0
131
0.0
112
0.0
122
1.0
132
0.0
 79
     0
146
0.0
  0
ENDTAB
  0
TABLE
  2
LTYPE
  5
5
330
0
100
AcDbSymbolTable
 70
     5
  0
LTYPE
  5
14
330
5
100
AcDbSymbolTableRecord
100
AcDbLinetypeTableRecord
  2
ByBlock
 70
     0
  3

 72
    65
 73
     0
 40
0.0
  0
LTYPE
  5
15
330
5
100
AcDbSymbolTableRecord
100
AcDbLinetypeTableRecord
  2
ByLayer
 70
     0
  3

 72
    65
 73
     0
 40
0.0
  0
LTYPE
  5
16
330
5
100
AcDbSymbolTableRecord
100
AcDbLinetypeTableRecord
  2
Continuous
 70
     0
  3
Solid line
 72
    65
 73
     0
 40
0.0
  0
LTYPE
  5
33
330
5
100
AcDbSymbolTableRecord
100
AcDbLinetypeTableRecord
  2
DASHED2
 70
     0
  3
Dashed (.5x) _ _ _ _ _ _ _ _ _ _ _ _ _ _ _ _ _
 72
    65
 73
     2
 40
9.524999999999998
 49
6.349999999999999
 74
     0
 49
-3.174999999999999
 74
     0
  0
LTYPE
  5
34
330
5
100
AcDbSymbolTableRecord
100
AcDbLinetypeTableRecord
  2
CENTER2
 70
     0
  3
Center (.5x) ___ _ ___ _ ___ _ ___ _ ___ _ ___
 72
    65
 73
     4
 40
28.57499999999999
 49
19.05
 74
     0
 49
-3.174999999999999
 74
     0
 49
3.174999999999999
 74
     0
 49
-3.174999999999999
 74
     0
  0
LTYPE
  5
35
330
5
100
AcDbSymbolTableRecord
100
AcDbLinetypeTableRecord
  2
PHANTOM2
 70
     0
  3
Phantom (.5x) ___ _ _ ___ _ _ ___ _ _ ___ _ _
 72
    65
 73
     6
 40
31.75
 49
15.875
 74
     0
 49
-3.174999999999999
 74
     0
 49
3.174999999999999
 74
     0
 49
-3.174999999999999
 74
     0
 49
3.174999999999999
 74
     0
 49
-3.174999999999999
 74
     0
  0
LTYPE
  5
36
330
5
100
AcDbSymbolTableRecord
100
AcDbLinetypeTableRecord
  2
HIDDEN2
 70
     0
  3
Hidden (.5x) _ _ _ _ _ _ _ _ _ _ _ _ _ _ _ _ _
 72
    65
 73
     2
 40
4.762499999999999
 49
3.174999999999999
 74
     0
 49
-1.587499999999999
 74
     0
  0
ENDTAB
  0
TABLE
  2
LAYER
  5
2
330
0
100
AcDbSymbolTable
 70
    13
  0
LAYER
  5
10
330
2
100
AcDbSymbolTableRecord
100
AcDbLayerTableRecord
  2
0
 70
     0
 62
     7
  6
Continuous
370
    -3
390
F
  0
LAYER
  5
40
330
2
100
AcDbSymbolTableRecord
100
AcDbLayerTableRecord
  2
50-0-CON
 70
     0
 62
     4
  6
Continuous
370
    50
390
F
  0
LAYER
  5
41
330
2
100
AcDbSymbolTableRecord
100
AcDbLayerTableRecord
  2
70-0-CON
 70
     0
 62
   202
  6
Continuous
370
    70
390
F
  0
LAYER
  5
4E
330
2
100
AcDbSymbolTableRecord
100
AcDbLayerTableRecord
  2
極太線
 70
     0
 62
     7
  6
Continuous
370
    70
390
F
  0
LAYER
  5
4F
330
2
100
AcDbSymbolTableRecord
100
AcDbLayerTableRecord
  2
細線
 70
     0
 62
     8
  6
Continuous
370
    18
390
F
  0
LAYER
  5
AB
330
2
100
AcDbSymbolTableRecord
100
AcDbLayerTableRecord
  2
構築線
 70
     0
 62
    -2
  6
Continuous
370
    18
390
F
  0
LAYER
  5
B8
330
2
100
AcDbSymbolTableRecord
100
AcDbLayerTableRecord
  2
太線
 70
     0
 62
     7
  6
Continuous
370
    35
390
F
  0
LAYER
  5
B9
330
2
100
AcDbSymbolTableRecord
100
AcDbLayerTableRecord
  2
寸法線
 70
     0
 62
     5
  6
Continuous
370
    18
390
F
  0
LAYER
  5
BA
330
2
100
AcDbSymbolTableRecord
100
AcDbLayerTableRecord
  2
破線
 70
     0
 62
     8
  6
HIDDEN2
370
    18
390
F
  0
LAYER
  5
BB
330
2
100
AcDbSymbolTableRecord
100
AcDbLayerTableRecord
  2
中心線
 70
     0
 62
     1
  6
CENTER2
370
    18
390
F
  0
LAYER
  5
BC
330
2
100
AcDbSymbolTableRecord
100
AcDbLayerTableRecord
  2
想像線
 70
     0
 62
     8
  6
PHANTOM2
370
    18
390
F
  0
LAYER
  5
BD
330
2
100
AcDbSymbolTableRecord
100
AcDbLayerTableRecord
  2
文字
 70
     0
 62
     7
  6
Continuous
370
    18
390
F
  0
LAYER
  5
180
330
2
100
AcDbSymbolTableRecord
100
AcDbLayerTableRecord
  2
Defpoints
 70
     0
 62
     7
  6
Continuous
290
     0
370
    -3
390
F
  0
ENDTAB
  0
TABLE
  2
STYLE
  5
3
330
0
100
AcDbSymbolTable
 70
     3
  0
STYLE
  5
11
330
3
100
AcDbSymbolTableRecord
100
AcDbTextStyleTableRecord
  2
Standard
 70
     0
 40
0.0
 41
1.0
 50
0.0
 71
     0
 42
3.0
  3
txt
  4

  0
STYLE
  5
32
330
3
100
AcDbSymbolTableRecord
100
AcDbTextStyleTableRecord
  2

 70
     1
 40
0.0
 41
1.0
 50
0.0
 71
     0
 42
2.5
  3
ltypeshp.shx
  4

  0
STYLE
  5
50
330
3
100
AcDbSymbolTableRecord
100
AcDbTextStyleTableRecord
  2
OKANO
 70
     0
 40
0.0
 41
1.0
 50
15.0
 71
     0
 42
5.0
  3
isocp.shx
  4
bigfont.shx
  0
ENDTAB
  0
TABLE
  2
VIEW
  5
6
330
0
100
AcDbSymbolTable
 70
     0
  0
ENDTAB
  0
TABLE
  2
UCS
  5
7
330
0
100
AcDbSymbolTable
 70
     0
  0
ENDTAB
  0
TABLE
  2
APPID
  5
9
330
0
100
AcDbSymbolTable
 70
     1
  0
APPID
  5
12
330
9
100
AcDbSymbolTableRecord
100
AcDbRegAppTableRecord
  2
ACAD
 70
     0
  0
ENDTAB
  0
TABLE
  2
DIMSTYLE
  5
A
330
0
100
AcDbSymbolTable
 70
     2
100
AcDbDimStyleTable
 71
     2
340
A2
340
27
  0
DIMSTYLE
105
27
330
A
100
AcDbSymbolTableRecord
100
AcDbDimStyleTableRecord
  2
ISO-25
 70
     0
 41
2.5
 42
0.625
 43
3.75
 44
1.25
 73
     0
 74
     0
 77
     1
 78
     8
140
2.5
141
2.5
143
0.03937007874016
147
0.625
171
     3
172
     1
271
     2
272
     2
274
     3
283
     0
284
     8
340
11
  0
DIMSTYLE
105
A2
102
{ACAD_REACTORS
330
330B
330
3318
330
3325
330
332F
330
333B
330
334B
330
3358
102
}
330
A
100
AcDbSymbolTableRecord
100
AcDbDimStyleTableRecord
  2
sunpo
 70
     0
 40
0.0
 41
3.0
 42
2.0
 43
8.0
 44
3.0
 73
     0
 74
     0
 77
     1
 78
     8
140
5.0
141
2.5
143
0.03937007874016
147
1.0
171
     3
172
     1
271
     2
272
     2
274
     3
283
     0
284
     8
340
50
341
9B
342
9B
  0
ENDTAB
  0
TABLE
  2
BLOCK_RECORD
  5
1
330
0
100
AcDbSymbolTable
 70
    10
  0
BLOCK_RECORD
  5
1F
330
1
100
AcDbSymbolTableRecord
100
AcDbBlockTableRecord
  2
*Model_Space
340
22
  0
BLOCK_RECORD
  5
1B
330
1
100
AcDbSymbolTableRecord
100
AcDbBlockTableRecord
  2
*Paper_Space
340
1E
  0
BLOCK_RECORD
  5
9B
330
1
100
AcDbSymbolTableRecord
100
AcDbBlockTableRecord
  2
_Closed
340
0
102
{BLKREFS
331
3310
331
3311
331
331D
331
331E
331
3335
331
3336
331
3342
331
3343
331
3350
331
3351
331
335D
331
335E
331
3370
102
}
  0
BLOCK_RECORD
  5
1510
330
1
100
AcDbSymbolTableRecord
100
AcDbBlockTableRecord
  2
A$C10A573AC
340
0
  0
BLOCK_RECORD
  5
3080
330
1
100
AcDbSymbolTableRecord
100
AcDbBlockTableRecord
  2
_Open30
340
0
  0
BLOCK_RECORD
  5
330C
330
1
100
AcDbSymbolTableRecord
100
AcDbBlockTableRecord
  2
*D3
340
0
  0
BLOCK_RECORD
  5
3319
330
1
100
AcDbSymbolTableRecord
100
AcDbBlockTableRecord
  2
*D4
340
0
  0
BLOCK_RECORD
  5
3326
330
1
100
AcDbSymbolTableRecord
100
AcDbBlockTableRecord
  2
*D5
340
0
  0
BLOCK_RECORD
  5
3330
330
1
100
AcDbSymbolTableRecord
100
AcDbBlockTableRecord
  2
*D6
340
0
  0
BLOCK_RECORD
  5
333C
330
1
100
AcDbSymbolTableRecord
100
AcDbBlockTableRecord
  2
*D7
340
0
  0
BLOCK_RECORD
  5
334C
330
1
100
AcDbSymbolTableRecord
100
AcDbBlockTableRecord
  2
*D8
340
0
  0
BLOCK_RECORD
  5
3359
330
1
100
AcDbSymbolTableRecord
100
AcDbBlockTableRecord
  2
*D9
340
0
  0
ENDTAB
  0
ENDSEC
  0
SECTION
  2
BLOCKS
  0
BLOCK
  5
20
330
1F
100
AcDbEntity
  8
0
100
AcDbBlockBegin
  2
*Model_Space
 70
     0
 10
0.0
 20
0.0
 30
0.0
  3
*Model_Space
  1

  0
ENDBLK
  5
21
330
1F
100
AcDbEntity
  8
0
100
AcDbBlockEnd
  0
BLOCK
  5
1C
330
1B
100
AcDbEntity
 67
     1
  8
0
100
AcDbBlockBegin
  2
*Paper_Space
 70
     0
 10
0.0
 20
0.0
 30
0.0
  3
*Paper_Space
  1

  0
ENDBLK
  5
1D
330
1B
100
AcDbEntity
 67
     1
  8
0
100
AcDbBlockEnd
  0
BLOCK
  5
A0
330
9B
100
AcDbEntity
  8
0
100
AcDbBlockBegin
  2
_Closed
 70
     0
 10
0.0
 20
0.0
 30
0.0
  3
_Closed
  1

  0
LINE
  5
9C
330
9B
100
AcDbEntity
  8
0
 62
     0
370
    -2
100
AcDbLine
 10
-1.0
 20
0.1666666666666666
 30
0.0
 11
0.0
 21
0.0
 31
0.0
  0
LINE
  5
9D
330
9B
100
AcDbEntity
  8
0
 62
     0
370
    -2
100
AcDbLine
 10
0.0
 20
0.0
 30
0.0
 11
-1.0
 21
-0.1666666666666666
 31
0.0
  0
LINE
  5
9E
330
9B
100
AcDbEntity
  8
0
 62
     0
370
    -2
100
AcDbLine
 10
-1.0
 20
0.1666666666666666
 30
0.0
 11
-1.0
 21
-0.1666666666666666
 31
0.0
  0
LINE
  5
9F
330
9B
100
AcDbEntity
  8
0
 62
     0
370
    -2
100
AcDbLine
 10
0.0
 20
0.0
 30
0.0
 11
-1.0
 21
0.0
 31
0.0
  0
ENDBLK
  5
A1
330
9B
100
AcDbEntity
  8
0
100
AcDbBlockEnd
  0
BLOCK
  5
155B
330
1510
100
AcDbEntity
  8
0
100
AcDbBlockBegin
  2
A$C10A573AC
 70
     0
 10
0.0
 20
0.0
 30
0.0
  3
A$C10A573AC
  1

  0
TEXT
  5
1511
330
1510
100
AcDbEntity
  8
文字
100
AcDbText
 10
0.9844302777919438
 20
5.224957122252135
 30
0.0
 40
3.0
  1
Materal : Steel.
 51
15.0
  7
OKANO
100
AcDbText
  0
TEXT
  5
1512
330
1510
100
AcDbEntity
  8
文字
100
AcDbText
 10
-0.1141909619694843
 20
0.7500001922403499
 30
0.0
 40
3.0
  1
Surface treatment : Electro galvanized.
 51
15.0
  7
OKANO
100
AcDbText
  0
TEXT
  5
1513
330
1510
100
AcDbEntity
  8
文字
100
AcDbText
 10
-0.4901926332574931
 20
9.159967445193728
 30
0.0
 40
3.0
  1
5 TORGUE SCREW  M5-6
 51
15.0
  7
OKANO
100
AcDbText
  0
TEXT
  5
1514
330
1510
100
AcDbEntity
  8
文字
100
AcDbText
 10
1.364713526390005
 20
78.88822913323082
 30
0.0
 40
3.0
  1
Special standard,
 51
15.0
  7
OKANO
100
AcDbText
  0
TEXT
  5
1515
330
1510
100
AcDbEntity
  8
文字
100
AcDbText
 10
92.88160823408942
 20
89.92753849837379
 30
0.0
 40
3.0
  1
Screw Type
 51
15.0
  7
OKANO
100
AcDbText
  0
LINE
  5
1516
330
1510
100
AcDbEntity
  8
太線
100
AcDbLine
 10
113.9464587597784
 20
81.93930390144641
 30
0.0
 11
112.4464587597784
 21
81.93930390144641
 31
0.0
  0
LINE
  5
1517
330
1510
100
AcDbEntity
  8
太線
100
AcDbLine
 10
112.4464587597784
 20
76.9393039014464
 30
0.0
 11
121.4644995438761
 21
76.9393039014464
 31
0.0
  0
TEXT
  5
1518
330
1510
100
AcDbEntity
  8
文字
100
AcDbText
 10
93.46068240437217
 20
77.96976862235396
 30
0.0
 40
2.0
  1
17-30
 51
15.0
  7
OKANO
100
AcDbText
  0
LINE
  5
1519
330
1510
100
AcDbEntity
  8
太線
100
AcDbLine
 10
111.9464587597784
 20
81.43930390144641
 30
0.0
 11
111.9464587597784
 21
77.4393039014464
 31
0.0
  0
LINE
  5
151A
330
1510
100
AcDbEntity
  8
太線
100
AcDbLine
 10
91.94645875977846
 20
81.43930390144641
 30
0.0
 11
91.94645875977846
 21
77.43930390144639
 31
0.0
  0
LINE
  5
151B
330
1510
100
AcDbEntity
  8
太線
100
AcDbLine
 10
101.9644995438761
 20
77.4393039014464
 30
0.0
 11
101.9644995438761
 21
81.43930390144641
 31
0.0
  0
LINE
  5
151C
330
1510
100
AcDbEntity
  8
太線
100
AcDbLine
 10
92.44645875977846
 20
76.9393039014464
 30
0.0
 11
101.4644995438761
 21
76.9393039014464
 31
0.0
  0
ARC
  5
151D
330
1510
100
AcDbEntity
  8
太線
100
AcDbCircle
 10
92.44645875977846
 20
77.43930390144639
 30
0.0
 40
0.5
100
AcDbArc
 50
180.0
 51
270.0
  0
ARC
  5
151E
330
1510
100
AcDbEntity
  8
太線
100
AcDbCircle
 10
101.4644995438761
 20
77.4393039014464
 30
0.0
 40
0.5
100
AcDbArc
 50
270.0
 51
0.0
  0
ARC
  5
151F
330
1510
100
AcDbEntity
  8
太線
100
AcDbCircle
 10
112.4464587597784
 20
77.4393039014464
 30
0.0
 40
0.5
100
AcDbArc
 50
180.0
 51
270.0
  0
LINE
  5
1520
330
1510
100
AcDbEntity
  8
想像線
100
AcDbLine
 10
93.94645875977847
 20
81.93930390144641
 30
0.0
 11
99.96449954387617
 21
81.93930390144641
 31
0.0
  0
LINE
  5
1521
330
1510
100
AcDbEntity
  8
極太線
100
AcDbLine
 10
96.38762957111168
 20
85.43930390144641
 30
0.0
 11
97.50528794844525
 21
85.43930390144641
 31
0.0
  0
CIRCLE
  5
1522
330
1510
100
AcDbEntity
  8
太線
100
AcDbCircle
 10
96.94645875977847
 20
85.43930390144641
 30
0.0
 40
0.5588291886667776
  0
LINE
  5
1523
330
1510
100
AcDbEntity
  8
太線
100
AcDbLine
 10
99.46449954387617
 20
86.93930390144641
 30
0.0
 11
94.44645875977846
 21
86.93930390144641
 31
0.0
  0
LINE
  5
1524
330
1510
100
AcDbEntity
  8
太線
100
AcDbLine
 10
93.94645875977847
 20
86.43930390144641
 30
0.0
 11
93.94645875977847
 21
81.93930390144641
 31
0.0
  0
ARC
  5
1525
330
1510
100
AcDbEntity
  8
太線
100
AcDbCircle
 10
92.44645875977846
 20
81.43930390144641
 30
0.0
 40
0.5
100
AcDbArc
 50
90.0
 51
180.0
  0
LINE
  5
1526
330
1510
100
AcDbEntity
  8
太線
100
AcDbLine
 10
93.94645875977847
 20
81.93930390144641
 30
0.0
 11
92.44645875977846
 21
81.93930390144641
 31
0.0
  0
ARC
  5
1527
330
1510
100
AcDbEntity
  8
太線
100
AcDbCircle
 10
94.44645875977846
 20
86.43930390144641
 30
0.0
 40
0.5
100
AcDbArc
 50
90.0
 51
180.0
  0
LINE
  5
1528
330
1510
100
AcDbEntity
  8
太線
100
AcDbLine
 10
99.96449954387617
 20
81.93930390144641
 30
0.0
 11
99.96449954387617
 21
86.43930390144641
 31
0.0
  0
LINE
  5
1529
330
1510
100
AcDbEntity
  8
太線
100
AcDbLine
 10
101.4644995438761
 20
81.93930390144641
 30
0.0
 11
99.96449954387617
 21
81.93930390144641
 31
0.0
  0
ARC
  5
152A
330
1510
100
AcDbEntity
  8
太線
100
AcDbCircle
 10
101.4644995438761
 20
81.43930390144641
 30
0.0
 40
0.5
100
AcDbArc
 50
0.0
 51
90.0
  0
ARC
  5
152B
330
1510
100
AcDbEntity
  8
太線
100
AcDbCircle
 10
99.46449954387617
 20
86.43930390144641
 30
0.0
 40
0.5
100
AcDbArc
 50
0.0
 51
90.0
  0
LINE
  5
152C
330
1510
100
AcDbEntity
  8
極太線
100
AcDbLine
 10
96.94645875977847
 20
85.99813309011318
 30
0.0
 11
96.94645875977847
 21
84.88047471277964
 31
0.0
  0
ARC
  5
152D
330
1510
100
AcDbEntity
  8
太線
100
AcDbCircle
 10
112.4464587597784
 20
81.43930390144641
 30
0.0
 40
0.5
100
AcDbArc
 50
90.0
 51
180.0
  0
TEXT
  5
152E
330
1510
100
AcDbEntity
  8
文字
100
AcDbText
 10
134.3819212586066
 20
78.16263579228063
 30
0.0
 40
2.0
  1
101
 51
15.0
  7
OKANO
100
AcDbText
  0
TEXT
  5
152F
330
1510
100
AcDbEntity
  8
文字
100
AcDbText
 10
113.3422276612066
 20
77.96976862235396
 30
0.0
 40
2.0
  1
38-83
 51
15.0
  7
OKANO
100
AcDbText
  0
LINE
  5
1530
330
1510
100
AcDbEntity
  8
太線
100
AcDbLine
 10
141.9825403279738
 20
77.4393039014464
 30
0.0
 11
141.9825403279738
 21
81.43930390144641
 31
0.0
  0
LINE
  5
1531
330
1510
100
AcDbEntity
  8
太線
100
AcDbLine
 10
131.9644995438761
 20
81.43930390144641
 30
0.0
 11
131.9644995438761
 21
77.4393039014464
 31
0.0
  0
LINE
  5
1532
330
1510
100
AcDbEntity
  8
太線
100
AcDbLine
 10
121.9644995438761
 20
77.4393039014464
 30
0.0
 11
121.9644995438761
 21
81.43930390144641
 31
0.0
  0
ARC
  5
1533
330
1510
100
AcDbEntity
  8
太線
100
AcDbCircle
 10
121.4644995438761
 20
77.4393039014464
 30
0.0
 40
0.5
100
AcDbArc
 50
270.0
 51
0.0
  0
LINE
  5
1534
330
1510
100
AcDbEntity
  8
太線
100
AcDbLine
 10
132.4644995438761
 20
76.9393039014464
 30
0.0
 11
141.4825403279738
 21
76.9393039014464
 31
0.0
  0
ARC
  5
1535
330
1510
100
AcDbEntity
  8
太線
100
AcDbCircle
 10
132.4644995438761
 20
77.4393039014464
 30
0.0
 40
0.5
100
AcDbArc
 50
180.0
 51
270.0
  0
ARC
  5
1536
330
1510
100
AcDbEntity
  8
太線
100
AcDbCircle
 10
141.4825403279738
 20
77.4393039014464
 30
0.0
 40
0.5
100
AcDbArc
 50
270.0
 51
0.0
  0
ARC
  5
1537
330
1510
100
AcDbEntity
  8
太線
100
AcDbCircle
 10
121.4644995438761
 20
81.43930390144641
 30
0.0
 40
0.5
100
AcDbArc
 50
0.0
 51
90.0
  0
LINE
  5
1538
330
1510
100
AcDbEntity
  8
太線
100
AcDbLine
 10
119.9644995438761
 20
81.93930390144641
 30
0.0
 11
119.9644995438761
 21
86.43930390144641
 31
0.0
  0
LINE
  5
1539
330
1510
100
AcDbEntity
  8
太線
100
AcDbLine
 10
113.9464587597784
 20
86.43930390144641
 30
0.0
 11
113.9464587597784
 21
81.93930390144641
 31
0.0
  0
LINE
  5
153A
330
1510
100
AcDbEntity
  8
想像線
100
AcDbLine
 10
113.9464587597784
 20
81.93930390144641
 30
0.0
 11
119.9644995438761
 21
81.93930390144641
 31
0.0
  0
LINE
  5
153B
330
1510
100
AcDbEntity
  8
太線
100
AcDbLine
 10
121.4644995438761
 20
81.93930390144641
 30
0.0
 11
119.9644995438761
 21
81.93930390144641
 31
0.0
  0
LINE
  5
153C
330
1510
100
AcDbEntity
  8
太線
100
AcDbLine
 10
119.4644995438761
 20
86.93930390144641
 30
0.0
 11
114.4464587597784
 21
86.93930390144641
 31
0.0
  0
ARC
  5
153D
330
1510
100
AcDbEntity
  8
太線
100
AcDbCircle
 10
114.4464587597784
 20
86.43930390144641
 30
0.0
 40
0.5
100
AcDbArc
 50
90.0
 51
180.0
  0
CIRCLE
  5
153E
330
1510
100
AcDbEntity
  8
太線
100
AcDbCircle
 10
115.4464587597784
 20
85.43930390144641
 30
0.0
 40
0.5588291886667776
  0
LINE
  5
153F
330
1510
100
AcDbEntity
  8
極太線
100
AcDbLine
 10
115.4464587597784
 20
85.99813309011318
 30
0.0
 11
115.4464587597784
 21
84.88047471277964
 31
0.0
  0
LINE
  5
1540
330
1510
100
AcDbEntity
  8
極太線
100
AcDbLine
 10
114.8876295711116
 20
85.43930390144641
 30
0.0
 11
116.0052879484452
 21
85.43930390144641
 31
0.0
  0
ARC
  5
1541
330
1510
100
AcDbEntity
  8
太線
100
AcDbCircle
 10
119.4644995438761
 20
86.43930390144641
 30
0.0
 40
0.5
100
AcDbArc
 50
0.0
 51
90.0
  0
LINE
  5
1542
330
1510
100
AcDbEntity
  8
極太線
100
AcDbLine
 10
117.9056703552094
 20
85.43930390144641
 30
0.0
 11
119.0233287325429
 21
85.43930390144641
 31
0.0
  0
LINE
  5
1543
330
1510
100
AcDbEntity
  8
極太線
100
AcDbLine
 10
118.4644995438761
 20
85.99813309011318
 30
0.0
 11
118.4644995438761
 21
84.88047471277964
 31
0.0
  0
CIRCLE
  5
1544
330
1510
100
AcDbEntity
  8
太線
100
AcDbCircle
 10
118.4644995438761
 20
85.43930390144641
 30
0.0
 40
0.5588291886667776
  0
LINE
  5
1545
330
1510
100
AcDbEntity
  8
想像線
100
AcDbLine
 10
133.9644995438761
 20
81.93930390144641
 30
0.0
 11
139.9825403279738
 21
81.93930390144641
 31
0.0
  0
LINE
  5
1546
330
1510
100
AcDbEntity
  8
極太線
100
AcDbLine
 10
137.9237111393071
 20
85.43930390144641
 30
0.0
 11
139.0413695166406
 21
85.43930390144641
 31
0.0
  0
CIRCLE
  5
1547
330
1510
100
AcDbEntity
  8
太線
100
AcDbCircle
 10
138.4825403279738
 20
85.43930390144641
 30
0.0
 40
0.5588291886667776
  0
CIRCLE
  5
1548
330
1510
100
AcDbEntity
  8
太線
100
AcDbCircle
 10
138.4825403279738
 20
83.26342923362075
 30
0.0
 40
0.5588291886667776
  0
LINE
  5
1549
330
1510
100
AcDbEntity
  8
極太線
100
AcDbLine
 10
137.9237111393071
 20
83.26342923362075
 30
0.0
 11
139.0413695166406
 21
83.26342923362075
 31
0.0
  0
LINE
  5
154A
330
1510
100
AcDbEntity
  8
太線
100
AcDbLine
 10
139.4825403279738
 20
86.93930390144641
 30
0.0
 11
134.4644995438761
 21
86.93930390144641
 31
0.0
  0
LINE
  5
154B
330
1510
100
AcDbEntity
  8
太線
100
AcDbLine
 10
133.9644995438761
 20
86.43930390144641
 30
0.0
 11
133.9644995438761
 21
81.93930390144641
 31
0.0
  0
ARC
  5
154C
330
1510
100
AcDbEntity
  8
太線
100
AcDbCircle
 10
132.4644995438761
 20
81.43930390144641
 30
0.0
 40
0.5
100
AcDbArc
 50
90.0
 51
180.0
  0
LINE
  5
154D
330
1510
100
AcDbEntity
  8
太線
100
AcDbLine
 10
133.9644995438761
 20
81.93930390144641
 30
0.0
 11
132.4644995438761
 21
81.93930390144641
 31
0.0
  0
LINE
  5
154E
330
1510
100
AcDbEntity
  8
極太線
100
AcDbLine
 10
134.9056703552093
 20
83.26342923362075
 30
0.0
 11
136.0233287325429
 21
83.26342923362075
 31
0.0
  0
LINE
  5
154F
330
1510
100
AcDbEntity
  8
極太線
100
AcDbLine
 10
135.4644995438761
 20
83.82225842228752
 30
0.0
 11
135.4644995438761
 21
82.70460004495395
 31
0.0
  0
CIRCLE
  5
1550
330
1510
100
AcDbEntity
  8
太線
100
AcDbCircle
 10
135.4644995438761
 20
83.26342923362075
 30
0.0
 40
0.5588291886667776
  0
ARC
  5
1551
330
1510
100
AcDbEntity
  8
太線
100
AcDbCircle
 10
134.4644995438761
 20
86.43930390144641
 30
0.0
 40
0.5
100
AcDbArc
 50
90.0
 51
180.0
  0
CIRCLE
  5
1552
330
1510
100
AcDbEntity
  8
太線
100
AcDbCircle
 10
135.4644995438761
 20
85.43930390144641
 30
0.0
 40
0.5588291886667776
  0
LINE
  5
1553
330
1510
100
AcDbEntity
  8
極太線
100
AcDbLine
 10
135.4644995438761
 20
85.99813309011318
 30
0.0
 11
135.4644995438761
 21
84.88047471277964
 31
0.0
  0
LINE
  5
1554
330
1510
100
AcDbEntity
  8
極太線
100
AcDbLine
 10
134.9056703552093
 20
85.43930390144641
 30
0.0
 11
136.0233287325429
 21
85.43930390144641
 31
0.0
  0
LINE
  5
1555
330
1510
100
AcDbEntity
  8
太線
100
AcDbLine
 10
139.9825403279738
 20
81.93930390144641
 30
0.0
 11
139.9825403279738
 21
86.43930390144641
 31
0.0
  0
ARC
  5
1556
330
1510
100
AcDbEntity
  8
太線
100
AcDbCircle
 10
141.4825403279738
 20
81.43930390144641
 30
0.0
 40
0.5
100
AcDbArc
 50
0.0
 51
90.0
  0
LINE
  5
1557
330
1510
100
AcDbEntity
  8
極太線
100
AcDbLine
 10
138.4825403279738
 20
83.82225842228752
 30
0.0
 11
138.4825403279738
 21
82.70460004495395
 31
0.0
  0
LINE
  5
1558
330
1510
100
AcDbEntity
  8
太線
100
AcDbLine
 10
141.4825403279738
 20
81.93930390144641
 30
0.0
 11
139.9825403279738
 21
81.93930390144641
 31
0.0
  0
ARC
  5
1559
330
1510
100
AcDbEntity
  8
太線
100
AcDbCircle
 10
139.4825403279738
 20
86.43930390144641
 30
0.0
 40
0.5
100
AcDbArc
 50
0.0
 51
90.0
  0
LINE
  5
155A
330
1510
100
AcDbEntity
  8
極太線
100
AcDbLine
 10
138.4825403279738
 20
85.99813309011318
 30
0.0
 11
138.4825403279738
 21
84.88047471277964
 31
0.0
  0
ENDBLK
  5
155C
330
1510
100
AcDbEntity
  8
0
100
AcDbBlockEnd
  0
BLOCK
  5
3084
330
3080
100
AcDbEntity
  8
0
100
AcDbBlockBegin
  2
_Open30
 70
     0
 10
0.0
 20
0.0
 30
0.0
  3
_Open30
  1

  0
LINE
  5
3081
330
3080
100
AcDbEntity
  8
太線
 62
     0
370
    -2
100
AcDbLine
 10
-1.0
 20
0.26794919
 30
0.0
 11
0.0
 21
0.0
 31
0.0
  0
LINE
  5
3082
330
3080
100
AcDbEntity
  8
太線
 62
     0
370
    -2
100
AcDbLine
 10
0.0
 20
0.0
 30
0.0
 11
-1.0
 21
-0.26794919
 31
0.0
  0
LINE
  5
3083
330
3080
100
AcDbEntity
  8
太線
 62
     0
370
    -2
100
AcDbLine
 10
0.0
 20
0.0
 30
0.0
 11
-1.0
 21
0.0
 31
0.0
  0
ENDBLK
  5
3085
330
3080
100
AcDbEntity
  8
0
100
AcDbBlockEnd
  0
BLOCK
  5
3316
330
330C
100
AcDbEntity
  8
0
100
AcDbBlockBegin
  2
*D3
 70
     1
 10
0.0
 20
0.0
 30
0.0
  3
*D3
  1

  0
LINE
  5
330D
330
330C
100
AcDbEntity
  8
寸法線
 62
     0
370
    -2
100
AcDbLine
 10
123.4077274725112
 20
139.0611330572505
 30
0.0
 11
123.4077274725112
 21
156.2723925202508
 31
0.0
  0
LINE
  5
330E
330
330C
100
AcDbEntity
  8
寸法線
 62
     0
370
    -2
100
AcDbLine
 10
223.4077274725112
 20
139.0611330572505
 30
0.0
 11
223.4077274725112
 21
156.2723925202508
 31
0.0
  0
LINE
  5
330F
330
330C
100
AcDbEntity
  8
寸法線
 62
     0
370
    -2
100
AcDbLine
 10
126.4077274725112
 20
153.2723925202508
 30
0.0
 11
220.4077274725112
 21
153.2723925202508
 31
0.0
  0
INSERT
  5
3310
330
330C
100
AcDbEntity
  8
寸法線
 62
     0
370
    -2
100
AcDbBlockReference
  2
_Closed
 10
123.4077274725112
 20
153.2723925202508
 30
0.0
 41
3.0
 42
3.0
 43
3.0
 50
180.0
  0
INSERT
  5
3311
330
330C
100
AcDbEntity
  8
寸法線
 62
     0
370
    -2
100
AcDbBlockReference
  2
_Closed
 10
223.4077274725112
 20
153.2723925202508
 30
0.0
 41
3.0
 42
3.0
 43
3.0
  0
MTEXT
  5
3312
330
330C
100
AcDbEntity
  8
寸法線
 62
     0
100
AcDbMText
 10
173.4077274725112
 20
156.7723925202508
 30
0.0
 40
5.0
 41
0.0
 71
     5
 72
     1
  1
100
  7
OKANO
 73
     1
 44
1.0
  0
POINT
  5
3313
330
330C
100
AcDbEntity
  8
Defpoints
 62
     0
100
AcDbPoint
 10
123.4077274725112
 20
137.0611330572505
 30
0.0
  0
POINT
  5
3314
330
330C
100
AcDbEntity
  8
Defpoints
 62
     0
100
AcDbPoint
 10
223.4077274725112
 20
137.0611330572505
 30
0.0
  0
POINT
  5
3315
330
330C
100
AcDbEntity
  8
Defpoints
 62
     0
100
AcDbPoint
 10
223.4077274725112
 20
153.2723925202508
 30
0.0
  0
ENDBLK
  5
3317
330
330C
100
AcDbEntity
  8
0
100
AcDbBlockEnd
  0
BLOCK
  5
3323
330
3319
100
AcDbEntity
  8
0
100
AcDbBlockBegin
  2
*D4
 70
     1
 10
0.0
 20
0.0
 30
0.0
  3
*D4
  1

  0
LINE
  5
331A
330
3319
100
AcDbEntity
  8
寸法線
 62
     0
370
    -2
100
AcDbLine
 10
222.4077274725112
 20
140.0611330572505
 30
0.0
 11
242.1173180207787
 21
140.0611330572505
 31
0.0
  0
LINE
  5
331B
330
3319
100
AcDbEntity
  8
寸法線
 62
     0
370
    -2
100
AcDbLine
 10
222.4077274725112
 20
96.06113305725058
 30
0.0
 11
242.1173180207787
 21
96.06113305725056
 31
0.0
  0
LINE
  5
331C
330
3319
100
AcDbEntity
  8
寸法線
 62
     0
370
    -2
100
AcDbLine
 10
239.1173180207787
 20
137.0611330572505
 30
0.0
 11
239.1173180207787
 21
99.06113305725057
 31
0.0
  0
INSERT
  5
331D
330
3319
100
AcDbEntity
  8
寸法線
 62
     0
370
    -2
100
AcDbBlockReference
  2
_Closed
 10
239.1173180207787
 20
140.0611330572505
 30
0.0
 41
3.0
 42
3.0
 43
3.0
 50
90.0
  0
INSERT
  5
331E
330
3319
100
AcDbEntity
  8
寸法線
 62
     0
370
    -2
100
AcDbBlockReference
  2
_Closed
 10
239.1173180207787
 20
96.06113305725056
 30
0.0
 41
3.0
 42
3.0
 43
3.0
 50
270.0
  0
MTEXT
  5
331F
330
3319
100
AcDbEntity
  8
寸法線
 62
     0
100
AcDbMText
 10
235.6173180207786
 20
118.0611330572506
 30
0.0
 40
5.0
 41
0.0
 71
     5
 72
     1
  1
44
  7
OKANO
 11
0.0000000000000001
 21
1.0
 31
0.0
 73
     1
 44
1.0
  0
POINT
  5
3320
330
3319
100
AcDbEntity
  8
Defpoints
 62
     0
100
AcDbPoint
 10
220.4077274725112
 20
140.0611330572505
 30
0.0
  0
POINT
  5
3321
330
3319
100
AcDbEntity
  8
Defpoints
 62
     0
100
AcDbPoint
 10
220.4077274725112
 20
96.06113305725058
 30
0.0
  0
POINT
  5
3322
330
3319
100
AcDbEntity
  8
Defpoints
 62
     0
100
AcDbPoint
 10
239.1173180207787
 20
96.06113305725056
 30
0.0
  0
ENDBLK
  5
3324
330
3319
100
AcDbEntity
  8
0
100
AcDbBlockEnd
  0
BLOCK
  5
332D
330
3326
100
AcDbEntity
  8
0
100
AcDbBlockBegin
  2
*D5
 70
     1
 10
0.0
 20
0.0
 30
0.0
  3
*D5
  1

  0
LINE
  5
336D
330
3326
100
AcDbEntity
  8
寸法線
 62
     0
370
    -2
100
AcDbLine
 10
110.6159372939931
 20
86.90699823727872
 30
0.0
 11
121.6529446319789
 21
95.40161940932152
 31
0.0
  0
MTEXT
  5
336E
330
3326
100
AcDbEntity
  8
寸法線
 62
     0
100
AcDbMText
 10
112.8110289582276
 20
93.01305373496173
 30
0.0
 40
5.0
 41
0.0
 71
     5
 72
     1
  1
Ｒ5
  7
OKANO
 11
0.792463806755395
 21
0.6099189413215071
 31
0.0
 73
     1
 44
1.0
  0
LINE
  5
336F
330
3326
100
AcDbEntity
  8
寸法線
 62
     0
370
    -2
100
AcDbLine
 10
126.4077274725113
 20
99.06113305725062
 30
0.0
 11
124.0303360522451
 21
97.23137623328604
 31
0.0
  0
INSERT
  5
3370
330
3326
100
AcDbEntity
  8
寸法線
 62
     0
370
    -2
100
AcDbBlockReference
  2
_Closed
 10
124.0303360522451
 20
97.23137623328604
 30
0.0
 41
3.0
 42
3.0
 43
3.0
 50
37.58364212557872
  0
POINT
  5
3371
330
3326
100
AcDbEntity
  8
Defpoints
 62
     0
100
AcDbPoint
 10
124.0303360522451
 20
97.23137623328604
 30
0.0
  0
POINT
  5
3372
330
3326
100
AcDbEntity
  8
Defpoints
 62
     0
100
AcDbPoint
 10
126.4077274725113
 20
99.06113305725062
 30
0.0
  0
ENDBLK
  5
332E
330
3326
100
AcDbEntity
  8
0
100
AcDbBlockEnd
  0
BLOCK
  5
3339
330
3330
100
AcDbEntity
  8
0
100
AcDbBlockBegin
  2
*D6
 70
     1
 10
0.0
 20
0.0
 30
0.0
  3
*D6
  1

  0
LINE
  5
3331
330
3330
100
AcDbEntity
  8
寸法線
 62
     0
370
    -2
100
AcDbLine
 10
164.66398865971
 20
125.4528723448174
 30
0.0
 11
151.4361544769283
 21
120.8529711318434
 31
0.0
  0
LINE
  5
3332
330
3330
100
AcDbEntity
  8
寸法線
 62
     0
370
    -2
100
AcDbLine
 10
135.3793004680942
 20
115.2692949826576
 30
0.0
 11
132.5457379959469
 21
114.2839403680954
 31
0.0
  0
MTEXT
  5
3333
330
3330
100
AcDbEntity
  8
寸法線
 62
     0
100
AcDbMText
 10
158.3172724207369
 20
126.9514219297832
 30
0.0
 40
5.0
 41
0.0
 71
     5
 72
     1
  1
\U+220511
  7
OKANO
 11
0.9445208240490689
 21
0.3284515381873978
 31
0.0
 73
     1
 44
1.0
  0
LINE
  5
3334
330
3330
100
AcDbEntity
  8
寸法線
 62
     0
370
    -2
100
AcDbLine
 10
138.2128629402414
 20
116.2546495972198
 30
0.0
 11
148.6025920047811
 21
119.8676165172812
 31
0.0
  0
INSERT
  5
3335
330
3330
100
AcDbEntity
  8
寸法線
 62
     0
370
    -2
100
AcDbBlockReference
  2
_Closed
 10
138.2128629402414
 20
116.2546495972198
 30
0.0
 41
3.0
 42
3.0
 43
3.0
 50
19.17481708616884
  0
INSERT
  5
3336
330
3330
100
AcDbEntity
  8
寸法線
 62
     0
370
    -2
100
AcDbBlockReference
  2
_Closed
 10
148.6025920047811
 20
119.8676165172812
 30
0.0
 41
3.0
 42
3.0
 43
3.0
 50
199.1748170861688
  0
POINT
  5
3337
330
3330
100
AcDbEntity
  8
Defpoints
 62
     0
100
AcDbPoint
 10
148.6025920047811
 20
119.8676165172812
 30
0.0
  0
POINT
  5
3338
330
3330
100
AcDbEntity
  8
Defpoints
 62
     0
100
AcDbPoint
 10
138.2128629402414
 20
116.2546495972198
 30
0.0
  0
ENDBLK
  5
333A
330
3330
100
AcDbEntity
  8
0
100
AcDbBlockEnd
  0
BLOCK
  5
3348
330
333C
100
AcDbEntity
  8
0
100
AcDbBlockBegin
  2
*D7
 70
     1
 10
0.0
 20
0.0
 30
0.0
  3
*D7
  1

  0
LINE
  5
333D
330
333C
100
AcDbEntity
  8
寸法線
 62
     0
370
    -2
100
AcDbLine
 10
225.4077274725112
 20
79.71256127647073
 30
0.0
 11
235.7888878924697
 21
79.71256127647073
 31
0.0
  0
LINE
  5
333E
330
333C
100
AcDbEntity
  8
寸法線
 62
     0
370
    -2
100
AcDbLine
 10
225.4077274725112
 20
75.21256127647074
 30
0.0
 11
235.7888878924697
 21
75.21256127647074
 31
0.0
  0
LINE
  5
333F
330
333C
100
AcDbEntity
  8
寸法線
 62
     0
370
    -2
100
AcDbLine
 10
232.7888878924696
 20
82.71256127647074
 30
0.0
 11
232.7888878924696
 21
85.71256127647073
 31
0.0
  0
LINE
  5
3340
330
333C
100
AcDbEntity
  8
寸法線
 62
     0
370
    -2
100
AcDbLine
 10
232.7888878924696
 20
72.21256127647073
 30
0.0
 11
232.7888878924696
 21
59.02473910296181
 31
0.0
  0
LINE
  5
3341
330
333C
100
AcDbEntity
  8
寸法線
 62
     0
370
    -2
100
AcDbLine
 10
232.7888878924696
 20
79.71256127647073
 30
0.0
 11
232.7888878924696
 21
75.21256127647074
 31
0.0
  0
INSERT
  5
3342
330
333C
100
AcDbEntity
  8
寸法線
 62
     0
370
    -2
100
AcDbBlockReference
  2
_Closed
 10
232.7888878924696
 20
79.71256127647073
 30
0.0
 41
3.0
 42
3.0
 43
3.0
 50
270.0
  0
INSERT
  5
3343
330
333C
100
AcDbEntity
  8
寸法線
 62
     0
370
    -2
100
AcDbBlockReference
  2
_Closed
 10
232.7888878924696
 20
75.21256127647074
 30
0.0
 41
3.0
 42
3.0
 43
3.0
 50
90.0
  0
MTEXT
  5
3344
330
333C
100
AcDbEntity
  8
寸法線
 62
     0
100
AcDbMText
 10
229.2888878924696
 20
64.11865018971631
 30
0.0
 40
5.0
 41
0.0
 71
     5
 72
     1
  1
4.5
  7
OKANO
 11
0.0000000000000001
 21
1.0
 31
0.0
 73
     1
 44
1.0
  0
POINT
  5
3345
330
333C
100
AcDbEntity
  8
Defpoints
 62
     0
100
AcDbPoint
 10
223.4077274725112
 20
79.71256127647075
 30
0.0
  0
POINT
  5
3346
330
333C
100
AcDbEntity
  8
Defpoints
 62
     0
100
AcDbPoint
 10
223.4077274725112
 20
75.21256127647075
 30
0.0
  0
POINT
  5
3347
330
333C
100
AcDbEntity
  8
Defpoints
 62
     0
100
AcDbPoint
 10
232.7888878924696
 20
75.21256127647074
 30
0.0
  0
ENDBLK
  5
3349
330
333C
100
AcDbEntity
  8
0
100
AcDbBlockEnd
  0
BLOCK
  5
3356
330
334C
100
AcDbEntity
  8
0
100
AcDbBlockBegin
  2
*D8
 70
     1
 10
0.0
 20
0.0
 30
0.0
  3
*D8
  1

  0
LINE
  5
334D
330
334C
100
AcDbEntity
  8
寸法線
 62
     0
370
    -2
100
AcDbLine
 10
203.4077274725112
 20
116.0611330572505
 30
0.0
 11
203.4077274725112
 21
103.5095483729001
 31
0.0
  0
LINE
  5
334E
330
334C
100
AcDbEntity
  8
寸法線
 62
     0
370
    -2
100
AcDbLine
 10
223.4077274725112
 20
101.0611330572505
 30
0.0
 11
223.4077274725112
 21
109.5095483729001
 31
0.0
  0
LINE
  5
334F
330
334C
100
AcDbEntity
  8
寸法線
 62
     0
370
    -2
100
AcDbLine
 10
206.4077274725113
 20
106.5095483729001
 30
0.0
 11
220.4077274725112
 21
106.5095483729001
 31
0.0
  0
INSERT
  5
3350
330
334C
100
AcDbEntity
  8
寸法線
 62
     0
370
    -2
100
AcDbBlockReference
  2
_Closed
 10
203.4077274725112
 20
106.5095483729001
 30
0.0
 41
3.0
 42
3.0
 43
3.0
 50
180.0
  0
INSERT
  5
3351
330
334C
100
AcDbEntity
  8
寸法線
 62
     0
370
    -2
100
AcDbBlockReference
  2
_Closed
 10
223.4077274725112
 20
106.5095483729001
 30
0.0
 41
3.0
 42
3.0
 43
3.0
  0
MTEXT
  5
3352
330
334C
100
AcDbEntity
  8
寸法線
 62
     0
100
AcDbMText
 10
213.4077274725112
 20
110.0100404988844
 30
0.0
 40
5.0
 41
0.0
 71
     5
 72
     1
  1
20
  7
OKANO
 73
     1
 44
1.0
  0
POINT
  5
3353
330
334C
100
AcDbEntity
  8
Defpoints
 62
     0
100
AcDbPoint
 10
203.4077274725112
 20
118.0611330572505
 30
0.0
  0
POINT
  5
3354
330
334C
100
AcDbEntity
  8
Defpoints
 62
     0
100
AcDbPoint
 10
223.4077274725112
 20
99.06113305725057
 30
0.0
  0
POINT
  5
3355
330
334C
100
AcDbEntity
  8
Defpoints
 62
     0
100
AcDbPoint
 10
223.4077274725112
 20
106.5095483729001
 30
0.0
  0
ENDBLK
  5
3357
330
334C
100
AcDbEntity
  8
0
100
AcDbBlockEnd
  0
BLOCK
  5
3363
330
3359
100
AcDbEntity
  8
0
100
AcDbBlockBegin
  2
*D9
 70
     1
 10
0.0
 20
0.0
 30
0.0
  3
*D9
  1

  0
LINE
  5
335A
330
3359
100
AcDbEntity
  8
寸法線
 62
     0
370
    -2
100
AcDbLine
 10
201.4077274725112
 20
118.0611330572505
 30
0.0
 11
187.0758357087566
 21
118.0611330572505
 31
0.0
  0
LINE
  5
335B
330
3359
100
AcDbEntity
  8
寸法線
 62
     0
370
    -2
100
AcDbLine
 10
218.4077274725112
 20
140.0611330572505
 30
0.0
 11
187.0758357087566
 21
140.0611330572506
 31
0.0
  0
LINE
  5
335C
330
3359
100
AcDbEntity
  8
寸法線
 62
     0
370
    -2
100
AcDbLine
 10
190.0758357087567
 20
121.0611330572505
 30
0.0
 11
190.0758357087567
 21
137.0611330572506
 31
0.0
  0
INSERT
  5
335D
330
3359
100
AcDbEntity
  8
寸法線
 62
     0
370
    -2
100
AcDbBlockReference
  2
_Closed
 10
190.0758357087567
 20
118.0611330572505
 30
0.0
 41
3.0
 42
3.0
 43
3.0
 50
270.0
  0
INSERT
  5
335E
330
3359
100
AcDbEntity
  8
寸法線
 62
     0
370
    -2
100
AcDbBlockReference
  2
_Closed
 10
190.0758357087567
 20
140.0611330572506
 30
0.0
 41
3.0
 42
3.0
 43
3.0
 50
90.0
  0
MTEXT
  5
335F
330
3359
100
AcDbEntity
  8
寸法線
 62
     0
100
AcDbMText
 10
186.5753435827724
 20
129.0611330572506
 30
0.0
 40
5.0
 41
0.0
 71
     5
 72
     1
  1
22
  7
OKANO
 11
0.0000000000000001
 21
1.0
 31
0.0
 73
     1
 44
1.0
  0
POINT
  5
3360
330
3359
100
AcDbEntity
  8
Defpoints
 62
     0
100
AcDbPoint
 10
203.4077274725112
 20
118.0611330572505
 30
0.0
  0
POINT
  5
3361
330
3359
100
AcDbEntity
  8
Defpoints
 62
     0
100
AcDbPoint
 10
220.4077274725112
 20
140.0611330572505
 30
0.0
  0
POINT
  5
3362
330
3359
100
AcDbEntity
  8
Defpoints
 62
     0
100
AcDbPoint
 10
190.0758357087567
 20
140.0611330572506
 30
0.0
  0
ENDBLK
  5
3364
330
3359
100
AcDbEntity
  8
0
100
AcDbBlockEnd
  0
ENDSEC
  0
SECTION
  2
ENTITIES
  0
TEXT
  5
29C2
330
1F
100
AcDbEntity
  8
文字
100
AcDbText
 10
402.0558694092649
 20
66.70929418107862
 30
0.0
 40
4.799999999999999
  1
joint kogyo T.okano
 51
15.0
  7
OKANO
100
AcDbText
  0
TEXT
  5
29C3
330
1F
100
AcDbEntity
  8
文字
100
AcDbText
 10
391.6004348053812
 20
81.54487174735482
 30
0.0
 40
4.799999999999999
  1
F-999-20090618　Auto CAD
 51
15.0
  7
OKANO
100
AcDbText
  0
LINE
  5
29C4
330
1F
100
AcDbEntity
  8
太線
100
AcDbLine
 10
367.1453282158541
 20
80.54085803793604
 30
0.0
 11
475.1453282158542
 21
80.54085803793604
 31
0.0
  0
LWPOLYLINE
  5
29C5
330
1F
100
AcDbEntity
  8
太線
100
AcDbPolyline
 90
        4
 70
     1
 43
0.0
 10
367.1453282158541
 20
88.94085803793606
 10
475.1453282158542
 20
88.94085803793606
 10
475.1453282158542
 20
63.74085803793605
 10
367.1453282158541
 20
63.74085803793605
  0
TEXT
  5
29C6
330
1F
100
AcDbEntity
  8
文字
100
AcDbText
 10
371.0177117819117
 20
72.34734623908536
 30
0.0
 40
2.399999999999999
  1
CHECK
 51
15.0
  7
OKANO
100
AcDbText
  0
LINE
  5
29C7
330
1F
100
AcDbEntity
  8
太線
100
AcDbLine
 10
391.1453282158542
 20
88.94085803793606
 30
0.0
 11
391.1453282158542
 21
63.74085803793605
 31
0.0
  0
TEXT
  5
29C8
330
1F
100
AcDbEntity
  8
文字
100
AcDbText
 10
371.0177117819117
 20
65.42791863286955
 30
0.0
 40
2.399999999999999
  1
ISSUED
 51
15.0
  7
OKANO
100
AcDbText
  0
TEXT
  5
29C9
330
1F
100
AcDbEntity
  8
文字
100
AcDbText
 10
371.2742262148124
 20
68.75949482213768
 30
0.0
 40
2.399999999999999
  1
APPR
 51
15.0
  7
OKANO
100
AcDbText
  0
TEXT
  5
29CA
330
1F
100
AcDbEntity
  8
文字
100
AcDbText
 10
369.222116230226
 20
82.3420742167012
 30
0.0
 40
2.399999999999999
  1
FILM NAME
 51
15.0
  7
OKANO
100
AcDbText
  0
TEXT
  5
29CB
330
1F
100
AcDbEntity
  8
文字
100
AcDbText
 10
370.504685107558
 20
75.93519706584441
 30
0.0
 40
2.399999999999999
  1
DRAWN
 51
15.0
  7
OKANO
100
AcDbText
  0
TEXT
  5
29CC
330
1F
100
AcDbEntity
  8
文字
100
AcDbText
 10
395.6051434077709
 20
74.00574003580254
 30
0.0
 40
4.799999999999999
  1
27-FB 補助金具
 51
15.0
  7
OKANO
100
AcDbText
  0
XLINE
  5
32CB
330
1F
100
AcDbEntity
  8
構築線
100
AcDbXline
 10
143.4077274725112
 20
79.65309808484926
 30
0.0
 11
0.0
 21
1.0
 31
0.0
  0
XLINE
  5
32CC
330
1F
100
AcDbEntity
  8
構築線
100
AcDbXline
 10
203.4077274725112
 20
79.65309808484926
 30
0.0
 11
0.0
 21
1.0
 31
0.0
  0
XLINE
  5
32D3
330
1F
100
AcDbEntity
  8
構築線
100
AcDbXline
 10
113.6021575338885
 20
118.0611330572505
 30
0.0
 11
1.0
 21
0.0
 31
0.0
  0
LINE
  5
32DC
330
1F
100
AcDbEntity
  8
太線
100
AcDbLine
 10
90.21689077640429
 20
140.0611330572505
 30
0.0
 11
94.71689077640428
 21
140.0611330572505
 31
0.0
  0
LINE
  5
32DD
330
1F
100
AcDbEntity
  8
太線
100
AcDbLine
 10
94.71689077640428
 20
140.0611330572505
 30
0.0
 11
94.71689077640428
 21
96.06113305725058
 31
0.0
  0
LINE
  5
32DE
330
1F
100
AcDbEntity
  8
太線
100
AcDbLine
 10
94.71689077640428
 20
96.06113305725058
 30
0.0
 11
90.21689077640429
 21
96.06113305725058
 31
0.0
  0
LINE
  5
32DF
330
1F
100
AcDbEntity
  8
太線
100
AcDbLine
 10
90.21689077640429
 20
96.06113305725058
 30
0.0
 11
90.21689077640429
 21
140.0611330572505
 31
0.0
  0
LINE
  5
32F1
330
1F
100
AcDbEntity
  8
太線
100
AcDbLine
 10
123.4077274725112
 20
99.06113305725057
 30
0.0
 11
123.4077274725112
 21
137.0611330572505
 31
0.0
  0
LINE
  5
32F2
330
1F
100
AcDbEntity
  8
太線
100
AcDbLine
 10
126.4077274725112
 20
140.0611330572505
 30
0.0
 11
220.4077274725112
 21
140.0611330572505
 31
0.0
  0
LINE
  5
32F3
330
1F
100
AcDbEntity
  8
太線
100
AcDbLine
 10
223.4077274725112
 20
137.0611330572505
 30
0.0
 11
223.4077274725112
 21
99.06113305725057
 31
0.0
  0
LINE
  5
32F4
330
1F
100
AcDbEntity
  8
太線
100
AcDbLine
 10
220.4077274725112
 20
96.06113305725058
 30
0.0
 11
126.4077274725112
 21
96.06113305725058
 31
0.0
  0
LINE
  5
32F5
330
1F
100
AcDbEntity
  8
太線
100
AcDbLine
 10
123.4077274725112
 20
75.21256127647075
 30
0.0
 11
123.4077274725112
 21
79.71256127647075
 31
0.0
  0
LINE
  5
32F6
330
1F
100
AcDbEntity
  8
太線
100
AcDbLine
 10
123.4077274725112
 20
79.71256127647075
 30
0.0
 11
223.4077274725112
 21
79.71256127647075
 31
0.0
  0
LINE
  5
32F7
330
1F
100
AcDbEntity
  8
太線
100
AcDbLine
 10
223.4077274725112
 20
79.71256127647075
 30
0.0
 11
223.4077274725112
 21
75.21256127647075
 31
0.0
  0
LINE
  5
32F8
330
1F
100
AcDbEntity
  8
太線
100
AcDbLine
 10
223.4077274725112
 20
75.21256127647075
 30
0.0
 11
123.4077274725112
 21
75.21256127647075
 31
0.0
  0
CIRCLE
  5
32F9
330
1F
100
AcDbEntity
  8
太線
100
AcDbCircle
 10
143.4077274725112
 20
118.0611330572505
 30
0.0
 40
5.5
  0
CIRCLE
  5
32FA
330
1F
100
AcDbEntity
  8
太線
100
AcDbCircle
 10
203.4077274725112
 20
118.0611330572505
 30
0.0
 40
5.5
  0
LINE
  5
3301
330
1F
100
AcDbEntity
  8
想像線
100
AcDbLine
 10
137.9077274725112
 20
79.71256127647075
 30
0.0
 11
137.9077274725112
 21
75.21256127647075
 31
0.0
  0
LINE
  5
3302
330
1F
100
AcDbEntity
  8
想像線
100
AcDbLine
 10
148.9077274725112
 20
79.71256127647075
 30
0.0
 11
148.9077274725112
 21
75.21256127647075
 31
0.0
  0
LINE
  5
3303
330
1F
100
AcDbEntity
  8
想像線
100
AcDbLine
 10
197.9077274725112
 20
79.71256127647075
 30
0.0
 11
197.9077274725112
 21
75.21256127647075
 31
0.0
  0
LINE
  5
3304
330
1F
100
AcDbEntity
  8
想像線
100
AcDbLine
 10
208.9077274725112
 20
79.71256127647075
 30
0.0
 11
208.9077274725112
 21
75.21256127647075
 31
0.0
  0
LINE
  5
3305
330
1F
100
AcDbEntity
  8
想像線
100
AcDbLine
 10
94.71689077640428
 20
123.5611330572505
 30
0.0
 11
90.21689077640429
 21
123.5611330572505
 31
0.0
  0
LINE
  5
3306
330
1F
100
AcDbEntity
  8
想像線
100
AcDbLine
 10
94.71689077640428
 20
112.5611330572505
 30
0.0
 11
90.21689077640429
 21
112.5611330572505
 31
0.0
  0
ARC
  5
3307
330
1F
100
AcDbEntity
  8
太線
100
AcDbCircle
 10
126.4077274725112
 20
137.0611330572505
 30
0.0
 40
3.0
100
AcDbArc
 50
90.0
 51
180.0
  0
ARC
  5
3308
330
1F
100
AcDbEntity
  8
太線
100
AcDbCircle
 10
126.4077274725112
 20
99.06113305725057
 30
0.0
 40
3.0
100
AcDbArc
 50
180.0
 51
270.0
  0
ARC
  5
3309
330
1F
100
AcDbEntity
  8
太線
100
AcDbCircle
 10
220.4077274725112
 20
137.0611330572505
 30
0.0
 40
3.0
100
AcDbArc
 50
0.0
 51
90.0
  0
ARC
  5
330A
330
1F
100
AcDbEntity
  8
太線
100
AcDbCircle
 10
220.4077274725112
 20
99.06113305725057
 30
0.0
 40
3.0
100
AcDbArc
 50
270.0
 51
0.0
  0
DIMENSION
  5
330B
330
1F
100
AcDbEntity
  8
寸法線
100
AcDbDimension
  2
*D3
 10
223.4077274725112
 20
153.2723925202508
 30
0.0
 11
173.4077274725112
 21
156.7723925202508
 31
0.0
 70
    32
 71
     5
 42
100.0
  3
sunpo
100
AcDbAlignedDimension
 13
123.4077274725112
 23
137.0611330572505
 33
0.0
 14
223.4077274725112
 24
137.0611330572505
 34
0.0
100
AcDbRotatedDimension
1001
ACAD
1000
DSTYLE
1002
{
1070
    40
1040
1.0
1002
}
  0
DIMENSION
  5
3318
330
1F
100
AcDbEntity
  8
寸法線
100
AcDbDimension
  2
*D4
 10
239.1173180207787
 20
96.06113305725056
 30
0.0
 11
235.6173180207786
 21
118.0611330572506
 31
0.0
 70
    32
 71
     5
 42
44.00000000000001
  3
sunpo
100
AcDbAlignedDimension
 13
220.4077274725112
 23
140.0611330572505
 33
0.0
 14
220.4077274725112
 24
96.06113305725058
 34
0.0
 50
90.0
100
AcDbRotatedDimension
1001
ACAD
1000
DSTYLE
1002
{
1070
    40
1040
1.0
1002
}
  0
DIMENSION
  5
3325
330
1F
100
AcDbEntity
  8
寸法線
100
AcDbDimension
  2
*D5
 10
126.4077274725113
 20
99.06113305725062
 30
0.0
 11
112.8110289582276
 21
93.01305373496173
 31
0.0
 70
    36
  1
Ｒ5
 71
     5
 42
3.000000000000056
  3
sunpo
100
AcDbRadialDimension
 15
124.0303360522451
 25
97.23137623328604
 35
0.0
 40
0.0
1001
ACAD
1000
DSTYLE
1002
{
1070
    40
1040
1.0
1070
   288
1070
     1
1002
}
  0
DIMENSION
  5
332F
330
1F
100
AcDbEntity
  8
寸法線
100
AcDbDimension
  2
*D6
 10
138.2128629402414
 20
116.2546495972198
 30
0.0
 11
159.4668528043928
 21
123.6455990456115
 31
0.0
 70
    35
 71
     5
 42
11.0
  3
sunpo
100
AcDbDiametricDimension
 15
148.6025920047811
 25
119.8676165172812
 35
0.0
 40
0.0
1001
ACAD
1000
DSTYLE
1002
{
1070
    40
1040
1.0
1070
   288
1070
     1
1002
}
  0
DIMENSION
  5
333B
330
1F
100
AcDbEntity
  8
寸法線
100
AcDbDimension
  2
*D7
 10
232.7888878924696
 20
75.21256127647074
 30
0.0
 11
229.2888878924696
 21
64.11865018971631
 31
0.0
 70
    32
 71
     5
 42
4.5
  3
sunpo
100
AcDbAlignedDimension
 13
223.4077274725112
 23
79.71256127647075
 33
0.0
 14
223.4077274725112
 24
75.21256127647075
 34
0.0
 50
90.0
100
AcDbRotatedDimension
1001
ACAD
1000
DSTYLE
1002
{
1070
    40
1040
1.0
1002
}
  0
DIMENSION
  5
334B
330
1F
100
AcDbEntity
  8
寸法線
100
AcDbDimension
  2
*D8
 10
223.4077274725112
 20
106.5095483729001
 30
0.0
 11
213.4077274725112
 21
110.0100404988844
 31
0.0
 70
    32
 71
     5
 42
20.0
  3
sunpo
100
AcDbAlignedDimension
 13
203.4077274725112
 23
118.0611330572505
 33
0.0
 14
223.4077274725112
 24
99.06113305725057
 34
0.0
100
AcDbRotatedDimension
1001
ACAD
1000
DSTYLE
1002
{
1070
    40
1040
1.0
1002
}
  0
DIMENSION
  5
3358
330
1F
100
AcDbEntity
  8
寸法線
100
AcDbDimension
  2
*D9
 10
190.0758357087567
 20
140.0611330572506
 30
0.0
 11
186.5753435827724
 21
129.0611330572506
 31
0.0
 70
    32
 71
     5
 42
22.00000000000001
  3
sunpo
100
AcDbAlignedDimension
 13
203.4077274725112
 23
118.0611330572505
 33
0.0
 14
220.4077274725112
 24
140.0611330572505
 34
0.0
 50
90.0
100
AcDbRotatedDimension
1001
ACAD
1000
DSTYLE
1002
{
1070
    40
1040
1.0
1002
}
  0
TEXT
  5
336B
330
1F
100
AcDbEntity
  8
文字
100
AcDbText
 10
317.0214842720288
 20
115.798758961059
 30
0.0
 40
4.799999999999999
  1
平鋼（ＦＢ）　表面処理　電気鍍金
 51
15.0
  7
OKANO
100
AcDbText
  0
LINE
  5
3462
330
1F
100
AcDbEntity
  8
太線
100
AcDbLine
 10
127.7356526133263
 20
220.8811295259211
 30
0.0
 11
155.234605497591
 21
221.1211092521264
 31
0.0
  0
LINE
  5
3463
330
1F
100
AcDbEntity
  8
太線
100
AcDbLine
 10
127.9974486782775
 20
190.882271833996
 30
0.0
 11
155.4964015625422
 21
191.1222515602012
 31
0.0
  0
ARC
  5
3465
330
1F
100
AcDbEntity
  8
太線
100
AcDbCircle
 10
170.3649323760292
 20
206.2525784386394
 30
0.0
 40
15.0
100
AcDbArc
 50
270.4999999999999
 51
93.87302334104727
  0
LINE
  5
3466
330
1F
100
AcDbEntity
  8
想像線
100
AcDbLine
 10
155.4964015625422
 20
191.1222515602012
 30
0.0
 11
155.234605497591
 21
221.1211092521264
 31
0.0
  0
LINE
  5
3467
330
1F
100
AcDbEntity
  8
太線
100
AcDbLine
 10
157.9963063702026
 20
191.1440678989472
 30
0.0
 11
157.7345103052514
 21
221.1429255908723
 31
0.0
  0
ARC
  5
3469
330
1F
100
AcDbEntity
  8
太線
 62
     0
100
AcDbCircle
 10
168.516757127289
 20
206.2364496575895
 30
0.0
 40
3.0
100
AcDbArc
 50
90.5
 51
270.4999999999999
  0
LINE
  5
346A
330
1F
100
AcDbEntity
  8
太線
100
AcDbLine
 10
157.9963063702026
 20
191.1440678989472
 30
0.0
 11
170.4958304085048
 21
191.2531495926769
 31
0.0
  0
ARC
  5
346B
330
1F
100
AcDbEntity
  8
太線
 62
     0
100
AcDbCircle
 10
177.3646658374784
 20
206.313664187128
 30
0.0
 40
3.0
100
AcDbArc
 50
270.4999999999999
 51
90.5
  0
LINE
  5
346C
330
1F
100
AcDbEntity
  8
太線
100
AcDbLine
 10
168.5429367337841
 20
203.236563888397
 30
0.0
 11
177.3908454439735
 21
203.3137784179355
 31
0.0
  0
LINE
  5
346D
330
1F
100
AcDbEntity
  8
太線
100
AcDbLine
 10
168.4905775207938
 20
209.236335426782
 30
0.0
 11
177.3384862309832
 21
209.3135499563206
 31
0.0
  0
LINE
  5
346F
330
1F
100
AcDbEntity
  8
太線
100
AcDbLine
 10
155.4964015625422
 20
191.1222515602012
 30
0.0
 11
157.9963063702026
 21
191.1440678989472
 31
0.0
  0
CIRCLE
  5
3471
330
1F
100
AcDbEntity
  8
太線
100
AcDbCircle
 10
159.9525975388391
 20
196.1613305852648
 30
0.0
 40
2.0
  0
LINE
  5
3473
330
1F
100
AcDbEntity
  8
太線
100
AcDbLine
 10
157.7345103052514
 20
221.1429255908723
 30
0.0
 11
169.3517492469545
 21
221.2183213185288
 31
0.0
  0
CIRCLE
  5
3476
330
1F
100
AcDbEntity
  8
太線
100
AcDbCircle
 10
159.7780668288716
 20
216.1605690465482
 30
0.0
 40
2.0
  0
LINE
  5
3477
330
1F
100
AcDbEntity
  8
太線
100
AcDbLine
 10
157.7345103052514
 20
221.1429255908723
 30
0.0
 11
155.234605497591
 21
221.1211092521264
 31
0.0
  0
LINE
  5
3479
330
1F
100
AcDbEntity
  8
太線
 62
     0
100
AcDbLine
 10
127.9974486782775
 20
190.882271833996
 30
0.0
 11
127.7356526133263
 21
220.8811295259211
 31
0.0
  0
LINE
  5
347B
330
1F
100
AcDbEntity
  8
想像線
100
AcDbLine
 10
130.475537147192
 20
193.4039929804023
 30
0.0
 11
130.2573737597326
 21
218.4030410570066
 31
0.0
  0
LINE
  5
3483
330
1F
100
AcDbEntity
  8
想像線
100
AcDbLine
 10
130.4973534859379
 20
190.9040881727419
 30
0.0
 11
130.475537147192
 21
193.4039929804023
 31
0.0
  0
LINE
  5
348A
330
1F
100
AcDbEntity
  8
想像線
100
AcDbLine
 10
130.2573737597326
 20
218.4030410570066
 30
0.0
 11
130.2355574209867
 21
220.902945864667
 31
0.0
  0
LINE
  5
3652
330
1F
100
AcDbEntity
  8
太線
100
AcDbLine
 10
215.6975001729619
 20
219.4800788015228
 30
0.0
 11
246.9715843640295
 21
219.4800788015228
 31
0.0
  0
LINE
  5
3653
330
1F
100
AcDbEntity
  8
想像線
100
AcDbLine
 10
229.4715843640295
 20
216.9800788015227
 30
0.0
 11
246.9715843640295
 21
216.9800788015227
 31
0.0
  0
LINE
  5
3654
330
1F
100
AcDbEntity
  8
想像線
100
AcDbLine
 10
246.9715843640295
 20
191.9800788015227
 30
0.0
 11
229.4715843640295
 21
191.9800788015227
 31
0.0
  0
LINE
  5
3655
330
1F
100
AcDbEntity
  8
太線
100
AcDbLine
 10
214.4715843640295
 20
189.4800788015227
 30
0.0
 11
246.9715843640295
 21
189.4800788015227
 31
0.0
  0
LINE
  5
3657
330
1F
100
AcDbEntity
  8
太線
100
AcDbLine
 10
246.9715843640295
 20
189.4800788015227
 30
0.0
 11
246.9715843640295
 21
219.4800788015228
 31
0.0
  0
LINE
  5
3659
330
1F
100
AcDbEntity
  8
太線
 62
     0
100
AcDbLine
 10
226.9715843640295
 20
189.4800788015227
 30
0.0
 11
226.9715843640295
 21
219.4800788015228
 31
0.0
  0
LINE
  5
365B
330
1F
100
AcDbEntity
  8
想像線
100
AcDbLine
 10
229.4715843640295
 20
191.9800788015227
 30
0.0
 11
229.4715843640295
 21
216.9800788015227
 31
0.0
  0
ARC
  5
365C
330
1F
100
AcDbEntity
  8
太線
100
AcDbCircle
 10
214.4715843640295
 20
204.4800788015227
 30
0.0
 40
15.0
100
AcDbArc
 50
86.62697665895143
 51
270.0
  0
LINE
  5
365F
330
1F
100
AcDbEntity
  8
太線
100
AcDbLine
 10
207.4715843640295
 20
207.4800788015227
 30
0.0
 11
216.3198299882998
 21
207.4800788015227
 31
0.0
  0
LINE
  5
3660
330
1F
100
AcDbEntity
  8
太線
100
AcDbLine
 10
207.4715843640295
 20
201.4800788015227
 30
0.0
 11
216.3198299882998
 21
201.4800788015227
 31
0.0
  0
LINE
  5
3662
330
1F
100
AcDbEntity
  8
想像線
100
AcDbLine
 10
226.9715843640295
 20
201.9800788015227
 30
0.0
 11
229.4715843640295
 21
201.9800788015227
 31
0.0
  0
LINE
  5
3663
330
1F
100
AcDbEntity
  8
想像線
100
AcDbLine
 10
226.9715843640295
 20
206.9800788015228
 30
0.0
 11
229.4715843640295
 21
206.9800788015228
 31
0.0
  0
CIRCLE
  5
3664
330
1F
100
AcDbEntity
  8
太線
100
AcDbCircle
 10
224.9715843640295
 20
194.4800788015227
 30
0.0
 40
1.5
  0
ARC
  5
3666
330
1F
100
AcDbEntity
  8
細線
 62
     0
100
AcDbCircle
 10
216.3198299882998
 20
204.4800788015227
 30
0.0
 40
3.0
100
AcDbArc
 50
270.0
 51
90.0
  0
ARC
  5
3667
330
1F
100
AcDbEntity
  8
細線
 62
     0
100
AcDbCircle
 10
207.4715843640295
 20
204.4800788015227
 30
0.0
 40
3.0
100
AcDbArc
 50
90.0
 51
270.0
  0
CIRCLE
  5
366A
330
1F
100
AcDbEntity
  8
太線
100
AcDbCircle
 10
224.9715843640295
 20
214.4800788015227
 30
0.0
 40
1.5
  0
LINE
  5
3727
330
1F
100
AcDbEntity
  8
太線
100
AcDbLine
 10
182.4349791709754
 20
281.5039885223384
 30
0.0
 11
182.4349791709754
 21
234.5039885223385
 31
0.0
  0
LINE
  5
3728
330
1F
100
AcDbEntity
  8
太線
100
AcDbLine
 10
160.4349791709754
 20
234.5039885223385
 30
0.0
 11
160.4349791709754
 21
281.5039885223384
 31
0.0
  0
CIRCLE
  5
372A
330
1F
100
AcDbEntity
  8
太線
100
AcDbCircle
 10
171.4349791709754
 20
243.0039885223385
 30
0.0
 40
2.75
  0
ARC
  5
372B
330
1F
100
AcDbEntity
  8
太線
100
AcDbCircle
 10
180.9349791709754
 20
234.5039885223385
 30
0.0
 40
1.5
100
AcDbArc
 50
270.0
 51
0.0
  0
LINE
  5
372C
330
1F
100
AcDbEntity
  8
太線
100
AcDbLine
 10
180.9349791709754
 20
233.0039885223385
 30
0.0
 11
161.9349791709754
 21
233.0039885223385
 31
0.0
  0
ARC
  5
372D
330
1F
100
AcDbEntity
  8
太線
100
AcDbCircle
 10
161.9349791709754
 20
234.5039885223385
 30
0.0
 40
1.5
100
AcDbArc
 50
180.0
 51
270.0
  0
CIRCLE
  5
372E
330
1F
100
AcDbEntity
  8
太線
100
AcDbCircle
 10
171.4349791709754
 20
273.0039885223385
 30
0.0
 40
2.75
  0
ARC
  5
3730
330
1F
100
AcDbEntity
  8
太線
100
AcDbCircle
 10
180.9349791709754
 20
281.5039885223385
 30
0.0
 40
1.5
100
AcDbArc
 50
0.0
 51
90.0
  0
LINE
  5
3731
330
1F
100
AcDbEntity
  8
太線
100
AcDbLine
 10
161.9349791709754
 20
283.0039885223385
 30
0.0
 11
180.9349791709754
 21
283.0039885223385
 31
0.0
  0
ARC
  5
3732
330
1F
100
AcDbEntity
  8
太線
100
AcDbCircle
 10
161.9349791709754
 20
281.5039885223385
 30
0.0
 40
1.5
100
AcDbArc
 50
90.0
 51
180.0
  0
LINE
  5
379B
330
1F
100
AcDbEntity
  8
太線
100
AcDbLine
 10
310.2508118323114
 20
260.8793280784352
 30
0.0
 11
337.749764716576
 21
261.1193078046405
 31
0.0
  0
LINE
  5
379D
330
1F
100
AcDbEntity
  8
太線
100
AcDbLine
 10
310.5126078972626
 20
230.8804703865101
 30
0.0
 11
338.0115607815272
 21
231.1204501127154
 31
0.0
  0
LINE
  5
37A4
330
1F
100
AcDbEntity
  8
想像線
100
AcDbLine
 10
373.950526637548
 20
233.2448595456189
 30
0.0
 11
373.950526637548
 21
258.2448595456189
 31
0.0
  0
LINE
  5
37A5
330
1F
100
AcDbEntity
  8
太線
 62
     0
100
AcDbLine
 10
371.450526637548
 20
230.7448595456189
 30
0.0
 11
371.450526637548
 21
260.7448595456189
 31
0.0
  0
LINE
  5
37A6
330
1F
100
AcDbEntity
  8
太線
100
AcDbLine
 10
391.450526637548
 20
230.7448595456189
 30
0.0
 11
391.450526637548
 21
260.7448595456189
 31
0.0
  0
LINE
  5
37A7
330
1F
100
AcDbEntity
  8
想像線
100
AcDbLine
 10
312.990696366177
 20
233.4021915329165
 30
0.0
 11
312.7725329787176
 21
258.4012396095208
 31
0.0
  0
LINE
  5
37A8
330
1F
100
AcDbEntity
  8
太線
 62
     0
100
AcDbLine
 10
310.5126078972625
 20
230.8804703865102
 30
0.0
 11
310.2508118323113
 21
260.8793280784353
 31
0.0
  0
LINE
  5
37A9
330
1F
100
AcDbEntity
  8
想像線
100
AcDbLine
 10
338.0115607815272
 20
231.1204501127154
 30
0.0
 11
337.749764716576
 21
261.1193078046405
 31
0.0
  0
LINE
  5
37AA
330
1F
100
AcDbEntity
  8
太線
100
AcDbLine
 10
340.5114655891876
 20
231.1422664514614
 30
0.0
 11
340.2496695242364
 21
261.1411241433864
 31
0.0
  0
ARC
  5
37AB
330
1F
100
AcDbEntity
  8
太線
100
AcDbCircle
 10
352.8800915950142
 20
246.2507769911535
 30
0.0
 40
15.0
100
AcDbArc
 50
270.4999999999999
 51
316.0507424988079
  0
LINE
  5
37AC
330
1F
100
AcDbEntity
  8
太線
100
AcDbLine
 10
340.5114655891876
 20
231.1422664514614
 30
0.0
 11
353.0109896274898
 21
231.251348145191
 31
0.0
  0
CIRCLE
  5
37AD
330
1F
100
AcDbEntity
  8
太線
100
AcDbCircle
 10
342.4677567578241
 20
236.1595291377789
 30
0.0
 40
2.0
  0
LINE
  5
37AE
330
1F
100
AcDbEntity
  8
想像線
100
AcDbLine
 10
313.0125127049229
 20
230.9022867252561
 30
0.0
 11
312.990696366177
 21
233.4021915329165
 31
0.0
  0
LINE
  5
37AF
330
1F
100
AcDbEntity
  8
太線
100
AcDbLine
 10
338.0115607815272
 20
231.1204501127154
 30
0.0
 11
340.5114655891876
 21
231.1422664514614
 31
0.0
  0
LINE
  5
37B0
330
1F
100
AcDbEntity
  8
太線
100
AcDbLine
 10
358.950526637548
 20
230.7448595456189
 30
0.0
 11
391.450526637548
 21
230.7448595456189
 31
0.0
  0
CIRCLE
  5
37B1
330
1F
100
AcDbEntity
  8
太線
100
AcDbCircle
 10
369.450526637548
 20
235.7448595456189
 30
0.0
 40
1.5
  0
LINE
  5
37B2
330
1F
100
AcDbEntity
  8
想像線
100
AcDbLine
 10
391.450526637548
 20
233.2448595456189
 30
0.0
 11
373.950526637548
 21
233.2448595456189
 31
0.0
  0
LINE
  5
37B3
330
1F
100
AcDbEntity
  8
太線
100
AcDbLine
 10
367.3501144313453
 20
284.340461484688
 30
0.0
 11
367.3501144313453
 21
250.2027940857594
 31
0.0
  0
LINE
  5
37B4
330
1F
100
AcDbEntity
  8
太線
100
AcDbLine
 10
345.3501144313453
 20
237.340461484688
 30
0.0
 11
345.3501144313453
 21
239.4180287575092
 31
0.0
  0
ARC
  5
37B5
330
1F
100
AcDbEntity
  8
太線
100
AcDbCircle
 10
346.8501144313453
 20
237.3404614846881
 30
0.0
 40
1.5
100
AcDbArc
 50
180.0
 51
270.0
  0
CIRCLE
  5
37B6
330
1F
100
AcDbEntity
  8
太線
100
AcDbCircle
 10
342.2932260478566
 20
256.1587675990624
 30
0.0
 40
2.0
  0
LINE
  5
37B7
330
1F
100
AcDbEntity
  8
太線
100
AcDbLine
 10
340.2496695242364
 20
261.1411241433864
 30
0.0
 11
345.3501144313453
 21
261.1742259636273
 31
0.0
  0
LINE
  5
37B8
330
1F
100
AcDbEntity
  8
想像線
100
AcDbLine
 10
312.7725329787176
 20
258.4012396095208
 30
0.0
 11
312.7507166399717
 21
260.9011444171812
 31
0.0
  0
LINE
  5
37B9
330
1F
100
AcDbEntity
  8
太線
100
AcDbLine
 10
340.2496695242364
 20
261.1411241433864
 30
0.0
 11
337.749764716576
 21
261.1193078046405
 31
0.0
  0
LINE
  5
37BE
330
1F
100
AcDbEntity
  8
太線
100
AcDbLine
 10
365.8501144313453
 20
235.8404614846881
 30
0.0
 11
363.6794124558759
 21
235.8404614846881
 31
0.0
  0
ARC
  5
37C0
330
1F
100
AcDbEntity
  8
太線
100
AcDbCircle
 10
365.8501144313453
 20
237.3404614846881
 30
0.0
 40
1.5
100
AcDbArc
 50
270.0
 51
0.0
  0
ARC
  5
37C1
330
1F
100
AcDbEntity
  8
太線
100
AcDbCircle
 10
346.8501144313453
 20
284.3404614846881
 30
0.0
 40
1.5
100
AcDbArc
 50
90.0
 51
180.0
  0
LINE
  5
37C3
330
1F
100
AcDbEntity
  8
太線
100
AcDbLine
 10
346.8501144313453
 20
285.8404614846881
 30
0.0
 11
365.8501144313453
 21
285.8404614846881
 31
0.0
  0
ARC
  5
37C4
330
1F
100
AcDbEntity
  8
太線
100
AcDbCircle
 10
365.8501144313453
 20
284.3404614846881
 30
0.0
 40
1.5
100
AcDbArc
 50
0.0
 51
90.0
  0
LINE
  5
37C5
330
1F
100
AcDbEntity
  8
太線
100
AcDbLine
 10
367.3501144313452
 20
260.7448595456189
 30
0.0
 11
391.450526637548
 21
260.7448595456189
 31
0.0
  0
CIRCLE
  5
37C6
330
1F
100
AcDbEntity
  8
太線
100
AcDbCircle
 10
369.450526637548
 20
255.7448595456189
 30
0.0
 40
1.5
  0
LINE
  5
37CB
330
1F
100
AcDbEntity
  8
想像線
100
AcDbLine
 10
373.950526637548
 20
258.2448595456189
 30
0.0
 11
391.450526637548
 21
258.2448595456189
 31
0.0
  0
LINE
  5
37CC
330
1F
100
AcDbEntity
  8
想像線
100
AcDbLine
 10
371.450526637548
 20
243.2448595456189
 30
0.0
 11
373.950526637548
 21
243.2448595456189
 31
0.0
  0
LINE
  5
37CD
330
1F
100
AcDbEntity
  8
想像線
100
AcDbLine
 10
371.450526637548
 20
248.2448595456189
 30
0.0
 11
373.950526637548
 21
248.2448595456189
 31
0.0
  0
LINE
  5
37CE
330
1F
100
AcDbEntity
  8
太線
100
AcDbLine
 10
236.0901697325205
 20
300.5027076890233
 30
0.0
 11
219.5700574082341
 21
325.5443907153887
 31
0.0
  0
LINE
  5
37CF
330
1F
100
AcDbEntity
  8
太線
 62
     0
100
AcDbLine
 10
219.3957143816102
 20
289.4892994728323
 30
0.0
 11
202.8756020573238
 21
314.5309824991978
 31
0.0
  0
LINE
  5
37D0
330
1F
100
AcDbEntity
  8
想像線
100
AcDbLine
 10
220.1058452734501
 20
292.95278241872
 30
0.0
 11
206.3390850032114
 21
313.8208516073579
 31
0.0
  0
ARC
  5
37D1
330
1F
100
AcDbEntity
  8
太線
100
AcDbCircle
 10
200.701623625148
 20
295.1267608508958
 30
0.0
 40
15.0
100
AcDbArc
 50
120.039994774827
 51
303.4130181158756
  0
CIRCLE
  5
37D2
330
1F
100
AcDbEntity
  8
太線
100
AcDbCircle
 10
214.9729167924714
 20
292.5615724889409
 30
0.0
 40
1.5
  0
LINE
  5
37D3
330
1F
100
AcDbEntity
  8
太線
100
AcDbLine
 10
208.9616797872912
 20
282.605919337713
 30
0.0
 11
236.0901697325205
 21
300.5027076890233
 31
0.0
  0
LINE
  5
37D4
330
1F
100
AcDbEntity
  8
想像線
100
AcDbLine
 10
234.7134937054966
 20
302.5895146078871
 30
0.0
 11
220.1058452734501
 21
292.95278241872
 31
0.0
  0
CIRCLE
  5
37D5
330
1F
100
AcDbEntity
  8
太線
100
AcDbCircle
 10
203.9595085762804
 20
309.2560278398511
 30
0.0
 40
1.5
  0
LINE
  5
37D6
330
1F
100
AcDbEntity
  8
太線
100
AcDbLine
 10
193.4648672998146
 20
308.3226779262012
 30
0.0
 11
219.5700574082341
 21
325.5443907153887
 31
0.0
  0
LINE
  5
37D7
330
1F
100
AcDbEntity
  8
太線
100
AcDbLine
 10
196.5105754847581
 20
288.7678996725924
 30
0.0
 11
203.8964075601714
 21
293.6403667254531
 31
0.0
  0
LINE
  5
37D8
330
1F
100
AcDbEntity
  8
太線
100
AcDbLine
 10
193.2065530199008
 20
293.7762362778655
 30
0.0
 11
200.5923850953141
 21
298.6487033307262
 31
0.0
  0
ARC
  5
37D9
330
1F
100
AcDbEntity
  8
細線
 62
     0
100
AcDbCircle
 10
194.8585642523294
 20
291.2720679752289
 30
0.0
 40
3.0
100
AcDbArc
 50
123.4130181158756
 51
303.4130181158756
  0
ARC
  5
37DA
330
1F
100
AcDbEntity
  8
細線
 62
     0
100
AcDbCircle
 10
202.2443963277428
 20
296.1445350280896
 30
0.0
 40
3.0
100
AcDbArc
 50
303.4130181158756
 51
123.4130181158756
  0
LINE
  5
37DB
330
1F
100
AcDbEntity
  8
想像線
100
AcDbLine
 10
206.3390850032114
 20
313.8208516073579
 30
0.0
 11
220.946733435258
 21
323.457583796525
 31
0.0
  0
LINE
  5
37DC
330
1F
100
AcDbEntity
  8
想像線
100
AcDbLine
 10
212.5123342464908
 20
299.9233340671513
 30
0.0
 11
214.5991411653546
 21
301.3000100941752
 31
0.0
  0
LINE
  5
37DD
330
1F
100
AcDbEntity
  8
想像線
100
AcDbLine
 10
209.7589821924431
 20
304.0969479048789
 30
0.0
 11
211.8457891113069
 21
305.4736239319028
 31
0.0
  0
LINE
  5
37DE
330
1F
100
AcDbEntity
  8
想像線
100
AcDbLine
 10
379.1349479818752
 20
274.8969296711452
 30
0.0
 11
365.3681877116365
 21
295.7649988597832
 31
0.0
  0
LINE
  5
37DF
330
1F
100
AcDbEntity
  8
太線
 62
     0
100
AcDbLine
 10
378.4248170900352
 20
271.4334467252576
 30
0.0
 11
361.9047047657488
 21
296.4751297516231
 31
0.0
  0
ARC
  5
37E2
330
1F
100
AcDbEntity
  8
太線
100
AcDbCircle
 10
359.7307263335731
 20
277.0709081033211
 30
0.0
 40
15.0
100
AcDbArc
 50
120.039994774827
 51
144.2226577557832
  0
LINE
  5
37E4
330
1F
100
AcDbEntity
  8
太線
100
AcDbLine
 10
367.9907824957163
 20
264.5500665901383
 30
0.0
 11
395.1192724409455
 21
282.4468549414486
 31
0.0
  0
CIRCLE
  5
37E7
330
1F
100
AcDbEntity
  8
太線
100
AcDbCircle
 10
374.0020195008964
 20
274.5057197413661
 30
0.0
 40
1.5
  0
LINE
  5
37E8
330
1F
100
AcDbEntity
  8
太線
100
AcDbLine
 10
395.1192724409455
 20
282.4468549414486
 30
0.0
 11
378.5991601166592
 21
307.488537967814
 31
0.0
  0
LINE
  5
37E9
330
1F
100
AcDbEntity
  8
想像線
100
AcDbLine
 10
365.3681877116365
 20
295.7649988597832
 30
0.0
 11
379.975836143683
 21
305.4017310489502
 31
0.0
  0
LINE
  5
37EA
330
1F
100
AcDbEntity
  8
太線
100
AcDbLine
 10
352.4939700082397
 20
290.2668251786264
 30
0.0
 11
378.5991601166592
 21
307.488537967814
 31
0.0
  0
CIRCLE
  5
37EB
330
1F
100
AcDbEntity
  8
太線
100
AcDbCircle
 10
362.9886112847055
 20
291.2001750922764
 30
0.0
 40
1.5
  0
LINE
  5
37EC
330
1F
100
AcDbEntity
  8
想像線
100
AcDbLine
 10
371.5414369549159
 20
281.8674813195766
 30
0.0
 11
373.6282438737797
 21
283.2441573466005
 31
0.0
  0
LINE
  5
37ED
330
1F
100
AcDbEntity
  8
想像線
100
AcDbLine
 10
368.7880849008682
 20
286.0410951573042
 30
0.0
 11
370.8748918197319
 21
287.4177711843281
 31
0.0
  0
LINE
  5
37EE
330
1F
100
AcDbEntity
  8
太線
100
AcDbLine
 10
345.3501144313453
 20
252.0716903337286
 30
0.0
 11
345.3501144313453
 21
284.340461484688
 31
0.0
  0
LINE
  5
37EF
330
1F
100
AcDbEntity
  8
太線
100
AcDbLine
 10
347.6854079497298
 20
235.840461484688
 30
0.0
 11
346.8501144313453
 21
235.8404614846881
 31
0.0
  0
LINE
  5
37F0
330
1F
100
AcDbEntity
  8
太線
100
AcDbLine
 10
367.3501144313453
 20
242.2987598965477
 30
0.0
 11
367.3501144313453
 21
237.340461484688
 31
0.0
  0
ARC
  5
37F1
330
1F
100
AcDbEntity
  8
太線
100
AcDbCircle
 10
359.7307263335731
 20
277.0709081033211
 30
0.0
 40
15.0
100
AcDbArc
 50
300.5279888743376
 51
303.4130181158756
  0
ARC
  5
37F2
330
1F
100
AcDbEntity
  8
太線
100
AcDbCircle
 10
359.7307263335731
 20
277.0709081033211
 30
0.0
 40
15.0
100
AcDbArc
 50
163.4773653744675
 51
196.5226346255324
  0
ARC
  5
37F4
330
1F
100
AcDbEntity
  8
太線
100
AcDbCircle
 10
358.950526637548
 20
245.7448595456189
 30
0.0
 40
15.0
100
AcDbArc
 50
155.0524315852934
 51
204.9475684147063
  0
LINE
  5
37F5
330
1F
100
AcDbEntity
  8
太線
100
AcDbLine
 10
347.6854079497298
 20
235.840461484688
 30
0.0
 11
363.6794124558759
 21
235.840461484688
 31
0.0
  0
LINE
  5
37F6
330
1F
100
AcDbEntity
  8
太線
100
AcDbLine
 10
345.3501144313453
 20
252.0716903337286
 30
0.0
 11
345.3501144313453
 21
239.4180287575092
 31
0.0
  0
LINE
  5
37F7
330
1F
100
AcDbEntity
  8
太線
100
AcDbLine
 10
367.3501144313452
 20
250.2027940857594
 30
0.0
 11
367.3501144313453
 21
242.2987598965478
 31
0.0
  0
ARC
  5
37F8
330
1F
100
AcDbEntity
  8
太線
100
AcDbCircle
 10
358.950526637548
 20
245.7448595456189
 30
0.0
 40
15.0
100
AcDbArc
 50
221.3222380333899
 51
270.0
  0
LINE
  5
37FE
330
1F
100
AcDbEntity
  8
細線
100
AcDbLine
 10
379.1349479818752
 20
274.8969296711452
 30
0.0
 11
393.6716286589628
 21
284.2754221918209
 31
0.0
  0
XLINE
  5
3807
330
1F
100
AcDbEntity
  8
構築線
100
AcDbXline
 10
373.950526637548
 20
163.2448595456189
 30
0.0
 11
1.0
 21
0.0
 31
0.0
  0
XLINE
  5
380C
330
1F
100
AcDbEntity
  8
構築線
100
AcDbXline
 10
325.249764716576
 20
261.1193078046405
 30
0.0
 11
0.0
 21
-1.0
 31
0.0
  0
XLINE
  5
380D
330
1F
100
AcDbEntity
  8
構築線
100
AcDbXline
 10
372.2515678467559
 20
285.3309642654642
 30
0.0
 11
0.834722767545516
 21
0.5506704108095463
 31
0.0
  0
LINE
  5
380E
330
1F
100
AcDbEntity
  8
太線
100
AcDbLine
 10
312.7507166399717
 20
261.0530135907183
 30
0.0
 11
312.7507166399717
 21
328.2448595456189
 31
0.0
  0
LINE
  5
380F
330
1F
100
AcDbEntity
  8
太線
100
AcDbLine
 10
337.749764716576
 20
328.2448595456189
 30
0.0
 11
337.749764716576
 21
262.5699676303386
 31
0.0
  0
LINE
  5
3810
330
1F
100
AcDbEntity
  8
太線
100
AcDbLine
 10
379.975836143683
 20
305.4017310489502
 30
0.0
 11
421.7119745209589
 21
332.9352515894276
 31
0.0
  0
LINE
  5
3811
330
1F
100
AcDbEntity
  8
太線
100
AcDbLine
 10
393.8409096944598
 20
284.3846356333601
 30
0.0
 11
435.8579431589872
 21
311.4923669539737
 31
0.0
  0
LINE
  5
3812
330
1F
100
AcDbEntity
  8
太線
100
AcDbLine
 10
391.450526637548
 20
258.2448595456189
 30
0.0
 11
441.450526637548
 21
258.2448595456189
 31
0.0
  0
LINE
  5
3813
330
1F
100
AcDbEntity
  8
太線
100
AcDbLine
 10
391.450526637548
 20
233.2448595456189
 30
0.0
 11
441.450526637548
 21
233.2448595456189
 31
0.0
  0
LINE
  5
3814
330
1F
100
AcDbEntity
  8
太線
100
AcDbLine
 10
338.0115607815272
 20
231.1204501127154
 30
0.0
 11
337.749764716576
 21
163.2448595456189
 31
0.0
  0
LINE
  5
3815
330
1F
100
AcDbEntity
  8
太線
100
AcDbLine
 10
313.0125127049229
 20
230.902286725256
 30
0.0
 11
312.7507166399717
 21
163.2448595456189
 31
0.0
  0
ARC
  5
3816
330
1F
100
AcDbEntity
  8
太線
100
AcDbCircle
 10
319.0002406782738
 20
333.1268887787742
 30
0.0
 40
7.930369483113587
100
AcDbArc
 50
217.9963900691052
 51
322.0036099308947
  0
ARC
  5
3818
330
1F
100
AcDbEntity
  8
太線
100
AcDbCircle
 10
319.0002406782738
 20
324.5004194701772
 30
0.0
 40
7.285422581009956
100
AcDbArc
 50
30.92818789683247
 51
149.0718121031676
  0
ARC
  5
3819
330
1F
100
AcDbEntity
  8
太線
100
AcDbCircle
 10
331.4997647165759
 20
324.6315481961037
 30
0.0
 40
7.219315681457249
100
AcDbArc
 50
30.03348724573602
 51
149.9665127542635
  0
ARC
  5
381A
330
1F
100
AcDbEntity
  8
太線
100
AcDbCircle
 10
319.0080130963983
 20
324.2821903360397
 30
0.0
 40
5.776113698906427
100
AcDbArc
 50
33.75462931012779
 51
142.77749555221
  0
ARC
  5
381B
330
1F
100
AcDbEntity
  8
太線
100
AcDbCircle
 10
427.9450403361184
 20
329.5597175839897
 30
0.0
 40
7.088394689771323
100
AcDbArc
 50
151.5621174378385
 51
275.2639187939128
  0
ARC
  5
381C
330
1F
100
AcDbEntity
  8
太線
100
AcDbCircle
 10
430.1511810448172
 20
315.6275963744927
 30
0.0
 40
7.047499995604997
100
AcDbArc
 50
324.0721917437186
 51
102.7538444880325
  0
ARC
  5
381D
330
1F
100
AcDbEntity
  8
太線
100
AcDbCircle
 10
422.2943292933315
 20
325.8319177775371
 30
0.0
 40
7.127165518216377
100
AcDbArc
 50
332.1392206300325
 51
94.68681560172328
  0
ARC
  5
381E
330
1F
100
AcDbEntity
  8
太線
100
AcDbCircle
 10
423.7449938924085
 20
325.8559396865495
 30
0.0
 40
4.921939578685598
100
AcDbArc
 50
323.7509129674274
 51
114.653614227831
  0
LWPOLYLINE
  5
381F
330
1F
100
AcDbEntity
  8
太線
100
AcDbPolyline
 90
        6
 70
     1
 43
0.0
 10
361.1822417525341
 20
272.9935087566594
 10
361.231711477786
 20
278.601730135144
 10
356.3995841565972
 20
281.4486828631728
 10
351.5179871101565
 20
278.6874142127168
 10
351.4685173849046
 20
273.0791928342322
 10
356.3006447060934
 20
270.2322401062035
  0
CIRCLE
  5
3820
330
1F
100
AcDbEntity
  8
太線
100
AcDbCircle
 10
356.3501144313453
 20
275.8404614846881
 30
0.0
 40
4.781021293878285
  0
CIRCLE
  5
3821
330
1F
100
AcDbEntity
  8
太線
100
AcDbCircle
 10
356.3501144313453
 20
245.8404614846881
 30
0.0
 40
4.781021293878285
  0
LWPOLYLINE
  5
3822
330
1F
100
AcDbEntity
  8
太線
100
AcDbPolyline
 90
        6
 70
     1
 43
0.0
 10
361.1822417525341
 20
242.9935087566594
 10
361.231711477786
 20
248.601730135144
 10
356.3995841565972
 20
251.4486828631727
 10
351.5179871101565
 20
248.6874142127168
 10
351.4685173849046
 20
243.0791928342322
 10
356.3006447060934
 20
240.2322401062034
  0
XLINE
  5
3823
330
1F
100
AcDbEntity
  8
構築線
100
AcDbXline
 10
373.950526637548
 20
245.7448595456189
 30
0.0
 11
1.0
 21
0.0
 31
0.0
  0
ARC
  5
3824
330
1F
100
AcDbEntity
  8
太線
100
AcDbCircle
 10
447.6818673550616
 20
251.9948595456189
 30
0.0
 40
8.825650522071594
100
AcDbArc
 50
134.9143443510637
 51
225.0856556489365
  0
ARC
  5
3825
330
1F
100
AcDbEntity
  8
太線
100
AcDbCircle
 10
437.0196552464652
 20
239.4948595456189
 30
0.0
 40
7.6612741293022
100
AcDbArc
 50
305.3343309691728
 51
54.66566903082682
  0
ARC
  5
3826
330
1F
100
AcDbEntity
  8
太線
100
AcDbCircle
 10
435.6325398351692
 20
251.9948595456187
 30
0.0
 40
8.538821372569781
100
AcDbArc
 50
312.9497850098625
 51
47.05021499013898
  0
ARC
  5
3827
330
1F
100
AcDbEntity
  8
太線
100
AcDbCircle
 10
436.1750305109299
 20
252.0512949509289
 30
0.0
 40
6.836942909706726
100
AcDbArc
 50
312.3745847117846
 51
51.32439952008439
  0
ARC
  5
3828
330
1F
100
AcDbEntity
  8
太線
100
AcDbCircle
 10
331.499764716576
 20
155.4100749216229
 30
0.0
 40
10.02229265709217
100
AcDbArc
 50
51.4197763509822
 51
128.5802236490178
  0
ARC
  5
3829
330
1F
100
AcDbEntity
  8
太線
100
AcDbCircle
 10
331.499764716576
 20
169.0001319543633
 30
0.0
 40
8.496214480511605
100
AcDbArc
 50
222.6402223322579
 51
317.3597776677419
  0
ARC
  5
382A
330
1F
100
AcDbEntity
  8
太線
100
AcDbCircle
 10
319.0002406782739
 20
168.8527606382858
 30
0.0
 40
8.396731826755599
100
AcDbArc
 50
221.9026606808345
 51
318.0973393191649
  0
ARC
  5
382B
330
1F
100
AcDbEntity
  8
太線
100
AcDbCircle
 10
331.431487654645
 20
168.7842910280654
 30
0.0
 40
7.34556183942362
100
AcDbArc
 50
225.7799617170843
 51
315.9543716268145
  0
TEXT
  5
382F
330
1F
100
AcDbEntity
  8
文字
100
AcDbText
 10
186.8109899677167
 20
332.0864529218964
 30
0.0
 40
7.0
  1
6-1E
 51
15.0
  7
OKANO
100
AcDbText
  0
TEXT
  5
3830
330
1F
100
AcDbEntity
  8
文字
100
AcDbText
 10
185.3376358631906
 20
253.3240272388926
 30
0.0
 40
7.0
  1
27-FB
 51
15.0
  7
OKANO
100
AcDbText
  0
TEXT
  5
3831
330
1F
100
AcDbEntity
  8
文字
100
AcDbText
 10
212.5947118252847
 20
226.0884220047843
 30
0.0
 40
7.0
  1
6-1E
 51
15.0
  7
OKANO
100
AcDbText
  0
TEXT
  5
3832
330
1F
100
AcDbEntity
  8
文字
100
AcDbText
 10
101.3563768201181
 20
201.0611087962444
 30
0.0
 40
7.0
  1
7-1S
 51
15.0
  7
OKANO
100
AcDbText
  0
TEXT
  5
3833
330
1F
100
AcDbEntity
  8
文字
100
AcDbText
 10
363.7075263415295
 20
343.7813670914012
 30
0.0
 40
7.0
  1
筋交いの接続筋交い補強
 51
15.0
  7
OKANO
100
AcDbText
  0
TEXT
  5
3834
330
1F
100
AcDbEntity
  8
文字
100
AcDbText
 10
160.290592983144
 20
103.1601509211873
 30
0.0
 40
7.0
  1
27-FB
 51
15.0
  7
OKANO
100
AcDbText
  0
TEXT
  5
384F
330
1F
100
AcDbEntity
  8
文字
100
AcDbText
 10
318.1381008216622
 20
99.06459691044346
 30
0.0
 40
4.799999999999999
  1
JAN4562182300201
 51
15.0
  7
OKANO
100
AcDbText
  0
VIEWPORT
  5
2E
330
1B
100
AcDbEntity
 67
     1
  8
0
100
AcDbViewport
 10
296.5375070811757
 20
125.9024985946441
 30
0.0
 40
955.6033149641587
 41
485.3538438490247
 68
     2
 69
     1
 12
296.5375070811757
 22
125.9024985946441
 13
0.0
 23
0.0
 14
10.0
 24
10.0
 15
10.0
 25
10.0
 16
0.0
 26
0.0
 36
1.0
 17
0.0
 27
0.0
 37
0.0
 42
50.0
 43
0.0
 44
0.0
 45
485.3538438490247
 50
0.0
 51
0.0
 72
   100
 90
    32800
  1

281
     0
 71
     1
 74
     0
110
0.0
120
0.0
130
0.0
111
1.0
121
0.0
131
0.0
112
0.0
122
1.0
132
0.0
 79
     0
146
0.0
  0
VIEWPORT
  5
30
330
1B
100
AcDbEntity
 67
     1
  8
70-0-CON
100
AcDbViewport
 10
141.8594093064315
 20
100.3480256368386
 30
0.0
 40
261.6199023344245
 41
192.6196987113174
 68
     1
 69
     2
 12
276.4612816178355
 22
202.8530666159666
 13
0.0
 23
0.0
 14
5.0
 24
5.0
 15
10.0
 25
10.0
 16
0.0
 26
0.0
 36
1.0
 17
0.0
 27
0.0
 37
0.0
 42
50.0
 43
0.0
 44
0.0
 45
322.1010778697254
 50
0.0
 51
0.0
 72
   100
 90
    32864
  1

281
     0
 71
     1
 74
     0
110
0.0
120
0.0
130
0.0
111
1.0
121
0.0
131
0.0
112
0.0
122
1.0
132
0.0
 79
     0
146
0.0
  0
LWPOLYLINE
  5
45
330
1B
100
AcDbEntity
 67
     1
  8
50-0-CON
100
AcDbPolyline
 90
        4
 70
     1
 43
0.0
 10
11.04945813921926
 20
4.038176281179858
 10
272.2125713060605
 20
4.033520706629644
 10
273.4987754093466
 20
195.9297862125246
 10
11.04945813921926
 20
196.6578749924973
  0
LINE
  5
4A
330
1B
100
AcDbEntity
 67
     1
  8
50-0-CON
100
AcDbLine
 10
10.38768783662635
 20
100.3480256368386
 30
0.0
 11
-4.391850629656119
 21
100.3480256368386
 31
0.0
  0
LINE
  5
4B
330
1B
100
AcDbEntity
 67
     1
  8
50-0-CON
100
AcDbLine
 10
141.8594093064315
 20
197.098652626247
 30
0.0
 11
141.8594093064315
 21
202.387980773708
 31
0.0
  0
LINE
  5
4C
330
1B
100
AcDbEntity
 67
     1
  8
50-0-CON
100
AcDbLine
 10
272.4487699456857
 20
100.7888032705883
 30
0.0
 11
278.8458837249377
 21
100.7888032705883
 31
0.0
  0
LINE
  5
4D
330
1B
100
AcDbEntity
 67
     1
  8
50-0-CON
100
AcDbLine
 10
140.9770484758805
 20
4.038176281179858
 30
0.0
 11
140.9770484758805
 21
-3.455038652015446
 31
0.0
  0
ENDSEC
  0
SECTION
  2
OBJECTS
  0
DICTIONARY
  5
C
330
0
100
AcDbDictionary
281
     1
  3
ACAD_GROUP
350
D
  3
ACAD_LAYOUT
350
1A
  3
ACAD_MLINESTYLE
350
17
  3
ACAD_PLOTSETTINGS
350
19
  3
ACAD_PLOTSTYLENAME
350
E
  3
AcadDim
350
32BD
  3
AcDbVariableDictionary
350
6AD
  3
DWGPROPS
350
30F
  0
DICTIONARY
  5
D
102
{ACAD_REACTORS
330
C
102
}
330
C
100
AcDbDictionary
281
     1
  0
DICTIONARY
  5
1A
102
{ACAD_REACTORS
330
C
102
}
330
C
100
AcDbDictionary
281
     1
  3
A4
350
1E
  3
Model
350
22
  0
DICTIONARY
  5
17
102
{ACAD_REACTORS
330
C
102
}
330
C
100
AcDbDictionary
281
     1
  3
Standard
350
18
  0
DICTIONARY
  5
19
102
{ACAD_REACTORS
330
C
102
}
330
C
100
AcDbDictionary
281
     1
  0
ACDBDICTIONARYWDFLT
  5
E
102
{ACAD_REACTORS
330
C
102
}
330
C
100
AcDbDictionary
281
     1
  3
Normal
350
F
100
AcDbDictionaryWithDefault
340
F
  0
XRECORD
  5
32BD
102
{ACAD_REACTORS
330
C
102
}
330
C
100
AcDbXrecord
280
     1
 90
   990106
  3

 60
     0
 61
     0
 62
     1
 63
     3
 64
     0
 65
     0
 66
     0
 67
     3
 68
     1
 69
     0
 70
     0
 71
     0
 72
     0
 40
1.046350800936124
170
     0
  0
DICTIONARY
  5
6AD
102
{ACAD_REACTORS
330
C
102
}
330
C
100
AcDbDictionary
281
     1
  3
SORTENTS
350
6AE
  0
XRECORD
  5
30F
102
{ACAD_REACTORS
330
C
102
}
330
C
100
AcDbXrecord
280
     1
  1
DWGPROPS COOKIE
  2

  3

  4

  6

  7

  8

  9

300
=
301
=
302
=
303
=
304
=
305
=
306
=
307
=
308
=
309
=
 40
0.3303803125
 41
2452362.482225463
 42
2452370.969861285
  1

 90
        0
  0
LAYOUT
  5
1E
102
{ACAD_REACTORS
330
1A
102
}
330
1A
100
AcDbPlotSettings
  1

  2
EPSON PM-920C
  4
A4
  6

 40
3.757083177566528
 41
14.7637300491333
 42
3.757080078125
 43
3.757080078125
 44
209.9733276367187
 45
296.9683227539062
 46
0.0
 47
0.0
 48
0.0
 49
0.0
140
0.0
141
0.0
142
1.0
143
1.0
 70
   688
 72
     1
 73
     1
 74
     5
  7
joint.ctb
 75
    16
147
1.0
148
0.0
149
0.0
100
AcDbLayout
  1
A4
 70
     1
 71
     1
 10
-3.757080078125
 20
-3.757083177566528
 11
293.2112426757812
 21
206.2162444591522
 12
0.0
 22
0.0
 32
0.0
 14
-4.391850629656119
 24
-3.455038652015446
 34
0.0
 15
278.8458837249377
 25
202.387980773708
 35
0.0
146
0.0
 13
0.0
 23
0.0
 33
0.0
 16
1.0
 26
0.0
 36
0.0
 17
0.0
 27
1.0
 37
0.0
 76
     0
330
1B
331
30
  0
LAYOUT
  5
22
102
{ACAD_REACTORS
330
1A
102
}
330
1A
100
AcDbPlotSettings
  1

  2
EPSON PM-920C
  4
A4
  6

 40
3.757083177566528
 41
14.7637300491333
 42
3.757080078125
 43
3.757080078125
 44
209.9733276367187
 45
296.9683227539062
 46
0.0
 47
0.0
 48
0.0
 49
0.0
140
0.0
141
0.0
142
1.0
143
1.0
 70
 11952
 72
     1
 73
     1
 74
     0
  7

 75
     0
147
1.0
148
-45.64199848979289
149
-84.48806419330498
100
AcDbLayout
  1
Model
 70
     1
 71
     0
 10
0.0
 20
0.0
 11
12.0
 21
9.0
 12
0.0
 22
0.0
 32
0.0
 14
0.0
 24
0.0
 34
0.0
 15
0.0
 25
0.0
 35
0.0
146
0.0
 13
0.0
 23
0.0
 33
0.0
 16
1.0
 26
0.0
 36
0.0
 17
0.0
 27
1.0
 37
0.0
 76
     0
330
1F
  0
MLINESTYLE
  5
18
102
{ACAD_REACTORS
330
17
102
}
330
17
100
AcDbMlineStyle
  2
STANDARD
 70
     0
  3

 62
   256
 51
90.0
 52
90.0
 71
     2
 49
0.5
 62
   256
  6
BYLAYER
 49
-0.5
 62
   256
  6
BYLAYER
  0
ACDBPLACEHOLDER
  5
F
102
{ACAD_REACTORS
330
E
102
}
330
E
  0
DICTIONARYVAR
  5
6AE
102
{ACAD_REACTORS
330
6AD
102
}
330
6AD
100
DictionaryVariables
280
     0
  1
96
  0
ENDSEC
  0
EOF
