  0
SECTION
  2
HEADER
  9
$ACADVER
  1
AC1015
  9
$ACADMAINTVER
 70
     6
  9
$DWGCODEPAGE
  3
ANSI_932
  9
$INSBASE
 10
0.0
 20
0.0
 30
0.0
  9
$EXTMIN
 10
101.631808006909
 20
-5.765475631869423
 30
0.0
  9
$EXTMAX
 10
627.1248182803065
 20
351.0617623114526
 30
0.0
  9
$LIMMIN
 10
0.0
 20
0.0
  9
$LIMMAX
 10
420.0
 20
297.0
  9
$ORTHOMODE
 70
     1
  9
$REGENMODE
 70
     1
  9
$FILLMODE
 70
     1
  9
$QTEXTMODE
 70
     0
  9
$MIRRTEXT
 70
     1
  9
$LTSCALE
 40
1.0
  9
$ATTMODE
 70
     1
  9
$TEXTSIZE
 40
5.0
  9
$TRACEWID
 40
1.0
  9
$TEXTSTYLE
  7
OKANO
  9
$CLAYER
  8
太線
  9
$CELTYPE
  6
ByLayer
  9
$CECOLOR
 62
   256
  9
$CELTSCALE
 40
1.0
  9
$DISPSILH
 70
     0
  9
$DIMSCALE
 40
0.0
  9
$DIMASZ
 40
3.0
  9
$DIMEXO
 40
2.0
  9
$DIMDLI
 40
8.0
  9
$DIMRND
 40
0.0
  9
$DIMDLE
 40
0.0
  9
$DIMEXE
 40
3.0
  9
$DIMTP
 40
0.0
  9
$DIMTM
 40
0.0
  9
$DIMTXT
 40
5.0
  9
$DIMCEN
 40
2.5
  9
$DIMTSZ
 40
0.0
  9
$DIMTOL
 70
     0
  9
$DIMLIM
 70
     0
  9
$DIMTIH
 70
     0
  9
$DIMTOH
 70
     0
  9
$DIMSE1
 70
     0
  9
$DIMSE2
 70
     0
  9
$DIMTAD
 70
     1
  9
$DIMZIN
 70
     8
  9
$DIMBLK
  1
Closed
  9
$DIMASO
 70
     1
  9
$DIMSHO
 70
     1
  9
$DIMPOST
  1

  9
$DIMAPOST
  1

  9
$DIMALT
 70
     0
  9
$DIMALTD
 70
     3
  9
$DIMALTF
 40
0.03937007874016
  9
$DIMLFAC
 40
1.0
  9
$DIMTOFL
 70
     1
  9
$DIMTVP
 40
0.0
  9
$DIMTIX
 70
     0
  9
$DIMSOXD
 70
     0
  9
$DIMSAH
 70
     0
  9
$DIMBLK1
  1

  9
$DIMBLK2
  1

  9
$DIMSTYLE
  2
sunpo
  9
$DIMCLRD
 70
     0
  9
$DIMCLRE
 70
     0
  9
$DIMCLRT
 70
     0
  9
$DIMTFAC
 40
1.0
  9
$DIMGAP
 40
1.0
  9
$DIMJUST
 70
     0
  9
$DIMSD1
 70
     0
  9
$DIMSD2
 70
     0
  9
$DIMTOLJ
 70
     0
  9
$DIMTZIN
 70
     8
  9
$DIMALTZ
 70
     0
  9
$DIMALTTZ
 70
     0
  9
$DIMUPT
 70
     0
  9
$DIMDEC
 70
     2
  9
$DIMTDEC
 70
     2
  9
$DIMALTU
 70
     2
  9
$DIMALTTD
 70
     3
  9
$DIMTXSTY
  7
OKANO
  9
$DIMAUNIT
 70
     0
  9
$DIMADEC
 70
     0
  9
$DIMALTRND
 40
0.0
  9
$DIMAZIN
 70
     0
  9
$DIMDSEP
 70
    46
  9
$DIMATFIT
 70
     3
  9
$DIMFRAC
 70
     0
  9
$DIMLDRBLK
  1
Closed
  9
$DIMLUNIT
 70
     2
  9
$DIMLWD
 70
    -2
  9
$DIMLWE
 70
    -2
  9
$DIMTMOVE
 70
     0
  9
$LUNITS
 70
     2
  9
$LUPREC
 70
     2
  9
$SKETCHINC
 40
1.0
  9
$FILLETRAD
 40
3.0
  9
$AUNITS
 70
     0
  9
$AUPREC
 70
     0
  9
$MENU
  1
.
  9
$ELEVATION
 40
0.0
  9
$PELEVATION
 40
0.0
  9
$THICKNESS
 40
0.0
  9
$LIMCHECK
 70
     0
  9
$CHAMFERA
 40
10.0
  9
$CHAMFERB
 40
10.0
  9
$CHAMFERC
 40
20.0
  9
$CHAMFERD
 40
0.0
  9
$SKPOLY
 70
     0
  9
$TDCREATE
 40
2452362.482225463
  9
$TDUCREATE
 40
2452362.107225463
  9
$TDUPDATE
 40
2455968.405025428
  9
$TDUUPDATE
 40
2455968.030025428
  9
$TDINDWG
 40
2.5414504167
  9
$TDUSRTIMER
 40
2.5414504167
  9
$USRTIMER
 70
     1
  9
$ANGBASE
 50
0.0
  9
$ANGDIR
 70
     0
  9
$PDMODE
 70
     0
  9
$PDSIZE
 40
0.0
  9
$PLINEWID
 40
0.0
  9
$SPLFRAME
 70
     0
  9
$SPLINETYPE
 70
     6
  9
$SPLINESEGS
 70
     8
  9
$HANDSEED
  5
3997
  9
$SURFTAB1
 70
     6
  9
$SURFTAB2
 70
     6
  9
$SURFTYPE
 70
     6
  9
$SURFU
 70
     6
  9
$SURFV
 70
     6
  9
$UCSBASE
  2

  9
$UCSNAME
  2

  9
$UCSORG
 10
0.0
 20
0.0
 30
0.0
  9
$UCSXDIR
 10
1.0
 20
0.0
 30
0.0
  9
$UCSYDIR
 10
0.0
 20
1.0
 30
0.0
  9
$UCSORTHOREF
  2

  9
$UCSORTHOVIEW
 70
     0
  9
$UCSORGTOP
 10
0.0
 20
0.0
 30
0.0
  9
$UCSORGBOTTOM
 10
0.0
 20
0.0
 30
0.0
  9
$UCSORGLEFT
 10
0.0
 20
0.0
 30
0.0
  9
$UCSORGRIGHT
 10
0.0
 20
0.0
 30
0.0
  9
$UCSORGFRONT
 10
0.0
 20
0.0
 30
0.0
  9
$UCSORGBACK
 10
0.0
 20
0.0
 30
0.0
  9
$PUCSBASE
  2

  9
$PUCSNAME
  2

  9
$PUCSORG
 10
0.0
 20
0.0
 30
0.0
  9
$PUCSXDIR
 10
1.0
 20
0.0
 30
0.0
  9
$PUCSYDIR
 10
0.0
 20
1.0
 30
0.0
  9
$PUCSORTHOREF
  2

  9
$PUCSORTHOVIEW
 70
     0
  9
$PUCSORGTOP
 10
0.0
 20
0.0
 30
0.0
  9
$PUCSORGBOTTOM
 10
0.0
 20
0.0
 30
0.0
  9
$PUCSORGLEFT
 10
0.0
 20
0.0
 30
0.0
  9
$PUCSORGRIGHT
 10
0.0
 20
0.0
 30
0.0
  9
$PUCSORGFRONT
 10
0.0
 20
0.0
 30
0.0
  9
$PUCSORGBACK
 10
0.0
 20
0.0
 30
0.0
  9
$USERI1
 70
     0
  9
$USERI2
 70
     0
  9
$USERI3
 70
     0
  9
$USERI4
 70
     0
  9
$USERI5
 70
     0
  9
$USERR1
 40
0.0
  9
$USERR2
 40
0.0
  9
$USERR3
 40
0.0
  9
$USERR4
 40
0.0
  9
$USERR5
 40
0.0
  9
$WORLDVIEW
 70
     1
  9
$SHADEDGE
 70
     3
  9
$SHADEDIF
 70
    70
  9
$TILEMODE
 70
     0
  9
$MAXACTVP
 70
    64
  9
$PINSBASE
 10
0.0
 20
0.0
 30
0.0
  9
$PLIMCHECK
 70
     0
  9
$PEXTMIN
 10
-4.391850629656119
 20
-3.455038652015446
 30
0.0
  9
$PEXTMAX
 10
278.8458837249377
 20
202.387980773708
 30
0.0
  9
$PLIMMIN
 10
-3.757080078125
 20
-3.757083177566528
  9
$PLIMMAX
 10
293.2112426757812
 20
206.2162444591522
  9
$UNITMODE
 70
     0
  9
$VISRETAIN
 70
     1
  9
$PLINEGEN
 70
     0
  9
$PSLTSCALE
 70
     1
  9
$TREEDEPTH
 70
  3020
  9
$CMLSTYLE
  2
Standard
  9
$CMLJUST
 70
     0
  9
$CMLSCALE
 40
20.0
  9
$PROXYGRAPHICS
 70
     1
  9
$MEASUREMENT
 70
     1
  9
$CELWEIGHT
370
    -1
  9
$ENDCAPS
280
     0
  9
$JOINSTYLE
280
     0
  9
$LWDISPLAY
290
     0
  9
$INSUNITS
 70
     4
  9
$HYPERLINKBASE
  1

  9
$STYLESHEET
  1

  9
$XEDIT
290
     1
  9
$CEPSNTYPE
380
     0
  9
$PSTYLEMODE
290
     1
  9
$FINGERPRINTGUID
  2
{FF7F33C3-4233-11D6-AEE0-0000F45FD7F4}
  9
$VERSIONGUID
  2
{91EA6137-4A77-430A-85EB-13224B9B6414}
  9
$EXTNAMES
290
     1
  9
$PSVPSCALE
 40
0.0
  9
$OLESTARTUP
290
     0
  0
ENDSEC
  0
SECTION
  2
CLASSES
  0
CLASS
  1
ACDBDICTIONARYWDFLT
  2
AcDbDictionaryWithDefault
  3
AutoCAD 2000
 90
        0
280
     0
281
     0
  0
CLASS
  1
ACDBPLACEHOLDER
  2
AcDbPlaceHolder
  3
AutoCAD 2000
 90
        0
280
     0
281
     0
  0
CLASS
  1
LAYOUT
  2
AcDbLayout
  3
AutoCAD 2000
 90
        0
280
     0
281
     0
  0
CLASS
  1
DICTIONARYVAR
  2
AcDbDictionaryVar
  3
AutoCAD 2000
 90
        0
280
     0
281
     0
  0
ENDSEC
  0
SECTION
  2
TABLES
  0
TABLE
  2
VPORT
  5
8
330
0
100
AcDbSymbolTable
 70
     3
  0
VPORT
  5
3996
330
8
100
AcDbSymbolTableRecord
100
AcDbViewportTableRecord
  2
*Active
 70
     0
 10
0.0
 20
0.0
 11
1.0
 21
1.0
 12
429.8379570912731
 22
293.542990115532
 13
0.0
 23
0.0
 14
5.0
 24
5.0
 15
10.0
 25
10.0
 16
0.0
 26
0.0
 36
1.0
 17
0.0
 27
0.0
 37
0.0
 40
712.9068773103313
 41
1.968879668049792
 42
50.0
 43
0.0
 44
0.0
 50
0.0
 51
0.0
 71
     0
 72
   100
 73
     1
 74
     3
 75
     0
 76
     0
 77
     0
 78
     0
281
     0
 65
     1
110
0.0
120
0.0
130
0.0
111
1.0
121
0.0
131
0.0
112
0.0
122
1.0
132
0.0
 79
     0
146
0.0
  0
ENDTAB
  0
TABLE
  2
LTYPE
  5
5
330
0
100
AcDbSymbolTable
 70
     5
  0
LTYPE
  5
14
330
5
100
AcDbSymbolTableRecord
100
AcDbLinetypeTableRecord
  2
ByBlock
 70
     0
  3

 72
    65
 73
     0
 40
0.0
  0
LTYPE
  5
15
330
5
100
AcDbSymbolTableRecord
100
AcDbLinetypeTableRecord
  2
ByLayer
 70
     0
  3

 72
    65
 73
     0
 40
0.0
  0
LTYPE
  5
16
330
5
100
AcDbSymbolTableRecord
100
AcDbLinetypeTableRecord
  2
Continuous
 70
     0
  3
Solid line
 72
    65
 73
     0
 40
0.0
  0
LTYPE
  5
33
330
5
100
AcDbSymbolTableRecord
100
AcDbLinetypeTableRecord
  2
DASHED2
 70
     0
  3
Dashed (.5x) _ _ _ _ _ _ _ _ _ _ _ _ _ _ _ _ _
 72
    65
 73
     2
 40
9.524999999999998
 49
6.349999999999999
 74
     0
 49
-3.174999999999999
 74
     0
  0
LTYPE
  5
34
330
5
100
AcDbSymbolTableRecord
100
AcDbLinetypeTableRecord
  2
CENTER2
 70
     0
  3
Center (.5x) ___ _ ___ _ ___ _ ___ _ ___ _ ___
 72
    65
 73
     4
 40
28.57499999999999
 49
19.05
 74
     0
 49
-3.174999999999999
 74
     0
 49
3.174999999999999
 74
     0
 49
-3.174999999999999
 74
     0
  0
LTYPE
  5
35
330
5
100
AcDbSymbolTableRecord
100
AcDbLinetypeTableRecord
  2
PHANTOM2
 70
     0
  3
Phantom (.5x) ___ _ _ ___ _ _ ___ _ _ ___ _ _
 72
    65
 73
     6
 40
31.75
 49
15.875
 74
     0
 49
-3.174999999999999
 74
     0
 49
3.174999999999999
 74
     0
 49
-3.174999999999999
 74
     0
 49
3.174999999999999
 74
     0
 49
-3.174999999999999
 74
     0
  0
LTYPE
  5
36
330
5
100
AcDbSymbolTableRecord
100
AcDbLinetypeTableRecord
  2
HIDDEN2
 70
     0
  3
Hidden (.5x) _ _ _ _ _ _ _ _ _ _ _ _ _ _ _ _ _
 72
    65
 73
     2
 40
4.762499999999999
 49
3.174999999999999
 74
     0
 49
-1.587499999999999
 74
     0
  0
ENDTAB
  0
TABLE
  2
LAYER
  5
2
330
0
100
AcDbSymbolTable
 70
    13
  0
LAYER
  5
10
330
2
100
AcDbSymbolTableRecord
100
AcDbLayerTableRecord
  2
0
 70
     0
 62
     7
  6
Continuous
370
    -3
390
F
  0
LAYER
  5
40
330
2
100
AcDbSymbolTableRecord
100
AcDbLayerTableRecord
  2
50-0-CON
 70
     0
 62
     4
  6
Continuous
370
    50
390
F
  0
LAYER
  5
41
330
2
100
AcDbSymbolTableRecord
100
AcDbLayerTableRecord
  2
70-0-CON
 70
     0
 62
   202
  6
Continuous
370
    70
390
F
  0
LAYER
  5
4E
330
2
100
AcDbSymbolTableRecord
100
AcDbLayerTableRecord
  2
極太線
 70
     0
 62
     7
  6
Continuous
370
    70
390
F
  0
LAYER
  5
4F
330
2
100
AcDbSymbolTableRecord
100
AcDbLayerTableRecord
  2
細線
 70
     0
 62
     8
  6
Continuous
370
    18
390
F
  0
LAYER
  5
AB
330
2
100
AcDbSymbolTableRecord
100
AcDbLayerTableRecord
  2
構築線
 70
     0
 62
    -2
  6
Continuous
290
     0
370
    18
390
F
  0
LAYER
  5
B8
330
2
100
AcDbSymbolTableRecord
100
AcDbLayerTableRecord
  2
太線
 70
     0
 62
     7
  6
Continuous
370
    35
390
F
  0
LAYER
  5
B9
330
2
100
AcDbSymbolTableRecord
100
AcDbLayerTableRecord
  2
寸法線
 70
     0
 62
     5
  6
Continuous
370
    18
390
F
  0
LAYER
  5
BA
330
2
100
AcDbSymbolTableRecord
100
AcDbLayerTableRecord
  2
破線
 70
     0
 62
     8
  6
HIDDEN2
370
    18
390
F
  0
LAYER
  5
BB
330
2
100
AcDbSymbolTableRecord
100
AcDbLayerTableRecord
  2
中心線
 70
     0
 62
     1
  6
CENTER2
370
    18
390
F
  0
LAYER
  5
BC
330
2
100
AcDbSymbolTableRecord
100
AcDbLayerTableRecord
  2
想像線
 70
     0
 62
     8
  6
PHANTOM2
370
    18
390
F
  0
LAYER
  5
BD
330
2
100
AcDbSymbolTableRecord
100
AcDbLayerTableRecord
  2
文字
 70
     0
 62
     7
  6
Continuous
370
    18
390
F
  0
LAYER
  5
180
330
2
100
AcDbSymbolTableRecord
100
AcDbLayerTableRecord
  2
Defpoints
 70
     0
 62
     7
  6
Continuous
290
     0
370
    -3
390
F
  0
ENDTAB
  0
TABLE
  2
STYLE
  5
3
330
0
100
AcDbSymbolTable
 70
     3
  0
STYLE
  5
11
330
3
100
AcDbSymbolTableRecord
100
AcDbTextStyleTableRecord
  2
Standard
 70
     0
 40
0.0
 41
1.0
 50
0.0
 71
     0
 42
3.0
  3
txt
  4

  0
STYLE
  5
32
330
3
100
AcDbSymbolTableRecord
100
AcDbTextStyleTableRecord
  2

 70
     1
 40
0.0
 41
1.0
 50
0.0
 71
     0
 42
2.5
  3
ltypeshp.shx
  4

  0
STYLE
  5
50
330
3
100
AcDbSymbolTableRecord
100
AcDbTextStyleTableRecord
  2
OKANO
 70
     0
 40
0.0
 41
1.0
 50
15.0
 71
     0
 42
5.0
  3
isocp.shx
  4
bigfont.shx
  0
ENDTAB
  0
TABLE
  2
VIEW
  5
6
330
0
100
AcDbSymbolTable
 70
     0
  0
ENDTAB
  0
TABLE
  2
UCS
  5
7
330
0
100
AcDbSymbolTable
 70
     0
  0
ENDTAB
  0
TABLE
  2
APPID
  5
9
330
0
100
AcDbSymbolTable
 70
     1
  0
APPID
  5
12
330
9
100
AcDbSymbolTableRecord
100
AcDbRegAppTableRecord
  2
ACAD
 70
     0
  0
ENDTAB
  0
TABLE
  2
DIMSTYLE
  5
A
330
0
100
AcDbSymbolTable
 70
     2
100
AcDbDimStyleTable
 71
     2
340
A2
340
27
  0
DIMSTYLE
105
27
330
A
100
AcDbSymbolTableRecord
100
AcDbDimStyleTableRecord
  2
ISO-25
 70
     0
 41
2.5
 42
0.625
 43
3.75
 44
1.25
 73
     0
 74
     0
 77
     1
 78
     8
140
2.5
141
2.5
143
0.03937007874016
147
0.625
171
     3
172
     1
271
     2
272
     2
274
     3
283
     0
284
     8
340
11
  0
DIMSTYLE
105
A2
102
{ACAD_REACTORS
330
3882
330
388F
330
38A5
330
38B2
330
38ED
330
38FB
102
}
330
A
100
AcDbSymbolTableRecord
100
AcDbDimStyleTableRecord
  2
sunpo
 70
     0
 40
0.0
 41
3.0
 42
2.0
 43
8.0
 44
3.0
 73
     0
 74
     0
 77
     1
 78
     8
140
5.0
141
2.5
143
0.03937007874016
147
1.0
171
     3
172
     1
271
     2
272
     2
274
     3
283
     0
284
     8
340
50
341
9B
342
9B
  0
ENDTAB
  0
TABLE
  2
BLOCK_RECORD
  5
1
330
0
100
AcDbSymbolTable
 70
     8
  0
BLOCK_RECORD
  5
1F
330
1
100
AcDbSymbolTableRecord
100
AcDbBlockTableRecord
  2
*Model_Space
340
22
  0
BLOCK_RECORD
  5
1B
330
1
100
AcDbSymbolTableRecord
100
AcDbBlockTableRecord
  2
*Paper_Space
340
1E
  0
BLOCK_RECORD
  5
9B
330
1
100
AcDbSymbolTableRecord
100
AcDbBlockTableRecord
  2
_Closed
340
0
102
{BLKREFS
331
3940
331
3946
331
3947
331
394F
331
3950
331
3958
331
3959
331
3961
331
3962
331
396A
331
396B
102
}
  0
BLOCK_RECORD
  5
1510
330
1
100
AcDbSymbolTableRecord
100
AcDbBlockTableRecord
  2
A$C10A573AC
340
0
  0
BLOCK_RECORD
  5
3883
330
1
100
AcDbSymbolTableRecord
100
AcDbBlockTableRecord
  2
*D2
340
0
  0
BLOCK_RECORD
  5
3890
330
1
100
AcDbSymbolTableRecord
100
AcDbBlockTableRecord
  2
*D3
340
0
  0
BLOCK_RECORD
  5
38A6
330
1
100
AcDbSymbolTableRecord
100
AcDbBlockTableRecord
  2
*D4
340
0
  0
BLOCK_RECORD
  5
38B3
330
1
100
AcDbSymbolTableRecord
100
AcDbBlockTableRecord
  2
*D5
340
0
  0
BLOCK_RECORD
  5
38EE
330
1
100
AcDbSymbolTableRecord
100
AcDbBlockTableRecord
  2
*D6
340
0
  0
BLOCK_RECORD
  5
38FC
330
1
100
AcDbSymbolTableRecord
100
AcDbBlockTableRecord
  2
*D7
340
0
  0
ENDTAB
  0
ENDSEC
  0
SECTION
  2
BLOCKS
  0
BLOCK
  5
20
330
1F
100
AcDbEntity
  8
0
100
AcDbBlockBegin
  2
*Model_Space
 70
     0
 10
0.0
 20
0.0
 30
0.0
  3
*Model_Space
  1

  0
ENDBLK
  5
21
330
1F
100
AcDbEntity
  8
0
100
AcDbBlockEnd
  0
BLOCK
  5
1C
330
1B
100
AcDbEntity
 67
     1
  8
0
100
AcDbBlockBegin
  2
*Paper_Space
 70
     0
 10
0.0
 20
0.0
 30
0.0
  3
*Paper_Space
  1

  0
ENDBLK
  5
1D
330
1B
100
AcDbEntity
 67
     1
  8
0
100
AcDbBlockEnd
  0
BLOCK
  5
A0
330
9B
100
AcDbEntity
  8
0
100
AcDbBlockBegin
  2
_Closed
 70
     0
 10
0.0
 20
0.0
 30
0.0
  3
_Closed
  1

  0
LINE
  5
9C
330
9B
100
AcDbEntity
  8
0
 62
     0
370
    -2
100
AcDbLine
 10
-1.0
 20
0.1666666666666666
 30
0.0
 11
0.0
 21
0.0
 31
0.0
  0
LINE
  5
9D
330
9B
100
AcDbEntity
  8
0
 62
     0
370
    -2
100
AcDbLine
 10
0.0
 20
0.0
 30
0.0
 11
-1.0
 21
-0.1666666666666666
 31
0.0
  0
LINE
  5
9E
330
9B
100
AcDbEntity
  8
0
 62
     0
370
    -2
100
AcDbLine
 10
-1.0
 20
0.1666666666666666
 30
0.0
 11
-1.0
 21
-0.1666666666666666
 31
0.0
  0
LINE
  5
9F
330
9B
100
AcDbEntity
  8
0
 62
     0
370
    -2
100
AcDbLine
 10
0.0
 20
0.0
 30
0.0
 11
-1.0
 21
0.0
 31
0.0
  0
ENDBLK
  5
A1
330
9B
100
AcDbEntity
  8
0
100
AcDbBlockEnd
  0
BLOCK
  5
155B
330
1510
100
AcDbEntity
  8
0
100
AcDbBlockBegin
  2
A$C10A573AC
 70
     0
 10
0.0
 20
0.0
 30
0.0
  3
A$C10A573AC
  1

  0
TEXT
  5
1511
330
1510
100
AcDbEntity
  8
文字
100
AcDbText
 10
0.9844302777919438
 20
5.224957122252135
 30
0.0
 40
3.0
  1
Materal : Steel.
 51
15.0
  7
OKANO
100
AcDbText
  0
TEXT
  5
1512
330
1510
100
AcDbEntity
  8
文字
100
AcDbText
 10
-0.1141909619694843
 20
0.7500001922403499
 30
0.0
 40
3.0
  1
Surface treatment : Electro galvanized.
 51
15.0
  7
OKANO
100
AcDbText
  0
TEXT
  5
1513
330
1510
100
AcDbEntity
  8
文字
100
AcDbText
 10
-0.4901926332574931
 20
9.159967445193728
 30
0.0
 40
3.0
  1
5 TORGUE SCREW  M5-6
 51
15.0
  7
OKANO
100
AcDbText
  0
TEXT
  5
1514
330
1510
100
AcDbEntity
  8
文字
100
AcDbText
 10
1.364713526390005
 20
78.88822913323082
 30
0.0
 40
3.0
  1
Special standard,
 51
15.0
  7
OKANO
100
AcDbText
  0
TEXT
  5
1515
330
1510
100
AcDbEntity
  8
文字
100
AcDbText
 10
92.88160823408942
 20
89.92753849837379
 30
0.0
 40
3.0
  1
Screw Type
 51
15.0
  7
OKANO
100
AcDbText
  0
LINE
  5
1516
330
1510
100
AcDbEntity
  8
太線
100
AcDbLine
 10
113.9464587597784
 20
81.93930390144641
 30
0.0
 11
112.4464587597784
 21
81.93930390144641
 31
0.0
  0
LINE
  5
1517
330
1510
100
AcDbEntity
  8
太線
100
AcDbLine
 10
112.4464587597784
 20
76.9393039014464
 30
0.0
 11
121.4644995438761
 21
76.9393039014464
 31
0.0
  0
TEXT
  5
1518
330
1510
100
AcDbEntity
  8
文字
100
AcDbText
 10
93.46068240437217
 20
77.96976862235396
 30
0.0
 40
2.0
  1
17-30
 51
15.0
  7
OKANO
100
AcDbText
  0
LINE
  5
1519
330
1510
100
AcDbEntity
  8
太線
100
AcDbLine
 10
111.9464587597784
 20
81.43930390144641
 30
0.0
 11
111.9464587597784
 21
77.4393039014464
 31
0.0
  0
LINE
  5
151A
330
1510
100
AcDbEntity
  8
太線
100
AcDbLine
 10
91.94645875977846
 20
81.43930390144641
 30
0.0
 11
91.94645875977846
 21
77.43930390144639
 31
0.0
  0
LINE
  5
151B
330
1510
100
AcDbEntity
  8
太線
100
AcDbLine
 10
101.9644995438761
 20
77.4393039014464
 30
0.0
 11
101.9644995438761
 21
81.43930390144641
 31
0.0
  0
LINE
  5
151C
330
1510
100
AcDbEntity
  8
太線
100
AcDbLine
 10
92.44645875977846
 20
76.9393039014464
 30
0.0
 11
101.4644995438761
 21
76.9393039014464
 31
0.0
  0
ARC
  5
151D
330
1510
100
AcDbEntity
  8
太線
100
AcDbCircle
 10
92.44645875977846
 20
77.43930390144639
 30
0.0
 40
0.5
100
AcDbArc
 50
180.0
 51
270.0
  0
ARC
  5
151E
330
1510
100
AcDbEntity
  8
太線
100
AcDbCircle
 10
101.4644995438761
 20
77.4393039014464
 30
0.0
 40
0.5
100
AcDbArc
 50
270.0
 51
0.0
  0
ARC
  5
151F
330
1510
100
AcDbEntity
  8
太線
100
AcDbCircle
 10
112.4464587597784
 20
77.4393039014464
 30
0.0
 40
0.5
100
AcDbArc
 50
180.0
 51
270.0
  0
LINE
  5
1520
330
1510
100
AcDbEntity
  8
想像線
100
AcDbLine
 10
93.94645875977847
 20
81.93930390144641
 30
0.0
 11
99.96449954387617
 21
81.93930390144641
 31
0.0
  0
LINE
  5
1521
330
1510
100
AcDbEntity
  8
極太線
100
AcDbLine
 10
96.38762957111168
 20
85.43930390144641
 30
0.0
 11
97.50528794844525
 21
85.43930390144641
 31
0.0
  0
CIRCLE
  5
1522
330
1510
100
AcDbEntity
  8
太線
100
AcDbCircle
 10
96.94645875977847
 20
85.43930390144641
 30
0.0
 40
0.5588291886667776
  0
LINE
  5
1523
330
1510
100
AcDbEntity
  8
太線
100
AcDbLine
 10
99.46449954387617
 20
86.93930390144641
 30
0.0
 11
94.44645875977846
 21
86.93930390144641
 31
0.0
  0
LINE
  5
1524
330
1510
100
AcDbEntity
  8
太線
100
AcDbLine
 10
93.94645875977847
 20
86.43930390144641
 30
0.0
 11
93.94645875977847
 21
81.93930390144641
 31
0.0
  0
ARC
  5
1525
330
1510
100
AcDbEntity
  8
太線
100
AcDbCircle
 10
92.44645875977846
 20
81.43930390144641
 30
0.0
 40
0.5
100
AcDbArc
 50
90.0
 51
180.0
  0
LINE
  5
1526
330
1510
100
AcDbEntity
  8
太線
100
AcDbLine
 10
93.94645875977847
 20
81.93930390144641
 30
0.0
 11
92.44645875977846
 21
81.93930390144641
 31
0.0
  0
ARC
  5
1527
330
1510
100
AcDbEntity
  8
太線
100
AcDbCircle
 10
94.44645875977846
 20
86.43930390144641
 30
0.0
 40
0.5
100
AcDbArc
 50
90.0
 51
180.0
  0
LINE
  5
1528
330
1510
100
AcDbEntity
  8
太線
100
AcDbLine
 10
99.96449954387617
 20
81.93930390144641
 30
0.0
 11
99.96449954387617
 21
86.43930390144641
 31
0.0
  0
LINE
  5
1529
330
1510
100
AcDbEntity
  8
太線
100
AcDbLine
 10
101.4644995438761
 20
81.93930390144641
 30
0.0
 11
99.96449954387617
 21
81.93930390144641
 31
0.0
  0
ARC
  5
152A
330
1510
100
AcDbEntity
  8
太線
100
AcDbCircle
 10
101.4644995438761
 20
81.43930390144641
 30
0.0
 40
0.5
100
AcDbArc
 50
0.0
 51
90.0
  0
ARC
  5
152B
330
1510
100
AcDbEntity
  8
太線
100
AcDbCircle
 10
99.46449954387617
 20
86.43930390144641
 30
0.0
 40
0.5
100
AcDbArc
 50
0.0
 51
90.0
  0
LINE
  5
152C
330
1510
100
AcDbEntity
  8
極太線
100
AcDbLine
 10
96.94645875977847
 20
85.99813309011318
 30
0.0
 11
96.94645875977847
 21
84.88047471277964
 31
0.0
  0
ARC
  5
152D
330
1510
100
AcDbEntity
  8
太線
100
AcDbCircle
 10
112.4464587597784
 20
81.43930390144641
 30
0.0
 40
0.5
100
AcDbArc
 50
90.0
 51
180.0
  0
TEXT
  5
152E
330
1510
100
AcDbEntity
  8
文字
100
AcDbText
 10
134.3819212586066
 20
78.16263579228063
 30
0.0
 40
2.0
  1
101
 51
15.0
  7
OKANO
100
AcDbText
  0
TEXT
  5
152F
330
1510
100
AcDbEntity
  8
文字
100
AcDbText
 10
113.3422276612066
 20
77.96976862235396
 30
0.0
 40
2.0
  1
38-83
 51
15.0
  7
OKANO
100
AcDbText
  0
LINE
  5
1530
330
1510
100
AcDbEntity
  8
太線
100
AcDbLine
 10
141.9825403279738
 20
77.4393039014464
 30
0.0
 11
141.9825403279738
 21
81.43930390144641
 31
0.0
  0
LINE
  5
1531
330
1510
100
AcDbEntity
  8
太線
100
AcDbLine
 10
131.9644995438761
 20
81.43930390144641
 30
0.0
 11
131.9644995438761
 21
77.4393039014464
 31
0.0
  0
LINE
  5
1532
330
1510
100
AcDbEntity
  8
太線
100
AcDbLine
 10
121.9644995438761
 20
77.4393039014464
 30
0.0
 11
121.9644995438761
 21
81.43930390144641
 31
0.0
  0
ARC
  5
1533
330
1510
100
AcDbEntity
  8
太線
100
AcDbCircle
 10
121.4644995438761
 20
77.4393039014464
 30
0.0
 40
0.5
100
AcDbArc
 50
270.0
 51
0.0
  0
LINE
  5
1534
330
1510
100
AcDbEntity
  8
太線
100
AcDbLine
 10
132.4644995438761
 20
76.9393039014464
 30
0.0
 11
141.4825403279738
 21
76.9393039014464
 31
0.0
  0
ARC
  5
1535
330
1510
100
AcDbEntity
  8
太線
100
AcDbCircle
 10
132.4644995438761
 20
77.4393039014464
 30
0.0
 40
0.5
100
AcDbArc
 50
180.0
 51
270.0
  0
ARC
  5
1536
330
1510
100
AcDbEntity
  8
太線
100
AcDbCircle
 10
141.4825403279738
 20
77.4393039014464
 30
0.0
 40
0.5
100
AcDbArc
 50
270.0
 51
0.0
  0
ARC
  5
1537
330
1510
100
AcDbEntity
  8
太線
100
AcDbCircle
 10
121.4644995438761
 20
81.43930390144641
 30
0.0
 40
0.5
100
AcDbArc
 50
0.0
 51
90.0
  0
LINE
  5
1538
330
1510
100
AcDbEntity
  8
太線
100
AcDbLine
 10
119.9644995438761
 20
81.93930390144641
 30
0.0
 11
119.9644995438761
 21
86.43930390144641
 31
0.0
  0
LINE
  5
1539
330
1510
100
AcDbEntity
  8
太線
100
AcDbLine
 10
113.9464587597784
 20
86.43930390144641
 30
0.0
 11
113.9464587597784
 21
81.93930390144641
 31
0.0
  0
LINE
  5
153A
330
1510
100
AcDbEntity
  8
想像線
100
AcDbLine
 10
113.9464587597784
 20
81.93930390144641
 30
0.0
 11
119.9644995438761
 21
81.93930390144641
 31
0.0
  0
LINE
  5
153B
330
1510
100
AcDbEntity
  8
太線
100
AcDbLine
 10
121.4644995438761
 20
81.93930390144641
 30
0.0
 11
119.9644995438761
 21
81.93930390144641
 31
0.0
  0
LINE
  5
153C
330
1510
100
AcDbEntity
  8
太線
100
AcDbLine
 10
119.4644995438761
 20
86.93930390144641
 30
0.0
 11
114.4464587597784
 21
86.93930390144641
 31
0.0
  0
ARC
  5
153D
330
1510
100
AcDbEntity
  8
太線
100
AcDbCircle
 10
114.4464587597784
 20
86.43930390144641
 30
0.0
 40
0.5
100
AcDbArc
 50
90.0
 51
180.0
  0
CIRCLE
  5
153E
330
1510
100
AcDbEntity
  8
太線
100
AcDbCircle
 10
115.4464587597784
 20
85.43930390144641
 30
0.0
 40
0.5588291886667776
  0
LINE
  5
153F
330
1510
100
AcDbEntity
  8
極太線
100
AcDbLine
 10
115.4464587597784
 20
85.99813309011318
 30
0.0
 11
115.4464587597784
 21
84.88047471277964
 31
0.0
  0
LINE
  5
1540
330
1510
100
AcDbEntity
  8
極太線
100
AcDbLine
 10
114.8876295711116
 20
85.43930390144641
 30
0.0
 11
116.0052879484452
 21
85.43930390144641
 31
0.0
  0
ARC
  5
1541
330
1510
100
AcDbEntity
  8
太線
100
AcDbCircle
 10
119.4644995438761
 20
86.43930390144641
 30
0.0
 40
0.5
100
AcDbArc
 50
0.0
 51
90.0
  0
LINE
  5
1542
330
1510
100
AcDbEntity
  8
極太線
100
AcDbLine
 10
117.9056703552094
 20
85.43930390144641
 30
0.0
 11
119.0233287325429
 21
85.43930390144641
 31
0.0
  0
LINE
  5
1543
330
1510
100
AcDbEntity
  8
極太線
100
AcDbLine
 10
118.4644995438761
 20
85.99813309011318
 30
0.0
 11
118.4644995438761
 21
84.88047471277964
 31
0.0
  0
CIRCLE
  5
1544
330
1510
100
AcDbEntity
  8
太線
100
AcDbCircle
 10
118.4644995438761
 20
85.43930390144641
 30
0.0
 40
0.5588291886667776
  0
LINE
  5
1545
330
1510
100
AcDbEntity
  8
想像線
100
AcDbLine
 10
133.9644995438761
 20
81.93930390144641
 30
0.0
 11
139.9825403279738
 21
81.93930390144641
 31
0.0
  0
LINE
  5
1546
330
1510
100
AcDbEntity
  8
極太線
100
AcDbLine
 10
137.9237111393071
 20
85.43930390144641
 30
0.0
 11
139.0413695166406
 21
85.43930390144641
 31
0.0
  0
CIRCLE
  5
1547
330
1510
100
AcDbEntity
  8
太線
100
AcDbCircle
 10
138.4825403279738
 20
85.43930390144641
 30
0.0
 40
0.5588291886667776
  0
CIRCLE
  5
1548
330
1510
100
AcDbEntity
  8
太線
100
AcDbCircle
 10
138.4825403279738
 20
83.26342923362075
 30
0.0
 40
0.5588291886667776
  0
LINE
  5
1549
330
1510
100
AcDbEntity
  8
極太線
100
AcDbLine
 10
137.9237111393071
 20
83.26342923362075
 30
0.0
 11
139.0413695166406
 21
83.26342923362075
 31
0.0
  0
LINE
  5
154A
330
1510
100
AcDbEntity
  8
太線
100
AcDbLine
 10
139.4825403279738
 20
86.93930390144641
 30
0.0
 11
134.4644995438761
 21
86.93930390144641
 31
0.0
  0
LINE
  5
154B
330
1510
100
AcDbEntity
  8
太線
100
AcDbLine
 10
133.9644995438761
 20
86.43930390144641
 30
0.0
 11
133.9644995438761
 21
81.93930390144641
 31
0.0
  0
ARC
  5
154C
330
1510
100
AcDbEntity
  8
太線
100
AcDbCircle
 10
132.4644995438761
 20
81.43930390144641
 30
0.0
 40
0.5
100
AcDbArc
 50
90.0
 51
180.0
  0
LINE
  5
154D
330
1510
100
AcDbEntity
  8
太線
100
AcDbLine
 10
133.9644995438761
 20
81.93930390144641
 30
0.0
 11
132.4644995438761
 21
81.93930390144641
 31
0.0
  0
LINE
  5
154E
330
1510
100
AcDbEntity
  8
極太線
100
AcDbLine
 10
134.9056703552093
 20
83.26342923362075
 30
0.0
 11
136.0233287325429
 21
83.26342923362075
 31
0.0
  0
LINE
  5
154F
330
1510
100
AcDbEntity
  8
極太線
100
AcDbLine
 10
135.4644995438761
 20
83.82225842228752
 30
0.0
 11
135.4644995438761
 21
82.70460004495395
 31
0.0
  0
CIRCLE
  5
1550
330
1510
100
AcDbEntity
  8
太線
100
AcDbCircle
 10
135.4644995438761
 20
83.26342923362075
 30
0.0
 40
0.5588291886667776
  0
ARC
  5
1551
330
1510
100
AcDbEntity
  8
太線
100
AcDbCircle
 10
134.4644995438761
 20
86.43930390144641
 30
0.0
 40
0.5
100
AcDbArc
 50
90.0
 51
180.0
  0
CIRCLE
  5
1552
330
1510
100
AcDbEntity
  8
太線
100
AcDbCircle
 10
135.4644995438761
 20
85.43930390144641
 30
0.0
 40
0.5588291886667776
  0
LINE
  5
1553
330
1510
100
AcDbEntity
  8
極太線
100
AcDbLine
 10
135.4644995438761
 20
85.99813309011318
 30
0.0
 11
135.4644995438761
 21
84.88047471277964
 31
0.0
  0
LINE
  5
1554
330
1510
100
AcDbEntity
  8
極太線
100
AcDbLine
 10
134.9056703552093
 20
85.43930390144641
 30
0.0
 11
136.0233287325429
 21
85.43930390144641
 31
0.0
  0
LINE
  5
1555
330
1510
100
AcDbEntity
  8
太線
100
AcDbLine
 10
139.9825403279738
 20
81.93930390144641
 30
0.0
 11
139.9825403279738
 21
86.43930390144641
 31
0.0
  0
ARC
  5
1556
330
1510
100
AcDbEntity
  8
太線
100
AcDbCircle
 10
141.4825403279738
 20
81.43930390144641
 30
0.0
 40
0.5
100
AcDbArc
 50
0.0
 51
90.0
  0
LINE
  5
1557
330
1510
100
AcDbEntity
  8
極太線
100
AcDbLine
 10
138.4825403279738
 20
83.82225842228752
 30
0.0
 11
138.4825403279738
 21
82.70460004495395
 31
0.0
  0
LINE
  5
1558
330
1510
100
AcDbEntity
  8
太線
100
AcDbLine
 10
141.4825403279738
 20
81.93930390144641
 30
0.0
 11
139.9825403279738
 21
81.93930390144641
 31
0.0
  0
ARC
  5
1559
330
1510
100
AcDbEntity
  8
太線
100
AcDbCircle
 10
139.4825403279738
 20
86.43930390144641
 30
0.0
 40
0.5
100
AcDbArc
 50
0.0
 51
90.0
  0
LINE
  5
155A
330
1510
100
AcDbEntity
  8
極太線
100
AcDbLine
 10
138.4825403279738
 20
85.99813309011318
 30
0.0
 11
138.4825403279738
 21
84.88047471277964
 31
0.0
  0
ENDBLK
  5
155C
330
1510
100
AcDbEntity
  8
0
100
AcDbBlockEnd
  0
BLOCK
  5
388D
330
3883
100
AcDbEntity
  8
0
100
AcDbBlockBegin
  2
*D2
 70
     1
 10
0.0
 20
0.0
 30
0.0
  3
*D2
  1

  0
LINE
  5
394C
330
3883
100
AcDbEntity
  8
寸法線
 62
     0
370
    -2
100
AcDbLine
 10
434.260786639869
 20
205.1971269795478
 30
0.0
 11
400.6378280727231
 21
216.0977569182247
 31
0.0
  0
LINE
  5
394D
330
3883
100
AcDbEntity
  8
寸法線
 62
     0
370
    -2
100
AcDbLine
 10
452.8956316172785
 20
262.6762473703349
 30
0.0
 11
419.2726730501326
 21
273.5768773090118
 31
0.0
  0
LINE
  5
394E
330
3883
100
AcDbEntity
  8
寸法線
 62
     0
370
    -2
100
AcDbLine
 10
404.4167971560808
 20
218.0263296202577
 30
0.0
 11
421.2012457521656
 21
269.7979082256541
 31
0.0
  0
INSERT
  5
394F
330
3883
100
AcDbEntity
  8
寸法線
 62
     0
370
    -2
100
AcDbBlockReference
  2
_Closed
 10
403.4915989654184
 20
215.1725587275624
 30
0.0
 41
3.0
 42
3.0
 43
3.0
 50
252.0372028360099
  0
INSERT
  5
3950
330
3883
100
AcDbEntity
  8
寸法線
 62
     0
370
    -2
100
AcDbBlockReference
  2
_Closed
 10
422.126443942828
 20
272.6516791183495
 30
0.0
 41
3.0
 42
3.0
 43
3.0
 50
72.03720283600993
  0
MTEXT
  5
3951
330
3883
100
AcDbEntity
  8
寸法線
 62
     0
100
AcDbMText
 10
409.4796220793119
 20
244.9915168120621
 30
0.0
 40
5.0
 41
0.0
 71
     5
 72
     1
  1
60
  7
OKANO
 11
0.3083993968874583
 21
0.9512569642317746
 31
0.0
 73
     1
 44
1.0
  0
POINT
  5
3952
330
3883
100
AcDbEntity
  8
Defpoints
 62
     0
100
AcDbPoint
 10
436.1633005683325
 20
204.5803281857729
 30
0.0
  0
POINT
  5
3953
330
3883
100
AcDbEntity
  8
Defpoints
 62
     0
100
AcDbPoint
 10
454.7981455457421
 20
262.05944857656
 30
0.0
  0
POINT
  5
3954
330
3883
100
AcDbEntity
  8
Defpoints
 62
     0
100
AcDbPoint
 10
422.126443942828
 20
272.6516791183495
 30
0.0
  0
ENDBLK
  5
388E
330
3883
100
AcDbEntity
  8
0
100
AcDbBlockEnd
  0
BLOCK
  5
389A
330
3890
100
AcDbEntity
  8
0
100
AcDbBlockBegin
  2
*D3
 70
     1
 10
0.0
 20
0.0
 30
0.0
  3
*D3
  1

  0
LINE
  5
3967
330
3890
100
AcDbEntity
  8
寸法線
 62
     0
370
    -2
100
AcDbLine
 10
451.4735340938182
 20
266.2913227223558
 30
0.0
 11
458.7090395322427
 21
290.3426962700289
 31
0.0
  0
LINE
  5
3968
330
3890
100
AcDbEntity
  8
寸法線
 62
     0
370
    -2
100
AcDbLine
 10
515.493604253386
 20
247.03181702761
 30
0.0
 11
522.7291096918104
 21
271.0831905752832
 31
0.0
  0
LINE
  5
3969
330
3890
100
AcDbEntity
  8
寸法線
 62
     0
370
    -2
100
AcDbLine
 10
460.71761169092
 20
286.6056335352884
 30
0.0
 11
518.99204695707
 21
269.0746184166058
 31
0.0
  0
INSERT
  5
396A
330
3890
100
AcDbEntity
  8
寸法線
 62
     0
370
    -2
100
AcDbBlockReference
  2
_Closed
 10
457.8447942442111
 20
287.46987882332
 30
0.0
 41
3.0
 42
3.0
 43
3.0
 50
163.2568512506153
  0
INSERT
  5
396B
330
3890
100
AcDbEntity
  8
寸法線
 62
     0
370
    -2
100
AcDbBlockReference
  2
_Closed
 10
521.8648644037789
 20
268.2103731285743
 30
0.0
 41
3.0
 42
3.0
 43
3.0
 50
343.2568512506154
  0
MTEXT
  5
396C
330
3890
100
AcDbEntity
  8
寸法線
 62
     0
100
AcDbMText
 10
490.8631154933651
 20
281.1917463304408
 30
0.0
 40
5.0
 41
0.0
 71
     5
 72
     1
  1
63
  7
OKANO
 11
0.9576058155696461
 21
-0.2880817626771831
 31
0.0
 73
     1
 44
1.0
  0
POINT
  5
396D
330
3890
100
AcDbEntity
  8
Defpoints
 62
     0
100
AcDbPoint
 10
450.8973705684638
 20
264.3761110912165
 30
0.0
  0
POINT
  5
396E
330
3890
100
AcDbEntity
  8
Defpoints
 62
     0
100
AcDbPoint
 10
514.9174407280315
 20
245.1166053964707
 30
0.0
  0
POINT
  5
396F
330
3890
100
AcDbEntity
  8
Defpoints
 62
     0
100
AcDbPoint
 10
521.8648644037789
 20
268.2103731285743
 30
0.0
  0
ENDBLK
  5
389B
330
3890
100
AcDbEntity
  8
0
100
AcDbBlockEnd
  0
BLOCK
  5
38B0
330
38A6
100
AcDbEntity
  8
0
100
AcDbBlockBegin
  2
*D4
 70
     1
 10
0.0
 20
0.0
 30
0.0
  3
*D4
  1

  0
LINE
  5
395E
330
38A6
100
AcDbEntity
  8
寸法線
 62
     0
370
    -2
100
AcDbLine
 10
549.3368343692091
 20
168.8299433011425
 30
0.0
 11
549.3368343692091
 21
166.4542653456692
 31
0.0
  0
LINE
  5
395F
330
38A6
100
AcDbEntity
  8
寸法線
 62
     0
370
    -2
100
AcDbLine
 10
585.8213912933534
 20
168.8299433011425
 30
0.0
 11
585.8213912933534
 21
166.4542653456692
 31
0.0
  0
LINE
  5
3960
330
38A6
100
AcDbEntity
  8
寸法線
 62
     0
370
    -2
100
AcDbLine
 10
552.3368343692091
 20
169.4542653456692
 30
0.0
 11
582.8213912933533
 21
169.4542653456692
 31
0.0
  0
INSERT
  5
3961
330
38A6
100
AcDbEntity
  8
寸法線
 62
     0
370
    -2
100
AcDbBlockReference
  2
_Closed
 10
549.3368343692091
 20
169.4542653456692
 30
0.0
 41
3.0
 42
3.0
 43
3.0
 50
180.0
  0
INSERT
  5
3962
330
38A6
100
AcDbEntity
  8
寸法線
 62
     0
370
    -2
100
AcDbBlockReference
  2
_Closed
 10
585.8213912933534
 20
169.4542653456692
 30
0.0
 41
3.0
 42
3.0
 43
3.0
  0
MTEXT
  5
3963
330
38A6
100
AcDbEntity
  8
寸法線
 62
     0
100
AcDbMText
 10
567.5791128312812
 20
172.9542653456692
 30
0.0
 40
5.0
 41
0.0
 71
     5
 72
     1
  1
40
  7
OKANO
 73
     1
 44
1.0
  0
POINT
  5
3964
330
38A6
100
AcDbEntity
  8
Defpoints
 62
     0
100
AcDbPoint
 10
549.3368343692091
 20
170.8299433011425
 30
0.0
  0
POINT
  5
3965
330
38A6
100
AcDbEntity
  8
Defpoints
 62
     0
100
AcDbPoint
 10
585.8213912933534
 20
170.8299433011425
 30
0.0
  0
POINT
  5
3966
330
38A6
100
AcDbEntity
  8
Defpoints
 62
     0
100
AcDbPoint
 10
585.8213912933534
 20
169.4542653456692
 30
0.0
  0
ENDBLK
  5
38B1
330
38A6
100
AcDbEntity
  8
0
100
AcDbBlockEnd
  0
BLOCK
  5
38BD
330
38B3
100
AcDbEntity
  8
0
100
AcDbBlockBegin
  2
*D5
 70
     1
 10
0.0
 20
0.0
 30
0.0
  3
*D5
  1

  0
LINE
  5
3955
330
38B3
100
AcDbEntity
  8
寸法線
 62
     0
370
    -2
100
AcDbLine
 10
531.4387511855629
 20
168.8299433011425
 30
0.0
 11
531.4387511855629
 21
116.9298231533325
 31
0.0
  0
LINE
  5
3956
330
38B3
100
AcDbEntity
  8
寸法線
 62
     0
370
    -2
100
AcDbLine
 10
602.3426975570892
 20
168.8299433011425
 30
0.0
 11
602.3426975570892
 21
116.9298231533325
 31
0.0
  0
LINE
  5
3957
330
38B3
100
AcDbEntity
  8
寸法線
 62
     0
370
    -2
100
AcDbLine
 10
534.438751185563
 20
119.9298231533325
 30
0.0
 11
599.3426975570891
 21
119.9298231533325
 31
0.0
  0
INSERT
  5
3958
330
38B3
100
AcDbEntity
  8
寸法線
 62
     0
370
    -2
100
AcDbBlockReference
  2
_Closed
 10
531.4387511855629
 20
119.9298231533325
 30
0.0
 41
3.0
 42
3.0
 43
3.0
 50
180.0
  0
INSERT
  5
3959
330
38B3
100
AcDbEntity
  8
寸法線
 62
     0
370
    -2
100
AcDbBlockReference
  2
_Closed
 10
602.3426975570892
 20
119.9298231533325
 30
0.0
 41
3.0
 42
3.0
 43
3.0
  0
MTEXT
  5
395A
330
38B3
100
AcDbEntity
  8
寸法線
 62
     0
100
AcDbMText
 10
566.8907243713261
 20
123.4298231533325
 30
0.0
 40
5.0
 41
0.0
 71
     5
 72
     1
  1
70
  7
OKANO
 73
     1
 44
1.0
  0
POINT
  5
395B
330
38B3
100
AcDbEntity
  8
Defpoints
 62
     0
100
AcDbPoint
 10
531.4387511855629
 20
170.8299433011425
 30
0.0
  0
POINT
  5
395C
330
38B3
100
AcDbEntity
  8
Defpoints
 62
     0
100
AcDbPoint
 10
602.3426975570892
 20
170.8299433011425
 30
0.0
  0
POINT
  5
395D
330
38B3
100
AcDbEntity
  8
Defpoints
 62
     0
100
AcDbPoint
 10
602.3426975570892
 20
119.9298231533325
 30
0.0
  0
ENDBLK
  5
38BE
330
38B3
100
AcDbEntity
  8
0
100
AcDbBlockEnd
  0
BLOCK
  5
38F4
330
38EE
100
AcDbEntity
  8
0
100
AcDbBlockBegin
  2
*D6
 70
     1
 10
0.0
 20
0.0
 30
0.0
  3
*D6
  1

  0
LINE
  5
393E
330
38EE
100
AcDbEntity
  8
寸法線
 62
     0
370
    -2
100
AcDbLine
 10
322.1194012269953
 20
253.719055224272
 30
0.0
 11
339.352548753783
 21
265.0879942975137
 31
0.0
  0
MTEXT
  5
393F
330
38EE
100
AcDbEntity
  8
寸法線
 62
     0
100
AcDbMText
 10
324.3728537491894
 20
259.3993037540309
 30
0.0
 40
5.0
 41
0.0
 71
     5
 72
     1
  1
125
  7
OKANO
 11
0.8347193571756012
 21
0.5506755803159887
 31
0.0
 73
     1
 44
1.0
  0
INSERT
  5
3940
330
38EE
100
AcDbEntity
  8
寸法線
 62
     0
370
    -2
100
AcDbBlockReference
  2
_Closed
 10
341.8567068253098
 20
266.7400210384617
 30
0.0
 41
3.0
 42
3.0
 43
3.0
 50
33.4133729540541
  0
POINT
  5
3941
330
38EE
100
AcDbEntity
  8
Defpoints
 62
     0
100
AcDbPoint
 10
341.8567068253098
 20
266.7400210384617
 30
0.0
  0
POINT
  5
3942
330
38EE
100
AcDbEntity
  8
Defpoints
 62
     0
100
AcDbPoint
 10
129.0430041079893
 20
126.3439606911979
 30
0.0
  0
ENDBLK
  5
38F5
330
38EE
100
AcDbEntity
  8
0
100
AcDbBlockEnd
  0
BLOCK
  5
3906
330
38FC
100
AcDbEntity
  8
0
100
AcDbBlockBegin
  2
*D7
 70
     1
 10
0.0
 20
0.0
 30
0.0
  3
*D7
  1

  0
LINE
  5
3943
330
38FC
100
AcDbEntity
  8
寸法線
 62
     0
370
    -2
100
AcDbLine
 10
592.9281970019173
 20
206.1450363677545
 30
0.0
 11
627.1248182803065
 21
206.1450363677545
 31
0.0
  0
LINE
  5
3944
330
38FC
100
AcDbEntity
  8
寸法線
 62
     0
370
    -2
100
AcDbLine
 10
591.6986935974055
 20
231.9440624717708
 30
0.0
 11
627.1248182803065
 21
231.9440624717708
 31
0.0
  0
LINE
  5
3945
330
38FC
100
AcDbEntity
  8
寸法線
 62
     0
370
    -2
100
AcDbLine
 10
624.1248182803066
 20
209.1450363677545
 30
0.0
 11
624.1248182803066
 21
228.9440624717708
 31
0.0
  0
INSERT
  5
3946
330
38FC
100
AcDbEntity
  8
寸法線
 62
     0
370
    -2
100
AcDbBlockReference
  2
_Closed
 10
624.1248182803066
 20
206.1450363677545
 30
0.0
 41
3.0
 42
3.0
 43
3.0
 50
270.0
  0
INSERT
  5
3947
330
38FC
100
AcDbEntity
  8
寸法線
 62
     0
370
    -2
100
AcDbBlockReference
  2
_Closed
 10
624.1248182803066
 20
231.9440624717708
 30
0.0
 41
3.0
 42
3.0
 43
3.0
 50
90.0
  0
MTEXT
  5
3948
330
38FC
100
AcDbEntity
  8
寸法線
 62
     0
100
AcDbMText
 10
620.6243261543224
 20
219.0445494197628
 30
0.0
 40
5.0
 41
0.0
 71
     5
 72
     1
  1
25
  7
OKANO
 11
0.0000000000000001
 21
1.0
 31
0.0
 73
     1
 44
1.0
  0
POINT
  5
3949
330
38FC
100
AcDbEntity
  8
Defpoints
 62
     0
100
AcDbPoint
 10
590.9281970019174
 20
206.1450363677545
 30
0.0
  0
POINT
  5
394A
330
38FC
100
AcDbEntity
  8
Defpoints
 62
     0
100
AcDbPoint
 10
589.6986935974054
 20
231.9440624717708
 30
0.0
  0
POINT
  5
394B
330
38FC
100
AcDbEntity
  8
Defpoints
 62
     0
100
AcDbPoint
 10
624.1248182803066
 20
231.9440624717708
 30
0.0
  0
ENDBLK
  5
3907
330
38FC
100
AcDbEntity
  8
0
100
AcDbBlockEnd
  0
ENDSEC
  0
SECTION
  2
ENTITIES
  0
TEXT
  5
29C1
330
1F
100
AcDbEntity
  8
文字
100
AcDbText
 10
511.7076641785316
 20
7.129603221817774
 30
0.0
 40
4.679999999999999
  1
３Ｐ－48.6　1.5 ton　ピラミット
 51
15.0
  7
OKANO
100
AcDbText
  0
TEXT
  5
29C2
330
1F
100
AcDbEntity
  8
文字
100
AcDbText
 10
520.4234579069239
 20
-1.906508645784064
 30
0.0
 40
6.24
  1
joint kogyo T.okano
 51
15.0
  7
OKANO
100
AcDbText
  0
TEXT
  5
29C3
330
1F
100
AcDbEntity
  8
文字
100
AcDbText
 10
510.6886509915879
 20
17.27157431369002
 30
0.0
 40
6.24
  1
F-999-20080206 Auto CAD
 51
15.0
  7
OKANO
100
AcDbText
  0
LINE
  5
29C4
330
1F
100
AcDbEntity
  8
太線
100
AcDbLine
 10
475.03975435549
 20
16.07452436813058
 30
0.0
 11
615.43975435549
 21
16.07452436813058
 31
0.0
  0
LWPOLYLINE
  5
29C5
330
1F
100
AcDbEntity
  8
太線
100
AcDbPolyline
 90
        4
 70
     1
 43
0.0
 10
475.0397543554899
 20
26.99452436813058
 10
615.43975435549
 20
26.99452436813058
 10
615.43975435549
 20
-5.765475631869423
 10
475.0397543554899
 20
-5.765475631869423
  0
TEXT
  5
29C6
330
1F
100
AcDbEntity
  8
文字
100
AcDbText
 10
480.0738529913647
 20
5.422959029624689
 30
0.0
 40
3.12
  1
CHECK
 51
15.0
  7
OKANO
100
AcDbText
  0
LINE
  5
29C7
330
1F
100
AcDbEntity
  8
太線
100
AcDbLine
 10
506.23975435549
 20
26.99452436813058
 30
0.0
 11
506.23975435549
 21
-5.765475631869422
 31
0.0
  0
TEXT
  5
29C8
330
1F
100
AcDbEntity
  8
文字
100
AcDbText
 10
480.0738529913647
 20
-3.572296858455894
 30
0.0
 40
3.12
  1
ISSUED
 51
15.0
  7
OKANO
100
AcDbText
  0
TEXT
  5
29C9
330
1F
100
AcDbEntity
  8
文字
100
AcDbText
 10
480.4073217541356
 20
0.7587521875927159
 30
0.0
 40
3.12
  1
APPR
 51
15.0
  7
OKANO
100
AcDbText
  0
TEXT
  5
29CA
330
1F
100
AcDbEntity
  8
文字
100
AcDbText
 10
477.7395787741733
 20
18.41610540052528
 30
0.0
 40
3.12
  1
FILM NAME
 51
15.0
  7
OKANO
100
AcDbText
  0
TEXT
  5
29CB
330
1F
100
AcDbEntity
  8
文字
100
AcDbText
 10
479.4069183147049
 20
10.08716510441145
 30
0.0
 40
3.12
  1
DRAWN
 51
15.0
  7
OKANO
100
AcDbText
  0
ARC
  5
3509
330
1F
100
AcDbEntity
  8
太線
100
AcDbCircle
 10
235.4498554666495
 20
196.5419908648298
 30
0.0
 40
29.0
100
AcDbArc
 50
285.9116001663161
 51
74.08839983368382
  0
CIRCLE
  5
3510
330
1F
100
AcDbEntity
  8
太線
100
AcDbCircle
 10
317.7222688261711
 20
149.0419908648295
 30
0.0
 40
24.5
  0
CIRCLE
  5
3511
330
1F
100
AcDbEntity
  8
太線
100
AcDbCircle
 10
317.7222688261709
 20
149.0419908648299
 30
0.0
 40
32.0
  0
ARC
  5
3514
330
1F
100
AcDbEntity
  8
太線
100
AcDbCircle
 10
235.4498554666495
 20
196.5419908648298
 30
0.0
 40
20.0
100
AcDbArc
 50
293.5781784782018
 51
66.42182152179818
  0
ARC
  5
351B
330
1F
100
AcDbEntity
  8
太線
100
AcDbCircle
 10
235.4498554666495
 20
223.5419908648298
 30
0.0
 40
8.0
100
AcDbArc
 50
0.0
 51
180.0
  0
ARC
  5
351C
330
1F
100
AcDbEntity
  8
太線
100
AcDbCircle
 10
235.4498554666495
 20
169.5419908648298
 30
0.0
 40
8.0
100
AcDbArc
 50
180.0
 51
0.0
  0
LINE
  5
351D
330
1F
100
AcDbEntity
  8
太線
100
AcDbLine
 10
243.4498554666495
 20
223.5419908648298
 30
0.0
 11
243.4498554666495
 21
169.5419908648298
 31
0.0
  0
LINE
  5
351E
330
1F
100
AcDbEntity
  8
太線
100
AcDbLine
 10
227.4498554666495
 20
223.5419908648298
 30
0.0
 11
227.4498554666495
 21
169.5419908648298
 31
0.0
  0
ARC
  5
351F
330
1F
100
AcDbEntity
  8
太線
100
AcDbCircle
 10
235.4498554666495
 20
196.5419908648298
 30
0.0
 40
20.0
100
AcDbArc
 50
113.5781784782018
 51
246.4218215217981
  0
ARC
  5
3521
330
1F
100
AcDbEntity
  8
太線
100
AcDbCircle
 10
235.4498554666495
 20
196.5419908648298
 30
0.0
 40
29.0
100
AcDbArc
 50
105.9116001663161
 51
254.0883998336838
  0
LINE
  5
353D
330
1F
100
AcDbEntity
  8
太線
100
AcDbLine
 10
307.3117451598443
 20
179.3012208119527
 30
0.0
 11
277.4498554666495
 21
196.5419908648298
 31
0.0
  0
LINE
  5
353E
330
1F
100
AcDbEntity
  8
太線
100
AcDbLine
 10
277.4498554666495
 20
196.5419908648298
 30
0.0
 11
271.3269878693643
 21
187.3753241981631
 31
0.0
  0
LINE
  5
353F
330
1F
100
AcDbEntity
  8
太線
100
AcDbLine
 10
271.3269878693643
 20
187.3753241981631
 30
0.0
 11
280.0057338295312
 21
182.3646478818323
 31
0.0
  0
LINE
  5
3540
330
1F
100
AcDbEntity
  8
太線
100
AcDbLine
 10
280.0057338295312
 20
182.3646478818323
 30
0.0
 11
268.8732472890125
 21
165.6979812151656
 31
0.0
  0
LINE
  5
3541
330
1F
100
AcDbEntity
  8
太線
100
AcDbLine
 10
268.8732472890125
 20
165.6979812151656
 30
0.0
 11
260.1945013288455
 21
170.7086575314964
 31
0.0
  0
LINE
  5
3542
330
1F
100
AcDbEntity
  8
太線
100
AcDbLine
 10
260.1945013288455
 20
170.7086575314964
 30
0.0
 11
254.0716337315602
 21
161.5419908648298
 31
0.0
  0
LINE
  5
3543
330
1F
100
AcDbEntity
  8
太線
100
AcDbLine
 10
254.0716337315602
 20
161.5419908648298
 30
0.0
 11
286.3117451598445
 21
142.9281538530061
 31
0.0
  0
LINE
  5
3553
330
1F
100
AcDbEntity
  8
太線
100
AcDbLine
 10
263.8245282392762
 20
190.5521707467994
 30
0.0
 11
279.4491095025052
 21
181.531314548499
 31
0.0
  0
LINE
  5
3554
330
1F
100
AcDbEntity
  8
太線
100
AcDbLine
 10
254.8245282392761
 20
174.9637134786796
 30
0.0
 11
269.4298716160384
 21
166.531314548499
 31
0.0
  0
LINE
  5
3556
330
1F
100
AcDbEntity
  8
太線
100
AcDbLine
 10
226.4498554666495
 20
241.5419908648298
 30
0.0
 11
226.4498554666495
 21
224.1100883690102
 31
0.0
  0
LINE
  5
3559
330
1F
100
AcDbEntity
  8
想像線
100
AcDbLine
 10
279.4491095025052
 20
181.531314548499
 30
0.0
 11
291.8680212740552
 21
174.3612524941523
 31
0.0
  0
LINE
  5
355A
330
1F
100
AcDbEntity
  8
想像線
100
AcDbLine
 10
291.8680212740552
 20
174.3612524941523
 30
0.0
 11
282.8680212740552
 21
158.7727952260324
 31
0.0
  0
LINE
  5
355B
330
1F
100
AcDbEntity
  8
想像線
100
AcDbLine
 10
282.8680212740552
 20
158.7727952260324
 30
0.0
 11
269.4298716160384
 21
166.531314548499
 31
0.0
  0
LINE
  5
3564
330
1F
100
AcDbEntity
  8
太線
100
AcDbLine
 10
244.4498554666495
 20
241.5419908648298
 30
0.0
 11
244.4498554666495
 21
224.1100883690102
 31
0.0
  0
CIRCLE
  5
3572
330
1F
100
AcDbEntity
  8
太線
100
AcDbCircle
 10
235.4498554666495
 20
291.5419908648298
 30
0.0
 40
32.0
  0
CIRCLE
  5
3573
330
1F
100
AcDbEntity
  8
太線
100
AcDbCircle
 10
235.4498554666495
 20
291.5419908648298
 30
0.0
 40
24.5
  0
LINE
  5
357C
330
1F
100
AcDbEntity
  8
想像線
100
AcDbLine
 10
244.4498554666495
 20
241.5419908648298
 30
0.0
 11
244.4498554666495
 21
256.4919248743044
 31
0.0
  0
LINE
  5
357D
330
1F
100
AcDbEntity
  8
想像線
100
AcDbLine
 10
244.4498554666495
 20
256.4919248743044
 30
0.0
 11
226.4498554666495
 21
256.4919248743044
 31
0.0
  0
LINE
  5
357E
330
1F
100
AcDbEntity
  8
想像線
100
AcDbLine
 10
226.4498554666495
 20
256.4919248743044
 30
0.0
 11
226.4498554666495
 21
241.5419908648298
 31
0.0
  0
LINE
  5
357F
330
1F
100
AcDbEntity
  8
太線
100
AcDbLine
 10
214.4498554666495
 20
267.3965979295305
 30
0.0
 11
214.4498554666495
 21
231.5419908648298
 31
0.0
  0
LINE
  5
3580
330
1F
100
AcDbEntity
  8
太線
100
AcDbLine
 10
214.4498554666495
 20
231.5419908648298
 30
0.0
 11
225.4498554666495
 21
231.5419908648298
 31
0.0
  0
LINE
  5
3581
330
1F
100
AcDbEntity
  8
太線
100
AcDbLine
 10
225.4498554666495
 20
231.5419908648298
 30
0.0
 11
225.4498554666495
 21
241.5419908648298
 31
0.0
  0
LINE
  5
3582
330
1F
100
AcDbEntity
  8
太線
100
AcDbLine
 10
225.4498554666495
 20
241.5419908648298
 30
0.0
 11
245.4498554666495
 21
241.5419908648298
 31
0.0
  0
LINE
  5
3583
330
1F
100
AcDbEntity
  8
太線
100
AcDbLine
 10
245.4498554666495
 20
241.5419908648298
 30
0.0
 11
245.4498554666495
 21
231.5419908648298
 31
0.0
  0
LINE
  5
3584
330
1F
100
AcDbEntity
  8
太線
100
AcDbLine
 10
245.4498554666495
 20
231.5419908648298
 30
0.0
 11
256.4498554666495
 21
231.5419908648298
 31
0.0
  0
LINE
  5
3585
330
1F
100
AcDbEntity
  8
太線
100
AcDbLine
 10
256.4498554666495
 20
231.5419908648298
 30
0.0
 11
256.4498554666495
 21
267.3965979295305
 31
0.0
  0
LINE
  5
3586
330
1F
100
AcDbEntity
  8
太線
100
AcDbLine
 10
256.4498554666495
 20
267.3965979295305
 30
0.0
 11
256.4498554666495
 21
267.3965979295305
 31
0.0
  0
LINE
  5
358D
330
1F
100
AcDbEntity
  8
太線
100
AcDbLine
 10
215.9306741968051
 20
161.0238749983597
 30
0.0
 11
210.2778748401993
 21
170.4619356903202
 31
0.0
  0
LINE
  5
358E
330
1F
100
AcDbEntity
  8
太線
100
AcDbLine
 10
210.2778748401993
 20
170.4619356903202
 30
0.0
 11
201.6165068435697
 21
165.4612925459156
 31
0.0
  0
LINE
  5
358F
330
1F
100
AcDbEntity
  8
太線
100
AcDbLine
 10
201.6165068435697
 20
165.4612925459156
 30
0.0
 11
191.3386898315593
 21
182.6214028949348
 31
0.0
  0
LINE
  5
3590
330
1F
100
AcDbEntity
  8
太線
100
AcDbLine
 10
191.3386898315593
 20
182.6214028949348
 30
0.0
 11
200.000057828189
 21
187.6220460393393
 31
0.0
  0
LINE
  5
3591
330
1F
100
AcDbEntity
  8
太線
100
AcDbLine
 10
200.000057828189
 20
187.6220460393393
 30
0.0
 11
194.3472584715833
 21
197.0601067312998
 31
0.0
  0
LINE
  5
3593
330
1F
100
AcDbEntity
  8
太線
100
AcDbLine
 10
207.0751826940229
 20
190.5521707467994
 30
0.0
 11
191.8525806821598
 21
181.7633973774838
 31
0.0
  0
LINE
  5
3594
330
1F
100
AcDbEntity
  8
太線
100
AcDbLine
 10
216.0751826940229
 20
174.9637134786795
 30
0.0
 11
201.1026159929692
 21
166.3192980633666
 31
0.0
  0
LINE
  5
3595
330
1F
100
AcDbEntity
  8
想像線
100
AcDbLine
 10
191.8525806821598
 20
181.7633973774838
 30
0.0
 11
179.0316896592438
 21
174.3612524941523
 31
0.0
  0
LINE
  5
3596
330
1F
100
AcDbEntity
  8
想像線
100
AcDbLine
 10
179.0316896592438
 20
174.3612524941523
 30
0.0
 11
188.0316896592439
 21
158.7727952260324
 31
0.0
  0
LINE
  5
3597
330
1F
100
AcDbEntity
  8
想像線
100
AcDbLine
 10
188.0316896592439
 20
158.7727952260324
 30
0.0
 11
201.1026159929692
 21
166.3192980633666
 31
0.0
  0
CIRCLE
  5
3599
330
1F
100
AcDbEntity
  8
想像線
100
AcDbCircle
 10
235.4498554666495
 20
196.5419908648298
 30
0.0
 40
10.0
  0
CIRCLE
  5
359A
330
1F
100
AcDbEntity
  8
想像線
100
AcDbCircle
 10
235.4498554666495
 20
196.5419908648298
 30
0.0
 40
22.0
  0
LWPOLYLINE
  5
359C
330
1F
100
AcDbEntity
  8
想像線
100
AcDbPolyline
 90
        6
 70
     1
 43
0.0
 10
235.4498554666495
 20
213.5419908648298
 10
220.727423602314
 20
205.0419908648298
 10
220.727423602314
 20
188.0419908648298
 10
235.4498554666495
 20
179.5419908648298
 10
250.172287330985
 20
188.0419908648297
 10
250.172287330985
 20
205.0419908648297
  0
CIRCLE
  5
35AA
330
1F
100
AcDbEntity
  8
太線
100
AcDbCircle
 10
153.177442107128
 20
149.0419908648295
 30
0.0
 40
32.0
  0
CIRCLE
  5
35AB
330
1F
100
AcDbEntity
  8
太線
100
AcDbCircle
 10
153.177442107128
 20
149.0419908648295
 30
0.0
 40
24.5
  0
LINE
  5
35AC
330
1F
100
AcDbEntity
  8
太線
100
AcDbLine
 10
194.3472584715833
 20
197.0601067312998
 30
0.0
 11
163.5879657734543
 21
179.3012208119524
 31
0.0
  0
LINE
  5
35AD
330
1F
100
AcDbEntity
  8
太線
100
AcDbLine
 10
215.6203556756364
 20
161.5419908648298
 30
0.0
 11
184.5879657734545
 21
142.9281538530061
 31
0.0
  0
LINE
  5
35BC
330
1F
100
AcDbEntity
  8
太線
100
AcDbLine
 10
207.4498554666496
 20
253.5039037710312
 30
0.0
 11
207.4498554666496
 21
239.5038908146065
 31
0.0
  0
LINE
  5
35BD
330
1F
100
AcDbEntity
  8
太線
100
AcDbLine
 10
207.4498554666496
 20
239.5038908146065
 30
0.0
 11
213.4498554666496
 21
239.5120537228946
 31
0.0
  0
LINE
  5
35BE
330
1F
100
AcDbEntity
  8
太線
100
AcDbLine
 10
213.4498554666496
 20
239.5120537228946
 30
0.0
 11
213.4498554666496
 21
241.4418795061171
 31
0.0
  0
LINE
  5
35BF
330
1F
100
AcDbEntity
  8
太線
100
AcDbLine
 10
207.4498554666496
 20
253.5039037710312
 30
0.0
 11
213.4498554666496
 21
253.5120666793192
 31
0.0
  0
LINE
  5
35C0
330
1F
100
AcDbEntity
  8
太線
100
AcDbLine
 10
213.4498554666496
 20
253.5120666793192
 30
0.0
 11
213.4498554666496
 21
250.012063440213
 31
0.0
  0
LINE
  5
35C2
330
1F
100
AcDbEntity
  8
太線
100
AcDbLine
 10
213.4498554666496
 20
241.4418795061171
 30
0.0
 11
213.4498554666496
 21
243.0120569620007
 31
0.0
  0
LINE
  5
35C9
330
1F
100
AcDbEntity
  8
太線
100
AcDbLine
 10
213.4498554666496
 20
250.012063440213
 30
0.0
 11
213.4498554666496
 21
243.0120569620008
 31
0.0
  0
LINE
  5
35CE
330
1F
100
AcDbEntity
  8
太線
100
AcDbLine
 10
214.4498554666495
 20
254.5134280894928
 30
0.0
 11
213.4498554666496
 21
254.5120676047781
 31
0.0
  0
LINE
  5
35CF
330
1F
100
AcDbEntity
  8
太線
100
AcDbLine
 10
213.4498554666496
 20
254.5120676047781
 30
0.0
 11
213.4498554666496
 21
253.5120666793192
 31
0.0
  0
LINE
  5
35D0
330
1F
100
AcDbEntity
  8
太線
100
AcDbLine
 10
214.4498554666495
 20
238.5134132821503
 30
0.0
 11
213.4498554666496
 21
238.5120527974357
 31
0.0
  0
LINE
  5
35D1
330
1F
100
AcDbEntity
  8
太線
100
AcDbLine
 10
213.4498554666496
 20
238.5120527974357
 30
0.0
 11
213.4498554666496
 21
239.5120537228946
 31
0.0
  0
LINE
  5
35D4
330
1F
100
AcDbEntity
  8
想像線
100
AcDbLine
 10
214.4498554666495
 20
250.0134239249277
 30
0.0
 11
256.4498554666495
 21
250.0705642829441
 31
0.0
  0
LINE
  5
35D5
330
1F
100
AcDbEntity
  8
想像線
100
AcDbLine
 10
214.4498554666495
 20
243.0134174467154
 30
0.0
 11
256.4498554666495
 21
243.0705578047318
 31
0.0
  0
LINE
  5
35D6
330
1F
100
AcDbEntity
  8
想像線
100
AcDbLine
 10
213.4498554666496
 20
250.012063440213
 30
0.0
 11
214.4498554666495
 21
250.0134239249277
 31
0.0
  0
LINE
  5
35D7
330
1F
100
AcDbEntity
  8
想像線
100
AcDbLine
 10
213.4498554666496
 20
243.0120569620007
 30
0.0
 11
214.4498554666495
 21
243.0134174467154
 31
0.0
  0
LINE
  5
35D8
330
1F
100
AcDbEntity
  8
想像線
100
AcDbLine
 10
256.4498554666495
 20
250.0705642829441
 30
0.0
 11
257.4498554666496
 21
250.0719247676588
 31
0.0
  0
LINE
  5
35DA
330
1F
100
AcDbEntity
  8
想像線
100
AcDbLine
 10
257.4498554666496
 20
250.0719247676588
 30
0.0
 11
262.4498554666495
 21
250.0787271912322
 31
0.0
  0
LINE
  5
35DD
330
1F
100
AcDbEntity
  8
太線
100
AcDbLine
 10
257.4498554666496
 20
254.5719289322239
 30
0.0
 11
257.4498554666496
 21
238.5719141248814
 31
0.0
  0
LINE
  5
35E2
330
1F
100
AcDbEntity
  8
太線
100
AcDbLine
 10
256.4498554666495
 20
238.5705536401668
 30
0.0
 11
257.4498554666496
 21
238.5719141248814
 31
0.0
  0
LINE
  5
35E3
330
1F
100
AcDbEntity
  8
太線
100
AcDbLine
 10
257.4498554666496
 20
239.5719150503403
 30
0.0
 11
262.4498554666495
 21
239.5787174739137
 31
0.0
  0
LINE
  5
35E4
330
1F
100
AcDbEntity
  8
太線
100
AcDbLine
 10
262.4498554666495
 20
239.5787174739137
 30
0.0
 11
262.4498554666495
 21
253.4629887478606
 31
0.0
  0
LINE
  5
35E5
330
1F
100
AcDbEntity
  8
太線
100
AcDbLine
 10
262.4498554666495
 20
253.4629887478606
 30
0.0
 11
257.4498554666496
 21
253.571928006765
 31
0.0
  0
LINE
  5
35E6
330
1F
100
AcDbEntity
  8
太線
100
AcDbLine
 10
257.4498554666496
 20
254.5719289322239
 30
0.0
 11
256.4498554666495
 21
254.5705684475092
 31
0.0
  0
LINE
  5
35EC
330
1F
100
AcDbEntity
  8
想像線
100
AcDbLine
 10
256.4498554666495
 20
243.0705578047318
 30
0.0
 11
262.4498554666495
 21
243.0787207130199
 31
0.0
  0
LINE
  5
35F0
330
1F
100
AcDbEntity
  8
太線
100
AcDbLine
 10
262.4498554666495
 20
250.0787271912322
 30
0.0
 11
264.4498554666495
 21
250.0814481606616
 31
0.0
  0
LINE
  5
35F1
330
1F
100
AcDbEntity
  8
太線
100
AcDbLine
 10
264.4498554666495
 20
250.0814481606616
 30
0.0
 11
265.4498554666495
 21
249.0828077199173
 31
0.0
  0
LINE
  5
35F2
330
1F
100
AcDbEntity
  8
太線
100
AcDbLine
 10
265.4498554666495
 20
249.0828077199173
 30
0.0
 11
265.4498554666495
 21
244.0828030926228
 31
0.0
  0
LINE
  5
35F3
330
1F
100
AcDbEntity
  8
太線
100
AcDbLine
 10
265.4498554666495
 20
244.0828030926228
 30
0.0
 11
264.4498554666495
 21
243.0814416824492
 31
0.0
  0
LINE
  5
35F4
330
1F
100
AcDbEntity
  8
太線
100
AcDbLine
 10
264.4498554666495
 20
243.0814416824492
 30
0.0
 11
262.4498554666495
 21
243.0787207130199
 31
0.0
  0
LINE
  5
35F5
330
1F
100
AcDbEntity
  8
太線
100
AcDbLine
 10
264.4498554666495
 20
250.0814481606616
 30
0.0
 11
264.4498554666495
 21
243.0814416824492
 31
0.0
  0
LINE
  5
3635
330
1F
100
AcDbEntity
  8
太線
100
AcDbLine
 10
200.1233508524699
 20
143.7310763633795
 30
0.0
 11
212.1540422097915
 21
150.8908828024478
 31
0.0
  0
LINE
  5
3636
330
1F
100
AcDbEntity
  8
太線
100
AcDbLine
 10
200.1233508524699
 20
143.7310763633795
 30
0.0
 11
197.0478505512474
 21
148.8829075456148
 31
0.0
  0
LINE
  5
3637
330
1F
100
AcDbEntity
  8
太線
100
AcDbLine
 10
186.5248730329378
 20
193.8228093210757
 30
0.0
 11
183.9619561152524
 21
198.1160019729385
 31
0.0
  0
LINE
  5
3638
330
1F
100
AcDbEntity
  8
太線
100
AcDbLine
 10
173.6348465786646
 20
186.1515881363595
 30
0.0
 11
187.3842081298894
 21
194.3342240667234
 31
0.0
  0
LINE
  5
3639
330
1F
100
AcDbEntity
  8
想像線
100
AcDbLine
 10
205.5582856857015
 20
155.1114009052886
 30
0.0
 11
184.0297835771444
 21
191.174219180936
 31
0.0
  0
LINE
  5
363A
330
1F
100
AcDbEntity
  8
想像線
100
AcDbLine
 10
199.5429400070407
 20
151.5314976857545
 30
0.0
 11
178.0144378984837
 21
187.5943159614019
 31
0.0
  0
LINE
  5
363B
330
1F
100
AcDbEntity
  8
太線
100
AcDbLine
 10
178.5571980283592
 20
198.3905512086413
 30
0.0
 11
179.9291165088479
 21
198.0433274239165
 31
0.0
  0
LINE
  5
363C
330
1F
100
AcDbEntity
  8
太線
100
AcDbLine
 10
183.9619561152524
 20
198.1160019729385
 30
0.0
 11
172.0307255558173
 21
191.0153874821956
 31
0.0
  0
LINE
  5
363D
330
1F
100
AcDbEntity
  8
太線
100
AcDbLine
 10
174.2605225436015
 20
195.8334774804026
 30
0.0
 11
178.5571980283592
 21
198.3905512086413
 31
0.0
  0
LINE
  5
363E
330
1F
100
AcDbEntity
  8
太線
100
AcDbLine
 10
173.9137708301871
 20
194.4634242043823
 30
0.0
 11
179.9291165088479
 21
198.0433274239165
 31
0.0
  0
LINE
  5
363F
330
1F
100
AcDbEntity
  8
想像線
100
AcDbLine
 10
177.5018545149466
 20
188.4529544917744
 30
0.0
 11
174.9389375972613
 21
192.7461471436372
 31
0.0
  0
LINE
  5
3640
330
1F
100
AcDbEntity
  8
太線
100
AcDbLine
 10
172.0307255558173
 20
191.0153874821956
 30
0.0
 11
174.4941816756162
 21
186.6630028820073
 31
0.0
  0
LINE
  5
3641
330
1F
100
AcDbEntity
  8
太線
100
AcDbLine
 10
173.6348465786646
 20
186.1515881363595
 30
0.0
 11
174.1474299622017
 21
185.292949605987
 31
0.0
  0
LINE
  5
3642
330
1F
100
AcDbEntity
  8
太線
100
AcDbLine
 10
173.9137708301871
 20
194.4634242043823
 30
0.0
 11
174.2605225436015
 21
195.8334774804026
 31
0.0
  0
LINE
  5
3643
330
1F
100
AcDbEntity
  8
太線
100
AcDbLine
 10
174.9389375972613
 20
192.7461471436372
 30
0.0
 11
173.9137708301871
 21
194.4634242043823
 31
0.0
  0
LINE
  5
3644
330
1F
100
AcDbEntity
  8
想像線
100
AcDbLine
 10
178.0144378984837
 20
187.5943159614019
 30
0.0
 11
177.5018545149466
 21
188.4529544917744
 31
0.0
  0
LINE
  5
3645
330
1F
100
AcDbEntity
  8
想像線
100
AcDbLine
 10
184.0297835771444
 20
191.174219180936
 30
0.0
 11
180.954283275922
 21
196.3260503631714
 31
0.0
  0
LINE
  5
3646
330
1F
100
AcDbEntity
  8
太線
100
AcDbLine
 10
179.9291165088479
 20
198.0433274239165
 30
0.0
 11
180.954283275922
 21
196.3260503631714
 31
0.0
  0
LINE
  5
3647
330
1F
100
AcDbEntity
  8
太線
100
AcDbLine
 10
212.1540422097915
 20
150.8908828024478
 30
0.0
 11
209.078541908569
 21
156.0427139846832
 31
0.0
  0
LINE
  5
3648
330
1F
100
AcDbEntity
  8
太線
100
AcDbLine
 10
197.0478505512474
 20
148.8829075456148
 30
0.0
 11
200.0555233905778
 21
150.6728591553819
 31
0.0
  0
LINE
  5
3649
330
1F
100
AcDbEntity
  8
太線
100
AcDbLine
 10
195.6759320707589
 20
149.2301313303396
 30
0.0
 11
196.1885154542959
 21
148.3714927999671
 31
0.0
  0
LINE
  5
364A
330
1F
100
AcDbEntity
  8
太線
100
AcDbLine
 10
196.1885154542959
 20
148.3714927999671
 30
0.0
 11
197.0478505512474
 21
148.8829075456148
 31
0.0
  0
LINE
  5
364B
330
1F
100
AcDbEntity
  8
太線
100
AcDbLine
 10
200.0555233905778
 20
150.6728591553819
 30
0.0
 11
206.0708690692385
 21
154.2527623749161
 31
0.0
  0
LINE
  5
364C
330
1F
100
AcDbEntity
  8
想像線
100
AcDbLine
 10
200.0555233905778
 20
150.6728591553819
 30
0.0
 11
199.5429400070407
 21
151.5314976857545
 31
0.0
  0
LINE
  5
364D
330
1F
100
AcDbEntity
  8
太線
100
AcDbLine
 10
209.078541908569
 20
156.0427139846832
 30
0.0
 11
207.4201764167931
 21
155.0557735359849
 31
0.0
  0
LINE
  5
364E
330
1F
100
AcDbEntity
  8
太線
100
AcDbLine
 10
207.4201764167931
 20
155.0557735359849
 30
0.0
 11
206.0708690692387
 21
154.2527623749161
 31
0.0
  0
LINE
  5
364F
330
1F
100
AcDbEntity
  8
太線
100
AcDbLine
 10
209.4252936219835
 20
157.4127672607034
 30
0.0
 11
209.9378770055206
 21
156.554128730331
 31
0.0
  0
LINE
  5
3650
330
1F
100
AcDbEntity
  8
太線
100
AcDbLine
 10
209.9378770055206
 20
156.554128730331
 30
0.0
 11
209.078541908569
 21
156.0427139846832
 31
0.0
  0
LINE
  5
3651
330
1F
100
AcDbEntity
  8
想像線
100
AcDbLine
 10
206.0708690692387
 20
154.2527623749161
 30
0.0
 11
205.5582856857015
 21
155.1114009052886
 31
0.0
  0
LINE
  5
3652
330
1F
100
AcDbEntity
  8
太線
100
AcDbLine
 10
187.8967915134264
 20
193.4755855363509
 30
0.0
 11
187.3842081298894
 21
194.3342240667234
 31
0.0
  0
LINE
  5
3653
330
1F
100
AcDbEntity
  8
太線
100
AcDbLine
 10
274.3351344365734
 20
148.3963575405103
 30
0.0
 11
273.484898775553
 21
148.9227615409206
 31
0.0
  0
LINE
  5
3654
330
1F
100
AcDbEntity
  8
想像線
100
AcDbLine
 10
265.0826711165344
 20
155.3009545833248
 30
0.0
 11
287.1430359477356
 21
191.0408981833757
 31
0.0
  0
LINE
  5
3655
330
1F
100
AcDbEntity
  8
想像線
100
AcDbLine
 10
271.0343207436769
 20
151.6161265804529
 30
0.0
 11
293.0946855748781
 21
187.3560701805038
 31
0.0
  0
LINE
  5
3656
330
1F
100
AcDbEntity
  8
太線
100
AcDbLine
 10
260.7313638602476
 20
156.8188215470745
 30
0.0
 11
261.5815995212679
 21
156.2924175466643
 31
0.0
  0
LINE
  5
3657
330
1F
100
AcDbEntity
  8
太線
100
AcDbLine
 10
261.2566106419428
 20
157.6697725851709
 30
0.0
 11
260.7313638602476
 21
156.8188215470745
 31
0.0
  0
LINE
  5
3658
330
1F
100
AcDbEntity
  8
太線
100
AcDbLine
 10
258.4301188310963
 20
151.1867113180856
 30
0.0
 11
261.5815995212679
 21
156.2924175466643
 31
0.0
  0
LINE
  5
3659
330
1F
100
AcDbEntity
  8
太線
100
AcDbLine
 10
258.4301188310963
 20
151.1867113180856
 30
0.0
 11
270.3334180853814
 21
143.8170553123418
 31
0.0
  0
LINE
  5
365A
330
1F
100
AcDbEntity
  8
太線
100
AcDbLine
 10
273.484898775553
 20
148.9227615409206
 30
0.0
 11
271.8440935935985
 21
149.9386286131604
 31
0.0
  0
LINE
  5
365B
330
1F
100
AcDbEntity
  8
太線
100
AcDbLine
 10
270.3334180853814
 20
143.8170553123418
 30
0.0
 11
273.484898775553
 21
148.9227615409206
 31
0.0
  0
LINE
  5
365C
330
1F
100
AcDbEntity
  8
太線
100
AcDbLine
 10
264.5574243348391
 20
154.4500035452284
 30
0.0
 11
270.5090739619817
 21
150.7651755423565
 31
0.0
  0
LINE
  5
365D
330
1F
100
AcDbEntity
  8
想像線
100
AcDbLine
 10
264.5574243348391
 20
154.4500035452284
 30
0.0
 11
265.0826711165344
 21
155.3009545833248
 31
0.0
  0
LINE
  5
365E
330
1F
100
AcDbEntity
  8
太線
100
AcDbLine
 10
261.5815995212679
 20
156.2924175466643
 30
0.0
 11
264.5574243348391
 21
154.4500035452284
 31
0.0
  0
LINE
  5
365F
330
1F
100
AcDbEntity
  8
想像線
100
AcDbLine
 10
270.5090739619817
 20
150.7651755423565
 30
0.0
 11
271.0343207436769
 21
151.6161265804529
 31
0.0
  0
LINE
  5
3660
330
1F
100
AcDbEntity
  8
太線
100
AcDbLine
 10
271.8440935935985
 20
149.9386286131604
 30
0.0
 11
270.5090739619817
 21
150.7651755423565
 31
0.0
  0
LINE
  5
3661
330
1F
100
AcDbEntity
  8
想像線
100
AcDbLine
 10
293.0946855748781
 20
187.3560701805038
 30
0.0
 11
296.2461662650497
 21
192.4617764090825
 31
0.0
  0
LINE
  5
3662
330
1F
100
AcDbEntity
  8
太線
100
AcDbLine
 10
283.8422222548392
 20
194.2606672233184
 30
0.0
 11
297.4459928311651
 21
185.8382032167541
 31
0.0
  0
LINE
  5
3663
330
1F
100
AcDbEntity
  8
太線
100
AcDbLine
 10
296.5957571701446
 20
186.3646072171643
 30
0.0
 11
299.2219910786209
 21
190.6193624076466
 31
0.0
  0
LINE
  5
3664
330
1F
100
AcDbEntity
  8
太線
100
AcDbLine
 10
274.8603812182686
 20
149.2473085786067
 30
0.0
 11
274.3351344365734
 21
148.3963575405103
 31
0.0
  0
LINE
  5
3665
330
1F
100
AcDbEntity
  8
太線
100
AcDbLine
 10
296.9207460494698
 20
184.9872521786576
 30
0.0
 11
297.4459928311651
 21
185.8382032167541
 31
0.0
  0
LINE
  5
3666
330
1F
100
AcDbEntity
  8
太線
100
AcDbLine
 10
290.2945166379072
 20
196.1466044119543
 30
0.0
 11
291.3450102012977
 21
197.8485064881472
 31
0.0
  0
LINE
  5
3667
330
1F
100
AcDbEntity
  8
太線
100
AcDbLine
 10
299.2219910786209
 20
190.6193624076466
 30
0.0
 11
287.4170994391728
 21
197.9280915851052
 31
0.0
  0
LINE
  5
3668
330
1F
100
AcDbEntity
  8
太線
100
AcDbLine
 10
283.8422222548392
 20
194.2606672233184
 30
0.0
 11
283.3169754731439
 21
193.409716185222
 31
0.0
  0
LINE
  5
3669
330
1F
100
AcDbEntity
  8
想像線
100
AcDbLine
 10
287.1430359477356
 20
191.0408981833757
 30
0.0
 11
287.6682827294308
 21
191.8918492214721
 31
0.0
  0
LINE
  5
366A
330
1F
100
AcDbEntity
  8
太線
100
AcDbLine
 10
287.4170994391728
 20
197.9280915851052
 30
0.0
 11
284.6924579158596
 21
193.734263222908
 31
0.0
  0
LINE
  5
366B
330
1F
100
AcDbEntity
  8
想像線
100
AcDbLine
 10
287.6682827294308
 20
191.8918492214721
 30
0.0
 11
290.2945166379072
 21
196.1466044119543
 31
0.0
  0
LINE
  5
366C
330
1F
100
AcDbEntity
  8
太線
100
AcDbLine
 10
297.2966598284403
 20
194.1636784852754
 30
0.0
 11
296.2461662650497
 21
192.4617764090825
 31
0.0
  0
LINE
  5
366D
330
1F
100
AcDbEntity
  8
太線
100
AcDbLine
 10
291.3450102012977
 20
197.8485064881472
 30
0.0
 11
292.7204926440133
 21
198.1730535258335
 31
0.0
  0
LINE
  5
366E
330
1F
100
AcDbEntity
  8
太線
100
AcDbLine
 10
291.3450102012977
 20
197.8485064881472
 30
0.0
 11
297.2966598284403
 21
194.1636784852754
 31
0.0
  0
LINE
  5
366F
330
1F
100
AcDbEntity
  8
太線
100
AcDbLine
 10
292.7204926440133
 20
198.1730535258335
 30
0.0
 11
296.9716709491151
 21
195.5410335237821
 31
0.0
  0
LINE
  5
3670
330
1F
100
AcDbEntity
  8
太線
100
AcDbLine
 10
296.9716709491151
 20
195.5410335237821
 30
0.0
 11
297.2966598284403
 21
194.1636784852754
 31
0.0
  0
LINE
  5
36A4
330
1F
100
AcDbEntity
  8
想像線
100
AcDbLine
 10
234.4271417681262
 20
326.9364276139451
 30
0.0
 11
231.9138006745366
 21
330.2583303967767
 31
0.0
  0
LINE
  5
36A5
330
1F
100
AcDbEntity
  8
太線
100
AcDbLine
 10
238.6160435907755
 20
330.2583303967767
 30
0.0
 11
231.9138006745366
 21
330.2583303967767
 31
0.0
  0
LINE
  5
36A6
330
1F
100
AcDbEntity
  8
太線
100
AcDbLine
 10
231.9138006745366
 20
312.3435771684165
 30
0.0
 11
238.6160435907755
 21
312.3435771684165
 31
0.0
  0
LINE
  5
36A7
330
1F
100
AcDbEntity
  8
太線
100
AcDbLine
 10
231.0760203100068
 20
324.8746067589554
 30
0.0
 11
239.4538239553054
 21
324.8746067589554
 31
0.0
  0
LINE
  5
36A8
330
1F
100
AcDbEntity
  8
想像線
100
AcDbLine
 10
231.7462446016306
 20
324.8746067589554
 30
0.0
 11
231.7462446016306
 21
323.3269443264995
 31
0.0
  0
LINE
  5
36A9
330
1F
100
AcDbEntity
  8
太線
100
AcDbLine
 10
231.0760203100068
 20
324.8746067589554
 30
0.0
 11
231.0760203100068
 21
323.2416685607073
 31
0.0
  0
ARC
  5
36AA
330
1F
100
AcDbEntity
  8
太線
100
AcDbCircle
 10
231.9138006745366
 20
313.1813575329464
 30
0.0
 40
0.8377803645298627
100
AcDbArc
 50
180.0
 51
270.0
  0
LINE
  5
36AB
330
1F
100
AcDbEntity
  8
太線
100
AcDbLine
 10
228.5626792164172
 20
326.9072089386572
 30
0.0
 11
228.5626792164172
 21
326.0694285741274
 31
0.0
  0
ARC
  5
36AC
330
1F
100
AcDbEntity
  8
太線
100
AcDbCircle
 10
229.400459580947
 20
325.7123871234853
 30
0.0
 40
0.8377803645298627
100
AcDbArc
 50
180.0
 51
270.0
  0
ARC
  5
36AD
330
1F
100
AcDbEntity
  8
太線
100
AcDbCircle
 10
231.9138006745366
 20
326.9072089386572
 30
0.0
 40
3.35112145811945
100
AcDbArc
 50
90.0
 51
180.0
  0
LINE
  5
36AE
330
1F
100
AcDbEntity
  8
太線
100
AcDbLine
 10
229.400459580947
 20
324.8746067589554
 30
0.0
 11
231.0760203100068
 21
324.8746067589554
 31
0.0
  0
LINE
  5
36AF
330
1F
100
AcDbEntity
  8
太線
100
AcDbLine
 10
239.4538239553054
 20
313.1813575329464
 30
0.0
 11
239.4538239553054
 21
315.7125977323011
 31
0.0
  0
LINE
  5
36B0
330
1F
100
AcDbEntity
  8
想像線
100
AcDbLine
 10
238.7835996636815
 20
324.8746067589554
 30
0.0
 11
238.7835996636815
 21
323.3678631958242
 31
0.0
  0
ARC
  5
36B1
330
1F
100
AcDbEntity
  8
太線
100
AcDbCircle
 10
238.6160435907755
 20
313.1813575329464
 30
0.0
 40
0.8377803645298627
100
AcDbArc
 50
270.0
 51
0.0
  0
ARC
  5
36B2
330
1F
100
AcDbEntity
  8
太線
100
AcDbCircle
 10
238.6160435907755
 20
326.9072089386572
 30
0.0
 40
3.35112145811945
100
AcDbArc
 50
0.0
 51
90.0
  0
LINE
  5
36B3
330
1F
100
AcDbEntity
  8
太線
100
AcDbLine
 10
239.4538239553054
 20
324.8746067589554
 30
0.0
 11
241.1293846843651
 21
324.8746067589554
 31
0.0
  0
LINE
  5
36B4
330
1F
100
AcDbEntity
  8
想像線
100
AcDbLine
 10
234.4271417681262
 20
330.2583303967767
 30
0.0
 11
234.4271417681262
 21
326.9364276139451
 31
0.0
  0
LINE
  5
36B5
330
1F
100
AcDbEntity
  8
想像線
100
AcDbLine
 10
236.102702497186
 20
330.2583303967767
 30
0.0
 11
236.102702497186
 21
326.9364276139451
 31
0.0
  0
LINE
  5
36B6
330
1F
100
AcDbEntity
  8
想像線
100
AcDbLine
 10
234.4271417681262
 20
326.9364276139451
 30
0.0
 11
236.102702497186
 21
326.9364276139451
 31
0.0
  0
LINE
  5
36B7
330
1F
100
AcDbEntity
  8
想像線
100
AcDbLine
 10
236.102702497186
 20
326.9364276139451
 30
0.0
 11
238.6160435907755
 21
330.2583303967767
 31
0.0
  0
LINE
  5
36B8
330
1F
100
AcDbEntity
  8
太線
100
AcDbLine
 10
241.967165048895
 20
326.0694285741274
 30
0.0
 11
241.967165048895
 21
326.9072089386572
 31
0.0
  0
ARC
  5
36B9
330
1F
100
AcDbEntity
  8
太線
100
AcDbCircle
 10
241.1293846843651
 20
325.7123871234853
 30
0.0
 40
0.8377803645298627
100
AcDbArc
 50
270.0
 51
0.0
  0
LINE
  5
36BA
330
1F
100
AcDbEntity
  8
想像線
100
AcDbLine
 10
316.3430975625148
 20
184.1208782617325
 30
0.0
 11
313.8297564689252
 21
187.442781044564
 31
0.0
  0
LINE
  5
36BB
330
1F
100
AcDbEntity
  8
太線
100
AcDbLine
 10
320.5319993851641
 20
187.442781044564
 30
0.0
 11
313.8297564689252
 21
187.442781044564
 31
0.0
  0
LINE
  5
36BC
330
1F
100
AcDbEntity
  8
太線
100
AcDbLine
 10
313.8297564689252
 20
169.5280278162039
 30
0.0
 11
320.5319993851641
 21
169.5280278162039
 31
0.0
  0
LINE
  5
36BD
330
1F
100
AcDbEntity
  8
太線
100
AcDbLine
 10
312.9919761043953
 20
182.0590574067427
 30
0.0
 11
321.3697797496939
 21
182.0590574067427
 31
0.0
  0
LINE
  5
36BE
330
1F
100
AcDbEntity
  8
想像線
100
AcDbLine
 10
313.6622003960192
 20
182.0590574067427
 30
0.0
 11
313.6622003960192
 21
180.7833809469054
 31
0.0
  0
LINE
  5
36BF
330
1F
100
AcDbEntity
  8
太線
100
AcDbLine
 10
312.9919761043953
 20
182.0590574067427
 30
0.0
 11
312.9919761043953
 21
180.6904399700596
 31
0.0
  0
ARC
  5
36C0
330
1F
100
AcDbEntity
  8
太線
100
AcDbCircle
 10
313.8297564689252
 20
170.3658081807338
 30
0.0
 40
0.8377803645298627
100
AcDbArc
 50
180.0
 51
270.0
  0
LINE
  5
36C1
330
1F
100
AcDbEntity
  8
太線
100
AcDbLine
 10
310.4786350108057
 20
184.0916595864446
 30
0.0
 11
310.4786350108057
 21
183.2538792219147
 31
0.0
  0
ARC
  5
36C2
330
1F
100
AcDbEntity
  8
太線
100
AcDbCircle
 10
311.3164153753356
 20
182.8968377712726
 30
0.0
 40
0.8377803645298627
100
AcDbArc
 50
180.0
 51
270.0
  0
ARC
  5
36C3
330
1F
100
AcDbEntity
  8
太線
100
AcDbCircle
 10
313.8297564689252
 20
184.0916595864446
 30
0.0
 40
3.35112145811945
100
AcDbArc
 50
90.0
 51
180.0
  0
LINE
  5
36C4
330
1F
100
AcDbEntity
  8
太線
100
AcDbLine
 10
311.3164153753356
 20
182.0590574067427
 30
0.0
 11
312.9919761043953
 21
182.0590574067427
 31
0.0
  0
LINE
  5
36C5
330
1F
100
AcDbEntity
  8
太線
100
AcDbLine
 10
321.3697797496939
 20
170.3658081807338
 30
0.0
 11
321.3697797496939
 21
173.2689523759803
 31
0.0
  0
LINE
  5
36C6
330
1F
100
AcDbEntity
  8
想像線
100
AcDbLine
 10
320.69955545807
 20
182.0590574067427
 30
0.0
 11
320.69955545807
 21
180.9031861391995
 31
0.0
  0
ARC
  5
36C7
330
1F
100
AcDbEntity
  8
太線
100
AcDbCircle
 10
320.5319993851641
 20
170.3658081807338
 30
0.0
 40
0.8377803645298627
100
AcDbArc
 50
270.0
 51
0.0
  0
ARC
  5
36C8
330
1F
100
AcDbEntity
  8
太線
100
AcDbCircle
 10
320.5319993851641
 20
184.0916595864446
 30
0.0
 40
3.35112145811945
100
AcDbArc
 50
0.0
 51
90.0
  0
LINE
  5
36C9
330
1F
100
AcDbEntity
  8
太線
100
AcDbLine
 10
321.3697797496939
 20
182.0590574067427
 30
0.0
 11
323.0453404787537
 21
182.0590574067427
 31
0.0
  0
LINE
  5
36CA
330
1F
100
AcDbEntity
  8
想像線
100
AcDbLine
 10
316.3430975625148
 20
187.442781044564
 30
0.0
 11
316.3430975625148
 21
184.1208782617325
 31
0.0
  0
LINE
  5
36CB
330
1F
100
AcDbEntity
  8
想像線
100
AcDbLine
 10
318.0186582915745
 20
187.442781044564
 30
0.0
 11
318.0186582915745
 21
184.1208782617325
 31
0.0
  0
LINE
  5
36CC
330
1F
100
AcDbEntity
  8
想像線
100
AcDbLine
 10
316.3430975625148
 20
184.1208782617325
 30
0.0
 11
318.0186582915745
 21
184.1208782617325
 31
0.0
  0
LINE
  5
36CD
330
1F
100
AcDbEntity
  8
想像線
100
AcDbLine
 10
318.0186582915745
 20
184.1208782617325
 30
0.0
 11
320.5319993851641
 21
187.442781044564
 31
0.0
  0
LINE
  5
36CE
330
1F
100
AcDbEntity
  8
太線
100
AcDbLine
 10
323.8831208432835
 20
183.2538792219147
 30
0.0
 11
323.8831208432835
 21
184.0916595864446
 31
0.0
  0
ARC
  5
36CF
330
1F
100
AcDbEntity
  8
太線
100
AcDbCircle
 10
323.0453404787537
 20
182.8968377712726
 30
0.0
 40
0.8377803645298627
100
AcDbArc
 50
270.0
 51
0.0
  0
LINE
  5
36D0
330
1F
100
AcDbEntity
  8
想像線
100
AcDbLine
 10
152.3647847677954
 20
183.4654877268647
 30
0.0
 11
149.8514436742058
 21
186.7873905096962
 31
0.0
  0
LINE
  5
36D1
330
1F
100
AcDbEntity
  8
太線
100
AcDbLine
 10
156.5536865904447
 20
186.7873905096962
 30
0.0
 11
149.8514436742058
 21
186.7873905096962
 31
0.0
  0
LINE
  5
36D2
330
1F
100
AcDbEntity
  8
太線
100
AcDbLine
 10
149.8514436742058
 20
168.8726372813361
 30
0.0
 11
156.5536865904447
 21
168.8726372813361
 31
0.0
  0
LINE
  5
36D3
330
1F
100
AcDbEntity
  8
太線
100
AcDbLine
 10
149.0136633096759
 20
181.4036668718749
 30
0.0
 11
157.3914669549745
 21
181.4036668718749
 31
0.0
  0
LINE
  5
36D4
330
1F
100
AcDbEntity
  8
想像線
100
AcDbLine
 10
149.6838876012998
 20
181.4036668718749
 30
0.0
 11
149.6838876012998
 21
180.8507172919408
 31
0.0
  0
LINE
  5
36D5
330
1F
100
AcDbEntity
  8
太線
100
AcDbLine
 10
149.0136633096759
 20
181.4036668718749
 30
0.0
 11
149.0136633096759
 21
180.7699429910839
 31
0.0
  0
ARC
  5
36D6
330
1F
100
AcDbEntity
  8
太線
100
AcDbCircle
 10
149.8514436742058
 20
169.7104176458659
 30
0.0
 40
0.8377803645298627
100
AcDbArc
 50
180.0
 51
270.0
  0
LINE
  5
36D7
330
1F
100
AcDbEntity
  8
太線
100
AcDbLine
 10
146.5003222160863
 20
183.4362690515767
 30
0.0
 11
146.5003222160863
 21
182.5984886870469
 31
0.0
  0
ARC
  5
36D8
330
1F
100
AcDbEntity
  8
太線
100
AcDbCircle
 10
147.3381025806162
 20
182.2414472364048
 30
0.0
 40
0.8377803645298627
100
AcDbArc
 50
180.0
 51
270.0
  0
ARC
  5
36D9
330
1F
100
AcDbEntity
  8
太線
100
AcDbCircle
 10
149.8514436742058
 20
183.4362690515767
 30
0.0
 40
3.35112145811945
100
AcDbArc
 50
90.0
 51
180.0
  0
LINE
  5
36DA
330
1F
100
AcDbEntity
  8
太線
100
AcDbLine
 10
147.3381025806162
 20
181.4036668718749
 30
0.0
 11
149.0136633096759
 21
181.4036668718749
 31
0.0
  0
LINE
  5
36DB
330
1F
100
AcDbEntity
  8
太線
100
AcDbLine
 10
157.3914669549745
 20
169.7104176458659
 30
0.0
 11
157.3914669549745
 21
173.1768617901469
 31
0.0
  0
LINE
  5
36DC
330
1F
100
AcDbEntity
  8
想像線
100
AcDbLine
 10
156.7212426633507
 20
181.4036668718749
 30
0.0
 11
156.7212426633507
 21
180.8451585941252
 31
0.0
  0
ARC
  5
36DD
330
1F
100
AcDbEntity
  8
太線
100
AcDbCircle
 10
156.5536865904447
 20
169.7104176458659
 30
0.0
 40
0.8377803645298627
100
AcDbArc
 50
270.0
 51
0.0
  0
ARC
  5
36DE
330
1F
100
AcDbEntity
  8
太線
100
AcDbCircle
 10
156.5536865904447
 20
183.4362690515767
 30
0.0
 40
3.35112145811945
100
AcDbArc
 50
0.0
 51
90.0
  0
LINE
  5
36DF
330
1F
100
AcDbEntity
  8
太線
100
AcDbLine
 10
157.3914669549745
 20
181.4036668718749
 30
0.0
 11
159.0670276840343
 21
181.4036668718749
 31
0.0
  0
LINE
  5
36E0
330
1F
100
AcDbEntity
  8
想像線
100
AcDbLine
 10
152.3647847677954
 20
186.7873905096962
 30
0.0
 11
152.3647847677954
 21
183.4654877268647
 31
0.0
  0
LINE
  5
36E1
330
1F
100
AcDbEntity
  8
想像線
100
AcDbLine
 10
154.0403454968551
 20
186.7873905096962
 30
0.0
 11
154.0403454968551
 21
183.4654877268647
 31
0.0
  0
LINE
  5
36E2
330
1F
100
AcDbEntity
  8
想像線
100
AcDbLine
 10
152.3647847677954
 20
183.4654877268647
 30
0.0
 11
154.0403454968551
 21
183.4654877268647
 31
0.0
  0
LINE
  5
36E3
330
1F
100
AcDbEntity
  8
想像線
100
AcDbLine
 10
154.0403454968551
 20
183.4654877268647
 30
0.0
 11
156.5536865904447
 21
186.7873905096962
 31
0.0
  0
LINE
  5
36E4
330
1F
100
AcDbEntity
  8
太線
100
AcDbLine
 10
159.9048080485641
 20
182.5984886870469
 30
0.0
 11
159.9048080485641
 21
183.4362690515767
 31
0.0
  0
ARC
  5
36E5
330
1F
100
AcDbEntity
  8
太線
100
AcDbCircle
 10
159.0670276840343
 20
182.2414472364048
 30
0.0
 40
0.8377803645298627
100
AcDbArc
 50
270.0
 51
0.0
  0
LINE
  5
36E6
330
1F
100
AcDbEntity
  8
想像線
100
AcDbLine
 10
204.6967827928312
 20
278.2140811990494
 30
0.0
 11
206.005188280905
 21
279.0115649215213
 31
0.0
  0
LINE
  5
36E7
330
1F
100
AcDbEntity
  8
太線
100
AcDbLine
 10
214.3327145527617
 20
284.8721662976799
 30
0.0
 11
212.2681092735817
 21
283.6137726892125
 31
0.0
  0
ARC
  5
36E8
330
1F
100
AcDbEntity
  8
太線
100
AcDbCircle
 10
206.536571270988
 20
271.290152536229
 30
0.0
 40
3.35112145811945
100
AcDbArc
 50
211.3626452800466
 51
301.3626452800466
  0
LINE
  5
36E9
330
1F
100
AcDbEntity
  8
太線
100
AcDbLine
 10
208.7082158810491
 20
271.6326539927404
 30
0.0
 11
204.3479625242905
 21
278.7863792169892
 31
0.0
  0
LINE
  5
36EA
330
1F
100
AcDbEntity
  8
想像線
100
AcDbLine
 10
205.2035457207058
 20
273.4210631551913
 30
0.0
 11
204.3314950493541
 21
274.8518082000411
 31
0.0
  0
LINE
  5
36EB
330
1F
100
AcDbEntity
  8
想像線
100
AcDbLine
 10
201.494954502909
 20
273.1229138056499
 30
0.0
 11
204.3314950493541
 21
274.8518082000411
 31
0.0
  0
LINE
  5
36EC
330
1F
100
AcDbEntity
  8
太線
100
AcDbLine
 10
200.1868784958815
 20
275.2690313729245
 30
0.0
 11
203.6750811812884
 21
269.5460511935255
 31
0.0
  0
LINE
  5
36ED
330
1F
100
AcDbEntity
  8
想像線
100
AcDbLine
 10
202.3670051742608
 20
271.6921687608001
 30
0.0
 11
205.2035457207058
 21
273.4210631551913
 31
0.0
  0
LINE
  5
36EE
330
1F
100
AcDbEntity
  8
想像線
100
AcDbLine
 10
205.2035457207058
 20
273.4210631551913
 30
0.0
 11
203.6750811812884
 21
269.5460511935255
 31
0.0
  0
LINE
  5
36EF
330
1F
100
AcDbEntity
  8
想像線
100
AcDbLine
 10
204.3314950493541
 20
274.8518082000411
 30
0.0
 11
200.1868784958815
 21
275.2690313729245
 31
0.0
  0
ARC
  5
36F0
330
1F
100
AcDbEntity
  8
太線
100
AcDbCircle
 10
203.0483685855811
 20
277.0131327156281
 30
0.0
 40
3.35112145811945
100
AcDbArc
 50
121.3626452800466
 51
211.3626452800466
  0
ARC
  5
36F1
330
1F
100
AcDbEntity
  8
太線
100
AcDbCircle
 10
202.7605393305139
 20
279.7810989261632
 30
0.0
 40
0.8377803645298627
100
AcDbArc
 50
31.36264528004662
 51
121.3626452800466
  0
LINE
  5
36F2
330
1F
100
AcDbEntity
  8
太線
100
AcDbLine
 10
202.0196397653025
 20
280.3106481410034
 30
0.0
 11
201.3042672428775
 21
279.8746228053275
 31
0.0
  0
LINE
  5
36F3
330
1F
100
AcDbEntity
  8
太線
100
AcDbLine
 10
204.3479625242905
 20
278.7863792169892
 30
0.0
 11
203.4759118529387
 21
280.2171242618391
 31
0.0
  0
LINE
  5
36F4
330
1F
100
AcDbEntity
  8
太線
100
AcDbLine
 10
208.7082158810491
 20
271.6326539927404
 30
0.0
 11
209.856804982531
 21
272.3327283355872
 31
0.0
  0
LINE
  5
36F5
330
1F
100
AcDbEntity
  8
想像線
100
AcDbLine
 10
208.3593956125084
 20
272.2049520106803
 30
0.0
 11
209.458662518217
 21
272.8749640764698
 31
0.0
  0
LINE
  5
36F6
330
1F
100
AcDbEntity
  8
太線
100
AcDbLine
 10
209.5802665524008
 20
270.2019089478906
 30
0.0
 11
208.7082158810491
 21
271.6326539927404
 31
0.0
  0
ARC
  5
36F7
330
1F
100
AcDbEntity
  8
太線
100
AcDbCircle
 10
208.864894029976
 20
269.7658836122148
 30
0.0
 40
0.8377803645298627
100
AcDbArc
 50
301.3626452800466
 51
31.36264528004662
  0
LINE
  5
36F8
330
1F
100
AcDbEntity
  8
太線
100
AcDbLine
 10
208.2806726136914
 20
268.4286624465294
 30
0.0
 11
208.9960451361162
 21
268.8646877822052
 31
0.0
  0
ARC
  5
36F9
330
1F
100
AcDbEntity
  8
太線
100
AcDbCircle
 10
214.7687398884377
 20
284.1567937752551
 30
0.0
 40
0.8377803645298627
100
AcDbArc
 50
31.36264528004662
 51
121.3626452800466
  0
ARC
  5
36FA
330
1F
100
AcDbEntity
  8
太線
100
AcDbCircle
 10
218.2569425738445
 20
278.4338135958559
 30
0.0
 40
0.8377803645298627
100
AcDbArc
 50
301.3626452800466
 51
31.36264528004662
  0
LINE
  5
36FB
330
1F
100
AcDbEntity
  8
太線
100
AcDbLine
 10
218.9723150962693
 20
278.8698389315317
 30
0.0
 11
215.4841124108624
 21
284.5928191109308
 31
0.0
  0
LINE
  5
36FC
330
1F
100
AcDbEntity
  8
想像線
100
AcDbLine
 10
121.8700236757966
 20
135.0184729645091
 30
0.0
 11
123.3456353738564
 21
135.9178702237061
 31
0.0
  0
LINE
  5
36FD
330
1F
100
AcDbEntity
  8
太線
100
AcDbLine
 10
131.5059554357271
 20
141.6765580631396
 30
0.0
 11
129.6146105284018
 21
140.5237680519997
 31
0.0
  0
ARC
  5
36FE
330
1F
100
AcDbEntity
  8
太線
100
AcDbCircle
 10
123.7098121539535
 20
128.0945443016887
 30
0.0
 40
3.35112145811945
100
AcDbArc
 50
211.3626452800466
 51
301.3626452800466
  0
LINE
  5
36FF
330
1F
100
AcDbEntity
  8
太線
100
AcDbLine
 10
125.8814567640146
 20
128.4370457582002
 30
0.0
 11
121.521203407256
 21
135.590770982449
 31
0.0
  0
LINE
  5
3700
330
1F
100
AcDbEntity
  8
想像線
100
AcDbLine
 10
122.3767866036713
 20
130.2254549206511
 30
0.0
 11
121.5047359323195
 21
131.6561999655008
 31
0.0
  0
LINE
  5
3701
330
1F
100
AcDbEntity
  8
想像線
100
AcDbLine
 10
118.6681953858745
 20
129.9273055711096
 30
0.0
 11
121.5047359323195
 21
131.6561999655008
 31
0.0
  0
LINE
  5
3702
330
1F
100
AcDbEntity
  8
太線
100
AcDbLine
 10
117.360119378847
 20
132.0734231383843
 30
0.0
 11
120.8483220642539
 21
126.3504429589852
 31
0.0
  0
LINE
  5
3703
330
1F
100
AcDbEntity
  8
想像線
100
AcDbLine
 10
119.5402460572263
 20
128.4965605262598
 30
0.0
 11
122.3767866036713
 21
130.2254549206511
 31
0.0
  0
LINE
  5
3704
330
1F
100
AcDbEntity
  8
想像線
100
AcDbLine
 10
122.3767866036713
 20
130.2254549206511
 30
0.0
 11
120.8483220642539
 21
126.3504429589852
 31
0.0
  0
LINE
  5
3705
330
1F
100
AcDbEntity
  8
想像線
100
AcDbLine
 10
121.5047359323195
 20
131.6561999655008
 30
0.0
 11
117.360119378847
 21
132.0734231383843
 31
0.0
  0
ARC
  5
3706
330
1F
100
AcDbEntity
  8
太線
100
AcDbCircle
 10
120.2216094685466
 20
133.8175244810878
 30
0.0
 40
3.35112145811945
100
AcDbArc
 50
121.3626452800466
 51
211.3626452800466
  0
ARC
  5
3707
330
1F
100
AcDbEntity
  8
太線
100
AcDbCircle
 10
119.9337802134795
 20
136.585490691623
 30
0.0
 40
0.8377803645298627
100
AcDbArc
 50
31.36264528004662
 51
121.3626452800466
  0
LINE
  5
3708
330
1F
100
AcDbEntity
  8
太線
100
AcDbLine
 10
119.1928806482679
 20
137.1150399064631
 30
0.0
 11
118.4775081258431
 21
136.6790145707873
 31
0.0
  0
LINE
  5
3709
330
1F
100
AcDbEntity
  8
太線
100
AcDbLine
 10
121.521203407256
 20
135.590770982449
 30
0.0
 11
120.6491527359043
 21
137.0215160272988
 31
0.0
  0
LINE
  5
370A
330
1F
100
AcDbEntity
  8
太線
100
AcDbLine
 10
125.8814567640146
 20
128.4370457582002
 30
0.0
 11
127.177864378081
 21
129.2272166794707
 31
0.0
  0
LINE
  5
370B
330
1F
100
AcDbEntity
  8
想像線
100
AcDbLine
 10
125.5326364954739
 20
129.0093437761401
 30
0.0
 11
126.7814119629757
 21
129.7704825190088
 31
0.0
  0
LINE
  5
370C
330
1F
100
AcDbEntity
  8
太線
100
AcDbLine
 10
126.7535074353663
 20
127.0063007133504
 30
0.0
 11
125.8814567640146
 21
128.4370457582002
 31
0.0
  0
ARC
  5
370D
330
1F
100
AcDbEntity
  8
太線
100
AcDbCircle
 10
126.0381349129415
 20
126.5702753776746
 30
0.0
 40
0.8377803645298627
100
AcDbArc
 50
301.3626452800466
 51
31.36264528004662
  0
LINE
  5
370E
330
1F
100
AcDbEntity
  8
太線
100
AcDbLine
 10
125.4539134966569
 20
125.2330542119891
 30
0.0
 11
126.1692860190817
 21
125.669079547665
 31
0.0
  0
ARC
  5
370F
330
1F
100
AcDbEntity
  8
太線
100
AcDbCircle
 10
131.9419807714032
 20
140.9611855407148
 30
0.0
 40
0.8377803645298627
100
AcDbArc
 50
31.36264528004662
 51
121.3626452800466
  0
ARC
  5
3710
330
1F
100
AcDbEntity
  8
太線
100
AcDbCircle
 10
135.43018345681
 20
135.2382053613157
 30
0.0
 40
0.8377803645298627
100
AcDbArc
 50
301.3626452800466
 51
31.36264528004662
  0
LINE
  5
3711
330
1F
100
AcDbEntity
  8
太線
100
AcDbLine
 10
136.1455559792348
 20
135.6742306969915
 30
0.0
 11
132.657353293828
 21
141.3972108763906
 31
0.0
  0
LINE
  5
3712
330
1F
100
AcDbEntity
  8
想像線
100
AcDbLine
 10
287.1732854830717
 20
135.6991766032111
 30
0.0
 11
288.3248668906728
 21
136.4010747808282
 31
0.0
  0
LINE
  5
3713
330
1F
100
AcDbEntity
  8
太線
100
AcDbLine
 10
296.8092172430022
 20
142.3572617018415
 30
0.0
 11
294.5802099556226
 21
140.9986637403079
 31
0.0
  0
ARC
  5
3714
330
1F
100
AcDbEntity
  8
太線
100
AcDbCircle
 10
289.0130739612285
 20
128.7752479403907
 30
0.0
 40
3.35112145811945
100
AcDbArc
 50
211.3626452800466
 51
301.3626452800466
  0
LINE
  5
3715
330
1F
100
AcDbEntity
  8
太線
100
AcDbLine
 10
291.1847185712896
 20
129.1177493969021
 30
0.0
 11
286.824465214531
 21
136.271474621151
 31
0.0
  0
LINE
  5
3716
330
1F
100
AcDbEntity
  8
想像線
100
AcDbLine
 10
287.6800484109463
 20
130.906158559353
 30
0.0
 11
286.8079977395946
 21
132.3369036042028
 31
0.0
  0
LINE
  5
3717
330
1F
100
AcDbEntity
  8
想像線
100
AcDbLine
 10
283.9714571931496
 20
130.6080092098116
 30
0.0
 11
286.8079977395946
 21
132.3369036042028
 31
0.0
  0
LINE
  5
3718
330
1F
100
AcDbEntity
  8
太線
100
AcDbLine
 10
282.663381186122
 20
132.7541267770862
 30
0.0
 11
286.1515838715289
 21
127.0311465976872
 31
0.0
  0
LINE
  5
3719
330
1F
100
AcDbEntity
  8
想像線
100
AcDbLine
 10
284.8435078645013
 20
129.1772641649618
 30
0.0
 11
287.6800484109463
 21
130.906158559353
 31
0.0
  0
LINE
  5
371A
330
1F
100
AcDbEntity
  8
想像線
100
AcDbLine
 10
287.6800484109463
 20
130.906158559353
 30
0.0
 11
286.1515838715289
 21
127.0311465976872
 31
0.0
  0
LINE
  5
371B
330
1F
100
AcDbEntity
  8
想像線
100
AcDbLine
 10
286.8079977395946
 20
132.3369036042028
 30
0.0
 11
282.663381186122
 21
132.7541267770862
 31
0.0
  0
ARC
  5
371C
330
1F
100
AcDbEntity
  8
太線
100
AcDbCircle
 10
285.5248712758216
 20
134.4982281197898
 30
0.0
 40
3.35112145811945
100
AcDbArc
 50
121.3626452800466
 51
211.3626452800466
  0
ARC
  5
371D
330
1F
100
AcDbEntity
  8
太線
100
AcDbCircle
 10
285.2370420207545
 20
137.2661943303249
 30
0.0
 40
0.8377803645298627
100
AcDbArc
 50
31.36264528004662
 51
121.3626452800466
  0
LINE
  5
371E
330
1F
100
AcDbEntity
  8
太線
100
AcDbLine
 10
284.496142455543
 20
137.7957435451651
 30
0.0
 11
283.7807699331181
 21
137.3597182094892
 31
0.0
  0
LINE
  5
371F
330
1F
100
AcDbEntity
  8
太線
100
AcDbLine
 10
286.824465214531
 20
136.271474621151
 30
0.0
 11
285.9524145431793
 21
137.7022196660007
 31
0.0
  0
LINE
  5
3720
330
1F
100
AcDbEntity
  8
太線
100
AcDbLine
 10
291.1847185712896
 20
129.1177493969021
 30
0.0
 11
292.2011453682886
 21
129.7372697467321
 31
0.0
  0
LINE
  5
3721
330
1F
100
AcDbEntity
  8
想像線
100
AcDbLine
 10
290.8358983027489
 20
129.690047414842
 30
0.0
 11
291.8008507219981
 21
130.2781937153012
 31
0.0
  0
LINE
  5
3722
330
1F
100
AcDbEntity
  8
太線
100
AcDbLine
 10
292.0567692426414
 20
127.6870043520523
 30
0.0
 11
291.1847185712896
 21
129.1177493969021
 31
0.0
  0
ARC
  5
3723
330
1F
100
AcDbEntity
  8
太線
100
AcDbCircle
 10
291.3413967202166
 20
127.2509790163765
 30
0.0
 40
0.8377803645298627
100
AcDbArc
 50
301.3626452800466
 51
31.36264528004662
  0
LINE
  5
3724
330
1F
100
AcDbEntity
  8
太線
100
AcDbLine
 10
290.7571753039319
 20
125.9137578506911
 30
0.0
 11
291.4725478263568
 21
126.3497831863669
 31
0.0
  0
ARC
  5
3725
330
1F
100
AcDbEntity
  8
太線
100
AcDbCircle
 10
297.2452425786782
 20
141.6418891794167
 30
0.0
 40
0.8377803645298627
100
AcDbArc
 50
31.36264528004662
 51
121.3626452800466
  0
ARC
  5
3726
330
1F
100
AcDbEntity
  8
太線
100
AcDbCircle
 10
300.7334452640851
 20
135.9189090000176
 30
0.0
 40
0.8377803645298627
100
AcDbArc
 50
301.3626452800466
 51
31.36264528004662
  0
LINE
  5
3727
330
1F
100
AcDbEntity
  8
太線
100
AcDbLine
 10
301.4488177865099
 20
136.3549343356934
 30
0.0
 11
297.960615101103
 21
142.0779145150925
 31
0.0
  0
LINE
  5
373E
330
1F
100
AcDbEntity
  8
想像線
100
AcDbLine
 10
347.9917402208484
 20
135.8620868259638
 30
0.0
 11
347.151728753824
 21
136.3468763752592
 31
0.0
  0
LINE
  5
373F
330
1F
100
AcDbEntity
  8
太線
100
AcDbLine
 10
348.3267532150088
 20
136.4425753226856
 30
0.0
 11
347.4423794023728
 21
136.9529673814454
 31
0.0
  0
LINE
  5
3740
330
1F
100
AcDbEntity
  8
太線
100
AcDbLine
 10
337.0547269214611
 20
141.9806256814059
 30
0.0
 11
333.7045969798565
 21
136.1757407141874
 31
0.0
  0
ARC
  5
3741
330
1F
100
AcDbEntity
  8
太線
100
AcDbCircle
 10
346.3183157285969
 20
128.8960793438463
 30
0.0
 40
3.35112145811945
100
AcDbArc
 50
240.0097870177531
 51
330.0097870177532
  0
LINE
  5
3742
330
1F
100
AcDbEntity
  8
太線
100
AcDbLine
 10
348.3267532150088
 20
136.4425753226856
 30
0.0
 11
344.1390907880031
 21
129.1864691136626
 31
0.0
  0
LINE
  5
3743
330
1F
100
AcDbEntity
  8
太線
100
AcDbLine
 10
344.1390907880031
 20
129.1864691136626
 30
0.0
 11
343.301558302602
 21
127.7352478718579
 31
0.0
  0
LINE
  5
3744
330
1F
100
AcDbEntity
  8
太線
100
AcDbLine
 10
343.9176401368924
 20
126.4124031029375
 30
0.0
 11
344.6432507577948
 21
125.993636860237
 31
0.0
  0
ARC
  5
3745
330
1F
100
AcDbEntity
  8
太線
100
AcDbCircle
 10
344.0271689235042
 20
127.3164816291574
 30
0.0
 40
0.8377803645298627
100
AcDbArc
 50
150.0097870177531
 51
240.0097870177531
  0
LINE
  5
3746
330
1F
100
AcDbEntity
  8
太線
100
AcDbLine
 10
334.0114413580583
 20
135.0313638505846
 30
0.0
 11
336.3005281043563
 21
133.7102802992291
 31
0.0
  0
LINE
  5
3747
330
1F
100
AcDbEntity
  8
想像線
100
AcDbLine
 10
344.4741037821636
 20
129.7669576103843
 30
0.0
 11
343.3625577162179
 21
130.4084558964015
 31
0.0
  0
ARC
  5
3748
330
1F
100
AcDbEntity
  8
太線
100
AcDbCircle
 10
334.4302076007587
 20
135.7569744714869
 30
0.0
 40
0.8377803645298627
100
AcDbArc
 50
150.0097870177531
 51
240.0097870177531
  0
LINE
  5
3749
330
1F
100
AcDbEntity
  8
想像線
100
AcDbLine
 10
347.5999210668978
 20
131.0583061914621
 30
0.0
 11
349.2207582122063
 21
127.2210143730439
 31
0.0
  0
LINE
  5
374A
330
1F
100
AcDbEntity
  8
太線
100
AcDbLine
 10
349.2207582122063
 20
127.2210143730439
 30
0.0
 11
352.5708881538108
 21
133.0258993402624
 31
0.0
  0
LINE
  5
374B
330
1F
100
AcDbEntity
  8
想像線
100
AcDbLine
 10
348.437453552299
 20
132.5095274332667
 30
0.0
 11
352.5708881538108
 21
133.0258993402624
 31
0.0
  0
ARC
  5
374C
330
1F
100
AcDbEntity
  8
太線
100
AcDbCircle
 10
349.6684456702015
 20
134.7009643110647
 30
0.0
 40
3.35112145811945
100
AcDbArc
 50
330.0097870177532
 51
60.00978701775323
  0
LINE
  5
374D
330
1F
100
AcDbEntity
  8
太線
100
AcDbLine
 10
351.3435106410038
 20
137.603406794674
 30
0.0
 11
350.6179000201016
 21
138.0221730373745
 31
0.0
  0
ARC
  5
374E
330
1F
100
AcDbEntity
  8
太線
100
AcDbCircle
 10
349.8898963213122
 20
137.4750303217898
 30
0.0
 40
0.8377803645298627
100
AcDbArc
 50
60.00978701775323
 51
150.0097870177531
  0
LINE
  5
374F
330
1F
100
AcDbEntity
  8
太線
100
AcDbLine
 10
349.16428570041
 20
137.8937965644903
 30
0.0
 11
348.3267532150088
 21
136.4425753226856
 31
0.0
  0
LINE
  5
3750
330
1F
100
AcDbEntity
  8
想像線
100
AcDbLine
 10
351.3145894257091
 20
130.8490674775555
 30
0.0
 11
348.437453552299
 21
132.5095274332667
 31
0.0
  0
LINE
  5
3751
330
1F
100
AcDbEntity
  8
想像線
100
AcDbLine
 10
350.477056940308
 20
129.3978462357509
 30
0.0
 11
347.5999210668978
 21
131.0583061914621
 31
0.0
  0
LINE
  5
3752
330
1F
100
AcDbEntity
  8
想像線
100
AcDbLine
 10
348.437453552299
 20
132.5095274332667
 30
0.0
 11
347.5999210668978
 21
131.0583061914621
 31
0.0
  0
ARC
  5
3753
330
1F
100
AcDbEntity
  8
太線
100
AcDbCircle
 10
337.7803375423634
 20
141.5618594387053
 30
0.0
 40
0.8377803645298627
100
AcDbArc
 50
60.00978701775323
 51
150.0097870177531
  0
LINE
  5
3754
330
1F
100
AcDbEntity
  8
想像線
100
AcDbLine
 10
267.1964252882517
 20
277.8187636594905
 30
0.0
 11
264.9406860574115
 21
279.1206016081089
 31
0.0
  0
LINE
  5
3755
330
1F
100
AcDbEntity
  8
太線
100
AcDbLine
 10
267.5314382824121
 20
278.3992521562122
 30
0.0
 11
265.1966443935137
 21
279.7467143296827
 31
0.0
  0
LINE
  5
3756
330
1F
100
AcDbEntity
  8
太線
100
AcDbLine
 10
256.2594119888644
 20
283.9373025149326
 30
0.0
 11
252.9092820472598
 21
278.1324175477141
 31
0.0
  0
ARC
  5
3757
330
1F
100
AcDbEntity
  8
太線
100
AcDbCircle
 10
265.5230007960002
 20
270.852756177373
 30
0.0
 40
3.35112145811945
100
AcDbArc
 50
240.0097870177531
 51
330.0097870177532
  0
LINE
  5
3758
330
1F
100
AcDbEntity
  8
太線
100
AcDbLine
 10
267.5314382824121
 20
278.3992521562122
 30
0.0
 11
263.3437758554064
 21
271.1431459471892
 31
0.0
  0
LINE
  5
3759
330
1F
100
AcDbEntity
  8
太線
100
AcDbLine
 10
263.3437758554064
 20
271.1431459471892
 30
0.0
 11
262.5062433700052
 21
269.6919247053846
 31
0.0
  0
LINE
  5
375A
330
1F
100
AcDbEntity
  8
太線
100
AcDbLine
 10
263.1223252042957
 20
268.3690799364642
 30
0.0
 11
263.847935825198
 21
267.9503136937636
 31
0.0
  0
ARC
  5
375B
330
1F
100
AcDbEntity
  8
太線
100
AcDbCircle
 10
263.2318539909074
 20
269.273158462684
 30
0.0
 40
0.8377803645298627
100
AcDbArc
 50
150.0097870177531
 51
240.0097870177531
  0
LINE
  5
375C
330
1F
100
AcDbEntity
  8
太線
100
AcDbLine
 10
253.2161264254615
 20
276.9880406841112
 30
0.0
 11
254.5610352854458
 21
276.2118634702634
 31
0.0
  0
LINE
  5
375D
330
1F
100
AcDbEntity
  8
想像線
100
AcDbLine
 10
263.6787888495669
 20
271.723634443911
 30
0.0
 11
261.5119922472382
 21
272.9741415970798
 31
0.0
  0
ARC
  5
375E
330
1F
100
AcDbEntity
  8
太線
100
AcDbCircle
 10
253.634892668162
 20
277.7136513050136
 30
0.0
 40
0.8377803645298627
100
AcDbArc
 50
150.0097870177531
 51
240.0097870177531
  0
LINE
  5
375F
330
1F
100
AcDbEntity
  8
想像線
100
AcDbLine
 10
266.8046061343011
 20
273.0149830249887
 30
0.0
 11
268.4254432796096
 21
269.1776912065706
 31
0.0
  0
LINE
  5
3760
330
1F
100
AcDbEntity
  8
太線
100
AcDbLine
 10
268.4254432796096
 20
269.1776912065706
 30
0.0
 11
271.7755732212141
 21
274.9825761737891
 31
0.0
  0
LINE
  5
3761
330
1F
100
AcDbEntity
  8
想像線
100
AcDbLine
 10
267.6421386197022
 20
274.4662042667934
 30
0.0
 11
271.7755732212141
 21
274.9825761737891
 31
0.0
  0
ARC
  5
3762
330
1F
100
AcDbEntity
  8
太線
100
AcDbCircle
 10
268.8731307376048
 20
276.6576411445914
 30
0.0
 40
3.35112145811945
100
AcDbArc
 50
330.0097870177532
 51
60.00978701775323
  0
LINE
  5
3763
330
1F
100
AcDbEntity
  8
太線
100
AcDbLine
 10
270.5481957084071
 20
279.5600836282007
 30
0.0
 11
269.8225850875048
 21
279.9788498709012
 31
0.0
  0
ARC
  5
3764
330
1F
100
AcDbEntity
  8
太線
100
AcDbCircle
 10
269.0945813887154
 20
279.4317071553164
 30
0.0
 40
0.8377803645298627
100
AcDbArc
 50
60.00978701775323
 51
150.0097870177531
  0
LINE
  5
3765
330
1F
100
AcDbEntity
  8
太線
100
AcDbLine
 10
268.3689707678132
 20
279.850473398017
 30
0.0
 11
267.5314382824121
 21
278.3992521562122
 31
0.0
  0
LINE
  5
3766
330
1F
100
AcDbEntity
  8
想像線
100
AcDbLine
 10
270.5192744931124
 20
272.8057443110821
 30
0.0
 11
267.6421386197022
 21
274.4662042667934
 31
0.0
  0
LINE
  5
3767
330
1F
100
AcDbEntity
  8
想像線
100
AcDbLine
 10
269.6817420077113
 20
271.3545230692775
 30
0.0
 11
266.8046061343011
 21
273.0149830249887
 31
0.0
  0
LINE
  5
3768
330
1F
100
AcDbEntity
  8
想像線
100
AcDbLine
 10
267.6421386197022
 20
274.4662042667934
 30
0.0
 11
266.8046061343011
 21
273.0149830249887
 31
0.0
  0
ARC
  5
3769
330
1F
100
AcDbEntity
  8
太線
100
AcDbCircle
 10
256.9850226097666
 20
283.518536272232
 30
0.0
 40
0.8377803645298627
100
AcDbArc
 50
60.00978701775323
 51
150.0097870177531
  0
LINE
  5
376A
330
1F
100
AcDbEntity
  8
想像線
100
AcDbLine
 10
183.4280113231625
 20
134.4180923400665
 30
0.0
 11
182.0383941307706
 21
135.2200717401564
 31
0.0
  0
LINE
  5
376B
330
1F
100
AcDbEntity
  8
太線
100
AcDbLine
 10
183.7630243173229
 20
134.9985808367883
 30
0.0
 11
182.3225993926367
 21
135.8298825242595
 31
0.0
  0
LINE
  5
376C
330
1F
100
AcDbEntity
  8
太線
100
AcDbLine
 10
172.4909980237752
 20
140.5366311955086
 30
0.0
 11
169.1408680821706
 21
134.7317462282901
 31
0.0
  0
ARC
  5
376D
330
1F
100
AcDbEntity
  8
太線
100
AcDbCircle
 10
181.754586830911
 20
127.452084857949
 30
0.0
 40
3.35112145811945
100
AcDbArc
 50
240.0097870177531
 51
330.0097870177532
  0
LINE
  5
376E
330
1F
100
AcDbEntity
  8
太線
100
AcDbLine
 10
183.7630243173229
 20
134.9985808367883
 30
0.0
 11
179.5753618903172
 21
127.7424746277653
 31
0.0
  0
LINE
  5
376F
330
1F
100
AcDbEntity
  8
太線
100
AcDbLine
 10
179.5753618903172
 20
127.7424746277653
 30
0.0
 11
178.7378294049161
 21
126.2912533859606
 31
0.0
  0
LINE
  5
3770
330
1F
100
AcDbEntity
  8
太線
100
AcDbLine
 10
179.3539112392065
 20
124.9684086170403
 30
0.0
 11
180.0795218601089
 21
124.5496423743397
 31
0.0
  0
ARC
  5
3771
330
1F
100
AcDbEntity
  8
太線
100
AcDbCircle
 10
179.4634400258183
 20
125.8724871432601
 30
0.0
 40
0.8377803645298627
100
AcDbArc
 50
150.0097870177531
 51
240.0097870177531
  0
LINE
  5
3772
330
1F
100
AcDbEntity
  8
太線
100
AcDbLine
 10
169.4477124603724
 20
133.5873693646873
 30
0.0
 11
171.2781677363347
 21
132.530972371224
 31
0.0
  0
LINE
  5
3773
330
1F
100
AcDbEntity
  8
想像線
100
AcDbLine
 10
179.9103748844777
 20
128.322963124487
 30
0.0
 11
178.3167839991082
 21
129.2426603398313
 31
0.0
  0
ARC
  5
3774
330
1F
100
AcDbEntity
  8
太線
100
AcDbCircle
 10
169.8664787030728
 20
134.3129799855896
 30
0.0
 40
0.8377803645298627
100
AcDbArc
 50
150.0097870177531
 51
240.0097870177531
  0
LINE
  5
3775
330
1F
100
AcDbEntity
  8
想像線
100
AcDbLine
 10
183.0361921692119
 20
129.6143117055648
 30
0.0
 11
184.6570293145204
 21
125.7770198871466
 31
0.0
  0
LINE
  5
3776
330
1F
100
AcDbEntity
  8
太線
100
AcDbLine
 10
184.6570293145204
 20
125.7770198871466
 30
0.0
 11
188.0071592561249
 21
131.5819048543651
 31
0.0
  0
LINE
  5
3777
330
1F
100
AcDbEntity
  8
想像線
100
AcDbLine
 10
183.8737246546131
 20
131.0655329473694
 30
0.0
 11
188.0071592561249
 21
131.5819048543651
 31
0.0
  0
ARC
  5
3778
330
1F
100
AcDbEntity
  8
太線
100
AcDbCircle
 10
185.1047167725156
 20
133.2569698251674
 30
0.0
 40
3.35112145811945
100
AcDbArc
 50
330.0097870177532
 51
60.00978701775323
  0
LINE
  5
3779
330
1F
100
AcDbEntity
  8
太線
100
AcDbLine
 10
186.779781743318
 20
136.1594123087767
 30
0.0
 11
186.0541711224157
 21
136.5781785514772
 31
0.0
  0
ARC
  5
377A
330
1F
100
AcDbEntity
  8
太線
100
AcDbCircle
 10
185.3261674236263
 20
136.0310358358925
 30
0.0
 40
0.8377803645298627
100
AcDbArc
 50
60.00978701775323
 51
150.0097870177531
  0
LINE
  5
377B
330
1F
100
AcDbEntity
  8
太線
100
AcDbLine
 10
184.6005568027241
 20
136.449802078593
 30
0.0
 11
183.7630243173229
 21
134.9985808367883
 31
0.0
  0
LINE
  5
377C
330
1F
100
AcDbEntity
  8
想像線
100
AcDbLine
 10
186.7508605280232
 20
129.4050729916582
 30
0.0
 11
183.8737246546131
 21
131.0655329473694
 31
0.0
  0
LINE
  5
377D
330
1F
100
AcDbEntity
  8
想像線
100
AcDbLine
 10
185.9133280426221
 20
127.9538517498536
 30
0.0
 11
183.0361921692119
 21
129.6143117055648
 31
0.0
  0
LINE
  5
377E
330
1F
100
AcDbEntity
  8
想像線
100
AcDbLine
 10
183.8737246546131
 20
131.0655329473694
 30
0.0
 11
183.0361921692119
 21
129.6143117055648
 31
0.0
  0
ARC
  5
377F
330
1F
100
AcDbEntity
  8
太線
100
AcDbCircle
 10
173.2166086446774
 20
140.117864952808
 30
0.0
 40
0.8377803645298627
100
AcDbArc
 50
60.00978701775323
 51
150.0097870177531
  0
LINE
  5
3782
330
1F
100
AcDbEntity
  8
中心線
100
AcDbLine
 10
235.4498554666495
 20
196.5419908648298
 30
0.0
 11
369.2679029263901
 21
119.282105141518
 31
0.0
  0
LINE
  5
3783
330
1F
100
AcDbEntity
  8
中心線
100
AcDbLine
 10
235.4498554666495
 20
196.5419908648298
 30
0.0
 11
235.4498554666495
 21
351.0617623114526
 31
0.0
  0
LINE
  5
3784
330
1F
100
AcDbEntity
  8
中心線
100
AcDbLine
 10
235.4498554666495
 20
196.5419908648298
 30
0.0
 11
101.631808006909
 21
119.282105141518
 31
0.0
  0
LINE
  5
3785
330
1F
100
AcDbEntity
  8
太線
100
AcDbLine
 10
321.3697797496941
 20
180.8334309716068
 30
0.0
 11
321.3697797496941
 21
182.0590574067427
 31
0.0
  0
LINE
  5
3786
330
1F
100
AcDbEntity
  8
想像線
100
AcDbLine
 10
320.69955545807
 20
173.3604152445363
 30
0.0
 11
320.69955545807
 21
169.5449544168853
 31
0.0
  0
LINE
  5
3787
330
1F
100
AcDbEntity
  8
太線
100
AcDbLine
 10
312.9919761043953
 20
173.0810077075857
 30
0.0
 11
312.9919761043953
 21
170.3658081807338
 31
0.0
  0
LINE
  5
3788
330
1F
100
AcDbEntity
  8
想像線
100
AcDbLine
 10
313.6622003960192
 20
173.2032376112722
 30
0.0
 11
313.6622003960192
 21
169.5449544168853
 31
0.0
  0
LINE
  5
3789
330
1F
100
AcDbEntity
  8
太線
100
AcDbLine
 10
288.063639951813
 20
137.026761641336
 30
0.0
 11
286.8244652145309
 21
136.2714746211511
 31
0.0
  0
LINE
  5
378A
330
1F
100
AcDbEntity
  8
想像線
100
AcDbLine
 10
294.8136597422437
 20
140.3560464809529
 30
0.0
 11
297.8589565739224
 21
142.2121795188343
 31
0.0
  0
LINE
  5
378B
330
1F
100
AcDbEntity
  8
想像線
100
AcDbLine
 10
298.2313643209451
 20
134.1976437398071
 30
0.0
 11
301.5215693935997
 21
136.2030503304652
 31
0.0
  0
LINE
  5
378C
330
1F
100
AcDbEntity
  8
太線
100
AcDbLine
 10
298.6476119431209
 20
133.6664432390081
 30
0.0
 11
301.1694705997608
 21
135.2035364775927
 31
0.0
  0
LINE
  5
378D
330
1F
100
AcDbEntity
  8
想像線
100
AcDbLine
 10
336.7633937918294
 20
134.2169821251727
 30
0.0
 11
333.6355040429568
 21
136.022157793754
 31
0.0
  0
LINE
  5
378E
330
1F
100
AcDbEntity
  8
太線
100
AcDbLine
 10
342.9306296240675
 20
129.8838992869441
 30
0.0
 11
344.1390907880031
 21
129.1864691136624
 31
0.0
  0
LINE
  5
378F
330
1F
100
AcDbEntity
  8
太線
100
AcDbLine
 10
340.9144416174948
 20
140.720387399853
 30
0.0
 11
338.199103785064
 21
142.2874700596077
 31
0.0
  0
LINE
  5
3790
330
1F
100
AcDbEntity
  8
想像線
100
AcDbLine
 10
340.6374934065127
 20
140.1063884081297
 30
0.0
 11
337.1531404816416
 21
142.1172870093334
 31
0.0
  0
LINE
  5
3791
330
1F
100
AcDbEntity
  8
太線
100
AcDbLine
 10
205.7461658405945
 20
279.6385954417166
 30
0.0
 11
204.3479625242904
 21
278.7863792169894
 31
0.0
  0
LINE
  5
3792
330
1F
100
AcDbEntity
  8
想像線
100
AcDbLine
 10
212.4986047384447
 20
282.9693547468625
 30
0.0
 11
215.3824538836819
 21
284.7270841146725
 31
0.0
  0
LINE
  5
3793
330
1F
100
AcDbEntity
  8
想像線
100
AcDbLine
 10
215.886745336649
 20
276.7929325206007
 30
0.0
 11
219.0450667033591
 21
278.7179549263035
 31
0.0
  0
LINE
  5
3794
330
1F
100
AcDbEntity
  8
太線
100
AcDbLine
 10
216.3001585773251
 20
276.2600044413638
 30
0.0
 11
218.6929679095203
 21
277.718441073431
 31
0.0
  0
LINE
  5
3795
330
1F
100
AcDbEntity
  8
太線
100
AcDbLine
 10
261.1151375528638
 20
272.4293433393024
 30
0.0
 11
263.3437758554064
 21
271.1431459471891
 31
0.0
  0
LINE
  5
3796
330
1F
100
AcDbEntity
  8
想像線
100
AcDbLine
 10
254.9771499558664
 20
276.7455463617945
 30
0.0
 11
252.8401891103601
 21
277.9788346272807
 31
0.0
  0
LINE
  5
3797
330
1F
100
AcDbEntity
  8
太線
100
AcDbLine
 10
258.6091729252196
 20
283.5484925785242
 30
0.0
 11
257.4037888524673
 21
284.2441468931344
 31
0.0
  0
LINE
  5
3798
330
1F
100
AcDbEntity
  8
想像線
100
AcDbLine
 10
258.3781020404318
 20
282.9080167478983
 30
0.0
 11
256.3578255490449
 21
284.0739638428601
 31
0.0
  0
LINE
  5
3799
330
1F
100
AcDbEntity
  8
想像線
100
AcDbLine
 10
238.7835996636815
 20
315.814117875637
 30
0.0
 11
238.7835996636815
 21
312.360503769098
 31
0.0
  0
LINE
  5
379A
330
1F
100
AcDbEntity
  8
太線
100
AcDbLine
 10
239.4538239553055
 20
323.2905063630676
 30
0.0
 11
239.4538239553055
 21
324.8746067589554
 31
0.0
  0
LINE
  5
379B
330
1F
100
AcDbEntity
  8
想像線
100
AcDbLine
 10
231.7462446016306
 20
315.7604397532395
 30
0.0
 11
231.7462446016306
 21
312.360503769098
 31
0.0
  0
LINE
  5
379C
330
1F
100
AcDbEntity
  8
太線
100
AcDbLine
 10
231.0760203100068
 20
315.6484125408587
 30
0.0
 11
231.0760203100068
 21
313.1813575329464
 31
0.0
  0
LINE
  5
379D
330
1F
100
AcDbEntity
  8
太線
100
AcDbLine
 10
157.3914669549747
 20
180.7633085326335
 30
0.0
 11
157.3914669549747
 21
181.4036668718749
 31
0.0
  0
LINE
  5
379E
330
1F
100
AcDbEntity
  8
想像線
100
AcDbLine
 10
156.7212426633507
 20
173.2843397117898
 30
0.0
 11
156.7212426633507
 21
168.8895638820175
 31
0.0
  0
LINE
  5
379F
330
1F
100
AcDbEntity
  8
想像線
100
AcDbLine
 10
149.6838876012998
 20
173.2916316232986
 30
0.0
 11
149.6838876012998
 21
168.8895638820175
 31
0.0
  0
LINE
  5
37A0
330
1F
100
AcDbEntity
  8
太線
100
AcDbLine
 10
149.0136633096759
 20
173.1855810312875
 30
0.0
 11
149.0136633096759
 21
169.7104176458659
 31
0.0
  0
LINE
  5
37A1
330
1F
100
AcDbEntity
  8
太線
100
AcDbLine
 10
175.7859175213878
 20
139.6023489519807
 30
0.0
 11
173.6353748873781
 21
140.8434755737104
 31
0.0
  0
LINE
  5
37A2
330
1F
100
AcDbEntity
  8
想像線
100
AcDbLine
 10
175.5174484887462
 20
138.9834564353384
 30
0.0
 11
172.5894115839557
 21
140.6732925234361
 31
0.0
  0
LINE
  5
37A3
330
1F
100
AcDbEntity
  8
太線
100
AcDbLine
 10
177.8914873430029
 20
128.7142765791768
 30
0.0
 11
179.5753618903172
 21
127.7424746277651
 31
0.0
  0
LINE
  5
37A4
330
1F
100
AcDbEntity
  8
想像線
100
AcDbLine
 10
171.7321273169701
 20
133.0428141121442
 30
0.0
 11
169.0717751452709
 21
134.5781633078567
 31
0.0
  0
LINE
  5
37A5
330
1F
100
AcDbEntity
  8
太線
100
AcDbLine
 10
133.6188571127249
 20
133.1530538218999
 30
0.0
 11
135.8662087924858
 21
134.5228328388907
 31
0.0
  0
LINE
  5
37A6
330
1F
100
AcDbEntity
  8
想像線
100
AcDbLine
 10
133.2076682582094
 20
133.6873376824842
 30
0.0
 11
136.2183075863246
 21
135.5223466917632
 31
0.0
  0
LINE
  5
37A7
330
1F
100
AcDbEntity
  8
想像線
100
AcDbLine
 10
129.8427776654291
 20
139.877930975011
 30
0.0
 11
132.5556947666474
 21
141.5314758801323
 31
0.0
  0
LINE
  5
37A8
330
1F
100
AcDbEntity
  8
太線
100
AcDbLine
 10
123.0883483001755
 20
136.5459584638913
 30
0.0
 11
121.5212034072559
 21
135.5907709824491
 31
0.0
  0
LINE
  5
37D8
330
1F
100
AcDbEntity
  8
太線
100
AcDbLine
 10
454.0179263866544
 20
261.9437887412227
 30
0.0
 11
511.5598353783911
 21
244.9458856474084
 31
0.0
  0
LINE
  5
37D9
330
1F
100
AcDbEntity
  8
太線
100
AcDbLine
 10
513.5870356732872
 20
241.2188950431309
 30
0.0
 11
511.6039469790088
 21
234.5056723274283
 31
0.0
  0
LINE
  5
37DA
330
1F
100
AcDbEntity
  8
太線
100
AcDbLine
 10
511.6039469790088
 20
234.5056723274283
 30
0.0
 11
532.7026469426455
 21
228.2731078596964
 31
0.0
  0
LINE
  5
37DB
330
1F
100
AcDbEntity
  8
太線
100
AcDbLine
 10
534.7298472375416
 20
224.5461172554189
 30
0.0
 11
529.9137746942943
 21
208.2425763744268
 31
0.0
  0
LINE
  5
37DC
330
1F
100
AcDbEntity
  8
太線
100
AcDbLine
 10
529.9137746942943
 20
208.2425763744268
 30
0.0
 11
516.4833765048599
 21
195.049981029948
 31
0.0
  0
LINE
  5
37DD
330
1F
100
AcDbEntity
  8
太線
100
AcDbLine
 10
513.5311930029351
 20
194.3130686811926
 30
0.0
 11
503.7157038025133
 21
197.2125681446377
 31
0.0
  0
LINE
  5
37DE
330
1F
100
AcDbEntity
  8
太線
100
AcDbLine
 10
499.9887131982358
 20
195.1853678497416
 30
0.0
 11
498.2889228888542
 21
189.431176950568
 31
0.0
  0
LINE
  5
37DF
330
1F
100
AcDbEntity
  8
太線
100
AcDbLine
 10
494.5619322845767
 20
187.4039766556719
 30
0.0
 11
437.0200232928401
 21
204.4018797494861
 31
0.0
  0
LINE
  5
37E0
330
1F
100
AcDbEntity
  8
太線
100
AcDbLine
 10
434.9928229979441
 20
208.1288703537637
 30
0.0
 11
450.2909357823769
 21
259.9165884463266
 31
0.0
  0
LINE
  5
37E3
330
1F
100
AcDbEntity
  8
太線
100
AcDbLine
 10
441.8151823754849
 20
202.9853878250016
 30
0.0
 11
407.031262072816
 21
85.23361777517886
 31
0.0
  0
LINE
  5
37E4
330
1F
100
AcDbEntity
  8
太線
100
AcDbLine
 10
489.766773201932
 20
188.8204685801564
 30
0.0
 11
454.9828528992632
 21
71.06869853033368
 31
0.0
  0
ARC
  5
37E5
330
1F
100
AcDbEntity
  8
太線
100
AcDbCircle
 10
422.6738760316049
 20
89.15730868954762
 30
0.0
 40
16.12720440297062
100
AcDbArc
 50
194.0811791076938
 51
309.1217039999798
  0
ARC
  5
37E6
330
1F
100
AcDbEntity
  8
太線
100
AcDbCircle
 10
442.5089379006248
 20
68.27205363102482
 30
0.0
 40
12.78357454259516
100
AcDbArc
 50
12.63671813715032
 51
139.0779272903717
  0
ARC
  5
37E7
330
1F
100
AcDbEntity
  8
太線
100
AcDbCircle
 10
445.9752120876166
 20
82.02849424386085
 30
0.0
 40
14.18642714265619
100
AcDbArc
 50
202.2985318669825
 51
309.4161135605393
  0
ARC
  5
37E8
330
1F
100
AcDbEntity
  8
太線
100
AcDbCircle
 10
445.6457256360873
 20
81.89102998534599
 30
0.0
 40
11.82157253148051
100
AcDbArc
 50
204.4024605979593
 51
311.0464125927912
  0
LINE
  5
37EB
330
1F
100
AcDbEntity
  8
想像線
100
AcDbLine
 10
522.7653048093165
 20
201.1701302210427
 30
0.0
 11
506.1493463722195
 21
214.6546990794121
 31
0.0
  0
LINE
  5
37EC
330
1F
100
AcDbEntity
  8
想像線
100
AcDbLine
 10
506.1493463722195
 20
214.6546990794121
 30
0.0
 11
511.5862184776294
 21
233.0597928231846
 31
0.0
  0
CIRCLE
  5
37EF
330
1F
100
AcDbEntity
  8
構築線
100
AcDbCircle
 10
411.5200289259155
 20
246.8940153566955
 30
0.0
 40
4.5
  0
CIRCLE
  5
37F0
330
1F
100
AcDbEntity
  8
構築線
100
AcDbCircle
 10
411.5200289259155
 20
246.8940153566955
 30
0.0
 40
4.5
  0
CIRCLE
  5
37F1
330
1F
100
AcDbEntity
  8
太線
100
AcDbCircle
 10
523.193840498985
 20
219.8744242802145
 30
0.0
 40
7.0
  0
CIRCLE
  5
37F2
330
1F
100
AcDbEntity
  8
太線
100
AcDbCircle
 10
523.193840498985
 20
219.8744242802145
 30
0.0
 40
3.5
  0
LWPOLYLINE
  5
37F3
330
1F
100
AcDbEntity
  8
太線
100
AcDbPolyline
 90
        6
 70
     1
 43
0.0
 10
525.1769291932633
 20
226.587646995917
 10
518.371563433063
 20
224.9484408252685
 10
516.3884747387847
 20
218.2352181095659
 10
521.2107518047067
 20
213.1612015645119
 10
528.016117564907
 20
214.8004077351604
 10
529.9992062591853
 20
221.513630450863
  0
ARC
  5
3811
330
1F
100
AcDbEntity
  8
太線
100
AcDbCircle
 10
567.7620415113969
 20
171.3144115254213
 30
0.0
 40
35.0
100
AcDbArc
 50
124.8499045790463
 51
53.13010235415609
  0
LINE
  5
3813
330
1F
100
AcDbEntity
  8
太線
100
AcDbLine
 10
532.6717799751222
 20
231.3144115254213
 30
0.0
 11
593.7620415113969
 21
231.3144115254213
 31
0.0
  0
LINE
  5
3814
330
1F
100
AcDbEntity
  8
太線
100
AcDbLine
 10
596.762041511397
 20
228.3144115254212
 30
0.0
 11
596.762041511397
 21
209.3144115254212
 31
0.0
  0
LINE
  5
3815
330
1F
100
AcDbEntity
  8
太線
100
AcDbLine
 10
593.7620415113969
 20
206.3144115254213
 30
0.0
 11
529.8940021973444
 21
206.3144115254213
 31
0.0
  0
LINE
  5
3816
330
1F
100
AcDbEntity
  8
太線
100
AcDbLine
 10
539.7620415113969
 20
231.3144115254213
 30
0.0
 11
539.7620415113969
 21
206.3144115254213
 31
0.0
  0
LINE
  5
3819
330
1F
100
AcDbEntity
  8
太線
100
AcDbLine
 10
588.7620415113969
 20
206.3144115254213
 30
0.0
 11
588.7620415113969
 21
199.3144115254212
 31
0.0
  0
LINE
  5
381B
330
1F
100
AcDbEntity
  8
太線
100
AcDbLine
 10
547.7620415113969
 20
206.3144115254213
 30
0.0
 11
547.7620415113969
 21
200.0372247581114
 31
0.0
  0
CIRCLE
  5
381F
330
1F
100
AcDbEntity
  8
太線
100
AcDbCircle
 10
567.7620415113969
 20
171.3144115254213
 30
0.0
 40
19.0
  0
LINE
  5
3821
330
1F
100
AcDbEntity
  8
太線
100
AcDbLine
 10
588.7620415113969
 20
199.3144115254212
 30
0.0
 11
582.17690571405
 21
194.8999642722205
 31
0.0
  0
LINE
  5
3822
330
1F
100
AcDbEntity
  8
太線
100
AcDbLine
 10
547.7620415113969
 20
200.0372247581114
 30
0.0
 11
554.8282553395742
 21
194.5929193557821
 31
0.0
  0
LINE
  5
3824
330
1F
100
AcDbEntity
  8
太線
100
AcDbLine
 10
554.6164496137662
 20
194.5905414003623
 30
0.0
 11
582.2197429715197
 21
194.9004452086455
 31
0.0
  0
LINE
  5
3825
330
1F
100
AcDbEntity
  8
太線
100
AcDbLine
 10
532.6717799751222
 20
231.3144115254213
 30
0.0
 11
522.4071170891392
 21
231.3144115254213
 31
0.0
  0
ARC
  5
3828
330
1F
100
AcDbEntity
  8
想像線
100
AcDbCircle
 10
523.300452036431
 20
219.7513086018962
 30
0.0
 40
13.68501740840214
100
AcDbArc
 50
122.3338320578317
 51
280.9270894318708
  0
LINE
  5
3829
330
1F
100
AcDbEntity
  8
太線
100
AcDbLine
 10
529.8940021973444
 20
206.3144115254213
 30
0.0
 11
527.7894697348211
 21
206.3144115254213
 31
0.0
  0
LINE
  5
382B
330
1F
100
AcDbEntity
  8
想像線
100
AcDbLine
 10
522.4071170891392
 20
231.3144115254213
 30
0.0
 11
515.9810017668935
 21
231.3144115254213
 31
0.0
  0
LINE
  5
382C
330
1F
100
AcDbEntity
  8
想像線
100
AcDbLine
 10
527.9508537510809
 20
206.3144115254213
 30
0.0
 11
525.8945797172692
 21
206.3144115254213
 31
0.0
  0
ARC
  5
382F
330
1F
100
AcDbEntity
  8
太線
100
AcDbCircle
 10
453.1680312319637
 20
259.0666932916359
 30
0.0
 40
3.0
100
AcDbArc
 50
73.54283831986804
 51
163.542838319868
  0
ARC
  5
3830
330
1F
100
AcDbEntity
  8
太線
100
AcDbCircle
 10
510.7099402237004
 20
242.0687901978216
 30
0.0
 40
3.0
100
AcDbArc
 50
343.5428383198676
 51
73.54283831986798
  0
ARC
  5
3831
330
1F
100
AcDbEntity
  8
太線
100
AcDbCircle
 10
437.8699184475308
 20
207.2789751990729
 30
0.0
 40
3.0
100
AcDbArc
 50
163.5428383198679
 51
253.5428383198679
  0
ARC
  5
3832
330
1F
100
AcDbEntity
  8
太線
100
AcDbCircle
 10
495.4118274392675
 20
190.2810721052587
 30
0.0
 40
3.0
100
AcDbArc
 50
253.5428383198679
 51
343.5428383198679
  0
ARC
  5
3833
330
1F
100
AcDbEntity
  8
太線
100
AcDbCircle
 10
502.8658086478226
 20
194.3354726950509
 30
0.0
 40
3.0
100
AcDbArc
 50
73.54283831986792
 51
163.5428383198677
  0
ARC
  5
3834
330
1F
100
AcDbEntity
  8
太線
100
AcDbCircle
 10
514.381088157626
 20
197.1901641307794
 30
0.0
 40
3.0
100
AcDbArc
 50
253.5428383198679
 51
314.4882342207909
  0
ARC
  5
3835
330
1F
100
AcDbEntity
  8
太線
100
AcDbCircle
 10
531.8527517879549
 20
225.3960124101096
 30
0.0
 40
3.0
100
AcDbArc
 50
343.5428383198679
 51
73.54283831986804
  0
ARC
  5
3836
330
1F
100
AcDbEntity
  8
太線
100
AcDbCircle
 10
593.7620415113969
 20
209.3144115254212
 30
0.0
 40
3.0
100
AcDbArc
 50
270.0
 51
0.0
  0
ARC
  5
3837
330
1F
100
AcDbEntity
  8
太線
100
AcDbCircle
 10
593.7620415113969
 20
228.3144115254212
 30
0.0
 40
3.0
100
AcDbArc
 50
0.0000000000001527
 51
90.0
  0
LINE
  5
383F
330
1F
100
AcDbEntity
  8
太線
100
AcDbLine
 10
551.7620415113969
 20
231.3144115254213
 30
0.0
 11
551.7620415113969
 21
236.3144115254212
 31
0.0
  0
LINE
  5
3840
330
1F
100
AcDbEntity
  8
太線
100
AcDbLine
 10
551.7620415113969
 20
236.3144115254212
 30
0.0
 11
583.762041511397
 21
236.3144115254212
 31
0.0
  0
LINE
  5
3841
330
1F
100
AcDbEntity
  8
太線
100
AcDbLine
 10
583.762041511397
 20
236.3144115254212
 30
0.0
 11
583.762041511397
 21
231.3144115254213
 31
0.0
  0
LINE
  5
384B
330
1F
100
AcDbEntity
  8
太線
100
AcDbLine
 10
577.762041511397
 20
236.3144115254212
 30
0.0
 11
577.762041511397
 21
242.505514212884
 31
0.0
  0
LINE
  5
384C
330
1F
100
AcDbEntity
  8
太線
100
AcDbLine
 10
577.762041511397
 20
242.505514212884
 30
0.0
 11
575.762041511397
 21
245.505514212884
 31
0.0
  0
LINE
  5
384D
330
1F
100
AcDbEntity
  8
太線
100
AcDbLine
 10
575.762041511397
 20
245.505514212884
 30
0.0
 11
559.7620415113969
 21
245.505514212884
 31
0.0
  0
LINE
  5
384E
330
1F
100
AcDbEntity
  8
太線
100
AcDbLine
 10
559.7620415113969
 20
245.505514212884
 30
0.0
 11
557.762041511397
 21
242.505514212884
 31
0.0
  0
LINE
  5
384F
330
1F
100
AcDbEntity
  8
太線
100
AcDbLine
 10
557.762041511397
 20
242.505514212884
 30
0.0
 11
557.762041511397
 21
236.3144115254212
 31
0.0
  0
LINE
  5
3850
330
1F
100
AcDbEntity
  8
太線
100
AcDbLine
 10
557.762041511397
 20
242.505514212884
 30
0.0
 11
577.762041511397
 21
242.505514212884
 31
0.0
  0
LINE
  5
3851
330
1F
100
AcDbEntity
  8
太線
100
AcDbLine
 10
559.7620415113969
 20
231.3144115254213
 30
0.0
 11
559.7620415113969
 21
236.3144115254212
 31
0.0
  0
LINE
  5
3852
330
1F
100
AcDbEntity
  8
太線
100
AcDbLine
 10
575.762041511397
 20
236.3144115254212
 30
0.0
 11
575.762041511397
 21
231.3144115254213
 31
0.0
  0
ARC
  5
3857
330
1F
100
AcDbEntity
  8
太線
100
AcDbCircle
 10
555.7629808718711
 20
225.8487193602428
 30
0.0
 40
10.16622369174511
100
AcDbArc
 50
66.63936877929258
 51
113.3606312207074
  0
ARC
  5
3858
330
1F
100
AcDbEntity
  8
太線
100
AcDbCircle
 10
567.9257321234872
 20
197.2724426471038
 30
0.0
 40
38.74256274947221
100
AcDbArc
 50
78.09427667741331
 51
101.9057233225866
  0
ARC
  5
3859
330
1F
100
AcDbEntity
  8
太線
100
AcDbCircle
 10
580.2329938828511
 20
227.2188694265368
 30
0.0
 40
8.813283499494797
100
AcDbArc
 50
66.81668988049359
 51
119.3114069084616
  0
ARC
  5
385A
330
1F
100
AcDbEntity
  8
太線
100
AcDbCircle
 10
555.9893242069947
 20
242.6763430215723
 30
0.0
 40
10.93365428977137
100
AcDbArc
 50
248.6656201356303
 51
291.334379864369
  0
ARC
  5
385B
330
1F
100
AcDbEntity
  8
太線
100
AcDbCircle
 10
566.5732268506271
 20
284.3259647466776
 30
0.0
 40
52.78066356108117
100
AcDbArc
 50
263.0122829418941
 51
279.7462187319163
  0
ARC
  5
385C
330
1F
100
AcDbEntity
  8
太線
100
AcDbCircle
 10
580.8599069553102
 20
258.2254656846361
 30
0.0
 40
26.2936976238005
100
AcDbArc
 50
260.3078214810486
 51
276.900033212648
  0
LINE
  5
385D
330
1F
100
AcDbEntity
  8
想像線
100
AcDbLine
 10
441.968624849801
 20
203.0799584827895
 30
0.0
 11
455.2987962209043
 21
253.0282745704198
 31
0.0
  0
LINE
  5
385F
330
1F
100
AcDbEntity
  8
想像線
100
AcDbLine
 10
504.122580828566
 20
239.6517733029484
 30
0.0
 11
489.7635336125013
 21
189.4351490246081
 31
0.0
  0
LINE
  5
3860
330
1F
100
AcDbEntity
  8
想像線
100
AcDbLine
 10
455.0232265484301
 20
253.1037737989772
 30
0.0
 11
504.122580828566
 21
239.6517733029484
 31
0.0
  0
LINE
  5
3869
330
1F
100
AcDbEntity
  8
太線
100
AcDbLine
 10
432.7009150921134
 20
221.2588829956509
 30
0.0
 11
430.9681454137513
 21
214.7845050834478
 31
0.0
  0
LINE
  5
386A
330
1F
100
AcDbEntity
  8
想像線
100
AcDbLine
 10
432.0511264627276
 20
218.8309912785748
 30
0.0
 11
435.2600901294341
 21
217.9721605127409
 31
0.0
  0
LINE
  5
386B
330
1F
100
AcDbEntity
  8
想像線
100
AcDbLine
 10
434.8268977098435
 20
216.3535660346902
 30
0.0
 11
435.2600901294341
 21
217.9721605127409
 31
0.0
  0
LINE
  5
386C
330
1F
100
AcDbEntity
  8
太線
100
AcDbLine
 10
435.9522352790104
 20
212.5833225915475
 30
0.0
 11
438.1181973769632
 21
220.6762949818013
 31
0.0
  0
ARC
  5
386D
330
1F
100
AcDbEntity
  8
太線
100
AcDbCircle
 10
434.205334369853
 20
213.9181202442668
 30
0.0
 40
3.35112145811945
100
AcDbArc
 50
165.016801071101
 51
255.016801071101
  0
LINE
  5
386E
330
1F
100
AcDbEntity
  8
想像線
100
AcDbLine
 10
434.8268977098435
 20
216.3535660346902
 30
0.0
 11
430.9681454137513
 21
214.7845050834478
 31
0.0
  0
LINE
  5
386F
330
1F
100
AcDbEntity
  8
想像線
100
AcDbLine
 10
431.6179340431371
 20
217.212396800524
 30
0.0
 11
434.8268977098435
 21
216.3535660346902
 31
0.0
  0
LINE
  5
3870
330
1F
100
AcDbEntity
  8
太線
100
AcDbLine
 10
435.9522352790104
 20
212.5833225915475
 30
0.0
 11
437.2516281959386
 21
212.2355596593763
 31
0.0
  0
LINE
  5
3871
330
1F
100
AcDbEntity
  8
想像線
100
AcDbLine
 10
436.1255122468468
 20
213.2307603827678
 30
0.0
 11
437.3691072184935
 21
212.8979309297679
 31
0.0
  0
LINE
  5
3872
330
1F
100
AcDbEntity
  8
太線
100
AcDbLine
 10
433.3389495306717
 20
210.6809312881652
 30
0.0
 11
434.148246769697
 21
210.4643350783699
 31
0.0
  0
ARC
  5
3873
330
1F
100
AcDbEntity
  8
太線
100
AcDbCircle
 10
434.7097456203947
 20
211.181324323292
 30
0.0
 40
0.8377803645298627
100
AcDbArc
 50
255.016801071101
 51
345.0168010711009
  0
LINE
  5
3874
330
1F
100
AcDbEntity
  8
太線
100
AcDbLine
 10
435.5190428594199
 20
210.9647281134968
 30
0.0
 11
435.9522352790104
 21
212.5833225915475
 31
0.0
  0
LINE
  5
3875
330
1F
100
AcDbEntity
  8
想像線
100
AcDbLine
 10
437.9449204091271
 20
220.0288571905811
 30
0.0
 11
439.4251127785998
 21
219.632706009611
 31
0.0
  0
LINE
  5
3876
330
1F
100
AcDbEntity
  8
太線
100
AcDbLine
 10
439.6999775656198
 20
220.2529553519704
 30
0.0
 11
438.1181973769633
 21
220.6762949818015
 31
0.0
  0
LINE
  5
3877
330
1F
100
AcDbEntity
  8
太線
100
AcDbLine
 10
438.1181973769632
 20
220.6762949818013
 30
0.0
 11
438.5513897965537
 21
222.2948894598522
 31
0.0
  0
LINE
  5
3878
330
1F
100
AcDbEntity
  8
太線
100
AcDbLine
 10
437.6137861264215
 20
223.4130909027761
 30
0.0
 11
436.8044888873962
 21
223.6296871125714
 31
0.0
  0
ARC
  5
3879
330
1F
100
AcDbEntity
  8
太線
100
AcDbCircle
 10
437.7420925575284
 20
222.5114856696474
 30
0.0
 40
0.8377803645298627
100
AcDbArc
 50
345.0168010711009
 51
75.01680107110101
  0
ARC
  5
387A
330
1F
100
AcDbEntity
  8
太線
100
AcDbCircle
 10
435.938104048215
 20
220.3924981564698
 30
0.0
 40
3.35112145811945
100
AcDbArc
 50
75.01680107110101
 51
165.016801071101
  0
LINE
  5
387B
330
1F
100
AcDbEntity
  8
想像線
100
AcDbLine
 10
435.2600901294341
 20
217.9721605127409
 30
0.0
 11
432.7009150921134
 21
221.2588829956509
 31
0.0
  0
DIMENSION
  5
3882
330
1F
100
AcDbEntity
  8
寸法線
100
AcDbDimension
  2
*D2
 10
422.126443942828
 20
272.6516791183495
 30
0.0
 11
409.4796220793119
 21
244.9915168120621
 31
0.0
 70
    33
  1
60
 71
     5
 42
60.42438852177719
  3
sunpo
100
AcDbAlignedDimension
 13
436.1633005683325
 23
204.5803281857729
 33
0.0
 14
454.798145545742
 24
262.05944857656
 34
0.0
1001
ACAD
1000
DSTYLE
1002
{
1070
    40
1040
1.0
1002
}
  0
DIMENSION
  5
388F
330
1F
100
AcDbEntity
  8
寸法線
100
AcDbDimension
  2
*D3
 10
521.8648644037789
 20
268.2103731285743
 30
0.0
 11
490.8631154933651
 21
281.1917463304408
 31
0.0
 70
    33
  1
63
 71
     5
 42
66.85430384681239
  3
sunpo
100
AcDbAlignedDimension
 13
450.8973705684638
 23
264.3761110912164
 33
0.0
 14
514.9174407280315
 24
245.1166053964707
 34
0.0
1001
ACAD
1000
DSTYLE
1002
{
1070
    40
1040
1.0
1002
}
  0
DIMENSION
  5
38A5
330
1F
100
AcDbEntity
  8
寸法線
100
AcDbDimension
  2
*D4
 10
585.8213912933534
 20
169.4542653456692
 30
0.0
 11
567.5791128312812
 21
172.9542653456692
 31
0.0
 70
    32
  1
40
 71
     5
 42
36.48455692414427
  3
sunpo
100
AcDbAlignedDimension
 13
549.3368343692091
 23
170.8299433011425
 33
0.0
 14
585.8213912933534
 24
170.8299433011425
 34
0.0
100
AcDbRotatedDimension
1001
ACAD
1000
DSTYLE
1002
{
1070
    40
1040
1.0
1002
}
  0
DIMENSION
  5
38B2
330
1F
100
AcDbEntity
  8
寸法線
100
AcDbDimension
  2
*D5
 10
602.3426975570892
 20
119.9298231533325
 30
0.0
 11
566.8907243713261
 21
123.4298231533325
 31
0.0
 70
    32
  1
70
 71
     5
 42
70.90394637152622
  3
sunpo
100
AcDbAlignedDimension
 13
531.4387511855629
 23
170.8299433011425
 33
0.0
 14
602.3426975570892
 24
170.8299433011425
 34
0.0
100
AcDbRotatedDimension
1001
ACAD
1000
DSTYLE
1002
{
1070
    40
1040
1.0
1002
}
  0
CIRCLE
  5
38EC
330
1F
100
AcDbEntity
  8
寸法線
100
AcDbCircle
 10
235.4498554666495
 20
196.5419908648298
 30
0.0
 40
127.4761995680846
  0
DIMENSION
  5
38ED
330
1F
100
AcDbEntity
  8
寸法線
100
AcDbDimension
  2
*D6
 10
129.0430041079893
 20
126.3439606911979
 30
0.0
 11
326.3004892820573
 21
256.477375216831
 31
0.0
 70
   163
  1
125
 71
     5
 42
254.9523991361693
  3
sunpo
100
AcDbDiametricDimension
 15
341.8567068253098
 25
266.7400210384617
 35
0.0
 40
0.0
1001
ACAD
1000
DSTYLE
1002
{
1070
    40
1040
1.0
1070
   288
1070
     1
1002
}
  0
DIMENSION
  5
38FB
330
1F
100
AcDbEntity
  8
寸法線
100
AcDbDimension
  2
*D7
 10
624.1248182803066
 20
231.9440624717708
 30
0.0
 11
620.6243261543224
 21
219.0445494197628
 31
0.0
 70
    32
  1
25
 71
     5
 42
25.79902610401632
  3
sunpo
100
AcDbAlignedDimension
 13
590.9281970019174
 23
206.1450363677545
 33
0.0
 14
589.6986935974054
 24
231.9440624717708
 34
0.0
 50
90.0
100
AcDbRotatedDimension
1001
ACAD
1000
DSTYLE
1002
{
1070
    40
1040
1.0
1002
}
  0
XLINE
  5
3993
330
1F
100
AcDbEntity
  8
構築線
100
AcDbXline
 10
235.4498554666495
 20
196.5419908648298
 30
0.0
 11
0.0
 21
1.0
 31
0.0
  0
XLINE
  5
3994
330
1F
100
AcDbEntity
  8
構築線
100
AcDbXline
 10
235.4498554666495
 20
196.5419908648298
 30
0.0
 11
1.0
 21
0.0
 31
0.0
  0
VIEWPORT
  5
2E
330
1B
100
AcDbEntity
 67
     1
  8
0
100
AcDbViewport
 10
280.177155274273
 20
129.9541177546044
 30
0.0
 40
598.8447424477705
 41
304.1550746678876
 68
     2
 69
     1
 12
280.177155274273
 22
129.9541177546044
 13
0.0
 23
0.0
 14
10.0
 24
10.0
 15
10.0
 25
10.0
 16
0.0
 26
0.0
 36
1.0
 17
0.0
 27
0.0
 37
0.0
 42
50.0
 43
0.0
 44
0.0
 45
304.1550746678876
 50
0.0
 51
0.0
 72
   100
 90
    32800
  1

281
     0
 71
     1
 74
     0
110
0.0
120
0.0
130
0.0
111
1.0
121
0.0
131
0.0
112
0.0
122
1.0
132
0.0
 79
     0
146
0.0
  0
VIEWPORT
  5
30
330
1B
100
AcDbEntity
 67
     1
  8
70-0-CON
100
AcDbViewport
 10
141.8594093064315
 20
100.3480256368386
 30
0.0
 40
261.6199023344245
 41
192.6196987113174
 68
     1
 69
     2
 12
368.0320504738638
 22
183.2160625421568
 13
0.0
 23
0.0
 14
5.0
 24
5.0
 15
10.0
 25
10.0
 16
0.0
 26
0.0
 36
1.0
 17
0.0
 27
0.0
 37
0.0
 42
50.0
 43
0.0
 44
0.0
 45
419.5640357826862
 50
0.0
 51
0.0
 72
   100
 90
    32864
  1

281
     0
 71
     1
 74
     0
110
0.0
120
0.0
130
0.0
111
1.0
121
0.0
131
0.0
112
0.0
122
1.0
132
0.0
 79
     0
146
0.0
  0
LWPOLYLINE
  5
45
330
1B
100
AcDbEntity
 67
     1
  8
50-0-CON
100
AcDbPolyline
 90
        4
 70
     1
 43
0.0
 10
11.04945813921926
 20
4.038176281179858
 10
272.2125713060605
 20
4.033520706629644
 10
273.4987754093466
 20
195.9297862125246
 10
11.04945813921926
 20
196.6578749924973
  0
LINE
  5
4A
330
1B
100
AcDbEntity
 67
     1
  8
50-0-CON
100
AcDbLine
 10
10.38768783662635
 20
100.3480256368386
 30
0.0
 11
-4.391850629656119
 21
100.3480256368386
 31
0.0
  0
LINE
  5
4B
330
1B
100
AcDbEntity
 67
     1
  8
50-0-CON
100
AcDbLine
 10
141.8594093064315
 20
197.098652626247
 30
0.0
 11
141.8594093064315
 21
202.387980773708
 31
0.0
  0
LINE
  5
4C
330
1B
100
AcDbEntity
 67
     1
  8
50-0-CON
100
AcDbLine
 10
272.4487699456857
 20
100.7888032705883
 30
0.0
 11
278.8458837249377
 21
100.7888032705883
 31
0.0
  0
LINE
  5
4D
330
1B
100
AcDbEntity
 67
     1
  8
50-0-CON
100
AcDbLine
 10
140.9770484758805
 20
4.038176281179858
 30
0.0
 11
140.9770484758805
 21
-3.455038652015446
 31
0.0
  0
ENDSEC
  0
SECTION
  2
OBJECTS
  0
DICTIONARY
  5
C
330
0
100
AcDbDictionary
281
     1
  3
ACAD_GROUP
350
D
  3
ACAD_LAYOUT
350
1A
  3
ACAD_MLINESTYLE
350
17
  3
ACAD_PLOTSETTINGS
350
19
  3
ACAD_PLOTSTYLENAME
350
E
  3
AcadDim
350
32D6
  3
AcDbVariableDictionary
350
6AD
  3
DWGPROPS
350
30F
  0
DICTIONARY
  5
D
102
{ACAD_REACTORS
330
C
102
}
330
C
100
AcDbDictionary
281
     1
  0
DICTIONARY
  5
1A
102
{ACAD_REACTORS
330
C
102
}
330
C
100
AcDbDictionary
281
     1
  3
A4
350
1E
  3
Model
350
22
  0
DICTIONARY
  5
17
102
{ACAD_REACTORS
330
C
102
}
330
C
100
AcDbDictionary
281
     1
  3
Standard
350
18
  0
DICTIONARY
  5
19
102
{ACAD_REACTORS
330
C
102
}
330
C
100
AcDbDictionary
281
     1
  0
ACDBDICTIONARYWDFLT
  5
E
102
{ACAD_REACTORS
330
C
102
}
330
C
100
AcDbDictionary
281
     1
  3
Normal
350
F
100
AcDbDictionaryWithDefault
340
F
  0
XRECORD
  5
32D6
102
{ACAD_REACTORS
330
C
102
}
330
C
100
AcDbXrecord
280
     1
 90
   990106
  3

 60
     0
 61
     0
 62
     1
 63
     3
 64
     0
 65
     0
 66
     0
 67
     3
 68
     1
 69
     0
 70
     0
 71
     0
 72
     0
 40
0.0
170
     0
  0
DICTIONARY
  5
6AD
102
{ACAD_REACTORS
330
C
102
}
330
C
100
AcDbDictionary
281
     1
  3
SORTENTS
350
6AE
  0
XRECORD
  5
30F
102
{ACAD_REACTORS
330
C
102
}
330
C
100
AcDbXrecord
280
     1
  1
DWGPROPS COOKIE
  2

  3

  4

  6

  7

  8

  9

300
=
301
=
302
=
303
=
304
=
305
=
306
=
307
=
308
=
309
=
 40
0.3303803125
 41
2452362.482225463
 42
2452370.969861285
  1

 90
        0
  0
LAYOUT
  5
1E
102
{ACAD_REACTORS
330
1A
102
}
330
1A
100
AcDbPlotSettings
  1

  2
EPSON PM-920C
  4
A4
  6

 40
3.757083177566528
 41
14.7637300491333
 42
3.757080078125
 43
3.757080078125
 44
209.9733276367187
 45
296.9683227539062
 46
0.0
 47
0.0
 48
0.0
 49
0.0
140
0.0
141
0.0
142
1.0
143
1.0
 70
   688
 72
     1
 73
     1
 74
     5
  7
joint.ctb
 75
    16
147
1.0
148
0.0
149
0.0
100
AcDbLayout
  1
A4
 70
     1
 71
     1
 10
-3.757080078125
 20
-3.757083177566528
 11
293.2112426757812
 21
206.2162444591522
 12
0.0
 22
0.0
 32
0.0
 14
-4.391850629656119
 24
-3.455038652015446
 34
0.0
 15
278.8458837249377
 25
202.387980773708
 35
0.0
146
0.0
 13
0.0
 23
0.0
 33
0.0
 16
1.0
 26
0.0
 36
0.0
 17
0.0
 27
1.0
 37
0.0
 76
     0
330
1B
331
30
  0
LAYOUT
  5
22
102
{ACAD_REACTORS
330
1A
102
}
330
1A
100
AcDbPlotSettings
  1

  2
EPSON PM-920C
  4
A4
  6

 40
3.757083177566528
 41
14.7637300491333
 42
3.757080078125
 43
3.757080078125
 44
209.9733276367187
 45
296.9683227539062
 46
0.0
 47
0.0
 48
0.0
 49
0.0
140
0.0
141
0.0
142
1.0
143
1.0
 70
 11952
 72
     1
 73
     1
 74
     0
  7

 75
     0
147
1.0
148
-45.64199848979289
149
-84.48806419330498
100
AcDbLayout
  1
Model
 70
     1
 71
     0
 10
0.0
 20
0.0
 11
12.0
 21
9.0
 12
0.0
 22
0.0
 32
0.0
 14
0.0
 24
0.0
 34
0.0
 15
0.0
 25
0.0
 35
0.0
146
0.0
 13
0.0
 23
0.0
 33
0.0
 16
1.0
 26
0.0
 36
0.0
 17
0.0
 27
1.0
 37
0.0
 76
     0
330
1F
  0
MLINESTYLE
  5
18
102
{ACAD_REACTORS
330
17
102
}
330
17
100
AcDbMlineStyle
  2
STANDARD
 70
     0
  3

 62
   256
 51
90.0
 52
90.0
 71
     2
 49
0.5
 62
   256
  6
BYLAYER
 49
-0.5
 62
   256
  6
BYLAYER
  0
ACDBPLACEHOLDER
  5
F
102
{ACAD_REACTORS
330
E
102
}
330
E
  0
DICTIONARYVAR
  5
6AE
102
{ACAD_REACTORS
330
6AD
102
}
330
6AD
100
DictionaryVariables
280
     0
  1
96
  0
ENDSEC
  0
EOF
