  0
SECTION
  2
HEADER
  9
$ACADVER
  1
AC1015
  9
$ACADMAINTVER
 70
     6
  9
$DWGCODEPAGE
  3
ANSI_932
  9
$INSBASE
 10
0.0
 20
0.0
 30
0.0
  9
$EXTMIN
 10
24.35050894468347
 20
-38.49340787712424
 30
0.0
  9
$EXTMAX
 10
348.196544768897
 20
232.3528370376931
 30
0.0
  9
$LIMMIN
 10
0.0
 20
0.0
  9
$LIMMAX
 10
420.0
 20
297.0
  9
$ORTHOMODE
 70
     1
  9
$REGENMODE
 70
     1
  9
$FILLMODE
 70
     1
  9
$QTEXTMODE
 70
     0
  9
$MIRRTEXT
 70
     1
  9
$LTSCALE
 40
1.0
  9
$ATTMODE
 70
     1
  9
$TEXTSIZE
 40
5.0
  9
$TRACEWID
 40
1.0
  9
$TEXTSTYLE
  7
OKANO
  9
$CLAYER
  8
太線
  9
$CELTYPE
  6
ByLayer
  9
$CECOLOR
 62
   256
  9
$CELTSCALE
 40
1.0
  9
$DISPSILH
 70
     0
  9
$DIMSCALE
 40
0.0
  9
$DIMASZ
 40
3.0
  9
$DIMEXO
 40
2.0
  9
$DIMDLI
 40
8.0
  9
$DIMRND
 40
0.0
  9
$DIMDLE
 40
0.0
  9
$DIMEXE
 40
3.0
  9
$DIMTP
 40
0.0
  9
$DIMTM
 40
0.0
  9
$DIMTXT
 40
5.0
  9
$DIMCEN
 40
2.5
  9
$DIMTSZ
 40
0.0
  9
$DIMTOL
 70
     0
  9
$DIMLIM
 70
     0
  9
$DIMTIH
 70
     0
  9
$DIMTOH
 70
     0
  9
$DIMSE1
 70
     0
  9
$DIMSE2
 70
     0
  9
$DIMTAD
 70
     1
  9
$DIMZIN
 70
     8
  9
$DIMBLK
  1
Closed
  9
$DIMASO
 70
     1
  9
$DIMSHO
 70
     1
  9
$DIMPOST
  1

  9
$DIMAPOST
  1

  9
$DIMALT
 70
     0
  9
$DIMALTD
 70
     3
  9
$DIMALTF
 40
0.03937007874016
  9
$DIMLFAC
 40
1.0
  9
$DIMTOFL
 70
     1
  9
$DIMTVP
 40
0.0
  9
$DIMTIX
 70
     0
  9
$DIMSOXD
 70
     0
  9
$DIMSAH
 70
     0
  9
$DIMBLK1
  1

  9
$DIMBLK2
  1

  9
$DIMSTYLE
  2
sunpo
  9
$DIMCLRD
 70
     0
  9
$DIMCLRE
 70
     0
  9
$DIMCLRT
 70
     0
  9
$DIMTFAC
 40
1.0
  9
$DIMGAP
 40
1.0
  9
$DIMJUST
 70
     0
  9
$DIMSD1
 70
     0
  9
$DIMSD2
 70
     0
  9
$DIMTOLJ
 70
     0
  9
$DIMTZIN
 70
     8
  9
$DIMALTZ
 70
     0
  9
$DIMALTTZ
 70
     0
  9
$DIMUPT
 70
     0
  9
$DIMDEC
 70
     2
  9
$DIMTDEC
 70
     2
  9
$DIMALTU
 70
     2
  9
$DIMALTTD
 70
     3
  9
$DIMTXSTY
  7
OKANO
  9
$DIMAUNIT
 70
     0
  9
$DIMADEC
 70
     0
  9
$DIMALTRND
 40
0.0
  9
$DIMAZIN
 70
     0
  9
$DIMDSEP
 70
    46
  9
$DIMATFIT
 70
     3
  9
$DIMFRAC
 70
     0
  9
$DIMLDRBLK
  1
Closed
  9
$DIMLUNIT
 70
     2
  9
$DIMLWD
 70
    -2
  9
$DIMLWE
 70
    -2
  9
$DIMTMOVE
 70
     0
  9
$LUNITS
 70
     2
  9
$LUPREC
 70
     2
  9
$SKETCHINC
 40
1.0
  9
$FILLETRAD
 40
1.0
  9
$AUNITS
 70
     0
  9
$AUPREC
 70
     0
  9
$MENU
  1
.
  9
$ELEVATION
 40
0.0
  9
$PELEVATION
 40
0.0
  9
$THICKNESS
 40
0.0
  9
$LIMCHECK
 70
     0
  9
$CHAMFERA
 40
10.0
  9
$CHAMFERB
 40
10.0
  9
$CHAMFERC
 40
20.0
  9
$CHAMFERD
 40
0.0
  9
$SKPOLY
 70
     0
  9
$TDCREATE
 40
2452362.482225463
  9
$TDUCREATE
 40
2452362.107225463
  9
$TDUPDATE
 40
2455951.682183900
  9
$TDUUPDATE
 40
2455951.307183900
  9
$TDINDWG
 40
2.1815495486
  9
$TDUSRTIMER
 40
2.1815495486
  9
$USRTIMER
 70
     1
  9
$ANGBASE
 50
0.0
  9
$ANGDIR
 70
     0
  9
$PDMODE
 70
     0
  9
$PDSIZE
 40
0.0
  9
$PLINEWID
 40
0.0
  9
$SPLFRAME
 70
     0
  9
$SPLINETYPE
 70
     6
  9
$SPLINESEGS
 70
     8
  9
$HANDSEED
  5
2EBF
  9
$SURFTAB1
 70
     6
  9
$SURFTAB2
 70
     6
  9
$SURFTYPE
 70
     6
  9
$SURFU
 70
     6
  9
$SURFV
 70
     6
  9
$UCSBASE
  2

  9
$UCSNAME
  2

  9
$UCSORG
 10
0.0
 20
0.0
 30
0.0
  9
$UCSXDIR
 10
1.0
 20
0.0
 30
0.0
  9
$UCSYDIR
 10
0.0
 20
1.0
 30
0.0
  9
$UCSORTHOREF
  2

  9
$UCSORTHOVIEW
 70
     0
  9
$UCSORGTOP
 10
0.0
 20
0.0
 30
0.0
  9
$UCSORGBOTTOM
 10
0.0
 20
0.0
 30
0.0
  9
$UCSORGLEFT
 10
0.0
 20
0.0
 30
0.0
  9
$UCSORGRIGHT
 10
0.0
 20
0.0
 30
0.0
  9
$UCSORGFRONT
 10
0.0
 20
0.0
 30
0.0
  9
$UCSORGBACK
 10
0.0
 20
0.0
 30
0.0
  9
$PUCSBASE
  2

  9
$PUCSNAME
  2

  9
$PUCSORG
 10
0.0
 20
0.0
 30
0.0
  9
$PUCSXDIR
 10
1.0
 20
0.0
 30
0.0
  9
$PUCSYDIR
 10
0.0
 20
1.0
 30
0.0
  9
$PUCSORTHOREF
  2

  9
$PUCSORTHOVIEW
 70
     0
  9
$PUCSORGTOP
 10
0.0
 20
0.0
 30
0.0
  9
$PUCSORGBOTTOM
 10
0.0
 20
0.0
 30
0.0
  9
$PUCSORGLEFT
 10
0.0
 20
0.0
 30
0.0
  9
$PUCSORGRIGHT
 10
0.0
 20
0.0
 30
0.0
  9
$PUCSORGFRONT
 10
0.0
 20
0.0
 30
0.0
  9
$PUCSORGBACK
 10
0.0
 20
0.0
 30
0.0
  9
$USERI1
 70
     0
  9
$USERI2
 70
     0
  9
$USERI3
 70
     0
  9
$USERI4
 70
     0
  9
$USERI5
 70
     0
  9
$USERR1
 40
0.0
  9
$USERR2
 40
0.0
  9
$USERR3
 40
0.0
  9
$USERR4
 40
0.0
  9
$USERR5
 40
0.0
  9
$WORLDVIEW
 70
     1
  9
$SHADEDGE
 70
     3
  9
$SHADEDIF
 70
    70
  9
$TILEMODE
 70
     0
  9
$MAXACTVP
 70
    64
  9
$PINSBASE
 10
0.0
 20
0.0
 30
0.0
  9
$PLIMCHECK
 70
     0
  9
$PEXTMIN
 10
-4.391850629656119
 20
-3.455038652015446
 30
0.0
  9
$PEXTMAX
 10
278.8458837249377
 20
202.387980773708
 30
0.0
  9
$PLIMMIN
 10
-3.757080078125
 20
-3.757083177566528
  9
$PLIMMAX
 10
293.2112426757812
 20
206.2162444591522
  9
$UNITMODE
 70
     0
  9
$VISRETAIN
 70
     1
  9
$PLINEGEN
 70
     0
  9
$PSLTSCALE
 70
     1
  9
$TREEDEPTH
 70
  3020
  9
$CMLSTYLE
  2
Standard
  9
$CMLJUST
 70
     0
  9
$CMLSCALE
 40
20.0
  9
$PROXYGRAPHICS
 70
     1
  9
$MEASUREMENT
 70
     1
  9
$CELWEIGHT
370
    -1
  9
$ENDCAPS
280
     0
  9
$JOINSTYLE
280
     0
  9
$LWDISPLAY
290
     0
  9
$INSUNITS
 70
     4
  9
$HYPERLINKBASE
  1

  9
$STYLESHEET
  1

  9
$XEDIT
290
     1
  9
$CEPSNTYPE
380
     0
  9
$PSTYLEMODE
290
     1
  9
$FINGERPRINTGUID
  2
{FF7F33C3-4233-11D6-AEE0-0000F45FD7F4}
  9
$VERSIONGUID
  2
{50DE77BA-E939-4AE4-ADB6-9EC7B5F8F1B0}
  9
$EXTNAMES
290
     1
  9
$PSVPSCALE
 40
0.0
  9
$OLESTARTUP
290
     0
  0
ENDSEC
  0
SECTION
  2
CLASSES
  0
CLASS
  1
ACDBDICTIONARYWDFLT
  2
AcDbDictionaryWithDefault
  3
AutoCAD 2000
 90
        0
280
     0
281
     0
  0
CLASS
  1
ACDBPLACEHOLDER
  2
AcDbPlaceHolder
  3
AutoCAD 2000
 90
        0
280
     0
281
     0
  0
CLASS
  1
LAYOUT
  2
AcDbLayout
  3
AutoCAD 2000
 90
        0
280
     0
281
     0
  0
CLASS
  1
DICTIONARYVAR
  2
AcDbDictionaryVar
  3
AutoCAD 2000
 90
        0
280
     0
281
     0
  0
ENDSEC
  0
SECTION
  2
TABLES
  0
TABLE
  2
VPORT
  5
8
330
0
100
AcDbSymbolTable
 70
     2
  0
VPORT
  5
2EBE
330
8
100
AcDbSymbolTableRecord
100
AcDbViewportTableRecord
  2
*Active
 70
     0
 10
0.0
 20
0.0
 11
1.0
 21
1.0
 12
128.4848179411783
 22
102.2494769631986
 13
0.0
 23
0.0
 14
5.0
 24
5.0
 15
10.0
 25
10.0
 16
0.0
 26
0.0
 36
1.0
 17
0.0
 27
0.0
 37
0.0
 40
334.9588317710632
 41
2.08724832214765
 42
50.0
 43
0.0
 44
0.0
 50
0.0
 51
0.0
 71
     0
 72
   100
 73
     1
 74
     3
 75
     0
 76
     0
 77
     0
 78
     0
281
     0
 65
     1
110
0.0
120
0.0
130
0.0
111
1.0
121
0.0
131
0.0
112
0.0
122
1.0
132
0.0
 79
     0
146
0.0
  0
ENDTAB
  0
TABLE
  2
LTYPE
  5
5
330
0
100
AcDbSymbolTable
 70
     5
  0
LTYPE
  5
14
330
5
100
AcDbSymbolTableRecord
100
AcDbLinetypeTableRecord
  2
ByBlock
 70
     0
  3

 72
    65
 73
     0
 40
0.0
  0
LTYPE
  5
15
330
5
100
AcDbSymbolTableRecord
100
AcDbLinetypeTableRecord
  2
ByLayer
 70
     0
  3

 72
    65
 73
     0
 40
0.0
  0
LTYPE
  5
16
330
5
100
AcDbSymbolTableRecord
100
AcDbLinetypeTableRecord
  2
Continuous
 70
     0
  3
Solid line
 72
    65
 73
     0
 40
0.0
  0
LTYPE
  5
33
330
5
100
AcDbSymbolTableRecord
100
AcDbLinetypeTableRecord
  2
DASHED2
 70
     0
  3
Dashed (.5x) _ _ _ _ _ _ _ _ _ _ _ _ _ _ _ _ _
 72
    65
 73
     2
 40
9.524999999999998
 49
6.349999999999999
 74
     0
 49
-3.174999999999999
 74
     0
  0
LTYPE
  5
34
330
5
100
AcDbSymbolTableRecord
100
AcDbLinetypeTableRecord
  2
CENTER2
 70
     0
  3
Center (.5x) ___ _ ___ _ ___ _ ___ _ ___ _ ___
 72
    65
 73
     4
 40
28.57499999999999
 49
19.05
 74
     0
 49
-3.174999999999999
 74
     0
 49
3.174999999999999
 74
     0
 49
-3.174999999999999
 74
     0
  0
LTYPE
  5
35
330
5
100
AcDbSymbolTableRecord
100
AcDbLinetypeTableRecord
  2
PHANTOM2
 70
     0
  3
Phantom (.5x) ___ _ _ ___ _ _ ___ _ _ ___ _ _
 72
    65
 73
     6
 40
31.75
 49
15.875
 74
     0
 49
-3.174999999999999
 74
     0
 49
3.174999999999999
 74
     0
 49
-3.174999999999999
 74
     0
 49
3.174999999999999
 74
     0
 49
-3.174999999999999
 74
     0
  0
LTYPE
  5
36
330
5
100
AcDbSymbolTableRecord
100
AcDbLinetypeTableRecord
  2
HIDDEN2
 70
     0
  3
Hidden (.5x) _ _ _ _ _ _ _ _ _ _ _ _ _ _ _ _ _
 72
    65
 73
     2
 40
4.762499999999999
 49
3.174999999999999
 74
     0
 49
-1.587499999999999
 74
     0
  0
ENDTAB
  0
TABLE
  2
LAYER
  5
2
330
0
100
AcDbSymbolTable
 70
    13
  0
LAYER
  5
10
330
2
100
AcDbSymbolTableRecord
100
AcDbLayerTableRecord
  2
0
 70
     0
 62
     7
  6
Continuous
370
    -3
390
F
  0
LAYER
  5
40
330
2
100
AcDbSymbolTableRecord
100
AcDbLayerTableRecord
  2
50-0-CON
 70
     0
 62
     4
  6
Continuous
370
    50
390
F
  0
LAYER
  5
41
330
2
100
AcDbSymbolTableRecord
100
AcDbLayerTableRecord
  2
70-0-CON
 70
     0
 62
   202
  6
Continuous
370
    70
390
F
  0
LAYER
  5
4E
330
2
100
AcDbSymbolTableRecord
100
AcDbLayerTableRecord
  2
極太線
 70
     0
 62
     7
  6
Continuous
370
    70
390
F
  0
LAYER
  5
4F
330
2
100
AcDbSymbolTableRecord
100
AcDbLayerTableRecord
  2
細線
 70
     0
 62
     8
  6
Continuous
370
    18
390
F
  0
LAYER
  5
AB
330
2
100
AcDbSymbolTableRecord
100
AcDbLayerTableRecord
  2
構築線
 70
     0
 62
    -2
  6
Continuous
370
    18
390
F
  0
LAYER
  5
B8
330
2
100
AcDbSymbolTableRecord
100
AcDbLayerTableRecord
  2
太線
 70
     0
 62
     7
  6
Continuous
370
    35
390
F
  0
LAYER
  5
B9
330
2
100
AcDbSymbolTableRecord
100
AcDbLayerTableRecord
  2
寸法線
 70
     0
 62
     5
  6
Continuous
370
    18
390
F
  0
LAYER
  5
BA
330
2
100
AcDbSymbolTableRecord
100
AcDbLayerTableRecord
  2
破線
 70
     0
 62
     8
  6
HIDDEN2
370
    18
390
F
  0
LAYER
  5
BB
330
2
100
AcDbSymbolTableRecord
100
AcDbLayerTableRecord
  2
中心線
 70
     0
 62
     1
  6
CENTER2
370
    18
390
F
  0
LAYER
  5
BC
330
2
100
AcDbSymbolTableRecord
100
AcDbLayerTableRecord
  2
想像線
 70
     0
 62
     8
  6
PHANTOM2
370
    18
390
F
  0
LAYER
  5
BD
330
2
100
AcDbSymbolTableRecord
100
AcDbLayerTableRecord
  2
文字
 70
     0
 62
     7
  6
Continuous
370
    18
390
F
  0
LAYER
  5
180
330
2
100
AcDbSymbolTableRecord
100
AcDbLayerTableRecord
  2
Defpoints
 70
     0
 62
     7
  6
Continuous
290
     0
370
    -3
390
F
  0
ENDTAB
  0
TABLE
  2
STYLE
  5
3
330
0
100
AcDbSymbolTable
 70
     3
  0
STYLE
  5
11
330
3
100
AcDbSymbolTableRecord
100
AcDbTextStyleTableRecord
  2
Standard
 70
     0
 40
0.0
 41
1.0
 50
0.0
 71
     0
 42
3.0
  3
txt
  4

  0
STYLE
  5
32
330
3
100
AcDbSymbolTableRecord
100
AcDbTextStyleTableRecord
  2

 70
     1
 40
0.0
 41
1.0
 50
0.0
 71
     0
 42
2.5
  3
ltypeshp.shx
  4

  0
STYLE
  5
50
330
3
100
AcDbSymbolTableRecord
100
AcDbTextStyleTableRecord
  2
OKANO
 70
     0
 40
0.0
 41
1.0
 50
15.0
 71
     0
 42
5.0
  3
isocp.shx
  4
bigfont.shx
  0
ENDTAB
  0
TABLE
  2
VIEW
  5
6
330
0
100
AcDbSymbolTable
 70
     0
  0
ENDTAB
  0
TABLE
  2
UCS
  5
7
330
0
100
AcDbSymbolTable
 70
     0
  0
ENDTAB
  0
TABLE
  2
APPID
  5
9
330
0
100
AcDbSymbolTable
 70
     1
  0
APPID
  5
12
330
9
100
AcDbSymbolTableRecord
100
AcDbRegAppTableRecord
  2
ACAD
 70
     0
  0
ENDTAB
  0
TABLE
  2
DIMSTYLE
  5
A
330
0
100
AcDbSymbolTable
 70
     2
100
AcDbDimStyleTable
 71
     2
340
A2
340
27
  0
DIMSTYLE
105
27
330
A
100
AcDbSymbolTableRecord
100
AcDbDimStyleTableRecord
  2
ISO-25
 70
     0
 41
2.5
 42
0.625
 43
3.75
 44
1.25
 73
     0
 74
     0
 77
     1
 78
     8
140
2.5
141
2.5
143
0.03937007874016
147
0.625
171
     3
172
     1
271
     2
272
     2
274
     3
283
     0
284
     8
340
11
  0
DIMSTYLE
105
A2
102
{ACAD_REACTORS
330
2A78
330
2B6A
330
2B77
330
2B8D
330
2BCC
330
2BD9
330
2BE6
330
2BF0
330
2C52
330
2C5F
330
2C6C
330
2C7B
330
2C88
330
2C97
330
2CCC
330
2CE2
330
2D8A
330
2D97
330
2DA9
330
2E1F
330
2E2E
330
2E8A
102
}
330
A
100
AcDbSymbolTableRecord
100
AcDbDimStyleTableRecord
  2
sunpo
 70
     0
 40
0.0
 41
3.0
 42
2.0
 43
8.0
 44
3.0
 73
     0
 74
     0
 77
     1
 78
     8
140
5.0
141
2.5
143
0.03937007874016
147
1.0
171
     3
172
     1
271
     2
272
     2
274
     3
283
     0
284
     8
340
50
341
9B
342
9B
  0
ENDTAB
  0
TABLE
  2
BLOCK_RECORD
  5
1
330
0
100
AcDbSymbolTable
 70
    24
  0
BLOCK_RECORD
  5
1F
330
1
100
AcDbSymbolTableRecord
100
AcDbBlockTableRecord
  2
*Model_Space
340
22
  0
BLOCK_RECORD
  5
1B
330
1
100
AcDbSymbolTableRecord
100
AcDbBlockTableRecord
  2
*Paper_Space
340
1E
  0
BLOCK_RECORD
  5
9B
330
1
100
AcDbSymbolTableRecord
100
AcDbBlockTableRecord
  2
_Closed
340
0
102
{BLKREFS
331
2AF8
331
2AF9
331
2B6F
331
2B70
331
2B7E
331
2B7F
331
2B93
331
2B94
331
2BDE
331
2BDF
331
2BEB
331
2C00
331
2C01
331
2C32
331
2C33
331
2C57
331
2C58
331
2C64
331
2C65
331
2CA7
331
2CA8
331
2CB0
331
2CB1
331
2CBB
331
2CBC
331
2CC6
331
2CC7
331
2CDC
331
2CDD
331
2CF6
331
2CF7
331
2DB9
331
2DBA
331
2DC8
331
2DC9
331
2DD0
331
2DD1
331
2E24
331
2E25
331
2E55
331
2E56
331
2EA3
331
2EA4
102
}
  0
BLOCK_RECORD
  5
1510
330
1
100
AcDbSymbolTableRecord
100
AcDbBlockTableRecord
  2
A$C10A573AC
340
0
  0
BLOCK_RECORD
  5
2A79
330
1
100
AcDbSymbolTableRecord
100
AcDbBlockTableRecord
  2
*D2
340
0
  0
BLOCK_RECORD
  5
2B6B
330
1
100
AcDbSymbolTableRecord
100
AcDbBlockTableRecord
  2
*D3
340
0
  0
BLOCK_RECORD
  5
2B78
330
1
100
AcDbSymbolTableRecord
100
AcDbBlockTableRecord
  2
*D4
340
0
  0
BLOCK_RECORD
  5
2B8E
330
1
100
AcDbSymbolTableRecord
100
AcDbBlockTableRecord
  2
*D5
340
0
  0
BLOCK_RECORD
  5
2BCD
330
1
100
AcDbSymbolTableRecord
100
AcDbBlockTableRecord
  2
*D6
340
0
  0
BLOCK_RECORD
  5
2BDA
330
1
100
AcDbSymbolTableRecord
100
AcDbBlockTableRecord
  2
*D7
340
0
  0
BLOCK_RECORD
  5
2BE7
330
1
100
AcDbSymbolTableRecord
100
AcDbBlockTableRecord
  2
*D8
340
0
  0
BLOCK_RECORD
  5
2BF1
330
1
100
AcDbSymbolTableRecord
100
AcDbBlockTableRecord
  2
*D9
340
0
  0
BLOCK_RECORD
  5
2C53
330
1
100
AcDbSymbolTableRecord
100
AcDbBlockTableRecord
  2
*D10
340
0
  0
BLOCK_RECORD
  5
2C60
330
1
100
AcDbSymbolTableRecord
100
AcDbBlockTableRecord
  2
*D11
340
0
  0
BLOCK_RECORD
  5
2C6D
330
1
100
AcDbSymbolTableRecord
100
AcDbBlockTableRecord
  2
*D12
340
0
  0
BLOCK_RECORD
  5
2C7C
330
1
100
AcDbSymbolTableRecord
100
AcDbBlockTableRecord
  2
*D13
340
0
  0
BLOCK_RECORD
  5
2C89
330
1
100
AcDbSymbolTableRecord
100
AcDbBlockTableRecord
  2
*D14
340
0
  0
BLOCK_RECORD
  5
2C98
330
1
100
AcDbSymbolTableRecord
100
AcDbBlockTableRecord
  2
*D15
340
0
  0
BLOCK_RECORD
  5
2CCD
330
1
100
AcDbSymbolTableRecord
100
AcDbBlockTableRecord
  2
*D16
340
0
  0
BLOCK_RECORD
  5
2CE3
330
1
100
AcDbSymbolTableRecord
100
AcDbBlockTableRecord
  2
*D17
340
0
  0
BLOCK_RECORD
  5
2D8B
330
1
100
AcDbSymbolTableRecord
100
AcDbBlockTableRecord
  2
*D18
340
0
  0
BLOCK_RECORD
  5
2D98
330
1
100
AcDbSymbolTableRecord
100
AcDbBlockTableRecord
  2
*D19
340
0
  0
BLOCK_RECORD
  5
2DAA
330
1
100
AcDbSymbolTableRecord
100
AcDbBlockTableRecord
  2
*D20
340
0
  0
BLOCK_RECORD
  5
2E20
330
1
100
AcDbSymbolTableRecord
100
AcDbBlockTableRecord
  2
*D21
340
0
  0
BLOCK_RECORD
  5
2E2F
330
1
100
AcDbSymbolTableRecord
100
AcDbBlockTableRecord
  2
*D22
340
0
  0
BLOCK_RECORD
  5
2E8B
330
1
100
AcDbSymbolTableRecord
100
AcDbBlockTableRecord
  2
*D23
340
0
  0
ENDTAB
  0
ENDSEC
  0
SECTION
  2
BLOCKS
  0
BLOCK
  5
20
330
1F
100
AcDbEntity
  8
0
100
AcDbBlockBegin
  2
*Model_Space
 70
     0
 10
0.0
 20
0.0
 30
0.0
  3
*Model_Space
  1

  0
ENDBLK
  5
21
330
1F
100
AcDbEntity
  8
0
100
AcDbBlockEnd
  0
BLOCK
  5
1C
330
1B
100
AcDbEntity
 67
     1
  8
0
100
AcDbBlockBegin
  2
*Paper_Space
 70
     0
 10
0.0
 20
0.0
 30
0.0
  3
*Paper_Space
  1

  0
ENDBLK
  5
1D
330
1B
100
AcDbEntity
 67
     1
  8
0
100
AcDbBlockEnd
  0
BLOCK
  5
A0
330
9B
100
AcDbEntity
  8
0
100
AcDbBlockBegin
  2
_Closed
 70
     0
 10
0.0
 20
0.0
 30
0.0
  3
_Closed
  1

  0
LINE
  5
9C
330
9B
100
AcDbEntity
  8
0
 62
     0
370
    -2
100
AcDbLine
 10
-1.0
 20
0.1666666666666666
 30
0.0
 11
0.0
 21
0.0
 31
0.0
  0
LINE
  5
9D
330
9B
100
AcDbEntity
  8
0
 62
     0
370
    -2
100
AcDbLine
 10
0.0
 20
0.0
 30
0.0
 11
-1.0
 21
-0.1666666666666666
 31
0.0
  0
LINE
  5
9E
330
9B
100
AcDbEntity
  8
0
 62
     0
370
    -2
100
AcDbLine
 10
-1.0
 20
0.1666666666666666
 30
0.0
 11
-1.0
 21
-0.1666666666666666
 31
0.0
  0
LINE
  5
9F
330
9B
100
AcDbEntity
  8
0
 62
     0
370
    -2
100
AcDbLine
 10
0.0
 20
0.0
 30
0.0
 11
-1.0
 21
0.0
 31
0.0
  0
ENDBLK
  5
A1
330
9B
100
AcDbEntity
  8
0
100
AcDbBlockEnd
  0
BLOCK
  5
155B
330
1510
100
AcDbEntity
  8
0
100
AcDbBlockBegin
  2
A$C10A573AC
 70
     0
 10
0.0
 20
0.0
 30
0.0
  3
A$C10A573AC
  1

  0
TEXT
  5
1511
330
1510
100
AcDbEntity
  8
文字
100
AcDbText
 10
0.9844302777919438
 20
5.224957122252135
 30
0.0
 40
3.0
  1
Materal : Steel.
 51
15.0
  7
OKANO
100
AcDbText
  0
TEXT
  5
1512
330
1510
100
AcDbEntity
  8
文字
100
AcDbText
 10
-0.1141909619694843
 20
0.7500001922403499
 30
0.0
 40
3.0
  1
Surface treatment : Electro galvanized.
 51
15.0
  7
OKANO
100
AcDbText
  0
TEXT
  5
1513
330
1510
100
AcDbEntity
  8
文字
100
AcDbText
 10
-0.4901926332574931
 20
9.159967445193728
 30
0.0
 40
3.0
  1
5 TORGUE SCREW  M5-6
 51
15.0
  7
OKANO
100
AcDbText
  0
TEXT
  5
1514
330
1510
100
AcDbEntity
  8
文字
100
AcDbText
 10
1.364713526390005
 20
78.88822913323082
 30
0.0
 40
3.0
  1
Special standard,
 51
15.0
  7
OKANO
100
AcDbText
  0
TEXT
  5
1515
330
1510
100
AcDbEntity
  8
文字
100
AcDbText
 10
92.88160823408942
 20
89.92753849837379
 30
0.0
 40
3.0
  1
Screw Type
 51
15.0
  7
OKANO
100
AcDbText
  0
LINE
  5
1516
330
1510
100
AcDbEntity
  8
太線
100
AcDbLine
 10
113.9464587597784
 20
81.93930390144641
 30
0.0
 11
112.4464587597784
 21
81.93930390144641
 31
0.0
  0
LINE
  5
1517
330
1510
100
AcDbEntity
  8
太線
100
AcDbLine
 10
112.4464587597784
 20
76.9393039014464
 30
0.0
 11
121.4644995438761
 21
76.9393039014464
 31
0.0
  0
TEXT
  5
1518
330
1510
100
AcDbEntity
  8
文字
100
AcDbText
 10
93.46068240437217
 20
77.96976862235396
 30
0.0
 40
2.0
  1
17-30
 51
15.0
  7
OKANO
100
AcDbText
  0
LINE
  5
1519
330
1510
100
AcDbEntity
  8
太線
100
AcDbLine
 10
111.9464587597784
 20
81.43930390144641
 30
0.0
 11
111.9464587597784
 21
77.4393039014464
 31
0.0
  0
LINE
  5
151A
330
1510
100
AcDbEntity
  8
太線
100
AcDbLine
 10
91.94645875977846
 20
81.43930390144641
 30
0.0
 11
91.94645875977846
 21
77.43930390144639
 31
0.0
  0
LINE
  5
151B
330
1510
100
AcDbEntity
  8
太線
100
AcDbLine
 10
101.9644995438761
 20
77.4393039014464
 30
0.0
 11
101.9644995438761
 21
81.43930390144641
 31
0.0
  0
LINE
  5
151C
330
1510
100
AcDbEntity
  8
太線
100
AcDbLine
 10
92.44645875977846
 20
76.9393039014464
 30
0.0
 11
101.4644995438761
 21
76.9393039014464
 31
0.0
  0
ARC
  5
151D
330
1510
100
AcDbEntity
  8
太線
100
AcDbCircle
 10
92.44645875977846
 20
77.43930390144639
 30
0.0
 40
0.5
100
AcDbArc
 50
180.0
 51
270.0
  0
ARC
  5
151E
330
1510
100
AcDbEntity
  8
太線
100
AcDbCircle
 10
101.4644995438761
 20
77.4393039014464
 30
0.0
 40
0.5
100
AcDbArc
 50
270.0
 51
0.0
  0
ARC
  5
151F
330
1510
100
AcDbEntity
  8
太線
100
AcDbCircle
 10
112.4464587597784
 20
77.4393039014464
 30
0.0
 40
0.5
100
AcDbArc
 50
180.0
 51
270.0
  0
LINE
  5
1520
330
1510
100
AcDbEntity
  8
想像線
100
AcDbLine
 10
93.94645875977847
 20
81.93930390144641
 30
0.0
 11
99.96449954387617
 21
81.93930390144641
 31
0.0
  0
LINE
  5
1521
330
1510
100
AcDbEntity
  8
極太線
100
AcDbLine
 10
96.38762957111168
 20
85.43930390144641
 30
0.0
 11
97.50528794844525
 21
85.43930390144641
 31
0.0
  0
CIRCLE
  5
1522
330
1510
100
AcDbEntity
  8
太線
100
AcDbCircle
 10
96.94645875977847
 20
85.43930390144641
 30
0.0
 40
0.5588291886667776
  0
LINE
  5
1523
330
1510
100
AcDbEntity
  8
太線
100
AcDbLine
 10
99.46449954387617
 20
86.93930390144641
 30
0.0
 11
94.44645875977846
 21
86.93930390144641
 31
0.0
  0
LINE
  5
1524
330
1510
100
AcDbEntity
  8
太線
100
AcDbLine
 10
93.94645875977847
 20
86.43930390144641
 30
0.0
 11
93.94645875977847
 21
81.93930390144641
 31
0.0
  0
ARC
  5
1525
330
1510
100
AcDbEntity
  8
太線
100
AcDbCircle
 10
92.44645875977846
 20
81.43930390144641
 30
0.0
 40
0.5
100
AcDbArc
 50
90.0
 51
180.0
  0
LINE
  5
1526
330
1510
100
AcDbEntity
  8
太線
100
AcDbLine
 10
93.94645875977847
 20
81.93930390144641
 30
0.0
 11
92.44645875977846
 21
81.93930390144641
 31
0.0
  0
ARC
  5
1527
330
1510
100
AcDbEntity
  8
太線
100
AcDbCircle
 10
94.44645875977846
 20
86.43930390144641
 30
0.0
 40
0.5
100
AcDbArc
 50
90.0
 51
180.0
  0
LINE
  5
1528
330
1510
100
AcDbEntity
  8
太線
100
AcDbLine
 10
99.96449954387617
 20
81.93930390144641
 30
0.0
 11
99.96449954387617
 21
86.43930390144641
 31
0.0
  0
LINE
  5
1529
330
1510
100
AcDbEntity
  8
太線
100
AcDbLine
 10
101.4644995438761
 20
81.93930390144641
 30
0.0
 11
99.96449954387617
 21
81.93930390144641
 31
0.0
  0
ARC
  5
152A
330
1510
100
AcDbEntity
  8
太線
100
AcDbCircle
 10
101.4644995438761
 20
81.43930390144641
 30
0.0
 40
0.5
100
AcDbArc
 50
0.0
 51
90.0
  0
ARC
  5
152B
330
1510
100
AcDbEntity
  8
太線
100
AcDbCircle
 10
99.46449954387617
 20
86.43930390144641
 30
0.0
 40
0.5
100
AcDbArc
 50
0.0
 51
90.0
  0
LINE
  5
152C
330
1510
100
AcDbEntity
  8
極太線
100
AcDbLine
 10
96.94645875977847
 20
85.99813309011318
 30
0.0
 11
96.94645875977847
 21
84.88047471277964
 31
0.0
  0
ARC
  5
152D
330
1510
100
AcDbEntity
  8
太線
100
AcDbCircle
 10
112.4464587597784
 20
81.43930390144641
 30
0.0
 40
0.5
100
AcDbArc
 50
90.0
 51
180.0
  0
TEXT
  5
152E
330
1510
100
AcDbEntity
  8
文字
100
AcDbText
 10
134.3819212586066
 20
78.16263579228063
 30
0.0
 40
2.0
  1
101
 51
15.0
  7
OKANO
100
AcDbText
  0
TEXT
  5
152F
330
1510
100
AcDbEntity
  8
文字
100
AcDbText
 10
113.3422276612066
 20
77.96976862235396
 30
0.0
 40
2.0
  1
38-83
 51
15.0
  7
OKANO
100
AcDbText
  0
LINE
  5
1530
330
1510
100
AcDbEntity
  8
太線
100
AcDbLine
 10
141.9825403279738
 20
77.4393039014464
 30
0.0
 11
141.9825403279738
 21
81.43930390144641
 31
0.0
  0
LINE
  5
1531
330
1510
100
AcDbEntity
  8
太線
100
AcDbLine
 10
131.9644995438761
 20
81.43930390144641
 30
0.0
 11
131.9644995438761
 21
77.4393039014464
 31
0.0
  0
LINE
  5
1532
330
1510
100
AcDbEntity
  8
太線
100
AcDbLine
 10
121.9644995438761
 20
77.4393039014464
 30
0.0
 11
121.9644995438761
 21
81.43930390144641
 31
0.0
  0
ARC
  5
1533
330
1510
100
AcDbEntity
  8
太線
100
AcDbCircle
 10
121.4644995438761
 20
77.4393039014464
 30
0.0
 40
0.5
100
AcDbArc
 50
270.0
 51
0.0
  0
LINE
  5
1534
330
1510
100
AcDbEntity
  8
太線
100
AcDbLine
 10
132.4644995438761
 20
76.9393039014464
 30
0.0
 11
141.4825403279738
 21
76.9393039014464
 31
0.0
  0
ARC
  5
1535
330
1510
100
AcDbEntity
  8
太線
100
AcDbCircle
 10
132.4644995438761
 20
77.4393039014464
 30
0.0
 40
0.5
100
AcDbArc
 50
180.0
 51
270.0
  0
ARC
  5
1536
330
1510
100
AcDbEntity
  8
太線
100
AcDbCircle
 10
141.4825403279738
 20
77.4393039014464
 30
0.0
 40
0.5
100
AcDbArc
 50
270.0
 51
0.0
  0
ARC
  5
1537
330
1510
100
AcDbEntity
  8
太線
100
AcDbCircle
 10
121.4644995438761
 20
81.43930390144641
 30
0.0
 40
0.5
100
AcDbArc
 50
0.0
 51
90.0
  0
LINE
  5
1538
330
1510
100
AcDbEntity
  8
太線
100
AcDbLine
 10
119.9644995438761
 20
81.93930390144641
 30
0.0
 11
119.9644995438761
 21
86.43930390144641
 31
0.0
  0
LINE
  5
1539
330
1510
100
AcDbEntity
  8
太線
100
AcDbLine
 10
113.9464587597784
 20
86.43930390144641
 30
0.0
 11
113.9464587597784
 21
81.93930390144641
 31
0.0
  0
LINE
  5
153A
330
1510
100
AcDbEntity
  8
想像線
100
AcDbLine
 10
113.9464587597784
 20
81.93930390144641
 30
0.0
 11
119.9644995438761
 21
81.93930390144641
 31
0.0
  0
LINE
  5
153B
330
1510
100
AcDbEntity
  8
太線
100
AcDbLine
 10
121.4644995438761
 20
81.93930390144641
 30
0.0
 11
119.9644995438761
 21
81.93930390144641
 31
0.0
  0
LINE
  5
153C
330
1510
100
AcDbEntity
  8
太線
100
AcDbLine
 10
119.4644995438761
 20
86.93930390144641
 30
0.0
 11
114.4464587597784
 21
86.93930390144641
 31
0.0
  0
ARC
  5
153D
330
1510
100
AcDbEntity
  8
太線
100
AcDbCircle
 10
114.4464587597784
 20
86.43930390144641
 30
0.0
 40
0.5
100
AcDbArc
 50
90.0
 51
180.0
  0
CIRCLE
  5
153E
330
1510
100
AcDbEntity
  8
太線
100
AcDbCircle
 10
115.4464587597784
 20
85.43930390144641
 30
0.0
 40
0.5588291886667776
  0
LINE
  5
153F
330
1510
100
AcDbEntity
  8
極太線
100
AcDbLine
 10
115.4464587597784
 20
85.99813309011318
 30
0.0
 11
115.4464587597784
 21
84.88047471277964
 31
0.0
  0
LINE
  5
1540
330
1510
100
AcDbEntity
  8
極太線
100
AcDbLine
 10
114.8876295711116
 20
85.43930390144641
 30
0.0
 11
116.0052879484452
 21
85.43930390144641
 31
0.0
  0
ARC
  5
1541
330
1510
100
AcDbEntity
  8
太線
100
AcDbCircle
 10
119.4644995438761
 20
86.43930390144641
 30
0.0
 40
0.5
100
AcDbArc
 50
0.0
 51
90.0
  0
LINE
  5
1542
330
1510
100
AcDbEntity
  8
極太線
100
AcDbLine
 10
117.9056703552094
 20
85.43930390144641
 30
0.0
 11
119.0233287325429
 21
85.43930390144641
 31
0.0
  0
LINE
  5
1543
330
1510
100
AcDbEntity
  8
極太線
100
AcDbLine
 10
118.4644995438761
 20
85.99813309011318
 30
0.0
 11
118.4644995438761
 21
84.88047471277964
 31
0.0
  0
CIRCLE
  5
1544
330
1510
100
AcDbEntity
  8
太線
100
AcDbCircle
 10
118.4644995438761
 20
85.43930390144641
 30
0.0
 40
0.5588291886667776
  0
LINE
  5
1545
330
1510
100
AcDbEntity
  8
想像線
100
AcDbLine
 10
133.9644995438761
 20
81.93930390144641
 30
0.0
 11
139.9825403279738
 21
81.93930390144641
 31
0.0
  0
LINE
  5
1546
330
1510
100
AcDbEntity
  8
極太線
100
AcDbLine
 10
137.9237111393071
 20
85.43930390144641
 30
0.0
 11
139.0413695166406
 21
85.43930390144641
 31
0.0
  0
CIRCLE
  5
1547
330
1510
100
AcDbEntity
  8
太線
100
AcDbCircle
 10
138.4825403279738
 20
85.43930390144641
 30
0.0
 40
0.5588291886667776
  0
CIRCLE
  5
1548
330
1510
100
AcDbEntity
  8
太線
100
AcDbCircle
 10
138.4825403279738
 20
83.26342923362075
 30
0.0
 40
0.5588291886667776
  0
LINE
  5
1549
330
1510
100
AcDbEntity
  8
極太線
100
AcDbLine
 10
137.9237111393071
 20
83.26342923362075
 30
0.0
 11
139.0413695166406
 21
83.26342923362075
 31
0.0
  0
LINE
  5
154A
330
1510
100
AcDbEntity
  8
太線
100
AcDbLine
 10
139.4825403279738
 20
86.93930390144641
 30
0.0
 11
134.4644995438761
 21
86.93930390144641
 31
0.0
  0
LINE
  5
154B
330
1510
100
AcDbEntity
  8
太線
100
AcDbLine
 10
133.9644995438761
 20
86.43930390144641
 30
0.0
 11
133.9644995438761
 21
81.93930390144641
 31
0.0
  0
ARC
  5
154C
330
1510
100
AcDbEntity
  8
太線
100
AcDbCircle
 10
132.4644995438761
 20
81.43930390144641
 30
0.0
 40
0.5
100
AcDbArc
 50
90.0
 51
180.0
  0
LINE
  5
154D
330
1510
100
AcDbEntity
  8
太線
100
AcDbLine
 10
133.9644995438761
 20
81.93930390144641
 30
0.0
 11
132.4644995438761
 21
81.93930390144641
 31
0.0
  0
LINE
  5
154E
330
1510
100
AcDbEntity
  8
極太線
100
AcDbLine
 10
134.9056703552093
 20
83.26342923362075
 30
0.0
 11
136.0233287325429
 21
83.26342923362075
 31
0.0
  0
LINE
  5
154F
330
1510
100
AcDbEntity
  8
極太線
100
AcDbLine
 10
135.4644995438761
 20
83.82225842228752
 30
0.0
 11
135.4644995438761
 21
82.70460004495395
 31
0.0
  0
CIRCLE
  5
1550
330
1510
100
AcDbEntity
  8
太線
100
AcDbCircle
 10
135.4644995438761
 20
83.26342923362075
 30
0.0
 40
0.5588291886667776
  0
ARC
  5
1551
330
1510
100
AcDbEntity
  8
太線
100
AcDbCircle
 10
134.4644995438761
 20
86.43930390144641
 30
0.0
 40
0.5
100
AcDbArc
 50
90.0
 51
180.0
  0
CIRCLE
  5
1552
330
1510
100
AcDbEntity
  8
太線
100
AcDbCircle
 10
135.4644995438761
 20
85.43930390144641
 30
0.0
 40
0.5588291886667776
  0
LINE
  5
1553
330
1510
100
AcDbEntity
  8
極太線
100
AcDbLine
 10
135.4644995438761
 20
85.99813309011318
 30
0.0
 11
135.4644995438761
 21
84.88047471277964
 31
0.0
  0
LINE
  5
1554
330
1510
100
AcDbEntity
  8
極太線
100
AcDbLine
 10
134.9056703552093
 20
85.43930390144641
 30
0.0
 11
136.0233287325429
 21
85.43930390144641
 31
0.0
  0
LINE
  5
1555
330
1510
100
AcDbEntity
  8
太線
100
AcDbLine
 10
139.9825403279738
 20
81.93930390144641
 30
0.0
 11
139.9825403279738
 21
86.43930390144641
 31
0.0
  0
ARC
  5
1556
330
1510
100
AcDbEntity
  8
太線
100
AcDbCircle
 10
141.4825403279738
 20
81.43930390144641
 30
0.0
 40
0.5
100
AcDbArc
 50
0.0
 51
90.0
  0
LINE
  5
1557
330
1510
100
AcDbEntity
  8
極太線
100
AcDbLine
 10
138.4825403279738
 20
83.82225842228752
 30
0.0
 11
138.4825403279738
 21
82.70460004495395
 31
0.0
  0
LINE
  5
1558
330
1510
100
AcDbEntity
  8
太線
100
AcDbLine
 10
141.4825403279738
 20
81.93930390144641
 30
0.0
 11
139.9825403279738
 21
81.93930390144641
 31
0.0
  0
ARC
  5
1559
330
1510
100
AcDbEntity
  8
太線
100
AcDbCircle
 10
139.4825403279738
 20
86.43930390144641
 30
0.0
 40
0.5
100
AcDbArc
 50
0.0
 51
90.0
  0
LINE
  5
155A
330
1510
100
AcDbEntity
  8
極太線
100
AcDbLine
 10
138.4825403279738
 20
85.99813309011318
 30
0.0
 11
138.4825403279738
 21
84.88047471277964
 31
0.0
  0
ENDBLK
  5
155C
330
1510
100
AcDbEntity
  8
0
100
AcDbBlockEnd
  0
BLOCK
  5
2A83
330
2A79
100
AcDbEntity
  8
0
 62
     0
100
AcDbBlockBegin
  2
*D2
 70
     1
 10
0.0
 20
0.0
 30
0.0
  3
*D2
  1

  0
LINE
  5
2AF5
330
2A79
100
AcDbEntity
  8
寸法線
 62
     0
370
    -2
100
AcDbLine
 10
74.20151402540432
 20
185.4711488256961
 30
0.0
 11
125.2434060466923
 21
185.4711488256961
 31
0.0
  0
LINE
  5
2AF6
330
2A79
100
AcDbEntity
  8
寸法線
 62
     0
370
    -2
100
AcDbLine
 10
75.08444195903834
 20
210.4581533153748
 30
0.0
 11
125.2434060466923
 21
210.4581533153748
 31
0.0
  0
LINE
  5
2AF7
330
2A79
100
AcDbEntity
  8
寸法線
 62
     0
370
    -2
100
AcDbLine
 10
122.2434060466923
 20
188.4711488256961
 30
0.0
 11
122.2434060466923
 21
207.4581533153748
 31
0.0
  0
INSERT
  5
2AF8
330
2A79
100
AcDbEntity
  8
寸法線
 62
     0
370
    -2
100
AcDbBlockReference
  2
_Closed
 10
122.2434060466923
 20
185.4711488256961
 30
0.0
 41
3.0
 42
3.0
 43
3.0
 50
270.0
  0
INSERT
  5
2AF9
330
2A79
100
AcDbEntity
  8
寸法線
 62
     0
370
    -2
100
AcDbBlockReference
  2
_Closed
 10
122.2434060466923
 20
210.4581533153748
 30
0.0
 41
3.0
 42
3.0
 43
3.0
 50
90.0
  0
MTEXT
  5
2AFA
330
2A79
100
AcDbEntity
  8
寸法線
 62
     0
100
AcDbMText
 10
118.7429139207081
 20
197.9646510705355
 30
0.0
 40
5.0
 41
0.0
 71
     5
 72
     1
  1
25.0
  7
OKANO
 11
0.0000000000000001
 21
1.0
 31
0.0
 73
     1
 44
1.0
  0
POINT
  5
2AFB
330
2A79
100
AcDbEntity
  8
Defpoints
 62
     0
100
AcDbPoint
 10
72.20151402540432
 20
185.4711488256961
 30
0.0
  0
POINT
  5
2AFC
330
2A79
100
AcDbEntity
  8
Defpoints
 62
     0
100
AcDbPoint
 10
73.08444195903835
 20
210.4581533153748
 30
0.0
  0
POINT
  5
2AFD
330
2A79
100
AcDbEntity
  8
Defpoints
 62
     0
100
AcDbPoint
 10
122.2434060466923
 20
210.4581533153748
 30
0.0
  0
ENDBLK
  5
2A84
330
2A79
100
AcDbEntity
  8
0
 62
     0
100
AcDbBlockEnd
  0
BLOCK
  5
2B75
330
2B6B
100
AcDbEntity
  8
0
100
AcDbBlockBegin
  2
*D3
 70
     1
 10
0.0
 20
0.0
 30
0.0
  3
*D3
  1

  0
LINE
  5
2B6C
330
2B6B
100
AcDbEntity
  8
寸法線
 62
     0
370
    -2
100
AcDbLine
 10
52.20151402540432
 20
157.4711488256961
 30
0.0
 11
52.20151402540432
 21
137.4711488256961
 31
0.0
  0
LINE
  5
2B6D
330
2B6B
100
AcDbEntity
  8
寸法線
 62
     0
370
    -2
100
AcDbLine
 10
42.20151402540432
 20
153.4711488256961
 30
0.0
 11
42.20151402540432
 21
137.4711488256961
 31
0.0
  0
LINE
  5
2B6E
330
2B6B
100
AcDbEntity
  8
寸法線
 62
     0
370
    -2
100
AcDbLine
 10
49.20151402540432
 20
140.4711488256961
 30
0.0
 11
45.20151402540432
 21
140.4711488256961
 31
0.0
  0
INSERT
  5
2B6F
330
2B6B
100
AcDbEntity
  8
寸法線
 62
     0
370
    -2
100
AcDbBlockReference
  2
_Closed
 10
52.20151402540432
 20
140.4711488256961
 30
0.0
 41
3.0
 42
3.0
 43
3.0
  0
INSERT
  5
2B70
330
2B6B
100
AcDbEntity
  8
寸法線
 62
     0
370
    -2
100
AcDbBlockReference
  2
_Closed
 10
42.20151402540432
 20
140.4711488256961
 30
0.0
 41
3.0
 42
3.0
 43
3.0
 50
180.0
  0
MTEXT
  5
2B71
330
2B6B
100
AcDbEntity
  8
寸法線
 62
     0
100
AcDbMText
 10
47.20151402540432
 20
143.9711488256961
 30
0.0
 40
5.0
 41
0.0
 71
     5
 72
     1
  1
10
  7
OKANO
 73
     1
 44
1.0
  0
POINT
  5
2B72
330
2B6B
100
AcDbEntity
  8
Defpoints
 62
     0
100
AcDbPoint
 10
52.20151402540432
 20
159.4711488256961
 30
0.0
  0
POINT
  5
2B73
330
2B6B
100
AcDbEntity
  8
Defpoints
 62
     0
100
AcDbPoint
 10
42.20151402540432
 20
155.4711488256961
 30
0.0
  0
POINT
  5
2B74
330
2B6B
100
AcDbEntity
  8
Defpoints
 62
     0
100
AcDbPoint
 10
42.20151402540432
 20
140.4711488256961
 30
0.0
  0
ENDBLK
  5
2B76
330
2B6B
100
AcDbEntity
  8
0
100
AcDbBlockEnd
  0
BLOCK
  5
2B84
330
2B78
100
AcDbEntity
  8
0
100
AcDbBlockBegin
  2
*D4
 70
     1
 10
0.0
 20
0.0
 30
0.0
  3
*D4
  1

  0
LINE
  5
2B79
330
2B78
100
AcDbEntity
  8
寸法線
 62
     0
370
    -2
100
AcDbLine
 10
104.2015140254043
 20
155.4711488256961
 30
0.0
 11
118.0558996179797
 21
155.4711488256961
 31
0.0
  0
LINE
  5
2B7A
330
2B78
100
AcDbEntity
  8
寸法線
 62
     0
370
    -2
100
AcDbLine
 10
94.20151402540431
 20
159.4711488256961
 30
0.0
 11
118.0558996179797
 21
159.4711488256961
 31
0.0
  0
LINE
  5
2B7B
330
2B78
100
AcDbEntity
  8
寸法線
 62
     0
370
    -2
100
AcDbLine
 10
115.0558996179797
 20
152.4711488256961
 30
0.0
 11
115.0558996179797
 21
149.4711488256961
 31
0.0
  0
LINE
  5
2B7C
330
2B78
100
AcDbEntity
  8
寸法線
 62
     0
370
    -2
100
AcDbLine
 10
115.0558996179797
 20
162.4711488256961
 30
0.0
 11
115.0558996179797
 21
169.9711488256961
 31
0.0
  0
LINE
  5
2B7D
330
2B78
100
AcDbEntity
  8
寸法線
 62
     0
370
    -2
100
AcDbLine
 10
115.0558996179797
 20
155.4711488256961
 30
0.0
 11
115.0558996179797
 21
159.4711488256961
 31
0.0
  0
INSERT
  5
2B7E
330
2B78
100
AcDbEntity
  8
寸法線
 62
     0
370
    -2
100
AcDbBlockReference
  2
_Closed
 10
115.0558996179797
 20
155.4711488256961
 30
0.0
 41
3.0
 42
3.0
 43
3.0
 50
90.0
  0
INSERT
  5
2B7F
330
2B78
100
AcDbEntity
  8
寸法線
 62
     0
370
    -2
100
AcDbBlockReference
  2
_Closed
 10
115.0558996179797
 20
159.4711488256961
 30
0.0
 41
3.0
 42
3.0
 43
3.0
 50
270.0
  0
MTEXT
  5
2B80
330
2B78
100
AcDbEntity
  8
寸法線
 62
     0
100
AcDbMText
 10
111.5558996179797
 20
167.7211488256961
 30
0.0
 40
5.0
 41
0.0
 71
     5
 72
     1
  1
4
  7
OKANO
 11
0.0000000000000001
 21
1.0
 31
0.0
 73
     1
 44
1.0
  0
POINT
  5
2B81
330
2B78
100
AcDbEntity
  8
Defpoints
 62
     0
100
AcDbPoint
 10
102.2015140254043
 20
155.4711488256961
 30
0.0
  0
POINT
  5
2B82
330
2B78
100
AcDbEntity
  8
Defpoints
 62
     0
100
AcDbPoint
 10
92.20151402540432
 20
159.4711488256961
 30
0.0
  0
POINT
  5
2B83
330
2B78
100
AcDbEntity
  8
Defpoints
 62
     0
100
AcDbPoint
 10
115.0558996179797
 20
159.4711488256961
 30
0.0
  0
ENDBLK
  5
2B85
330
2B78
100
AcDbEntity
  8
0
100
AcDbBlockEnd
  0
BLOCK
  5
2B97
330
2B8E
100
AcDbEntity
  8
0
100
AcDbBlockBegin
  2
*D5
 70
     1
 10
0.0
 20
0.0
 30
0.0
  3
*D5
  1

  0
LINE
  5
2B8F
330
2B8E
100
AcDbEntity
  8
寸法線
 62
     0
370
    -2
100
AcDbLine
 10
98.08905023306749
 20
176.497407148243
 30
0.0
 11
94.16234269821423
 21
165.1417000260545
 31
0.0
  0
LINE
  5
2B90
330
2B8E
100
AcDbEntity
  8
寸法線
 62
     0
370
    -2
100
AcDbLine
 10
90.24068535259443
 20
153.8005976253377
 30
0.0
 11
89.26027101618947
 21
150.9653220251585
 31
0.0
  0
MTEXT
  5
2B91
330
2B8E
100
AcDbEntity
  8
寸法線
 62
     0
100
AcDbMText
 10
93.30808210030092
 20
173.3810081130441
 30
0.0
 40
5.0
 41
0.0
 71
     5
 72
     1
  1
\U+22056
  7
OKANO
 11
0.3268047788016501
 21
0.9450918667264069
 31
0.0
 73
     1
 44
1.0
  0
LINE
  5
2B92
330
2B8E
100
AcDbEntity
  8
寸法線
 62
     0
370
    -2
100
AcDbLine
 10
91.22109968899938
 20
156.6358732255169
 30
0.0
 11
93.18192836180926
 21
162.3064244258753
 31
0.0
  0
INSERT
  5
2B93
330
2B8E
100
AcDbEntity
  8
寸法線
 62
     0
370
    -2
100
AcDbBlockReference
  2
_Closed
 10
91.22109968899938
 20
156.6358732255169
 30
0.0
 41
3.0
 42
3.0
 43
3.0
 50
70.92504712330795
  0
INSERT
  5
2B94
330
2B8E
100
AcDbEntity
  8
寸法線
 62
     0
370
    -2
100
AcDbBlockReference
  2
_Closed
 10
93.18192836180926
 20
162.3064244258753
 30
0.0
 41
3.0
 42
3.0
 43
3.0
 50
250.9250471233078
  0
POINT
  5
2B95
330
2B8E
100
AcDbEntity
  8
Defpoints
 62
     0
100
AcDbPoint
 10
93.18192836180926
 20
162.3064244258753
 30
0.0
  0
POINT
  5
2B96
330
2B8E
100
AcDbEntity
  8
Defpoints
 62
     0
100
AcDbPoint
 10
91.22109968899938
 20
156.6358732255169
 30
0.0
  0
ENDBLK
  5
2B98
330
2B8E
100
AcDbEntity
  8
0
100
AcDbBlockEnd
  0
BLOCK
  5
2BD7
330
2BCD
100
AcDbEntity
  8
0
100
AcDbBlockBegin
  2
*D6
 70
     1
 10
0.0
 20
0.0
 30
0.0
  3
*D6
  1

  0
LINE
  5
2BFD
330
2BCD
100
AcDbEntity
  8
寸法線
 62
     0
370
    -2
100
AcDbLine
 10
70.20151402540432
 20
200.4711488256961
 30
0.0
 11
55.24716626079317
 21
200.4711488256961
 31
0.0
  0
LINE
  5
2BFE
330
2BCD
100
AcDbEntity
  8
寸法線
 62
     0
370
    -2
100
AcDbLine
 10
70.20151402540432
 20
170.7746575771556
 30
0.0
 11
55.24716626079317
 21
170.7746575771556
 31
0.0
  0
LINE
  5
2BFF
330
2BCD
100
AcDbEntity
  8
寸法線
 62
     0
370
    -2
100
AcDbLine
 10
58.24716626079317
 20
197.4711488256961
 30
0.0
 11
58.24716626079316
 21
173.7746575771556
 31
0.0
  0
INSERT
  5
2C00
330
2BCD
100
AcDbEntity
  8
寸法線
 62
     0
370
    -2
100
AcDbBlockReference
  2
_Closed
 10
58.24716626079317
 20
200.4711488256961
 30
0.0
 41
3.0
 42
3.0
 43
3.0
 50
90.0
  0
INSERT
  5
2C01
330
2BCD
100
AcDbEntity
  8
寸法線
 62
     0
370
    -2
100
AcDbBlockReference
  2
_Closed
 10
58.24716626079316
 20
170.7746575771556
 30
0.0
 41
3.0
 42
3.0
 43
3.0
 50
270.0
  0
MTEXT
  5
2C02
330
2BCD
100
AcDbEntity
  8
寸法線
 62
     0
100
AcDbMText
 10
54.74716626079314
 20
185.6229032014259
 30
0.0
 40
5.0
 41
0.0
 71
     5
 72
     1
  1
30.0
  7
OKANO
 11
0.0000000000000001
 21
1.0
 31
0.0
 73
     1
 44
1.0
  0
POINT
  5
2C03
330
2BCD
100
AcDbEntity
  8
Defpoints
 62
     0
100
AcDbPoint
 10
72.20151402540432
 20
200.4711488256961
 30
0.0
  0
POINT
  5
2C04
330
2BCD
100
AcDbEntity
  8
Defpoints
 62
     0
100
AcDbPoint
 10
72.20151402540432
 20
170.7746575771556
 30
0.0
  0
POINT
  5
2C05
330
2BCD
100
AcDbEntity
  8
Defpoints
 62
     0
100
AcDbPoint
 10
58.24716626079316
 20
170.7746575771556
 30
0.0
  0
ENDBLK
  5
2BD8
330
2BCD
100
AcDbEntity
  8
0
100
AcDbBlockEnd
  0
BLOCK
  5
2BE4
330
2BDA
100
AcDbEntity
  8
0
100
AcDbBlockBegin
  2
*D7
 70
     1
 10
0.0
 20
0.0
 30
0.0
  3
*D7
  1

  0
LINE
  5
2BDB
330
2BDA
100
AcDbEntity
  8
寸法線
 62
     0
370
    -2
100
AcDbLine
 10
66.20151402540432
 20
174.7746575771556
 30
0.0
 11
66.20151402540432
 21
157.4813640933168
 31
0.0
  0
LINE
  5
2BDC
330
2BDA
100
AcDbEntity
  8
寸法線
 62
     0
370
    -2
100
AcDbLine
 10
78.20151402540432
 20
174.7746575771556
 30
0.0
 11
78.20151402540432
 21
157.4813640933168
 31
0.0
  0
LINE
  5
2BDD
330
2BDA
100
AcDbEntity
  8
寸法線
 62
     0
370
    -2
100
AcDbLine
 10
69.20151402540432
 20
160.4813640933168
 30
0.0
 11
75.20151402540432
 21
160.4813640933168
 31
0.0
  0
INSERT
  5
2BDE
330
2BDA
100
AcDbEntity
  8
寸法線
 62
     0
370
    -2
100
AcDbBlockReference
  2
_Closed
 10
66.20151402540432
 20
160.4813640933168
 30
0.0
 41
3.0
 42
3.0
 43
3.0
 50
180.0
  0
INSERT
  5
2BDF
330
2BDA
100
AcDbEntity
  8
寸法線
 62
     0
370
    -2
100
AcDbBlockReference
  2
_Closed
 10
78.20151402540432
 20
160.4813640933168
 30
0.0
 41
3.0
 42
3.0
 43
3.0
  0
MTEXT
  5
2BE0
330
2BDA
100
AcDbEntity
  8
寸法線
 62
     0
100
AcDbMText
 10
72.20151402540432
 20
163.9818562193011
 30
0.0
 40
5.0
 41
0.0
 71
     5
 72
     1
  1
12
  7
OKANO
 73
     1
 44
1.0
  0
POINT
  5
2BE1
330
2BDA
100
AcDbEntity
  8
Defpoints
 62
     0
100
AcDbPoint
 10
66.20151402540432
 20
176.7746575771556
 30
0.0
  0
POINT
  5
2BE2
330
2BDA
100
AcDbEntity
  8
Defpoints
 62
     0
100
AcDbPoint
 10
78.20151402540432
 20
176.7746575771556
 30
0.0
  0
POINT
  5
2BE3
330
2BDA
100
AcDbEntity
  8
Defpoints
 62
     0
100
AcDbPoint
 10
78.20151402540432
 20
160.4813640933168
 30
0.0
  0
ENDBLK
  5
2BE5
330
2BDA
100
AcDbEntity
  8
0
100
AcDbBlockEnd
  0
BLOCK
  5
2BEE
330
2BE7
100
AcDbEntity
  8
0
100
AcDbBlockBegin
  2
*D8
 70
     1
 10
0.0
 20
0.0
 30
0.0
  3
*D8
  1

  0
LINE
  5
2BE8
330
2BE7
100
AcDbEntity
  8
寸法線
 62
     0
370
    -2
100
AcDbLine
 10
88.01138697209347
 20
221.8609440365547
 30
0.0
 11
76.70073865087494
 21
202.2658250710291
 31
0.0
  0
MTEXT
  5
2BE9
330
2BE7
100
AcDbEntity
  8
寸法線
 62
     0
100
AcDbMText
 10
82.8013956783127
 20
219.8361072848062
 30
0.0
 40
5.0
 41
0.0
 71
     5
 72
     1
  1
R6
  7
OKANO
 11
0.4999138472745085
 21
0.8660751383703376
 31
0.0
 73
     1
 44
1.0
  0
LINE
  5
2BEA
330
2BE7
100
AcDbEntity
  8
寸法線
 62
     0
370
    -2
100
AcDbLine
 10
72.20151402540442
 20
194.4711488256962
 30
0.0
 11
75.2009971090514
 21
199.6675996559181
 31
0.0
  0
INSERT
  5
2BEB
330
2BE7
100
AcDbEntity
  8
寸法線
 62
     0
370
    -2
100
AcDbBlockReference
  2
_Closed
 10
75.2009971090514
 20
199.6675996559181
 30
0.0
 41
3.0
 42
3.0
 43
3.0
 50
240.0056996547717
  0
POINT
  5
2BEC
330
2BE7
100
AcDbEntity
  8
Defpoints
 62
     0
100
AcDbPoint
 10
75.2009971090514
 20
199.6675996559181
 30
0.0
  0
POINT
  5
2BED
330
2BE7
100
AcDbEntity
  8
Defpoints
 62
     0
100
AcDbPoint
 10
72.20151402540442
 20
194.4711488256962
 30
0.0
  0
ENDBLK
  5
2BEF
330
2BE7
100
AcDbEntity
  8
0
100
AcDbBlockEnd
  0
BLOCK
  5
2BFB
330
2BF1
100
AcDbEntity
  8
0
100
AcDbBlockBegin
  2
*D9
 70
     1
 10
0.0
 20
0.0
 30
0.0
  3
*D9
  1

  0
LINE
  5
2C2F
330
2BF1
100
AcDbEntity
  8
寸法線
 62
     0
370
    -2
100
AcDbLine
 10
72.20151402540432
 20
182.4711488256961
 30
0.0
 11
72.20151402540432
 21
221.0864088193453
 31
0.0
  0
LINE
  5
2C30
330
2BF1
100
AcDbEntity
  8
寸法線
 62
     0
370
    -2
100
AcDbLine
 10
42.20151402540432
 20
182.4711488256961
 30
0.0
 11
42.20151402540432
 21
221.0864088193453
 31
0.0
  0
LINE
  5
2C31
330
2BF1
100
AcDbEntity
  8
寸法線
 62
     0
370
    -2
100
AcDbLine
 10
69.20151402540432
 20
218.0864088193453
 30
0.0
 11
45.20151402540432
 21
218.0864088193453
 31
0.0
  0
INSERT
  5
2C32
330
2BF1
100
AcDbEntity
  8
寸法線
 62
     0
370
    -2
100
AcDbBlockReference
  2
_Closed
 10
72.20151402540432
 20
218.0864088193453
 30
0.0
 41
3.0
 42
3.0
 43
3.0
  0
INSERT
  5
2C33
330
2BF1
100
AcDbEntity
  8
寸法線
 62
     0
370
    -2
100
AcDbBlockReference
  2
_Closed
 10
42.20151402540432
 20
218.0864088193453
 30
0.0
 41
3.0
 42
3.0
 43
3.0
 50
180.0
  0
MTEXT
  5
2C34
330
2BF1
100
AcDbEntity
  8
寸法線
 62
     0
100
AcDbMText
 10
57.20151402540432
 20
221.5869009453296
 30
0.0
 40
5.0
 41
0.0
 71
     5
 72
     1
  1
28.65
  7
OKANO
 73
     1
 44
1.0
  0
POINT
  5
2C35
330
2BF1
100
AcDbEntity
  8
Defpoints
 62
     0
100
AcDbPoint
 10
72.20151402540432
 20
180.4711488256961
 30
0.0
  0
POINT
  5
2C36
330
2BF1
100
AcDbEntity
  8
Defpoints
 62
     0
100
AcDbPoint
 10
42.20151402540432
 20
180.4711488256961
 30
0.0
  0
POINT
  5
2C37
330
2BF1
100
AcDbEntity
  8
Defpoints
 62
     0
100
AcDbPoint
 10
42.20151402540432
 20
218.0864088193453
 30
0.0
  0
ENDBLK
  5
2BFC
330
2BF1
100
AcDbEntity
  8
0
100
AcDbBlockEnd
  0
BLOCK
  5
2C5D
330
2C53
100
AcDbEntity
  8
0
100
AcDbBlockBegin
  2
*D10
 70
     1
 10
0.0
 20
0.0
 30
0.0
  3
*D10
  1

  0
LINE
  5
2C54
330
2C53
100
AcDbEntity
  8
寸法線
 62
     0
370
    -2
100
AcDbLine
 10
243.0664745488584
 20
210.4711488256961
 30
0.0
 11
201.1056801283371
 21
210.4711488256961
 31
0.0
  0
LINE
  5
2C55
330
2C53
100
AcDbEntity
  8
寸法線
 62
     0
370
    -2
100
AcDbLine
 10
220.6414745488584
 20
150.4711488256961
 30
0.0
 11
201.1056801283371
 21
150.4711488256961
 31
0.0
  0
LINE
  5
2C56
330
2C53
100
AcDbEntity
  8
寸法線
 62
     0
370
    -2
100
AcDbLine
 10
204.1056801283371
 20
207.4711488256961
 30
0.0
 11
204.105680128337
 21
153.4711488256961
 31
0.0
  0
INSERT
  5
2C57
330
2C53
100
AcDbEntity
  8
寸法線
 62
     0
370
    -2
100
AcDbBlockReference
  2
_Closed
 10
204.1056801283371
 20
210.4711488256961
 30
0.0
 41
3.0
 42
3.0
 43
3.0
 50
90.0
  0
INSERT
  5
2C58
330
2C53
100
AcDbEntity
  8
寸法線
 62
     0
370
    -2
100
AcDbBlockReference
  2
_Closed
 10
204.105680128337
 20
150.4711488256961
 30
0.0
 41
3.0
 42
3.0
 43
3.0
 50
270.0
  0
MTEXT
  5
2C59
330
2C53
100
AcDbEntity
  8
寸法線
 62
     0
100
AcDbMText
 10
200.605680128337
 20
180.4711488256962
 30
0.0
 40
5.0
 41
0.0
 71
     5
 72
     1
  1
60
  7
OKANO
 11
0.0000000000000001
 21
1.0
 31
0.0
 73
     1
 44
1.0
  0
POINT
  5
2C5A
330
2C53
100
AcDbEntity
  8
Defpoints
 62
     0
100
AcDbPoint
 10
245.0664745488584
 20
210.4711488256961
 30
0.0
  0
POINT
  5
2C5B
330
2C53
100
AcDbEntity
  8
Defpoints
 62
     0
100
AcDbPoint
 10
222.6414745488584
 20
150.4711488256961
 30
0.0
  0
POINT
  5
2C5C
330
2C53
100
AcDbEntity
  8
Defpoints
 62
     0
100
AcDbPoint
 10
204.105680128337
 20
150.4711488256961
 30
0.0
  0
ENDBLK
  5
2C5E
330
2C53
100
AcDbEntity
  8
0
100
AcDbBlockEnd
  0
BLOCK
  5
2C6A
330
2C60
100
AcDbEntity
  8
0
100
AcDbBlockBegin
  2
*D11
 70
     1
 10
0.0
 20
0.0
 30
0.0
  3
*D11
  1

  0
LINE
  5
2C61
330
2C60
100
AcDbEntity
  8
寸法線
 62
     0
370
    -2
100
AcDbLine
 10
220.6414745488584
 20
150.4711488256961
 30
0.0
 11
201.1056801283371
 21
150.4711488256961
 31
0.0
  0
LINE
  5
2C62
330
2C60
100
AcDbEntity
  8
寸法線
 62
     0
370
    -2
100
AcDbLine
 10
215.6414745488584
 20
115.4711488256961
 30
0.0
 11
201.1056801283371
 21
115.4711488256961
 31
0.0
  0
LINE
  5
2C63
330
2C60
100
AcDbEntity
  8
寸法線
 62
     0
370
    -2
100
AcDbLine
 10
204.105680128337
 20
147.4711488256961
 30
0.0
 11
204.105680128337
 21
118.4711488256961
 31
0.0
  0
INSERT
  5
2C64
330
2C60
100
AcDbEntity
  8
寸法線
 62
     0
370
    -2
100
AcDbBlockReference
  2
_Closed
 10
204.105680128337
 20
150.4711488256961
 30
0.0
 41
3.0
 42
3.0
 43
3.0
 50
90.0
  0
INSERT
  5
2C65
330
2C60
100
AcDbEntity
  8
寸法線
 62
     0
370
    -2
100
AcDbBlockReference
  2
_Closed
 10
204.105680128337
 20
115.4711488256961
 30
0.0
 41
3.0
 42
3.0
 43
3.0
 50
270.0
  0
MTEXT
  5
2C66
330
2C60
100
AcDbEntity
  8
寸法線
 62
     0
100
AcDbMText
 10
200.605680128337
 20
132.9711488256962
 30
0.0
 40
5.0
 41
0.0
 71
     5
 72
     1
  1
35
  7
OKANO
 11
0.0000000000000001
 21
1.0
 31
0.0
 73
     1
 44
1.0
  0
POINT
  5
2C67
330
2C60
100
AcDbEntity
  8
Defpoints
 62
     0
100
AcDbPoint
 10
222.6414745488584
 20
150.4711488256961
 30
0.0
  0
POINT
  5
2C68
330
2C60
100
AcDbEntity
  8
Defpoints
 62
     0
100
AcDbPoint
 10
217.6414745488584
 20
115.4711488256961
 30
0.0
  0
POINT
  5
2C69
330
2C60
100
AcDbEntity
  8
Defpoints
 62
     0
100
AcDbPoint
 10
204.105680128337
 20
115.4711488256961
 30
0.0
  0
ENDBLK
  5
2C6B
330
2C60
100
AcDbEntity
  8
0
100
AcDbBlockEnd
  0
BLOCK
  5
2C79
330
2C6D
100
AcDbEntity
  8
0
100
AcDbBlockBegin
  2
*D12
 70
     1
 10
0.0
 20
0.0
 30
0.0
  3
*D12
  1

  0
LINE
  5
2CB6
330
2C6D
100
AcDbEntity
  8
寸法線
 62
     0
370
    -2
100
AcDbLine
 10
277.6414745488584
 20
113.4711488256961
 30
0.0
 11
277.6414745488584
 21
99.38157372734748
 31
0.0
  0
LINE
  5
2CB7
330
2C6D
100
AcDbEntity
  8
寸法線
 62
     0
370
    -2
100
AcDbLine
 10
272.6414745488584
 20
113.4711488256961
 30
0.0
 11
272.6414745488584
 21
99.38157372734748
 31
0.0
  0
LINE
  5
2CB8
330
2C6D
100
AcDbEntity
  8
寸法線
 62
     0
370
    -2
100
AcDbLine
 10
280.6414745488584
 20
102.3815737273474
 30
0.0
 11
283.6414745488584
 21
102.3815737273474
 31
0.0
  0
LINE
  5
2CB9
330
2C6D
100
AcDbEntity
  8
寸法線
 62
     0
370
    -2
100
AcDbLine
 10
269.6414745488584
 20
102.3815737273474
 30
0.0
 11
266.6414745488584
 21
102.3815737273474
 31
0.0
  0
LINE
  5
2CBA
330
2C6D
100
AcDbEntity
  8
寸法線
 62
     0
370
    -2
100
AcDbLine
 10
277.6414745488584
 20
102.3815737273474
 30
0.0
 11
272.6414745488584
 21
102.3815737273474
 31
0.0
  0
INSERT
  5
2CBB
330
2C6D
100
AcDbEntity
  8
寸法線
 62
     0
370
    -2
100
AcDbBlockReference
  2
_Closed
 10
277.6414745488584
 20
102.3815737273474
 30
0.0
 41
3.0
 42
3.0
 43
3.0
 50
180.0
  0
INSERT
  5
2CBC
330
2C6D
100
AcDbEntity
  8
寸法線
 62
     0
370
    -2
100
AcDbBlockReference
  2
_Closed
 10
272.6414745488584
 20
102.3815737273474
 30
0.0
 41
3.0
 42
3.0
 43
3.0
  0
MTEXT
  5
2CBD
330
2C6D
100
AcDbEntity
  8
寸法線
 62
     0
100
AcDbMText
 10
275.1414745488584
 20
105.8815737273474
 30
0.0
 40
5.0
 41
0.0
 71
     5
 72
     1
  1
4
  7
OKANO
 73
     1
 44
1.0
  0
POINT
  5
2CBE
330
2C6D
100
AcDbEntity
  8
Defpoints
 62
     0
100
AcDbPoint
 10
277.6414745488584
 20
115.4711488256961
 30
0.0
  0
POINT
  5
2CBF
330
2C6D
100
AcDbEntity
  8
Defpoints
 62
     0
100
AcDbPoint
 10
272.6414745488584
 20
115.4711488256961
 30
0.0
  0
POINT
  5
2CC0
330
2C6D
100
AcDbEntity
  8
Defpoints
 62
     0
100
AcDbPoint
 10
272.6414745488584
 20
102.3815737273474
 30
0.0
  0
ENDBLK
  5
2C7A
330
2C6D
100
AcDbEntity
  8
0
100
AcDbBlockEnd
  0
BLOCK
  5
2C86
330
2C7C
100
AcDbEntity
  8
0
100
AcDbBlockBegin
  2
*D13
 70
     1
 10
0.0
 20
0.0
 30
0.0
  3
*D13
  1

  0
LINE
  5
2CAD
330
2C7C
100
AcDbEntity
  8
寸法線
 62
     0
370
    -2
100
AcDbLine
 10
272.6414745488584
 20
113.4711488256961
 30
0.0
 11
272.6414745488584
 21
99.38157372734748
 31
0.0
  0
LINE
  5
2CAE
330
2C7C
100
AcDbEntity
  8
寸法線
 62
     0
370
    -2
100
AcDbLine
 10
222.6414745488584
 20
113.4711488256961
 30
0.0
 11
222.6414745488584
 21
99.38157372734748
 31
0.0
  0
LINE
  5
2CAF
330
2C7C
100
AcDbEntity
  8
寸法線
 62
     0
370
    -2
100
AcDbLine
 10
269.6414745488584
 20
102.3815737273474
 30
0.0
 11
225.6414745488584
 21
102.3815737273474
 31
0.0
  0
INSERT
  5
2CB0
330
2C7C
100
AcDbEntity
  8
寸法線
 62
     0
370
    -2
100
AcDbBlockReference
  2
_Closed
 10
272.6414745488584
 20
102.3815737273474
 30
0.0
 41
3.0
 42
3.0
 43
3.0
  0
INSERT
  5
2CB1
330
2C7C
100
AcDbEntity
  8
寸法線
 62
     0
370
    -2
100
AcDbBlockReference
  2
_Closed
 10
222.6414745488584
 20
102.3815737273474
 30
0.0
 41
3.0
 42
3.0
 43
3.0
 50
180.0
  0
MTEXT
  5
2CB2
330
2C7C
100
AcDbEntity
  8
寸法線
 62
     0
100
AcDbMText
 10
247.6414745488584
 20
105.8815737273474
 30
0.0
 40
5.0
 41
0.0
 71
     5
 72
     1
  1
49.3
  7
OKANO
 73
     1
 44
1.0
  0
POINT
  5
2CB3
330
2C7C
100
AcDbEntity
  8
Defpoints
 62
     0
100
AcDbPoint
 10
272.6414745488584
 20
115.4711488256961
 30
0.0
  0
POINT
  5
2CB4
330
2C7C
100
AcDbEntity
  8
Defpoints
 62
     0
100
AcDbPoint
 10
222.6414745488584
 20
115.4711488256961
 30
0.0
  0
POINT
  5
2CB5
330
2C7C
100
AcDbEntity
  8
Defpoints
 62
     0
100
AcDbPoint
 10
222.6414745488584
 20
102.3815737273474
 30
0.0
  0
ENDBLK
  5
2C87
330
2C7C
100
AcDbEntity
  8
0
100
AcDbBlockEnd
  0
BLOCK
  5
2C95
330
2C89
100
AcDbEntity
  8
0
100
AcDbBlockBegin
  2
*D14
 70
     1
 10
0.0
 20
0.0
 30
0.0
  3
*D14
  1

  0
LINE
  5
2CC1
330
2C89
100
AcDbEntity
  8
寸法線
 62
     0
370
    -2
100
AcDbLine
 10
222.6414745488584
 20
113.4711488256961
 30
0.0
 11
222.6414745488584
 21
99.38157372734748
 31
0.0
  0
LINE
  5
2CC2
330
2C89
100
AcDbEntity
  8
寸法線
 62
     0
370
    -2
100
AcDbLine
 10
217.6414745488584
 20
113.4711488256961
 30
0.0
 11
217.6414745488584
 21
99.38157372734748
 31
0.0
  0
LINE
  5
2CC3
330
2C89
100
AcDbEntity
  8
寸法線
 62
     0
370
    -2
100
AcDbLine
 10
225.6414745488584
 20
102.3815737273474
 30
0.0
 11
228.6414745488584
 21
102.3815737273474
 31
0.0
  0
LINE
  5
2CC4
330
2C89
100
AcDbEntity
  8
寸法線
 62
     0
370
    -2
100
AcDbLine
 10
214.6414745488584
 20
102.3815737273474
 30
0.0
 11
211.6414745488584
 21
102.3815737273474
 31
0.0
  0
LINE
  5
2CC5
330
2C89
100
AcDbEntity
  8
寸法線
 62
     0
370
    -2
100
AcDbLine
 10
222.6414745488584
 20
102.3815737273474
 30
0.0
 11
217.6414745488584
 21
102.3815737273474
 31
0.0
  0
INSERT
  5
2CC6
330
2C89
100
AcDbEntity
  8
寸法線
 62
     0
370
    -2
100
AcDbBlockReference
  2
_Closed
 10
222.6414745488584
 20
102.3815737273474
 30
0.0
 41
3.0
 42
3.0
 43
3.0
 50
180.0
  0
INSERT
  5
2CC7
330
2C89
100
AcDbEntity
  8
寸法線
 62
     0
370
    -2
100
AcDbBlockReference
  2
_Closed
 10
217.6414745488584
 20
102.3815737273474
 30
0.0
 41
3.0
 42
3.0
 43
3.0
  0
MTEXT
  5
2CC8
330
2C89
100
AcDbEntity
  8
寸法線
 62
     0
100
AcDbMText
 10
220.1414745488584
 20
105.8815737273474
 30
0.0
 40
5.0
 41
0.0
 71
     5
 72
     1
  1
4
  7
OKANO
 73
     1
 44
1.0
  0
POINT
  5
2CC9
330
2C89
100
AcDbEntity
  8
Defpoints
 62
     0
100
AcDbPoint
 10
222.6414745488584
 20
115.4711488256961
 30
0.0
  0
POINT
  5
2CCA
330
2C89
100
AcDbEntity
  8
Defpoints
 62
     0
100
AcDbPoint
 10
217.6414745488584
 20
115.4711488256961
 30
0.0
  0
POINT
  5
2CCB
330
2C89
100
AcDbEntity
  8
Defpoints
 62
     0
100
AcDbPoint
 10
217.6414745488584
 20
102.3815737273474
 30
0.0
  0
ENDBLK
  5
2C96
330
2C89
100
AcDbEntity
  8
0
100
AcDbBlockEnd
  0
BLOCK
  5
2CA2
330
2C98
100
AcDbEntity
  8
0
100
AcDbBlockBegin
  2
*D15
 70
     1
 10
0.0
 20
0.0
 30
0.0
  3
*D15
  1

  0
LINE
  5
2CA4
330
2C98
100
AcDbEntity
  8
寸法線
 62
     0
370
    -2
100
AcDbLine
 10
222.6414745488584
 20
148.4711488256961
 30
0.0
 11
222.6414745488584
 21
140.6865984371464
 31
0.0
  0
LINE
  5
2CA5
330
2C98
100
AcDbEntity
  8
寸法線
 62
     0
370
    -2
100
AcDbLine
 10
272.6414745488584
 20
148.4711488256961
 30
0.0
 11
272.6414745488584
 21
140.6865984371464
 31
0.0
  0
LINE
  5
2CA6
330
2C98
100
AcDbEntity
  8
寸法線
 62
     0
370
    -2
100
AcDbLine
 10
225.6414745488584
 20
143.6865984371464
 30
0.0
 11
269.6414745488584
 21
143.6865984371464
 31
0.0
  0
INSERT
  5
2CA7
330
2C98
100
AcDbEntity
  8
寸法線
 62
     0
370
    -2
100
AcDbBlockReference
  2
_Closed
 10
222.6414745488584
 20
143.6865984371464
 30
0.0
 41
3.0
 42
3.0
 43
3.0
 50
180.0
  0
INSERT
  5
2CA8
330
2C98
100
AcDbEntity
  8
寸法線
 62
     0
370
    -2
100
AcDbBlockReference
  2
_Closed
 10
272.6414745488584
 20
143.6865984371464
 30
0.0
 41
3.0
 42
3.0
 43
3.0
  0
MTEXT
  5
2CA9
330
2C98
100
AcDbEntity
  8
寸法線
 62
     0
100
AcDbMText
 10
247.6414745488584
 20
147.1865984371464
 30
0.0
 40
5.0
 41
0.0
 71
     5
 72
     1
  1
49.0
  7
OKANO
 73
     1
 44
1.0
  0
POINT
  5
2CAA
330
2C98
100
AcDbEntity
  8
Defpoints
 62
     0
100
AcDbPoint
 10
222.6414745488584
 20
150.4711488256961
 30
0.0
  0
POINT
  5
2CAB
330
2C98
100
AcDbEntity
  8
Defpoints
 62
     0
100
AcDbPoint
 10
272.6414745488584
 20
150.4711488256961
 30
0.0
  0
POINT
  5
2CAC
330
2C98
100
AcDbEntity
  8
Defpoints
 62
     0
100
AcDbPoint
 10
272.6414745488584
 20
143.6865984371464
 30
0.0
  0
ENDBLK
  5
2CA3
330
2C98
100
AcDbEntity
  8
0
100
AcDbBlockEnd
  0
BLOCK
  5
2CD7
330
2CCD
100
AcDbEntity
  8
0
100
AcDbBlockBegin
  2
*D16
 70
     1
 10
0.0
 20
0.0
 30
0.0
  3
*D16
  1

  0
LINE
  5
2CD9
330
2CCD
100
AcDbEntity
  8
寸法線
 62
     0
370
    -2
100
AcDbLine
 10
42.20151402540432
 20
113.4711488256961
 30
0.0
 11
42.20151402540432
 21
93.57732068111772
 31
0.0
  0
LINE
  5
2CDA
330
2CCD
100
AcDbEntity
  8
寸法線
 62
     0
370
    -2
100
AcDbLine
 10
102.2015140254043
 20
113.4711488256961
 30
0.0
 11
102.2015140254043
 21
93.57732068111772
 31
0.0
  0
LINE
  5
2CDB
330
2CCD
100
AcDbEntity
  8
寸法線
 62
     0
370
    -2
100
AcDbLine
 10
45.20151402540432
 20
96.57732068111773
 30
0.0
 11
99.20151402540433
 21
96.57732068111773
 31
0.0
  0
INSERT
  5
2CDC
330
2CCD
100
AcDbEntity
  8
寸法線
 62
     0
370
    -2
100
AcDbBlockReference
  2
_Closed
 10
42.20151402540432
 20
96.57732068111773
 30
0.0
 41
3.0
 42
3.0
 43
3.0
 50
180.0
  0
INSERT
  5
2CDD
330
2CCD
100
AcDbEntity
  8
寸法線
 62
     0
370
    -2
100
AcDbBlockReference
  2
_Closed
 10
102.2015140254043
 20
96.57732068111773
 30
0.0
 41
3.0
 42
3.0
 43
3.0
  0
MTEXT
  5
2CDE
330
2CCD
100
AcDbEntity
  8
寸法線
 62
     0
100
AcDbMText
 10
72.20151402540432
 20
100.0773206811177
 30
0.0
 40
5.0
 41
0.0
 71
     5
 72
     1
  1
57.3
  7
OKANO
 73
     1
 44
1.0
  0
POINT
  5
2CDF
330
2CCD
100
AcDbEntity
  8
Defpoints
 62
     0
100
AcDbPoint
 10
42.20151402540432
 20
115.4711488256961
 30
0.0
  0
POINT
  5
2CE0
330
2CCD
100
AcDbEntity
  8
Defpoints
 62
     0
100
AcDbPoint
 10
102.2015140254043
 20
115.4711488256961
 30
0.0
  0
POINT
  5
2CE1
330
2CCD
100
AcDbEntity
  8
Defpoints
 62
     0
100
AcDbPoint
 10
102.2015140254043
 20
96.57732068111773
 30
0.0
  0
ENDBLK
  5
2CD8
330
2CCD
100
AcDbEntity
  8
0
100
AcDbBlockEnd
  0
BLOCK
  5
2CEF
330
2CE3
100
AcDbEntity
  8
0
100
AcDbBlockBegin
  2
*D17
 70
     1
 10
0.0
 20
0.0
 30
0.0
  3
*D17
  1

  0
LINE
  5
2CF1
330
2CE3
100
AcDbEntity
  8
寸法線
 62
     0
370
    -2
100
AcDbLine
 10
278.6414745488584
 20
155.4711488256961
 30
0.0
 11
294.0524041415976
 21
155.4711488256961
 31
0.0
  0
LINE
  5
2CF2
330
2CE3
100
AcDbEntity
  8
寸法線
 62
     0
370
    -2
100
AcDbLine
 10
274.6414745488584
 20
150.4711488256961
 30
0.0
 11
294.0524041415976
 21
150.4711488256961
 31
0.0
  0
LINE
  5
2CF3
330
2CE3
100
AcDbEntity
  8
寸法線
 62
     0
370
    -2
100
AcDbLine
 10
291.0524041415976
 20
158.4711488256961
 30
0.0
 11
291.0524041415976
 21
161.4711488256961
 31
0.0
  0
LINE
  5
2CF4
330
2CE3
100
AcDbEntity
  8
寸法線
 62
     0
370
    -2
100
AcDbLine
 10
291.0524041415976
 20
147.4711488256961
 30
0.0
 11
291.0524041415976
 21
144.4711488256961
 31
0.0
  0
LINE
  5
2CF5
330
2CE3
100
AcDbEntity
  8
寸法線
 62
     0
370
    -2
100
AcDbLine
 10
291.0524041415976
 20
155.4711488256961
 30
0.0
 11
291.0524041415976
 21
150.4711488256961
 31
0.0
  0
INSERT
  5
2CF6
330
2CE3
100
AcDbEntity
  8
寸法線
 62
     0
370
    -2
100
AcDbBlockReference
  2
_Closed
 10
291.0524041415976
 20
155.4711488256961
 30
0.0
 41
3.0
 42
3.0
 43
3.0
 50
270.0
  0
INSERT
  5
2CF7
330
2CE3
100
AcDbEntity
  8
寸法線
 62
     0
370
    -2
100
AcDbBlockReference
  2
_Closed
 10
291.0524041415976
 20
150.4711488256961
 30
0.0
 41
3.0
 42
3.0
 43
3.0
 50
90.0
  0
MTEXT
  5
2CF8
330
2CE3
100
AcDbEntity
  8
寸法線
 62
     0
100
AcDbMText
 10
287.5524041415975
 20
152.9711488256961
 30
0.0
 40
5.0
 41
0.0
 71
     5
 72
     1
  1
4
  7
OKANO
 11
0.0000000000000001
 21
1.0
 31
0.0
 73
     1
 44
1.0
  0
POINT
  5
2CF9
330
2CE3
100
AcDbEntity
  8
Defpoints
 62
     0
100
AcDbPoint
 10
276.6414745488584
 20
155.4711488256961
 30
0.0
  0
POINT
  5
2CFA
330
2CE3
100
AcDbEntity
  8
Defpoints
 62
     0
100
AcDbPoint
 10
272.6414745488584
 20
150.4711488256961
 30
0.0
  0
POINT
  5
2CFB
330
2CE3
100
AcDbEntity
  8
Defpoints
 62
     0
100
AcDbPoint
 10
291.0524041415976
 20
150.4711488256961
 30
0.0
  0
ENDBLK
  5
2CF0
330
2CE3
100
AcDbEntity
  8
0
100
AcDbBlockEnd
  0
BLOCK
  5
2D95
330
2D8B
100
AcDbEntity
  8
0
100
AcDbBlockBegin
  2
*D18
 70
     1
 10
0.0
 20
0.0
 30
0.0
  3
*D18
  1

  0
LINE
  5
2DB6
330
2D8B
100
AcDbEntity
  8
寸法線
 62
     0
370
    -2
100
AcDbLine
 10
217.6414745488584
 20
156.4711488256961
 30
0.0
 11
217.6414745488584
 21
222.6028370376931
 31
0.0
  0
LINE
  5
2DB7
330
2D8B
100
AcDbEntity
  8
寸法線
 62
     0
370
    -2
100
AcDbLine
 10
245.9343677676719
 20
212.1782556068827
 30
0.0
 11
245.9343677676719
 21
222.6028370376931
 31
0.0
  0
LINE
  5
2DB8
330
2D8B
100
AcDbEntity
  8
寸法線
 62
     0
370
    -2
100
AcDbLine
 10
220.6414745488584
 20
219.6028370376931
 30
0.0
 11
242.9343677676718
 21
219.6028370376931
 31
0.0
  0
INSERT
  5
2DB9
330
2D8B
100
AcDbEntity
  8
寸法線
 62
     0
370
    -2
100
AcDbBlockReference
  2
_Closed
 10
217.6414745488584
 20
219.6028370376931
 30
0.0
 41
3.0
 42
3.0
 43
3.0
 50
180.0
  0
INSERT
  5
2DBA
330
2D8B
100
AcDbEntity
  8
寸法線
 62
     0
370
    -2
100
AcDbBlockReference
  2
_Closed
 10
245.9343677676719
 20
219.6028370376931
 30
0.0
 41
3.0
 42
3.0
 43
3.0
  0
MTEXT
  5
2DBB
330
2D8B
100
AcDbEntity
  8
寸法線
 62
     0
100
AcDbMText
 10
231.7879211582651
 20
223.1033291636773
 30
0.0
 40
5.0
 41
0.0
 71
     5
 72
     1
  1
26.65
  7
OKANO
 73
     1
 44
1.0
  0
POINT
  5
2DBC
330
2D8B
100
AcDbEntity
  8
Defpoints
 62
     0
100
AcDbPoint
 10
217.6414745488584
 20
154.4711488256961
 30
0.0
  0
POINT
  5
2DBD
330
2D8B
100
AcDbEntity
  8
Defpoints
 62
     0
100
AcDbPoint
 10
245.9343677676719
 20
210.1782556068827
 30
0.0
  0
POINT
  5
2DBE
330
2D8B
100
AcDbEntity
  8
Defpoints
 62
     0
100
AcDbPoint
 10
245.9343677676719
 20
219.6028370376931
 30
0.0
  0
ENDBLK
  5
2D96
330
2D8B
100
AcDbEntity
  8
0
100
AcDbBlockEnd
  0
BLOCK
  5
2DA7
330
2D98
100
AcDbEntity
  8
0
100
AcDbBlockBegin
  2
*D19
 70
     1
 10
0.0
 20
0.0
 30
0.0
  3
*D19
  1

  0
LINE
  5
2DBF
330
2D98
100
AcDbEntity
  8
寸法線
 62
     0
370
    -2
100
AcDbLine
 10
245.9343677676719
 20
212.1782556068827
 30
0.0
 11
245.9343677676719
 21
222.6028370376931
 31
0.0
  0
LINE
  5
2DC0
330
2D98
100
AcDbEntity
  8
寸法線
 62
     0
370
    -2
100
AcDbLine
 10
249.6414745488584
 20
211.4711488256961
 30
0.0
 11
249.6414745488584
 21
222.6028370376931
 31
0.0
  0
LINE
  5
2DC1
330
2D98
100
AcDbEntity
  8
寸法線
 62
     0
370
    -2
100
AcDbLine
 10
242.9343677676718
 20
219.6028370376931
 30
0.0
 11
239.9343677676719
 21
219.6028370376931
 31
0.0
  0
LINE
  5
2DC2
330
2D98
100
AcDbEntity
  8
寸法線
 62
     0
370
    -2
100
AcDbLine
 10
252.6414745488584
 20
219.6028370376931
 30
0.0
 11
255.6414745488584
 21
219.6028370376931
 31
0.0
  0
LINE
  5
2DC3
330
2D98
100
AcDbEntity
  8
寸法線
 62
     0
370
    -2
100
AcDbLine
 10
247.7879211582652
 20
219.6028370376931
 30
0.0
 11
249.8879211582651
 21
226.6028370376931
 31
0.0
  0
LINE
  5
2DC4
330
2D98
100
AcDbEntity
  8
寸法線
 62
     0
370
    -2
100
AcDbLine
 10
249.8879211582651
 20
226.6028370376931
 30
0.0
 11
254.3879211582651
 21
226.6028370376931
 31
0.0
  0
MTEXT
  5
2DC5
330
2D98
100
AcDbEntity
  8
寸法線
 62
     0
100
AcDbMText
 10
252.1379211582651
 20
230.1028370376931
 30
0.0
 40
5.0
 41
0.0
 71
     5
 72
     1
  1
4
  7
OKANO
 73
     1
 44
1.0
  0
LINE
  5
2DC6
330
2D98
100
AcDbEntity
  8
寸法線
 62
     0
370
    -2
100
AcDbLine
 10
245.9343677676719
 20
219.6028370376931
 30
0.0
 11
249.6414745488584
 21
219.6028370376931
 31
0.0
  0
LINE
  5
2DC7
330
2D98
100
AcDbEntity
  8
寸法線
 62
     0
370
    -2
100
AcDbLine
 10
245.9343677676719
 20
219.6028370376931
 30
0.0
 11
249.6414745488584
 21
219.6028370376931
 31
0.0
  0
INSERT
  5
2DC8
330
2D98
100
AcDbEntity
  8
寸法線
 62
     0
370
    -2
100
AcDbBlockReference
  2
_Closed
 10
245.9343677676719
 20
219.6028370376931
 30
0.0
 41
3.0
 42
3.0
 43
3.0
  0
INSERT
  5
2DC9
330
2D98
100
AcDbEntity
  8
寸法線
 62
     0
370
    -2
100
AcDbBlockReference
  2
_Closed
 10
249.6414745488584
 20
219.6028370376931
 30
0.0
 41
3.0
 42
3.0
 43
3.0
 50
180.0
  0
POINT
  5
2DCA
330
2D98
100
AcDbEntity
  8
Defpoints
 62
     0
100
AcDbPoint
 10
245.9343677676719
 20
210.1782556068827
 30
0.0
  0
POINT
  5
2DCB
330
2D98
100
AcDbEntity
  8
Defpoints
 62
     0
100
AcDbPoint
 10
249.6414745488584
 20
209.4711488256961
 30
0.0
  0
POINT
  5
2DCC
330
2D98
100
AcDbEntity
  8
Defpoints
 62
     0
100
AcDbPoint
 10
249.6414745488584
 20
219.6028370376931
 30
0.0
  0
ENDBLK
  5
2DA8
330
2D98
100
AcDbEntity
  8
0
100
AcDbBlockEnd
  0
BLOCK
  5
2DB4
330
2DAA
100
AcDbEntity
  8
0
100
AcDbBlockBegin
  2
*D20
 70
     1
 10
0.0
 20
0.0
 30
0.0
  3
*D20
  1

  0
LINE
  5
2DCD
330
2DAA
100
AcDbEntity
  8
寸法線
 62
     0
370
    -2
100
AcDbLine
 10
249.6414745488584
 20
211.4711488256961
 30
0.0
 11
249.6414745488584
 21
222.6028370376931
 31
0.0
  0
LINE
  5
2DCE
330
2DAA
100
AcDbEntity
  8
寸法線
 62
     0
370
    -2
100
AcDbLine
 10
276.6414745488584
 20
157.4711488256961
 30
0.0
 11
276.6414745488584
 21
222.6028370376931
 31
0.0
  0
LINE
  5
2DCF
330
2DAA
100
AcDbEntity
  8
寸法線
 62
     0
370
    -2
100
AcDbLine
 10
252.6414745488584
 20
219.6028370376931
 30
0.0
 11
273.6414745488584
 21
219.6028370376931
 31
0.0
  0
INSERT
  5
2DD0
330
2DAA
100
AcDbEntity
  8
寸法線
 62
     0
370
    -2
100
AcDbBlockReference
  2
_Closed
 10
249.6414745488584
 20
219.6028370376931
 30
0.0
 41
3.0
 42
3.0
 43
3.0
 50
180.0
  0
INSERT
  5
2DD1
330
2DAA
100
AcDbEntity
  8
寸法線
 62
     0
370
    -2
100
AcDbBlockReference
  2
_Closed
 10
276.6414745488584
 20
219.6028370376931
 30
0.0
 41
3.0
 42
3.0
 43
3.0
  0
MTEXT
  5
2DD2
330
2DAA
100
AcDbEntity
  8
寸法線
 62
     0
100
AcDbMText
 10
263.1414745488584
 20
223.1033291636773
 30
0.0
 40
5.0
 41
0.0
 71
     5
 72
     1
  1
26.65
  7
OKANO
 73
     1
 44
1.0
  0
POINT
  5
2DD3
330
2DAA
100
AcDbEntity
  8
Defpoints
 62
     0
100
AcDbPoint
 10
249.6414745488584
 20
209.4711488256961
 30
0.0
  0
POINT
  5
2DD4
330
2DAA
100
AcDbEntity
  8
Defpoints
 62
     0
100
AcDbPoint
 10
276.6414745488584
 20
155.4711488256961
 30
0.0
  0
POINT
  5
2DD5
330
2DAA
100
AcDbEntity
  8
Defpoints
 62
     0
100
AcDbPoint
 10
276.6414745488584
 20
219.6028370376931
 30
0.0
  0
ENDBLK
  5
2DB5
330
2DAA
100
AcDbEntity
  8
0
100
AcDbBlockEnd
  0
BLOCK
  5
2E2A
330
2E20
100
AcDbEntity
  8
0
100
AcDbBlockBegin
  2
*D21
 70
     1
 10
0.0
 20
0.0
 30
0.0
  3
*D21
  1

  0
LINE
  5
2E21
330
2E20
100
AcDbEntity
  8
太線
 62
     0
370
    -2
100
AcDbLine
 10
104.2015140254043
 20
14.53560202454525
 30
0.0
 11
121.4346233373819
 21
14.53560202454525
 31
0.0
  0
LINE
  5
2E22
330
2E20
100
AcDbEntity
  8
太線
 62
     0
370
    -2
100
AcDbLine
 10
104.2015140254043
 20
1.535602024545254
 30
0.0
 11
121.4346233373819
 21
1.53560202454525
 31
0.0
  0
LINE
  5
2E23
330
2E20
100
AcDbEntity
  8
太線
 62
     0
370
    -2
100
AcDbLine
 10
118.4346233373819
 20
11.53560202454525
 30
0.0
 11
118.4346233373819
 21
4.53560202454525
 31
0.0
  0
INSERT
  5
2E24
330
2E20
100
AcDbEntity
  8
太線
 62
     0
370
    -2
100
AcDbBlockReference
  2
_Closed
 10
118.4346233373819
 20
14.53560202454525
 30
0.0
 41
3.0
 42
3.0
 43
3.0
 50
90.0
  0
INSERT
  5
2E25
330
2E20
100
AcDbEntity
  8
太線
 62
     0
370
    -2
100
AcDbBlockReference
  2
_Closed
 10
118.4346233373819
 20
1.535602024545251
 30
0.0
 41
3.0
 42
3.0
 43
3.0
 50
270.0
  0
MTEXT
  5
2E26
330
2E20
100
AcDbEntity
  8
太線
 62
     0
100
AcDbMText
 10
114.9346233373819
 20
8.035602024545269
 30
0.0
 40
5.0
 41
0.0
 71
     5
 72
     1
  1
13
  7
OKANO
 11
0.0000000000000001
 21
1.0
 31
0.0
 73
     1
 44
1.0
  0
POINT
  5
2E27
330
2E20
100
AcDbEntity
  8
Defpoints
 62
     0
100
AcDbPoint
 10
102.2015140254043
 20
14.53560202454525
 30
0.0
  0
POINT
  5
2E28
330
2E20
100
AcDbEntity
  8
Defpoints
 62
     0
100
AcDbPoint
 10
102.2015140254043
 20
1.535602024545255
 30
0.0
  0
POINT
  5
2E29
330
2E20
100
AcDbEntity
  8
Defpoints
 62
     0
100
AcDbPoint
 10
118.4346233373819
 20
1.535602024545251
 30
0.0
  0
ENDBLK
  5
2E2B
330
2E20
100
AcDbEntity
  8
0
100
AcDbBlockEnd
  0
BLOCK
  5
2E38
330
2E2F
100
AcDbEntity
  8
0
100
AcDbBlockBegin
  2
*D22
 70
     1
 10
0.0
 20
0.0
 30
0.0
  3
*D22
  1

  0
LINE
  5
2E51
330
2E2F
100
AcDbEntity
  8
太線
 62
     0
370
    -2
100
AcDbLine
 10
118.0330900897469
 20
70.80946206975527
 30
0.0
 11
79.39678882714128
 21
52.03246069018917
 31
0.0
  0
LINE
  5
2E52
330
2E2F
100
AcDbEntity
  8
太線
 62
     0
370
    -2
100
AcDbLine
 10
65.00623922366734
 20
45.03874335890131
 30
0.0
 11
62.30801117301597
 21
43.72742135928485
 31
0.0
  0
MTEXT
  5
2E53
330
2E2F
100
AcDbEntity
  8
太線
 62
     0
100
AcDbMText
 10
111.1329494906392
 20
71.34747954073694
 30
0.0
 40
5.0
 41
0.0
 71
     5
 72
     1
  1
\U+220510
  7
OKANO
 11
0.899409350217121
 21
0.437107333205491
 31
0.0
 73
     1
 44
1.0
  0
LINE
  5
2E54
330
2E2F
100
AcDbEntity
  8
太線
 62
     0
370
    -2
100
AcDbLine
 10
67.7044672743187
 20
46.35006535851779
 30
0.0
 11
76.69856077648993
 21
50.7211386905727
 31
0.0
  0
INSERT
  5
2E55
330
2E2F
100
AcDbEntity
  8
太線
 62
     0
370
    -2
100
AcDbBlockReference
  2
_Closed
 10
67.7044672743187
 20
46.35006535851779
 30
0.0
 41
3.0
 42
3.0
 43
3.0
 50
25.91946275638402
  0
INSERT
  5
2E56
330
2E2F
100
AcDbEntity
  8
太線
 62
     0
370
    -2
100
AcDbBlockReference
  2
_Closed
 10
76.69856077648993
 20
50.7211386905727
 30
0.0
 41
3.0
 42
3.0
 43
3.0
 50
205.919462756384
  0
POINT
  5
2E57
330
2E2F
100
AcDbEntity
  8
Defpoints
 62
     0
100
AcDbPoint
 10
76.69856077648993
 20
50.7211386905727
 30
0.0
  0
POINT
  5
2E58
330
2E2F
100
AcDbEntity
  8
Defpoints
 62
     0
100
AcDbPoint
 10
67.7044672743187
 20
46.35006535851779
 30
0.0
  0
ENDBLK
  5
2E39
330
2E2F
100
AcDbEntity
  8
0
100
AcDbBlockEnd
  0
BLOCK
  5
2E95
330
2E8B
100
AcDbEntity
  8
0
100
AcDbBlockBegin
  2
*D23
 70
     1
 10
0.0
 20
0.0
 30
0.0
  3
*D23
  1

  0
LINE
  5
2EA0
330
2E8B
100
AcDbEntity
  8
寸法線
 62
     0
370
    -2
100
AcDbLine
 10
104.2015140254043
 20
127.4711488256961
 30
0.0
 11
118.8159467258271
 21
127.4711488256961
 31
0.0
  0
LINE
  5
2EA1
330
2E8B
100
AcDbEntity
  8
寸法線
 62
     0
370
    -2
100
AcDbLine
 10
104.2015140254043
 20
115.4711488256961
 30
0.0
 11
118.8159467258271
 21
115.4711488256961
 31
0.0
  0
LINE
  5
2EA2
330
2E8B
100
AcDbEntity
  8
寸法線
 62
     0
370
    -2
100
AcDbLine
 10
115.8159467258272
 20
124.4711488256961
 30
0.0
 11
115.8159467258272
 21
118.4711488256961
 31
0.0
  0
INSERT
  5
2EA3
330
2E8B
100
AcDbEntity
  8
寸法線
 62
     0
370
    -2
100
AcDbBlockReference
  2
_Closed
 10
115.8159467258272
 20
127.4711488256961
 30
0.0
 41
3.0
 42
3.0
 43
3.0
 50
90.0
  0
INSERT
  5
2EA4
330
2E8B
100
AcDbEntity
  8
寸法線
 62
     0
370
    -2
100
AcDbBlockReference
  2
_Closed
 10
115.8159467258272
 20
115.4711488256961
 30
0.0
 41
3.0
 42
3.0
 43
3.0
 50
270.0
  0
MTEXT
  5
2EA5
330
2E8B
100
AcDbEntity
  8
寸法線
 62
     0
100
AcDbMText
 10
112.3154545998429
 20
121.4711488256961
 30
0.0
 40
5.0
 41
0.0
 71
     5
 72
     1
  1
12
  7
OKANO
 11
0.0000000000000001
 21
1.0
 31
0.0
 73
     1
 44
1.0
  0
POINT
  5
2EA6
330
2E8B
100
AcDbEntity
  8
Defpoints
 62
     0
100
AcDbPoint
 10
102.2015140254043
 20
127.4711488256961
 30
0.0
  0
POINT
  5
2EA7
330
2E8B
100
AcDbEntity
  8
Defpoints
 62
     0
100
AcDbPoint
 10
102.2015140254043
 20
115.4711488256961
 30
0.0
  0
POINT
  5
2EA8
330
2E8B
100
AcDbEntity
  8
Defpoints
 62
     0
100
AcDbPoint
 10
115.8159467258272
 20
115.4711488256961
 30
0.0
  0
ENDBLK
  5
2E96
330
2E8B
100
AcDbEntity
  8
0
100
AcDbBlockEnd
  0
ENDSEC
  0
SECTION
  2
ENTITIES
  0
XLINE
  5
22CA
330
1F
100
AcDbEntity
  8
構築線
370
     5
100
AcDbXline
 10
72.20151402540432
 20
178.0193172078315
 30
0.0
 11
0.0
 21
-1.0
 31
0.0
  0
ARC
  5
28DE
330
1F
100
AcDbEntity
  8
太線
100
AcDbCircle
 10
72.20151402540432
 20
180.4711488256961
 30
0.0
 40
30.0
100
AcDbArc
 50
356.6269766589525
 51
180.0
  0
LINE
  5
28E0
330
1F
100
AcDbEntity
  8
太線
100
AcDbLine
 10
42.20151402540432
 20
180.4711488256961
 30
0.0
 11
42.20151402540432
 21
115.4711488256961
 31
0.0
  0
XLINE
  5
28ED
330
1F
100
AcDbEntity
  8
構築線
100
AcDbXline
 10
247.6414745488584
 20
210.4788998873083
 30
0.0
 11
0.0
 21
-1.0
 31
0.0
  0
LINE
  5
28F8
330
1F
100
AcDbEntity
  8
想像線
100
AcDbLine
 10
47.20151402540432
 20
115.4711488256961
 30
0.0
 11
47.20151402540432
 21
150.4711488256961
 31
0.0
  0
LINE
  5
28F9
330
1F
100
AcDbEntity
  8
想像線
100
AcDbLine
 10
47.20151402540432
 20
150.4711488256961
 30
0.0
 11
97.20151402540432
 21
150.4711488256961
 31
0.0
  0
LINE
  5
28FA
330
1F
100
AcDbEntity
  8
想像線
100
AcDbLine
 10
97.20151402540432
 20
150.4711488256961
 30
0.0
 11
97.2015140254043
 21
115.4711488256961
 31
0.0
  0
LINE
  5
28FE
330
1F
100
AcDbEntity
  8
想像線
100
AcDbLine
 10
222.6414745488584
 20
115.4711488256961
 30
0.0
 11
222.6414745488584
 21
150.4711488256961
 31
0.0
  0
LINE
  5
28FF
330
1F
100
AcDbEntity
  8
想像線
100
AcDbLine
 10
222.6414745488584
 20
150.4711488256961
 30
0.0
 11
272.6414745488584
 21
150.4711488256961
 31
0.0
  0
LINE
  5
2900
330
1F
100
AcDbEntity
  8
想像線
100
AcDbLine
 10
272.6414745488584
 20
150.4711488256961
 30
0.0
 11
272.6414745488584
 21
115.4711488256961
 31
0.0
  0
XLINE
  5
2905
330
1F
100
AcDbEntity
  8
構築線
100
AcDbXline
 10
102.7912907694046
 20
31.53560202454525
 30
0.0
 11
1.0
 21
0.0
 31
0.0
  0
CIRCLE
  5
290A
330
1F
100
AcDbEntity
  8
太線
100
AcDbCircle
 10
72.20151402540432
 20
31.53560202454525
 30
0.0
 40
30.0
  0
TEXT
  5
29C1
330
1F
100
AcDbEntity
  8
文字
100
AcDbText
 10
287.7440372230388
 20
-28.02053579212097
 30
0.0
 40
3.599999999999999
  1
SET SCREW COUP
 51
15.0
  7
OKANO
100
AcDbText
  0
TEXT
  5
29C2
330
1F
100
AcDbEntity
  8
文字
100
AcDbText
 10
275.1070859623077
 20
-35.52497173398167
 30
0.0
 40
4.799999999999999
  1
joint kogyo T.okano
 51
15.0
  7
OKANO
100
AcDbText
  0
TEXT
  5
29C3
330
1F
100
AcDbEntity
  8
文字
100
AcDbText
 10
267.6187729505109
 20
-20.77260022669388
 30
0.0
 40
4.799999999999999
  1
F-999-20111108 Auto CAD
 51
15.0
  7
OKANO
100
AcDbText
  0
LINE
  5
29C4
330
1F
100
AcDbEntity
  8
太線
100
AcDbLine
 10
240.196544768897
 20
-21.69340787712424
 30
0.0
 11
348.196544768897
 21
-21.69340787712424
 31
0.0
  0
LWPOLYLINE
  5
29C5
330
1F
100
AcDbEntity
  8
太線
100
AcDbPolyline
 90
        4
 70
     1
 43
0.0
 10
240.196544768897
 20
-13.29340787712424
 10
348.196544768897
 20
-13.29340787712424
 10
348.196544768897
 20
-38.49340787712424
 10
240.196544768897
 20
-38.49340787712424
  0
TEXT
  5
29C6
330
1F
100
AcDbEntity
  8
文字
100
AcDbText
 10
244.0689283349545
 20
-29.88691967597492
 30
0.0
 40
2.399999999999999
  1
CHECK
 51
15.0
  7
OKANO
100
AcDbText
  0
LINE
  5
29C7
330
1F
100
AcDbEntity
  8
太線
100
AcDbLine
 10
264.196544768897
 20
-13.29340787712424
 30
0.0
 11
264.196544768897
 21
-38.49340787712424
 31
0.0
  0
TEXT
  5
29C8
330
1F
100
AcDbEntity
  8
文字
100
AcDbText
 10
244.0689283349545
 20
-36.80634728219074
 30
0.0
 40
2.399999999999999
  1
ISSUED
 51
15.0
  7
OKANO
100
AcDbText
  0
TEXT
  5
29C9
330
1F
100
AcDbEntity
  8
文字
100
AcDbText
 10
244.3254427678553
 20
-33.47477109292261
 30
0.0
 40
2.399999999999999
  1
APPR
 51
15.0
  7
OKANO
100
AcDbText
  0
TEXT
  5
29CA
330
1F
100
AcDbEntity
  8
文字
100
AcDbText
 10
242.2733327832688
 20
-19.89219169835908
 30
0.0
 40
2.399999999999999
  1
FILM NAME
 51
15.0
  7
OKANO
100
AcDbText
  0
TEXT
  5
29CB
330
1F
100
AcDbEntity
  8
文字
100
AcDbText
 10
243.5559016606009
 20
-26.29906884921588
 30
0.0
 40
2.399999999999999
  1
DRAWN
 51
15.0
  7
OKANO
100
AcDbText
  0
TEXT
  5
29CC
330
1F
100
AcDbEntity
  8
文字
100
AcDbText
 10
269.3616839235326
 20
-29.54763140891327
 30
0.0
 40
4.799999999999999
  1
6-1E
 51
15.0
  7
OKANO
100
AcDbText
  0
LINE
  5
29D8
330
1F
100
AcDbEntity
  8
太線
100
AcDbLine
 10
102.2015140254043
 20
178.0193172078315
 30
0.0
 11
102.2015140254043
 21
115.4711488256961
 31
0.0
  0
XLINE
  5
2A75
330
1F
100
AcDbEntity
  8
構築線
370
     5
100
AcDbXline
 10
40.70151402540432
 20
185.4711488256961
 30
0.0
 11
1.0
 21
0.0
 31
0.0
  0
DIMENSION
  5
2A78
330
1F
100
AcDbEntity
  8
寸法線
100
AcDbDimension
  2
*D2
 10
122.2434060466923
 20
210.4581533153748
 30
0.0
 11
118.7429139207081
 21
197.9646510705355
 31
0.0
 70
    32
  1
25.0
 71
     5
 42
24.98700448967866
  3
sunpo
100
AcDbAlignedDimension
 13
72.20151402540432
 23
185.4711488256961
 33
0.0
 14
73.08444195903835
 24
210.4581533153748
 34
0.0
 50
90.0
100
AcDbRotatedDimension
1001
ACAD
1000
DSTYLE
1002
{
1070
    40
1040
1.0
1002
}
  0
LINE
  5
2AA8
330
1F
100
AcDbEntity
  8
太線
 62
     0
100
AcDbLine
 10
217.6414745488584
 20
115.4711488256961
 30
0.0
 11
217.6414745488584
 21
154.4711488256961
 31
0.0
  0
LINE
  5
2AAC
330
1F
100
AcDbEntity
  8
太線
 62
     0
100
AcDbLine
 10
245.6414745488584
 20
160.4711488256961
 30
0.0
 11
245.6414745488584
 21
209.4711488256961
 31
0.0
  0
LINE
  5
2AAE
330
1F
100
AcDbEntity
  8
太線
 62
     0
100
AcDbLine
 10
249.6414745488584
 20
209.4711488256961
 30
0.0
 11
249.6414745488584
 21
160.4711488256961
 31
0.0
  0
LINE
  5
2AB0
330
1F
100
AcDbEntity
  8
太線
 62
     0
100
AcDbLine
 10
277.6414745488584
 20
154.4711488256961
 30
0.0
 11
277.6414745488584
 21
115.4711488256961
 31
0.0
  0
LINE
  5
2ABA
330
1F
100
AcDbEntity
  8
太線
 62
     0
100
AcDbLine
 10
42.20151402540432
 20
155.4711488256961
 30
0.0
 11
102.2015140254043
 21
155.4711488256961
 31
0.0
  0
ARC
  5
2ABB
330
1F
100
AcDbEntity
  8
太線
 62
     0
100
AcDbCircle
 10
254.6414745488584
 20
160.4711488256961
 30
0.0
 40
5.0
100
AcDbArc
 50
180.0
 51
270.0
  0
ARC
  5
2ABC
330
1F
100
AcDbEntity
  8
太線
 62
     0
100
AcDbCircle
 10
240.6414745488584
 20
160.4711488256961
 30
0.0
 40
5.0
100
AcDbArc
 50
270.0
 51
0.0
  0
ARC
  5
2ABD
330
1F
100
AcDbEntity
  8
太線
 62
     0
100
AcDbCircle
 10
276.6414745488584
 20
154.4711488256961
 30
0.0
 40
1.0
100
AcDbArc
 50
0.0
 51
90.0
  0
ARC
  5
2ABE
330
1F
100
AcDbEntity
  8
太線
 62
     0
100
AcDbCircle
 10
218.6414745488584
 20
154.4711488256961
 30
0.0
 40
1.0
100
AcDbArc
 50
90.0
 51
180.0
  0
ARC
  5
2ABF
330
1F
100
AcDbEntity
  8
太線
 62
     0
100
AcDbCircle
 10
248.6414745488584
 20
209.4711488256961
 30
0.0
 40
1.0
100
AcDbArc
 50
0.0
 51
90.0
  0
ARC
  5
2AC0
330
1F
100
AcDbEntity
  8
太線
 62
     0
100
AcDbCircle
 10
246.6414745488584
 20
209.4711488256961
 30
0.0
 40
1.0
100
AcDbArc
 50
90.0000000000004
 51
180.0
  0
CIRCLE
  5
2B59
330
1F
100
AcDbEntity
  8
太線
100
AcDbCircle
 10
92.20151402540432
 20
159.4711488256961
 30
0.0
 40
3.0
  0
CIRCLE
  5
2B5A
330
1F
100
AcDbEntity
  8
太線
100
AcDbCircle
 10
52.20151402540432
 20
159.4711488256961
 30
0.0
 40
3.0
  0
LINE
  5
2B5F
330
1F
100
AcDbEntity
  8
想像線
100
AcDbLine
 10
95.20151402540433
 20
33.53560202454525
 30
0.0
 11
95.20151402540433
 21
29.53560202454525
 31
0.0
  0
LINE
  5
2B60
330
1F
100
AcDbEntity
  8
想像線
100
AcDbLine
 10
89.20151402540431
 20
33.53560202454525
 30
0.0
 11
89.20151402540431
 21
29.53560202454525
 31
0.0
  0
LINE
  5
2B61
330
1F
100
AcDbEntity
  8
想像線
100
AcDbLine
 10
55.20151402540432
 20
33.53560202454525
 30
0.0
 11
55.20151402540432
 21
29.53560202454525
 31
0.0
  0
LINE
  5
2B62
330
1F
100
AcDbEntity
  8
想像線
100
AcDbLine
 10
49.20151402540433
 20
33.53560202454525
 30
0.0
 11
49.20151402540432
 21
29.53560202454525
 31
0.0
  0
LINE
  5
2B65
330
1F
100
AcDbEntity
  8
想像線
100
AcDbLine
 10
78.20151402540432
 20
33.53560202454525
 30
0.0
 11
78.20151402540432
 21
29.53560202454525
 31
0.0
  0
LINE
  5
2B66
330
1F
100
AcDbEntity
  8
想像線
100
AcDbLine
 10
66.20151402540432
 20
33.53560202454525
 30
0.0
 11
66.20151402540432
 21
29.53560202454525
 31
0.0
  0
LINE
  5
2B68
330
1F
100
AcDbEntity
  8
想像線
100
AcDbLine
 10
42.26825493121279
 20
29.53560202454525
 30
0.0
 11
102.1347731195958
 21
29.53560202454525
 31
0.0
  0
DIMENSION
  5
2B6A
330
1F
100
AcDbEntity
  8
寸法線
100
AcDbDimension
  2
*D3
 10
42.20151402540432
 20
140.4711488256961
 30
0.0
 11
47.20151402540432
 21
143.9711488256961
 31
0.0
 70
    32
 71
     5
 42
10.0
  3
sunpo
100
AcDbAlignedDimension
 13
52.20151402540432
 23
159.4711488256961
 33
0.0
 14
42.20151402540432
 24
155.4711488256961
 34
0.0
100
AcDbRotatedDimension
1001
ACAD
1000
DSTYLE
1002
{
1070
    40
1040
1.0
1002
}
  0
DIMENSION
  5
2B77
330
1F
100
AcDbEntity
  8
寸法線
100
AcDbDimension
  2
*D4
 10
115.0558996179797
 20
159.4711488256961
 30
0.0
 11
111.5558996179797
 21
167.7211488256961
 31
0.0
 70
    32
 71
     5
 42
4.0
  3
sunpo
100
AcDbAlignedDimension
 13
102.2015140254043
 23
155.4711488256961
 33
0.0
 14
92.20151402540432
 24
159.4711488256961
 34
0.0
 50
90.0
100
AcDbRotatedDimension
1001
ACAD
1000
DSTYLE
1002
{
1070
    40
1040
1.0
1002
}
  0
DIMENSION
  5
2B8D
330
1F
100
AcDbEntity
  8
寸法線
100
AcDbDimension
  2
*D5
 10
91.22109968899938
 20
156.6358732255169
 30
0.0
 11
96.61590363384334
 21
172.2371913872384
 31
0.0
 70
    35
 71
     5
 42
5.999999999999971
  3
sunpo
100
AcDbDiametricDimension
 15
93.18192836180926
 25
162.3064244258753
 35
0.0
 40
0.0
1001
ACAD
1000
DSTYLE
1002
{
1070
    40
1040
1.0
1070
   288
1070
     1
1002
}
  0
LINE
  5
2BA3
330
1F
100
AcDbEntity
  8
想像線
100
AcDbLine
 10
245.6414745488584
 20
162.4711488256961
 30
0.0
 11
249.6414745488584
 21
162.4711488256961
 31
0.0
  0
LINE
  5
2BA5
330
1F
100
AcDbEntity
  8
想像線
100
AcDbLine
 10
243.6414745488584
 20
156.4711488256961
 30
0.0
 11
251.6414745488584
 21
156.4711488256961
 31
0.0
  0
ARC
  5
2BB5
330
1F
100
AcDbEntity
  8
細線
 62
     0
100
AcDbCircle
 10
72.20151402540432
 20
194.4711488256961
 30
0.0
 40
6.0
100
AcDbArc
 50
0.0
 51
180.0
  0
ARC
  5
2BB6
330
1F
100
AcDbEntity
  8
細線
 62
     0
100
AcDbCircle
 10
72.20151402540432
 20
176.7746575771556
 30
0.0
 40
6.0
100
AcDbArc
 50
180.0
 51
0.0
  0
LINE
  5
2BB7
330
1F
100
AcDbEntity
  8
太線
100
AcDbLine
 10
66.20151402540432
 20
194.4711488256961
 30
0.0
 11
66.20151402540432
 21
176.7746575771556
 31
0.0
  0
LINE
  5
2BB8
330
1F
100
AcDbEntity
  8
太線
100
AcDbLine
 10
78.20151402540432
 20
194.4711488256961
 30
0.0
 11
78.20151402540432
 21
176.7746575771556
 31
0.0
  0
LINE
  5
2BBB
330
1F
100
AcDbEntity
  8
想像線
100
AcDbLine
 10
245.6414745488584
 20
200.4711488256961
 30
0.0
 11
249.6414745488584
 21
200.4711488256961
 31
0.0
  0
LINE
  5
2BBC
330
1F
100
AcDbEntity
  8
想像線
100
AcDbLine
 10
245.6414745488584
 20
170.4711488256961
 30
0.0
 11
249.6414745488584
 21
170.4711488256961
 31
0.0
  0
DIMENSION
  5
2BCC
330
1F
100
AcDbEntity
  8
寸法線
100
AcDbDimension
  2
*D6
 10
58.24716626079316
 20
170.7746575771556
 30
0.0
 11
54.74716626079314
 21
185.6229032014259
 31
0.0
 70
    32
  1
30.0
 71
     5
 42
29.69649124854049
  3
sunpo
100
AcDbAlignedDimension
 13
72.20151402540432
 23
200.4711488256961
 33
0.0
 14
72.20151402540432
 24
170.7746575771556
 34
0.0
 50
90.0
100
AcDbRotatedDimension
1001
ACAD
1000
DSTYLE
1002
{
1070
    40
1040
1.0
1002
}
  0
DIMENSION
  5
2BD9
330
1F
100
AcDbEntity
  8
寸法線
100
AcDbDimension
  2
*D7
 10
78.20151402540432
 20
160.4813640933168
 30
0.0
 11
72.20151402540432
 21
163.9818562193011
 31
0.0
 70
    32
 71
     5
 42
12.0
  3
sunpo
100
AcDbAlignedDimension
 13
66.20151402540432
 23
176.7746575771556
 33
0.0
 14
78.20151402540432
 24
176.7746575771556
 34
0.0
100
AcDbRotatedDimension
1001
ACAD
1000
DSTYLE
1002
{
1070
    40
1040
1.0
1002
}
  0
DIMENSION
  5
2BE6
330
1F
100
AcDbEntity
  8
寸法線
100
AcDbDimension
  2
*D8
 10
72.20151402540442
 20
194.4711488256962
 30
0.0
 11
85.83265866260887
 21
218.0864088193454
 31
0.0
 70
   164
 71
     5
 42
5.999999999999857
  3
sunpo
100
AcDbRadialDimension
 15
75.2009971090514
 25
199.6675996559181
 35
0.0
 40
0.0
1001
ACAD
1000
DSTYLE
1002
{
1070
    40
1040
1.0
1070
   288
1070
     1
1002
}
  0
DIMENSION
  5
2BF0
330
1F
100
AcDbEntity
  8
寸法線
100
AcDbDimension
  2
*D9
 10
42.20151402540432
 20
218.0864088193453
 30
0.0
 11
57.20151402540432
 21
221.5869009453296
 31
0.0
 70
    32
  1
28.65
 71
     5
 42
30.0
  3
sunpo
100
AcDbAlignedDimension
 13
72.20151402540432
 23
180.4711488256961
 33
0.0
 14
42.20151402540432
 24
180.4711488256961
 34
0.0
100
AcDbRotatedDimension
1001
ACAD
1000
DSTYLE
1002
{
1070
    40
1040
1.0
1002
}
  0
LINE
  5
2C10
330
1F
100
AcDbEntity
  8
太線
100
AcDbLine
 10
217.6414745488584
 20
115.4711488256961
 30
0.0
 11
277.6414745488584
 21
115.4711488256961
 31
0.0
  0
LINE
  5
2C11
330
1F
100
AcDbEntity
  8
太線
100
AcDbLine
 10
42.20151402540432
 20
115.4711488256961
 30
0.0
 11
102.2015140254043
 21
115.4711488256961
 31
0.0
  0
DIMENSION
  5
2C52
330
1F
100
AcDbEntity
  8
寸法線
100
AcDbDimension
  2
*D10
 10
204.105680128337
 20
150.4711488256961
 30
0.0
 11
200.605680128337
 21
180.4711488256962
 31
0.0
 70
    32
 71
     5
 42
60.0
  3
sunpo
100
AcDbAlignedDimension
 13
245.0664745488584
 23
210.4711488256961
 33
0.0
 14
222.6414745488584
 24
150.4711488256961
 34
0.0
 50
90.0
100
AcDbRotatedDimension
1001
ACAD
1000
DSTYLE
1002
{
1070
    40
1040
1.0
1002
}
  0
DIMENSION
  5
2C5F
330
1F
100
AcDbEntity
  8
寸法線
100
AcDbDimension
  2
*D11
 10
204.105680128337
 20
115.4711488256961
 30
0.0
 11
200.605680128337
 21
132.9711488256962
 31
0.0
 70
    32
 71
     5
 42
35.00000000000001
  3
sunpo
100
AcDbAlignedDimension
 13
222.6414745488584
 23
150.4711488256961
 33
0.0
 14
217.6414745488584
 24
115.4711488256961
 34
0.0
 50
90.0
100
AcDbRotatedDimension
1001
ACAD
1000
DSTYLE
1002
{
1070
    40
1040
1.0
1070
   279
1070
     1
1002
}
  0
DIMENSION
  5
2C6C
330
1F
100
AcDbEntity
  8
寸法線
100
AcDbDimension
  2
*D12
 10
272.6414745488584
 20
102.3815737273474
 30
0.0
 11
275.1414745488584
 21
105.8815737273474
 31
0.0
 70
    32
  1
4
 71
     5
 42
5.0
  3
sunpo
100
AcDbAlignedDimension
 13
277.6414745488584
 23
115.4711488256961
 33
0.0
 14
272.6414745488584
 24
115.4711488256961
 34
0.0
100
AcDbRotatedDimension
1001
ACAD
1000
DSTYLE
1002
{
1070
    40
1040
1.0
1002
}
  0
DIMENSION
  5
2C7B
330
1F
100
AcDbEntity
  8
寸法線
100
AcDbDimension
  2
*D13
 10
222.6414745488584
 20
102.3815737273474
 30
0.0
 11
247.6414745488584
 21
105.8815737273474
 31
0.0
 70
    32
  1
49.3
 71
     5
 42
50.0
  3
sunpo
100
AcDbAlignedDimension
 13
272.6414745488584
 23
115.4711488256961
 33
0.0
 14
222.6414745488584
 24
115.4711488256961
 34
0.0
100
AcDbRotatedDimension
1001
ACAD
1000
DSTYLE
1002
{
1070
    40
1040
1.0
1070
   279
1070
     1
1002
}
  0
DIMENSION
  5
2C88
330
1F
100
AcDbEntity
  8
寸法線
100
AcDbDimension
  2
*D14
 10
217.6414745488584
 20
102.3815737273474
 30
0.0
 11
220.1414745488584
 21
105.8815737273474
 31
0.0
 70
    32
  1
4
 71
     5
 42
5.0
  3
sunpo
100
AcDbAlignedDimension
 13
222.6414745488584
 23
115.4711488256961
 33
0.0
 14
217.6414745488584
 24
115.4711488256961
 34
0.0
100
AcDbRotatedDimension
1001
ACAD
1000
DSTYLE
1002
{
1070
    40
1040
1.0
1070
   279
1070
     1
1002
}
  0
DIMENSION
  5
2C97
330
1F
100
AcDbEntity
  8
寸法線
100
AcDbDimension
  2
*D15
 10
272.6414745488584
 20
143.6865984371464
 30
0.0
 11
247.6414745488584
 21
147.1865984371464
 31
0.0
 70
    32
  1
49.0
 71
     5
 42
50.0
  3
sunpo
100
AcDbAlignedDimension
 13
222.6414745488584
 23
150.4711488256961
 33
0.0
 14
272.6414745488584
 24
150.4711488256961
 34
0.0
100
AcDbRotatedDimension
1001
ACAD
1000
DSTYLE
1002
{
1070
    40
1040
1.0
1002
}
  0
DIMENSION
  5
2CCC
330
1F
100
AcDbEntity
  8
寸法線
100
AcDbDimension
  2
*D16
 10
102.2015140254043
 20
96.57732068111773
 30
0.0
 11
72.20151402540432
 21
100.0773206811177
 31
0.0
 70
    32
  1
57.3
 71
     5
 42
60.0
  3
sunpo
100
AcDbAlignedDimension
 13
42.20151402540432
 23
115.4711488256961
 33
0.0
 14
102.2015140254043
 24
115.4711488256961
 34
0.0
100
AcDbRotatedDimension
1001
ACAD
1000
DSTYLE
1002
{
1070
    40
1040
1.0
1002
}
  0
DIMENSION
  5
2CE2
330
1F
100
AcDbEntity
  8
寸法線
100
AcDbDimension
  2
*D17
 10
291.0524041415976
 20
150.4711488256961
 30
0.0
 11
287.5524041415975
 21
152.9711488256961
 31
0.0
 70
    32
  1
4
 71
     5
 42
5.0
  3
sunpo
100
AcDbAlignedDimension
 13
276.6414745488584
 23
155.4711488256961
 33
0.0
 14
272.6414745488584
 24
150.4711488256961
 34
0.0
 50
90.0
100
AcDbRotatedDimension
1001
ACAD
1000
DSTYLE
1002
{
1070
    40
1040
1.0
1002
}
  0
LINE
  5
2D0A
330
1F
100
AcDbEntity
  8
構築線
100
AcDbLine
 10
247.6414745488584
 20
115.4711488256961
 30
0.0
 11
247.6414745488584
 21
136.6105976559615
 31
0.0
  0
LINE
  5
2D0D
330
1F
100
AcDbEntity
  8
太線
100
AcDbLine
 10
254.6414745488584
 20
155.4711488256961
 30
0.0
 11
276.6414745488584
 21
155.4711488256961
 31
0.0
  0
LINE
  5
2D0E
330
1F
100
AcDbEntity
  8
太線
100
AcDbLine
 10
218.6414745488584
 20
155.4711488256961
 30
0.0
 11
239.4914745488585
 21
155.4711488256961
 31
0.0
  0
LINE
  5
2D7D
330
1F
100
AcDbEntity
  8
想像線
100
AcDbLine
 10
42.20151402540432
 20
33.53560202454525
 30
0.0
 11
102.1347731195958
 21
33.53560202454525
 31
0.0
  0
LINE
  5
2D7F
330
1F
100
AcDbEntity
  8
太線
100
AcDbLine
 10
47.20151402540432
 20
34.68560202454526
 30
0.0
 11
47.20151402540432
 21
33.53560202454525
 31
0.0
  0
LINE
  5
2D88
330
1F
100
AcDbEntity
  8
太線
100
AcDbLine
 10
246.6414745488584
 20
210.4711488256961
 30
0.0
 11
248.6414745488584
 21
210.4711488256961
 31
0.0
  0
LINE
  5
2D89
330
1F
100
AcDbEntity
  8
太線
100
AcDbLine
 10
240.6414745488584
 20
155.4711488256961
 30
0.0
 11
239.4914745488585
 21
155.4711488256961
 31
0.0
  0
DIMENSION
  5
2D8A
330
1F
100
AcDbEntity
  8
寸法線
100
AcDbDimension
  2
*D18
 10
245.9343677676719
 20
219.6028370376931
 30
0.0
 11
231.7879211582651
 21
223.1033291636773
 31
0.0
 70
    32
  1
26.65
 71
     5
 42
28.29289321881347
  3
sunpo
100
AcDbAlignedDimension
 13
217.6414745488584
 23
154.4711488256961
 33
0.0
 14
245.9343677676719
 24
210.1782556068827
 34
0.0
100
AcDbRotatedDimension
1001
ACAD
1000
DSTYLE
1002
{
1070
    40
1040
1.0
1002
}
  0
DIMENSION
  5
2D97
330
1F
100
AcDbEntity
  8
寸法線
100
AcDbDimension
  2
*D19
 10
249.6414745488584
 20
219.6028370376931
 30
0.0
 11
250.8879211582651
 21
230.1028370376931
 31
0.0
 70
    32
  1
4
 71
     5
 42
3.707106781186524
  3
sunpo
100
AcDbAlignedDimension
 13
245.9343677676719
 23
210.1782556068827
 33
0.0
 14
249.6414745488584
 24
209.4711488256961
 34
0.0
100
AcDbRotatedDimension
1001
ACAD
1000
DSTYLE
1002
{
1070
    40
1040
1.0
1070
   279
1070
     1
1002
}
  0
DIMENSION
  5
2DA9
330
1F
100
AcDbEntity
  8
寸法線
100
AcDbDimension
  2
*D20
 10
276.6414745488584
 20
219.6028370376931
 30
0.0
 11
263.1414745488584
 21
223.1033291636773
 31
0.0
 70
    32
  1
26.65
 71
     5
 42
27.00000000000002
  3
sunpo
100
AcDbAlignedDimension
 13
249.6414745488584
 23
209.4711488256961
 33
0.0
 14
276.6414745488584
 24
155.4711488256961
 34
0.0
100
AcDbRotatedDimension
1001
ACAD
1000
DSTYLE
1002
{
1070
    40
1040
1.0
1070
   279
1070
     1
1002
}
  0
TEXT
  5
2DF8
330
1F
100
AcDbEntity
  8
文字
100
AcDbText
 10
207.4603315785128
 20
34.82441146197427
 30
0.0
 40
4.799999999999999
  1
注記　内面バリは最小限にする
 51
15.0
  7
OKANO
100
AcDbText
  0
TEXT
  5
2E04
330
1F
100
AcDbEntity
  8
文字
100
AcDbText
 10
276.5325388141575
 20
-9.923939334541138
 30
0.0
 40
4.799999999999999
  1
JAN 4562182301062
 51
15.0
  7
OKANO
100
AcDbText
  0
CIRCLE
  5
2E10
330
1F
100
AcDbEntity
  8
太線
100
AcDbCircle
 10
72.20151402540432
 20
48.53560202454525
 30
0.0
 40
5.0
  0
CIRCLE
  5
2E11
330
1F
100
AcDbEntity
  8
太線
100
AcDbCircle
 10
72.20151402540432
 20
14.53560202454525
 30
0.0
 40
5.0
  0
DIMENSION
  5
2E1F
330
1F
100
AcDbEntity
  8
太線
100
AcDbDimension
  2
*D21
 10
118.4346233373819
 20
1.535602024545251
 30
0.0
 11
114.9346233373819
 21
8.035602024545269
 31
0.0
 70
    32
 71
     5
 42
13.0
  3
sunpo
100
AcDbAlignedDimension
 13
102.2015140254043
 23
14.53560202454525
 33
0.0
 14
102.2015140254043
 24
1.535602024545255
 34
0.0
 50
90.0
100
AcDbRotatedDimension
1001
ACAD
1000
DSTYLE
1002
{
1070
    40
1040
1.0
1002
}
  0
DIMENSION
  5
2E2E
330
1F
100
AcDbEntity
  8
太線
100
AcDbDimension
  2
*D22
 10
67.7044672743187
 20
46.35006535851779
 30
0.0
 11
112.6628251568584
 21
68.19954681497701
 31
0.0
 70
   163
 71
     5
 42
10.00000000000001
  3
sunpo
100
AcDbDiametricDimension
 15
76.69856077648993
 25
50.7211386905727
 35
0.0
 40
0.0
1001
ACAD
1000
DSTYLE
1002
{
1070
    40
1040
1.0
1070
   288
1070
     1
1002
}
  0
LINE
  5
2E3B
330
1F
100
AcDbEntity
  8
想像線
100
AcDbLine
 10
77.20151402540432
 20
155.4711488256961
 30
0.0
 11
77.20151402540432
 21
150.4711488256961
 31
0.0
  0
LINE
  5
2E3C
330
1F
100
AcDbEntity
  8
想像線
100
AcDbLine
 10
67.20151402540432
 20
155.4711488256961
 30
0.0
 11
67.20151402540432
 21
150.4711488256961
 31
0.0
  0
LINE
  5
2E43
330
1F
100
AcDbEntity
  8
想像線
100
AcDbLine
 10
235.6414745488584
 20
155.4711488256961
 30
0.0
 11
235.6414745488584
 21
150.4711488256961
 31
0.0
  0
LINE
  5
2E44
330
1F
100
AcDbEntity
  8
想像線
100
AcDbLine
 10
225.6414745488584
 20
155.4711488256961
 30
0.0
 11
225.6414745488584
 21
150.4711488256961
 31
0.0
  0
LINE
  5
2E45
330
1F
100
AcDbEntity
  8
想像線
100
AcDbLine
 10
269.6414745488584
 20
155.4711488256961
 30
0.0
 11
269.6414745488584
 21
150.4711488256961
 31
0.0
  0
LINE
  5
2E46
330
1F
100
AcDbEntity
  8
想像線
100
AcDbLine
 10
259.6414745488584
 20
155.4711488256961
 30
0.0
 11
259.6414745488584
 21
150.4711488256961
 31
0.0
  0
CIRCLE
  5
2E50
330
1F
100
AcDbEntity
  8
太線
100
AcDbCircle
 10
72.20151402540432
 20
31.53560202454525
 30
0.0
 40
25.19766854294262
  0
LINE
  5
2E5D
330
1F
100
AcDbEntity
  8
想像線
100
AcDbLine
 10
74.70151402540432
 20
56.53560202454525
 30
0.0
 11
74.70151402540432
 21
61.43125388229875
 31
0.0
  0
LINE
  5
2E5E
330
1F
100
AcDbEntity
  8
想像線
100
AcDbLine
 10
69.70151402540432
 20
61.43125388229875
 30
0.0
 11
69.70151402540432
 21
56.60894444234029
 31
0.0
  0
LINE
  5
2E5F
330
1F
100
AcDbEntity
  8
想像線
100
AcDbLine
 10
73.70151402540432
 20
61.49807855770252
 30
0.0
 11
73.70151402540432
 21
56.68858395512359
 31
0.0
  0
LINE
  5
2E60
330
1F
100
AcDbEntity
  8
想像線
100
AcDbLine
 10
70.70151402540432
 20
61.49807855770252
 30
0.0
 11
70.70151402540432
 21
56.68858395512359
 31
0.0
  0
LINE
  5
2E61
330
1F
100
AcDbEntity
  8
想像線
100
AcDbLine
 10
73.70151402540432
 20
6.535602024545255
 30
0.0
 11
73.70151402540432
 21
1.535602024545255
 31
0.0
  0
LINE
  5
2E62
330
1F
100
AcDbEntity
  8
想像線
100
AcDbLine
 10
70.70151402540432
 20
6.382620093966913
 30
0.0
 11
70.70151402540432
 21
1.573125491387983
 31
0.0
  0
LINE
  5
2E69
330
1F
100
AcDbEntity
  8
太線
100
AcDbLine
 10
76.20151402540432
 20
75.8363629936083
 30
0.0
 11
74.70151402540432
 21
75.8363629936083
 31
0.0
  0
LINE
  5
2E6A
330
1F
100
AcDbEntity
  8
太線
100
AcDbLine
 10
74.70151402540432
 20
75.8363629936083
 30
0.0
 11
74.70151402540432
 21
67.8363629936083
 31
0.0
  0
LINE
  5
2E6C
330
1F
100
AcDbEntity
  8
太線
100
AcDbLine
 10
69.70151402540432
 20
67.8363629936083
 30
0.0
 11
69.70151402540432
 21
75.8363629936083
 31
0.0
  0
LINE
  5
2E6D
330
1F
100
AcDbEntity
  8
太線
100
AcDbLine
 10
69.70151402540432
 20
75.8363629936083
 30
0.0
 11
68.20151402540432
 21
75.8363629936083
 31
0.0
  0
LINE
  5
2E6F
330
1F
100
AcDbEntity
  8
太線
100
AcDbLine
 10
76.20151402540432
 20
75.8363629936083
 30
0.0
 11
76.20151402540432
 21
77.8363629936083
 31
0.0
  0
LINE
  5
2E70
330
1F
100
AcDbEntity
  8
太線
100
AcDbLine
 10
68.20151402540432
 20
75.8363629936083
 30
0.0
 11
68.20151402540432
 21
77.8363629936083
 31
0.0
  0
ARC
  5
2E71
330
1F
100
AcDbEntity
  8
太線
100
AcDbCircle
 10
72.20151402540432
 20
70.3363629936083
 30
0.0
 40
8.5
100
AcDbArc
 50
61.92751306414703
 51
118.0724869358529
  0
LINE
  5
2E72
330
1F
100
AcDbEntity
  8
太線
100
AcDbLine
 10
69.70151402540432
 20
75.8363629936083
 30
0.0
 11
74.70151402540432
 21
75.8363629936083
 31
0.0
  0
LINE
  5
2E73
330
1F
100
AcDbEntity
  8
太線
100
AcDbLine
 10
73.70151402540432
 20
67.8363629936083
 30
0.0
 11
73.70151402540432
 21
75.8363629936083
 31
0.0
  0
LINE
  5
2E74
330
1F
100
AcDbEntity
  8
太線
100
AcDbLine
 10
70.70151402540432
 20
75.8363629936083
 30
0.0
 11
70.70151402540432
 21
67.8363629936083
 31
0.0
  0
LINE
  5
2E7B
330
1F
100
AcDbEntity
  8
太線
100
AcDbLine
 10
69.70151402540432
 20
67.8363629936083
 30
0.0
 11
74.70151402540432
 21
67.8363629936083
 31
0.0
  0
LEADER
  5
2E7C
330
1F
100
AcDbEntity
  8
寸法線
100
AcDbLeader
  3
sunpo
 76
     2
 10
72.62092442057701
 20
72.58895593114027
 30
0.0
 10
99.89059055782583
 20
82.49509453017129
 30
0.0
1001
ACAD
1000
DSTYLE
1002
{
1070
   147
1040
1.0
1070
    77
1070
     0
1002
}
  0
TEXT
  5
2E7D
330
1F
100
AcDbEntity
  8
文字
100
AcDbText
 10
101.2228764186586
 20
81.14982247735339
 30
0.0
 40
4.799999999999999
  1
Ｍ5-8×1
 51
15.0
  7
OKANO
100
AcDbText
  0
LEADER
  5
2E7F
330
1F
100
AcDbEntity
  8
寸法線
100
AcDbLeader
  3
sunpo
 76
     2
 10
73.32768724833773
 20
0.6271990514654818
 30
0.0
 10
89.71057675567749
 20
-10.43360078952559
 30
0.0
1001
ACAD
1000
DSTYLE
1002
{
1070
   147
1040
1.0
1070
    77
1070
     0
1002
}
  0
TEXT
  5
2E80
330
1F
100
AcDbEntity
  8
文字
100
AcDbText
 10
91.48169946515031
 20
-12.20332840288676
 30
0.0
 40
4.799999999999999
  1
Φ3.5
 51
15.0
  7
OKANO
100
AcDbText
  0
LEADER
  5
2E82
330
1F
100
AcDbEntity
  8
寸法線
100
AcDbLeader
  3
sunpo
 76
     2
 10
69.78544182939163
 20
62.12524663971112
 30
0.0
 10
35.6913211245087
 20
69.64659055936943
 30
0.0
1001
ACAD
1000
DSTYLE
1002
{
1070
   147
1040
1.0
1070
    77
1070
     0
1002
}
  0
TEXT
  5
2E83
330
1F
100
AcDbEntity
  8
文字
100
AcDbText
 10
24.17902146152755
 20
70.53145471335517
 30
0.0
 40
4.799999999999999
  1
Ｍ5
 51
15.0
  7
OKANO
100
AcDbText
  0
CIRCLE
  5
2E88
330
1F
100
AcDbEntity
  8
想像線
100
AcDbCircle
 10
72.20151402540432
 20
127.4711488256961
 30
0.0
 40
2.5
  0
CIRCLE
  5
2E89
330
1F
100
AcDbEntity
  8
想像線
100
AcDbCircle
 10
72.20151402540432
 20
127.4711488256961
 30
0.0
 40
1.8
  0
DIMENSION
  5
2E8A
330
1F
100
AcDbEntity
  8
寸法線
100
AcDbDimension
  2
*D23
 10
115.8159467258272
 20
115.4711488256961
 30
0.0
 11
112.3154545998429
 21
121.4711488256961
 31
0.0
 70
    32
 71
     5
 42
12.0
  3
sunpo
100
AcDbAlignedDimension
 13
102.2015140254043
 23
127.4711488256961
 33
0.0
 14
102.2015140254043
 24
115.4711488256961
 34
0.0
 50
90.0
100
AcDbRotatedDimension
1001
ACAD
1000
DSTYLE
1002
{
1070
    40
1040
1.0
1002
}
  0
LINE
  5
2EB1
330
1F
100
AcDbEntity
  8
想像線
100
AcDbLine
 10
277.6414745488584
 20
129.2711488256961
 30
0.0
 11
272.6414745488584
 21
129.2711488256961
 31
0.0
  0
LINE
  5
2EB2
330
1F
100
AcDbEntity
  8
想像線
100
AcDbLine
 10
277.6414745488584
 20
125.6711488256961
 30
0.0
 11
272.6414745488584
 21
125.6711488256961
 31
0.0
  0
LINE
  5
2EB3
330
1F
100
AcDbEntity
  8
想像線
100
AcDbLine
 10
217.6414745488584
 20
129.9711488256961
 30
0.0
 11
222.6414745488584
 21
129.9711488256961
 31
0.0
  0
LINE
  5
2EB4
330
1F
100
AcDbEntity
  8
想像線
100
AcDbLine
 10
217.6414745488584
 20
124.9711488256961
 30
0.0
 11
222.6414745488584
 21
124.9711488256961
 31
0.0
  0
LINE
  5
2EB5
330
1F
100
AcDbEntity
  8
想像線
100
AcDbLine
 10
217.6414745488584
 20
129.2711488256961
 30
0.0
 11
222.6414745488584
 21
129.2711488256961
 31
0.0
  0
LINE
  5
2EB6
330
1F
100
AcDbEntity
  8
想像線
100
AcDbLine
 10
217.6414745488584
 20
125.6711488256961
 30
0.0
 11
222.6414745488584
 21
125.6711488256961
 31
0.0
  0
VIEWPORT
  5
2E
330
1B
100
AcDbEntity
 67
     1
  8
0
100
AcDbViewport
 10
255.0749629342999
 20
138.0209349794459
 30
0.0
 40
668.5220713557912
 41
320.2887094276941
 68
     2
 69
     1
 12
255.0749629342999
 22
138.0209349794459
 13
0.0
 23
0.0
 14
10.0
 24
10.0
 15
10.0
 25
10.0
 16
0.0
 26
0.0
 36
1.0
 17
0.0
 27
0.0
 37
0.0
 42
50.0
 43
0.0
 44
0.0
 45
320.2887094276941
 50
0.0
 51
0.0
 72
   100
 90
    32800
  1

281
     0
 71
     1
 74
     0
110
0.0
120
0.0
130
0.0
111
1.0
121
0.0
131
0.0
112
0.0
122
1.0
132
0.0
 79
     0
146
0.0
  0
VIEWPORT
  5
30
330
1B
100
AcDbEntity
 67
     1
  8
70-0-CON
100
AcDbViewport
 10
141.8594093064315
 20
100.3480256368386
 30
0.0
 40
261.6199023344245
 41
192.6196987113174
 68
     1
 69
     2
 12
160.0326505925646
 22
100.6941901074507
 13
0.0
 23
0.0
 14
5.0
 24
5.0
 15
10.0
 25
10.0
 16
0.0
 26
0.0
 36
1.0
 17
0.0
 27
0.0
 37
0.0
 42
50.0
 43
0.0
 44
0.0
 45
304.1568204260045
 50
0.0
 51
0.0
 72
   100
 90
    32864
  1

281
     0
 71
     1
 74
     0
110
0.0
120
0.0
130
0.0
111
1.0
121
0.0
131
0.0
112
0.0
122
1.0
132
0.0
 79
     0
146
0.0
  0
LWPOLYLINE
  5
45
330
1B
100
AcDbEntity
 67
     1
  8
50-0-CON
100
AcDbPolyline
 90
        4
 70
     1
 43
0.0
 10
11.04945813921926
 20
4.038176281179858
 10
272.2125713060605
 20
4.033520706629644
 10
273.4987754093466
 20
195.9297862125246
 10
11.04945813921926
 20
196.6578749924973
  0
LINE
  5
4A
330
1B
100
AcDbEntity
 67
     1
  8
50-0-CON
100
AcDbLine
 10
10.38768783662635
 20
100.3480256368386
 30
0.0
 11
-4.391850629656119
 21
100.3480256368386
 31
0.0
  0
LINE
  5
4B
330
1B
100
AcDbEntity
 67
     1
  8
50-0-CON
100
AcDbLine
 10
141.8594093064315
 20
197.098652626247
 30
0.0
 11
141.8594093064315
 21
202.387980773708
 31
0.0
  0
LINE
  5
4C
330
1B
100
AcDbEntity
 67
     1
  8
50-0-CON
100
AcDbLine
 10
272.4487699456857
 20
100.7888032705883
 30
0.0
 11
278.8458837249377
 21
100.7888032705883
 31
0.0
  0
LINE
  5
4D
330
1B
100
AcDbEntity
 67
     1
  8
50-0-CON
100
AcDbLine
 10
140.9770484758805
 20
4.038176281179858
 30
0.0
 11
140.9770484758805
 21
-3.455038652015446
 31
0.0
  0
ENDSEC
  0
SECTION
  2
OBJECTS
  0
DICTIONARY
  5
C
330
0
100
AcDbDictionary
281
     1
  3
ACAD_GROUP
350
D
  3
ACAD_LAYOUT
350
1A
  3
ACAD_MLINESTYLE
350
17
  3
ACAD_PLOTSETTINGS
350
19
  3
ACAD_PLOTSTYLENAME
350
E
  3
AcadDim
350
13D0
  3
AcDbVariableDictionary
350
6AD
  3
DWGPROPS
350
30F
  0
DICTIONARY
  5
D
102
{ACAD_REACTORS
330
C
102
}
330
C
100
AcDbDictionary
281
     1
  0
DICTIONARY
  5
1A
102
{ACAD_REACTORS
330
C
102
}
330
C
100
AcDbDictionary
281
     1
  3
A4
350
1E
  3
Model
350
22
  0
DICTIONARY
  5
17
102
{ACAD_REACTORS
330
C
102
}
330
C
100
AcDbDictionary
281
     1
  3
Standard
350
18
  0
DICTIONARY
  5
19
102
{ACAD_REACTORS
330
C
102
}
330
C
100
AcDbDictionary
281
     1
  0
ACDBDICTIONARYWDFLT
  5
E
102
{ACAD_REACTORS
330
C
102
}
330
C
100
AcDbDictionary
281
     1
  3
Normal
350
F
100
AcDbDictionaryWithDefault
340
F
  0
XRECORD
  5
13D0
102
{ACAD_REACTORS
330
C
102
}
330
C
100
AcDbXrecord
280
     1
 90
   990106
  3

 60
     0
 61
     0
 62
     1
 63
     3
 64
     0
 65
     0
 66
     0
 67
     3
 68
     1
 69
     0
 70
     0
 71
     0
 72
     0
 40
0.6259397408233572
170
     0
  0
DICTIONARY
  5
6AD
102
{ACAD_REACTORS
330
C
102
}
330
C
100
AcDbDictionary
281
     1
  3
SORTENTS
350
6AE
  0
XRECORD
  5
30F
102
{ACAD_REACTORS
330
C
102
}
330
C
100
AcDbXrecord
280
     1
  1
DWGPROPS COOKIE
  2

  3

  4

  6

  7

  8

  9

300
=
301
=
302
=
303
=
304
=
305
=
306
=
307
=
308
=
309
=
 40
0.3303803125
 41
2452362.482225463
 42
2452370.969861285
  1

 90
        0
  0
LAYOUT
  5
1E
102
{ACAD_REACTORS
330
1A
102
}
330
1A
100
AcDbPlotSettings
  1

  2
EPSON PM-920C
  4
A4
  6

 40
3.757083177566528
 41
14.7637300491333
 42
3.757080078125
 43
3.757080078125
 44
209.9733276367187
 45
296.9683227539062
 46
0.0
 47
0.0
 48
0.0
 49
0.0
140
0.0
141
0.0
142
1.0
143
1.0
 70
   688
 72
     1
 73
     1
 74
     5
  7
joint.ctb
 75
    16
147
1.0
148
0.0
149
0.0
100
AcDbLayout
  1
A4
 70
     1
 71
     1
 10
-3.757080078125
 20
-3.757083177566528
 11
293.2112426757812
 21
206.2162444591522
 12
0.0
 22
0.0
 32
0.0
 14
-4.391850629656119
 24
-3.455038652015446
 34
0.0
 15
278.8458837249377
 25
202.387980773708
 35
0.0
146
0.0
 13
0.0
 23
0.0
 33
0.0
 16
1.0
 26
0.0
 36
0.0
 17
0.0
 27
1.0
 37
0.0
 76
     0
330
1B
331
30
  0
LAYOUT
  5
22
102
{ACAD_REACTORS
330
1A
102
}
330
1A
100
AcDbPlotSettings
  1

  2
EPSON PM-920C
  4
A4
  6

 40
3.757083177566528
 41
14.7637300491333
 42
3.757080078125
 43
3.757080078125
 44
209.9733276367187
 45
296.9683227539062
 46
0.0
 47
0.0
 48
0.0
 49
0.0
140
0.0
141
0.0
142
1.0
143
1.0
 70
 11952
 72
     1
 73
     1
 74
     0
  7

 75
     0
147
1.0
148
-45.64199848979289
149
-84.48806419330498
100
AcDbLayout
  1
Model
 70
     1
 71
     0
 10
0.0
 20
0.0
 11
12.0
 21
9.0
 12
0.0
 22
0.0
 32
0.0
 14
0.0
 24
0.0
 34
0.0
 15
0.0
 25
0.0
 35
0.0
146
0.0
 13
0.0
 23
0.0
 33
0.0
 16
1.0
 26
0.0
 36
0.0
 17
0.0
 27
1.0
 37
0.0
 76
     0
330
1F
  0
MLINESTYLE
  5
18
102
{ACAD_REACTORS
330
17
102
}
330
17
100
AcDbMlineStyle
  2
STANDARD
 70
     0
  3

 62
   256
 51
90.0
 52
90.0
 71
     2
 49
0.5
 62
   256
  6
BYLAYER
 49
-0.5
 62
   256
  6
BYLAYER
  0
ACDBPLACEHOLDER
  5
F
102
{ACAD_REACTORS
330
E
102
}
330
E
  0
DICTIONARYVAR
  5
6AE
102
{ACAD_REACTORS
330
6AD
102
}
330
6AD
100
DictionaryVariables
280
     0
  1
96
  0
ENDSEC
  0
EOF
