  0
SECTION
  2
HEADER
  9
$ACADVER
  1
AC1015
  9
$ACADMAINTVER
 70
     6
  9
$DWGCODEPAGE
  3
ANSI_932
  9
$INSBASE
 10
0.0
 20
0.0
 30
0.0
  9
$EXTMIN
 10
51.24431746906889
 20
74.12167157497368
 30
0.0
  9
$EXTMAX
 10
347.8627892909715
 20
285.6674701679477
 30
0.0
  9
$LIMMIN
 10
0.0
 20
0.0
  9
$LIMMAX
 10
420.0
 20
297.0
  9
$ORTHOMODE
 70
     1
  9
$REGENMODE
 70
     1
  9
$FILLMODE
 70
     1
  9
$QTEXTMODE
 70
     0
  9
$MIRRTEXT
 70
     1
  9
$LTSCALE
 40
1.0
  9
$ATTMODE
 70
     1
  9
$TEXTSIZE
 40
5.0
  9
$TRACEWID
 40
1.0
  9
$TEXTSTYLE
  7
OKANO
  9
$CLAYER
  8
太線
  9
$CELTYPE
  6
ByLayer
  9
$CECOLOR
 62
   256
  9
$CELTSCALE
 40
1.0
  9
$DISPSILH
 70
     0
  9
$DIMSCALE
 40
0.0
  9
$DIMASZ
 40
3.0
  9
$DIMEXO
 40
2.0
  9
$DIMDLI
 40
8.0
  9
$DIMRND
 40
0.0
  9
$DIMDLE
 40
0.0
  9
$DIMEXE
 40
3.0
  9
$DIMTP
 40
0.0
  9
$DIMTM
 40
0.0
  9
$DIMTXT
 40
5.0
  9
$DIMCEN
 40
2.5
  9
$DIMTSZ
 40
0.0
  9
$DIMTOL
 70
     0
  9
$DIMLIM
 70
     0
  9
$DIMTIH
 70
     0
  9
$DIMTOH
 70
     0
  9
$DIMSE1
 70
     0
  9
$DIMSE2
 70
     0
  9
$DIMTAD
 70
     1
  9
$DIMZIN
 70
     8
  9
$DIMBLK
  1
Closed
  9
$DIMASO
 70
     1
  9
$DIMSHO
 70
     1
  9
$DIMPOST
  1

  9
$DIMAPOST
  1

  9
$DIMALT
 70
     0
  9
$DIMALTD
 70
     3
  9
$DIMALTF
 40
0.03937007874016
  9
$DIMLFAC
 40
1.0
  9
$DIMTOFL
 70
     1
  9
$DIMTVP
 40
0.0
  9
$DIMTIX
 70
     0
  9
$DIMSOXD
 70
     0
  9
$DIMSAH
 70
     0
  9
$DIMBLK1
  1

  9
$DIMBLK2
  1

  9
$DIMSTYLE
  2
sunpo
  9
$DIMCLRD
 70
     0
  9
$DIMCLRE
 70
     0
  9
$DIMCLRT
 70
     0
  9
$DIMTFAC
 40
1.0
  9
$DIMGAP
 40
1.0
  9
$DIMJUST
 70
     0
  9
$DIMSD1
 70
     0
  9
$DIMSD2
 70
     0
  9
$DIMTOLJ
 70
     0
  9
$DIMTZIN
 70
     8
  9
$DIMALTZ
 70
     0
  9
$DIMALTTZ
 70
     0
  9
$DIMUPT
 70
     0
  9
$DIMDEC
 70
     2
  9
$DIMTDEC
 70
     2
  9
$DIMALTU
 70
     2
  9
$DIMALTTD
 70
     3
  9
$DIMTXSTY
  7
OKANO
  9
$DIMAUNIT
 70
     0
  9
$DIMADEC
 70
     0
  9
$DIMALTRND
 40
0.0
  9
$DIMAZIN
 70
     0
  9
$DIMDSEP
 70
    46
  9
$DIMATFIT
 70
     3
  9
$DIMFRAC
 70
     0
  9
$DIMLDRBLK
  1
Closed
  9
$DIMLUNIT
 70
     2
  9
$DIMLWD
 70
    -2
  9
$DIMLWE
 70
    -2
  9
$DIMTMOVE
 70
     0
  9
$LUNITS
 70
     2
  9
$LUPREC
 70
     2
  9
$SKETCHINC
 40
1.0
  9
$FILLETRAD
 40
1.0
  9
$AUNITS
 70
     0
  9
$AUPREC
 70
     0
  9
$MENU
  1
.
  9
$ELEVATION
 40
0.0
  9
$PELEVATION
 40
0.0
  9
$THICKNESS
 40
0.0
  9
$LIMCHECK
 70
     0
  9
$CHAMFERA
 40
10.0
  9
$CHAMFERB
 40
10.0
  9
$CHAMFERC
 40
20.0
  9
$CHAMFERD
 40
0.0
  9
$SKPOLY
 70
     0
  9
$TDCREATE
 40
2452362.482225463
  9
$TDUCREATE
 40
2452362.107225463
  9
$TDUPDATE
 40
2455951.690997268
  9
$TDUUPDATE
 40
2455951.315997268
  9
$TDINDWG
 40
2.9877907292
  9
$TDUSRTIMER
 40
2.9877907292
  9
$USRTIMER
 70
     1
  9
$ANGBASE
 50
0.0
  9
$ANGDIR
 70
     0
  9
$PDMODE
 70
     0
  9
$PDSIZE
 40
0.0
  9
$PLINEWID
 40
0.0
  9
$SPLFRAME
 70
     0
  9
$SPLINETYPE
 70
     6
  9
$SPLINESEGS
 70
     8
  9
$HANDSEED
  5
3BE9
  9
$SURFTAB1
 70
     6
  9
$SURFTAB2
 70
     6
  9
$SURFTYPE
 70
     6
  9
$SURFU
 70
     6
  9
$SURFV
 70
     6
  9
$UCSBASE
  2

  9
$UCSNAME
  2

  9
$UCSORG
 10
0.0
 20
0.0
 30
0.0
  9
$UCSXDIR
 10
1.0
 20
0.0
 30
0.0
  9
$UCSYDIR
 10
0.0
 20
1.0
 30
0.0
  9
$UCSORTHOREF
  2

  9
$UCSORTHOVIEW
 70
     0
  9
$UCSORGTOP
 10
0.0
 20
0.0
 30
0.0
  9
$UCSORGBOTTOM
 10
0.0
 20
0.0
 30
0.0
  9
$UCSORGLEFT
 10
0.0
 20
0.0
 30
0.0
  9
$UCSORGRIGHT
 10
0.0
 20
0.0
 30
0.0
  9
$UCSORGFRONT
 10
0.0
 20
0.0
 30
0.0
  9
$UCSORGBACK
 10
0.0
 20
0.0
 30
0.0
  9
$PUCSBASE
  2

  9
$PUCSNAME
  2

  9
$PUCSORG
 10
0.0
 20
0.0
 30
0.0
  9
$PUCSXDIR
 10
1.0
 20
0.0
 30
0.0
  9
$PUCSYDIR
 10
0.0
 20
1.0
 30
0.0
  9
$PUCSORTHOREF
  2

  9
$PUCSORTHOVIEW
 70
     0
  9
$PUCSORGTOP
 10
0.0
 20
0.0
 30
0.0
  9
$PUCSORGBOTTOM
 10
0.0
 20
0.0
 30
0.0
  9
$PUCSORGLEFT
 10
0.0
 20
0.0
 30
0.0
  9
$PUCSORGRIGHT
 10
0.0
 20
0.0
 30
0.0
  9
$PUCSORGFRONT
 10
0.0
 20
0.0
 30
0.0
  9
$PUCSORGBACK
 10
0.0
 20
0.0
 30
0.0
  9
$USERI1
 70
     0
  9
$USERI2
 70
     0
  9
$USERI3
 70
     0
  9
$USERI4
 70
     0
  9
$USERI5
 70
     0
  9
$USERR1
 40
0.0
  9
$USERR2
 40
0.0
  9
$USERR3
 40
0.0
  9
$USERR4
 40
0.0
  9
$USERR5
 40
0.0
  9
$WORLDVIEW
 70
     1
  9
$SHADEDGE
 70
     3
  9
$SHADEDIF
 70
    70
  9
$TILEMODE
 70
     0
  9
$MAXACTVP
 70
    64
  9
$PINSBASE
 10
0.0
 20
0.0
 30
0.0
  9
$PLIMCHECK
 70
     0
  9
$PEXTMIN
 10
-4.391850629656119
 20
-3.455038652015446
 30
0.0
  9
$PEXTMAX
 10
278.8458837249377
 20
202.387980773708
 30
0.0
  9
$PLIMMIN
 10
-3.757080078125
 20
-3.757083177566528
  9
$PLIMMAX
 10
293.2112426757812
 20
206.2162444591522
  9
$UNITMODE
 70
     0
  9
$VISRETAIN
 70
     1
  9
$PLINEGEN
 70
     0
  9
$PSLTSCALE
 70
     1
  9
$TREEDEPTH
 70
  3020
  9
$CMLSTYLE
  2
Standard
  9
$CMLJUST
 70
     0
  9
$CMLSCALE
 40
20.0
  9
$PROXYGRAPHICS
 70
     1
  9
$MEASUREMENT
 70
     1
  9
$CELWEIGHT
370
    -1
  9
$ENDCAPS
280
     0
  9
$JOINSTYLE
280
     0
  9
$LWDISPLAY
290
     0
  9
$INSUNITS
 70
     4
  9
$HYPERLINKBASE
  1

  9
$STYLESHEET
  1

  9
$XEDIT
290
     1
  9
$CEPSNTYPE
380
     0
  9
$PSTYLEMODE
290
     1
  9
$FINGERPRINTGUID
  2
{FF7F33C3-4233-11D6-AEE0-0000F45FD7F4}
  9
$VERSIONGUID
  2
{6CB3893D-35D2-45DB-A1D2-141AE9997B37}
  9
$EXTNAMES
290
     1
  9
$PSVPSCALE
 40
0.0
  9
$OLESTARTUP
290
     0
  0
ENDSEC
  0
SECTION
  2
CLASSES
  0
CLASS
  1
ACDBDICTIONARYWDFLT
  2
AcDbDictionaryWithDefault
  3
AutoCAD 2000
 90
        0
280
     0
281
     0
  0
CLASS
  1
ACDBPLACEHOLDER
  2
AcDbPlaceHolder
  3
AutoCAD 2000
 90
        0
280
     0
281
     0
  0
CLASS
  1
LAYOUT
  2
AcDbLayout
  3
AutoCAD 2000
 90
        0
280
     0
281
     0
  0
CLASS
  1
DICTIONARYVAR
  2
AcDbDictionaryVar
  3
AutoCAD 2000
 90
        0
280
     0
281
     0
  0
ENDSEC
  0
SECTION
  2
TABLES
  0
TABLE
  2
VPORT
  5
8
330
0
100
AcDbSymbolTable
 70
     2
  0
VPORT
  5
3BE8
330
8
100
AcDbSymbolTableRecord
100
AcDbViewportTableRecord
  2
*Active
 70
     0
 10
0.0
 20
0.0
 11
1.0
 21
1.0
 12
10.48923155966588
 22
250.4988743117936
 13
0.0
 23
0.0
 14
5.0
 24
5.0
 15
10.0
 25
10.0
 16
0.0
 26
0.0
 36
1.0
 17
0.0
 27
0.0
 37
0.0
 40
352.6421182435278
 41
2.08724832214765
 42
50.0
 43
0.0
 44
0.0
 50
0.0
 51
0.0
 71
     0
 72
   100
 73
     1
 74
     3
 75
     0
 76
     0
 77
     0
 78
     0
281
     0
 65
     1
110
0.0
120
0.0
130
0.0
111
1.0
121
0.0
131
0.0
112
0.0
122
1.0
132
0.0
 79
     0
146
0.0
  0
ENDTAB
  0
TABLE
  2
LTYPE
  5
5
330
0
100
AcDbSymbolTable
 70
     5
  0
LTYPE
  5
14
330
5
100
AcDbSymbolTableRecord
100
AcDbLinetypeTableRecord
  2
ByBlock
 70
     0
  3

 72
    65
 73
     0
 40
0.0
  0
LTYPE
  5
15
330
5
100
AcDbSymbolTableRecord
100
AcDbLinetypeTableRecord
  2
ByLayer
 70
     0
  3

 72
    65
 73
     0
 40
0.0
  0
LTYPE
  5
16
330
5
100
AcDbSymbolTableRecord
100
AcDbLinetypeTableRecord
  2
Continuous
 70
     0
  3
Solid line
 72
    65
 73
     0
 40
0.0
  0
LTYPE
  5
33
330
5
100
AcDbSymbolTableRecord
100
AcDbLinetypeTableRecord
  2
DASHED2
 70
     0
  3
Dashed (.5x) _ _ _ _ _ _ _ _ _ _ _ _ _ _ _ _ _
 72
    65
 73
     2
 40
9.524999999999998
 49
6.349999999999999
 74
     0
 49
-3.174999999999999
 74
     0
  0
LTYPE
  5
34
330
5
100
AcDbSymbolTableRecord
100
AcDbLinetypeTableRecord
  2
CENTER2
 70
     0
  3
Center (.5x) ___ _ ___ _ ___ _ ___ _ ___ _ ___
 72
    65
 73
     4
 40
28.57499999999999
 49
19.05
 74
     0
 49
-3.174999999999999
 74
     0
 49
3.174999999999999
 74
     0
 49
-3.174999999999999
 74
     0
  0
LTYPE
  5
35
330
5
100
AcDbSymbolTableRecord
100
AcDbLinetypeTableRecord
  2
PHANTOM2
 70
     0
  3
Phantom (.5x) ___ _ _ ___ _ _ ___ _ _ ___ _ _
 72
    65
 73
     6
 40
31.75
 49
15.875
 74
     0
 49
-3.174999999999999
 74
     0
 49
3.174999999999999
 74
     0
 49
-3.174999999999999
 74
     0
 49
3.174999999999999
 74
     0
 49
-3.174999999999999
 74
     0
  0
LTYPE
  5
36
330
5
100
AcDbSymbolTableRecord
100
AcDbLinetypeTableRecord
  2
HIDDEN2
 70
     0
  3
Hidden (.5x) _ _ _ _ _ _ _ _ _ _ _ _ _ _ _ _ _
 72
    65
 73
     2
 40
4.762499999999999
 49
3.174999999999999
 74
     0
 49
-1.587499999999999
 74
     0
  0
ENDTAB
  0
TABLE
  2
LAYER
  5
2
330
0
100
AcDbSymbolTable
 70
    13
  0
LAYER
  5
10
330
2
100
AcDbSymbolTableRecord
100
AcDbLayerTableRecord
  2
0
 70
     0
 62
     7
  6
Continuous
370
    -3
390
F
  0
LAYER
  5
40
330
2
100
AcDbSymbolTableRecord
100
AcDbLayerTableRecord
  2
50-0-CON
 70
     0
 62
     4
  6
Continuous
370
    50
390
F
  0
LAYER
  5
41
330
2
100
AcDbSymbolTableRecord
100
AcDbLayerTableRecord
  2
70-0-CON
 70
     0
 62
   202
  6
Continuous
370
    70
390
F
  0
LAYER
  5
4E
330
2
100
AcDbSymbolTableRecord
100
AcDbLayerTableRecord
  2
極太線
 70
     0
 62
     7
  6
Continuous
370
    70
390
F
  0
LAYER
  5
4F
330
2
100
AcDbSymbolTableRecord
100
AcDbLayerTableRecord
  2
細線
 70
     0
 62
     8
  6
Continuous
370
    18
390
F
  0
LAYER
  5
AB
330
2
100
AcDbSymbolTableRecord
100
AcDbLayerTableRecord
  2
構築線
 70
     0
 62
    -2
  6
Continuous
370
    18
390
F
  0
LAYER
  5
B8
330
2
100
AcDbSymbolTableRecord
100
AcDbLayerTableRecord
  2
太線
 70
     0
 62
     7
  6
Continuous
370
    35
390
F
  0
LAYER
  5
B9
330
2
100
AcDbSymbolTableRecord
100
AcDbLayerTableRecord
  2
寸法線
 70
     0
 62
     5
  6
Continuous
370
    18
390
F
  0
LAYER
  5
BA
330
2
100
AcDbSymbolTableRecord
100
AcDbLayerTableRecord
  2
破線
 70
     0
 62
     8
  6
HIDDEN2
370
    18
390
F
  0
LAYER
  5
BB
330
2
100
AcDbSymbolTableRecord
100
AcDbLayerTableRecord
  2
中心線
 70
     0
 62
     1
  6
CENTER2
370
    18
390
F
  0
LAYER
  5
BC
330
2
100
AcDbSymbolTableRecord
100
AcDbLayerTableRecord
  2
想像線
 70
     0
 62
     8
  6
PHANTOM2
370
    18
390
F
  0
LAYER
  5
BD
330
2
100
AcDbSymbolTableRecord
100
AcDbLayerTableRecord
  2
文字
 70
     0
 62
     7
  6
Continuous
370
    18
390
F
  0
LAYER
  5
180
330
2
100
AcDbSymbolTableRecord
100
AcDbLayerTableRecord
  2
Defpoints
 70
     0
 62
     7
  6
Continuous
290
     0
370
    -3
390
F
  0
ENDTAB
  0
TABLE
  2
STYLE
  5
3
330
0
100
AcDbSymbolTable
 70
     3
  0
STYLE
  5
11
330
3
100
AcDbSymbolTableRecord
100
AcDbTextStyleTableRecord
  2
Standard
 70
     0
 40
0.0
 41
1.0
 50
0.0
 71
     0
 42
3.0
  3
txt
  4

  0
STYLE
  5
32
330
3
100
AcDbSymbolTableRecord
100
AcDbTextStyleTableRecord
  2

 70
     1
 40
0.0
 41
1.0
 50
0.0
 71
     0
 42
2.5
  3
ltypeshp.shx
  4

  0
STYLE
  5
50
330
3
100
AcDbSymbolTableRecord
100
AcDbTextStyleTableRecord
  2
OKANO
 70
     0
 40
0.0
 41
1.0
 50
15.0
 71
     0
 42
5.0
  3
isocp.shx
  4
bigfont.shx
  0
ENDTAB
  0
TABLE
  2
VIEW
  5
6
330
0
100
AcDbSymbolTable
 70
     0
  0
ENDTAB
  0
TABLE
  2
UCS
  5
7
330
0
100
AcDbSymbolTable
 70
     0
  0
ENDTAB
  0
TABLE
  2
APPID
  5
9
330
0
100
AcDbSymbolTable
 70
     1
  0
APPID
  5
12
330
9
100
AcDbSymbolTableRecord
100
AcDbRegAppTableRecord
  2
ACAD
 70
     0
  0
ENDTAB
  0
TABLE
  2
DIMSTYLE
  5
A
330
0
100
AcDbSymbolTable
 70
     2
100
AcDbDimStyleTable
 71
     2
340
A2
340
27
  0
DIMSTYLE
105
27
330
A
100
AcDbSymbolTableRecord
100
AcDbDimStyleTableRecord
  2
ISO-25
 70
     0
 41
2.5
 42
0.625
 43
3.75
 44
1.25
 73
     0
 74
     0
 77
     1
 78
     8
140
2.5
141
2.5
143
0.03937007874016
147
0.625
171
     3
172
     1
271
     2
272
     2
274
     3
283
     0
284
     8
340
11
  0
DIMSTYLE
105
A2
102
{ACAD_REACTORS
330
38BB
330
38C8
330
396E
330
3A97
330
3AB3
330
3ACF
330
3ADC
330
3AFF
330
3B0B
330
3B17
330
3B23
330
3B30
330
3B48
330
3B55
330
3B64
330
3B7E
330
3B8D
330
3BA5
330
3BB1
330
3BBE
330
3BCD
102
}
330
A
100
AcDbSymbolTableRecord
100
AcDbDimStyleTableRecord
  2
sunpo
 70
     0
 40
0.0
 41
3.0
 42
2.0
 43
8.0
 44
3.0
 73
     0
 74
     0
 77
     1
 78
     8
140
5.0
141
2.5
143
0.03937007874016
147
1.0
171
     3
172
     1
271
     2
272
     2
274
     3
283
     0
284
     8
340
50
341
9B
342
9B
  0
ENDTAB
  0
TABLE
  2
BLOCK_RECORD
  5
1
330
0
100
AcDbSymbolTable
 70
    24
  0
BLOCK_RECORD
  5
1F
330
1
100
AcDbSymbolTableRecord
100
AcDbBlockTableRecord
  2
*Model_Space
340
22
  0
BLOCK_RECORD
  5
1B
330
1
100
AcDbSymbolTableRecord
100
AcDbBlockTableRecord
  2
*Paper_Space
340
1E
  0
BLOCK_RECORD
  5
9B
330
1
100
AcDbSymbolTableRecord
100
AcDbBlockTableRecord
  2
_Closed
340
0
102
{BLKREFS
331
38E5
331
38E6
331
38EE
331
38EF
331
397F
331
3980
331
3A9C
331
3A9D
331
3AB8
331
3AB9
331
3AF9
331
3AFA
331
3B05
331
3B06
331
3B11
331
3B12
331
3B1D
331
3B1E
331
3B28
331
3B29
331
3B35
331
3B36
331
3B42
331
3B43
331
3B4D
331
3B4E
331
3B5C
331
3B5D
331
3B6B
331
3B6C
331
3B85
331
3B86
331
3B94
331
3B95
331
3BA0
331
3BAB
331
3BAC
331
3BB6
331
3BB7
331
3BC5
331
3BC6
331
3BD4
331
3BD5
102
}
  0
BLOCK_RECORD
  5
1510
330
1
100
AcDbSymbolTableRecord
100
AcDbBlockTableRecord
  2
A$C10A573AC
340
0
  0
BLOCK_RECORD
  5
38BC
330
1
100
AcDbSymbolTableRecord
100
AcDbBlockTableRecord
  2
*D2
340
0
  0
BLOCK_RECORD
  5
38C9
330
1
100
AcDbSymbolTableRecord
100
AcDbBlockTableRecord
  2
*D3
340
0
  0
BLOCK_RECORD
  5
396F
330
1
100
AcDbSymbolTableRecord
100
AcDbBlockTableRecord
  2
*D4
340
0
  0
BLOCK_RECORD
  5
3A98
330
1
100
AcDbSymbolTableRecord
100
AcDbBlockTableRecord
  2
*D5
340
0
  0
BLOCK_RECORD
  5
3AB4
330
1
100
AcDbSymbolTableRecord
100
AcDbBlockTableRecord
  2
*D6
340
0
  0
BLOCK_RECORD
  5
3AD0
330
1
100
AcDbSymbolTableRecord
100
AcDbBlockTableRecord
  2
*D7
340
0
  0
BLOCK_RECORD
  5
3ADD
330
1
100
AcDbSymbolTableRecord
100
AcDbBlockTableRecord
  2
*D8
340
0
  0
BLOCK_RECORD
  5
3B00
330
1
100
AcDbSymbolTableRecord
100
AcDbBlockTableRecord
  2
*D9
340
0
  0
BLOCK_RECORD
  5
3B0C
330
1
100
AcDbSymbolTableRecord
100
AcDbBlockTableRecord
  2
*D10
340
0
  0
BLOCK_RECORD
  5
3B18
330
1
100
AcDbSymbolTableRecord
100
AcDbBlockTableRecord
  2
*D11
340
0
  0
BLOCK_RECORD
  5
3B24
330
1
100
AcDbSymbolTableRecord
100
AcDbBlockTableRecord
  2
*D12
340
0
  0
BLOCK_RECORD
  5
3B31
330
1
100
AcDbSymbolTableRecord
100
AcDbBlockTableRecord
  2
*D13
340
0
  0
BLOCK_RECORD
  5
3B49
330
1
100
AcDbSymbolTableRecord
100
AcDbBlockTableRecord
  2
*D14
340
0
  0
BLOCK_RECORD
  5
3B56
330
1
100
AcDbSymbolTableRecord
100
AcDbBlockTableRecord
  2
*D15
340
0
  0
BLOCK_RECORD
  5
3B65
330
1
100
AcDbSymbolTableRecord
100
AcDbBlockTableRecord
  2
*D16
340
0
  0
BLOCK_RECORD
  5
3B7F
330
1
100
AcDbSymbolTableRecord
100
AcDbBlockTableRecord
  2
*D17
340
0
  0
BLOCK_RECORD
  5
3B8E
330
1
100
AcDbSymbolTableRecord
100
AcDbBlockTableRecord
  2
*D18
340
0
  0
BLOCK_RECORD
  5
3BA6
330
1
100
AcDbSymbolTableRecord
100
AcDbBlockTableRecord
  2
*D20
340
0
  0
BLOCK_RECORD
  5
3BB2
330
1
100
AcDbSymbolTableRecord
100
AcDbBlockTableRecord
  2
*D21
340
0
  0
BLOCK_RECORD
  5
3BBF
330
1
100
AcDbSymbolTableRecord
100
AcDbBlockTableRecord
  2
*D22
340
0
  0
BLOCK_RECORD
  5
3BCE
330
1
100
AcDbSymbolTableRecord
100
AcDbBlockTableRecord
  2
*D23
340
0
  0
ENDTAB
  0
ENDSEC
  0
SECTION
  2
BLOCKS
  0
BLOCK
  5
20
330
1F
100
AcDbEntity
  8
0
100
AcDbBlockBegin
  2
*Model_Space
 70
     0
 10
0.0
 20
0.0
 30
0.0
  3
*Model_Space
  1

  0
ENDBLK
  5
21
330
1F
100
AcDbEntity
  8
0
100
AcDbBlockEnd
  0
BLOCK
  5
1C
330
1B
100
AcDbEntity
 67
     1
  8
0
100
AcDbBlockBegin
  2
*Paper_Space
 70
     0
 10
0.0
 20
0.0
 30
0.0
  3
*Paper_Space
  1

  0
ENDBLK
  5
1D
330
1B
100
AcDbEntity
 67
     1
  8
0
100
AcDbBlockEnd
  0
BLOCK
  5
A0
330
9B
100
AcDbEntity
  8
0
100
AcDbBlockBegin
  2
_Closed
 70
     0
 10
0.0
 20
0.0
 30
0.0
  3
_Closed
  1

  0
LINE
  5
9C
330
9B
100
AcDbEntity
  8
0
 62
     0
370
    -2
100
AcDbLine
 10
-1.0
 20
0.1666666666666666
 30
0.0
 11
0.0
 21
0.0
 31
0.0
  0
LINE
  5
9D
330
9B
100
AcDbEntity
  8
0
 62
     0
370
    -2
100
AcDbLine
 10
0.0
 20
0.0
 30
0.0
 11
-1.0
 21
-0.1666666666666666
 31
0.0
  0
LINE
  5
9E
330
9B
100
AcDbEntity
  8
0
 62
     0
370
    -2
100
AcDbLine
 10
-1.0
 20
0.1666666666666666
 30
0.0
 11
-1.0
 21
-0.1666666666666666
 31
0.0
  0
LINE
  5
9F
330
9B
100
AcDbEntity
  8
0
 62
     0
370
    -2
100
AcDbLine
 10
0.0
 20
0.0
 30
0.0
 11
-1.0
 21
0.0
 31
0.0
  0
ENDBLK
  5
A1
330
9B
100
AcDbEntity
  8
0
100
AcDbBlockEnd
  0
BLOCK
  5
155B
330
1510
100
AcDbEntity
  8
0
100
AcDbBlockBegin
  2
A$C10A573AC
 70
     0
 10
0.0
 20
0.0
 30
0.0
  3
A$C10A573AC
  1

  0
TEXT
  5
1511
330
1510
100
AcDbEntity
  8
文字
100
AcDbText
 10
0.9844302777919438
 20
5.224957122252135
 30
0.0
 40
3.0
  1
Materal : Steel.
 51
15.0
  7
OKANO
100
AcDbText
  0
TEXT
  5
1512
330
1510
100
AcDbEntity
  8
文字
100
AcDbText
 10
-0.1141909619694843
 20
0.7500001922403499
 30
0.0
 40
3.0
  1
Surface treatment : Electro galvanized.
 51
15.0
  7
OKANO
100
AcDbText
  0
TEXT
  5
1513
330
1510
100
AcDbEntity
  8
文字
100
AcDbText
 10
-0.4901926332574931
 20
9.159967445193728
 30
0.0
 40
3.0
  1
5 TORGUE SCREW  M5-6
 51
15.0
  7
OKANO
100
AcDbText
  0
TEXT
  5
1514
330
1510
100
AcDbEntity
  8
文字
100
AcDbText
 10
1.364713526390005
 20
78.88822913323082
 30
0.0
 40
3.0
  1
Special standard,
 51
15.0
  7
OKANO
100
AcDbText
  0
TEXT
  5
1515
330
1510
100
AcDbEntity
  8
文字
100
AcDbText
 10
92.88160823408942
 20
89.92753849837379
 30
0.0
 40
3.0
  1
Screw Type
 51
15.0
  7
OKANO
100
AcDbText
  0
LINE
  5
1516
330
1510
100
AcDbEntity
  8
太線
100
AcDbLine
 10
113.9464587597784
 20
81.93930390144641
 30
0.0
 11
112.4464587597784
 21
81.93930390144641
 31
0.0
  0
LINE
  5
1517
330
1510
100
AcDbEntity
  8
太線
100
AcDbLine
 10
112.4464587597784
 20
76.9393039014464
 30
0.0
 11
121.4644995438761
 21
76.9393039014464
 31
0.0
  0
TEXT
  5
1518
330
1510
100
AcDbEntity
  8
文字
100
AcDbText
 10
93.46068240437217
 20
77.96976862235396
 30
0.0
 40
2.0
  1
17-30
 51
15.0
  7
OKANO
100
AcDbText
  0
LINE
  5
1519
330
1510
100
AcDbEntity
  8
太線
100
AcDbLine
 10
111.9464587597784
 20
81.43930390144641
 30
0.0
 11
111.9464587597784
 21
77.4393039014464
 31
0.0
  0
LINE
  5
151A
330
1510
100
AcDbEntity
  8
太線
100
AcDbLine
 10
91.94645875977846
 20
81.43930390144641
 30
0.0
 11
91.94645875977846
 21
77.43930390144639
 31
0.0
  0
LINE
  5
151B
330
1510
100
AcDbEntity
  8
太線
100
AcDbLine
 10
101.9644995438761
 20
77.4393039014464
 30
0.0
 11
101.9644995438761
 21
81.43930390144641
 31
0.0
  0
LINE
  5
151C
330
1510
100
AcDbEntity
  8
太線
100
AcDbLine
 10
92.44645875977846
 20
76.9393039014464
 30
0.0
 11
101.4644995438761
 21
76.9393039014464
 31
0.0
  0
ARC
  5
151D
330
1510
100
AcDbEntity
  8
太線
100
AcDbCircle
 10
92.44645875977846
 20
77.43930390144639
 30
0.0
 40
0.5
100
AcDbArc
 50
180.0
 51
270.0
  0
ARC
  5
151E
330
1510
100
AcDbEntity
  8
太線
100
AcDbCircle
 10
101.4644995438761
 20
77.4393039014464
 30
0.0
 40
0.5
100
AcDbArc
 50
270.0
 51
0.0
  0
ARC
  5
151F
330
1510
100
AcDbEntity
  8
太線
100
AcDbCircle
 10
112.4464587597784
 20
77.4393039014464
 30
0.0
 40
0.5
100
AcDbArc
 50
180.0
 51
270.0
  0
LINE
  5
1520
330
1510
100
AcDbEntity
  8
想像線
100
AcDbLine
 10
93.94645875977847
 20
81.93930390144641
 30
0.0
 11
99.96449954387617
 21
81.93930390144641
 31
0.0
  0
LINE
  5
1521
330
1510
100
AcDbEntity
  8
極太線
100
AcDbLine
 10
96.38762957111168
 20
85.43930390144641
 30
0.0
 11
97.50528794844525
 21
85.43930390144641
 31
0.0
  0
CIRCLE
  5
1522
330
1510
100
AcDbEntity
  8
太線
100
AcDbCircle
 10
96.94645875977847
 20
85.43930390144641
 30
0.0
 40
0.5588291886667776
  0
LINE
  5
1523
330
1510
100
AcDbEntity
  8
太線
100
AcDbLine
 10
99.46449954387617
 20
86.93930390144641
 30
0.0
 11
94.44645875977846
 21
86.93930390144641
 31
0.0
  0
LINE
  5
1524
330
1510
100
AcDbEntity
  8
太線
100
AcDbLine
 10
93.94645875977847
 20
86.43930390144641
 30
0.0
 11
93.94645875977847
 21
81.93930390144641
 31
0.0
  0
ARC
  5
1525
330
1510
100
AcDbEntity
  8
太線
100
AcDbCircle
 10
92.44645875977846
 20
81.43930390144641
 30
0.0
 40
0.5
100
AcDbArc
 50
90.0
 51
180.0
  0
LINE
  5
1526
330
1510
100
AcDbEntity
  8
太線
100
AcDbLine
 10
93.94645875977847
 20
81.93930390144641
 30
0.0
 11
92.44645875977846
 21
81.93930390144641
 31
0.0
  0
ARC
  5
1527
330
1510
100
AcDbEntity
  8
太線
100
AcDbCircle
 10
94.44645875977846
 20
86.43930390144641
 30
0.0
 40
0.5
100
AcDbArc
 50
90.0
 51
180.0
  0
LINE
  5
1528
330
1510
100
AcDbEntity
  8
太線
100
AcDbLine
 10
99.96449954387617
 20
81.93930390144641
 30
0.0
 11
99.96449954387617
 21
86.43930390144641
 31
0.0
  0
LINE
  5
1529
330
1510
100
AcDbEntity
  8
太線
100
AcDbLine
 10
101.4644995438761
 20
81.93930390144641
 30
0.0
 11
99.96449954387617
 21
81.93930390144641
 31
0.0
  0
ARC
  5
152A
330
1510
100
AcDbEntity
  8
太線
100
AcDbCircle
 10
101.4644995438761
 20
81.43930390144641
 30
0.0
 40
0.5
100
AcDbArc
 50
0.0
 51
90.0
  0
ARC
  5
152B
330
1510
100
AcDbEntity
  8
太線
100
AcDbCircle
 10
99.46449954387617
 20
86.43930390144641
 30
0.0
 40
0.5
100
AcDbArc
 50
0.0
 51
90.0
  0
LINE
  5
152C
330
1510
100
AcDbEntity
  8
極太線
100
AcDbLine
 10
96.94645875977847
 20
85.99813309011318
 30
0.0
 11
96.94645875977847
 21
84.88047471277964
 31
0.0
  0
ARC
  5
152D
330
1510
100
AcDbEntity
  8
太線
100
AcDbCircle
 10
112.4464587597784
 20
81.43930390144641
 30
0.0
 40
0.5
100
AcDbArc
 50
90.0
 51
180.0
  0
TEXT
  5
152E
330
1510
100
AcDbEntity
  8
文字
100
AcDbText
 10
134.3819212586066
 20
78.16263579228063
 30
0.0
 40
2.0
  1
101
 51
15.0
  7
OKANO
100
AcDbText
  0
TEXT
  5
152F
330
1510
100
AcDbEntity
  8
文字
100
AcDbText
 10
113.3422276612066
 20
77.96976862235396
 30
0.0
 40
2.0
  1
38-83
 51
15.0
  7
OKANO
100
AcDbText
  0
LINE
  5
1530
330
1510
100
AcDbEntity
  8
太線
100
AcDbLine
 10
141.9825403279738
 20
77.4393039014464
 30
0.0
 11
141.9825403279738
 21
81.43930390144641
 31
0.0
  0
LINE
  5
1531
330
1510
100
AcDbEntity
  8
太線
100
AcDbLine
 10
131.9644995438761
 20
81.43930390144641
 30
0.0
 11
131.9644995438761
 21
77.4393039014464
 31
0.0
  0
LINE
  5
1532
330
1510
100
AcDbEntity
  8
太線
100
AcDbLine
 10
121.9644995438761
 20
77.4393039014464
 30
0.0
 11
121.9644995438761
 21
81.43930390144641
 31
0.0
  0
ARC
  5
1533
330
1510
100
AcDbEntity
  8
太線
100
AcDbCircle
 10
121.4644995438761
 20
77.4393039014464
 30
0.0
 40
0.5
100
AcDbArc
 50
270.0
 51
0.0
  0
LINE
  5
1534
330
1510
100
AcDbEntity
  8
太線
100
AcDbLine
 10
132.4644995438761
 20
76.9393039014464
 30
0.0
 11
141.4825403279738
 21
76.9393039014464
 31
0.0
  0
ARC
  5
1535
330
1510
100
AcDbEntity
  8
太線
100
AcDbCircle
 10
132.4644995438761
 20
77.4393039014464
 30
0.0
 40
0.5
100
AcDbArc
 50
180.0
 51
270.0
  0
ARC
  5
1536
330
1510
100
AcDbEntity
  8
太線
100
AcDbCircle
 10
141.4825403279738
 20
77.4393039014464
 30
0.0
 40
0.5
100
AcDbArc
 50
270.0
 51
0.0
  0
ARC
  5
1537
330
1510
100
AcDbEntity
  8
太線
100
AcDbCircle
 10
121.4644995438761
 20
81.43930390144641
 30
0.0
 40
0.5
100
AcDbArc
 50
0.0
 51
90.0
  0
LINE
  5
1538
330
1510
100
AcDbEntity
  8
太線
100
AcDbLine
 10
119.9644995438761
 20
81.93930390144641
 30
0.0
 11
119.9644995438761
 21
86.43930390144641
 31
0.0
  0
LINE
  5
1539
330
1510
100
AcDbEntity
  8
太線
100
AcDbLine
 10
113.9464587597784
 20
86.43930390144641
 30
0.0
 11
113.9464587597784
 21
81.93930390144641
 31
0.0
  0
LINE
  5
153A
330
1510
100
AcDbEntity
  8
想像線
100
AcDbLine
 10
113.9464587597784
 20
81.93930390144641
 30
0.0
 11
119.9644995438761
 21
81.93930390144641
 31
0.0
  0
LINE
  5
153B
330
1510
100
AcDbEntity
  8
太線
100
AcDbLine
 10
121.4644995438761
 20
81.93930390144641
 30
0.0
 11
119.9644995438761
 21
81.93930390144641
 31
0.0
  0
LINE
  5
153C
330
1510
100
AcDbEntity
  8
太線
100
AcDbLine
 10
119.4644995438761
 20
86.93930390144641
 30
0.0
 11
114.4464587597784
 21
86.93930390144641
 31
0.0
  0
ARC
  5
153D
330
1510
100
AcDbEntity
  8
太線
100
AcDbCircle
 10
114.4464587597784
 20
86.43930390144641
 30
0.0
 40
0.5
100
AcDbArc
 50
90.0
 51
180.0
  0
CIRCLE
  5
153E
330
1510
100
AcDbEntity
  8
太線
100
AcDbCircle
 10
115.4464587597784
 20
85.43930390144641
 30
0.0
 40
0.5588291886667776
  0
LINE
  5
153F
330
1510
100
AcDbEntity
  8
極太線
100
AcDbLine
 10
115.4464587597784
 20
85.99813309011318
 30
0.0
 11
115.4464587597784
 21
84.88047471277964
 31
0.0
  0
LINE
  5
1540
330
1510
100
AcDbEntity
  8
極太線
100
AcDbLine
 10
114.8876295711116
 20
85.43930390144641
 30
0.0
 11
116.0052879484452
 21
85.43930390144641
 31
0.0
  0
ARC
  5
1541
330
1510
100
AcDbEntity
  8
太線
100
AcDbCircle
 10
119.4644995438761
 20
86.43930390144641
 30
0.0
 40
0.5
100
AcDbArc
 50
0.0
 51
90.0
  0
LINE
  5
1542
330
1510
100
AcDbEntity
  8
極太線
100
AcDbLine
 10
117.9056703552094
 20
85.43930390144641
 30
0.0
 11
119.0233287325429
 21
85.43930390144641
 31
0.0
  0
LINE
  5
1543
330
1510
100
AcDbEntity
  8
極太線
100
AcDbLine
 10
118.4644995438761
 20
85.99813309011318
 30
0.0
 11
118.4644995438761
 21
84.88047471277964
 31
0.0
  0
CIRCLE
  5
1544
330
1510
100
AcDbEntity
  8
太線
100
AcDbCircle
 10
118.4644995438761
 20
85.43930390144641
 30
0.0
 40
0.5588291886667776
  0
LINE
  5
1545
330
1510
100
AcDbEntity
  8
想像線
100
AcDbLine
 10
133.9644995438761
 20
81.93930390144641
 30
0.0
 11
139.9825403279738
 21
81.93930390144641
 31
0.0
  0
LINE
  5
1546
330
1510
100
AcDbEntity
  8
極太線
100
AcDbLine
 10
137.9237111393071
 20
85.43930390144641
 30
0.0
 11
139.0413695166406
 21
85.43930390144641
 31
0.0
  0
CIRCLE
  5
1547
330
1510
100
AcDbEntity
  8
太線
100
AcDbCircle
 10
138.4825403279738
 20
85.43930390144641
 30
0.0
 40
0.5588291886667776
  0
CIRCLE
  5
1548
330
1510
100
AcDbEntity
  8
太線
100
AcDbCircle
 10
138.4825403279738
 20
83.26342923362075
 30
0.0
 40
0.5588291886667776
  0
LINE
  5
1549
330
1510
100
AcDbEntity
  8
極太線
100
AcDbLine
 10
137.9237111393071
 20
83.26342923362075
 30
0.0
 11
139.0413695166406
 21
83.26342923362075
 31
0.0
  0
LINE
  5
154A
330
1510
100
AcDbEntity
  8
太線
100
AcDbLine
 10
139.4825403279738
 20
86.93930390144641
 30
0.0
 11
134.4644995438761
 21
86.93930390144641
 31
0.0
  0
LINE
  5
154B
330
1510
100
AcDbEntity
  8
太線
100
AcDbLine
 10
133.9644995438761
 20
86.43930390144641
 30
0.0
 11
133.9644995438761
 21
81.93930390144641
 31
0.0
  0
ARC
  5
154C
330
1510
100
AcDbEntity
  8
太線
100
AcDbCircle
 10
132.4644995438761
 20
81.43930390144641
 30
0.0
 40
0.5
100
AcDbArc
 50
90.0
 51
180.0
  0
LINE
  5
154D
330
1510
100
AcDbEntity
  8
太線
100
AcDbLine
 10
133.9644995438761
 20
81.93930390144641
 30
0.0
 11
132.4644995438761
 21
81.93930390144641
 31
0.0
  0
LINE
  5
154E
330
1510
100
AcDbEntity
  8
極太線
100
AcDbLine
 10
134.9056703552093
 20
83.26342923362075
 30
0.0
 11
136.0233287325429
 21
83.26342923362075
 31
0.0
  0
LINE
  5
154F
330
1510
100
AcDbEntity
  8
極太線
100
AcDbLine
 10
135.4644995438761
 20
83.82225842228752
 30
0.0
 11
135.4644995438761
 21
82.70460004495395
 31
0.0
  0
CIRCLE
  5
1550
330
1510
100
AcDbEntity
  8
太線
100
AcDbCircle
 10
135.4644995438761
 20
83.26342923362075
 30
0.0
 40
0.5588291886667776
  0
ARC
  5
1551
330
1510
100
AcDbEntity
  8
太線
100
AcDbCircle
 10
134.4644995438761
 20
86.43930390144641
 30
0.0
 40
0.5
100
AcDbArc
 50
90.0
 51
180.0
  0
CIRCLE
  5
1552
330
1510
100
AcDbEntity
  8
太線
100
AcDbCircle
 10
135.4644995438761
 20
85.43930390144641
 30
0.0
 40
0.5588291886667776
  0
LINE
  5
1553
330
1510
100
AcDbEntity
  8
極太線
100
AcDbLine
 10
135.4644995438761
 20
85.99813309011318
 30
0.0
 11
135.4644995438761
 21
84.88047471277964
 31
0.0
  0
LINE
  5
1554
330
1510
100
AcDbEntity
  8
極太線
100
AcDbLine
 10
134.9056703552093
 20
85.43930390144641
 30
0.0
 11
136.0233287325429
 21
85.43930390144641
 31
0.0
  0
LINE
  5
1555
330
1510
100
AcDbEntity
  8
太線
100
AcDbLine
 10
139.9825403279738
 20
81.93930390144641
 30
0.0
 11
139.9825403279738
 21
86.43930390144641
 31
0.0
  0
ARC
  5
1556
330
1510
100
AcDbEntity
  8
太線
100
AcDbCircle
 10
141.4825403279738
 20
81.43930390144641
 30
0.0
 40
0.5
100
AcDbArc
 50
0.0
 51
90.0
  0
LINE
  5
1557
330
1510
100
AcDbEntity
  8
極太線
100
AcDbLine
 10
138.4825403279738
 20
83.82225842228752
 30
0.0
 11
138.4825403279738
 21
82.70460004495395
 31
0.0
  0
LINE
  5
1558
330
1510
100
AcDbEntity
  8
太線
100
AcDbLine
 10
141.4825403279738
 20
81.93930390144641
 30
0.0
 11
139.9825403279738
 21
81.93930390144641
 31
0.0
  0
ARC
  5
1559
330
1510
100
AcDbEntity
  8
太線
100
AcDbCircle
 10
139.4825403279738
 20
86.43930390144641
 30
0.0
 40
0.5
100
AcDbArc
 50
0.0
 51
90.0
  0
LINE
  5
155A
330
1510
100
AcDbEntity
  8
極太線
100
AcDbLine
 10
138.4825403279738
 20
85.99813309011318
 30
0.0
 11
138.4825403279738
 21
84.88047471277964
 31
0.0
  0
ENDBLK
  5
155C
330
1510
100
AcDbEntity
  8
0
100
AcDbBlockEnd
  0
BLOCK
  5
38C6
330
38BC
100
AcDbEntity
  8
0
100
AcDbBlockBegin
  2
*D2
 70
     1
 10
0.0
 20
0.0
 30
0.0
  3
*D2
  1

  0
LINE
  5
38E2
330
38BC
100
AcDbEntity
  8
寸法線
 62
     0
370
    -2
100
AcDbLine
 10
105.8469716164642
 20
141.1923410589189
 30
0.0
 11
105.8469716164642
 21
196.7163986049265
 31
0.0
  0
LINE
  5
38E3
330
38BC
100
AcDbEntity
  8
寸法線
 62
     0
370
    -2
100
AcDbLine
 10
130.9853593789445
 20
141.1923410589189
 30
0.0
 11
130.9853593789445
 21
196.7163986049265
 31
0.0
  0
LINE
  5
38E4
330
38BC
100
AcDbEntity
  8
寸法線
 62
     0
370
    -2
100
AcDbLine
 10
108.8469716164641
 20
193.7163986049265
 30
0.0
 11
127.9853593789445
 21
193.7163986049265
 31
0.0
  0
INSERT
  5
38E5
330
38BC
100
AcDbEntity
  8
寸法線
 62
     0
370
    -2
100
AcDbBlockReference
  2
_Closed
 10
105.8469716164642
 20
193.7163986049265
 30
0.0
 41
3.0
 42
3.0
 43
3.0
 50
180.0
  0
INSERT
  5
38E6
330
38BC
100
AcDbEntity
  8
寸法線
 62
     0
370
    -2
100
AcDbBlockReference
  2
_Closed
 10
130.9853593789445
 20
193.7163986049265
 30
0.0
 41
3.0
 42
3.0
 43
3.0
  0
MTEXT
  5
38E7
330
38BC
100
AcDbEntity
  8
寸法線
 62
     0
100
AcDbMText
 10
118.4161654977043
 20
197.2168907309108
 30
0.0
 40
5.0
 41
0.0
 71
     5
 72
     1
  1
25
  7
OKANO
 73
     1
 44
1.0
  0
POINT
  5
38E8
330
38BC
100
AcDbEntity
  8
Defpoints
 62
     0
100
AcDbPoint
 10
105.8469716164642
 20
139.1923410589189
 30
0.0
  0
POINT
  5
38E9
330
38BC
100
AcDbEntity
  8
Defpoints
 62
     0
100
AcDbPoint
 10
130.9853593789445
 20
139.1923410589189
 30
0.0
  0
POINT
  5
38EA
330
38BC
100
AcDbEntity
  8
Defpoints
 62
     0
100
AcDbPoint
 10
130.9853593789445
 20
193.7163986049265
 30
0.0
  0
ENDBLK
  5
38C7
330
38BC
100
AcDbEntity
  8
0
100
AcDbBlockEnd
  0
BLOCK
  5
38D4
330
38C9
100
AcDbEntity
  8
0
100
AcDbBlockBegin
  2
*D3
 70
     1
 10
0.0
 20
0.0
 30
0.0
  3
*D3
  1

  0
LINE
  5
38EB
330
38C9
100
AcDbEntity
  8
寸法線
 62
     0
370
    -2
100
AcDbLine
 10
131.1459650701973
 20
144.0933804251017
 30
0.0
 11
165.8681929401637
 21
144.0933804251017
 31
0.0
  0
LINE
  5
38EC
330
38C9
100
AcDbEntity
  8
寸法線
 62
     0
370
    -2
100
AcDbLine
 10
131.1459650701973
 20
133.6786727253943
 30
0.0
 11
165.8681929401637
 21
133.6786727253943
 31
0.0
  0
LINE
  5
38ED
330
38C9
100
AcDbEntity
  8
寸法線
 62
     0
370
    -2
100
AcDbLine
 10
162.8681929401637
 20
141.0933804251017
 30
0.0
 11
162.8681929401637
 21
136.6786727253943
 31
0.0
  0
INSERT
  5
38EE
330
38C9
100
AcDbEntity
  8
寸法線
 62
     0
370
    -2
100
AcDbBlockReference
  2
_Closed
 10
162.8681929401637
 20
144.0933804251017
 30
0.0
 41
3.0
 42
3.0
 43
3.0
 50
90.0
  0
INSERT
  5
38EF
330
38C9
100
AcDbEntity
  8
寸法線
 62
     0
370
    -2
100
AcDbBlockReference
  2
_Closed
 10
162.8681929401637
 20
133.6786727253943
 30
0.0
 41
3.0
 42
3.0
 43
3.0
 50
270.0
  0
MTEXT
  5
38F0
330
38C9
100
AcDbEntity
  8
寸法線
 62
     0
100
AcDbMText
 10
159.3681929401637
 20
138.886026575248
 30
0.0
 40
5.0
 41
0.0
 71
     5
 72
     1
  1
11
  7
OKANO
 11
0.0000000000000001
 21
1.0
 31
0.0
 73
     1
 44
1.0
  0
POINT
  5
38F1
330
38C9
100
AcDbEntity
  8
Defpoints
 62
     0
100
AcDbPoint
 10
129.1459650701973
 20
144.0933804251017
 30
0.0
  0
POINT
  5
38F2
330
38C9
100
AcDbEntity
  8
Defpoints
 62
     0
100
AcDbPoint
 10
129.1459650701973
 20
133.6786727253943
 30
0.0
  0
POINT
  5
38F3
330
38C9
100
AcDbEntity
  8
Defpoints
 62
     0
100
AcDbPoint
 10
162.8681929401637
 20
133.6786727253943
 30
0.0
  0
ENDBLK
  5
38D5
330
38C9
100
AcDbEntity
  8
0
100
AcDbBlockEnd
  0
BLOCK
  5
397A
330
396F
100
AcDbEntity
  8
0
100
AcDbBlockBegin
  2
*D4
 70
     1
 10
0.0
 20
0.0
 30
0.0
  3
*D4
  1

  0
LINE
  5
397C
330
396F
100
AcDbEntity
  8
寸法線
 62
     0
370
    -2
100
AcDbLine
 10
131.0671870806763
 20
131.3848521792186
 30
0.0
 11
131.0671870806763
 21
110.1005353196858
 31
0.0
  0
LINE
  5
397D
330
396F
100
AcDbEntity
  8
寸法線
 62
     0
370
    -2
100
AcDbLine
 10
141.2177590238861
 20
131.3848521792186
 30
0.0
 11
141.2177590238861
 21
110.1005353196858
 31
0.0
  0
LINE
  5
397E
330
396F
100
AcDbEntity
  8
寸法線
 62
     0
370
    -2
100
AcDbLine
 10
134.0671870806763
 20
113.1005353196858
 30
0.0
 11
138.2177590238861
 21
113.1005353196858
 31
0.0
  0
INSERT
  5
397F
330
396F
100
AcDbEntity
  8
寸法線
 62
     0
370
    -2
100
AcDbBlockReference
  2
_Closed
 10
131.0671870806763
 20
113.1005353196858
 30
0.0
 41
3.0
 42
3.0
 43
3.0
 50
180.0
  0
INSERT
  5
3980
330
396F
100
AcDbEntity
  8
寸法線
 62
     0
370
    -2
100
AcDbBlockReference
  2
_Closed
 10
141.2177590238861
 20
113.1005353196858
 30
0.0
 41
3.0
 42
3.0
 43
3.0
  0
MTEXT
  5
3981
330
396F
100
AcDbEntity
  8
寸法線
 62
     0
100
AcDbMText
 10
136.1424730522812
 20
116.6005353196858
 30
0.0
 40
5.0
 41
0.0
 71
     5
 72
     1
  1
10
  7
OKANO
 73
     1
 44
1.0
  0
POINT
  5
3982
330
396F
100
AcDbEntity
  8
Defpoints
 62
     0
100
AcDbPoint
 10
131.0671870806763
 20
133.3848521792186
 30
0.0
  0
POINT
  5
3983
330
396F
100
AcDbEntity
  8
Defpoints
 62
     0
100
AcDbPoint
 10
141.2177590238861
 20
133.3848521792186
 30
0.0
  0
POINT
  5
3984
330
396F
100
AcDbEntity
  8
Defpoints
 62
     0
100
AcDbPoint
 10
141.2177590238861
 20
113.1005353196858
 30
0.0
  0
ENDBLK
  5
397B
330
396F
100
AcDbEntity
  8
0
100
AcDbBlockEnd
  0
BLOCK
  5
3AA2
330
3A98
100
AcDbEntity
  8
0
100
AcDbBlockBegin
  2
*D5
 70
     1
 10
0.0
 20
0.0
 30
0.0
  3
*D5
  1

  0
LINE
  5
3A99
330
3A98
100
AcDbEntity
  8
寸法線
 62
     0
370
    -2
100
AcDbLine
 10
195.4718473184598
 20
165.5116988020077
 30
0.0
 11
195.4718473184598
 21
191.2352048119867
 31
0.0
  0
LINE
  5
3A9A
330
3A98
100
AcDbEntity
  8
寸法線
 62
     0
370
    -2
100
AcDbLine
 10
265.4718473184598
 20
165.5116988020077
 30
0.0
 11
265.4718473184598
 21
191.2352048119867
 31
0.0
  0
LINE
  5
3A9B
330
3A98
100
AcDbEntity
  8
寸法線
 62
     0
370
    -2
100
AcDbLine
 10
198.4718473184598
 20
188.2352048119867
 30
0.0
 11
262.4718473184598
 21
188.2352048119867
 31
0.0
  0
INSERT
  5
3A9C
330
3A98
100
AcDbEntity
  8
寸法線
 62
     0
370
    -2
100
AcDbBlockReference
  2
_Closed
 10
195.4718473184598
 20
188.2352048119867
 30
0.0
 41
3.0
 42
3.0
 43
3.0
 50
180.0
  0
INSERT
  5
3A9D
330
3A98
100
AcDbEntity
  8
寸法線
 62
     0
370
    -2
100
AcDbBlockReference
  2
_Closed
 10
265.4718473184598
 20
188.2352048119867
 30
0.0
 41
3.0
 42
3.0
 43
3.0
  0
MTEXT
  5
3A9E
330
3A98
100
AcDbEntity
  8
寸法線
 62
     0
100
AcDbMText
 10
230.4718473184598
 20
191.7352048119867
 30
0.0
 40
5.0
 41
0.0
 71
     5
 72
     1
  1
70
  7
OKANO
 73
     1
 44
1.0
  0
POINT
  5
3A9F
330
3A98
100
AcDbEntity
  8
Defpoints
 62
     0
100
AcDbPoint
 10
195.4718473184598
 20
163.5116988020077
 30
0.0
  0
POINT
  5
3AA0
330
3A98
100
AcDbEntity
  8
Defpoints
 62
     0
100
AcDbPoint
 10
265.4718473184598
 20
163.5116988020077
 30
0.0
  0
POINT
  5
3AA1
330
3A98
100
AcDbEntity
  8
Defpoints
 62
     0
100
AcDbPoint
 10
265.4718473184598
 20
188.2352048119867
 30
0.0
  0
ENDBLK
  5
3AA3
330
3A98
100
AcDbEntity
  8
0
100
AcDbBlockEnd
  0
BLOCK
  5
3ABE
330
3AB4
100
AcDbEntity
  8
0
100
AcDbBlockBegin
  2
*D6
 70
     1
 10
0.0
 20
0.0
 30
0.0
  3
*D6
  1

  0
LINE
  5
3AB5
330
3AB4
100
AcDbEntity
  8
寸法線
 62
     0
370
    -2
100
AcDbLine
 10
266.4718473184598
 20
269.9116988020077
 30
0.0
 11
273.6895521372535
 21
269.9116988020077
 31
0.0
  0
LINE
  5
3AB6
330
3AB4
100
AcDbEntity
  8
寸法線
 62
     0
370
    -2
100
AcDbLine
 10
233.4718473184597
 20
214.9116988020077
 30
0.0
 11
273.6895521372535
 21
214.9116988020077
 31
0.0
  0
LINE
  5
3AB7
330
3AB4
100
AcDbEntity
  8
寸法線
 62
     0
370
    -2
100
AcDbLine
 10
270.6895521372534
 20
266.9116988020077
 30
0.0
 11
270.6895521372534
 21
217.9116988020076
 31
0.0
  0
INSERT
  5
3AB8
330
3AB4
100
AcDbEntity
  8
寸法線
 62
     0
370
    -2
100
AcDbBlockReference
  2
_Closed
 10
270.6895521372534
 20
269.9116988020077
 30
0.0
 41
3.0
 42
3.0
 43
3.0
 50
90.0
  0
INSERT
  5
3AB9
330
3AB4
100
AcDbEntity
  8
寸法線
 62
     0
370
    -2
100
AcDbBlockReference
  2
_Closed
 10
270.6895521372534
 20
214.9116988020077
 30
0.0
 41
3.0
 42
3.0
 43
3.0
 50
270.0
  0
MTEXT
  5
3ABA
330
3AB4
100
AcDbEntity
  8
寸法線
 62
     0
100
AcDbMText
 10
267.1895521372534
 20
242.4116988020077
 30
0.0
 40
5.0
 41
0.0
 71
     5
 72
     1
  1
55
  7
OKANO
 11
0.0000000000000001
 21
1.0
 31
0.0
 73
     1
 44
1.0
  0
POINT
  5
3ABB
330
3AB4
100
AcDbEntity
  8
Defpoints
 62
     0
100
AcDbPoint
 10
264.4718473184598
 20
269.9116988020077
 30
0.0
  0
POINT
  5
3ABC
330
3AB4
100
AcDbEntity
  8
Defpoints
 62
     0
100
AcDbPoint
 10
231.4718473184597
 20
214.9116988020077
 30
0.0
  0
POINT
  5
3ABD
330
3AB4
100
AcDbEntity
  8
Defpoints
 62
     0
100
AcDbPoint
 10
270.6895521372534
 20
214.9116988020077
 30
0.0
  0
ENDBLK
  5
3ABF
330
3AB4
100
AcDbEntity
  8
0
100
AcDbBlockEnd
  0
BLOCK
  5
3ADA
330
3AD0
100
AcDbEntity
  8
0
100
AcDbBlockBegin
  2
*D7
 70
     1
 10
0.0
 20
0.0
 30
0.0
  3
*D7
  1

  0
LINE
  5
3AF6
330
3AD0
100
AcDbEntity
  8
寸法線
 62
     0
370
    -2
100
AcDbLine
 10
86.24231320052286
 20
106.5116988020077
 30
0.0
 11
86.24231320052286
 21
89.94587509718348
 31
0.0
  0
LINE
  5
3AF7
330
3AD0
100
AcDbEntity
  8
寸法線
 62
     0
370
    -2
100
AcDbLine
 10
105.8469716164642
 20
139.1923410589189
 30
0.0
 11
105.8469716164642
 21
89.94587509718348
 31
0.0
  0
LINE
  5
3AF8
330
3AD0
100
AcDbEntity
  8
寸法線
 62
     0
370
    -2
100
AcDbLine
 10
89.24231320052285
 20
92.94587509718349
 30
0.0
 11
102.8469716164642
 21
92.94587509718349
 31
0.0
  0
INSERT
  5
3AF9
330
3AD0
100
AcDbEntity
  8
寸法線
 62
     0
370
    -2
100
AcDbBlockReference
  2
_Closed
 10
86.24231320052286
 20
92.94587509718349
 30
0.0
 41
3.0
 42
3.0
 43
3.0
 50
180.0
  0
INSERT
  5
3AFA
330
3AD0
100
AcDbEntity
  8
寸法線
 62
     0
370
    -2
100
AcDbBlockReference
  2
_Closed
 10
105.8469716164642
 20
92.94587509718349
 30
0.0
 41
3.0
 42
3.0
 43
3.0
  0
MTEXT
  5
3AFB
330
3AD0
100
AcDbEntity
  8
寸法線
 62
     0
100
AcDbMText
 10
96.04464240849353
 20
96.44636722316775
 30
0.0
 40
5.0
 41
0.0
 71
     5
 72
     1
  1
20
  7
OKANO
 73
     1
 44
1.0
  0
POINT
  5
3AFC
330
3AD0
100
AcDbEntity
  8
Defpoints
 62
     0
100
AcDbPoint
 10
86.24231320052286
 20
108.5116988020077
 30
0.0
  0
POINT
  5
3AFD
330
3AD0
100
AcDbEntity
  8
Defpoints
 62
     0
100
AcDbPoint
 10
105.8469716164642
 20
141.1923410589189
 30
0.0
  0
POINT
  5
3AFE
330
3AD0
100
AcDbEntity
  8
Defpoints
 62
     0
100
AcDbPoint
 10
105.8469716164642
 20
92.94587509718349
 30
0.0
  0
ENDBLK
  5
3ADB
330
3AD0
100
AcDbEntity
  8
0
100
AcDbBlockEnd
  0
BLOCK
  5
3AE9
330
3ADD
100
AcDbEntity
  8
0
100
AcDbBlockBegin
  2
*D8
 70
     1
 10
0.0
 20
0.0
 30
0.0
  3
*D8
  1

  0
LINE
  5
3B3D
330
3ADD
100
AcDbEntity
  8
寸法線
 62
     0
370
    -2
100
AcDbLine
 10
198.2218473184598
 20
269.9116988020077
 30
0.0
 11
180.162496143173
 21
269.9116988020077
 31
0.0
  0
LINE
  5
3B3E
330
3ADD
100
AcDbEntity
  8
寸法線
 62
     0
370
    -2
100
AcDbLine
 10
198.2218473184598
 20
274.7116988020077
 30
0.0
 11
180.162496143173
 21
274.7116988020077
 31
0.0
  0
LINE
  5
3B3F
330
3ADD
100
AcDbEntity
  8
寸法線
 62
     0
370
    -2
100
AcDbLine
 10
183.162496143173
 20
266.9116988020077
 30
0.0
 11
183.162496143173
 21
263.9116988020077
 31
0.0
  0
LINE
  5
3B40
330
3ADD
100
AcDbEntity
  8
寸法線
 62
     0
370
    -2
100
AcDbLine
 10
183.162496143173
 20
277.7116988020077
 30
0.0
 11
183.162496143173
 21
285.6674701679477
 31
0.0
  0
LINE
  5
3B41
330
3ADD
100
AcDbEntity
  8
寸法線
 62
     0
370
    -2
100
AcDbLine
 10
183.162496143173
 20
269.9116988020077
 30
0.0
 11
183.162496143173
 21
274.7116988020077
 31
0.0
  0
INSERT
  5
3B42
330
3ADD
100
AcDbEntity
  8
寸法線
 62
     0
370
    -2
100
AcDbBlockReference
  2
_Closed
 10
183.162496143173
 20
269.9116988020077
 30
0.0
 41
3.0
 42
3.0
 43
3.0
 50
90.0
  0
INSERT
  5
3B43
330
3ADD
100
AcDbEntity
  8
寸法線
 62
     0
370
    -2
100
AcDbBlockReference
  2
_Closed
 10
183.162496143173
 20
274.7116988020077
 30
0.0
 41
3.0
 42
3.0
 43
3.0
 50
270.0
  0
MTEXT
  5
3B44
330
3ADD
100
AcDbEntity
  8
寸法線
 62
     0
100
AcDbMText
 10
179.662496143173
 20
283.1895844849777
 30
0.0
 40
5.0
 41
0.0
 71
     5
 72
     1
  1
5
  7
OKANO
 11
0.0000000000000001
 21
1.0
 31
0.0
 73
     1
 44
1.0
  0
POINT
  5
3B45
330
3ADD
100
AcDbEntity
  8
Defpoints
 62
     0
100
AcDbPoint
 10
200.2218473184598
 20
269.9116988020077
 30
0.0
  0
POINT
  5
3B46
330
3ADD
100
AcDbEntity
  8
Defpoints
 62
     0
100
AcDbPoint
 10
200.2218473184598
 20
274.7116988020077
 30
0.0
  0
POINT
  5
3B47
330
3ADD
100
AcDbEntity
  8
Defpoints
 62
     0
100
AcDbPoint
 10
183.162496143173
 20
274.7116988020077
 30
0.0
  0
ENDBLK
  5
3AEA
330
3ADD
100
AcDbEntity
  8
0
100
AcDbBlockEnd
  0
BLOCK
  5
3B09
330
3B00
100
AcDbEntity
  8
0
100
AcDbBlockBegin
  2
*D9
 70
     1
 10
0.0
 20
0.0
 30
0.0
  3
*D9
  1

  0
LINE
  5
3B01
330
3B00
100
AcDbEntity
  8
寸法線
 62
     0
370
    -2
100
AcDbLine
 10
293.0857129132489
 20
149.7626500186842
 30
0.0
 11
263.3758321990214
 21
140.8759160102721
 31
0.0
  0
LINE
  5
3B02
330
3B00
100
AcDbEntity
  8
寸法線
 62
     0
370
    -2
100
AcDbLine
 10
247.5678624378982
 20
136.1474815937432
 30
0.0
 11
244.693686117694
 21
135.2877662452834
 31
0.0
  0
MTEXT
  5
3B03
330
3B00
100
AcDbEntity
  8
寸法線
 62
     0
100
AcDbMText
 10
284.0566655679035
 20
150.7151279150444
 30
0.0
 40
5.0
 41
0.0
 71
     5
 72
     1
  1
\U+220510.5
  7
OKANO
 11
0.9580587734014041
 21
0.2865717828199364
 31
0.0
 73
     1
 44
1.0
  0
LINE
  5
3B04
330
3B00
100
AcDbEntity
  8
寸法線
 62
     0
370
    -2
100
AcDbLine
 10
250.4420387581024
 20
137.007196942203
 30
0.0
 11
260.5016558788172
 21
140.0162006618123
 31
0.0
  0
INSERT
  5
3B05
330
3B00
100
AcDbEntity
  8
寸法線
 62
     0
370
    -2
100
AcDbBlockReference
  2
_Closed
 10
250.4420387581024
 20
137.007196942203
 30
0.0
 41
3.0
 42
3.0
 43
3.0
 50
16.65282452921512
  0
INSERT
  5
3B06
330
3B00
100
AcDbEntity
  8
寸法線
 62
     0
370
    -2
100
AcDbBlockReference
  2
_Closed
 10
260.5016558788172
 20
140.0162006618123
 30
0.0
 41
3.0
 42
3.0
 43
3.0
 50
196.652824529215
  0
POINT
  5
3B07
330
3B00
100
AcDbEntity
  8
Defpoints
 62
     0
100
AcDbPoint
 10
260.5016558788172
 20
140.0162006618123
 30
0.0
  0
POINT
  5
3B08
330
3B00
100
AcDbEntity
  8
Defpoints
 62
     0
100
AcDbPoint
 10
250.4420387581024
 20
137.007196942203
 30
0.0
  0
ENDBLK
  5
3B0A
330
3B00
100
AcDbEntity
  8
0
100
AcDbBlockEnd
  0
BLOCK
  5
3B15
330
3B0C
100
AcDbEntity
  8
0
100
AcDbBlockBegin
  2
*D10
 70
     1
 10
0.0
 20
0.0
 30
0.0
  3
*D10
  1

  0
LINE
  5
3B0D
330
3B0C
100
AcDbEntity
  8
寸法線
 62
     0
370
    -2
100
AcDbLine
 10
285.1477871099863
 20
173.7995339912312
 30
0.0
 11
260.8056778387818
 21
161.2594709869754
 31
0.0
  0
LINE
  5
3B0E
330
3B0C
100
AcDbEntity
  8
寸法線
 62
     0
370
    -2
100
AcDbLine
 10
250.1380167981379
 20
155.76392661704
 30
0.0
 11
247.4711015379769
 21
154.3900405245561
 31
0.0
  0
MTEXT
  5
3B0F
330
3B0C
100
AcDbEntity
  8
寸法線
 62
     0
100
AcDbMText
 10
279.5376783696054
 20
174.8465674931881
 30
0.0
 40
5.0
 41
0.0
 71
     5
 72
     1
  1
\U+22056
  7
OKANO
 11
0.8889717533869912
 21
0.4579620308279483
 31
0.0
 73
     1
 44
1.0
  0
LINE
  5
3B10
330
3B0C
100
AcDbEntity
  8
寸法線
 62
     0
370
    -2
100
AcDbLine
 10
252.8049320582989
 20
157.1378127095238
 30
0.0
 11
258.1387625786208
 21
159.8855848944915
 31
0.0
  0
INSERT
  5
3B11
330
3B0C
100
AcDbEntity
  8
寸法線
 62
     0
370
    -2
100
AcDbBlockReference
  2
_Closed
 10
252.8049320582989
 20
157.1378127095238
 30
0.0
 41
3.0
 42
3.0
 43
3.0
 50
27.2556790662293
  0
INSERT
  5
3B12
330
3B0C
100
AcDbEntity
  8
寸法線
 62
     0
370
    -2
100
AcDbBlockReference
  2
_Closed
 10
258.1387625786208
 20
159.8855848944915
 30
0.0
 41
3.0
 42
3.0
 43
3.0
 50
207.2556790662293
  0
POINT
  5
3B13
330
3B0C
100
AcDbEntity
  8
Defpoints
 62
     0
100
AcDbPoint
 10
258.1387625786208
 20
159.8855848944915
 30
0.0
  0
POINT
  5
3B14
330
3B0C
100
AcDbEntity
  8
Defpoints
 62
     0
100
AcDbPoint
 10
252.8049320582989
 20
157.1378127095238
 30
0.0
  0
ENDBLK
  5
3B16
330
3B0C
100
AcDbEntity
  8
0
100
AcDbBlockEnd
  0
BLOCK
  5
3B21
330
3B18
100
AcDbEntity
  8
0
100
AcDbBlockBegin
  2
*D11
 70
     1
 10
0.0
 20
0.0
 30
0.0
  3
*D11
  1

  0
LINE
  5
3B19
330
3B18
100
AcDbEntity
  8
寸法線
 62
     0
370
    -2
100
AcDbLine
 10
279.1122035558497
 20
156.4981220124677
 30
0.0
 11
260.9520043875936
 21
158.044924233696
 31
0.0
  0
LINE
  5
3B1A
330
3B18
100
AcDbEntity
  8
寸法線
 62
     0
370
    -2
100
AcDbLine
 10
249.9916902493259
 20
158.9784733703193
 30
0.0
 11
247.002513666162
 21
159.2330776803075
 31
0.0
  0
MTEXT
  5
3B1B
330
3B18
100
AcDbEntity
  8
寸法線
 62
     0
100
AcDbMText
 10
274.7985319584691
 20
160.378213756091
 30
0.0
 40
5.0
 41
0.0
 71
     5
 72
     1
  1
\U+22055
  7
OKANO
 11
0.9963921943879686
 21
-0.0848681033293924
 31
0.0
 73
     1
 44
1.0
  0
LINE
  5
3B1C
330
3B18
100
AcDbEntity
  8
寸法線
 62
     0
370
    -2
100
AcDbLine
 10
252.9808668324899
 20
158.7238690603311
 30
0.0
 11
257.9628278044296
 21
158.2995285436842
 31
0.0
  0
INSERT
  5
3B1D
330
3B18
100
AcDbEntity
  8
寸法線
 62
     0
370
    -2
100
AcDbBlockReference
  2
_Closed
 10
252.9808668324899
 20
158.7238690603311
 30
0.0
 41
3.0
 42
3.0
 43
3.0
 50
355.1315596590757
  0
INSERT
  5
3B1E
330
3B18
100
AcDbEntity
  8
寸法線
 62
     0
370
    -2
100
AcDbBlockReference
  2
_Closed
 10
257.9628278044296
 20
158.2995285436842
 30
0.0
 41
3.0
 42
3.0
 43
3.0
 50
175.1315596590758
  0
POINT
  5
3B1F
330
3B18
100
AcDbEntity
  8
Defpoints
 62
     0
100
AcDbPoint
 10
257.9628278044296
 20
158.2995285436842
 30
0.0
  0
POINT
  5
3B20
330
3B18
100
AcDbEntity
  8
Defpoints
 62
     0
100
AcDbPoint
 10
252.9808668324899
 20
158.7238690603311
 30
0.0
  0
ENDBLK
  5
3B22
330
3B18
100
AcDbEntity
  8
0
100
AcDbBlockEnd
  0
BLOCK
  5
3B2E
330
3B24
100
AcDbEntity
  8
0
100
AcDbBlockBegin
  2
*D12
 70
     1
 10
0.0
 20
0.0
 30
0.0
  3
*D12
  1

  0
LINE
  5
3B25
330
3B24
100
AcDbEntity
  8
寸法線
 62
     0
370
    -2
100
AcDbLine
 10
195.4718473184598
 20
111.5116988020077
 30
0.0
 11
195.4718473184598
 21
93.71535908653356
 31
0.0
  0
LINE
  5
3B26
330
3B24
100
AcDbEntity
  8
寸法線
 62
     0
370
    -2
100
AcDbLine
 10
205.4718473184598
 20
116.5116988020077
 30
0.0
 11
205.4718473184598
 21
93.71535908653356
 31
0.0
  0
LINE
  5
3B27
330
3B24
100
AcDbEntity
  8
寸法線
 62
     0
370
    -2
100
AcDbLine
 10
198.4718473184598
 20
96.71535908653357
 30
0.0
 11
202.4718473184598
 21
96.71535908653357
 31
0.0
  0
INSERT
  5
3B28
330
3B24
100
AcDbEntity
  8
寸法線
 62
     0
370
    -2
100
AcDbBlockReference
  2
_Closed
 10
195.4718473184598
 20
96.71535908653357
 30
0.0
 41
3.0
 42
3.0
 43
3.0
 50
180.0
  0
INSERT
  5
3B29
330
3B24
100
AcDbEntity
  8
寸法線
 62
     0
370
    -2
100
AcDbBlockReference
  2
_Closed
 10
205.4718473184598
 20
96.71535908653357
 30
0.0
 41
3.0
 42
3.0
 43
3.0
  0
MTEXT
  5
3B2A
330
3B24
100
AcDbEntity
  8
寸法線
 62
     0
100
AcDbMText
 10
200.4718473184598
 20
100.2153590865335
 30
0.0
 40
5.0
 41
0.0
 71
     5
 72
     1
  1
10
  7
OKANO
 73
     1
 44
1.0
  0
POINT
  5
3B2B
330
3B24
100
AcDbEntity
  8
Defpoints
 62
     0
100
AcDbPoint
 10
195.4718473184598
 20
113.5116988020077
 30
0.0
  0
POINT
  5
3B2C
330
3B24
100
AcDbEntity
  8
Defpoints
 62
     0
100
AcDbPoint
 10
205.4718473184598
 20
118.5116988020077
 30
0.0
  0
POINT
  5
3B2D
330
3B24
100
AcDbEntity
  8
Defpoints
 62
     0
100
AcDbPoint
 10
205.4718473184598
 20
96.71535908653357
 30
0.0
  0
ENDBLK
  5
3B2F
330
3B24
100
AcDbEntity
  8
0
100
AcDbBlockEnd
  0
BLOCK
  5
3B3B
330
3B31
100
AcDbEntity
  8
0
100
AcDbBlockBegin
  2
*D13
 70
     1
 10
0.0
 20
0.0
 30
0.0
  3
*D13
  1

  0
LINE
  5
3B32
330
3B31
100
AcDbEntity
  8
寸法線
 62
     0
370
    -2
100
AcDbLine
 10
198.4718473184598
 20
108.5116988020077
 30
0.0
 11
180.9002535771399
 21
108.5116988020077
 31
0.0
  0
LINE
  5
3B33
330
3B31
100
AcDbEntity
  8
寸法線
 62
     0
370
    -2
100
AcDbLine
 10
203.4718473184598
 20
118.5116988020077
 30
0.0
 11
180.9002535771399
 21
118.5116988020077
 31
0.0
  0
LINE
  5
3B34
330
3B31
100
AcDbEntity
  8
寸法線
 62
     0
370
    -2
100
AcDbLine
 10
183.9002535771399
 20
111.5116988020077
 30
0.0
 11
183.9002535771399
 21
115.5116988020077
 31
0.0
  0
INSERT
  5
3B35
330
3B31
100
AcDbEntity
  8
寸法線
 62
     0
370
    -2
100
AcDbBlockReference
  2
_Closed
 10
183.9002535771399
 20
108.5116988020077
 30
0.0
 41
3.0
 42
3.0
 43
3.0
 50
270.0
  0
INSERT
  5
3B36
330
3B31
100
AcDbEntity
  8
寸法線
 62
     0
370
    -2
100
AcDbBlockReference
  2
_Closed
 10
183.9002535771399
 20
118.5116988020077
 30
0.0
 41
3.0
 42
3.0
 43
3.0
 50
90.0
  0
MTEXT
  5
3B37
330
3B31
100
AcDbEntity
  8
寸法線
 62
     0
100
AcDbMText
 10
180.4002535771398
 20
113.5116988020077
 30
0.0
 40
5.0
 41
0.0
 71
     5
 72
     1
  1
10
  7
OKANO
 11
0.0000000000000001
 21
1.0
 31
0.0
 73
     1
 44
1.0
  0
POINT
  5
3B38
330
3B31
100
AcDbEntity
  8
Defpoints
 62
     0
100
AcDbPoint
 10
200.4718473184598
 20
108.5116988020077
 30
0.0
  0
POINT
  5
3B39
330
3B31
100
AcDbEntity
  8
Defpoints
 62
     0
100
AcDbPoint
 10
205.4718473184598
 20
118.5116988020077
 30
0.0
  0
POINT
  5
3B3A
330
3B31
100
AcDbEntity
  8
Defpoints
 62
     0
100
AcDbPoint
 10
183.9002535771399
 20
118.5116988020077
 30
0.0
  0
ENDBLK
  5
3B3C
330
3B31
100
AcDbEntity
  8
0
100
AcDbBlockEnd
  0
BLOCK
  5
3B53
330
3B49
100
AcDbEntity
  8
0
100
AcDbBlockBegin
  2
*D14
 70
     1
 10
0.0
 20
0.0
 30
0.0
  3
*D14
  1

  0
LINE
  5
3B4A
330
3B49
100
AcDbEntity
  8
寸法線
 62
     0
370
    -2
100
AcDbLine
 10
81.24231320052286
 20
108.5116988020077
 30
0.0
 11
54.21872691788779
 21
108.5116988020077
 31
0.0
  0
LINE
  5
3B4B
330
3B49
100
AcDbEntity
  8
寸法線
 62
     0
370
    -2
100
AcDbLine
 10
81.24231320052286
 20
168.5116988020077
 30
0.0
 11
54.21872691788781
 21
168.5116988020077
 31
0.0
  0
LINE
  5
3B4C
330
3B49
100
AcDbEntity
  8
寸法線
 62
     0
370
    -2
100
AcDbLine
 10
57.21872691788779
 20
111.5116988020077
 30
0.0
 11
57.21872691788781
 21
165.5116988020077
 31
0.0
  0
INSERT
  5
3B4D
330
3B49
100
AcDbEntity
  8
寸法線
 62
     0
370
    -2
100
AcDbBlockReference
  2
_Closed
 10
57.21872691788779
 20
108.5116988020077
 30
0.0
 41
3.0
 42
3.0
 43
3.0
 50
270.0
  0
INSERT
  5
3B4E
330
3B49
100
AcDbEntity
  8
寸法線
 62
     0
370
    -2
100
AcDbBlockReference
  2
_Closed
 10
57.21872691788781
 20
168.5116988020077
 30
0.0
 41
3.0
 42
3.0
 43
3.0
 50
90.0
  0
MTEXT
  5
3B4F
330
3B49
100
AcDbEntity
  8
寸法線
 62
     0
100
AcDbMText
 10
53.71872691788778
 20
138.5116988020077
 30
0.0
 40
5.0
 41
0.0
 71
     5
 72
     1
  1
60
  7
OKANO
 11
0.0000000000000001
 21
1.0
 31
0.0
 73
     1
 44
1.0
  0
POINT
  5
3B50
330
3B49
100
AcDbEntity
  8
Defpoints
 62
     0
100
AcDbPoint
 10
83.24231320052286
 20
108.5116988020077
 30
0.0
  0
POINT
  5
3B51
330
3B49
100
AcDbEntity
  8
Defpoints
 62
     0
100
AcDbPoint
 10
83.24231320052286
 20
168.5116988020077
 30
0.0
  0
POINT
  5
3B52
330
3B49
100
AcDbEntity
  8
Defpoints
 62
     0
100
AcDbPoint
 10
57.21872691788781
 20
168.5116988020077
 30
0.0
  0
ENDBLK
  5
3B54
330
3B49
100
AcDbEntity
  8
0
100
AcDbBlockEnd
  0
BLOCK
  5
3B62
330
3B56
100
AcDbEntity
  8
0
100
AcDbBlockBegin
  2
*D15
 70
     1
 10
0.0
 20
0.0
 30
0.0
  3
*D15
  1

  0
LINE
  5
3B57
330
3B56
100
AcDbEntity
  8
寸法線
 62
     0
370
    -2
100
AcDbLine
 10
228.4718473184598
 20
106.5116988020077
 30
0.0
 11
228.4718473184598
 21
84.68748116759275
 31
0.0
  0
LINE
  5
3B58
330
3B56
100
AcDbEntity
  8
寸法線
 62
     0
370
    -2
100
AcDbLine
 10
232.4718473184598
 20
106.5116988020077
 30
0.0
 11
232.4718473184598
 21
84.68748116759275
 31
0.0
  0
LINE
  5
3B59
330
3B56
100
AcDbEntity
  8
寸法線
 62
     0
370
    -2
100
AcDbLine
 10
225.4718473184598
 20
87.68748116759274
 30
0.0
 11
222.4718473184598
 21
87.68748116759274
 31
0.0
  0
LINE
  5
3B5A
330
3B56
100
AcDbEntity
  8
寸法線
 62
     0
370
    -2
100
AcDbLine
 10
235.4718473184598
 20
87.68748116759274
 30
0.0
 11
242.9718473184598
 21
87.68748116759274
 31
0.0
  0
LINE
  5
3B5B
330
3B56
100
AcDbEntity
  8
寸法線
 62
     0
370
    -2
100
AcDbLine
 10
228.4718473184598
 20
87.68748116759274
 30
0.0
 11
232.4718473184598
 21
87.68748116759274
 31
0.0
  0
INSERT
  5
3B5C
330
3B56
100
AcDbEntity
  8
寸法線
 62
     0
370
    -2
100
AcDbBlockReference
  2
_Closed
 10
228.4718473184598
 20
87.68748116759274
 30
0.0
 41
3.0
 42
3.0
 43
3.0
  0
INSERT
  5
3B5D
330
3B56
100
AcDbEntity
  8
寸法線
 62
     0
370
    -2
100
AcDbBlockReference
  2
_Closed
 10
232.4718473184598
 20
87.68748116759274
 30
0.0
 41
3.0
 42
3.0
 43
3.0
 50
180.0
  0
MTEXT
  5
3B5E
330
3B56
100
AcDbEntity
  8
寸法線
 62
     0
100
AcDbMText
 10
240.7218473184598
 20
91.18748116759276
 30
0.0
 40
5.0
 41
0.0
 71
     5
 72
     1
  1
4
  7
OKANO
 73
     1
 44
1.0
  0
POINT
  5
3B5F
330
3B56
100
AcDbEntity
  8
Defpoints
 62
     0
100
AcDbPoint
 10
228.4718473184598
 20
108.5116988020077
 30
0.0
  0
POINT
  5
3B60
330
3B56
100
AcDbEntity
  8
Defpoints
 62
     0
100
AcDbPoint
 10
232.4718473184598
 20
108.5116988020077
 30
0.0
  0
POINT
  5
3B61
330
3B56
100
AcDbEntity
  8
Defpoints
 62
     0
100
AcDbPoint
 10
232.4718473184598
 20
87.68748116759274
 30
0.0
  0
ENDBLK
  5
3B63
330
3B56
100
AcDbEntity
  8
0
100
AcDbBlockEnd
  0
BLOCK
  5
3B71
330
3B65
100
AcDbEntity
  8
0
100
AcDbBlockBegin
  2
*D16
 70
     1
 10
0.0
 20
0.0
 30
0.0
  3
*D16
  1

  0
LINE
  5
3B66
330
3B65
100
AcDbEntity
  8
寸法線
 62
     0
370
    -2
100
AcDbLine
 10
81.24231320052286
 20
170.5116988020077
 30
0.0
 11
81.24231320052286
 21
194.5287741170543
 31
0.0
  0
LINE
  5
3B67
330
3B65
100
AcDbEntity
  8
寸法線
 62
     0
370
    -2
100
AcDbLine
 10
86.24231320052286
 20
170.5116988020077
 30
0.0
 11
86.24231320052286
 21
194.5287741170543
 31
0.0
  0
LINE
  5
3B68
330
3B65
100
AcDbEntity
  8
寸法線
 62
     0
370
    -2
100
AcDbLine
 10
78.24231320052286
 20
191.5287741170543
 30
0.0
 11
75.24231320052286
 21
191.5287741170543
 31
0.0
  0
LINE
  5
3B69
330
3B65
100
AcDbEntity
  8
寸法線
 62
     0
370
    -2
100
AcDbLine
 10
89.24231320052285
 20
191.5287741170543
 30
0.0
 11
92.24231320052286
 21
191.5287741170543
 31
0.0
  0
LINE
  5
3B6A
330
3B65
100
AcDbEntity
  8
寸法線
 62
     0
370
    -2
100
AcDbLine
 10
81.24231320052286
 20
191.5287741170543
 30
0.0
 11
86.24231320052286
 21
191.5287741170543
 31
0.0
  0
INSERT
  5
3B6B
330
3B65
100
AcDbEntity
  8
寸法線
 62
     0
370
    -2
100
AcDbBlockReference
  2
_Closed
 10
81.24231320052286
 20
191.5287741170543
 30
0.0
 41
3.0
 42
3.0
 43
3.0
  0
INSERT
  5
3B6C
330
3B65
100
AcDbEntity
  8
寸法線
 62
     0
370
    -2
100
AcDbBlockReference
  2
_Closed
 10
86.24231320052286
 20
191.5287741170543
 30
0.0
 41
3.0
 42
3.0
 43
3.0
 50
180.0
  0
MTEXT
  5
3B6D
330
3B65
100
AcDbEntity
  8
寸法線
 62
     0
100
AcDbMText
 10
83.74231320052286
 20
195.0287741170543
 30
0.0
 40
5.0
 41
0.0
 71
     5
 72
     1
  1
5
  7
OKANO
 73
     1
 44
1.0
  0
POINT
  5
3B6E
330
3B65
100
AcDbEntity
  8
Defpoints
 62
     0
100
AcDbPoint
 10
81.24231320052286
 20
168.5116988020077
 30
0.0
  0
POINT
  5
3B6F
330
3B65
100
AcDbEntity
  8
Defpoints
 62
     0
100
AcDbPoint
 10
86.24231320052286
 20
168.5116988020077
 30
0.0
  0
POINT
  5
3B70
330
3B65
100
AcDbEntity
  8
Defpoints
 62
     0
100
AcDbPoint
 10
86.24231320052286
 20
191.5287741170543
 30
0.0
  0
ENDBLK
  5
3B72
330
3B65
100
AcDbEntity
  8
0
100
AcDbBlockEnd
  0
BLOCK
  5
3B8B
330
3B7F
100
AcDbEntity
  8
0
100
AcDbBlockBegin
  2
*D17
 70
     1
 10
0.0
 20
0.0
 30
0.0
  3
*D17
  1

  0
LINE
  5
3B80
330
3B7F
100
AcDbEntity
  8
寸法線
 62
     0
370
    -2
100
AcDbLine
 10
86.24231320052286
 20
148.5116988020077
 30
0.0
 11
86.24231320052286
 21
138.5201163232753
 31
0.0
  0
LINE
  5
3B81
330
3B7F
100
AcDbEntity
  8
寸法線
 62
     0
370
    -2
100
AcDbLine
 10
92.24231320052286
 20
148.5116988020077
 30
0.0
 11
92.24231320052286
 21
138.5201163232753
 31
0.0
  0
LINE
  5
3B82
330
3B7F
100
AcDbEntity
  8
寸法線
 62
     0
370
    -2
100
AcDbLine
 10
83.24231320052286
 20
141.5201163232753
 30
0.0
 11
80.24231320052285
 21
141.5201163232753
 31
0.0
  0
LINE
  5
3B83
330
3B7F
100
AcDbEntity
  8
寸法線
 62
     0
370
    -2
100
AcDbLine
 10
95.24231320052285
 20
141.5201163232753
 30
0.0
 11
98.24231320052286
 21
141.5201163232753
 31
0.0
  0
LINE
  5
3B84
330
3B7F
100
AcDbEntity
  8
寸法線
 62
     0
370
    -2
100
AcDbLine
 10
86.24231320052286
 20
141.5201163232753
 30
0.0
 11
92.24231320052286
 21
141.5201163232753
 31
0.0
  0
INSERT
  5
3B85
330
3B7F
100
AcDbEntity
  8
寸法線
 62
     0
370
    -2
100
AcDbBlockReference
  2
_Closed
 10
86.24231320052286
 20
141.5201163232753
 30
0.0
 41
3.0
 42
3.0
 43
3.0
  0
INSERT
  5
3B86
330
3B7F
100
AcDbEntity
  8
寸法線
 62
     0
370
    -2
100
AcDbBlockReference
  2
_Closed
 10
92.24231320052286
 20
141.5201163232753
 30
0.0
 41
3.0
 42
3.0
 43
3.0
 50
180.0
  0
MTEXT
  5
3B87
330
3B7F
100
AcDbEntity
  8
寸法線
 62
     0
100
AcDbMText
 10
89.24231320052285
 20
145.0201163232753
 30
0.0
 40
5.0
 41
0.0
 71
     5
 72
     1
  1
6
  7
OKANO
 73
     1
 44
1.0
  0
POINT
  5
3B88
330
3B7F
100
AcDbEntity
  8
Defpoints
 62
     0
100
AcDbPoint
 10
86.24231320052286
 20
150.5116988020077
 30
0.0
  0
POINT
  5
3B89
330
3B7F
100
AcDbEntity
  8
Defpoints
 62
     0
100
AcDbPoint
 10
92.24231320052286
 20
150.5116988020077
 30
0.0
  0
POINT
  5
3B8A
330
3B7F
100
AcDbEntity
  8
Defpoints
 62
     0
100
AcDbPoint
 10
92.24231320052286
 20
141.5201163232753
 30
0.0
  0
ENDBLK
  5
3B8C
330
3B7F
100
AcDbEntity
  8
0
100
AcDbBlockEnd
  0
BLOCK
  5
3B9A
330
3B8E
100
AcDbEntity
  8
0
100
AcDbBlockBegin
  2
*D18
 70
     1
 10
0.0
 20
0.0
 30
0.0
  3
*D18
  1

  0
LINE
  5
3B8F
330
3B8E
100
AcDbEntity
  8
寸法線
 62
     0
370
    -2
100
AcDbLine
 10
94.24231320052285
 20
150.5116988020077
 30
0.0
 11
103.8638010880785
 21
150.5116988020077
 31
0.0
  0
LINE
  5
3B90
330
3B8E
100
AcDbEntity
  8
寸法線
 62
     0
370
    -2
100
AcDbLine
 10
94.24231320052285
 20
154.5116988020077
 30
0.0
 11
103.8638010880785
 21
154.5116988020077
 31
0.0
  0
LINE
  5
3B91
330
3B8E
100
AcDbEntity
  8
寸法線
 62
     0
370
    -2
100
AcDbLine
 10
100.8638010880785
 20
147.5116988020077
 30
0.0
 11
100.8638010880785
 21
144.5116988020077
 31
0.0
  0
LINE
  5
3B92
330
3B8E
100
AcDbEntity
  8
寸法線
 62
     0
370
    -2
100
AcDbLine
 10
100.8638010880785
 20
157.5116988020077
 30
0.0
 11
100.8638010880785
 21
165.0116988020077
 31
0.0
  0
LINE
  5
3B93
330
3B8E
100
AcDbEntity
  8
寸法線
 62
     0
370
    -2
100
AcDbLine
 10
100.8638010880785
 20
150.5116988020077
 30
0.0
 11
100.8638010880785
 21
154.5116988020077
 31
0.0
  0
INSERT
  5
3B94
330
3B8E
100
AcDbEntity
  8
寸法線
 62
     0
370
    -2
100
AcDbBlockReference
  2
_Closed
 10
100.8638010880785
 20
150.5116988020077
 30
0.0
 41
3.0
 42
3.0
 43
3.0
 50
90.0
  0
INSERT
  5
3B95
330
3B8E
100
AcDbEntity
  8
寸法線
 62
     0
370
    -2
100
AcDbBlockReference
  2
_Closed
 10
100.8638010880785
 20
154.5116988020077
 30
0.0
 41
3.0
 42
3.0
 43
3.0
 50
270.0
  0
MTEXT
  5
3B96
330
3B8E
100
AcDbEntity
  8
寸法線
 62
     0
100
AcDbMText
 10
97.3638010880785
 20
162.7616988020077
 30
0.0
 40
5.0
 41
0.0
 71
     5
 72
     1
  1
4
  7
OKANO
 11
0.0000000000000001
 21
1.0
 31
0.0
 73
     1
 44
1.0
  0
POINT
  5
3B97
330
3B8E
100
AcDbEntity
  8
Defpoints
 62
     0
100
AcDbPoint
 10
92.24231320052286
 20
150.5116988020077
 30
0.0
  0
POINT
  5
3B98
330
3B8E
100
AcDbEntity
  8
Defpoints
 62
     0
100
AcDbPoint
 10
92.24231320052286
 20
154.5116988020077
 30
0.0
  0
POINT
  5
3B99
330
3B8E
100
AcDbEntity
  8
Defpoints
 62
     0
100
AcDbPoint
 10
100.8638010880785
 20
154.5116988020077
 30
0.0
  0
ENDBLK
  5
3B9B
330
3B8E
100
AcDbEntity
  8
0
100
AcDbBlockEnd
  0
BLOCK
  5
3BAF
330
3BA6
100
AcDbEntity
  8
0
100
AcDbBlockBegin
  2
*D20
 70
     1
 10
0.0
 20
0.0
 30
0.0
  3
*D20
  1

  0
LINE
  5
3BA7
330
3BA6
100
AcDbEntity
  8
寸法線
 62
     0
370
    -2
100
AcDbLine
 10
123.9297224594175
 20
96.66532325614497
 30
0.0
 11
94.31930401822317
 21
115.3141740973359
 31
0.0
  0
LINE
  5
3BA8
330
3BA6
100
AcDbEntity
  8
寸法線
 62
     0
370
    -2
100
AcDbLine
 10
84.16532238282256
 20
121.7092235066795
 30
0.0
 11
81.62682697397238
 21
123.3079858590154
 31
0.0
  0
MTEXT
  5
3BA9
330
3BA6
100
AcDbEntity
  8
寸法線
 62
     0
100
AcDbMText
 10
121.9806640985307
 20
102.0291624352194
 30
0.0
 40
5.0
 41
0.0
 71
     5
 72
     1
  1
\U+22056
  7
OKANO
 11
0.846165136283386
 21
-0.5329207841119717
 31
0.0
 73
     1
 44
1.0
  0
LINE
  5
3BAA
330
3BA6
100
AcDbEntity
  8
寸法線
 62
     0
370
    -2
100
AcDbLine
 10
86.7038177916727
 20
120.1104611543436
 30
0.0
 11
91.78080860937301
 21
116.9129364496718
 31
0.0
  0
INSERT
  5
3BAB
330
3BA6
100
AcDbEntity
  8
寸法線
 62
     0
370
    -2
100
AcDbBlockReference
  2
_Closed
 10
86.7038177916727
 20
120.1104611543436
 30
0.0
 41
3.0
 42
3.0
 43
3.0
 50
327.7969863084982
  0
INSERT
  5
3BAC
330
3BA6
100
AcDbEntity
  8
寸法線
 62
     0
370
    -2
100
AcDbBlockReference
  2
_Closed
 10
91.78080860937301
 20
116.9129364496718
 30
0.0
 41
3.0
 42
3.0
 43
3.0
 50
147.7969863084982
  0
POINT
  5
3BAD
330
3BA6
100
AcDbEntity
  8
Defpoints
 62
     0
100
AcDbPoint
 10
91.78080860937301
 20
116.9129364496718
 30
0.0
  0
POINT
  5
3BAE
330
3BA6
100
AcDbEntity
  8
Defpoints
 62
     0
100
AcDbPoint
 10
86.7038177916727
 20
120.1104611543436
 30
0.0
  0
ENDBLK
  5
3BB0
330
3BA6
100
AcDbEntity
  8
0
100
AcDbBlockEnd
  0
BLOCK
  5
3BBC
330
3BB2
100
AcDbEntity
  8
0
100
AcDbBlockBegin
  2
*D21
 70
     1
 10
0.0
 20
0.0
 30
0.0
  3
*D21
  1

  0
LINE
  5
3BB3
330
3BB2
100
AcDbEntity
  8
寸法線
 62
     0
370
    -2
100
AcDbLine
 10
87.24231320052284
 20
158.5116988020077
 30
0.0
 11
69.9821156365034
 21
158.5116988020077
 31
0.0
  0
LINE
  5
3BB4
330
3BB2
100
AcDbEntity
  8
寸法線
 62
     0
370
    -2
100
AcDbLine
 10
84.24231320052285
 20
168.5116988020077
 30
0.0
 11
69.98211563650341
 21
168.5116988020077
 31
0.0
  0
LINE
  5
3BB5
330
3BB2
100
AcDbEntity
  8
寸法線
 62
     0
370
    -2
100
AcDbLine
 10
72.9821156365034
 20
161.5116988020077
 30
0.0
 11
72.9821156365034
 21
165.5116988020077
 31
0.0
  0
INSERT
  5
3BB6
330
3BB2
100
AcDbEntity
  8
寸法線
 62
     0
370
    -2
100
AcDbBlockReference
  2
_Closed
 10
72.98211563650339
 20
158.5116988020077
 30
0.0
 41
3.0
 42
3.0
 43
3.0
 50
270.0
  0
INSERT
  5
3BB7
330
3BB2
100
AcDbEntity
  8
寸法線
 62
     0
370
    -2
100
AcDbBlockReference
  2
_Closed
 10
72.9821156365034
 20
168.5116988020077
 30
0.0
 41
3.0
 42
3.0
 43
3.0
 50
90.0
  0
MTEXT
  5
3BB8
330
3BB2
100
AcDbEntity
  8
寸法線
 62
     0
100
AcDbMText
 10
69.48211563650338
 20
163.5116988020077
 30
0.0
 40
5.0
 41
0.0
 71
     5
 72
     1
  1
10
  7
OKANO
 11
0.0000000000000001
 21
1.0
 31
0.0
 73
     1
 44
1.0
  0
POINT
  5
3BB9
330
3BB2
100
AcDbEntity
  8
Defpoints
 62
     0
100
AcDbPoint
 10
89.24231320052284
 20
158.5116988020077
 30
0.0
  0
POINT
  5
3BBA
330
3BB2
100
AcDbEntity
  8
Defpoints
 62
     0
100
AcDbPoint
 10
86.24231320052286
 20
168.5116988020077
 30
0.0
  0
POINT
  5
3BBB
330
3BB2
100
AcDbEntity
  8
Defpoints
 62
     0
100
AcDbPoint
 10
72.9821156365034
 20
168.5116988020077
 30
0.0
  0
ENDBLK
  5
3BBD
330
3BB2
100
AcDbEntity
  8
0
100
AcDbBlockEnd
  0
BLOCK
  5
3BCB
330
3BBF
100
AcDbEntity
  8
0
100
AcDbBlockBegin
  2
*D22
 70
     1
 10
0.0
 20
0.0
 30
0.0
  3
*D22
  1

  0
LINE
  5
3BC0
330
3BBF
100
AcDbEntity
  8
寸法線
 62
     0
370
    -2
100
AcDbLine
 10
228.4718473184598
 20
148.5116988020077
 30
0.0
 11
228.4718473184598
 21
137.5251351512946
 31
0.0
  0
LINE
  5
3BC1
330
3BBF
100
AcDbEntity
  8
寸法線
 62
     0
370
    -2
100
AcDbLine
 10
222.4718473184598
 20
148.5116988020077
 30
0.0
 11
222.4718473184598
 21
137.5251351512946
 31
0.0
  0
LINE
  5
3BC2
330
3BBF
100
AcDbEntity
  8
寸法線
 62
     0
370
    -2
100
AcDbLine
 10
231.4718473184598
 20
140.5251351512946
 30
0.0
 11
234.4718473184598
 21
140.5251351512946
 31
0.0
  0
LINE
  5
3BC3
330
3BBF
100
AcDbEntity
  8
寸法線
 62
     0
370
    -2
100
AcDbLine
 10
219.4718473184598
 20
140.5251351512946
 30
0.0
 11
216.4718473184598
 21
140.5251351512946
 31
0.0
  0
LINE
  5
3BC4
330
3BBF
100
AcDbEntity
  8
寸法線
 62
     0
370
    -2
100
AcDbLine
 10
228.4718473184598
 20
140.5251351512946
 30
0.0
 11
222.4718473184598
 21
140.5251351512946
 31
0.0
  0
INSERT
  5
3BC5
330
3BBF
100
AcDbEntity
  8
寸法線
 62
     0
370
    -2
100
AcDbBlockReference
  2
_Closed
 10
228.4718473184598
 20
140.5251351512946
 30
0.0
 41
3.0
 42
3.0
 43
3.0
 50
180.0
  0
INSERT
  5
3BC6
330
3BBF
100
AcDbEntity
  8
寸法線
 62
     0
370
    -2
100
AcDbBlockReference
  2
_Closed
 10
222.4718473184598
 20
140.5251351512946
 30
0.0
 41
3.0
 42
3.0
 43
3.0
  0
MTEXT
  5
3BC7
330
3BBF
100
AcDbEntity
  8
寸法線
 62
     0
100
AcDbMText
 10
225.4718473184598
 20
144.0251351512946
 30
0.0
 40
5.0
 41
0.0
 71
     5
 72
     1
  1
6
  7
OKANO
 73
     1
 44
1.0
  0
POINT
  5
3BC8
330
3BBF
100
AcDbEntity
  8
Defpoints
 62
     0
100
AcDbPoint
 10
228.4718473184598
 20
150.5116988020077
 30
0.0
  0
POINT
  5
3BC9
330
3BBF
100
AcDbEntity
  8
Defpoints
 62
     0
100
AcDbPoint
 10
222.4718473184598
 20
150.5116988020077
 30
0.0
  0
POINT
  5
3BCA
330
3BBF
100
AcDbEntity
  8
Defpoints
 62
     0
100
AcDbPoint
 10
222.4718473184598
 20
140.5251351512946
 30
0.0
  0
ENDBLK
  5
3BCC
330
3BBF
100
AcDbEntity
  8
0
100
AcDbBlockEnd
  0
BLOCK
  5
3BDA
330
3BCE
100
AcDbEntity
  8
0
100
AcDbBlockBegin
  2
*D23
 70
     1
 10
0.0
 20
0.0
 30
0.0
  3
*D23
  1

  0
LINE
  5
3BCF
330
3BCE
100
AcDbEntity
  8
寸法線
 62
     0
370
    -2
100
AcDbLine
 10
220.4718473184598
 20
150.5116988020077
 30
0.0
 11
215.3651903996623
 21
150.5116988020077
 31
0.0
  0
LINE
  5
3BD0
330
3BCE
100
AcDbEntity
  8
寸法線
 62
     0
370
    -2
100
AcDbLine
 10
220.4718473184598
 20
154.5116988020077
 30
0.0
 11
215.3651903996623
 21
154.5116988020077
 31
0.0
  0
LINE
  5
3BD1
330
3BCE
100
AcDbEntity
  8
寸法線
 62
     0
370
    -2
100
AcDbLine
 10
218.3651903996623
 20
147.5116988020077
 30
0.0
 11
218.3651903996623
 21
144.5116988020077
 31
0.0
  0
LINE
  5
3BD2
330
3BCE
100
AcDbEntity
  8
寸法線
 62
     0
370
    -2
100
AcDbLine
 10
218.3651903996623
 20
157.5116988020077
 30
0.0
 11
218.3651903996623
 21
165.0116988020077
 31
0.0
  0
LINE
  5
3BD3
330
3BCE
100
AcDbEntity
  8
寸法線
 62
     0
370
    -2
100
AcDbLine
 10
218.3651903996623
 20
150.5116988020077
 30
0.0
 11
218.3651903996623
 21
154.5116988020077
 31
0.0
  0
INSERT
  5
3BD4
330
3BCE
100
AcDbEntity
  8
寸法線
 62
     0
370
    -2
100
AcDbBlockReference
  2
_Closed
 10
218.3651903996623
 20
150.5116988020077
 30
0.0
 41
3.0
 42
3.0
 43
3.0
 50
90.0
  0
INSERT
  5
3BD5
330
3BCE
100
AcDbEntity
  8
寸法線
 62
     0
370
    -2
100
AcDbBlockReference
  2
_Closed
 10
218.3651903996623
 20
154.5116988020077
 30
0.0
 41
3.0
 42
3.0
 43
3.0
 50
270.0
  0
MTEXT
  5
3BD6
330
3BCE
100
AcDbEntity
  8
寸法線
 62
     0
100
AcDbMText
 10
214.8651903996622
 20
162.7616988020077
 30
0.0
 40
5.0
 41
0.0
 71
     5
 72
     1
  1
4
  7
OKANO
 11
0.0000000000000001
 21
1.0
 31
0.0
 73
     1
 44
1.0
  0
POINT
  5
3BD7
330
3BCE
100
AcDbEntity
  8
Defpoints
 62
     0
100
AcDbPoint
 10
222.4718473184598
 20
150.5116988020077
 30
0.0
  0
POINT
  5
3BD8
330
3BCE
100
AcDbEntity
  8
Defpoints
 62
     0
100
AcDbPoint
 10
222.4718473184598
 20
154.5116988020077
 30
0.0
  0
POINT
  5
3BD9
330
3BCE
100
AcDbEntity
  8
Defpoints
 62
     0
100
AcDbPoint
 10
218.3651903996623
 20
154.5116988020077
 30
0.0
  0
ENDBLK
  5
3BDB
330
3BCE
100
AcDbEntity
  8
0
100
AcDbBlockEnd
  0
ENDSEC
  0
SECTION
  2
ENTITIES
  0
TEXT
  5
29C1
330
1F
100
AcDbEntity
  8
文字
100
AcDbText
 10
316.6557011142837
 20
81.45268203447596
 30
0.0
 40
2.519999999999999
  1
SET SCREW COUP
 51
15.0
  7
OKANO
100
AcDbText
  0
TEXT
  5
29C2
330
1F
100
AcDbEntity
  8
文字
100
AcDbText
 10
296.7001681263591
 20
76.19957687517348
 30
0.0
 40
3.359999999999999
  1
joint kogyo T.okano
 51
15.0
  7
OKANO
100
AcDbText
  0
TEXT
  5
29C3
330
1F
100
AcDbEntity
  8
文字
100
AcDbText
 10
291.4583490181013
 20
86.52623693027491
 30
0.0
 40
3.359999999999999
  1
F-999-20071108 Auto CAD
 51
15.0
  7
OKANO
100
AcDbText
  0
LINE
  5
29C4
330
1F
100
AcDbEntity
  8
太線
100
AcDbLine
 10
272.2627892909715
 20
85.88167157497368
 30
0.0
 11
347.8627892909715
 21
85.88167157497368
 31
0.0
  0
LWPOLYLINE
  5
29C5
330
1F
100
AcDbEntity
  8
太線
100
AcDbPolyline
 90
        4
 70
     1
 43
0.0
 10
272.2627892909715
 20
91.76167157497365
 10
347.8627892909715
 20
91.76167157497365
 10
347.8627892909715
 20
74.12167157497368
 10
272.2627892909715
 20
74.12167157497368
  0
TEXT
  5
29C6
330
1F
100
AcDbEntity
  8
文字
100
AcDbText
 10
274.9734577872118
 20
80.14621331577819
 30
0.0
 40
1.679999999999999
  1
CHECK
 51
15.0
  7
OKANO
100
AcDbText
  0
LINE
  5
29C7
330
1F
100
AcDbEntity
  8
太線
100
AcDbLine
 10
289.0627892909715
 20
91.76167157497365
 30
0.0
 11
289.0627892909715
 21
74.12167157497368
 31
0.0
  0
TEXT
  5
29C8
330
1F
100
AcDbEntity
  8
文字
100
AcDbText
 10
274.9734577872118
 20
75.30261399142711
 30
0.0
 40
1.679999999999999
  1
ISSUED
 51
15.0
  7
OKANO
100
AcDbText
  0
TEXT
  5
29C9
330
1F
100
AcDbEntity
  8
文字
100
AcDbText
 10
275.1530178902423
 20
77.63471732391483
 30
0.0
 40
1.679999999999999
  1
APPR
 51
15.0
  7
OKANO
100
AcDbText
  0
TEXT
  5
29CA
330
1F
100
AcDbEntity
  8
文字
100
AcDbText
 10
273.7165409010318
 20
87.1425229001093
 30
0.0
 40
1.679999999999999
  1
FILM NAME
 51
15.0
  7
OKANO
100
AcDbText
  0
TEXT
  5
29CB
330
1F
100
AcDbEntity
  8
文字
100
AcDbText
 10
274.6143391151643
 20
82.65770889450953
 30
0.0
 40
1.679999999999999
  1
DRAWN
 51
15.0
  7
OKANO
100
AcDbText
  0
TEXT
  5
29CC
330
1F
100
AcDbEntity
  8
文字
100
AcDbText
 10
292.6783866992165
 20
80.38371510272135
 30
0.0
 40
3.359999999999999
  1
7-1A
 51
15.0
  7
OKANO
100
AcDbText
  0
TEXT
  5
3123
330
1F
100
AcDbEntity
  8
文字
100
AcDbText
 10
124.4787311523964
 20
223.4488672712803
 30
0.0
 40
4.799999999999999
  1
材質　FCD450
 51
15.0
  7
OKANO
100
AcDbText
  0
TEXT
  5
3124
330
1F
100
AcDbEntity
  8
文字
100
AcDbText
 10
124.8706761084137
 20
232.6949517776981
 30
0.0
 40
4.799999999999999
  1
表面処理　電気鍍金
 51
15.0
  7
OKANO
100
AcDbText
  0
XLINE
  5
363F
330
1F
100
AcDbEntity
  8
構築線
100
AcDbXline
 10
204.0223706395675
 20
138.5116988020077
 30
0.0
 11
1.0
 21
0.0
 31
0.0
  0
LINE
  5
37FA
330
1F
100
AcDbEntity
  8
太線
100
AcDbLine
 10
111.2423132005228
 20
168.5116988020077
 30
0.0
 11
86.24231320052286
 21
168.5116988020077
 31
0.0
  0
ARC
  5
37FE
330
1F
100
AcDbEntity
  8
太線
100
AcDbCircle
 10
111.2423132005228
 20
138.5116988020077
 30
0.0
 40
30.0
100
AcDbArc
 50
270.0
 51
90.0
  0
ARC
  5
381A
330
1F
100
AcDbEntity
  8
太線
100
AcDbCircle
 10
125.7423132005228
 20
138.5116988020077
 30
0.0
 40
5.5
100
AcDbArc
 50
270.0
 51
90.0
  0
ARC
  5
381B
330
1F
100
AcDbEntity
  8
太線
100
AcDbCircle
 10
111.7423132005228
 20
138.5116988020077
 30
0.0
 40
5.5
100
AcDbArc
 50
90.0
 51
270.0
  0
LINE
  5
381C
330
1F
100
AcDbEntity
  8
太線
100
AcDbLine
 10
111.7423132005228
 20
144.0116988020077
 30
0.0
 11
125.7423132005228
 21
144.0116988020077
 31
0.0
  0
LINE
  5
381D
330
1F
100
AcDbEntity
  8
太線
100
AcDbLine
 10
125.7423132005228
 20
133.0116988020077
 30
0.0
 11
111.7423132005228
 21
133.0116988020077
 31
0.0
  0
XLINE
  5
3842
330
1F
100
AcDbEntity
  8
構築線
100
AcDbXline
 10
230.4718473184598
 20
153.5116988020077
 30
0.0
 11
0.0
 21
1.0
 31
0.0
  0
DIMENSION
  5
38BB
330
1F
100
AcDbEntity
  8
寸法線
100
AcDbDimension
  2
*D2
 10
130.9853593789445
 20
193.7163986049265
 30
0.0
 11
118.4161654977043
 21
197.2168907309108
 31
0.0
 70
    32
  1
25
 71
     5
 42
25.1383877624803
  3
sunpo
100
AcDbAlignedDimension
 13
105.8469716164642
 23
139.1923410589189
 33
0.0
 14
130.9853593789445
 24
139.1923410589189
 34
0.0
100
AcDbRotatedDimension
1001
ACAD
1000
DSTYLE
1002
{
1070
    40
1040
1.0
1002
}
  0
DIMENSION
  5
38C8
330
1F
100
AcDbEntity
  8
寸法線
100
AcDbDimension
  2
*D3
 10
162.8681929401637
 20
133.6786727253943
 30
0.0
 11
159.3681929401637
 21
138.886026575248
 31
0.0
 70
    32
  1
11
 71
     5
 42
10.41470769970737
  3
sunpo
100
AcDbAlignedDimension
 13
129.1459650701973
 23
144.0933804251017
 33
0.0
 14
129.1459650701973
 24
133.6786727253943
 34
0.0
 50
90.0
100
AcDbRotatedDimension
1001
ACAD
1000
DSTYLE
1002
{
1070
    40
1040
1.0
1002
}
  0
XLINE
  5
3906
330
1F
100
AcDbEntity
  8
構築線
100
AcDbXline
 10
57.44231320052286
 20
272.3116988020076
 30
0.0
 11
1.0
 21
0.0
 31
0.0
  0
DIMENSION
  5
396E
330
1F
100
AcDbEntity
  8
寸法線
100
AcDbDimension
  2
*D4
 10
141.2177590238861
 20
113.1005353196858
 30
0.0
 11
136.1424730522812
 21
116.6005353196858
 31
0.0
 70
    32
  1
10
 71
     5
 42
10.15057194320979
  3
sunpo
100
AcDbAlignedDimension
 13
131.0671870806763
 23
133.3848521792186
 33
0.0
 14
141.2177590238861
 24
133.3848521792186
 34
0.0
100
AcDbRotatedDimension
1001
ACAD
1000
DSTYLE
1002
{
1070
    40
1040
1.0
1002
}
  0
LINE
  5
39DC
330
1F
100
AcDbEntity
  8
太線
100
AcDbLine
 10
86.24231320052286
 20
168.5116988020077
 30
0.0
 11
83.24231320052286
 21
168.5116988020077
 31
0.0
  0
LINE
  5
39DD
330
1F
100
AcDbEntity
  8
太線
100
AcDbLine
 10
82.24231320052286
 20
167.5116988020077
 30
0.0
 11
82.24231320052286
 21
109.5116988020077
 31
0.0
  0
LINE
  5
39DE
330
1F
100
AcDbEntity
  8
太線
100
AcDbLine
 10
83.24231320052286
 20
108.5116988020077
 30
0.0
 11
111.2423132005228
 21
108.5116988020077
 31
0.0
  0
LINE
  5
39DF
330
1F
100
AcDbEntity
  8
太線
100
AcDbLine
 10
86.24231320052286
 20
168.5116988020077
 30
0.0
 11
86.24231320052286
 21
108.5116988020077
 31
0.0
  0
CIRCLE
  5
39E7
330
1F
100
AcDbEntity
  8
構築線
100
AcDbCircle
 10
205.4718473184598
 20
138.5116988020077
 30
0.0
 40
5.25
  0
LINE
  5
39EA
330
1F
100
AcDbEntity
  8
太線
100
AcDbLine
 10
200.4718473184598
 20
168.5116988020077
 30
0.0
 11
255.4718473184598
 21
168.5116988020077
 31
0.0
  0
LINE
  5
39EB
330
1F
100
AcDbEntity
  8
太線
100
AcDbLine
 10
255.4718473184598
 20
168.5116988020077
 30
0.0
 11
260.4718473184598
 21
168.5116988020077
 31
0.0
  0
LINE
  5
39EC
330
1F
100
AcDbEntity
  8
太線
100
AcDbLine
 10
265.4718473184598
 20
163.5116988020077
 30
0.0
 11
265.4718473184598
 21
113.5116988020077
 31
0.0
  0
LINE
  5
39ED
330
1F
100
AcDbEntity
  8
太線
100
AcDbLine
 10
260.4718473184598
 20
108.5116988020077
 30
0.0
 11
200.4718473184598
 21
108.5116988020077
 31
0.0
  0
LINE
  5
39EE
330
1F
100
AcDbEntity
  8
太線
100
AcDbLine
 10
195.4718473184598
 20
113.5116988020077
 30
0.0
 11
195.4718473184598
 21
163.5116988020077
 31
0.0
  0
LINE
  5
39EF
330
1F
100
AcDbEntity
  8
太線
100
AcDbLine
 10
228.4718473184598
 20
168.5116988020077
 30
0.0
 11
228.4718473184598
 21
108.5116988020077
 31
0.0
  0
LINE
  5
39F0
330
1F
100
AcDbEntity
  8
太線
100
AcDbLine
 10
232.4718473184598
 20
168.5116988020077
 30
0.0
 11
232.4718473184598
 21
108.5116988020077
 31
0.0
  0
CIRCLE
  5
39F1
330
1F
100
AcDbEntity
  8
太線
100
AcDbCircle
 10
205.4718473184598
 20
158.5116988020077
 30
0.0
 40
2.5
  0
CIRCLE
  5
39F2
330
1F
100
AcDbEntity
  8
太線
100
AcDbCircle
 10
255.4718473184598
 20
158.5116988020077
 30
0.0
 40
2.5
  0
CIRCLE
  5
39F4
330
1F
100
AcDbEntity
  8
太線
100
AcDbCircle
 10
255.4718473184598
 20
118.5116988020077
 30
0.0
 40
2.5
  0
CIRCLE
  5
39F5
330
1F
100
AcDbEntity
  8
太線
100
AcDbCircle
 10
205.4718473184598
 20
118.5116988020077
 30
0.0
 40
2.5
  0
CIRCLE
  5
39F6
330
1F
100
AcDbEntity
  8
太線
100
AcDbCircle
 10
205.4718473184598
 20
138.5116988020077
 30
0.0
 40
5.25
  0
CIRCLE
  5
39F7
330
1F
100
AcDbEntity
  8
太線
100
AcDbCircle
 10
255.4718473184598
 20
138.5116988020077
 30
0.0
 40
5.25
  0
LINE
  5
39F8
330
1F
100
AcDbEntity
  8
想像線
100
AcDbLine
 10
228.4718473184598
 20
121.5116988020077
 30
0.0
 11
232.4718473184598
 21
121.5116988020077
 31
0.0
  0
LINE
  5
39F9
330
1F
100
AcDbEntity
  8
想像線
100
AcDbLine
 10
228.4718473184598
 20
141.8348569472505
 30
0.0
 11
232.4718473184598
 21
141.8348569472505
 31
0.0
  0
LINE
  5
39FA
330
1F
100
AcDbEntity
  8
想像線
100
AcDbLine
 10
228.4718473184598
 20
133.0116988020077
 30
0.0
 11
232.4718473184598
 21
133.0116988020077
 31
0.0
  0
LINE
  5
39FB
330
1F
100
AcDbEntity
  8
想像線
100
AcDbLine
 10
228.4718473184598
 20
115.5116988020077
 30
0.0
 11
232.4718473184598
 21
115.5116988020077
 31
0.0
  0
LINE
  5
39FC
330
1F
100
AcDbEntity
  8
想像線
100
AcDbLine
 10
228.4718473184598
 20
161.5116988020076
 30
0.0
 11
232.4718473184598
 21
161.5116988020076
 31
0.0
  0
LINE
  5
39FD
330
1F
100
AcDbEntity
  8
想像線
100
AcDbLine
 10
228.4718473184598
 20
155.5116988020077
 30
0.0
 11
232.4718473184598
 21
155.5116988020077
 31
0.0
  0
ARC
  5
3A00
330
1F
100
AcDbEntity
  8
太線
100
AcDbCircle
 10
200.4718473184598
 20
163.5116988020077
 30
0.0
 40
5.0
100
AcDbArc
 50
90.0
 51
180.0
  0
ARC
  5
3A01
330
1F
100
AcDbEntity
  8
太線
100
AcDbCircle
 10
200.4718473184598
 20
113.5116988020077
 30
0.0
 40
5.0
100
AcDbArc
 50
180.0
 51
270.0
  0
ARC
  5
3A02
330
1F
100
AcDbEntity
  8
太線
100
AcDbCircle
 10
260.4718473184598
 20
163.5116988020077
 30
0.0
 40
5.0
100
AcDbArc
 50
0.0
 51
90.0
  0
ARC
  5
3A03
330
1F
100
AcDbEntity
  8
太線
100
AcDbCircle
 10
260.4718473184598
 20
113.5116988020077
 30
0.0
 40
5.0
100
AcDbArc
 50
270.0
 51
0.0
  0
CIRCLE
  5
3A05
330
1F
100
AcDbEntity
  8
構築線
100
AcDbCircle
 10
92.24231320052286
 20
158.5116988020077
 30
0.0
 40
3.0
  0
CIRCLE
  5
3A06
330
1F
100
AcDbEntity
  8
太線
100
AcDbCircle
 10
89.24231320052284
 20
158.5116988020077
 30
0.0
 40
3.0
  0
CIRCLE
  5
3A07
330
1F
100
AcDbEntity
  8
太線
100
AcDbCircle
 10
89.24231320052285
 20
118.5116988020077
 30
0.0
 40
3.0
  0
LINE
  5
3A1E
330
1F
100
AcDbEntity
  8
太線
100
AcDbLine
 10
86.24231320052286
 20
154.5116988020077
 30
0.0
 11
92.24231320052286
 21
154.5116988020077
 31
0.0
  0
LINE
  5
3A1F
330
1F
100
AcDbEntity
  8
太線
100
AcDbLine
 10
92.24231320052286
 20
154.5116988020077
 30
0.0
 11
92.24231320052286
 21
150.5116988020077
 31
0.0
  0
LINE
  5
3A20
330
1F
100
AcDbEntity
  8
太線
100
AcDbLine
 10
92.24231320052286
 20
150.5116988020077
 30
0.0
 11
86.24231320052286
 21
150.5116988020077
 31
0.0
  0
LINE
  5
3A21
330
1F
100
AcDbEntity
  8
太線
100
AcDbLine
 10
86.24231320052286
 20
126.5116988020077
 30
0.0
 11
92.24231320052288
 21
126.5116988020077
 31
0.0
  0
LINE
  5
3A22
330
1F
100
AcDbEntity
  8
太線
100
AcDbLine
 10
92.24231320052288
 20
126.5116988020077
 30
0.0
 11
92.24231320052286
 21
122.5116988020077
 31
0.0
  0
LINE
  5
3A23
330
1F
100
AcDbEntity
  8
太線
100
AcDbLine
 10
92.24231320052286
 20
122.5116988020077
 30
0.0
 11
86.24231320052286
 21
122.5116988020077
 31
0.0
  0
LINE
  5
3A27
330
1F
100
AcDbEntity
  8
構築線
100
AcDbLine
 10
232.4718473184598
 20
154.5116988020077
 30
0.0
 11
238.4718473184598
 21
154.5116988020077
 31
0.0
  0
LINE
  5
3A28
330
1F
100
AcDbEntity
  8
太線
100
AcDbLine
 10
232.4718473184598
 20
154.5116988020077
 30
0.0
 11
238.4718473184598
 21
154.5116988020077
 31
0.0
  0
LINE
  5
3A29
330
1F
100
AcDbEntity
  8
太線
100
AcDbLine
 10
238.4718473184598
 20
154.5116988020077
 30
0.0
 11
238.4718473184598
 21
150.5116988020077
 31
0.0
  0
LINE
  5
3A2A
330
1F
100
AcDbEntity
  8
太線
100
AcDbLine
 10
238.4718473184598
 20
150.5116988020077
 30
0.0
 11
232.4718473184598
 21
150.5116988020077
 31
0.0
  0
LINE
  5
3A2B
330
1F
100
AcDbEntity
  8
太線
100
AcDbLine
 10
228.4718473184598
 20
154.5116988020077
 30
0.0
 11
222.4718473184598
 21
154.5116988020077
 31
0.0
  0
LINE
  5
3A2C
330
1F
100
AcDbEntity
  8
太線
100
AcDbLine
 10
222.4718473184598
 20
154.5116988020077
 30
0.0
 11
222.4718473184598
 21
150.5116988020077
 31
0.0
  0
LINE
  5
3A2D
330
1F
100
AcDbEntity
  8
太線
100
AcDbLine
 10
222.4718473184598
 20
150.5116988020077
 30
0.0
 11
228.4718473184598
 21
150.5116988020077
 31
0.0
  0
LINE
  5
3A2E
330
1F
100
AcDbEntity
  8
太線
100
AcDbLine
 10
232.4718473184598
 20
122.5116988020077
 30
0.0
 11
238.4718473184598
 21
122.5116988020077
 31
0.0
  0
LINE
  5
3A2F
330
1F
100
AcDbEntity
  8
太線
100
AcDbLine
 10
238.4718473184598
 20
122.5116988020077
 30
0.0
 11
238.4718473184598
 21
126.5116988020077
 31
0.0
  0
LINE
  5
3A30
330
1F
100
AcDbEntity
  8
太線
100
AcDbLine
 10
238.4718473184598
 20
126.5116988020077
 30
0.0
 11
232.4718473184598
 21
126.5116988020077
 31
0.0
  0
LINE
  5
3A31
330
1F
100
AcDbEntity
  8
太線
100
AcDbLine
 10
228.4718473184598
 20
126.5116988020077
 30
0.0
 11
222.4718473184598
 21
126.5116988020077
 31
0.0
  0
LINE
  5
3A32
330
1F
100
AcDbEntity
  8
太線
100
AcDbLine
 10
222.4718473184598
 20
126.5116988020077
 30
0.0
 11
222.4718473184598
 21
122.5116988020077
 31
0.0
  0
LINE
  5
3A33
330
1F
100
AcDbEntity
  8
太線
100
AcDbLine
 10
222.4718473184598
 20
122.5116988020077
 30
0.0
 11
228.4718473184598
 21
122.5116988020077
 31
0.0
  0
LINE
  5
3A43
330
1F
100
AcDbEntity
  8
想像線
100
AcDbLine
 10
85.24231320052285
 20
160.5116988020076
 30
0.0
 11
86.24231320052286
 21
161.5116988020076
 31
0.0
  0
LINE
  5
3A46
330
1F
100
AcDbEntity
  8
想像線
100
AcDbLine
 10
85.24231320052285
 20
156.5116988020077
 30
0.0
 11
86.24231320052286
 21
155.5116988020077
 31
0.0
  0
LINE
  5
3A47
330
1F
100
AcDbEntity
  8
想像線
100
AcDbLine
 10
85.24231320052285
 20
160.5116988020076
 30
0.0
 11
85.24231320052285
 21
156.5116988020077
 31
0.0
  0
LINE
  5
3A48
330
1F
100
AcDbEntity
  8
想像線
100
AcDbLine
 10
86.24231320052286
 20
121.5116988020077
 30
0.0
 11
85.24231320052285
 21
120.5116988020077
 31
0.0
  0
LINE
  5
3A4A
330
1F
100
AcDbEntity
  8
想像線
100
AcDbLine
 10
86.24231320052286
 20
115.5116988020077
 30
0.0
 11
85.24231320052285
 21
116.5116988020077
 31
0.0
  0
LINE
  5
3A4C
330
1F
100
AcDbEntity
  8
想像線
100
AcDbLine
 10
85.24231320052285
 20
120.5116988020077
 30
0.0
 11
85.24231320052285
 21
116.5116988020077
 31
0.0
  0
LINE
  5
3A4D
330
1F
100
AcDbEntity
  8
想像線
100
AcDbLine
 10
85.24231320052285
 20
160.5116988020076
 30
0.0
 11
82.24231320052286
 21
160.5116988020076
 31
0.0
  0
LINE
  5
3A4E
330
1F
100
AcDbEntity
  8
想像線
100
AcDbLine
 10
85.24231320052285
 20
156.5116988020077
 30
0.0
 11
82.24231320052286
 21
156.5116988020077
 31
0.0
  0
LINE
  5
3A4F
330
1F
100
AcDbEntity
  8
想像線
100
AcDbLine
 10
85.24231320052285
 20
120.5116988020077
 30
0.0
 11
82.24231320052286
 21
120.5116988020077
 31
0.0
  0
LINE
  5
3A50
330
1F
100
AcDbEntity
  8
想像線
100
AcDbLine
 10
85.24231320052285
 20
116.5116988020077
 30
0.0
 11
82.24231320052286
 21
116.5116988020077
 31
0.0
  0
CIRCLE
  5
3A51
330
1F
100
AcDbEntity
  8
太線
100
AcDbCircle
 10
205.4718473184598
 20
158.5116988020077
 30
0.0
 40
2.999999999999971
  0
CIRCLE
  5
3A52
330
1F
100
AcDbEntity
  8
太線
100
AcDbCircle
 10
205.4718473184598
 20
118.5116988020077
 30
0.0
 40
3.0
  0
CIRCLE
  5
3A53
330
1F
100
AcDbEntity
  8
太線
100
AcDbCircle
 10
255.4718473184598
 20
158.5116988020077
 30
0.0
 40
2.999999999999971
  0
CIRCLE
  5
3A54
330
1F
100
AcDbEntity
  8
太線
100
AcDbCircle
 10
255.4718473184598
 20
118.5116988020077
 30
0.0
 40
3.0
  0
LINE
  5
3A55
330
1F
100
AcDbEntity
  8
太線
100
AcDbLine
 10
195.4718473184598
 20
270.9116988020077
 30
0.0
 11
195.4718473184598
 21
273.7116988020077
 31
0.0
  0
LINE
  5
3A56
330
1F
100
AcDbEntity
  8
太線
100
AcDbLine
 10
196.4718473184598
 20
274.7116988020077
 30
0.0
 11
232.4718473184598
 21
274.7116988020077
 31
0.0
  0
LINE
  5
3A57
330
1F
100
AcDbEntity
  8
太線
100
AcDbLine
 10
265.4718473184598
 20
273.7116988020077
 30
0.0
 11
265.4718473184598
 21
270.9116988020077
 31
0.0
  0
LINE
  5
3A58
330
1F
100
AcDbEntity
  8
太線
100
AcDbLine
 10
264.4718473184598
 20
269.9116988020077
 30
0.0
 11
232.4718473184598
 21
269.9116988020077
 31
0.0
  0
LINE
  5
3A5A
330
1F
100
AcDbEntity
  8
太線
100
AcDbLine
 10
232.4718473184598
 20
269.9116988020077
 30
0.0
 11
232.4718473184598
 21
215.9116988020076
 31
0.0
  0
LINE
  5
3A5B
330
1F
100
AcDbEntity
  8
太線
100
AcDbLine
 10
231.4718473184597
 20
214.9116988020077
 30
0.0
 11
229.4718473184598
 21
214.9116988020077
 31
0.0
  0
LINE
  5
3A5C
330
1F
100
AcDbEntity
  8
太線
100
AcDbLine
 10
228.4718473184598
 20
215.9116988020077
 30
0.0
 11
228.4718473184598
 21
269.9116988020077
 31
0.0
  0
LINE
  5
3A5D
330
1F
100
AcDbEntity
  8
太線
100
AcDbLine
 10
232.4718473184598
 20
263.9116988020077
 30
0.0
 11
238.4718473184598
 21
269.9116988020077
 31
0.0
  0
LINE
  5
3A5E
330
1F
100
AcDbEntity
  8
太線
100
AcDbLine
 10
228.4718473184598
 20
263.9116988020077
 30
0.0
 11
222.4718473184598
 21
269.9116988020077
 31
0.0
  0
LINE
  5
3A6C
330
1F
100
AcDbEntity
  8
想像線
100
AcDbLine
 10
260.7218473184598
 20
274.7116988020077
 30
0.0
 11
260.7218473184598
 21
269.9116988020077
 31
0.0
  0
LINE
  5
3A6D
330
1F
100
AcDbEntity
  8
想像線
100
AcDbLine
 10
250.2218473184598
 20
274.7116988020077
 30
0.0
 11
250.2218473184598
 21
269.9116988020077
 31
0.0
  0
LINE
  5
3A70
330
1F
100
AcDbEntity
  8
想像線
100
AcDbLine
 10
210.7218473184598
 20
274.7116988020077
 30
0.0
 11
210.7218473184598
 21
269.9116988020077
 31
0.0
  0
LINE
  5
3A73
330
1F
100
AcDbEntity
  8
想像線
100
AcDbLine
 10
200.2218473184598
 20
274.7116988020077
 30
0.0
 11
200.2218473184598
 21
269.9116988020077
 31
0.0
  0
LINE
  5
3A7A
330
1F
100
AcDbEntity
  8
想像線
100
AcDbLine
 10
258.4718473184598
 20
269.9116988020077
 30
0.0
 11
257.4718473184598
 21
270.9116988020077
 31
0.0
  0
LINE
  5
3A7B
330
1F
100
AcDbEntity
  8
想像線
100
AcDbLine
 10
257.4718473184598
 20
270.9116988020077
 30
0.0
 11
257.4718473184598
 21
274.7116988020077
 31
0.0
  0
LINE
  5
3A7C
330
1F
100
AcDbEntity
  8
想像線
100
AcDbLine
 10
252.4718473184598
 20
269.9116988020077
 30
0.0
 11
253.4718473184598
 21
270.9116988020077
 31
0.0
  0
LINE
  5
3A7D
330
1F
100
AcDbEntity
  8
想像線
100
AcDbLine
 10
253.4718473184598
 20
270.9116988020077
 30
0.0
 11
253.4718473184598
 21
274.7116988020077
 31
0.0
  0
LINE
  5
3A7E
330
1F
100
AcDbEntity
  8
想像線
100
AcDbLine
 10
208.4718473184597
 20
269.9116988020077
 30
0.0
 11
207.4718473184598
 21
270.9116988020077
 31
0.0
  0
LINE
  5
3A7F
330
1F
100
AcDbEntity
  8
想像線
100
AcDbLine
 10
207.4718473184598
 20
270.9116988020077
 30
0.0
 11
207.4718473184598
 21
274.7116988020077
 31
0.0
  0
LINE
  5
3A80
330
1F
100
AcDbEntity
  8
想像線
100
AcDbLine
 10
202.4718473184598
 20
269.9116988020077
 30
0.0
 11
203.4718473184598
 21
270.9116988020077
 31
0.0
  0
LINE
  5
3A81
330
1F
100
AcDbEntity
  8
想像線
100
AcDbLine
 10
203.4718473184598
 20
270.9116988020077
 30
0.0
 11
203.4718473184598
 21
274.7116988020077
 31
0.0
  0
LINE
  5
3A82
330
1F
100
AcDbEntity
  8
想像線
100
AcDbLine
 10
203.4718473184598
 20
270.9116988020077
 30
0.0
 11
207.4718473184598
 21
270.9116988020077
 31
0.0
  0
LINE
  5
3A83
330
1F
100
AcDbEntity
  8
想像線
100
AcDbLine
 10
253.4718473184598
 20
270.9116988020077
 30
0.0
 11
257.4718473184598
 21
270.9116988020077
 31
0.0
  0
LINE
  5
3A86
330
1F
100
AcDbEntity
  8
想像線
100
AcDbLine
 10
228.4718473184598
 20
249.9116988020077
 30
0.0
 11
232.4718473184598
 21
249.9116988020077
 31
0.0
  0
LINE
  5
3A87
330
1F
100
AcDbEntity
  8
想像線
100
AcDbLine
 10
228.4718473184598
 20
224.9116988020077
 30
0.0
 11
232.4718473184598
 21
224.9116988020077
 31
0.0
  0
LINE
  5
3A89
330
1F
100
AcDbEntity
  8
想像線
100
AcDbLine
 10
228.4718473184598
 20
263.9116988020077
 30
0.0
 11
232.4718473184598
 21
263.9116988020077
 31
0.0
  0
LINE
  5
3A8A
330
1F
100
AcDbEntity
  8
太線
100
AcDbLine
 10
228.4718473184598
 20
269.9116988020077
 30
0.0
 11
196.4718473184598
 21
269.9116988020077
 31
0.0
  0
LINE
  5
3A8B
330
1F
100
AcDbEntity
  8
想像線
100
AcDbLine
 10
228.4718473184598
 20
269.9116988020077
 30
0.0
 11
232.4718473184598
 21
269.9116988020077
 31
0.0
  0
LINE
  5
3A8D
330
1F
100
AcDbEntity
  8
太線
100
AcDbLine
 10
264.4718473184598
 20
274.7116988020077
 30
0.0
 11
232.4718473184598
 21
274.7116988020077
 31
0.0
  0
ARC
  5
3A8F
330
1F
100
AcDbEntity
  8
太線
100
AcDbCircle
 10
196.4718473184598
 20
273.7116988020077
 30
0.0
 40
1.0
100
AcDbArc
 50
90.0
 51
180.0
  0
ARC
  5
3A90
330
1F
100
AcDbEntity
  8
太線
100
AcDbCircle
 10
264.4718473184598
 20
273.7116988020077
 30
0.0
 40
1.0
100
AcDbArc
 50
0.0
 51
90.0
  0
ARC
  5
3A91
330
1F
100
AcDbEntity
  8
太線
100
AcDbCircle
 10
196.4718473184598
 20
270.9116988020077
 30
0.0
 40
1.0
100
AcDbArc
 50
179.9999999999996
 51
270.0
  0
ARC
  5
3A92
330
1F
100
AcDbEntity
  8
太線
100
AcDbCircle
 10
264.4718473184598
 20
270.9116988020077
 30
0.0
 40
1.0
100
AcDbArc
 50
270.0
 51
0.0
  0
ARC
  5
3A93
330
1F
100
AcDbEntity
  8
太線
100
AcDbCircle
 10
229.4718473184598
 20
215.9116988020077
 30
0.0
 40
1.0
100
AcDbArc
 50
180.0
 51
270.0
  0
ARC
  5
3A94
330
1F
100
AcDbEntity
  8
太線
100
AcDbCircle
 10
231.4718473184597
 20
215.9116988020076
 30
0.0
 40
1.0
100
AcDbArc
 50
270.0
 51
0.0
  0
ARC
  5
3A95
330
1F
100
AcDbEntity
  8
太線
100
AcDbCircle
 10
83.24231320052286
 20
167.5116988020077
 30
0.0
 40
1.0
100
AcDbArc
 50
90.0
 51
180.0
  0
ARC
  5
3A96
330
1F
100
AcDbEntity
  8
太線
100
AcDbCircle
 10
83.24231320052286
 20
109.5116988020077
 30
0.0
 40
1.0
100
AcDbArc
 50
180.0
 51
270.0
  0
DIMENSION
  5
3A97
330
1F
100
AcDbEntity
  8
寸法線
100
AcDbDimension
  2
*D5
 10
265.4718473184598
 20
188.2352048119867
 30
0.0
 11
230.4718473184598
 21
191.7352048119867
 31
0.0
 70
    32
 71
     5
 42
70.0
  3
sunpo
100
AcDbAlignedDimension
 13
195.4718473184598
 23
163.5116988020077
 33
0.0
 14
265.4718473184598
 24
163.5116988020077
 34
0.0
100
AcDbRotatedDimension
1001
ACAD
1000
DSTYLE
1002
{
1070
    40
1040
1.0
1002
}
  0
DIMENSION
  5
3AB3
330
1F
100
AcDbEntity
  8
寸法線
100
AcDbDimension
  2
*D6
 10
270.6895521372534
 20
214.9116988020077
 30
0.0
 11
267.1895521372534
 21
242.4116988020077
 31
0.0
 70
    32
 71
     5
 42
55.00000000000003
  3
sunpo
100
AcDbAlignedDimension
 13
264.4718473184598
 23
269.9116988020077
 33
0.0
 14
231.4718473184597
 24
214.9116988020077
 34
0.0
 50
90.0
100
AcDbRotatedDimension
1001
ACAD
1000
DSTYLE
1002
{
1070
    40
1040
1.0
1070
   279
1070
     1
1002
}
  0
DIMENSION
  5
3ACF
330
1F
100
AcDbEntity
  8
寸法線
100
AcDbDimension
  2
*D7
 10
105.8469716164642
 20
92.94587509718349
 30
0.0
 11
96.04464240849353
 21
96.44636722316775
 31
0.0
 70
    32
  1
20
 71
     5
 42
19.60465841594134
  3
sunpo
100
AcDbAlignedDimension
 13
86.24231320052286
 23
108.5116988020077
 33
0.0
 14
105.8469716164642
 24
141.1923410589189
 34
0.0
100
AcDbRotatedDimension
1001
ACAD
1000
DSTYLE
1002
{
1070
    40
1040
1.0
1002
}
  0
DIMENSION
  5
3ADC
330
1F
100
AcDbEntity
  8
寸法線
100
AcDbDimension
  2
*D8
 10
183.162496143173
 20
274.7116988020077
 30
0.0
 11
179.662496143173
 21
283.1895844849777
 31
0.0
 70
    32
  1
5
 71
     5
 42
4.800000000000011
  3
sunpo
100
AcDbAlignedDimension
 13
200.2218473184598
 23
269.9116988020077
 33
0.0
 14
200.2218473184598
 24
274.7116988020077
 34
0.0
 50
90.0
100
AcDbRotatedDimension
1001
ACAD
1000
DSTYLE
1002
{
1070
    40
1040
1.0
1002
}
  0
DIMENSION
  5
3AFF
330
1F
100
AcDbEntity
  8
寸法線
100
AcDbDimension
  2
*D9
 10
250.4420387581024
 20
137.007196942203
 30
0.0
 11
285.0596668077733
 21
147.3619222081395
 31
0.0
 70
   163
 71
     5
 42
10.5
  3
sunpo
100
AcDbDiametricDimension
 15
260.5016558788172
 25
140.0162006618123
 35
0.0
 40
0.0
1001
ACAD
1000
DSTYLE
1002
{
1070
    40
1040
1.0
1070
   288
1070
     1
1002
}
  0
DIMENSION
  5
3B0B
330
1F
100
AcDbEntity
  8
寸法線
100
AcDbDimension
  2
*D10
 10
252.8049320582989
 20
157.1378127095238
 30
0.0
 11
281.1405454775033
 21
171.7351663563337
 31
0.0
 70
   163
 71
     5
 42
6.0
  3
sunpo
100
AcDbDiametricDimension
 15
258.1387625786208
 25
159.8855848944915
 35
0.0
 40
0.0
1001
ACAD
1000
DSTYLE
1002
{
1070
    40
1040
1.0
1070
   288
1070
     1
1002
}
  0
DIMENSION
  5
3B17
330
1F
100
AcDbEntity
  8
寸法線
100
AcDbDimension
  2
*D11
 10
252.9808668324899
 20
158.7238690603311
 30
0.0
 11
274.5014935968163
 21
156.8908410757331
 31
0.0
 70
   163
 71
     5
 42
5.000000000000028
  3
sunpo
100
AcDbDiametricDimension
 15
257.9628278044296
 25
158.2995285436842
 35
0.0
 40
0.0
1001
ACAD
1000
DSTYLE
1002
{
1070
    40
1040
1.0
1070
   288
1070
     1
1002
}
  0
DIMENSION
  5
3B23
330
1F
100
AcDbEntity
  8
寸法線
100
AcDbDimension
  2
*D12
 10
205.4718473184598
 20
96.71535908653357
 30
0.0
 11
200.4718473184598
 21
100.2153590865335
 31
0.0
 70
    32
 71
     5
 42
10.0
  3
sunpo
100
AcDbAlignedDimension
 13
195.4718473184598
 23
113.5116988020077
 33
0.0
 14
205.4718473184598
 24
118.5116988020077
 34
0.0
100
AcDbRotatedDimension
1001
ACAD
1000
DSTYLE
1002
{
1070
    40
1040
1.0
1002
}
  0
DIMENSION
  5
3B30
330
1F
100
AcDbEntity
  8
寸法線
100
AcDbDimension
  2
*D13
 10
183.9002535771399
 20
118.5116988020077
 30
0.0
 11
180.4002535771398
 21
113.5116988020077
 31
0.0
 70
    32
 71
     5
 42
10.0
  3
sunpo
100
AcDbAlignedDimension
 13
200.4718473184598
 23
108.5116988020077
 33
0.0
 14
205.4718473184598
 24
118.5116988020077
 34
0.0
 50
90.0
100
AcDbRotatedDimension
1001
ACAD
1000
DSTYLE
1002
{
1070
    40
1040
1.0
1002
}
  0
DIMENSION
  5
3B48
330
1F
100
AcDbEntity
  8
寸法線
100
AcDbDimension
  2
*D14
 10
57.21872691788781
 20
168.5116988020077
 30
0.0
 11
53.71872691788778
 21
138.5116988020077
 31
0.0
 70
    32
 71
     5
 42
60.00000000000001
  3
sunpo
100
AcDbAlignedDimension
 13
83.24231320052286
 23
108.5116988020077
 33
0.0
 14
83.24231320052286
 24
168.5116988020077
 34
0.0
 50
90.0
100
AcDbRotatedDimension
1001
ACAD
1000
DSTYLE
1002
{
1070
    40
1040
1.0
1002
}
  0
DIMENSION
  5
3B55
330
1F
100
AcDbEntity
  8
寸法線
100
AcDbDimension
  2
*D15
 10
232.4718473184598
 20
87.68748116759274
 30
0.0
 11
240.7218473184598
 21
91.18748116759276
 31
0.0
 70
    32
 71
     5
 42
4.0
  3
sunpo
100
AcDbAlignedDimension
 13
228.4718473184598
 23
108.5116988020077
 33
0.0
 14
232.4718473184598
 24
108.5116988020077
 34
0.0
100
AcDbRotatedDimension
1001
ACAD
1000
DSTYLE
1002
{
1070
    40
1040
1.0
1002
}
  0
DIMENSION
  5
3B64
330
1F
100
AcDbEntity
  8
寸法線
100
AcDbDimension
  2
*D16
 10
86.24231320052286
 20
191.5287741170543
 30
0.0
 11
83.74231320052286
 21
195.0287741170543
 31
0.0
 70
    32
 71
     5
 42
5.0
  3
sunpo
100
AcDbAlignedDimension
 13
81.24231320052286
 23
168.5116988020077
 33
0.0
 14
86.24231320052286
 24
168.5116988020077
 34
0.0
100
AcDbRotatedDimension
1001
ACAD
1000
DSTYLE
1002
{
1070
    40
1040
1.0
1002
}
  0
DIMENSION
  5
3B7E
330
1F
100
AcDbEntity
  8
寸法線
100
AcDbDimension
  2
*D17
 10
92.24231320052286
 20
141.5201163232753
 30
0.0
 11
89.24231320052285
 21
145.0201163232753
 31
0.0
 70
    32
 71
     5
 42
6.0
  3
sunpo
100
AcDbAlignedDimension
 13
86.24231320052286
 23
150.5116988020077
 33
0.0
 14
92.24231320052286
 24
150.5116988020077
 34
0.0
100
AcDbRotatedDimension
1001
ACAD
1000
DSTYLE
1002
{
1070
    40
1040
1.0
1002
}
  0
DIMENSION
  5
3B8D
330
1F
100
AcDbEntity
  8
寸法線
100
AcDbDimension
  2
*D18
 10
100.8638010880785
 20
154.5116988020077
 30
0.0
 11
97.3638010880785
 21
162.7616988020077
 31
0.0
 70
    32
 71
     5
 42
4.0
  3
sunpo
100
AcDbAlignedDimension
 13
92.24231320052286
 23
150.5116988020077
 33
0.0
 14
92.24231320052286
 24
154.5116988020077
 34
0.0
 50
90.0
100
AcDbRotatedDimension
1001
ACAD
1000
DSTYLE
1002
{
1070
    40
1040
1.0
1002
}
  0
DIMENSION
  5
3BA5
330
1F
100
AcDbEntity
  8
寸法線
100
AcDbDimension
  2
*D20
 10
86.7038177916727
 20
120.1104611543436
 30
0.0
 11
120.1154413541388
 21
99.06758445822765
 31
0.0
 70
   163
 71
     5
 42
5.999999999999985
  3
sunpo
100
AcDbDiametricDimension
 15
91.78080860937301
 25
116.9129364496718
 35
0.0
 40
0.0
1001
ACAD
1000
DSTYLE
1002
{
1070
    40
1040
1.0
1070
   288
1070
     1
1002
}
  0
DIMENSION
  5
3BB1
330
1F
100
AcDbEntity
  8
寸法線
100
AcDbDimension
  2
*D21
 10
72.9821156365034
 20
168.5116988020077
 30
0.0
 11
69.48211563650338
 21
163.5116988020077
 31
0.0
 70
    32
 71
     5
 42
10.0
  3
sunpo
100
AcDbAlignedDimension
 13
89.24231320052284
 23
158.5116988020077
 33
0.0
 14
86.24231320052286
 24
168.5116988020077
 34
0.0
 50
90.0
100
AcDbRotatedDimension
1001
ACAD
1000
DSTYLE
1002
{
1070
    40
1040
1.0
1002
}
  0
DIMENSION
  5
3BBE
330
1F
100
AcDbEntity
  8
寸法線
100
AcDbDimension
  2
*D22
 10
222.4718473184598
 20
140.5251351512946
 30
0.0
 11
225.4718473184598
 21
144.0251351512946
 31
0.0
 70
    32
 71
     5
 42
6.0
  3
sunpo
100
AcDbAlignedDimension
 13
228.4718473184598
 23
150.5116988020077
 33
0.0
 14
222.4718473184598
 24
150.5116988020077
 34
0.0
100
AcDbRotatedDimension
1001
ACAD
1000
DSTYLE
1002
{
1070
    40
1040
1.0
1002
}
  0
DIMENSION
  5
3BCD
330
1F
100
AcDbEntity
  8
寸法線
100
AcDbDimension
  2
*D23
 10
218.3651903996623
 20
154.5116988020077
 30
0.0
 11
214.8651903996622
 21
162.7616988020077
 31
0.0
 70
    32
 71
     5
 42
4.0
  3
sunpo
100
AcDbAlignedDimension
 13
222.4718473184598
 23
150.5116988020077
 33
0.0
 14
222.4718473184598
 24
154.5116988020077
 34
0.0
 50
90.0
100
AcDbRotatedDimension
1001
ACAD
1000
DSTYLE
1002
{
1070
    40
1040
1.0
1002
}
  0
VIEWPORT
  5
2E
330
1B
100
AcDbEntity
 67
     1
  8
0
100
AcDbViewport
 10
251.6950977999512
 20
114.0667812823735
 30
0.0
 40
606.7223341031319
 41
290.6804751812433
 68
     2
 69
     1
 12
251.6950977999512
 22
114.0667812823735
 13
0.0
 23
0.0
 14
10.0
 24
10.0
 15
10.0
 25
10.0
 16
0.0
 26
0.0
 36
1.0
 17
0.0
 27
0.0
 37
0.0
 42
50.0
 43
0.0
 44
0.0
 45
290.6804751812433
 50
0.0
 51
0.0
 72
   100
 90
    32800
  1

281
     0
 71
     1
 74
     0
110
0.0
120
0.0
130
0.0
111
1.0
121
0.0
131
0.0
112
0.0
122
1.0
132
0.0
 79
     0
146
0.0
  0
VIEWPORT
  5
30
330
1B
100
AcDbEntity
 67
     1
  8
70-0-CON
100
AcDbViewport
 10
141.8594093064315
 20
100.3480256368386
 30
0.0
 40
261.6199023344245
 41
192.6196987113174
 68
     1
 69
     2
 12
196.1128628891641
 22
185.1691309014865
 13
0.0
 23
0.0
 14
5.0
 24
5.0
 15
10.0
 25
10.0
 16
0.0
 26
0.0
 36
1.0
 17
0.0
 27
0.0
 37
0.0
 42
50.0
 43
0.0
 44
0.0
 45
240.6613567910389
 50
0.0
 51
0.0
 72
   100
 90
    32864
  1

281
     0
 71
     1
 74
     0
110
0.0
120
0.0
130
0.0
111
1.0
121
0.0
131
0.0
112
0.0
122
1.0
132
0.0
 79
     0
146
0.0
  0
LWPOLYLINE
  5
45
330
1B
100
AcDbEntity
 67
     1
  8
50-0-CON
100
AcDbPolyline
 90
        4
 70
     1
 43
0.0
 10
11.04945813921926
 20
4.038176281179858
 10
272.2125713060605
 20
4.033520706629644
 10
273.4987754093466
 20
195.9297862125246
 10
11.04945813921926
 20
196.6578749924973
  0
LINE
  5
4A
330
1B
100
AcDbEntity
 67
     1
  8
50-0-CON
100
AcDbLine
 10
10.38768783662635
 20
100.3480256368386
 30
0.0
 11
-4.391850629656119
 21
100.3480256368386
 31
0.0
  0
LINE
  5
4B
330
1B
100
AcDbEntity
 67
     1
  8
50-0-CON
100
AcDbLine
 10
141.8594093064315
 20
197.098652626247
 30
0.0
 11
141.8594093064315
 21
202.387980773708
 31
0.0
  0
LINE
  5
4C
330
1B
100
AcDbEntity
 67
     1
  8
50-0-CON
100
AcDbLine
 10
272.4487699456857
 20
100.7888032705883
 30
0.0
 11
278.8458837249377
 21
100.7888032705883
 31
0.0
  0
LINE
  5
4D
330
1B
100
AcDbEntity
 67
     1
  8
50-0-CON
100
AcDbLine
 10
140.9770484758805
 20
4.038176281179858
 30
0.0
 11
140.9770484758805
 21
-3.455038652015446
 31
0.0
  0
ENDSEC
  0
SECTION
  2
OBJECTS
  0
DICTIONARY
  5
C
330
0
100
AcDbDictionary
281
     1
  3
ACAD_GROUP
350
D
  3
ACAD_LAYOUT
350
1A
  3
ACAD_MLINESTYLE
350
17
  3
ACAD_PLOTSETTINGS
350
19
  3
ACAD_PLOTSTYLENAME
350
E
  3
AcadDim
350
13D0
  3
AcDbVariableDictionary
350
6AD
  3
DWGPROPS
350
30F
  0
DICTIONARY
  5
D
102
{ACAD_REACTORS
330
C
102
}
330
C
100
AcDbDictionary
281
     1
  0
DICTIONARY
  5
1A
102
{ACAD_REACTORS
330
C
102
}
330
C
100
AcDbDictionary
281
     1
  3
A4
350
1E
  3
Model
350
22
  0
DICTIONARY
  5
17
102
{ACAD_REACTORS
330
C
102
}
330
C
100
AcDbDictionary
281
     1
  3
Standard
350
18
  0
DICTIONARY
  5
19
102
{ACAD_REACTORS
330
C
102
}
330
C
100
AcDbDictionary
281
     1
  0
ACDBDICTIONARYWDFLT
  5
E
102
{ACAD_REACTORS
330
C
102
}
330
C
100
AcDbDictionary
281
     1
  3
Normal
350
F
100
AcDbDictionaryWithDefault
340
F
  0
XRECORD
  5
13D0
102
{ACAD_REACTORS
330
C
102
}
330
C
100
AcDbXrecord
280
     1
 90
   990106
  3

 60
     0
 61
     0
 62
     1
 63
     3
 64
     0
 65
     0
 66
     0
 67
     3
 68
     1
 69
     0
 70
     0
 71
     0
 72
     0
 40
0.0
170
     0
340
0
  0
DICTIONARY
  5
6AD
102
{ACAD_REACTORS
330
C
102
}
330
C
100
AcDbDictionary
281
     1
  3
SORTENTS
350
6AE
  0
XRECORD
  5
30F
102
{ACAD_REACTORS
330
C
102
}
330
C
100
AcDbXrecord
280
     1
  1
DWGPROPS COOKIE
  2

  3

  4

  6

  7

  8

  9

300
=
301
=
302
=
303
=
304
=
305
=
306
=
307
=
308
=
309
=
 40
0.3303803125
 41
2452362.482225463
 42
2452370.969861285
  1

 90
        0
  0
LAYOUT
  5
1E
102
{ACAD_REACTORS
330
1A
102
}
330
1A
100
AcDbPlotSettings
  1

  2
EPSON PM-920C
  4
A4
  6

 40
3.757083177566528
 41
14.7637300491333
 42
3.757080078125
 43
3.757080078125
 44
209.9733276367187
 45
296.9683227539062
 46
0.0
 47
0.0
 48
0.0
 49
0.0
140
0.0
141
0.0
142
1.0
143
1.0
 70
   688
 72
     1
 73
     1
 74
     5
  7
joint.ctb
 75
    16
147
1.0
148
0.0
149
0.0
100
AcDbLayout
  1
A4
 70
     1
 71
     1
 10
-3.757080078125
 20
-3.757083177566528
 11
293.2112426757812
 21
206.2162444591522
 12
0.0
 22
0.0
 32
0.0
 14
-4.391850629656119
 24
-3.455038652015446
 34
0.0
 15
278.8458837249377
 25
202.387980773708
 35
0.0
146
0.0
 13
0.0
 23
0.0
 33
0.0
 16
1.0
 26
0.0
 36
0.0
 17
0.0
 27
1.0
 37
0.0
 76
     0
330
1B
331
30
  0
LAYOUT
  5
22
102
{ACAD_REACTORS
330
1A
102
}
330
1A
100
AcDbPlotSettings
  1

  2
EPSON PM-920C
  4
A4
  6

 40
3.757083177566528
 41
14.7637300491333
 42
3.757080078125
 43
3.757080078125
 44
209.9733276367187
 45
296.9683227539062
 46
0.0
 47
0.0
 48
0.0
 49
0.0
140
0.0
141
0.0
142
1.0
143
1.0
 70
 11952
 72
     1
 73
     1
 74
     0
  7

 75
     0
147
1.0
148
-45.64199848979289
149
-84.48806419330498
100
AcDbLayout
  1
Model
 70
     1
 71
     0
 10
0.0
 20
0.0
 11
12.0
 21
9.0
 12
0.0
 22
0.0
 32
0.0
 14
0.0
 24
0.0
 34
0.0
 15
0.0
 25
0.0
 35
0.0
146
0.0
 13
0.0
 23
0.0
 33
0.0
 16
1.0
 26
0.0
 36
0.0
 17
0.0
 27
1.0
 37
0.0
 76
     0
330
1F
  0
MLINESTYLE
  5
18
102
{ACAD_REACTORS
330
17
102
}
330
17
100
AcDbMlineStyle
  2
STANDARD
 70
     0
  3

 62
   256
 51
90.0
 52
90.0
 71
     2
 49
0.5
 62
   256
  6
BYLAYER
 49
-0.5
 62
   256
  6
BYLAYER
  0
ACDBPLACEHOLDER
  5
F
102
{ACAD_REACTORS
330
E
102
}
330
E
  0
DICTIONARYVAR
  5
6AE
102
{ACAD_REACTORS
330
6AD
102
}
330
6AD
100
DictionaryVariables
280
     0
  1
96
  0
ENDSEC
  0
EOF
