  0
SECTION
  2
HEADER
  9
$ACADVER
  1
AC1015
  9
$ACADMAINTVER
 70
     6
  9
$DWGCODEPAGE
  3
ANSI_932
  9
$INSBASE
 10
0.0
 20
0.0
 30
0.0
  9
$EXTMIN
 10
23.13318329796588
 20
-39.19500779078715
 30
-0.00000001
  9
$EXTMAX
 10
348.196544768897
 20
232.7298874707949
 30
0.00000001
  9
$LIMMIN
 10
0.0
 20
0.0
  9
$LIMMAX
 10
420.0
 20
297.0
  9
$ORTHOMODE
 70
     1
  9
$REGENMODE
 70
     1
  9
$FILLMODE
 70
     1
  9
$QTEXTMODE
 70
     0
  9
$MIRRTEXT
 70
     1
  9
$LTSCALE
 40
1.0
  9
$ATTMODE
 70
     1
  9
$TEXTSIZE
 40
5.0
  9
$TRACEWID
 40
1.0
  9
$TEXTSTYLE
  7
OKANO
  9
$CLAYER
  8
太線
  9
$CELTYPE
  6
ByLayer
  9
$CECOLOR
 62
   256
  9
$CELTSCALE
 40
1.0
  9
$DISPSILH
 70
     0
  9
$DIMSCALE
 40
0.0
  9
$DIMASZ
 40
3.0
  9
$DIMEXO
 40
2.0
  9
$DIMDLI
 40
8.0
  9
$DIMRND
 40
0.0
  9
$DIMDLE
 40
0.0
  9
$DIMEXE
 40
3.0
  9
$DIMTP
 40
0.0
  9
$DIMTM
 40
0.0
  9
$DIMTXT
 40
5.0
  9
$DIMCEN
 40
2.5
  9
$DIMTSZ
 40
0.0
  9
$DIMTOL
 70
     0
  9
$DIMLIM
 70
     0
  9
$DIMTIH
 70
     0
  9
$DIMTOH
 70
     0
  9
$DIMSE1
 70
     0
  9
$DIMSE2
 70
     0
  9
$DIMTAD
 70
     1
  9
$DIMZIN
 70
     8
  9
$DIMBLK
  1
Closed
  9
$DIMASO
 70
     1
  9
$DIMSHO
 70
     1
  9
$DIMPOST
  1

  9
$DIMAPOST
  1

  9
$DIMALT
 70
     0
  9
$DIMALTD
 70
     3
  9
$DIMALTF
 40
0.03937007874016
  9
$DIMLFAC
 40
1.0
  9
$DIMTOFL
 70
     1
  9
$DIMTVP
 40
0.0
  9
$DIMTIX
 70
     0
  9
$DIMSOXD
 70
     0
  9
$DIMSAH
 70
     0
  9
$DIMBLK1
  1

  9
$DIMBLK2
  1

  9
$DIMSTYLE
  2
sunpo
  9
$DIMCLRD
 70
     0
  9
$DIMCLRE
 70
     0
  9
$DIMCLRT
 70
     0
  9
$DIMTFAC
 40
1.0
  9
$DIMGAP
 40
1.0
  9
$DIMJUST
 70
     0
  9
$DIMSD1
 70
     0
  9
$DIMSD2
 70
     0
  9
$DIMTOLJ
 70
     0
  9
$DIMTZIN
 70
     8
  9
$DIMALTZ
 70
     0
  9
$DIMALTTZ
 70
     0
  9
$DIMUPT
 70
     0
  9
$DIMDEC
 70
     2
  9
$DIMTDEC
 70
     2
  9
$DIMALTU
 70
     2
  9
$DIMALTTD
 70
     3
  9
$DIMTXSTY
  7
OKANO
  9
$DIMAUNIT
 70
     0
  9
$DIMADEC
 70
     0
  9
$DIMALTRND
 40
0.0
  9
$DIMAZIN
 70
     0
  9
$DIMDSEP
 70
    46
  9
$DIMATFIT
 70
     3
  9
$DIMFRAC
 70
     0
  9
$DIMLDRBLK
  1
Closed
  9
$DIMLUNIT
 70
     2
  9
$DIMLWD
 70
    -2
  9
$DIMLWE
 70
    -2
  9
$DIMTMOVE
 70
     0
  9
$LUNITS
 70
     2
  9
$LUPREC
 70
     2
  9
$SKETCHINC
 40
1.0
  9
$FILLETRAD
 40
5.0
  9
$AUNITS
 70
     0
  9
$AUPREC
 70
     0
  9
$MENU
  1
.
  9
$ELEVATION
 40
0.0
  9
$PELEVATION
 40
0.0
  9
$THICKNESS
 40
0.0
  9
$LIMCHECK
 70
     0
  9
$CHAMFERA
 40
10.0
  9
$CHAMFERB
 40
10.0
  9
$CHAMFERC
 40
20.0
  9
$CHAMFERD
 40
0.0
  9
$SKPOLY
 70
     0
  9
$TDCREATE
 40
2452362.482225463
  9
$TDUCREATE
 40
2452362.107225463
  9
$TDUPDATE
 40
2455957.557010092
  9
$TDUUPDATE
 40
2455957.182010092
  9
$TDINDWG
 40
2.2238316667
  9
$TDUSRTIMER
 40
2.2238316667
  9
$USRTIMER
 70
     1
  9
$ANGBASE
 50
0.0
  9
$ANGDIR
 70
     0
  9
$PDMODE
 70
     0
  9
$PDSIZE
 40
0.0
  9
$PLINEWID
 40
0.0
  9
$SPLFRAME
 70
     0
  9
$SPLINETYPE
 70
     6
  9
$SPLINESEGS
 70
     8
  9
$HANDSEED
  5
2FA5
  9
$SURFTAB1
 70
     6
  9
$SURFTAB2
 70
     6
  9
$SURFTYPE
 70
     6
  9
$SURFU
 70
     6
  9
$SURFV
 70
     6
  9
$UCSBASE
  2

  9
$UCSNAME
  2

  9
$UCSORG
 10
0.0
 20
0.0
 30
0.0
  9
$UCSXDIR
 10
1.0
 20
0.0
 30
0.0
  9
$UCSYDIR
 10
0.0
 20
1.0
 30
0.0
  9
$UCSORTHOREF
  2

  9
$UCSORTHOVIEW
 70
     0
  9
$UCSORGTOP
 10
0.0
 20
0.0
 30
0.0
  9
$UCSORGBOTTOM
 10
0.0
 20
0.0
 30
0.0
  9
$UCSORGLEFT
 10
0.0
 20
0.0
 30
0.0
  9
$UCSORGRIGHT
 10
0.0
 20
0.0
 30
0.0
  9
$UCSORGFRONT
 10
0.0
 20
0.0
 30
0.0
  9
$UCSORGBACK
 10
0.0
 20
0.0
 30
0.0
  9
$PUCSBASE
  2

  9
$PUCSNAME
  2

  9
$PUCSORG
 10
0.0
 20
0.0
 30
0.0
  9
$PUCSXDIR
 10
1.0
 20
0.0
 30
0.0
  9
$PUCSYDIR
 10
0.0
 20
1.0
 30
0.0
  9
$PUCSORTHOREF
  2

  9
$PUCSORTHOVIEW
 70
     0
  9
$PUCSORGTOP
 10
0.0
 20
0.0
 30
0.0
  9
$PUCSORGBOTTOM
 10
0.0
 20
0.0
 30
0.0
  9
$PUCSORGLEFT
 10
0.0
 20
0.0
 30
0.0
  9
$PUCSORGRIGHT
 10
0.0
 20
0.0
 30
0.0
  9
$PUCSORGFRONT
 10
0.0
 20
0.0
 30
0.0
  9
$PUCSORGBACK
 10
0.0
 20
0.0
 30
0.0
  9
$USERI1
 70
     0
  9
$USERI2
 70
     0
  9
$USERI3
 70
     0
  9
$USERI4
 70
     0
  9
$USERI5
 70
     0
  9
$USERR1
 40
0.0
  9
$USERR2
 40
0.0
  9
$USERR3
 40
0.0
  9
$USERR4
 40
0.0
  9
$USERR5
 40
0.0
  9
$WORLDVIEW
 70
     1
  9
$SHADEDGE
 70
     3
  9
$SHADEDIF
 70
    70
  9
$TILEMODE
 70
     0
  9
$MAXACTVP
 70
    64
  9
$PINSBASE
 10
0.0
 20
0.0
 30
0.0
  9
$PLIMCHECK
 70
     0
  9
$PEXTMIN
 10
-4.391850629656119
 20
-3.455038652015446
 30
0.0
  9
$PEXTMAX
 10
278.8458837249377
 20
202.387980773708
 30
0.0
  9
$PLIMMIN
 10
-3.757080078125
 20
-3.757083177566528
  9
$PLIMMAX
 10
293.2112426757812
 20
206.2162444591522
  9
$UNITMODE
 70
     0
  9
$VISRETAIN
 70
     1
  9
$PLINEGEN
 70
     0
  9
$PSLTSCALE
 70
     1
  9
$TREEDEPTH
 70
  3020
  9
$CMLSTYLE
  2
Standard
  9
$CMLJUST
 70
     0
  9
$CMLSCALE
 40
20.0
  9
$PROXYGRAPHICS
 70
     1
  9
$MEASUREMENT
 70
     1
  9
$CELWEIGHT
370
    -1
  9
$ENDCAPS
280
     0
  9
$JOINSTYLE
280
     0
  9
$LWDISPLAY
290
     0
  9
$INSUNITS
 70
     4
  9
$HYPERLINKBASE
  1

  9
$STYLESHEET
  1

  9
$XEDIT
290
     1
  9
$CEPSNTYPE
380
     0
  9
$PSTYLEMODE
290
     1
  9
$FINGERPRINTGUID
  2
{FF7F33C3-4233-11D6-AEE0-0000F45FD7F4}
  9
$VERSIONGUID
  2
{0097FE20-125D-4EC6-9B24-217F4FA9CB94}
  9
$EXTNAMES
290
     1
  9
$PSVPSCALE
 40
0.0
  9
$OLESTARTUP
290
     0
  0
ENDSEC
  0
SECTION
  2
CLASSES
  0
CLASS
  1
ACDBDICTIONARYWDFLT
  2
AcDbDictionaryWithDefault
  3
AutoCAD 2000
 90
        0
280
     0
281
     0
  0
CLASS
  1
ACDBPLACEHOLDER
  2
AcDbPlaceHolder
  3
AutoCAD 2000
 90
        0
280
     0
281
     0
  0
CLASS
  1
LAYOUT
  2
AcDbLayout
  3
AutoCAD 2000
 90
        0
280
     0
281
     0
  0
CLASS
  1
DICTIONARYVAR
  2
AcDbDictionaryVar
  3
AutoCAD 2000
 90
        0
280
     0
281
     0
  0
ENDSEC
  0
SECTION
  2
TABLES
  0
TABLE
  2
VPORT
  5
8
330
0
100
AcDbSymbolTable
 70
     3
  0
VPORT
  5
2FA4
330
8
100
AcDbSymbolTableRecord
100
AcDbViewportTableRecord
  2
*Active
 70
     0
 10
0.0
 20
0.0
 11
1.0
 21
1.0
 12
114.9910015534232
 22
102.3512157009998
 13
0.0
 23
0.0
 14
5.0
 24
5.0
 15
10.0
 25
10.0
 16
0.0
 26
0.0
 36
1.0
 17
0.0
 27
0.0
 37
0.0
 40
446.5105726516799
 41
2.08724832214765
 42
50.0
 43
0.0
 44
0.0
 50
0.0
 51
0.0
 71
     0
 72
   100
 73
     1
 74
     3
 75
     0
 76
     0
 77
     0
 78
     0
281
     0
 65
     1
110
0.0
120
0.0
130
0.0
111
1.0
121
0.0
131
0.0
112
0.0
122
1.0
132
0.0
 79
     0
146
0.0
  0
ENDTAB
  0
TABLE
  2
LTYPE
  5
5
330
0
100
AcDbSymbolTable
 70
     5
  0
LTYPE
  5
14
330
5
100
AcDbSymbolTableRecord
100
AcDbLinetypeTableRecord
  2
ByBlock
 70
     0
  3

 72
    65
 73
     0
 40
0.0
  0
LTYPE
  5
15
330
5
100
AcDbSymbolTableRecord
100
AcDbLinetypeTableRecord
  2
ByLayer
 70
     0
  3

 72
    65
 73
     0
 40
0.0
  0
LTYPE
  5
16
330
5
100
AcDbSymbolTableRecord
100
AcDbLinetypeTableRecord
  2
Continuous
 70
     0
  3
Solid line
 72
    65
 73
     0
 40
0.0
  0
LTYPE
  5
33
330
5
100
AcDbSymbolTableRecord
100
AcDbLinetypeTableRecord
  2
DASHED2
 70
     0
  3
Dashed (.5x) _ _ _ _ _ _ _ _ _ _ _ _ _ _ _ _ _
 72
    65
 73
     2
 40
9.524999999999998
 49
6.349999999999999
 74
     0
 49
-3.174999999999999
 74
     0
  0
LTYPE
  5
34
330
5
100
AcDbSymbolTableRecord
100
AcDbLinetypeTableRecord
  2
CENTER2
 70
     0
  3
Center (.5x) ___ _ ___ _ ___ _ ___ _ ___ _ ___
 72
    65
 73
     4
 40
28.57499999999999
 49
19.05
 74
     0
 49
-3.174999999999999
 74
     0
 49
3.174999999999999
 74
     0
 49
-3.174999999999999
 74
     0
  0
LTYPE
  5
35
330
5
100
AcDbSymbolTableRecord
100
AcDbLinetypeTableRecord
  2
PHANTOM2
 70
     0
  3
Phantom (.5x) ___ _ _ ___ _ _ ___ _ _ ___ _ _
 72
    65
 73
     6
 40
31.75
 49
15.875
 74
     0
 49
-3.174999999999999
 74
     0
 49
3.174999999999999
 74
     0
 49
-3.174999999999999
 74
     0
 49
3.174999999999999
 74
     0
 49
-3.174999999999999
 74
     0
  0
LTYPE
  5
36
330
5
100
AcDbSymbolTableRecord
100
AcDbLinetypeTableRecord
  2
HIDDEN2
 70
     0
  3
Hidden (.5x) _ _ _ _ _ _ _ _ _ _ _ _ _ _ _ _ _
 72
    65
 73
     2
 40
4.762499999999999
 49
3.174999999999999
 74
     0
 49
-1.587499999999999
 74
     0
  0
ENDTAB
  0
TABLE
  2
LAYER
  5
2
330
0
100
AcDbSymbolTable
 70
    13
  0
LAYER
  5
10
330
2
100
AcDbSymbolTableRecord
100
AcDbLayerTableRecord
  2
0
 70
     0
 62
     7
  6
Continuous
370
    -3
390
F
  0
LAYER
  5
40
330
2
100
AcDbSymbolTableRecord
100
AcDbLayerTableRecord
  2
50-0-CON
 70
     0
 62
     4
  6
Continuous
370
    50
390
F
  0
LAYER
  5
41
330
2
100
AcDbSymbolTableRecord
100
AcDbLayerTableRecord
  2
70-0-CON
 70
     0
 62
   202
  6
Continuous
370
    70
390
F
  0
LAYER
  5
4E
330
2
100
AcDbSymbolTableRecord
100
AcDbLayerTableRecord
  2
極太線
 70
     0
 62
     7
  6
Continuous
370
    70
390
F
  0
LAYER
  5
4F
330
2
100
AcDbSymbolTableRecord
100
AcDbLayerTableRecord
  2
細線
 70
     0
 62
     8
  6
Continuous
370
    18
390
F
  0
LAYER
  5
AB
330
2
100
AcDbSymbolTableRecord
100
AcDbLayerTableRecord
  2
構築線
 70
     0
 62
    -2
  6
Continuous
370
    18
390
F
  0
LAYER
  5
B8
330
2
100
AcDbSymbolTableRecord
100
AcDbLayerTableRecord
  2
太線
 70
     0
 62
     7
  6
Continuous
370
    35
390
F
  0
LAYER
  5
B9
330
2
100
AcDbSymbolTableRecord
100
AcDbLayerTableRecord
  2
寸法線
 70
     0
 62
     5
  6
Continuous
370
    18
390
F
  0
LAYER
  5
BA
330
2
100
AcDbSymbolTableRecord
100
AcDbLayerTableRecord
  2
破線
 70
     0
 62
     8
  6
HIDDEN2
370
    18
390
F
  0
LAYER
  5
BB
330
2
100
AcDbSymbolTableRecord
100
AcDbLayerTableRecord
  2
中心線
 70
     0
 62
     1
  6
CENTER2
370
    18
390
F
  0
LAYER
  5
BC
330
2
100
AcDbSymbolTableRecord
100
AcDbLayerTableRecord
  2
想像線
 70
     0
 62
     8
  6
PHANTOM2
370
    18
390
F
  0
LAYER
  5
BD
330
2
100
AcDbSymbolTableRecord
100
AcDbLayerTableRecord
  2
文字
 70
     0
 62
     7
  6
Continuous
370
    18
390
F
  0
LAYER
  5
180
330
2
100
AcDbSymbolTableRecord
100
AcDbLayerTableRecord
  2
Defpoints
 70
     0
 62
     7
  6
Continuous
290
     0
370
    -3
390
F
  0
ENDTAB
  0
TABLE
  2
STYLE
  5
3
330
0
100
AcDbSymbolTable
 70
     3
  0
STYLE
  5
11
330
3
100
AcDbSymbolTableRecord
100
AcDbTextStyleTableRecord
  2
Standard
 70
     0
 40
0.0
 41
1.0
 50
0.0
 71
     0
 42
3.0
  3
txt
  4

  0
STYLE
  5
32
330
3
100
AcDbSymbolTableRecord
100
AcDbTextStyleTableRecord
  2

 70
     1
 40
0.0
 41
1.0
 50
0.0
 71
     0
 42
2.5
  3
ltypeshp.shx
  4

  0
STYLE
  5
50
330
3
100
AcDbSymbolTableRecord
100
AcDbTextStyleTableRecord
  2
OKANO
 70
     0
 40
0.0
 41
1.0
 50
15.0
 71
     0
 42
5.0
  3
isocp.shx
  4
bigfont.shx
  0
ENDTAB
  0
TABLE
  2
VIEW
  5
6
330
0
100
AcDbSymbolTable
 70
     0
  0
ENDTAB
  0
TABLE
  2
UCS
  5
7
330
0
100
AcDbSymbolTable
 70
     0
  0
ENDTAB
  0
TABLE
  2
APPID
  5
9
330
0
100
AcDbSymbolTable
 70
     1
  0
APPID
  5
12
330
9
100
AcDbSymbolTableRecord
100
AcDbRegAppTableRecord
  2
ACAD
 70
     0
  0
ENDTAB
  0
TABLE
  2
DIMSTYLE
  5
A
330
0
100
AcDbSymbolTable
 70
     2
100
AcDbDimStyleTable
 71
     2
340
A2
340
27
  0
DIMSTYLE
105
27
330
A
100
AcDbSymbolTableRecord
100
AcDbDimStyleTableRecord
  2
ISO-25
 70
     0
 41
2.5
 42
0.625
 43
3.75
 44
1.25
 73
     0
 74
     0
 77
     1
 78
     8
140
2.5
141
2.5
143
0.03937007874016
147
0.625
171
     3
172
     1
271
     2
272
     2
274
     3
283
     0
284
     8
340
11
  0
DIMSTYLE
105
A2
102
{ACAD_REACTORS
330
29F1
330
29FE
330
2A78
330
2BB9
330
2C6D
330
2C7A
330
2C89
330
2CD4
330
2CE1
330
2CEE
330
2CFB
330
2D7A
330
2D87
330
2D94
330
2DA3
330
2DB0
330
2DBF
330
2DFD
330
2E5B
330
2E68
330
2E7A
102
}
330
A
100
AcDbSymbolTableRecord
100
AcDbDimStyleTableRecord
  2
sunpo
 70
     0
 40
0.0
 41
3.0
 42
2.0
 43
8.0
 44
3.0
 73
     0
 74
     0
 77
     1
 78
     8
140
5.0
141
2.5
143
0.03937007874016
147
1.0
171
     3
172
     1
271
     2
272
     2
274
     3
283
     0
284
     8
340
50
341
9B
342
9B
  0
ENDTAB
  0
TABLE
  2
BLOCK_RECORD
  5
1
330
0
100
AcDbSymbolTable
 70
    23
  0
BLOCK_RECORD
  5
1F
330
1
100
AcDbSymbolTableRecord
100
AcDbBlockTableRecord
  2
*Model_Space
340
22
  0
BLOCK_RECORD
  5
1B
330
1
100
AcDbSymbolTableRecord
100
AcDbBlockTableRecord
  2
*Paper_Space
340
1E
  0
BLOCK_RECORD
  5
9B
330
1
100
AcDbSymbolTableRecord
100
AcDbBlockTableRecord
  2
_Closed
340
0
102
{BLKREFS
331
2A36
331
2A37
331
2AF8
331
2AF9
331
2BC9
331
2BCA
331
2C72
331
2C73
331
2C81
331
2C82
331
2C99
331
2C9A
331
2CE6
331
2CE7
331
2CF3
331
2CF4
331
2D00
331
2D08
331
2D09
331
2D40
331
2D41
331
2DCF
331
2DD0
331
2DDA
331
2DDB
331
2DE5
331
2DE6
331
2DEE
331
2DEF
331
2DF7
331
2DF8
331
2E02
331
2E03
331
2E73
331
2E74
331
2E8A
331
2E8B
331
2E93
331
2E94
331
2EC6
331
2EC7
102
}
  0
BLOCK_RECORD
  5
1510
330
1
100
AcDbSymbolTableRecord
100
AcDbBlockTableRecord
  2
A$C10A573AC
340
0
  0
BLOCK_RECORD
  5
29F2
330
1
100
AcDbSymbolTableRecord
100
AcDbBlockTableRecord
  2
*D2
340
0
  0
BLOCK_RECORD
  5
29FF
330
1
100
AcDbSymbolTableRecord
100
AcDbBlockTableRecord
  2
*D3
340
0
  0
BLOCK_RECORD
  5
2A79
330
1
100
AcDbSymbolTableRecord
100
AcDbBlockTableRecord
  2
*D4
340
0
  0
BLOCK_RECORD
  5
2BBA
330
1
100
AcDbSymbolTableRecord
100
AcDbBlockTableRecord
  2
*D5
340
0
  0
BLOCK_RECORD
  5
2C6E
330
1
100
AcDbSymbolTableRecord
100
AcDbBlockTableRecord
  2
*D6
340
0
  0
BLOCK_RECORD
  5
2C7B
330
1
100
AcDbSymbolTableRecord
100
AcDbBlockTableRecord
  2
*D7
340
0
  0
BLOCK_RECORD
  5
2C8A
330
1
100
AcDbSymbolTableRecord
100
AcDbBlockTableRecord
  2
*D8
340
0
  0
BLOCK_RECORD
  5
2CD5
330
1
100
AcDbSymbolTableRecord
100
AcDbBlockTableRecord
  2
*D9
340
0
  0
BLOCK_RECORD
  5
2CE2
330
1
100
AcDbSymbolTableRecord
100
AcDbBlockTableRecord
  2
*D10
340
0
  0
BLOCK_RECORD
  5
2CEF
330
1
100
AcDbSymbolTableRecord
100
AcDbBlockTableRecord
  2
*D11
340
0
  0
BLOCK_RECORD
  5
2CFC
330
1
100
AcDbSymbolTableRecord
100
AcDbBlockTableRecord
  2
*D12
340
0
  0
BLOCK_RECORD
  5
2D7B
330
1
100
AcDbSymbolTableRecord
100
AcDbBlockTableRecord
  2
*D13
340
0
  0
BLOCK_RECORD
  5
2D88
330
1
100
AcDbSymbolTableRecord
100
AcDbBlockTableRecord
  2
*D14
340
0
  0
BLOCK_RECORD
  5
2D95
330
1
100
AcDbSymbolTableRecord
100
AcDbBlockTableRecord
  2
*D15
340
0
  0
BLOCK_RECORD
  5
2DA4
330
1
100
AcDbSymbolTableRecord
100
AcDbBlockTableRecord
  2
*D16
340
0
  0
BLOCK_RECORD
  5
2DB1
330
1
100
AcDbSymbolTableRecord
100
AcDbBlockTableRecord
  2
*D17
340
0
  0
BLOCK_RECORD
  5
2DC0
330
1
100
AcDbSymbolTableRecord
100
AcDbBlockTableRecord
  2
*D18
340
0
  0
BLOCK_RECORD
  5
2DFE
330
1
100
AcDbSymbolTableRecord
100
AcDbBlockTableRecord
  2
*D19
340
0
  0
BLOCK_RECORD
  5
2E5C
330
1
100
AcDbSymbolTableRecord
100
AcDbBlockTableRecord
  2
*D20
340
0
  0
BLOCK_RECORD
  5
2E69
330
1
100
AcDbSymbolTableRecord
100
AcDbBlockTableRecord
  2
*D21
340
0
  0
BLOCK_RECORD
  5
2E7B
330
1
100
AcDbSymbolTableRecord
100
AcDbBlockTableRecord
  2
*D22
340
0
  0
ENDTAB
  0
ENDSEC
  0
SECTION
  2
BLOCKS
  0
BLOCK
  5
20
330
1F
100
AcDbEntity
  8
0
100
AcDbBlockBegin
  2
*Model_Space
 70
     0
 10
0.0
 20
0.0
 30
0.0
  3
*Model_Space
  1

  0
ENDBLK
  5
21
330
1F
100
AcDbEntity
  8
0
100
AcDbBlockEnd
  0
BLOCK
  5
1C
330
1B
100
AcDbEntity
 67
     1
  8
0
100
AcDbBlockBegin
  2
*Paper_Space
 70
     0
 10
0.0
 20
0.0
 30
0.0
  3
*Paper_Space
  1

  0
ENDBLK
  5
1D
330
1B
100
AcDbEntity
 67
     1
  8
0
100
AcDbBlockEnd
  0
BLOCK
  5
A0
330
9B
100
AcDbEntity
  8
0
100
AcDbBlockBegin
  2
_Closed
 70
     0
 10
0.0
 20
0.0
 30
0.0
  3
_Closed
  1

  0
LINE
  5
9C
330
9B
100
AcDbEntity
  8
0
 62
     0
370
    -2
100
AcDbLine
 10
-1.0
 20
0.1666666666666666
 30
0.0
 11
0.0
 21
0.0
 31
0.0
  0
LINE
  5
9D
330
9B
100
AcDbEntity
  8
0
 62
     0
370
    -2
100
AcDbLine
 10
0.0
 20
0.0
 30
0.0
 11
-1.0
 21
-0.1666666666666666
 31
0.0
  0
LINE
  5
9E
330
9B
100
AcDbEntity
  8
0
 62
     0
370
    -2
100
AcDbLine
 10
-1.0
 20
0.1666666666666666
 30
0.0
 11
-1.0
 21
-0.1666666666666666
 31
0.0
  0
LINE
  5
9F
330
9B
100
AcDbEntity
  8
0
 62
     0
370
    -2
100
AcDbLine
 10
0.0
 20
0.0
 30
0.0
 11
-1.0
 21
0.0
 31
0.0
  0
ENDBLK
  5
A1
330
9B
100
AcDbEntity
  8
0
100
AcDbBlockEnd
  0
BLOCK
  5
155B
330
1510
100
AcDbEntity
  8
0
100
AcDbBlockBegin
  2
A$C10A573AC
 70
     0
 10
0.0
 20
0.0
 30
0.0
  3
A$C10A573AC
  1

  0
TEXT
  5
1511
330
1510
100
AcDbEntity
  8
文字
100
AcDbText
 10
0.9844302777919438
 20
5.224957122252135
 30
0.0
 40
3.0
  1
Materal : Steel.
 51
15.0
  7
OKANO
100
AcDbText
  0
TEXT
  5
1512
330
1510
100
AcDbEntity
  8
文字
100
AcDbText
 10
-0.1141909619694843
 20
0.7500001922403499
 30
0.0
 40
3.0
  1
Surface treatment : Electro galvanized.
 51
15.0
  7
OKANO
100
AcDbText
  0
TEXT
  5
1513
330
1510
100
AcDbEntity
  8
文字
100
AcDbText
 10
-0.4901926332574931
 20
9.159967445193728
 30
0.0
 40
3.0
  1
5 TORGUE SCREW  M5-6
 51
15.0
  7
OKANO
100
AcDbText
  0
TEXT
  5
1514
330
1510
100
AcDbEntity
  8
文字
100
AcDbText
 10
1.364713526390005
 20
78.88822913323082
 30
0.0
 40
3.0
  1
Special standard,
 51
15.0
  7
OKANO
100
AcDbText
  0
TEXT
  5
1515
330
1510
100
AcDbEntity
  8
文字
100
AcDbText
 10
92.88160823408942
 20
89.92753849837379
 30
0.0
 40
3.0
  1
Screw Type
 51
15.0
  7
OKANO
100
AcDbText
  0
LINE
  5
1516
330
1510
100
AcDbEntity
  8
太線
100
AcDbLine
 10
113.9464587597784
 20
81.93930390144641
 30
0.0
 11
112.4464587597784
 21
81.93930390144641
 31
0.0
  0
LINE
  5
1517
330
1510
100
AcDbEntity
  8
太線
100
AcDbLine
 10
112.4464587597784
 20
76.9393039014464
 30
0.0
 11
121.4644995438761
 21
76.9393039014464
 31
0.0
  0
TEXT
  5
1518
330
1510
100
AcDbEntity
  8
文字
100
AcDbText
 10
93.46068240437217
 20
77.96976862235396
 30
0.0
 40
2.0
  1
17-30
 51
15.0
  7
OKANO
100
AcDbText
  0
LINE
  5
1519
330
1510
100
AcDbEntity
  8
太線
100
AcDbLine
 10
111.9464587597784
 20
81.43930390144641
 30
0.0
 11
111.9464587597784
 21
77.4393039014464
 31
0.0
  0
LINE
  5
151A
330
1510
100
AcDbEntity
  8
太線
100
AcDbLine
 10
91.94645875977846
 20
81.43930390144641
 30
0.0
 11
91.94645875977846
 21
77.43930390144639
 31
0.0
  0
LINE
  5
151B
330
1510
100
AcDbEntity
  8
太線
100
AcDbLine
 10
101.9644995438761
 20
77.4393039014464
 30
0.0
 11
101.9644995438761
 21
81.43930390144641
 31
0.0
  0
LINE
  5
151C
330
1510
100
AcDbEntity
  8
太線
100
AcDbLine
 10
92.44645875977846
 20
76.9393039014464
 30
0.0
 11
101.4644995438761
 21
76.9393039014464
 31
0.0
  0
ARC
  5
151D
330
1510
100
AcDbEntity
  8
太線
100
AcDbCircle
 10
92.44645875977846
 20
77.43930390144639
 30
0.0
 40
0.5
100
AcDbArc
 50
180.0
 51
270.0
  0
ARC
  5
151E
330
1510
100
AcDbEntity
  8
太線
100
AcDbCircle
 10
101.4644995438761
 20
77.4393039014464
 30
0.0
 40
0.5
100
AcDbArc
 50
270.0
 51
0.0
  0
ARC
  5
151F
330
1510
100
AcDbEntity
  8
太線
100
AcDbCircle
 10
112.4464587597784
 20
77.4393039014464
 30
0.0
 40
0.5
100
AcDbArc
 50
180.0
 51
270.0
  0
LINE
  5
1520
330
1510
100
AcDbEntity
  8
想像線
100
AcDbLine
 10
93.94645875977847
 20
81.93930390144641
 30
0.0
 11
99.96449954387617
 21
81.93930390144641
 31
0.0
  0
LINE
  5
1521
330
1510
100
AcDbEntity
  8
極太線
100
AcDbLine
 10
96.38762957111168
 20
85.43930390144641
 30
0.0
 11
97.50528794844525
 21
85.43930390144641
 31
0.0
  0
CIRCLE
  5
1522
330
1510
100
AcDbEntity
  8
太線
100
AcDbCircle
 10
96.94645875977847
 20
85.43930390144641
 30
0.0
 40
0.5588291886667776
  0
LINE
  5
1523
330
1510
100
AcDbEntity
  8
太線
100
AcDbLine
 10
99.46449954387617
 20
86.93930390144641
 30
0.0
 11
94.44645875977846
 21
86.93930390144641
 31
0.0
  0
LINE
  5
1524
330
1510
100
AcDbEntity
  8
太線
100
AcDbLine
 10
93.94645875977847
 20
86.43930390144641
 30
0.0
 11
93.94645875977847
 21
81.93930390144641
 31
0.0
  0
ARC
  5
1525
330
1510
100
AcDbEntity
  8
太線
100
AcDbCircle
 10
92.44645875977846
 20
81.43930390144641
 30
0.0
 40
0.5
100
AcDbArc
 50
90.0
 51
180.0
  0
LINE
  5
1526
330
1510
100
AcDbEntity
  8
太線
100
AcDbLine
 10
93.94645875977847
 20
81.93930390144641
 30
0.0
 11
92.44645875977846
 21
81.93930390144641
 31
0.0
  0
ARC
  5
1527
330
1510
100
AcDbEntity
  8
太線
100
AcDbCircle
 10
94.44645875977846
 20
86.43930390144641
 30
0.0
 40
0.5
100
AcDbArc
 50
90.0
 51
180.0
  0
LINE
  5
1528
330
1510
100
AcDbEntity
  8
太線
100
AcDbLine
 10
99.96449954387617
 20
81.93930390144641
 30
0.0
 11
99.96449954387617
 21
86.43930390144641
 31
0.0
  0
LINE
  5
1529
330
1510
100
AcDbEntity
  8
太線
100
AcDbLine
 10
101.4644995438761
 20
81.93930390144641
 30
0.0
 11
99.96449954387617
 21
81.93930390144641
 31
0.0
  0
ARC
  5
152A
330
1510
100
AcDbEntity
  8
太線
100
AcDbCircle
 10
101.4644995438761
 20
81.43930390144641
 30
0.0
 40
0.5
100
AcDbArc
 50
0.0
 51
90.0
  0
ARC
  5
152B
330
1510
100
AcDbEntity
  8
太線
100
AcDbCircle
 10
99.46449954387617
 20
86.43930390144641
 30
0.0
 40
0.5
100
AcDbArc
 50
0.0
 51
90.0
  0
LINE
  5
152C
330
1510
100
AcDbEntity
  8
極太線
100
AcDbLine
 10
96.94645875977847
 20
85.99813309011318
 30
0.0
 11
96.94645875977847
 21
84.88047471277964
 31
0.0
  0
ARC
  5
152D
330
1510
100
AcDbEntity
  8
太線
100
AcDbCircle
 10
112.4464587597784
 20
81.43930390144641
 30
0.0
 40
0.5
100
AcDbArc
 50
90.0
 51
180.0
  0
TEXT
  5
152E
330
1510
100
AcDbEntity
  8
文字
100
AcDbText
 10
134.3819212586066
 20
78.16263579228063
 30
0.0
 40
2.0
  1
101
 51
15.0
  7
OKANO
100
AcDbText
  0
TEXT
  5
152F
330
1510
100
AcDbEntity
  8
文字
100
AcDbText
 10
113.3422276612066
 20
77.96976862235396
 30
0.0
 40
2.0
  1
38-83
 51
15.0
  7
OKANO
100
AcDbText
  0
LINE
  5
1530
330
1510
100
AcDbEntity
  8
太線
100
AcDbLine
 10
141.9825403279738
 20
77.4393039014464
 30
0.0
 11
141.9825403279738
 21
81.43930390144641
 31
0.0
  0
LINE
  5
1531
330
1510
100
AcDbEntity
  8
太線
100
AcDbLine
 10
131.9644995438761
 20
81.43930390144641
 30
0.0
 11
131.9644995438761
 21
77.4393039014464
 31
0.0
  0
LINE
  5
1532
330
1510
100
AcDbEntity
  8
太線
100
AcDbLine
 10
121.9644995438761
 20
77.4393039014464
 30
0.0
 11
121.9644995438761
 21
81.43930390144641
 31
0.0
  0
ARC
  5
1533
330
1510
100
AcDbEntity
  8
太線
100
AcDbCircle
 10
121.4644995438761
 20
77.4393039014464
 30
0.0
 40
0.5
100
AcDbArc
 50
270.0
 51
0.0
  0
LINE
  5
1534
330
1510
100
AcDbEntity
  8
太線
100
AcDbLine
 10
132.4644995438761
 20
76.9393039014464
 30
0.0
 11
141.4825403279738
 21
76.9393039014464
 31
0.0
  0
ARC
  5
1535
330
1510
100
AcDbEntity
  8
太線
100
AcDbCircle
 10
132.4644995438761
 20
77.4393039014464
 30
0.0
 40
0.5
100
AcDbArc
 50
180.0
 51
270.0
  0
ARC
  5
1536
330
1510
100
AcDbEntity
  8
太線
100
AcDbCircle
 10
141.4825403279738
 20
77.4393039014464
 30
0.0
 40
0.5
100
AcDbArc
 50
270.0
 51
0.0
  0
ARC
  5
1537
330
1510
100
AcDbEntity
  8
太線
100
AcDbCircle
 10
121.4644995438761
 20
81.43930390144641
 30
0.0
 40
0.5
100
AcDbArc
 50
0.0
 51
90.0
  0
LINE
  5
1538
330
1510
100
AcDbEntity
  8
太線
100
AcDbLine
 10
119.9644995438761
 20
81.93930390144641
 30
0.0
 11
119.9644995438761
 21
86.43930390144641
 31
0.0
  0
LINE
  5
1539
330
1510
100
AcDbEntity
  8
太線
100
AcDbLine
 10
113.9464587597784
 20
86.43930390144641
 30
0.0
 11
113.9464587597784
 21
81.93930390144641
 31
0.0
  0
LINE
  5
153A
330
1510
100
AcDbEntity
  8
想像線
100
AcDbLine
 10
113.9464587597784
 20
81.93930390144641
 30
0.0
 11
119.9644995438761
 21
81.93930390144641
 31
0.0
  0
LINE
  5
153B
330
1510
100
AcDbEntity
  8
太線
100
AcDbLine
 10
121.4644995438761
 20
81.93930390144641
 30
0.0
 11
119.9644995438761
 21
81.93930390144641
 31
0.0
  0
LINE
  5
153C
330
1510
100
AcDbEntity
  8
太線
100
AcDbLine
 10
119.4644995438761
 20
86.93930390144641
 30
0.0
 11
114.4464587597784
 21
86.93930390144641
 31
0.0
  0
ARC
  5
153D
330
1510
100
AcDbEntity
  8
太線
100
AcDbCircle
 10
114.4464587597784
 20
86.43930390144641
 30
0.0
 40
0.5
100
AcDbArc
 50
90.0
 51
180.0
  0
CIRCLE
  5
153E
330
1510
100
AcDbEntity
  8
太線
100
AcDbCircle
 10
115.4464587597784
 20
85.43930390144641
 30
0.0
 40
0.5588291886667776
  0
LINE
  5
153F
330
1510
100
AcDbEntity
  8
極太線
100
AcDbLine
 10
115.4464587597784
 20
85.99813309011318
 30
0.0
 11
115.4464587597784
 21
84.88047471277964
 31
0.0
  0
LINE
  5
1540
330
1510
100
AcDbEntity
  8
極太線
100
AcDbLine
 10
114.8876295711116
 20
85.43930390144641
 30
0.0
 11
116.0052879484452
 21
85.43930390144641
 31
0.0
  0
ARC
  5
1541
330
1510
100
AcDbEntity
  8
太線
100
AcDbCircle
 10
119.4644995438761
 20
86.43930390144641
 30
0.0
 40
0.5
100
AcDbArc
 50
0.0
 51
90.0
  0
LINE
  5
1542
330
1510
100
AcDbEntity
  8
極太線
100
AcDbLine
 10
117.9056703552094
 20
85.43930390144641
 30
0.0
 11
119.0233287325429
 21
85.43930390144641
 31
0.0
  0
LINE
  5
1543
330
1510
100
AcDbEntity
  8
極太線
100
AcDbLine
 10
118.4644995438761
 20
85.99813309011318
 30
0.0
 11
118.4644995438761
 21
84.88047471277964
 31
0.0
  0
CIRCLE
  5
1544
330
1510
100
AcDbEntity
  8
太線
100
AcDbCircle
 10
118.4644995438761
 20
85.43930390144641
 30
0.0
 40
0.5588291886667776
  0
LINE
  5
1545
330
1510
100
AcDbEntity
  8
想像線
100
AcDbLine
 10
133.9644995438761
 20
81.93930390144641
 30
0.0
 11
139.9825403279738
 21
81.93930390144641
 31
0.0
  0
LINE
  5
1546
330
1510
100
AcDbEntity
  8
極太線
100
AcDbLine
 10
137.9237111393071
 20
85.43930390144641
 30
0.0
 11
139.0413695166406
 21
85.43930390144641
 31
0.0
  0
CIRCLE
  5
1547
330
1510
100
AcDbEntity
  8
太線
100
AcDbCircle
 10
138.4825403279738
 20
85.43930390144641
 30
0.0
 40
0.5588291886667776
  0
CIRCLE
  5
1548
330
1510
100
AcDbEntity
  8
太線
100
AcDbCircle
 10
138.4825403279738
 20
83.26342923362075
 30
0.0
 40
0.5588291886667776
  0
LINE
  5
1549
330
1510
100
AcDbEntity
  8
極太線
100
AcDbLine
 10
137.9237111393071
 20
83.26342923362075
 30
0.0
 11
139.0413695166406
 21
83.26342923362075
 31
0.0
  0
LINE
  5
154A
330
1510
100
AcDbEntity
  8
太線
100
AcDbLine
 10
139.4825403279738
 20
86.93930390144641
 30
0.0
 11
134.4644995438761
 21
86.93930390144641
 31
0.0
  0
LINE
  5
154B
330
1510
100
AcDbEntity
  8
太線
100
AcDbLine
 10
133.9644995438761
 20
86.43930390144641
 30
0.0
 11
133.9644995438761
 21
81.93930390144641
 31
0.0
  0
ARC
  5
154C
330
1510
100
AcDbEntity
  8
太線
100
AcDbCircle
 10
132.4644995438761
 20
81.43930390144641
 30
0.0
 40
0.5
100
AcDbArc
 50
90.0
 51
180.0
  0
LINE
  5
154D
330
1510
100
AcDbEntity
  8
太線
100
AcDbLine
 10
133.9644995438761
 20
81.93930390144641
 30
0.0
 11
132.4644995438761
 21
81.93930390144641
 31
0.0
  0
LINE
  5
154E
330
1510
100
AcDbEntity
  8
極太線
100
AcDbLine
 10
134.9056703552093
 20
83.26342923362075
 30
0.0
 11
136.0233287325429
 21
83.26342923362075
 31
0.0
  0
LINE
  5
154F
330
1510
100
AcDbEntity
  8
極太線
100
AcDbLine
 10
135.4644995438761
 20
83.82225842228752
 30
0.0
 11
135.4644995438761
 21
82.70460004495395
 31
0.0
  0
CIRCLE
  5
1550
330
1510
100
AcDbEntity
  8
太線
100
AcDbCircle
 10
135.4644995438761
 20
83.26342923362075
 30
0.0
 40
0.5588291886667776
  0
ARC
  5
1551
330
1510
100
AcDbEntity
  8
太線
100
AcDbCircle
 10
134.4644995438761
 20
86.43930390144641
 30
0.0
 40
0.5
100
AcDbArc
 50
90.0
 51
180.0
  0
CIRCLE
  5
1552
330
1510
100
AcDbEntity
  8
太線
100
AcDbCircle
 10
135.4644995438761
 20
85.43930390144641
 30
0.0
 40
0.5588291886667776
  0
LINE
  5
1553
330
1510
100
AcDbEntity
  8
極太線
100
AcDbLine
 10
135.4644995438761
 20
85.99813309011318
 30
0.0
 11
135.4644995438761
 21
84.88047471277964
 31
0.0
  0
LINE
  5
1554
330
1510
100
AcDbEntity
  8
極太線
100
AcDbLine
 10
134.9056703552093
 20
85.43930390144641
 30
0.0
 11
136.0233287325429
 21
85.43930390144641
 31
0.0
  0
LINE
  5
1555
330
1510
100
AcDbEntity
  8
太線
100
AcDbLine
 10
139.9825403279738
 20
81.93930390144641
 30
0.0
 11
139.9825403279738
 21
86.43930390144641
 31
0.0
  0
ARC
  5
1556
330
1510
100
AcDbEntity
  8
太線
100
AcDbCircle
 10
141.4825403279738
 20
81.43930390144641
 30
0.0
 40
0.5
100
AcDbArc
 50
0.0
 51
90.0
  0
LINE
  5
1557
330
1510
100
AcDbEntity
  8
極太線
100
AcDbLine
 10
138.4825403279738
 20
83.82225842228752
 30
0.0
 11
138.4825403279738
 21
82.70460004495395
 31
0.0
  0
LINE
  5
1558
330
1510
100
AcDbEntity
  8
太線
100
AcDbLine
 10
141.4825403279738
 20
81.93930390144641
 30
0.0
 11
139.9825403279738
 21
81.93930390144641
 31
0.0
  0
ARC
  5
1559
330
1510
100
AcDbEntity
  8
太線
100
AcDbCircle
 10
139.4825403279738
 20
86.43930390144641
 30
0.0
 40
0.5
100
AcDbArc
 50
0.0
 51
90.0
  0
LINE
  5
155A
330
1510
100
AcDbEntity
  8
極太線
100
AcDbLine
 10
138.4825403279738
 20
85.99813309011318
 30
0.0
 11
138.4825403279738
 21
84.88047471277964
 31
0.0
  0
ENDBLK
  5
155C
330
1510
100
AcDbEntity
  8
0
100
AcDbBlockEnd
  0
BLOCK
  5
29FC
330
29F2
100
AcDbEntity
  8
0
100
AcDbBlockBegin
  2
*D2
 70
     1
 10
0.0
 20
0.0
 30
0.0
  3
*D2
  1

  0
LINE
  5
2D3D
330
29F2
100
AcDbEntity
  8
寸法線
 62
     0
370
    -2
100
AcDbLine
 10
210.2324195332539
 20
100.0240129221247
 30
0.0
 11
204.0546510118342
 21
100.0240129221247
 31
0.0
  0
LINE
  5
2D3E
330
29F2
100
AcDbEntity
  8
寸法線
 62
     0
370
    -2
100
AcDbLine
 10
210.2324195332539
 20
150.6055759632823
 30
0.0
 11
204.0546510118342
 21
150.6055759632823
 31
0.0
  0
LINE
  5
2D3F
330
29F2
100
AcDbEntity
  8
寸法線
 62
     0
370
    -2
100
AcDbLine
 10
207.0546510118342
 20
103.0240129221247
 30
0.0
 11
207.0546510118342
 21
147.6055759632823
 31
0.0
  0
INSERT
  5
2D40
330
29F2
100
AcDbEntity
  8
寸法線
 62
     0
370
    -2
100
AcDbBlockReference
  2
_Closed
 10
207.0546510118342
 20
100.0240129221247
 30
0.0
 41
3.0
 42
3.0
 43
3.0
 50
270.0
  0
INSERT
  5
2D41
330
29F2
100
AcDbEntity
  8
寸法線
 62
     0
370
    -2
100
AcDbBlockReference
  2
_Closed
 10
207.0546510118342
 20
150.6055759632823
 30
0.0
 41
3.0
 42
3.0
 43
3.0
 50
90.0
  0
MTEXT
  5
2D42
330
29F2
100
AcDbEntity
  8
寸法線
 62
     0
100
AcDbMText
 10
203.5546510118342
 20
125.3147944427035
 30
0.0
 40
5.0
 41
0.0
 71
     5
 72
     1
  1
49.3
  7
OKANO
 11
0.0000000000000001
 21
1.0
 31
0.0
 73
     1
 44
1.0
  0
POINT
  5
2D43
330
29F2
100
AcDbEntity
  8
Defpoints
 62
     0
100
AcDbPoint
 10
212.2324195332539
 20
100.0240129221247
 30
0.0
  0
POINT
  5
2D44
330
29F2
100
AcDbEntity
  8
Defpoints
 62
     0
100
AcDbPoint
 10
212.2324195332539
 20
150.6055759632823
 30
0.0
  0
POINT
  5
2D45
330
29F2
100
AcDbEntity
  8
Defpoints
 62
     0
100
AcDbPoint
 10
207.0546510118342
 20
150.6055759632823
 30
0.0
  0
ENDBLK
  5
29FD
330
29F2
100
AcDbEntity
  8
0
100
AcDbBlockEnd
  0
BLOCK
  5
2A09
330
29FF
100
AcDbEntity
  8
0
100
AcDbBlockBegin
  2
*D3
 70
     1
 10
0.0
 20
0.0
 30
0.0
  3
*D3
  1

  0
LINE
  5
2A33
330
29FF
100
AcDbEntity
  8
寸法線
 62
     0
370
    -2
100
AcDbLine
 10
210.2324195332539
 20
150.6055759632823
 30
0.0
 11
204.0546510118342
 21
150.6055759632823
 31
0.0
  0
LINE
  5
2A34
330
29FF
100
AcDbEntity
  8
寸法線
 62
     0
370
    -2
100
AcDbLine
 10
209.6571114903154
 20
209.8089964364685
 30
0.0
 11
204.0546510118343
 21
209.8089964364685
 31
0.0
  0
LINE
  5
2A35
330
29FF
100
AcDbEntity
  8
寸法線
 62
     0
370
    -2
100
AcDbLine
 10
207.0546510118342
 20
153.6055759632823
 30
0.0
 11
207.0546510118342
 21
206.8089964364685
 31
0.0
  0
INSERT
  5
2A36
330
29FF
100
AcDbEntity
  8
寸法線
 62
     0
370
    -2
100
AcDbBlockReference
  2
_Closed
 10
207.0546510118342
 20
150.6055759632823
 30
0.0
 41
3.0
 42
3.0
 43
3.0
 50
270.0
  0
INSERT
  5
2A37
330
29FF
100
AcDbEntity
  8
寸法線
 62
     0
370
    -2
100
AcDbBlockReference
  2
_Closed
 10
207.0546510118342
 20
209.8089964364685
 30
0.0
 41
3.0
 42
3.0
 43
3.0
 50
90.0
  0
MTEXT
  5
2A38
330
29FF
100
AcDbEntity
  8
寸法線
 62
     0
100
AcDbMText
 10
203.5546510118342
 20
180.2072861998755
 30
0.0
 40
5.0
 41
0.0
 71
     5
 72
     1
  1
60.0
  7
OKANO
 11
0.0000000000000001
 21
1.0
 31
0.0
 73
     1
 44
1.0
  0
POINT
  5
2A39
330
29FF
100
AcDbEntity
  8
Defpoints
 62
     0
100
AcDbPoint
 10
212.2324195332539
 20
150.6055759632823
 30
0.0
  0
POINT
  5
2A3A
330
29FF
100
AcDbEntity
  8
Defpoints
 62
     0
100
AcDbPoint
 10
211.6571114903154
 20
209.8089964364685
 30
0.0
  0
POINT
  5
2A3B
330
29FF
100
AcDbEntity
  8
Defpoints
 62
     0
100
AcDbPoint
 10
207.0546510118342
 20
209.8089964364685
 30
0.0
  0
ENDBLK
  5
2A0A
330
29FF
100
AcDbEntity
  8
0
100
AcDbBlockEnd
  0
BLOCK
  5
2A83
330
2A79
100
AcDbEntity
  8
0
 62
     0
100
AcDbBlockBegin
  2
*D4
 70
     1
 10
0.0
 20
0.0
 30
0.0
  3
*D4
  1

  0
LINE
  5
2AF5
330
2A79
100
AcDbEntity
  8
寸法線
 62
     0
370
    -2
100
AcDbLine
 10
74.20151402540432
 20
185.4711488256961
 30
0.0
 11
125.2434060466923
 21
185.4711488256961
 31
0.0
  0
LINE
  5
2AF6
330
2A79
100
AcDbEntity
  8
寸法線
 62
     0
370
    -2
100
AcDbLine
 10
75.08444195903834
 20
210.4581533153748
 30
0.0
 11
125.2434060466923
 21
210.4581533153748
 31
0.0
  0
LINE
  5
2AF7
330
2A79
100
AcDbEntity
  8
寸法線
 62
     0
370
    -2
100
AcDbLine
 10
122.2434060466923
 20
188.4711488256961
 30
0.0
 11
122.2434060466923
 21
207.4581533153748
 31
0.0
  0
INSERT
  5
2AF8
330
2A79
100
AcDbEntity
  8
寸法線
 62
     0
370
    -2
100
AcDbBlockReference
  2
_Closed
 10
122.2434060466923
 20
185.4711488256961
 30
0.0
 41
3.0
 42
3.0
 43
3.0
 50
270.0
  0
INSERT
  5
2AF9
330
2A79
100
AcDbEntity
  8
寸法線
 62
     0
370
    -2
100
AcDbBlockReference
  2
_Closed
 10
122.2434060466923
 20
210.4581533153748
 30
0.0
 41
3.0
 42
3.0
 43
3.0
 50
90.0
  0
MTEXT
  5
2AFA
330
2A79
100
AcDbEntity
  8
寸法線
 62
     0
100
AcDbMText
 10
118.7429139207081
 20
197.9646510705355
 30
0.0
 40
5.0
 41
0.0
 71
     5
 72
     1
  1
25.0
  7
OKANO
 11
0.0000000000000001
 21
1.0
 31
0.0
 73
     1
 44
1.0
  0
POINT
  5
2AFB
330
2A79
100
AcDbEntity
  8
Defpoints
 62
     0
100
AcDbPoint
 10
72.20151402540432
 20
185.4711488256961
 30
0.0
  0
POINT
  5
2AFC
330
2A79
100
AcDbEntity
  8
Defpoints
 62
     0
100
AcDbPoint
 10
73.08444195903835
 20
210.4581533153748
 30
0.0
  0
POINT
  5
2AFD
330
2A79
100
AcDbEntity
  8
Defpoints
 62
     0
100
AcDbPoint
 10
122.2434060466923
 20
210.4581533153748
 30
0.0
  0
ENDBLK
  5
2A84
330
2A79
100
AcDbEntity
  8
0
 62
     0
100
AcDbBlockEnd
  0
BLOCK
  5
2BC4
330
2BBA
100
AcDbEntity
  8
0
100
AcDbBlockBegin
  2
*D5
 70
     1
 10
0.0
 20
0.0
 30
0.0
  3
*D5
  1

  0
LINE
  5
2BC6
330
2BBA
100
AcDbEntity
  8
寸法線
 62
     0
370
    -2
100
AcDbLine
 10
209.1435352725441
 20
100.0240129221247
 30
0.0
 11
210.2722114888013
 21
100.0240129221247
 31
0.0
  0
LINE
  5
2BC7
330
2BBA
100
AcDbEntity
  8
寸法線
 62
     0
370
    -2
100
AcDbLine
 10
209.1435352725441
 20
40.28097937409563
 30
0.0
 11
210.2722114888012
 21
40.28097937409563
 31
0.0
  0
LINE
  5
2BC8
330
2BBA
100
AcDbEntity
  8
寸法線
 62
     0
370
    -2
100
AcDbLine
 10
207.2722114888013
 20
97.02401292212471
 30
0.0
 11
207.2722114888013
 21
43.28097937409563
 31
0.0
  0
INSERT
  5
2BC9
330
2BBA
100
AcDbEntity
  8
寸法線
 62
     0
370
    -2
100
AcDbBlockReference
  2
_Closed
 10
207.2722114888013
 20
100.0240129221247
 30
0.0
 41
3.0
 42
3.0
 43
3.0
 50
90.0
  0
INSERT
  5
2BCA
330
2BBA
100
AcDbEntity
  8
寸法線
 62
     0
370
    -2
100
AcDbBlockReference
  2
_Closed
 10
207.2722114888013
 20
40.28097937409564
 30
0.0
 41
3.0
 42
3.0
 43
3.0
 50
270.0
  0
MTEXT
  5
2BCB
330
2BBA
100
AcDbEntity
  8
寸法線
 62
     0
100
AcDbMText
 10
203.7722114888012
 20
70.1524961481102
 30
0.0
 40
5.0
 41
0.0
 71
     5
 72
     1
  1
60.0
  7
OKANO
 11
0.0000000000000001
 21
1.0
 31
0.0
 73
     1
 44
1.0
  0
POINT
  5
2BCC
330
2BBA
100
AcDbEntity
  8
Defpoints
 62
     0
100
AcDbPoint
 10
207.143535272544
 20
100.0240129221247
 30
0.0
  0
POINT
  5
2BCD
330
2BBA
100
AcDbEntity
  8
Defpoints
 62
     0
100
AcDbPoint
 10
207.143535272544
 20
40.28097937409564
 30
0.0
  0
POINT
  5
2BCE
330
2BBA
100
AcDbEntity
  8
Defpoints
 62
     0
100
AcDbPoint
 10
207.2722114888013
 20
40.28097937409564
 30
0.0
  0
ENDBLK
  5
2BC5
330
2BBA
100
AcDbEntity
  8
0
100
AcDbBlockEnd
  0
BLOCK
  5
2C78
330
2C6E
100
AcDbEntity
  8
0
100
AcDbBlockBegin
  2
*D6
 70
     1
 10
0.0
 20
0.0
 30
0.0
  3
*D6
  1

  0
LINE
  5
2C6F
330
2C6E
100
AcDbEntity
  8
寸法線
 62
     0
370
    -2
100
AcDbLine
 10
92.20151402540432
 20
157.4711488256961
 30
0.0
 11
92.20151402540432
 21
136.2452330167638
 31
0.0
  0
LINE
  5
2C70
330
2C6E
100
AcDbEntity
  8
寸法線
 62
     0
370
    -2
100
AcDbLine
 10
102.2015140254043
 20
153.4711488256961
 30
0.0
 11
102.2015140254043
 21
136.2452330167638
 31
0.0
  0
LINE
  5
2C71
330
2C6E
100
AcDbEntity
  8
寸法線
 62
     0
370
    -2
100
AcDbLine
 10
95.20151402540433
 20
139.2452330167638
 30
0.0
 11
99.20151402540433
 21
139.2452330167638
 31
0.0
  0
INSERT
  5
2C72
330
2C6E
100
AcDbEntity
  8
寸法線
 62
     0
370
    -2
100
AcDbBlockReference
  2
_Closed
 10
92.20151402540432
 20
139.2452330167638
 30
0.0
 41
3.0
 42
3.0
 43
3.0
 50
180.0
  0
INSERT
  5
2C73
330
2C6E
100
AcDbEntity
  8
寸法線
 62
     0
370
    -2
100
AcDbBlockReference
  2
_Closed
 10
102.2015140254043
 20
139.2452330167638
 30
0.0
 41
3.0
 42
3.0
 43
3.0
  0
MTEXT
  5
2C74
330
2C6E
100
AcDbEntity
  8
寸法線
 62
     0
100
AcDbMText
 10
97.20151402540432
 20
142.7452330167638
 30
0.0
 40
5.0
 41
0.0
 71
     5
 72
     1
  1
10
  7
OKANO
 73
     1
 44
1.0
  0
POINT
  5
2C75
330
2C6E
100
AcDbEntity
  8
Defpoints
 62
     0
100
AcDbPoint
 10
92.20151402540432
 20
159.4711488256961
 30
0.0
  0
POINT
  5
2C76
330
2C6E
100
AcDbEntity
  8
Defpoints
 62
     0
100
AcDbPoint
 10
102.2015140254043
 20
155.4711488256961
 30
0.0
  0
POINT
  5
2C77
330
2C6E
100
AcDbEntity
  8
Defpoints
 62
     0
100
AcDbPoint
 10
102.2015140254043
 20
139.2452330167638
 30
0.0
  0
ENDBLK
  5
2C79
330
2C6E
100
AcDbEntity
  8
0
100
AcDbBlockEnd
  0
BLOCK
  5
2C87
330
2C7B
100
AcDbEntity
  8
0
100
AcDbBlockBegin
  2
*D7
 70
     1
 10
0.0
 20
0.0
 30
0.0
  3
*D7
  1

  0
LINE
  5
2C7C
330
2C7B
100
AcDbEntity
  8
寸法線
 62
     0
370
    -2
100
AcDbLine
 10
94.20151402540431
 20
159.4711488256961
 30
0.0
 11
121.6537272419398
 21
159.4711488256961
 31
0.0
  0
LINE
  5
2C7D
330
2C7B
100
AcDbEntity
  8
寸法線
 62
     0
370
    -2
100
AcDbLine
 10
94.20151402540431
 20
155.4711488256961
 30
0.0
 11
121.6537272419398
 21
155.4711488256961
 31
0.0
  0
LINE
  5
2C7E
330
2C7B
100
AcDbEntity
  8
寸法線
 62
     0
370
    -2
100
AcDbLine
 10
118.6537272419398
 20
162.4711488256961
 30
0.0
 11
118.6537272419398
 21
165.4711488256961
 31
0.0
  0
LINE
  5
2C7F
330
2C7B
100
AcDbEntity
  8
寸法線
 62
     0
370
    -2
100
AcDbLine
 10
118.6537272419398
 20
152.4711488256961
 30
0.0
 11
118.6537272419398
 21
144.9711488256961
 31
0.0
  0
LINE
  5
2C80
330
2C7B
100
AcDbEntity
  8
寸法線
 62
     0
370
    -2
100
AcDbLine
 10
118.6537272419398
 20
159.4711488256961
 30
0.0
 11
118.6537272419398
 21
155.4711488256961
 31
0.0
  0
INSERT
  5
2C81
330
2C7B
100
AcDbEntity
  8
寸法線
 62
     0
370
    -2
100
AcDbBlockReference
  2
_Closed
 10
118.6537272419398
 20
159.4711488256961
 30
0.0
 41
3.0
 42
3.0
 43
3.0
 50
270.0
  0
INSERT
  5
2C82
330
2C7B
100
AcDbEntity
  8
寸法線
 62
     0
370
    -2
100
AcDbBlockReference
  2
_Closed
 10
118.6537272419398
 20
155.4711488256961
 30
0.0
 41
3.0
 42
3.0
 43
3.0
 50
90.0
  0
MTEXT
  5
2C83
330
2C7B
100
AcDbEntity
  8
寸法線
 62
     0
100
AcDbMText
 10
115.1537272419397
 20
147.2211488256961
 30
0.0
 40
5.0
 41
0.0
 71
     5
 72
     1
  1
4
  7
OKANO
 11
0.0000000000000001
 21
1.0
 31
0.0
 73
     1
 44
1.0
  0
POINT
  5
2C84
330
2C7B
100
AcDbEntity
  8
Defpoints
 62
     0
100
AcDbPoint
 10
92.20151402540432
 20
159.4711488256961
 30
0.0
  0
POINT
  5
2C85
330
2C7B
100
AcDbEntity
  8
Defpoints
 62
     0
100
AcDbPoint
 10
92.20151402540432
 20
155.4711488256961
 30
0.0
  0
POINT
  5
2C86
330
2C7B
100
AcDbEntity
  8
Defpoints
 62
     0
100
AcDbPoint
 10
118.6537272419398
 20
155.4711488256961
 30
0.0
  0
ENDBLK
  5
2C88
330
2C7B
100
AcDbEntity
  8
0
100
AcDbBlockEnd
  0
BLOCK
  5
2C93
330
2C8A
100
AcDbEntity
  8
0
100
AcDbBlockBegin
  2
*D8
 70
     1
 10
0.0
 20
0.0
 30
0.0
  3
*D8
  1

  0
LINE
  5
2C95
330
2C8A
100
AcDbEntity
  8
寸法線
 62
     0
370
    -2
100
AcDbLine
 10
63.31199994679248
 20
113.3791969229422
 30
0.0
 11
55.36762747332401
 21
97.71420301694758
 31
0.0
  0
LINE
  5
2C96
330
2C8A
100
AcDbEntity
  8
寸法線
 62
     0
370
    -2
100
AcDbLine
 10
49.03540057748463
 20
85.22809463444472
 30
0.0
 11
47.67849481409047
 21
82.55249998105126
 31
0.0
  0
MTEXT
  5
2C97
330
2C8A
100
AcDbEntity
  8
寸法線
 62
     0
100
AcDbMText
 10
59.12385104049797
 20
112.859051132175
 30
0.0
 40
5.0
 41
0.0
 71
     5
 72
     1
  1
6
  7
OKANO
 11
0.4523019211313846
 21
0.8918648844644902
 31
0.0
 73
     1
 44
1.0
  0
LINE
  5
2C98
330
2C8A
100
AcDbEntity
  8
寸法線
 62
     0
370
    -2
100
AcDbLine
 10
50.39230634087878
 20
87.9036892878382
 30
0.0
 11
54.01072170992986
 21
95.03860836355411
 31
0.0
  0
INSERT
  5
2C99
330
2C8A
100
AcDbEntity
  8
寸法線
 62
     0
370
    -2
100
AcDbBlockReference
  2
_Closed
 10
50.39230634087878
 20
87.9036892878382
 30
0.0
 41
3.0
 42
3.0
 43
3.0
 50
63.10853098908399
  0
INSERT
  5
2C9A
330
2C8A
100
AcDbEntity
  8
寸法線
 62
     0
370
    -2
100
AcDbBlockReference
  2
_Closed
 10
54.01072170992986
 20
95.03860836355411
 30
0.0
 41
3.0
 42
3.0
 43
3.0
 50
243.108530989084
  0
POINT
  5
2C9B
330
2C8A
100
AcDbEntity
  8
Defpoints
 62
     0
100
AcDbPoint
 10
54.01072170992986
 20
95.03860836355411
 30
0.0
  0
POINT
  5
2C9C
330
2C8A
100
AcDbEntity
  8
Defpoints
 62
     0
100
AcDbPoint
 10
50.39230634087878
 20
87.9036892878382
 30
0.0
  0
ENDBLK
  5
2C94
330
2C8A
100
AcDbEntity
  8
0
100
AcDbBlockEnd
  0
BLOCK
  5
2CDF
330
2CD5
100
AcDbEntity
  8
0
100
AcDbBlockBegin
  2
*D9
 70
     1
 10
0.0
 20
0.0
 30
0.0
  3
*D9
  1

  0
LINE
  5
2D05
330
2CD5
100
AcDbEntity
  8
寸法線
 62
     0
370
    -2
100
AcDbLine
 10
70.20151402540432
 20
200.3193944499664
 30
0.0
 11
55.32784489364168
 21
200.3193944499664
 31
0.0
  0
LINE
  5
2D06
330
2CD5
100
AcDbEntity
  8
寸法線
 62
     0
370
    -2
100
AcDbLine
 10
70.20151402540432
 20
170.6229032014259
 30
0.0
 11
55.32784489364167
 21
170.6229032014259
 31
0.0
  0
LINE
  5
2D07
330
2CD5
100
AcDbEntity
  8
寸法線
 62
     0
370
    -2
100
AcDbLine
 10
58.32784489364168
 20
197.3193944499664
 30
0.0
 11
58.32784489364167
 21
173.6229032014259
 31
0.0
  0
INSERT
  5
2D08
330
2CD5
100
AcDbEntity
  8
寸法線
 62
     0
370
    -2
100
AcDbBlockReference
  2
_Closed
 10
58.32784489364168
 20
200.3193944499664
 30
0.0
 41
3.0
 42
3.0
 43
3.0
 50
90.0
  0
INSERT
  5
2D09
330
2CD5
100
AcDbEntity
  8
寸法線
 62
     0
370
    -2
100
AcDbBlockReference
  2
_Closed
 10
58.32784489364167
 20
170.6229032014259
 30
0.0
 41
3.0
 42
3.0
 43
3.0
 50
270.0
  0
MTEXT
  5
2D0A
330
2CD5
100
AcDbEntity
  8
寸法線
 62
     0
100
AcDbMText
 10
54.82784489364164
 20
185.4711488256961
 30
0.0
 40
5.0
 41
0.0
 71
     5
 72
     1
  1
30.0
  7
OKANO
 11
0.0000000000000001
 21
1.0
 31
0.0
 73
     1
 44
1.0
  0
POINT
  5
2D0B
330
2CD5
100
AcDbEntity
  8
Defpoints
 62
     0
100
AcDbPoint
 10
72.20151402540432
 20
200.3193944499664
 30
0.0
  0
POINT
  5
2D0C
330
2CD5
100
AcDbEntity
  8
Defpoints
 62
     0
100
AcDbPoint
 10
72.20151402540432
 20
170.6229032014259
 30
0.0
  0
POINT
  5
2D0D
330
2CD5
100
AcDbEntity
  8
Defpoints
 62
     0
100
AcDbPoint
 10
58.32784489364167
 20
170.6229032014259
 30
0.0
  0
ENDBLK
  5
2CE0
330
2CD5
100
AcDbEntity
  8
0
100
AcDbBlockEnd
  0
BLOCK
  5
2CEC
330
2CE2
100
AcDbEntity
  8
0
100
AcDbBlockBegin
  2
*D10
 70
     1
 10
0.0
 20
0.0
 30
0.0
  3
*D10
  1

  0
LINE
  5
2CE3
330
2CE2
100
AcDbEntity
  8
寸法線
 62
     0
370
    -2
100
AcDbLine
 10
42.20151402540432
 20
182.4711488256961
 30
0.0
 11
42.20151402540432
 21
224.3403796560442
 31
0.0
  0
LINE
  5
2CE4
330
2CE2
100
AcDbEntity
  8
寸法線
 62
     0
370
    -2
100
AcDbLine
 10
72.20151402540432
 20
182.4711488256961
 30
0.0
 11
72.20151402540432
 21
224.3403796560442
 31
0.0
  0
LINE
  5
2CE5
330
2CE2
100
AcDbEntity
  8
寸法線
 62
     0
370
    -2
100
AcDbLine
 10
45.20151402540432
 20
221.3403796560442
 30
0.0
 11
69.20151402540432
 21
221.3403796560442
 31
0.0
  0
INSERT
  5
2CE6
330
2CE2
100
AcDbEntity
  8
寸法線
 62
     0
370
    -2
100
AcDbBlockReference
  2
_Closed
 10
42.20151402540432
 20
221.3403796560442
 30
0.0
 41
3.0
 42
3.0
 43
3.0
 50
180.0
  0
INSERT
  5
2CE7
330
2CE2
100
AcDbEntity
  8
寸法線
 62
     0
370
    -2
100
AcDbBlockReference
  2
_Closed
 10
72.20151402540432
 20
221.3403796560442
 30
0.0
 41
3.0
 42
3.0
 43
3.0
  0
MTEXT
  5
2CE8
330
2CE2
100
AcDbEntity
  8
寸法線
 62
     0
100
AcDbMText
 10
57.20151402540432
 20
224.8403796560442
 30
0.0
 40
5.0
 41
0.0
 71
     5
 72
     1
  1
30
  7
OKANO
 73
     1
 44
1.0
  0
POINT
  5
2CE9
330
2CE2
100
AcDbEntity
  8
Defpoints
 62
     0
100
AcDbPoint
 10
42.20151402540432
 20
180.4711488256961
 30
0.0
  0
POINT
  5
2CEA
330
2CE2
100
AcDbEntity
  8
Defpoints
 62
     0
100
AcDbPoint
 10
72.20151402540432
 20
180.4711488256961
 30
0.0
  0
POINT
  5
2CEB
330
2CE2
100
AcDbEntity
  8
Defpoints
 62
     0
100
AcDbPoint
 10
72.20151402540432
 20
221.3403796560442
 30
0.0
  0
ENDBLK
  5
2CED
330
2CE2
100
AcDbEntity
  8
0
100
AcDbBlockEnd
  0
BLOCK
  5
2CF9
330
2CEF
100
AcDbEntity
  8
0
100
AcDbBlockBegin
  2
*D11
 70
     1
 10
0.0
 20
0.0
 30
0.0
  3
*D11
  1

  0
LINE
  5
2CF0
330
2CEF
100
AcDbEntity
  8
寸法線
 62
     0
370
    -2
100
AcDbLine
 10
66.20151402540432
 20
183.4711488256961
 30
0.0
 11
66.20151402540432
 21
159.2554728781026
 31
0.0
  0
LINE
  5
2CF1
330
2CEF
100
AcDbEntity
  8
寸法線
 62
     0
370
    -2
100
AcDbLine
 10
78.20151402540432
 20
183.4711488256961
 30
0.0
 11
78.20151402540432
 21
159.2554728781026
 31
0.0
  0
LINE
  5
2CF2
330
2CEF
100
AcDbEntity
  8
寸法線
 62
     0
370
    -2
100
AcDbLine
 10
69.20151402540432
 20
162.2554728781026
 30
0.0
 11
75.20151402540432
 21
162.2554728781026
 31
0.0
  0
INSERT
  5
2CF3
330
2CEF
100
AcDbEntity
  8
寸法線
 62
     0
370
    -2
100
AcDbBlockReference
  2
_Closed
 10
66.20151402540432
 20
162.2554728781026
 30
0.0
 41
3.0
 42
3.0
 43
3.0
 50
180.0
  0
INSERT
  5
2CF4
330
2CEF
100
AcDbEntity
  8
寸法線
 62
     0
370
    -2
100
AcDbBlockReference
  2
_Closed
 10
78.20151402540432
 20
162.2554728781026
 30
0.0
 41
3.0
 42
3.0
 43
3.0
  0
MTEXT
  5
2CF5
330
2CEF
100
AcDbEntity
  8
寸法線
 62
     0
100
AcDbMText
 10
72.20151402540432
 20
165.7559650040868
 30
0.0
 40
5.0
 41
0.0
 71
     5
 72
     1
  1
12
  7
OKANO
 73
     1
 44
1.0
  0
POINT
  5
2CF6
330
2CEF
100
AcDbEntity
  8
Defpoints
 62
     0
100
AcDbPoint
 10
66.20151402540432
 20
185.4711488256961
 30
0.0
  0
POINT
  5
2CF7
330
2CEF
100
AcDbEntity
  8
Defpoints
 62
     0
100
AcDbPoint
 10
78.20151402540432
 20
185.4711488256961
 30
0.0
  0
POINT
  5
2CF8
330
2CEF
100
AcDbEntity
  8
Defpoints
 62
     0
100
AcDbPoint
 10
78.20151402540432
 20
162.2554728781026
 30
0.0
  0
ENDBLK
  5
2CFA
330
2CEF
100
AcDbEntity
  8
0
100
AcDbBlockEnd
  0
BLOCK
  5
2D03
330
2CFC
100
AcDbEntity
  8
0
100
AcDbBlockBegin
  2
*D12
 70
     1
 10
0.0
 20
0.0
 30
0.0
  3
*D12
  1

  0
LINE
  5
2CFD
330
2CFC
100
AcDbEntity
  8
寸法線
 62
     0
370
    -2
100
AcDbLine
 10
92.40656481912509
 20
198.8938646929375
 30
0.0
 11
80.9793578780685
 21
196.3067186052681
 31
0.0
  0
MTEXT
  5
2CFE
330
2CFC
100
AcDbEntity
  8
寸法線
 62
     0
100
AcDbMText
 10
87.38308704142347
 20
201.3451182843558
 30
0.0
 40
5.0
 41
0.0
 71
     5
 72
     1
  1
R6
  7
OKANO
 11
0.9753159836293527
 21
0.2208137950335262
 31
0.0
 73
     1
 44
1.0
  0
LINE
  5
2CFF
330
2CFC
100
AcDbEntity
  8
寸法線
 62
     0
370
    -2
100
AcDbLine
 10
72.20151402540444
 20
194.3193944499664
 30
0.0
 11
78.05340992718043
 21
195.6442772201675
 31
0.0
  0
INSERT
  5
2D00
330
2CFC
100
AcDbEntity
  8
寸法線
 62
     0
370
    -2
100
AcDbBlockReference
  2
_Closed
 10
78.05340992718043
 20
195.6442772201675
 30
0.0
 41
3.0
 42
3.0
 43
3.0
 50
192.7568355770675
  0
POINT
  5
2D01
330
2CFC
100
AcDbEntity
  8
Defpoints
 62
     0
100
AcDbPoint
 10
78.05340992718043
 20
195.6442772201675
 30
0.0
  0
POINT
  5
2D02
330
2CFC
100
AcDbEntity
  8
Defpoints
 62
     0
100
AcDbPoint
 10
72.20151402540444
 20
194.3193944499664
 30
0.0
  0
ENDBLK
  5
2D04
330
2CFC
100
AcDbEntity
  8
0
100
AcDbBlockEnd
  0
BLOCK
  5
2D85
330
2D7B
100
AcDbEntity
  8
0
100
AcDbBlockBegin
  2
*D13
 70
     1
 10
0.0
 20
0.0
 30
0.0
  3
*D13
  1

  0
LINE
  5
2EC3
330
2D7B
100
AcDbEntity
  8
寸法線
 62
     0
370
    -2
100
AcDbLine
 10
104.2015140254043
 20
150.4711488256961
 30
0.0
 11
112.8124947918331
 21
150.4711488256961
 31
0.0
  0
LINE
  5
2EC4
330
2D7B
100
AcDbEntity
  8
寸法線
 62
     0
370
    -2
100
AcDbLine
 10
104.2015140254043
 20
100.4711488256961
 30
0.0
 11
112.8124947918331
 21
100.4711488256961
 31
0.0
  0
LINE
  5
2EC5
330
2D7B
100
AcDbEntity
  8
寸法線
 62
     0
370
    -2
100
AcDbLine
 10
109.8124947918331
 20
147.4711488256961
 30
0.0
 11
109.8124947918331
 21
103.4711488256961
 31
0.0
  0
INSERT
  5
2EC6
330
2D7B
100
AcDbEntity
  8
寸法線
 62
     0
370
    -2
100
AcDbBlockReference
  2
_Closed
 10
109.8124947918331
 20
150.4711488256961
 30
0.0
 41
3.0
 42
3.0
 43
3.0
 50
90.0
  0
INSERT
  5
2EC7
330
2D7B
100
AcDbEntity
  8
寸法線
 62
     0
370
    -2
100
AcDbBlockReference
  2
_Closed
 10
109.8124947918331
 20
100.4711488256961
 30
0.0
 41
3.0
 42
3.0
 43
3.0
 50
270.0
  0
MTEXT
  5
2EC8
330
2D7B
100
AcDbEntity
  8
寸法線
 62
     0
100
AcDbMText
 10
106.3124947918331
 20
125.4711488256961
 30
0.0
 40
5.0
 41
0.0
 71
     5
 72
     1
  1
49.6
  7
OKANO
 11
0.0000000000000001
 21
1.0
 31
0.0
 73
     1
 44
1.0
  0
POINT
  5
2EC9
330
2D7B
100
AcDbEntity
  8
Defpoints
 62
     0
100
AcDbPoint
 10
102.2015140254043
 20
150.4711488256961
 30
0.0
  0
POINT
  5
2ECA
330
2D7B
100
AcDbEntity
  8
Defpoints
 62
     0
100
AcDbPoint
 10
102.2015140254043
 20
100.4711488256961
 30
0.0
  0
POINT
  5
2ECB
330
2D7B
100
AcDbEntity
  8
Defpoints
 62
     0
100
AcDbPoint
 10
109.8124947918331
 20
100.4711488256961
 30
0.0
  0
ENDBLK
  5
2D86
330
2D7B
100
AcDbEntity
  8
0
100
AcDbBlockEnd
  0
BLOCK
  5
2D92
330
2D88
100
AcDbEntity
  8
0
100
AcDbBlockBegin
  2
*D14
 70
     1
 10
0.0
 20
0.0
 30
0.0
  3
*D14
  1

  0
LINE
  5
2DEB
330
2D88
100
AcDbEntity
  8
寸法線
 62
     0
370
    -2
100
AcDbLine
 10
71.08444195903834
 20
40.48414433601749
 30
0.0
 11
26.10759274678479
 21
40.4841443360175
 31
0.0
  0
LINE
  5
2DEC
330
2D88
100
AcDbEntity
  8
寸法線
 62
     0
370
    -2
100
AcDbLine
 10
70.20151402540432
 20
95.47114882569616
 30
0.0
 11
26.1075927467848
 21
95.47114882569617
 31
0.0
  0
LINE
  5
2DED
330
2D88
100
AcDbEntity
  8
寸法線
 62
     0
370
    -2
100
AcDbLine
 10
29.10759274678479
 20
43.4841443360175
 30
0.0
 11
29.1075927467848
 21
92.47114882569617
 31
0.0
  0
INSERT
  5
2DEE
330
2D88
100
AcDbEntity
  8
寸法線
 62
     0
370
    -2
100
AcDbBlockReference
  2
_Closed
 10
29.10759274678479
 20
40.4841443360175
 30
0.0
 41
3.0
 42
3.0
 43
3.0
 50
270.0
  0
INSERT
  5
2DEF
330
2D88
100
AcDbEntity
  8
寸法線
 62
     0
370
    -2
100
AcDbBlockReference
  2
_Closed
 10
29.1075927467848
 20
95.47114882569617
 30
0.0
 41
3.0
 42
3.0
 43
3.0
 50
90.0
  0
MTEXT
  5
2DF0
330
2D88
100
AcDbEntity
  8
寸法線
 62
     0
100
AcDbMText
 10
25.60759274678478
 20
67.97764658085684
 30
0.0
 40
5.0
 41
0.0
 71
     5
 72
     1
  1
56.0
  7
OKANO
 11
0.0000000000000001
 21
1.0
 31
0.0
 73
     1
 44
1.0
  0
POINT
  5
2DF1
330
2D88
100
AcDbEntity
  8
Defpoints
 62
     0
100
AcDbPoint
 10
73.08444195903835
 20
40.48414433601749
 30
0.0
  0
POINT
  5
2DF2
330
2D88
100
AcDbEntity
  8
Defpoints
 62
     0
100
AcDbPoint
 10
72.20151402540432
 20
95.47114882569616
 30
0.0
  0
POINT
  5
2DF3
330
2D88
100
AcDbEntity
  8
Defpoints
 62
     0
100
AcDbPoint
 10
29.1075927467848
 20
95.47114882569617
 30
0.0
  0
ENDBLK
  5
2D93
330
2D88
100
AcDbEntity
  8
0
100
AcDbBlockEnd
  0
BLOCK
  5
2DA1
330
2D95
100
AcDbEntity
  8
0
100
AcDbBlockBegin
  2
*D15
 70
     1
 10
0.0
 20
0.0
 30
0.0
  3
*D15
  1

  0
LINE
  5
2DD5
330
2D95
100
AcDbEntity
  8
寸法線
 62
     0
370
    -2
100
AcDbLine
 10
70.20151402540432
 20
95.47114882569616
 30
0.0
 11
26.1075927467848
 21
95.47114882569617
 31
0.0
  0
LINE
  5
2DD6
330
2D95
100
AcDbEntity
  8
寸法線
 62
     0
370
    -2
100
AcDbLine
 10
40.20151402540432
 20
100.4711488256961
 30
0.0
 11
26.1075927467848
 21
100.4711488256961
 31
0.0
  0
LINE
  5
2DD7
330
2D95
100
AcDbEntity
  8
寸法線
 62
     0
370
    -2
100
AcDbLine
 10
29.1075927467848
 20
92.47114882569617
 30
0.0
 11
29.1075927467848
 21
89.47114882569618
 31
0.0
  0
LINE
  5
2DD8
330
2D95
100
AcDbEntity
  8
寸法線
 62
     0
370
    -2
100
AcDbLine
 10
29.1075927467848
 20
103.4711488256961
 30
0.0
 11
29.10759274678481
 21
106.4711488256961
 31
0.0
  0
LINE
  5
2DD9
330
2D95
100
AcDbEntity
  8
寸法線
 62
     0
370
    -2
100
AcDbLine
 10
29.1075927467848
 20
95.47114882569617
 30
0.0
 11
29.1075927467848
 21
100.4711488256961
 31
0.0
  0
INSERT
  5
2DDA
330
2D95
100
AcDbEntity
  8
寸法線
 62
     0
370
    -2
100
AcDbBlockReference
  2
_Closed
 10
29.1075927467848
 20
95.47114882569617
 30
0.0
 41
3.0
 42
3.0
 43
3.0
 50
90.0
  0
INSERT
  5
2DDB
330
2D95
100
AcDbEntity
  8
寸法線
 62
     0
370
    -2
100
AcDbBlockReference
  2
_Closed
 10
29.1075927467848
 20
100.4711488256961
 30
0.0
 41
3.0
 42
3.0
 43
3.0
 50
270.0
  0
MTEXT
  5
2DDC
330
2D95
100
AcDbEntity
  8
寸法線
 62
     0
100
AcDbMText
 10
25.60759274678479
 20
97.97114882569617
 30
0.0
 40
5.0
 41
0.0
 71
     5
 72
     1
  1
4
  7
OKANO
 11
0.0000000000000001
 21
1.0
 31
0.0
 73
     1
 44
1.0
  0
POINT
  5
2DDD
330
2D95
100
AcDbEntity
  8
Defpoints
 62
     0
100
AcDbPoint
 10
72.20151402540432
 20
95.47114882569616
 30
0.0
  0
POINT
  5
2DDE
330
2D95
100
AcDbEntity
  8
Defpoints
 62
     0
100
AcDbPoint
 10
42.20151402540432
 20
100.4711488256961
 30
0.0
  0
POINT
  5
2DDF
330
2D95
100
AcDbEntity
  8
Defpoints
 62
     0
100
AcDbPoint
 10
29.1075927467848
 20
100.4711488256961
 30
0.0
  0
ENDBLK
  5
2DA2
330
2D95
100
AcDbEntity
  8
0
100
AcDbBlockEnd
  0
BLOCK
  5
2DAE
330
2DA4
100
AcDbEntity
  8
0
100
AcDbBlockBegin
  2
*D16
 70
     1
 10
0.0
 20
0.0
 30
0.0
  3
*D16
  1

  0
LINE
  5
2DCC
330
2DA4
100
AcDbEntity
  8
寸法線
 62
     0
370
    -2
100
AcDbLine
 10
40.20151402540432
 20
100.4711488256961
 30
0.0
 11
26.1075927467848
 21
100.4711488256961
 31
0.0
  0
LINE
  5
2DCD
330
2DA4
100
AcDbEntity
  8
寸法線
 62
     0
370
    -2
100
AcDbLine
 10
40.20151402540432
 20
150.4711488256961
 30
0.0
 11
26.10759274678481
 21
150.4711488256961
 31
0.0
  0
LINE
  5
2DCE
330
2DA4
100
AcDbEntity
  8
寸法線
 62
     0
370
    -2
100
AcDbLine
 10
29.1075927467848
 20
103.4711488256961
 30
0.0
 11
29.10759274678481
 21
147.4711488256961
 31
0.0
  0
INSERT
  5
2DCF
330
2DA4
100
AcDbEntity
  8
寸法線
 62
     0
370
    -2
100
AcDbBlockReference
  2
_Closed
 10
29.1075927467848
 20
100.4711488256961
 30
0.0
 41
3.0
 42
3.0
 43
3.0
 50
270.0
  0
INSERT
  5
2DD0
330
2DA4
100
AcDbEntity
  8
寸法線
 62
     0
370
    -2
100
AcDbBlockReference
  2
_Closed
 10
29.10759274678481
 20
150.4711488256961
 30
0.0
 41
3.0
 42
3.0
 43
3.0
 50
90.0
  0
MTEXT
  5
2DD1
330
2DA4
100
AcDbEntity
  8
寸法線
 62
     0
100
AcDbMText
 10
25.60759274678479
 20
125.4711488256961
 30
0.0
 40
5.0
 41
0.0
 71
     5
 72
     1
  1
49.3
  7
OKANO
 11
0.0000000000000001
 21
1.0
 31
0.0
 73
     1
 44
1.0
  0
POINT
  5
2DD2
330
2DA4
100
AcDbEntity
  8
Defpoints
 62
     0
100
AcDbPoint
 10
42.20151402540432
 20
100.4711488256961
 30
0.0
  0
POINT
  5
2DD3
330
2DA4
100
AcDbEntity
  8
Defpoints
 62
     0
100
AcDbPoint
 10
42.20151402540432
 20
150.4711488256961
 30
0.0
  0
POINT
  5
2DD4
330
2DA4
100
AcDbEntity
  8
Defpoints
 62
     0
100
AcDbPoint
 10
29.10759274678481
 20
150.4711488256961
 30
0.0
  0
ENDBLK
  5
2DAF
330
2DA4
100
AcDbEntity
  8
0
100
AcDbBlockEnd
  0
BLOCK
  5
2DBD
330
2DB1
100
AcDbEntity
  8
0
100
AcDbBlockBegin
  2
*D17
 70
     1
 10
0.0
 20
0.0
 30
0.0
  3
*D17
  1

  0
LINE
  5
2DE0
330
2DB1
100
AcDbEntity
  8
寸法線
 62
     0
370
    -2
100
AcDbLine
 10
40.20151402540432
 20
150.4711488256961
 30
0.0
 11
26.10759274678481
 21
150.4711488256961
 31
0.0
  0
LINE
  5
2DE1
330
2DB1
100
AcDbEntity
  8
寸法線
 62
     0
370
    -2
100
AcDbLine
 10
40.20151402540432
 20
155.4711488256961
 30
0.0
 11
26.10759274678482
 21
155.4711488256961
 31
0.0
  0
LINE
  5
2DE2
330
2DB1
100
AcDbEntity
  8
寸法線
 62
     0
370
    -2
100
AcDbLine
 10
29.10759274678481
 20
147.4711488256961
 30
0.0
 11
29.10759274678481
 21
144.4711488256961
 31
0.0
  0
LINE
  5
2DE3
330
2DB1
100
AcDbEntity
  8
寸法線
 62
     0
370
    -2
100
AcDbLine
 10
29.10759274678481
 20
158.4711488256961
 30
0.0
 11
29.10759274678481
 21
161.4711488256961
 31
0.0
  0
LINE
  5
2DE4
330
2DB1
100
AcDbEntity
  8
寸法線
 62
     0
370
    -2
100
AcDbLine
 10
29.10759274678481
 20
150.4711488256961
 30
0.0
 11
29.10759274678481
 21
155.4711488256961
 31
0.0
  0
INSERT
  5
2DE5
330
2DB1
100
AcDbEntity
  8
寸法線
 62
     0
370
    -2
100
AcDbBlockReference
  2
_Closed
 10
29.10759274678481
 20
150.4711488256961
 30
0.0
 41
3.0
 42
3.0
 43
3.0
 50
90.0
  0
INSERT
  5
2DE6
330
2DB1
100
AcDbEntity
  8
寸法線
 62
     0
370
    -2
100
AcDbBlockReference
  2
_Closed
 10
29.10759274678481
 20
155.4711488256961
 30
0.0
 41
3.0
 42
3.0
 43
3.0
 50
270.0
  0
MTEXT
  5
2DE7
330
2DB1
100
AcDbEntity
  8
寸法線
 62
     0
100
AcDbMText
 10
25.60759274678479
 20
152.9711488256961
 30
0.0
 40
5.0
 41
0.0
 71
     5
 72
     1
  1
4
  7
OKANO
 11
0.0000000000000001
 21
1.0
 31
0.0
 73
     1
 44
1.0
  0
POINT
  5
2DE8
330
2DB1
100
AcDbEntity
  8
Defpoints
 62
     0
100
AcDbPoint
 10
42.20151402540432
 20
150.4711488256961
 30
0.0
  0
POINT
  5
2DE9
330
2DB1
100
AcDbEntity
  8
Defpoints
 62
     0
100
AcDbPoint
 10
42.20151402540432
 20
155.4711488256961
 30
0.0
  0
POINT
  5
2DEA
330
2DB1
100
AcDbEntity
  8
Defpoints
 62
     0
100
AcDbPoint
 10
29.10759274678481
 20
155.4711488256961
 30
0.0
  0
ENDBLK
  5
2DBE
330
2DB1
100
AcDbEntity
  8
0
100
AcDbBlockEnd
  0
BLOCK
  5
2DCA
330
2DC0
100
AcDbEntity
  8
0
100
AcDbBlockBegin
  2
*D18
 70
     1
 10
0.0
 20
0.0
 30
0.0
  3
*D18
  1

  0
LINE
  5
2DF4
330
2DC0
100
AcDbEntity
  8
寸法線
 62
     0
370
    -2
100
AcDbLine
 10
40.20151402540432
 20
155.4711488256961
 30
0.0
 11
26.10759274678482
 21
155.4711488256961
 31
0.0
  0
LINE
  5
2DF5
330
2DC0
100
AcDbEntity
  8
寸法線
 62
     0
370
    -2
100
AcDbLine
 10
70.20151402540432
 20
210.4711488256961
 30
0.0
 11
26.10759274678482
 21
210.4711488256961
 31
0.0
  0
LINE
  5
2DF6
330
2DC0
100
AcDbEntity
  8
寸法線
 62
     0
370
    -2
100
AcDbLine
 10
29.10759274678481
 20
158.4711488256961
 30
0.0
 11
29.10759274678483
 21
207.4711488256961
 31
0.0
  0
INSERT
  5
2DF7
330
2DC0
100
AcDbEntity
  8
寸法線
 62
     0
370
    -2
100
AcDbBlockReference
  2
_Closed
 10
29.10759274678481
 20
155.4711488256961
 30
0.0
 41
3.0
 42
3.0
 43
3.0
 50
270.0
  0
INSERT
  5
2DF8
330
2DC0
100
AcDbEntity
  8
寸法線
 62
     0
370
    -2
100
AcDbBlockReference
  2
_Closed
 10
29.10759274678483
 20
210.4711488256961
 30
0.0
 41
3.0
 42
3.0
 43
3.0
 50
90.0
  0
MTEXT
  5
2DF9
330
2DC0
100
AcDbEntity
  8
寸法線
 62
     0
100
AcDbMText
 10
25.60759274678479
 20
182.9711488256961
 30
0.0
 40
5.0
 41
0.0
 71
     5
 72
     1
  1
56.0
  7
OKANO
 11
0.0000000000000001
 21
1.0
 31
0.0
 73
     1
 44
1.0
  0
POINT
  5
2DFA
330
2DC0
100
AcDbEntity
  8
Defpoints
 62
     0
100
AcDbPoint
 10
42.20151402540432
 20
155.4711488256961
 30
0.0
  0
POINT
  5
2DFB
330
2DC0
100
AcDbEntity
  8
Defpoints
 62
     0
100
AcDbPoint
 10
72.20151402540432
 20
210.4711488256961
 30
0.0
  0
POINT
  5
2DFC
330
2DC0
100
AcDbEntity
  8
Defpoints
 62
     0
100
AcDbPoint
 10
29.10759274678483
 20
210.4711488256961
 30
0.0
  0
ENDBLK
  5
2DCB
330
2DC0
100
AcDbEntity
  8
0
100
AcDbBlockEnd
  0
BLOCK
  5
2E08
330
2DFE
100
AcDbEntity
  8
0
100
AcDbBlockBegin
  2
*D19
 70
     1
 10
0.0
 20
0.0
 30
0.0
  3
*D19
  1

  0
LINE
  5
2DFF
330
2DFE
100
AcDbEntity
  8
寸法線
 62
     0
370
    -2
100
AcDbLine
 10
42.20151402540432
 20
98.47114882569616
 30
0.0
 11
42.20151402540431
 21
14.96610953461185
 31
0.0
  0
LINE
  5
2E00
330
2DFE
100
AcDbEntity
  8
寸法線
 62
     0
370
    -2
100
AcDbLine
 10
102.2015140254043
 20
98.47114882569616
 30
0.0
 11
102.2015140254043
 21
14.96610953461185
 31
0.0
  0
LINE
  5
2E01
330
2DFE
100
AcDbEntity
  8
寸法線
 62
     0
370
    -2
100
AcDbLine
 10
45.20151402540431
 20
17.96610953461185
 30
0.0
 11
99.20151402540433
 21
17.96610953461185
 31
0.0
  0
INSERT
  5
2E02
330
2DFE
100
AcDbEntity
  8
寸法線
 62
     0
370
    -2
100
AcDbBlockReference
  2
_Closed
 10
42.20151402540431
 20
17.96610953461185
 30
0.0
 41
3.0
 42
3.0
 43
3.0
 50
180.0
  0
INSERT
  5
2E03
330
2DFE
100
AcDbEntity
  8
寸法線
 62
     0
370
    -2
100
AcDbBlockReference
  2
_Closed
 10
102.2015140254043
 20
17.96610953461185
 30
0.0
 41
3.0
 42
3.0
 43
3.0
  0
MTEXT
  5
2E04
330
2DFE
100
AcDbEntity
  8
寸法線
 62
     0
100
AcDbMText
 10
72.20151402540432
 20
21.46610953461185
 30
0.0
 40
5.0
 41
0.0
 71
     5
 72
     1
  1
60
  7
OKANO
 73
     1
 44
1.0
  0
POINT
  5
2E05
330
2DFE
100
AcDbEntity
  8
Defpoints
 62
     0
100
AcDbPoint
 10
42.20151402540432
 20
100.4711488256961
 30
0.0
  0
POINT
  5
2E06
330
2DFE
100
AcDbEntity
  8
Defpoints
 62
     0
100
AcDbPoint
 10
102.2015140254043
 20
100.4711488256961
 30
0.0
  0
POINT
  5
2E07
330
2DFE
100
AcDbEntity
  8
Defpoints
 62
     0
100
AcDbPoint
 10
102.2015140254043
 20
17.96610953461185
 30
0.0
  0
ENDBLK
  5
2E09
330
2DFE
100
AcDbEntity
  8
0
100
AcDbBlockEnd
  0
BLOCK
  5
2E66
330
2E5C
100
AcDbEntity
  8
0
100
AcDbBlockBegin
  2
*D20
 70
     1
 10
0.0
 20
0.0
 30
0.0
  3
*D20
  1

  0
LINE
  5
2E87
330
2E5C
100
AcDbEntity
  8
寸法線
 62
     0
370
    -2
100
AcDbLine
 10
217.6414745488584
 20
127.4711488256961
 30
0.0
 11
217.6414745488584
 21
222.9798874707948
 31
0.0
  0
LINE
  5
2E88
330
2E5C
100
AcDbEntity
  8
寸法線
 62
     0
370
    -2
100
AcDbLine
 10
245.6414745488584
 20
211.4711488256961
 30
0.0
 11
245.6414745488584
 21
222.9798874707948
 31
0.0
  0
LINE
  5
2E89
330
2E5C
100
AcDbEntity
  8
寸法線
 62
     0
370
    -2
100
AcDbLine
 10
220.6414745488584
 20
219.9798874707949
 30
0.0
 11
242.6414745488584
 21
219.9798874707949
 31
0.0
  0
INSERT
  5
2E8A
330
2E5C
100
AcDbEntity
  8
寸法線
 62
     0
370
    -2
100
AcDbBlockReference
  2
_Closed
 10
217.6414745488584
 20
219.9798874707949
 30
0.0
 41
3.0
 42
3.0
 43
3.0
 50
180.0
  0
INSERT
  5
2E8B
330
2E5C
100
AcDbEntity
  8
寸法線
 62
     0
370
    -2
100
AcDbBlockReference
  2
_Closed
 10
245.6414745488584
 20
219.9798874707949
 30
0.0
 41
3.0
 42
3.0
 43
3.0
  0
MTEXT
  5
2E8C
330
2E5C
100
AcDbEntity
  8
寸法線
 62
     0
100
AcDbMText
 10
231.6414745488584
 20
223.4803795967791
 30
0.0
 40
5.0
 41
0.0
 71
     5
 72
     1
  1
26.65
  7
OKANO
 73
     1
 44
1.0
  0
POINT
  5
2E8D
330
2E5C
100
AcDbEntity
  8
Defpoints
 62
     0
100
AcDbPoint
 10
217.6414745488584
 20
125.4711488256961
 30
0.0
  0
POINT
  5
2E8E
330
2E5C
100
AcDbEntity
  8
Defpoints
 62
     0
100
AcDbPoint
 10
245.6414745488584
 20
209.4711488256961
 30
0.0
  0
POINT
  5
2E8F
330
2E5C
100
AcDbEntity
  8
Defpoints
 62
     0
100
AcDbPoint
 10
245.6414745488584
 20
219.9798874707949
 30
0.0
  0
ENDBLK
  5
2E67
330
2E5C
100
AcDbEntity
  8
0
100
AcDbBlockEnd
  0
BLOCK
  5
2E78
330
2E69
100
AcDbEntity
  8
0
100
AcDbBlockBegin
  2
*D21
 70
     1
 10
0.0
 20
0.0
 30
0.0
  3
*D21
  1

  0
LINE
  5
2E6A
330
2E69
100
AcDbEntity
  8
寸法線
 62
     0
370
    -2
100
AcDbLine
 10
245.6414745488584
 20
211.4711488256961
 30
0.0
 11
245.6414745488584
 21
222.9798874707948
 31
0.0
  0
LINE
  5
2E6B
330
2E69
100
AcDbEntity
  8
寸法線
 62
     0
370
    -2
100
AcDbLine
 10
249.6414745488584
 20
211.4711488256961
 30
0.0
 11
249.6414745488584
 21
222.9798874707948
 31
0.0
  0
LINE
  5
2E6C
330
2E69
100
AcDbEntity
  8
寸法線
 62
     0
370
    -2
100
AcDbLine
 10
242.6414745488584
 20
219.9798874707949
 30
0.0
 11
239.6414745488584
 21
219.9798874707949
 31
0.0
  0
LINE
  5
2E6D
330
2E69
100
AcDbEntity
  8
寸法線
 62
     0
370
    -2
100
AcDbLine
 10
252.6414745488584
 20
219.9798874707949
 30
0.0
 11
255.6414745488584
 21
219.9798874707949
 31
0.0
  0
LINE
  5
2E6E
330
2E69
100
AcDbEntity
  8
寸法線
 62
     0
370
    -2
100
AcDbLine
 10
247.6414745488584
 20
219.9798874707949
 30
0.0
 11
249.7414745488584
 21
226.9798874707948
 31
0.0
  0
LINE
  5
2E6F
330
2E69
100
AcDbEntity
  8
寸法線
 62
     0
370
    -2
100
AcDbLine
 10
249.7414745488584
 20
226.9798874707948
 30
0.0
 11
254.2414745488584
 21
226.9798874707948
 31
0.0
  0
MTEXT
  5
2E70
330
2E69
100
AcDbEntity
  8
寸法線
 62
     0
100
AcDbMText
 10
251.9914745488584
 20
230.4798874707949
 30
0.0
 40
5.0
 41
0.0
 71
     5
 72
     1
  1
4
  7
OKANO
 73
     1
 44
1.0
  0
LINE
  5
2E71
330
2E69
100
AcDbEntity
  8
寸法線
 62
     0
370
    -2
100
AcDbLine
 10
245.6414745488584
 20
219.9798874707949
 30
0.0
 11
249.6414745488584
 21
219.9798874707949
 31
0.0
  0
LINE
  5
2E72
330
2E69
100
AcDbEntity
  8
寸法線
 62
     0
370
    -2
100
AcDbLine
 10
245.6414745488584
 20
219.9798874707949
 30
0.0
 11
249.6414745488584
 21
219.9798874707949
 31
0.0
  0
INSERT
  5
2E73
330
2E69
100
AcDbEntity
  8
寸法線
 62
     0
370
    -2
100
AcDbBlockReference
  2
_Closed
 10
245.6414745488584
 20
219.9798874707949
 30
0.0
 41
3.0
 42
3.0
 43
3.0
  0
INSERT
  5
2E74
330
2E69
100
AcDbEntity
  8
寸法線
 62
     0
370
    -2
100
AcDbBlockReference
  2
_Closed
 10
249.6414745488584
 20
219.9798874707949
 30
0.0
 41
3.0
 42
3.0
 43
3.0
 50
180.0
  0
POINT
  5
2E75
330
2E69
100
AcDbEntity
  8
Defpoints
 62
     0
100
AcDbPoint
 10
245.6414745488584
 20
209.4711488256961
 30
0.0
  0
POINT
  5
2E76
330
2E69
100
AcDbEntity
  8
Defpoints
 62
     0
100
AcDbPoint
 10
249.6414745488584
 20
209.4711488256961
 30
0.0
  0
POINT
  5
2E77
330
2E69
100
AcDbEntity
  8
Defpoints
 62
     0
100
AcDbPoint
 10
249.6414745488584
 20
219.9798874707949
 30
0.0
  0
ENDBLK
  5
2E79
330
2E69
100
AcDbEntity
  8
0
100
AcDbBlockEnd
  0
BLOCK
  5
2E85
330
2E7B
100
AcDbEntity
  8
0
100
AcDbBlockBegin
  2
*D22
 70
     1
 10
0.0
 20
0.0
 30
0.0
  3
*D22
  1

  0
LINE
  5
2E90
330
2E7B
100
AcDbEntity
  8
寸法線
 62
     0
370
    -2
100
AcDbLine
 10
249.6414745488584
 20
211.4711488256961
 30
0.0
 11
249.6414745488584
 21
222.9798874707948
 31
0.0
  0
LINE
  5
2E91
330
2E7B
100
AcDbEntity
  8
寸法線
 62
     0
370
    -2
100
AcDbLine
 10
277.6414745488584
 20
127.4711488256961
 30
0.0
 11
277.6414745488584
 21
222.9798874707948
 31
0.0
  0
LINE
  5
2E92
330
2E7B
100
AcDbEntity
  8
寸法線
 62
     0
370
    -2
100
AcDbLine
 10
252.6414745488584
 20
219.9798874707949
 30
0.0
 11
274.6414745488584
 21
219.9798874707949
 31
0.0
  0
INSERT
  5
2E93
330
2E7B
100
AcDbEntity
  8
寸法線
 62
     0
370
    -2
100
AcDbBlockReference
  2
_Closed
 10
249.6414745488584
 20
219.9798874707949
 30
0.0
 41
3.0
 42
3.0
 43
3.0
 50
180.0
  0
INSERT
  5
2E94
330
2E7B
100
AcDbEntity
  8
寸法線
 62
     0
370
    -2
100
AcDbBlockReference
  2
_Closed
 10
277.6414745488584
 20
219.9798874707949
 30
0.0
 41
3.0
 42
3.0
 43
3.0
  0
MTEXT
  5
2E95
330
2E7B
100
AcDbEntity
  8
寸法線
 62
     0
100
AcDbMText
 10
263.6414745488584
 20
223.4803795967791
 30
0.0
 40
5.0
 41
0.0
 71
     5
 72
     1
  1
26.65
  7
OKANO
 73
     1
 44
1.0
  0
POINT
  5
2E96
330
2E7B
100
AcDbEntity
  8
Defpoints
 62
     0
100
AcDbPoint
 10
249.6414745488584
 20
209.4711488256961
 30
0.0
  0
POINT
  5
2E97
330
2E7B
100
AcDbEntity
  8
Defpoints
 62
     0
100
AcDbPoint
 10
277.6414745488584
 20
125.4711488256961
 30
0.0
  0
POINT
  5
2E98
330
2E7B
100
AcDbEntity
  8
Defpoints
 62
     0
100
AcDbPoint
 10
277.6414745488584
 20
219.9798874707949
 30
0.0
  0
ENDBLK
  5
2E86
330
2E7B
100
AcDbEntity
  8
0
100
AcDbBlockEnd
  0
ENDSEC
  0
SECTION
  2
ENTITIES
  0
ARC
  5
28DE
330
1F
100
AcDbEntity
  8
太線
100
AcDbCircle
 10
72.20151402540432
 20
180.4711488256961
 30
0.0
 40
30.0
100
AcDbArc
 50
356.6269766589525
 51
180.0
  0
LINE
  5
28E0
330
1F
100
AcDbEntity
  8
太線
100
AcDbLine
 10
42.20151402540432
 20
180.4711488256961
 30
0.0
 11
42.20151402540432
 21
100.4711488256961
 31
0.0
  0
XLINE
  5
28ED
330
1F
100
AcDbEntity
  8
構築線
100
AcDbXline
 10
247.6414745488584
 20
210.4788998873083
 30
0.0
 11
0.0
 21
-1.0
 31
0.0
  0
LINE
  5
28F9
330
1F
100
AcDbEntity
  8
想像線
100
AcDbLine
 10
47.20151402540432
 20
150.4711488256961
 30
0.0
 11
97.20151402540432
 21
150.4711488256961
 31
0.0
  0
TEXT
  5
29C1
330
1F
100
AcDbEntity
  8
文字
100
AcDbText
 10
298.4824938681349
 20
-28.84070522517879
 30
0.0
 40
3.599999999999999
  1
SET SCREW COUP
 51
15.0
  7
OKANO
100
AcDbText
  0
TEXT
  5
29C2
330
1F
100
AcDbEntity
  8
文字
100
AcDbText
 10
275.1070859623077
 20
-35.52497173398167
 30
0.0
 40
4.799999999999999
  1
joint kogyo T.okano
 51
15.0
  7
OKANO
100
AcDbText
  0
TEXT
  5
29C3
330
1F
100
AcDbEntity
  8
文字
100
AcDbText
 10
267.6187729505109
 20
-20.77260022669388
 30
0.0
 40
4.799999999999999
  1
F-999-20060203 Auto CAD
 51
15.0
  7
OKANO
100
AcDbText
  0
LINE
  5
29C4
330
1F
100
AcDbEntity
  8
太線
100
AcDbLine
 10
240.196544768897
 20
-21.69340787712424
 30
0.0
 11
348.196544768897
 21
-21.69340787712424
 31
0.0
  0
LWPOLYLINE
  5
29C5
330
1F
100
AcDbEntity
  8
太線
100
AcDbPolyline
 90
        4
 70
     1
 43
0.0
 10
240.196544768897
 20
-13.29340787712424
 10
348.196544768897
 20
-13.29340787712424
 10
348.196544768897
 20
-38.49340787712424
 10
240.196544768897
 20
-38.49340787712424
  0
TEXT
  5
29C6
330
1F
100
AcDbEntity
  8
文字
100
AcDbText
 10
244.0689283349545
 20
-29.88691967597492
 30
0.0
 40
2.399999999999999
  1
CHECK
 51
15.0
  7
OKANO
100
AcDbText
  0
LINE
  5
29C7
330
1F
100
AcDbEntity
  8
太線
100
AcDbLine
 10
264.196544768897
 20
-13.29340787712424
 30
0.0
 11
264.196544768897
 21
-38.49340787712424
 31
0.0
  0
TEXT
  5
29C8
330
1F
100
AcDbEntity
  8
文字
100
AcDbText
 10
244.0689283349545
 20
-36.80634728219074
 30
0.0
 40
2.399999999999999
  1
ISSUED
 51
15.0
  7
OKANO
100
AcDbText
  0
TEXT
  5
29C9
330
1F
100
AcDbEntity
  8
文字
100
AcDbText
 10
244.3254427678553
 20
-33.47477109292261
 30
0.0
 40
2.399999999999999
  1
APPR
 51
15.0
  7
OKANO
100
AcDbText
  0
TEXT
  5
29CA
330
1F
100
AcDbEntity
  8
文字
100
AcDbText
 10
242.2733327832688
 20
-19.89219169835908
 30
0.0
 40
2.399999999999999
  1
FILM NAME
 51
15.0
  7
OKANO
100
AcDbText
  0
TEXT
  5
29CB
330
1F
100
AcDbEntity
  8
文字
100
AcDbText
 10
243.5559016606009
 20
-26.29906884921588
 30
0.0
 40
2.399999999999999
  1
DRAWN
 51
15.0
  7
OKANO
100
AcDbText
  0
TEXT
  5
29CC
330
1F
100
AcDbEntity
  8
文字
100
AcDbText
 10
272.9361049783601
 20
-28.56618149033886
 30
0.0
 40
4.799999999999999
  1
8-1E
 51
15.0
  7
OKANO
100
AcDbText
  0
LINE
  5
29D8
330
1F
100
AcDbEntity
  8
太線
100
AcDbLine
 10
102.2015140254043
 20
178.0193172078315
 30
0.0
 11
102.2015140254043
 21
100.4711488256961
 31
0.0
  0
DIMENSION
  5
29F1
330
1F
100
AcDbEntity
  8
寸法線
100
AcDbDimension
  2
*D2
 10
207.0546510118342
 20
150.6055759632823
 30
0.0
 11
203.5546510118342
 21
125.3147944427035
 31
0.0
 70
    32
  1
49.3
 71
     5
 42
50.58156304115768
  3
sunpo
100
AcDbAlignedDimension
 13
212.2324195332539
 23
100.0240129221247
 33
0.0
 14
212.2324195332539
 24
150.6055759632823
 34
0.0
 50
90.0
100
AcDbRotatedDimension
1001
ACAD
1000
DSTYLE
1002
{
1070
    40
1040
1.0
1002
}
  0
DIMENSION
  5
29FE
330
1F
100
AcDbEntity
  8
寸法線
100
AcDbDimension
  2
*D3
 10
207.0546510118342
 20
209.8089964364685
 30
0.0
 11
203.5546510118342
 21
180.2072861998755
 31
0.0
 70
    32
  1
60.0
 71
     5
 42
59.20342047318616
  3
sunpo
100
AcDbAlignedDimension
 13
212.2324195332539
 23
150.6055759632823
 33
0.0
 14
211.6571114903154
 24
209.8089964364685
 34
0.0
 50
90.0
100
AcDbRotatedDimension
1001
ACAD
1000
DSTYLE
1002
{
1070
    40
1040
1.0
1070
   279
1070
     1
1002
}
  0
DIMENSION
  5
2A78
330
1F
100
AcDbEntity
  8
寸法線
100
AcDbDimension
  2
*D4
 10
122.2434060466923
 20
210.4581533153748
 30
0.0
 11
118.7429139207081
 21
197.9646510705355
 31
0.0
 70
    32
  1
25.0
 71
     5
 42
24.98700448967866
  3
sunpo
100
AcDbAlignedDimension
 13
72.20151402540432
 23
185.4711488256961
 33
0.0
 14
73.08444195903835
 24
210.4581533153748
 34
0.0
 50
90.0
100
AcDbRotatedDimension
1001
ACAD
1000
DSTYLE
1002
{
1070
    40
1040
1.0
1002
}
  0
LINE
  5
2AAC
330
1F
100
AcDbEntity
  8
太線
 62
     0
100
AcDbLine
 10
245.6414745488584
 20
160.4711488256961
 30
0.0
 11
245.6414745488584
 21
209.4711488256961
 31
0.0
  0
LINE
  5
2AAE
330
1F
100
AcDbEntity
  8
太線
 62
     0
100
AcDbLine
 10
249.6414745488584
 20
209.4711488256961
 30
0.0
 11
249.6414745488585
 21
160.4711488256961
 31
0.0
  0
LINE
  5
2ABA
330
1F
100
AcDbEntity
  8
太線
 62
     0
100
AcDbLine
 10
42.20151402540432
 20
155.4711488256961
 30
0.0
 11
102.2015140254043
 21
155.4711488256961
 31
0.0
  0
ARC
  5
2ABF
330
1F
100
AcDbEntity
  8
太線
 62
     0
100
AcDbCircle
 10
248.6414745488584
 20
209.4711488256961
 30
0.0
 40
1.0
100
AcDbArc
 50
0.0
 51
90.0
  0
ARC
  5
2AC0
330
1F
100
AcDbEntity
  8
太線
 62
     0
100
AcDbCircle
 10
246.6414745488584
 20
209.4711488256961
 30
0.0
 40
1.0
100
AcDbArc
 50
90.0000000000004
 51
180.0
  0
LINE
  5
2B4C
330
1F
100
AcDbEntity
  8
太線
100
AcDbLine
 10
42.20151402540432
 20
100.4711488256961
 30
0.0
 11
42.20151402540432
 21
95.47114882569616
 31
0.0
  0
LINE
  5
2B4D
330
1F
100
AcDbEntity
  8
太線
100
AcDbLine
 10
42.20151402540432
 20
95.47114882569616
 30
0.0
 11
102.2015140254043
 21
95.47114882569616
 31
0.0
  0
LINE
  5
2B4E
330
1F
100
AcDbEntity
  8
太線
100
AcDbLine
 10
102.2015140254043
 20
95.47114882569616
 30
0.0
 11
102.2015140254043
 21
100.4711488256961
 31
0.0
  0
LINE
  5
2B4F
330
1F
100
AcDbEntity
  8
想像線
100
AcDbLine
 10
42.20151402540432
 20
150.4711488256961
 30
0.0
 11
47.20151402540432
 21
150.4711488256961
 31
0.0
  0
LINE
  5
2B50
330
1F
100
AcDbEntity
  8
想像線
100
AcDbLine
 10
97.20151402540432
 20
150.4711488256961
 30
0.0
 11
102.2015140254043
 21
150.4711488256961
 31
0.0
  0
LINE
  5
2B51
330
1F
100
AcDbEntity
  8
想像線
100
AcDbLine
 10
42.20151402540432
 20
100.4711488256961
 30
0.0
 11
102.2015140254043
 21
100.4711488256961
 31
0.0
  0
XLINE
  5
2B86
330
1F
100
AcDbEntity
  8
構築線
370
     5
100
AcDbXline
 10
40.70151402540432
 20
125.4711488256961
 30
0.0
 11
1.0
 21
0.0
 31
0.0
  0
ARC
  5
2B87
330
1F
100
AcDbEntity
  8
太線
100
AcDbCircle
 10
72.20151402540432
 20
70.47114882569616
 30
0.0
 40
30.0
100
AcDbArc
 50
180.0
 51
3.373023341047445
  0
LINE
  5
2B8A
330
1F
100
AcDbEntity
  8
太線
 62
     0
100
AcDbLine
 10
245.6414745488584
 20
90.47114882569616
 30
0.0
 11
245.6414745488584
 21
41.47114882569619
 31
0.0
  0
LINE
  5
2B8B
330
1F
100
AcDbEntity
  8
太線
 62
     0
100
AcDbLine
 10
249.6414745488584
 20
41.47114882569613
 30
0.0
 11
249.6414745488584
 21
90.47114882569616
 31
0.0
  0
ARC
  5
2B91
330
1F
100
AcDbEntity
  8
太線
 62
     0
100
AcDbCircle
 10
246.6414745488584
 20
41.47114882569619
 30
0.0
 40
1.0
100
AcDbArc
 50
179.9999999999999
 51
269.9999999999996
  0
ARC
  5
2B93
330
1F
100
AcDbEntity
  8
太線
 62
     0
100
AcDbCircle
 10
248.6414745488584
 20
41.47114882569613
 30
0.0
 40
1.0
100
AcDbArc
 50
270.0
 51
0.0
  0
LINE
  5
2B96
330
1F
100
AcDbEntity
  8
太線
100
AcDbLine
 10
102.2015140254043
 20
95.47114882569614
 30
0.0
 11
102.1495432430048
 21
72.23623975302588
 31
0.0
  0
LINE
  5
2B98
330
1F
100
AcDbEntity
  8
太線
100
AcDbLine
 10
42.20151402540432
 20
95.47114882569616
 30
0.0
 11
42.20151402540432
 21
70.47114882569616
 31
0.0
  0
DIMENSION
  5
2BB9
330
1F
100
AcDbEntity
  8
寸法線
100
AcDbDimension
  2
*D5
 10
207.2722114888013
 20
40.28097937409564
 30
0.0
 11
203.7722114888012
 21
70.1524961481102
 31
0.0
 70
    32
  1
60.0
 71
     5
 42
59.74303354802907
  3
sunpo
100
AcDbAlignedDimension
 13
207.143535272544
 23
100.0240129221247
 33
0.0
 14
207.143535272544
 24
40.28097937409564
 34
0.0
 50
90.0
100
AcDbRotatedDimension
1001
ACAD
1000
DSTYLE
1002
{
1070
    40
1040
1.0
1002
}
  0
ARC
  5
2BF0
330
1F
100
AcDbEntity
  8
太線
100
AcDbCircle
 10
247.6414745488584
 20
125.4711488256961
 30
0.0
 40
30.0
100
AcDbArc
 50
106.8579560224971
 51
253.1420439775028
  0
CIRCLE
  5
2BF1
330
1F
100
AcDbEntity
  8
太線
100
AcDbCircle
 10
247.6414745488584
 20
125.4711488256961
 30
0.0
 40
25.0
  0
LINE
  5
2BF4
330
1F
100
AcDbEntity
  8
太線
100
AcDbLine
 10
245.6414745488584
 20
160.4711488256961
 30
0.0
 11
245.6414745488584
 21
158.9670814145941
 31
0.0
  0
LINE
  5
2BF6
330
1F
100
AcDbEntity
  8
太線
100
AcDbLine
 10
249.6414745488585
 20
160.4711488256961
 30
0.0
 11
249.6414745488585
 21
160.1121649770736
 31
0.0
  0
LINE
  5
2BF8
330
1F
100
AcDbEntity
  8
太線
100
AcDbLine
 10
245.6414745488584
 20
90.47114882569616
 30
0.0
 11
245.6414745488584
 21
91.97521623679813
 31
0.0
  0
LINE
  5
2BF9
330
1F
100
AcDbEntity
  8
太線
100
AcDbLine
 10
249.6414745488584
 20
90.47114882569616
 30
0.0
 11
249.6414745488584
 21
90.8301326743186
 31
0.0
  0
ARC
  5
2BFA
330
1F
100
AcDbEntity
  8
太線
100
AcDbCircle
 10
247.6414745488584
 20
125.4711488256961
 30
0.0
 40
30.0
100
AcDbArc
 50
278.2132107017381
 51
81.78678929826183
  0
LINE
  5
2C04
330
1F
100
AcDbEntity
  8
太線
100
AcDbLine
 10
125.1384976100218
 20
61.53560202454525
 30
0.0
 11
185.3111094787784
 21
61.53560202454525
 31
0.0
  0
LINE
  5
2C05
330
1F
100
AcDbEntity
  8
太線
100
AcDbLine
 10
185.3111094787784
 20
61.53560202454525
 30
0.0
 11
185.3111094787784
 21
1.535602024545255
 31
0.0
  0
LINE
  5
2C06
330
1F
100
AcDbEntity
  8
太線
100
AcDbLine
 10
185.3111094787784
 20
1.535602024545255
 30
0.0
 11
125.1384976100218
 21
1.535602024545255
 31
0.0
  0
LINE
  5
2C07
330
1F
100
AcDbEntity
  8
太線
100
AcDbLine
 10
125.1384976100218
 20
1.535602024545255
 30
0.0
 11
125.1384976100218
 21
61.53560202454525
 31
0.0
  0
LINE
  5
2C09
330
1F
100
AcDbEntity
  8
想像線
100
AcDbLine
 10
125.1384976100218
 20
56.53560202454525
 30
0.0
 11
185.3111094787784
 21
56.53560202454525
 31
0.0
  0
LINE
  5
2C0A
330
1F
100
AcDbEntity
  8
想像線
100
AcDbLine
 10
125.1384976100218
 20
6.535602024545255
 30
0.0
 11
185.3111094787784
 21
6.535602024545255
 31
0.0
  0
CIRCLE
  5
2C1C
330
1F
100
AcDbEntity
  8
太線
100
AcDbCircle
 10
92.20151402540432
 20
159.4711488256961
 30
0.0
 40
4.0
  0
CIRCLE
  5
2C1D
330
1F
100
AcDbEntity
  8
太線
100
AcDbCircle
 10
52.20151402540432
 20
159.4711488256961
 30
0.0
 40
4.0
  0
CIRCLE
  5
2C1E
330
1F
100
AcDbEntity
  8
太線
100
AcDbCircle
 10
92.20151402540432
 20
91.47114882569615
 30
0.0
 40
4.0
  0
CIRCLE
  5
2C1F
330
1F
100
AcDbEntity
  8
太線
100
AcDbCircle
 10
52.20151402540432
 20
91.47114882569615
 30
0.0
 40
4.0
  0
LINE
  5
2C23
330
1F
100
AcDbEntity
  8
想像線
100
AcDbLine
 10
245.6414745488584
 20
88.47114882569616
 30
0.0
 11
249.6414745488584
 21
88.47114882569616
 31
0.0
  0
LINE
  5
2C24
330
1F
100
AcDbEntity
  8
想像線
100
AcDbLine
 10
245.6414745488584
 20
162.4711488256961
 30
0.0
 11
249.6414745488585
 21
162.4711488256961
 31
0.0
  0
LINE
  5
2C25
330
1F
100
AcDbEntity
  8
想像線
100
AcDbLine
 10
243.0661710861719
 20
155.4711488256961
 30
0.0
 11
251.4728841900486
 21
155.4711488256961
 31
0.0
  0
LINE
  5
2C26
330
1F
100
AcDbEntity
  8
想像線
100
AcDbLine
 10
243.0661710861719
 20
95.47114882569616
 30
0.0
 11
251.6539745904141
 21
95.47114882569616
 31
0.0
  0
DIMENSION
  5
2C6D
330
1F
100
AcDbEntity
  8
寸法線
100
AcDbDimension
  2
*D6
 10
102.2015140254043
 20
139.2452330167638
 30
0.0
 11
97.20151402540432
 21
142.7452330167638
 31
0.0
 70
    32
 71
     5
 42
10.0
  3
sunpo
100
AcDbAlignedDimension
 13
92.20151402540432
 23
159.4711488256961
 33
0.0
 14
102.2015140254043
 24
155.4711488256961
 34
0.0
100
AcDbRotatedDimension
1001
ACAD
1000
DSTYLE
1002
{
1070
    40
1040
1.0
1002
}
  0
DIMENSION
  5
2C7A
330
1F
100
AcDbEntity
  8
寸法線
100
AcDbDimension
  2
*D7
 10
118.6537272419398
 20
155.4711488256961
 30
0.0
 11
115.1537272419397
 21
147.2211488256961
 31
0.0
 70
    32
 71
     5
 42
4.0
  3
sunpo
100
AcDbAlignedDimension
 13
92.20151402540432
 23
159.4711488256961
 33
0.0
 14
92.20151402540432
 24
155.4711488256961
 34
0.0
 50
90.0
100
AcDbRotatedDimension
1001
ACAD
1000
DSTYLE
1002
{
1070
    40
1040
1.0
1002
}
  0
DIMENSION
  5
2C89
330
1F
100
AcDbEntity
  8
寸法線
100
AcDbDimension
  2
*D8
 10
50.39230634087878
 20
87.9036892878382
 30
0.0
 11
62.24537813612369
 21
111.2759944082152
 31
0.0
 70
   163
  1
6
 71
     5
 42
7.999999999999985
  3
sunpo
100
AcDbDiametricDimension
 15
54.01072170992986
 25
95.03860836355411
 35
0.0
 40
0.0
1001
ACAD
1000
DSTYLE
1002
{
1070
    40
1040
1.0
1070
   288
1070
     1
1002
}
  0
ARC
  5
2CB4
330
1F
100
AcDbEntity
  8
太線
 62
     0
100
AcDbCircle
 10
72.20151402540432
 20
194.3193944499664
 30
0.0
 40
6.0
100
AcDbArc
 50
0.0
 51
180.0
  0
ARC
  5
2CB5
330
1F
100
AcDbEntity
  8
太線
 62
     0
100
AcDbCircle
 10
72.20151402540432
 20
176.6229032014259
 30
0.0
 40
6.0
100
AcDbArc
 50
180.0
 51
0.0
  0
LINE
  5
2CB6
330
1F
100
AcDbEntity
  8
太線
100
AcDbLine
 10
78.20151402540432
 20
194.3193944499664
 30
0.0
 11
78.20151402540432
 21
176.6229032014259
 31
0.0
  0
LINE
  5
2CB7
330
1F
100
AcDbEntity
  8
太線
100
AcDbLine
 10
66.20151402540432
 20
194.3193944499664
 30
0.0
 11
66.20151402540432
 21
176.6229032014259
 31
0.0
  0
LINE
  5
2CBD
330
1F
100
AcDbEntity
  8
太線
100
AcDbLine
 10
78.20151402540432
 20
74.16764007423665
 30
0.0
 11
78.20151402540432
 21
56.47114882569616
 31
0.0
  0
ARC
  5
2CBE
330
1F
100
AcDbEntity
  8
太線
 62
     0
100
AcDbCircle
 10
72.20151402540432
 20
74.16764007423665
 30
0.0
 40
6.0
100
AcDbArc
 50
0.0
 51
180.0
  0
LINE
  5
2CBF
330
1F
100
AcDbEntity
  8
太線
100
AcDbLine
 10
66.20151402540432
 20
74.16764007423665
 30
0.0
 11
66.20151402540432
 21
56.47114882569616
 31
0.0
  0
ARC
  5
2CC0
330
1F
100
AcDbEntity
  8
太線
 62
     0
100
AcDbCircle
 10
72.20151402540432
 20
56.47114882569616
 30
0.0
 40
6.0
100
AcDbArc
 50
180.0
 51
0.0
  0
LINE
  5
2CC1
330
1F
100
AcDbEntity
  8
想像線
100
AcDbLine
 10
245.6414745488584
 20
200.4711488256961
 30
0.0
 11
249.6414745488584
 21
200.4711488256961
 31
0.0
  0
LINE
  5
2CC2
330
1F
100
AcDbEntity
  8
想像線
100
AcDbLine
 10
245.6414745488584
 20
170.4587726250921
 30
0.0
 11
249.6414745488585
 21
170.4157249708173
 31
0.0
  0
LINE
  5
2CC3
330
1F
100
AcDbEntity
  8
想像線
100
AcDbLine
 10
245.6414745488584
 20
80.47114882569616
 30
0.0
 11
249.6414745488584
 21
80.47114882569616
 31
0.0
  0
LINE
  5
2CC4
330
1F
100
AcDbEntity
  8
想像線
100
AcDbLine
 10
245.6414745488584
 20
50.47114882569616
 30
0.0
 11
249.6414745488584
 21
50.47114882569616
 31
0.0
  0
DIMENSION
  5
2CD4
330
1F
100
AcDbEntity
  8
寸法線
100
AcDbDimension
  2
*D9
 10
58.32784489364167
 20
170.6229032014259
 30
0.0
 11
54.82784489364164
 21
185.4711488256961
 31
0.0
 70
    32
  1
30.0
 71
     5
 42
29.69649124854049
  3
sunpo
100
AcDbAlignedDimension
 13
72.20151402540432
 23
200.3193944499664
 33
0.0
 14
72.20151402540432
 24
170.6229032014259
 34
0.0
 50
90.0
100
AcDbRotatedDimension
1001
ACAD
1000
DSTYLE
1002
{
1070
    40
1040
1.0
1002
}
  0
DIMENSION
  5
2CE1
330
1F
100
AcDbEntity
  8
寸法線
100
AcDbDimension
  2
*D10
 10
72.20151402540432
 20
221.3403796560442
 30
0.0
 11
57.20151402540432
 21
224.8403796560442
 31
0.0
 70
    32
 71
     5
 42
30.0
  3
sunpo
100
AcDbAlignedDimension
 13
42.20151402540432
 23
180.4711488256961
 33
0.0
 14
72.20151402540432
 24
180.4711488256961
 34
0.0
100
AcDbRotatedDimension
1001
ACAD
1000
DSTYLE
1002
{
1070
    40
1040
1.0
1002
}
  0
DIMENSION
  5
2CEE
330
1F
100
AcDbEntity
  8
寸法線
100
AcDbDimension
  2
*D11
 10
78.20151402540432
 20
162.2554728781026
 30
0.0
 11
72.20151402540432
 21
165.7559650040868
 31
0.0
 70
    32
 71
     5
 42
12.0
  3
sunpo
100
AcDbAlignedDimension
 13
66.20151402540432
 23
185.4711488256961
 33
0.0
 14
78.20151402540432
 24
185.4711488256961
 34
0.0
100
AcDbRotatedDimension
1001
ACAD
1000
DSTYLE
1002
{
1070
    40
1040
1.0
1002
}
  0
DIMENSION
  5
2CFB
330
1F
100
AcDbEntity
  8
寸法線
100
AcDbDimension
  2
*D12
 10
72.20151402540444
 20
194.3193944499664
 30
0.0
 11
88.15593532404083
 21
197.9315123416531
 31
0.0
 70
    36
 71
     5
 42
5.999999999999872
  3
sunpo
100
AcDbRadialDimension
 15
78.05340992718043
 25
195.6442772201675
 35
0.0
 40
0.0
1001
ACAD
1000
DSTYLE
1002
{
1070
    40
1040
1.0
1070
   288
1070
     1
1002
}
  0
DIMENSION
  5
2D7A
330
1F
100
AcDbEntity
  8
寸法線
100
AcDbDimension
  2
*D13
 10
109.8124947918331
 20
100.4711488256961
 30
0.0
 11
106.3124947918331
 21
125.4711488256961
 31
0.0
 70
    32
  1
49.6
 71
     5
 42
50.0
  3
sunpo
100
AcDbAlignedDimension
 13
102.2015140254043
 23
150.4711488256961
 33
0.0
 14
102.2015140254043
 24
100.4711488256961
 34
0.0
 50
90.0
100
AcDbRotatedDimension
1001
ACAD
1000
DSTYLE
1002
{
1070
    40
1040
1.0
1002
}
  0
DIMENSION
  5
2D87
330
1F
100
AcDbEntity
  8
寸法線
100
AcDbDimension
  2
*D14
 10
29.1075927467848
 20
95.47114882569617
 30
0.0
 11
25.60759274678478
 21
67.97764658085684
 31
0.0
 70
    32
  1
56.0
 71
     5
 42
54.98700448967866
  3
sunpo
100
AcDbAlignedDimension
 13
73.08444195903835
 23
40.48414433601749
 33
0.0
 14
72.20151402540432
 24
95.47114882569616
 34
0.0
 50
90.0
100
AcDbRotatedDimension
1001
ACAD
1000
DSTYLE
1002
{
1070
    40
1040
1.0
1002
}
  0
DIMENSION
  5
2D94
330
1F
100
AcDbEntity
  8
寸法線
100
AcDbDimension
  2
*D15
 10
29.1075927467848
 20
100.4711488256961
 30
0.0
 11
25.60759274678479
 21
97.97114882569617
 31
0.0
 70
    32
  1
4
 71
     5
 42
5.0
  3
sunpo
100
AcDbAlignedDimension
 13
72.20151402540432
 23
95.47114882569616
 33
0.0
 14
42.20151402540432
 24
100.4711488256961
 34
0.0
 50
90.0
100
AcDbRotatedDimension
1001
ACAD
1000
DSTYLE
1002
{
1070
    40
1040
1.0
1070
   279
1070
     1
1002
}
  0
DIMENSION
  5
2DA3
330
1F
100
AcDbEntity
  8
寸法線
100
AcDbDimension
  2
*D16
 10
29.10759274678481
 20
150.4711488256961
 30
0.0
 11
25.60759274678479
 21
125.4711488256961
 31
0.0
 70
    32
  1
49.3
 71
     5
 42
49.99999999999999
  3
sunpo
100
AcDbAlignedDimension
 13
42.20151402540432
 23
100.4711488256961
 33
0.0
 14
42.20151402540432
 24
150.4711488256961
 34
0.0
 50
90.0
100
AcDbRotatedDimension
1001
ACAD
1000
DSTYLE
1002
{
1070
    40
1040
1.0
1070
   279
1070
     1
1002
}
  0
DIMENSION
  5
2DB0
330
1F
100
AcDbEntity
  8
寸法線
100
AcDbDimension
  2
*D17
 10
29.10759274678481
 20
155.4711488256961
 30
0.0
 11
25.60759274678479
 21
152.9711488256961
 31
0.0
 70
    32
  1
4
 71
     5
 42
5.0
  3
sunpo
100
AcDbAlignedDimension
 13
42.20151402540432
 23
150.4711488256961
 33
0.0
 14
42.20151402540432
 24
155.4711488256961
 34
0.0
 50
90.0
100
AcDbRotatedDimension
1001
ACAD
1000
DSTYLE
1002
{
1070
    40
1040
1.0
1070
   279
1070
     1
1002
}
  0
DIMENSION
  5
2DBF
330
1F
100
AcDbEntity
  8
寸法線
100
AcDbDimension
  2
*D18
 10
29.10759274678483
 20
210.4711488256961
 30
0.0
 11
25.60759274678479
 21
182.9711488256961
 31
0.0
 70
    32
  1
56.0
 71
     5
 42
55.00000000000003
  3
sunpo
100
AcDbAlignedDimension
 13
42.20151402540432
 23
155.4711488256961
 33
0.0
 14
72.20151402540432
 24
210.4711488256961
 34
0.0
 50
90.0
100
AcDbRotatedDimension
1001
ACAD
1000
DSTYLE
1002
{
1070
    40
1040
1.0
1070
   279
1070
     1
1002
}
  0
DIMENSION
  5
2DFD
330
1F
100
AcDbEntity
  8
寸法線
100
AcDbDimension
  2
*D19
 10
102.2015140254043
 20
17.96610953461185
 30
0.0
 11
72.20151402540432
 21
21.46610953461185
 31
0.0
 70
    32
 71
     5
 42
60.0
  3
sunpo
100
AcDbAlignedDimension
 13
42.20151402540432
 23
100.4711488256961
 33
0.0
 14
102.2015140254043
 24
100.4711488256961
 34
0.0
100
AcDbRotatedDimension
1001
ACAD
1000
DSTYLE
1002
{
1070
    40
1040
1.0
1002
}
  0
ARC
  5
2E38
330
1F
100
AcDbEntity
  8
太線
100
AcDbCircle
 10
255.5040555333596
 20
159.7831001657664
 30
0.0
 40
5.902818543565946
100
AcDbArc
 50
173.3062307098023
 51
233.9207342202038
  0
SPLINE
  5
2E3A
330
1F
100
AcDbEntity
  8
太線
100
AcDbSpline
210
0.0
220
0.0
230
1.0
 70
     8
 71
     3
 72
     9
 73
     5
 74
     3
 42
0.0000000001
 43
0.0000000001
 44
0.0000000001
 40
0.0
 40
0.0
 40
0.0
 40
0.0
 40
3.476041552793386
 40
5.585948257042684
 40
5.585948257042684
 40
5.585948257042684
 40
5.585948257042684
 10
249.6414745488584
 20
90.8301326743186
 30
0.0
 10
249.7636809365048
 20
92.04239159506832
 30
0.0
 10
249.9600648253924
 20
93.99047406261088
 30
0.0
 10
251.4015632101037
 20
95.25175769883643
 30
0.0
 10
251.9460414197312
 20
95.72816576378352
 30
0.0
 11
249.6414745488584
 21
90.8301326743186
 31
0.0
 11
250.4902472866026
 21
94.20095597381214
 31
0.0
 11
251.9460414197312
 21
95.72816576378352
 31
0.0
  0
LINE
  5
2E3C
330
1F
100
AcDbEntity
  8
想像線
100
AcDbLine
 10
244.2161710861719
 20
95.47114882569616
 30
0.0
 11
242.6386579016201
 21
95.47114882569616
 31
0.0
  0
LINE
  5
2E4C
330
1F
100
AcDbEntity
  8
太線
100
AcDbLine
 10
125.1384976100218
 20
33.53560202454525
 30
0.0
 11
185.3111094787784
 21
33.53560202454525
 31
0.0
  0
LINE
  5
2E4D
330
1F
100
AcDbEntity
  8
太線
100
AcDbLine
 10
125.1384976100218
 20
29.53560202454525
 30
0.0
 11
185.3111094787784
 21
29.53560202454525
 31
0.0
  0
LINE
  5
2E4E
330
1F
100
AcDbEntity
  8
想像線
100
AcDbLine
 10
132.1384976100218
 20
33.53560202454525
 30
0.0
 11
132.1384976100218
 21
29.53560202454525
 31
0.0
  0
LINE
  5
2E4F
330
1F
100
AcDbEntity
  8
想像線
100
AcDbLine
 10
138.1384976100218
 20
33.53560202454525
 30
0.0
 11
138.1384976100218
 21
29.53560202454525
 31
0.0
  0
LINE
  5
2E50
330
1F
100
AcDbEntity
  8
想像線
100
AcDbLine
 10
149.7227834362913
 20
33.53560202454525
 30
0.0
 11
149.7227834362913
 21
29.53560202454525
 31
0.0
  0
LINE
  5
2E51
330
1F
100
AcDbEntity
  8
想像線
100
AcDbLine
 10
161.7227834362913
 20
33.53560202454525
 30
0.0
 11
161.7227834362913
 21
29.53560202454525
 31
0.0
  0
LINE
  5
2E52
330
1F
100
AcDbEntity
  8
想像線
100
AcDbLine
 10
172.3111094787784
 20
33.53560202454525
 30
0.0
 11
172.3111094787784
 21
29.53560202454525
 31
0.0
  0
LINE
  5
2E53
330
1F
100
AcDbEntity
  8
想像線
100
AcDbLine
 10
178.3111094787784
 20
33.53560202454525
 30
0.0
 11
178.3111094787784
 21
29.53560202454525
 31
0.0
  0
SPLINE
  5
2E56
330
1F
100
AcDbEntity
  8
太線
100
AcDbSpline
210
0.0
220
0.0
230
1.0
 70
     8
 71
     3
 72
     9
 73
     5
 74
     3
 42
0.0000000001
 43
0.0000000001
 44
0.0000000001
 40
0.0
 40
0.0
 40
0.0
 40
0.0
 40
4.919521346286175
 40
9.868138121675055
 40
9.868138121675055
 40
9.868138121675055
 40
9.868138121675055
 10
245.6414745488584
 20
91.47114882569615
 30
0.0
 10
244.7964102581718
 20
92.96760432789346
 30
0.0
 10
243.1012837295539
 20
95.96936578986403
 30
0.0
 10
239.7429884557737
 20
96.75258641688849
 30
0.0
 10
238.0588899841445
 20
97.14535136260918
 30
0.0
 11
245.6414745488584
 21
91.47114882569615
 31
0.0
 11
242.6929377370647
 21
95.40914589858266
 31
0.0
 11
238.0588899841445
 21
97.14535136260918
 31
0.0
  0
SPLINE
  5
2E58
330
1F
100
AcDbEntity
  8
太線
100
AcDbSpline
210
0.0
220
0.0
230
1.0
 70
     8
 71
     3
 72
     9
 73
     5
 74
     3
 42
0.0000000001
 43
0.0000000001
 44
0.0000000001
 40
0.0
 40
0.0
 40
0.0
 40
0.0
 40
4.386006150123908
 40
9.066509378038002
 40
9.066509378038002
 40
9.066509378038002
 40
9.066509378038002
 10
238.9414745488585
 20
154.1819481876087
 30
0.0
 10
240.4908190331076
 20
154.3871019364542
 30
0.0
 10
243.6935382759565
 20
154.8111844215631
 30
0.0
 10
245.0539569371283
 20
157.7594469682218
 30
0.0
 10
245.756260731172
 20
159.2814607654833
 30
0.0
 11
238.9414745488585
 21
154.1819481876087
 31
0.0
 11
243.1583675903539
 21
155.3881252167019
 31
0.0
 11
245.756260731172
 21
159.2814607654833
 31
0.0
  0
LINE
  5
2E59
330
1F
100
AcDbEntity
  8
太線
100
AcDbLine
 10
246.6414745488584
 20
210.4711488256961
 30
0.0
 11
248.6414745488584
 21
210.4711488256961
 31
0.0
  0
LINE
  5
2E5A
330
1F
100
AcDbEntity
  8
太線
100
AcDbLine
 10
246.6414745488584
 20
40.47114882569618
 30
0.0
 11
248.6414745488584
 21
40.47114882569613
 31
0.0
  0
DIMENSION
  5
2E5B
330
1F
100
AcDbEntity
  8
寸法線
100
AcDbDimension
  2
*D20
 10
245.6414745488584
 20
219.9798874707949
 30
0.0
 11
231.6414745488584
 21
223.4803795967791
 31
0.0
 70
    32
  1
26.65
 71
     5
 42
28.0
  3
sunpo
100
AcDbAlignedDimension
 13
217.6414745488584
 23
125.4711488256961
 33
0.0
 14
245.6414745488584
 24
209.4711488256961
 34
0.0
100
AcDbRotatedDimension
1001
ACAD
1000
DSTYLE
1002
{
1070
    40
1040
1.0
1002
}
  0
DIMENSION
  5
2E68
330
1F
100
AcDbEntity
  8
寸法線
100
AcDbDimension
  2
*D21
 10
249.6414745488584
 20
219.9798874707949
 30
0.0
 11
250.7414745488584
 21
230.4798874707949
 31
0.0
 70
    32
 71
     5
 42
4.0
  3
sunpo
100
AcDbAlignedDimension
 13
245.6414745488584
 23
209.4711488256961
 33
0.0
 14
249.6414745488584
 24
209.4711488256961
 34
0.0
100
AcDbRotatedDimension
1001
ACAD
1000
DSTYLE
1002
{
1070
    40
1040
1.0
1070
   279
1070
     1
1002
}
  0
DIMENSION
  5
2E7A
330
1F
100
AcDbEntity
  8
寸法線
100
AcDbDimension
  2
*D22
 10
277.6414745488584
 20
219.9798874707949
 30
0.0
 11
263.6414745488584
 21
223.4803795967791
 31
0.0
 70
    32
  1
26.65
 71
     5
 42
28.0
  3
sunpo
100
AcDbAlignedDimension
 13
249.6414745488584
 23
209.4711488256961
 33
0.0
 14
277.6414745488584
 24
125.4711488256961
 34
0.0
100
AcDbRotatedDimension
1001
ACAD
1000
DSTYLE
1002
{
1070
    40
1040
1.0
1070
   279
1070
     1
1002
}
  0
TEXT
  5
2ED1
330
1F
100
AcDbEntity
  8
文字
100
AcDbText
 10
215.130948105044
 20
-3.502764313314514
 30
0.0
 40
4.799999999999999
  1
注記　内面バリは最小限にする
 51
15.0
  7
OKANO
100
AcDbText
  0
SPLINE
  5
2F0B
330
1F
100
AcDbEntity
  8
太線
100
AcDbSpline
210
0.0
220
0.0
230
1.0
 70
     8
 71
     3
 72
     9
 73
     5
 74
     3
 42
0.0000000001
 43
0.0000000001
 44
0.0000000001
 40
0.0
 40
0.0
 40
0.0
 40
0.0
 40
3.476041552793358
 40
5.585948257042657
 40
5.585948257042657
 40
5.585948257042657
 40
5.585948257042657
 10
282.2824907002359
 20
127.4711488256961
 30
0.0
 10
281.0702317794862
 20
127.5933552133425
 30
0.0
 10
279.1221493119437
 20
127.7897391022302
 30
0.0
 10
277.8608656757181
 20
129.2312374869414
 30
0.0
 10
277.384457610771
 20
129.7757156965689
 30
0.0
 11
282.2824907002359
 21
127.4711488256961
 31
0.0
 11
278.9116674007424
 21
128.3199215634403
 31
0.0
 11
277.384457610771
 21
129.7757156965689
 31
0.0
  0
LINE
  5
2F10
330
1F
100
AcDbEntity
  8
太線
 62
     0
100
AcDbLine
 10
331.6414745488584
 20
127.4711488256961
 30
0.0
 11
282.6414745488584
 21
127.4711488256961
 31
0.0
  0
LINE
  5
2F11
330
1F
100
AcDbEntity
  8
太線
 62
     0
100
AcDbLine
 10
282.6414745488584
 20
123.4711488256961
 30
0.0
 11
331.6414745488584
 21
123.4711488256961
 31
0.0
  0
LINE
  5
2F1B
330
1F
100
AcDbEntity
  8
太線
100
AcDbLine
 10
282.6414745488584
 20
123.4711488256961
 30
0.0
 11
281.1374071377564
 21
123.4711488256961
 31
0.0
  0
LINE
  5
2F1C
330
1F
100
AcDbEntity
  8
太線
100
AcDbLine
 10
282.6414745488584
 20
127.4711488256961
 30
0.0
 11
282.2824907002359
 21
127.4711488256961
 31
0.0
  0
LINE
  5
2F1D
330
1F
100
AcDbEntity
  8
想像線
100
AcDbLine
 10
284.6414745488584
 20
123.4711488256961
 30
0.0
 11
284.6414745488584
 21
127.4711488256961
 31
0.0
  0
LINE
  5
2F1E
330
1F
100
AcDbEntity
  8
想像線
100
AcDbLine
 10
292.6414745488584
 20
123.4711488256961
 30
0.0
 11
292.6414745488584
 21
127.4711488256961
 31
0.0
  0
LINE
  5
2F1F
330
1F
100
AcDbEntity
  8
想像線
100
AcDbLine
 10
322.6414745488584
 20
123.4711488256961
 30
0.0
 11
322.6414745488584
 21
127.4711488256961
 31
0.0
  0
LINE
  5
2F20
330
1F
100
AcDbEntity
  8
太線
100
AcDbLine
 10
332.6414745488584
 20
124.4711488256961
 30
0.0
 11
332.6414745488584
 21
126.4711488256961
 31
0.0
  0
ARC
  5
2F21
330
1F
100
AcDbEntity
  8
太線
 62
     0
100
AcDbCircle
 10
331.6414745488583
 20
124.4711488256961
 30
0.0
 40
1.0
100
AcDbArc
 50
269.9999999999999
 51
359.9999999999996
  0
ARC
  5
2F22
330
1F
100
AcDbEntity
  8
太線
 62
     0
100
AcDbCircle
 10
331.6414745488584
 20
126.4711488256961
 30
0.0
 40
1.0
100
AcDbArc
 50
0.0
 51
90.0
  0
ARC
  5
2F25
330
1F
100
AcDbEntity
  8
太線
100
AcDbCircle
 10
282.4231637598836
 20
115.5331522809387
 30
0.0
 40
8.041452557587078
100
AcDbArc
 50
99.20057480863041
 51
129.3504854747989
  0
LINE
  5
2F28
330
1F
100
AcDbEntity
  8
太線
100
AcDbLine
 10
42.20151402540432
 20
127.4711488256961
 30
0.0
 11
102.2015140254043
 21
127.4711488256961
 31
0.0
  0
LINE
  5
2F29
330
1F
100
AcDbEntity
  8
太線
100
AcDbLine
 10
102.2015140254043
 20
123.4711488256961
 30
0.0
 11
42.20151402540432
 21
123.4711488256961
 31
0.0
  0
LINE
  5
2F30
330
1F
100
AcDbEntity
  8
想像線
100
AcDbLine
 10
96.20151402540432
 20
127.4711488256961
 30
0.0
 11
96.20151402540432
 21
123.4711488256961
 31
0.0
  0
LINE
  5
2F31
330
1F
100
AcDbEntity
  8
想像線
100
AcDbLine
 10
88.20151402540432
 20
127.4711488256961
 30
0.0
 11
88.20151402540432
 21
123.4711488256961
 31
0.0
  0
LINE
  5
2F32
330
1F
100
AcDbEntity
  8
想像線
100
AcDbLine
 10
56.20151402540432
 20
127.4711488256961
 30
0.0
 11
56.20151402540432
 21
123.4711488256961
 31
0.0
  0
LINE
  5
2F33
330
1F
100
AcDbEntity
  8
想像線
100
AcDbLine
 10
48.20151402540432
 20
127.4711488256961
 30
0.0
 11
48.20151402540432
 21
123.4711488256961
 31
0.0
  0
LINE
  5
2F34
330
1F
100
AcDbEntity
  8
想像線
100
AcDbLine
 10
66.20151402540432
 20
127.4711488256961
 30
0.0
 11
66.20151402540432
 21
123.4711488256961
 31
0.0
  0
LINE
  5
2F35
330
1F
100
AcDbEntity
  8
想像線
100
AcDbLine
 10
78.20151402540432
 20
127.4711488256961
 30
0.0
 11
78.20151402540432
 21
123.4711488256961
 31
0.0
  0
XLINE
  5
2F4C
330
1F
100
AcDbEntity
  8
構築線
100
AcDbXline
 10
153.2015140254043
 20
159.4711488256961
 30
0.0
 11
0.0
 21
-1.0
 31
0.0
  0
LINE
  5
2F59
330
1F
100
AcDbEntity
  8
太線
100
AcDbLine
 10
154.4063731005126
 20
-9.919577250553864
 30
0.0
 11
154.4063731005126
 21
-16.00710836721577
 31
0.0
  0
LINE
  5
2F5A
330
1F
100
AcDbEntity
  8
太線
100
AcDbLine
 10
158.6444548215383
 20
-20.24519008824155
 30
0.0
 11
164.7319859382003
 21
-20.24519008824155
 31
0.0
  0
CIRCLE
  5
2F6F
330
1F
100
AcDbEntity
  8
太線
100
AcDbCircle
 10
154.4063731005126
 20
-20.24519008824155
 30
0.0
 40
4.238081721025775
  0
LINE
  5
2F72
330
1F
100
AcDbEntity
  8
太線
100
AcDbLine
 10
154.4063731005126
 20
-24.48327180926733
 30
0.0
 11
154.4063731005126
 21
-30.57080292592924
 31
0.0
  0
LINE
  5
2F77
330
1F
100
AcDbEntity
  8
構築線
100
AcDbLine
 10
189.2201614642678
 20
-20.24519008824154
 30
0.0
 11
189.2201614642678
 21
-4.610042643512542
 31
0.0
  0
TEXT
  5
2F7C
330
1F
100
AcDbEntity
  8
文字
100
AcDbText
 10
148.6478048911692
 20
-39.43500779078715
 30
0.0
 40
4.799999999999999
  1
8-1E
 51
15.0
  7
OKANO
100
AcDbText
  0
TEXT
  5
2F7F
330
1F
100
AcDbEntity
  8
文字
100
AcDbText
 10
215.130948105044
 20
5.01957851441989
 30
0.0
 40
4.799999999999999
  1
表面処理　亜鉛ドブ鍍金
 51
15.0
  7
OKANO
100
AcDbText
  0
TEXT
  5
2F80
330
1F
100
AcDbEntity
  8
文字
100
AcDbText
 10
215.130948105044
 20
14.60721324909411
 30
0.0
 40
4.799999999999999
  1
材質　FCD450
 51
15.0
  7
OKANO
100
AcDbText
  0
XLINE
  5
2FA3
330
1F
100
AcDbEntity
  8
構築線
100
AcDbXline
 10
72.20151402540432
 20
182.4711488256961
 30
0.0
 11
0.0
 21
1.0
 31
0.0
  0
VIEWPORT
  5
2E
330
1B
100
AcDbEntity
 67
     1
  8
0
100
AcDbViewport
 10
270.5459839246468
 20
145.4146683670676
 30
0.0
 40
699.8900155642374
 41
335.317081411805
 68
     2
 69
     1
 12
270.5459839246468
 22
145.4146683670676
 13
0.0
 23
0.0
 14
10.0
 24
10.0
 15
10.0
 25
10.0
 16
0.0
 26
0.0
 36
1.0
 17
0.0
 27
0.0
 37
0.0
 42
50.0
 43
0.0
 44
0.0
 45
335.317081411805
 50
0.0
 51
0.0
 72
   100
 90
    32800
  1

281
     0
 71
     1
 74
     0
110
0.0
120
0.0
130
0.0
111
1.0
121
0.0
131
0.0
112
0.0
122
1.0
132
0.0
 79
     0
146
0.0
  0
VIEWPORT
  5
30
330
1B
100
AcDbEntity
 67
     1
  8
70-0-CON
100
AcDbViewport
 10
141.8594093064315
 20
100.3480256368386
 30
0.0
 40
261.6199023344245
 41
192.6196987113174
 68
     1
 69
     2
 12
162.0221541374446
 22
100.4171542427615
 13
0.0
 23
0.0
 14
5.0
 24
5.0
 15
10.0
 25
10.0
 16
0.0
 26
0.0
 36
1.0
 17
0.0
 27
0.0
 37
0.0
 42
50.0
 43
0.0
 44
0.0
 45
303.5995738354492
 50
0.0
 51
0.0
 72
   100
 90
    32864
  1

281
     0
 71
     1
 74
     0
110
0.0
120
0.0
130
0.0
111
1.0
121
0.0
131
0.0
112
0.0
122
1.0
132
0.0
 79
     0
146
0.0
  0
LWPOLYLINE
  5
45
330
1B
100
AcDbEntity
 67
     1
  8
50-0-CON
100
AcDbPolyline
 90
        4
 70
     1
 43
0.0
 10
11.04945813921926
 20
4.038176281179858
 10
272.2125713060605
 20
4.033520706629644
 10
273.4987754093466
 20
195.9297862125246
 10
11.04945813921926
 20
196.6578749924973
  0
LINE
  5
4A
330
1B
100
AcDbEntity
 67
     1
  8
50-0-CON
100
AcDbLine
 10
10.38768783662635
 20
100.3480256368386
 30
0.0
 11
-4.391850629656119
 21
100.3480256368386
 31
0.0
  0
LINE
  5
4B
330
1B
100
AcDbEntity
 67
     1
  8
50-0-CON
100
AcDbLine
 10
141.8594093064315
 20
197.098652626247
 30
0.0
 11
141.8594093064315
 21
202.387980773708
 31
0.0
  0
LINE
  5
4C
330
1B
100
AcDbEntity
 67
     1
  8
50-0-CON
100
AcDbLine
 10
272.4487699456857
 20
100.7888032705883
 30
0.0
 11
278.8458837249377
 21
100.7888032705883
 31
0.0
  0
LINE
  5
4D
330
1B
100
AcDbEntity
 67
     1
  8
50-0-CON
100
AcDbLine
 10
140.9770484758805
 20
4.038176281179858
 30
0.0
 11
140.9770484758805
 21
-3.455038652015446
 31
0.0
  0
ENDSEC
  0
SECTION
  2
OBJECTS
  0
DICTIONARY
  5
C
330
0
100
AcDbDictionary
281
     1
  3
ACAD_GROUP
350
D
  3
ACAD_LAYOUT
350
1A
  3
ACAD_MLINESTYLE
350
17
  3
ACAD_PLOTSETTINGS
350
19
  3
ACAD_PLOTSTYLENAME
350
E
  3
AcadDim
350
13D0
  3
AcDbVariableDictionary
350
6AD
  3
DWGPROPS
350
30F
  0
DICTIONARY
  5
D
102
{ACAD_REACTORS
330
C
102
}
330
C
100
AcDbDictionary
281
     1
  0
DICTIONARY
  5
1A
102
{ACAD_REACTORS
330
C
102
}
330
C
100
AcDbDictionary
281
     1
  3
A4
350
1E
  3
Model
350
22
  0
DICTIONARY
  5
17
102
{ACAD_REACTORS
330
C
102
}
330
C
100
AcDbDictionary
281
     1
  3
Standard
350
18
  0
DICTIONARY
  5
19
102
{ACAD_REACTORS
330
C
102
}
330
C
100
AcDbDictionary
281
     1
  0
ACDBDICTIONARYWDFLT
  5
E
102
{ACAD_REACTORS
330
C
102
}
330
C
100
AcDbDictionary
281
     1
  3
Normal
350
F
100
AcDbDictionaryWithDefault
340
F
  0
XRECORD
  5
13D0
102
{ACAD_REACTORS
330
C
102
}
330
C
100
AcDbXrecord
280
     1
 90
   990106
  3

 60
     0
 61
     0
 62
     1
 63
     3
 64
     0
 65
     0
 66
     0
 67
     3
 68
     1
 69
     0
 70
     0
 71
     0
 72
     0
 40
0.0
170
     0
340
0
  0
DICTIONARY
  5
6AD
102
{ACAD_REACTORS
330
C
102
}
330
C
100
AcDbDictionary
281
     1
  3
SORTENTS
350
6AE
  0
XRECORD
  5
30F
102
{ACAD_REACTORS
330
C
102
}
330
C
100
AcDbXrecord
280
     1
  1
DWGPROPS COOKIE
  2

  3

  4

  6

  7

  8

  9

300
=
301
=
302
=
303
=
304
=
305
=
306
=
307
=
308
=
309
=
 40
0.3303803125
 41
2452362.482225463
 42
2452370.969861285
  1

 90
        0
  0
LAYOUT
  5
1E
102
{ACAD_REACTORS
330
1A
102
}
330
1A
100
AcDbPlotSettings
  1

  2
EPSON PM-920C
  4
A4
  6

 40
3.757083177566528
 41
14.7637300491333
 42
3.757080078125
 43
3.757080078125
 44
209.9733276367187
 45
296.9683227539062
 46
0.0
 47
0.0
 48
0.0
 49
0.0
140
0.0
141
0.0
142
1.0
143
1.0
 70
   688
 72
     1
 73
     1
 74
     5
  7
joint.ctb
 75
    16
147
1.0
148
0.0
149
0.0
100
AcDbLayout
  1
A4
 70
     1
 71
     1
 10
-3.757080078125
 20
-3.757083177566528
 11
293.2112426757812
 21
206.2162444591522
 12
0.0
 22
0.0
 32
0.0
 14
-4.391850629656119
 24
-3.455038652015446
 34
0.0
 15
278.8458837249377
 25
202.387980773708
 35
0.0
146
0.0
 13
0.0
 23
0.0
 33
0.0
 16
1.0
 26
0.0
 36
0.0
 17
0.0
 27
1.0
 37
0.0
 76
     0
330
1B
331
30
  0
LAYOUT
  5
22
102
{ACAD_REACTORS
330
1A
102
}
330
1A
100
AcDbPlotSettings
  1

  2
EPSON PM-920C
  4
A4
  6

 40
3.757083177566528
 41
14.7637300491333
 42
3.757080078125
 43
3.757080078125
 44
209.9733276367187
 45
296.9683227539062
 46
0.0
 47
0.0
 48
0.0
 49
0.0
140
0.0
141
0.0
142
1.0
143
1.0
 70
 11952
 72
     1
 73
     1
 74
     0
  7

 75
     0
147
1.0
148
-45.64199848979289
149
-84.48806419330498
100
AcDbLayout
  1
Model
 70
     1
 71
     0
 10
0.0
 20
0.0
 11
12.0
 21
9.0
 12
0.0
 22
0.0
 32
0.0
 14
0.0
 24
0.0
 34
0.0
 15
0.0
 25
0.0
 35
0.0
146
0.0
 13
0.0
 23
0.0
 33
0.0
 16
1.0
 26
0.0
 36
0.0
 17
0.0
 27
1.0
 37
0.0
 76
     0
330
1F
  0
MLINESTYLE
  5
18
102
{ACAD_REACTORS
330
17
102
}
330
17
100
AcDbMlineStyle
  2
STANDARD
 70
     0
  3

 62
   256
 51
90.0
 52
90.0
 71
     2
 49
0.5
 62
   256
  6
BYLAYER
 49
-0.5
 62
   256
  6
BYLAYER
  0
ACDBPLACEHOLDER
  5
F
102
{ACAD_REACTORS
330
E
102
}
330
E
  0
DICTIONARYVAR
  5
6AE
102
{ACAD_REACTORS
330
6AD
102
}
330
6AD
100
DictionaryVariables
280
     0
  1
96
  0
ENDSEC
  0
EOF
