  0
SECTION
  2
HEADER
  9
$ACADVER
  1
AC1015
  9
$ACADMAINTVER
 70
     6
  9
$DWGCODEPAGE
  3
ANSI_932
  9
$INSBASE
 10
0.0
 20
0.0
 30
0.0
  9
$EXTMIN
 10
26.86185418795885
 20
43.43213910290001
 30
0.0
  9
$EXTMAX
 10
380.9693302626999
 20
341.9147140474841
 30
0.0
  9
$LIMMIN
 10
0.0
 20
0.0
  9
$LIMMAX
 10
420.0
 20
297.0
  9
$ORTHOMODE
 70
     1
  9
$REGENMODE
 70
     1
  9
$FILLMODE
 70
     1
  9
$QTEXTMODE
 70
     0
  9
$MIRRTEXT
 70
     1
  9
$LTSCALE
 40
1.0
  9
$ATTMODE
 70
     1
  9
$TEXTSIZE
 40
5.0
  9
$TRACEWID
 40
1.0
  9
$TEXTSTYLE
  7
OKANO
  9
$CLAYER
  8
太線
  9
$CELTYPE
  6
ByLayer
  9
$CECOLOR
 62
   256
  9
$CELTSCALE
 40
1.0
  9
$DISPSILH
 70
     0
  9
$DIMSCALE
 40
0.0
  9
$DIMASZ
 40
3.0
  9
$DIMEXO
 40
2.0
  9
$DIMDLI
 40
8.0
  9
$DIMRND
 40
0.0
  9
$DIMDLE
 40
0.0
  9
$DIMEXE
 40
3.0
  9
$DIMTP
 40
0.0
  9
$DIMTM
 40
0.0
  9
$DIMTXT
 40
5.0
  9
$DIMCEN
 40
2.5
  9
$DIMTSZ
 40
0.0
  9
$DIMTOL
 70
     0
  9
$DIMLIM
 70
     0
  9
$DIMTIH
 70
     0
  9
$DIMTOH
 70
     0
  9
$DIMSE1
 70
     0
  9
$DIMSE2
 70
     0
  9
$DIMTAD
 70
     1
  9
$DIMZIN
 70
     8
  9
$DIMBLK
  1
Closed
  9
$DIMASO
 70
     1
  9
$DIMSHO
 70
     1
  9
$DIMPOST
  1

  9
$DIMAPOST
  1

  9
$DIMALT
 70
     0
  9
$DIMALTD
 70
     3
  9
$DIMALTF
 40
0.03937007874016
  9
$DIMLFAC
 40
1.0
  9
$DIMTOFL
 70
     1
  9
$DIMTVP
 40
0.0
  9
$DIMTIX
 70
     0
  9
$DIMSOXD
 70
     0
  9
$DIMSAH
 70
     0
  9
$DIMBLK1
  1

  9
$DIMBLK2
  1

  9
$DIMSTYLE
  2
sunpo
  9
$DIMCLRD
 70
     0
  9
$DIMCLRE
 70
     0
  9
$DIMCLRT
 70
     0
  9
$DIMTFAC
 40
1.0
  9
$DIMGAP
 40
1.0
  9
$DIMJUST
 70
     0
  9
$DIMSD1
 70
     0
  9
$DIMSD2
 70
     0
  9
$DIMTOLJ
 70
     0
  9
$DIMTZIN
 70
     8
  9
$DIMALTZ
 70
     0
  9
$DIMALTTZ
 70
     0
  9
$DIMUPT
 70
     0
  9
$DIMDEC
 70
     2
  9
$DIMTDEC
 70
     2
  9
$DIMALTU
 70
     2
  9
$DIMALTTD
 70
     3
  9
$DIMTXSTY
  7
OKANO
  9
$DIMAUNIT
 70
     0
  9
$DIMADEC
 70
     0
  9
$DIMALTRND
 40
0.0
  9
$DIMAZIN
 70
     0
  9
$DIMDSEP
 70
    46
  9
$DIMATFIT
 70
     3
  9
$DIMFRAC
 70
     0
  9
$DIMLDRBLK
  1
Closed
  9
$DIMLUNIT
 70
     2
  9
$DIMLWD
 70
    -2
  9
$DIMLWE
 70
    -2
  9
$DIMTMOVE
 70
     0
  9
$LUNITS
 70
     2
  9
$LUPREC
 70
     2
  9
$SKETCHINC
 40
1.0
  9
$FILLETRAD
 40
1.0
  9
$AUNITS
 70
     0
  9
$AUPREC
 70
     0
  9
$MENU
  1
.
  9
$ELEVATION
 40
0.0
  9
$PELEVATION
 40
0.0
  9
$THICKNESS
 40
0.0
  9
$LIMCHECK
 70
     0
  9
$CHAMFERA
 40
10.0
  9
$CHAMFERB
 40
10.0
  9
$CHAMFERC
 40
20.0
  9
$CHAMFERD
 40
0.0
  9
$SKPOLY
 70
     0
  9
$TDCREATE
 40
2452362.482225463
  9
$TDUCREATE
 40
2452362.107225463
  9
$TDUPDATE
 40
2455957.569068865
  9
$TDUUPDATE
 40
2455957.194068866
  9
$TDINDWG
 40
2.9531711458
  9
$TDUSRTIMER
 40
2.9531711458
  9
$USRTIMER
 70
     1
  9
$ANGBASE
 50
0.0
  9
$ANGDIR
 70
     0
  9
$PDMODE
 70
     0
  9
$PDSIZE
 40
0.0
  9
$PLINEWID
 40
0.0
  9
$SPLFRAME
 70
     0
  9
$SPLINETYPE
 70
     6
  9
$SPLINESEGS
 70
     8
  9
$HANDSEED
  5
3D4A
  9
$SURFTAB1
 70
     6
  9
$SURFTAB2
 70
     6
  9
$SURFTYPE
 70
     6
  9
$SURFU
 70
     6
  9
$SURFV
 70
     6
  9
$UCSBASE
  2

  9
$UCSNAME
  2

  9
$UCSORG
 10
0.0
 20
0.0
 30
0.0
  9
$UCSXDIR
 10
1.0
 20
0.0
 30
0.0
  9
$UCSYDIR
 10
0.0
 20
1.0
 30
0.0
  9
$UCSORTHOREF
  2

  9
$UCSORTHOVIEW
 70
     0
  9
$UCSORGTOP
 10
0.0
 20
0.0
 30
0.0
  9
$UCSORGBOTTOM
 10
0.0
 20
0.0
 30
0.0
  9
$UCSORGLEFT
 10
0.0
 20
0.0
 30
0.0
  9
$UCSORGRIGHT
 10
0.0
 20
0.0
 30
0.0
  9
$UCSORGFRONT
 10
0.0
 20
0.0
 30
0.0
  9
$UCSORGBACK
 10
0.0
 20
0.0
 30
0.0
  9
$PUCSBASE
  2

  9
$PUCSNAME
  2

  9
$PUCSORG
 10
0.0
 20
0.0
 30
0.0
  9
$PUCSXDIR
 10
1.0
 20
0.0
 30
0.0
  9
$PUCSYDIR
 10
0.0
 20
1.0
 30
0.0
  9
$PUCSORTHOREF
  2

  9
$PUCSORTHOVIEW
 70
     0
  9
$PUCSORGTOP
 10
0.0
 20
0.0
 30
0.0
  9
$PUCSORGBOTTOM
 10
0.0
 20
0.0
 30
0.0
  9
$PUCSORGLEFT
 10
0.0
 20
0.0
 30
0.0
  9
$PUCSORGRIGHT
 10
0.0
 20
0.0
 30
0.0
  9
$PUCSORGFRONT
 10
0.0
 20
0.0
 30
0.0
  9
$PUCSORGBACK
 10
0.0
 20
0.0
 30
0.0
  9
$USERI1
 70
     0
  9
$USERI2
 70
     0
  9
$USERI3
 70
     0
  9
$USERI4
 70
     0
  9
$USERI5
 70
     0
  9
$USERR1
 40
0.0
  9
$USERR2
 40
0.0
  9
$USERR3
 40
0.0
  9
$USERR4
 40
0.0
  9
$USERR5
 40
0.0
  9
$WORLDVIEW
 70
     1
  9
$SHADEDGE
 70
     3
  9
$SHADEDIF
 70
    70
  9
$TILEMODE
 70
     0
  9
$MAXACTVP
 70
    64
  9
$PINSBASE
 10
0.0
 20
0.0
 30
0.0
  9
$PLIMCHECK
 70
     0
  9
$PEXTMIN
 10
-4.391850629656119
 20
-3.455038652015446
 30
0.0
  9
$PEXTMAX
 10
278.8458837249377
 20
202.387980773708
 30
0.0
  9
$PLIMMIN
 10
-3.757080078125
 20
-3.757083177566528
  9
$PLIMMAX
 10
293.2112426757812
 20
206.2162444591522
  9
$UNITMODE
 70
     0
  9
$VISRETAIN
 70
     1
  9
$PLINEGEN
 70
     0
  9
$PSLTSCALE
 70
     1
  9
$TREEDEPTH
 70
  3020
  9
$CMLSTYLE
  2
Standard
  9
$CMLJUST
 70
     0
  9
$CMLSCALE
 40
20.0
  9
$PROXYGRAPHICS
 70
     1
  9
$MEASUREMENT
 70
     1
  9
$CELWEIGHT
370
    -1
  9
$ENDCAPS
280
     0
  9
$JOINSTYLE
280
     0
  9
$LWDISPLAY
290
     0
  9
$INSUNITS
 70
     4
  9
$HYPERLINKBASE
  1

  9
$STYLESHEET
  1

  9
$XEDIT
290
     1
  9
$CEPSNTYPE
380
     0
  9
$PSTYLEMODE
290
     1
  9
$FINGERPRINTGUID
  2
{FF7F33C3-4233-11D6-AEE0-0000F45FD7F4}
  9
$VERSIONGUID
  2
{319BC41C-AEE3-4C7C-8D99-FD4F94B88EAF}
  9
$EXTNAMES
290
     1
  9
$PSVPSCALE
 40
0.0
  9
$OLESTARTUP
290
     0
  0
ENDSEC
  0
SECTION
  2
CLASSES
  0
CLASS
  1
ACDBDICTIONARYWDFLT
  2
AcDbDictionaryWithDefault
  3
AutoCAD 2000
 90
        0
280
     0
281
     0
  0
CLASS
  1
ACDBPLACEHOLDER
  2
AcDbPlaceHolder
  3
AutoCAD 2000
 90
        0
280
     0
281
     0
  0
CLASS
  1
LAYOUT
  2
AcDbLayout
  3
AutoCAD 2000
 90
        0
280
     0
281
     0
  0
CLASS
  1
DICTIONARYVAR
  2
AcDbDictionaryVar
  3
AutoCAD 2000
 90
        0
280
     0
281
     0
  0
ENDSEC
  0
SECTION
  2
TABLES
  0
TABLE
  2
VPORT
  5
8
330
0
100
AcDbSymbolTable
 70
     2
  0
VPORT
  5
3D49
330
8
100
AcDbSymbolTableRecord
100
AcDbViewportTableRecord
  2
*Active
 70
     0
 10
0.0
 20
0.0
 11
1.0
 21
1.0
 12
83.43367134515995
 22
247.2647664798865
 13
0.0
 23
0.0
 14
5.0
 24
5.0
 15
10.0
 25
10.0
 16
0.0
 26
0.0
 36
1.0
 17
0.0
 27
0.0
 37
0.0
 40
453.8886812031287
 41
2.08724832214765
 42
50.0
 43
0.0
 44
0.0
 50
0.0
 51
0.0
 71
     0
 72
   100
 73
     1
 74
     3
 75
     0
 76
     0
 77
     0
 78
     0
281
     0
 65
     1
110
0.0
120
0.0
130
0.0
111
1.0
121
0.0
131
0.0
112
0.0
122
1.0
132
0.0
 79
     0
146
0.0
  0
ENDTAB
  0
TABLE
  2
LTYPE
  5
5
330
0
100
AcDbSymbolTable
 70
     5
  0
LTYPE
  5
14
330
5
100
AcDbSymbolTableRecord
100
AcDbLinetypeTableRecord
  2
ByBlock
 70
     0
  3

 72
    65
 73
     0
 40
0.0
  0
LTYPE
  5
15
330
5
100
AcDbSymbolTableRecord
100
AcDbLinetypeTableRecord
  2
ByLayer
 70
     0
  3

 72
    65
 73
     0
 40
0.0
  0
LTYPE
  5
16
330
5
100
AcDbSymbolTableRecord
100
AcDbLinetypeTableRecord
  2
Continuous
 70
     0
  3
Solid line
 72
    65
 73
     0
 40
0.0
  0
LTYPE
  5
33
330
5
100
AcDbSymbolTableRecord
100
AcDbLinetypeTableRecord
  2
DASHED2
 70
     0
  3
Dashed (.5x) _ _ _ _ _ _ _ _ _ _ _ _ _ _ _ _ _
 72
    65
 73
     2
 40
9.524999999999998
 49
6.349999999999999
 74
     0
 49
-3.174999999999999
 74
     0
  0
LTYPE
  5
34
330
5
100
AcDbSymbolTableRecord
100
AcDbLinetypeTableRecord
  2
CENTER2
 70
     0
  3
Center (.5x) ___ _ ___ _ ___ _ ___ _ ___ _ ___
 72
    65
 73
     4
 40
28.57499999999999
 49
19.05
 74
     0
 49
-3.174999999999999
 74
     0
 49
3.174999999999999
 74
     0
 49
-3.174999999999999
 74
     0
  0
LTYPE
  5
35
330
5
100
AcDbSymbolTableRecord
100
AcDbLinetypeTableRecord
  2
PHANTOM2
 70
     0
  3
Phantom (.5x) ___ _ _ ___ _ _ ___ _ _ ___ _ _
 72
    65
 73
     6
 40
31.75
 49
15.875
 74
     0
 49
-3.174999999999999
 74
     0
 49
3.174999999999999
 74
     0
 49
-3.174999999999999
 74
     0
 49
3.174999999999999
 74
     0
 49
-3.174999999999999
 74
     0
  0
LTYPE
  5
36
330
5
100
AcDbSymbolTableRecord
100
AcDbLinetypeTableRecord
  2
HIDDEN2
 70
     0
  3
Hidden (.5x) _ _ _ _ _ _ _ _ _ _ _ _ _ _ _ _ _
 72
    65
 73
     2
 40
4.762499999999999
 49
3.174999999999999
 74
     0
 49
-1.587499999999999
 74
     0
  0
ENDTAB
  0
TABLE
  2
LAYER
  5
2
330
0
100
AcDbSymbolTable
 70
    13
  0
LAYER
  5
10
330
2
100
AcDbSymbolTableRecord
100
AcDbLayerTableRecord
  2
0
 70
     0
 62
     7
  6
Continuous
370
    -3
390
F
  0
LAYER
  5
40
330
2
100
AcDbSymbolTableRecord
100
AcDbLayerTableRecord
  2
50-0-CON
 70
     0
 62
     4
  6
Continuous
370
    50
390
F
  0
LAYER
  5
41
330
2
100
AcDbSymbolTableRecord
100
AcDbLayerTableRecord
  2
70-0-CON
 70
     0
 62
   202
  6
Continuous
370
    70
390
F
  0
LAYER
  5
4E
330
2
100
AcDbSymbolTableRecord
100
AcDbLayerTableRecord
  2
極太線
 70
     0
 62
     7
  6
Continuous
370
    70
390
F
  0
LAYER
  5
4F
330
2
100
AcDbSymbolTableRecord
100
AcDbLayerTableRecord
  2
細線
 70
     0
 62
     8
  6
Continuous
370
    18
390
F
  0
LAYER
  5
AB
330
2
100
AcDbSymbolTableRecord
100
AcDbLayerTableRecord
  2
構築線
 70
     0
 62
    -2
  6
Continuous
370
    18
390
F
  0
LAYER
  5
B8
330
2
100
AcDbSymbolTableRecord
100
AcDbLayerTableRecord
  2
太線
 70
     0
 62
     7
  6
Continuous
370
    35
390
F
  0
LAYER
  5
B9
330
2
100
AcDbSymbolTableRecord
100
AcDbLayerTableRecord
  2
寸法線
 70
     0
 62
     5
  6
Continuous
370
    18
390
F
  0
LAYER
  5
BA
330
2
100
AcDbSymbolTableRecord
100
AcDbLayerTableRecord
  2
破線
 70
     0
 62
     8
  6
HIDDEN2
370
    18
390
F
  0
LAYER
  5
BB
330
2
100
AcDbSymbolTableRecord
100
AcDbLayerTableRecord
  2
中心線
 70
     0
 62
     1
  6
CENTER2
370
    18
390
F
  0
LAYER
  5
BC
330
2
100
AcDbSymbolTableRecord
100
AcDbLayerTableRecord
  2
想像線
 70
     0
 62
     8
  6
PHANTOM2
370
    18
390
F
  0
LAYER
  5
BD
330
2
100
AcDbSymbolTableRecord
100
AcDbLayerTableRecord
  2
文字
 70
     0
 62
     7
  6
Continuous
370
    18
390
F
  0
LAYER
  5
180
330
2
100
AcDbSymbolTableRecord
100
AcDbLayerTableRecord
  2
Defpoints
 70
     0
 62
     7
  6
Continuous
290
     0
370
    -3
390
F
  0
ENDTAB
  0
TABLE
  2
STYLE
  5
3
330
0
100
AcDbSymbolTable
 70
     3
  0
STYLE
  5
11
330
3
100
AcDbSymbolTableRecord
100
AcDbTextStyleTableRecord
  2
Standard
 70
     0
 40
0.0
 41
1.0
 50
0.0
 71
     0
 42
3.0
  3
txt
  4

  0
STYLE
  5
32
330
3
100
AcDbSymbolTableRecord
100
AcDbTextStyleTableRecord
  2

 70
     1
 40
0.0
 41
1.0
 50
0.0
 71
     0
 42
2.5
  3
ltypeshp.shx
  4

  0
STYLE
  5
50
330
3
100
AcDbSymbolTableRecord
100
AcDbTextStyleTableRecord
  2
OKANO
 70
     0
 40
0.0
 41
1.0
 50
15.0
 71
     0
 42
5.0
  3
isocp.shx
  4
bigfont.shx
  0
ENDTAB
  0
TABLE
  2
VIEW
  5
6
330
0
100
AcDbSymbolTable
 70
     0
  0
ENDTAB
  0
TABLE
  2
UCS
  5
7
330
0
100
AcDbSymbolTable
 70
     0
  0
ENDTAB
  0
TABLE
  2
APPID
  5
9
330
0
100
AcDbSymbolTable
 70
     1
  0
APPID
  5
12
330
9
100
AcDbSymbolTableRecord
100
AcDbRegAppTableRecord
  2
ACAD
 70
     0
  0
ENDTAB
  0
TABLE
  2
DIMSTYLE
  5
A
330
0
100
AcDbSymbolTable
 70
     2
100
AcDbDimStyleTable
 71
     2
340
A2
340
27
  0
DIMSTYLE
105
27
330
A
100
AcDbSymbolTableRecord
100
AcDbDimStyleTableRecord
  2
ISO-25
 70
     0
 41
2.5
 42
0.625
 43
3.75
 44
1.25
 73
     0
 74
     0
 77
     1
 78
     8
140
2.5
141
2.5
143
0.03937007874016
147
0.625
171
     3
172
     1
271
     2
272
     2
274
     3
283
     0
284
     8
340
11
  0
DIMSTYLE
105
A2
102
{ACAD_REACTORS
330
348F
330
360C
330
3624
330
3745
330
376A
330
37A8
330
3882
330
3A59
330
3AB7
330
3AC5
330
3AD4
330
3A67
330
3B97
330
3BA4
330
3BB6
330
3C5A
330
3C66
330
3C72
330
3CAA
330
3CB7
330
3CCD
330
3CE4
102
}
330
A
100
AcDbSymbolTableRecord
100
AcDbDimStyleTableRecord
  2
sunpo
 70
     0
 40
0.0
 41
3.0
 42
2.0
 43
8.0
 44
3.0
 73
     0
 74
     0
 77
     1
 78
     8
140
5.0
141
2.5
143
0.03937007874016
147
1.0
171
     3
172
     1
271
     2
272
     2
274
     3
283
     0
284
     8
340
50
341
9B
342
9B
  0
ENDTAB
  0
TABLE
  2
BLOCK_RECORD
  5
1
330
0
100
AcDbSymbolTable
 70
    24
  0
BLOCK_RECORD
  5
1F
330
1
100
AcDbSymbolTableRecord
100
AcDbBlockTableRecord
  2
*Model_Space
340
22
  0
BLOCK_RECORD
  5
1B
330
1
100
AcDbSymbolTableRecord
100
AcDbBlockTableRecord
  2
*Paper_Space
340
1E
  0
BLOCK_RECORD
  5
9B
330
1
100
AcDbSymbolTableRecord
100
AcDbBlockTableRecord
  2
_Closed
340
0
102
{BLKREFS
331
3803
331
3804
331
380D
331
380E
331
3AF1
331
3AF2
331
3B07
331
3B08
331
3B3E
331
3B3F
331
3B47
331
3B48
331
3B6A
331
3B6B
331
3B75
331
3B76
331
3B80
331
3B81
331
3B89
331
3B8A
331
3B93
331
3B94
331
3B9C
331
3B9D
331
3BD7
331
3BD8
331
3BE0
331
3BE1
331
3BEA
331
3BEB
331
3C60
331
3C61
331
3C6C
331
3C6D
331
3C78
331
3C79
331
3CAF
331
3CB0
331
3CC7
331
3CC8
331
3CDE
331
3CDF
331
3CF4
331
3CF5
102
}
  0
BLOCK_RECORD
  5
1510
330
1
100
AcDbSymbolTableRecord
100
AcDbBlockTableRecord
  2
A$C10A573AC
340
0
  0
BLOCK_RECORD
  5
3490
330
1
100
AcDbSymbolTableRecord
100
AcDbBlockTableRecord
  2
*D2
340
0
  0
BLOCK_RECORD
  5
360D
330
1
100
AcDbSymbolTableRecord
100
AcDbBlockTableRecord
  2
*D3
340
0
  0
BLOCK_RECORD
  5
3625
330
1
100
AcDbSymbolTableRecord
100
AcDbBlockTableRecord
  2
*D4
340
0
  0
BLOCK_RECORD
  5
3746
330
1
100
AcDbSymbolTableRecord
100
AcDbBlockTableRecord
  2
*D5
340
0
  0
BLOCK_RECORD
  5
376B
330
1
100
AcDbSymbolTableRecord
100
AcDbBlockTableRecord
  2
*D6
340
0
  0
BLOCK_RECORD
  5
37A9
330
1
100
AcDbSymbolTableRecord
100
AcDbBlockTableRecord
  2
*D7
340
0
  0
BLOCK_RECORD
  5
3883
330
1
100
AcDbSymbolTableRecord
100
AcDbBlockTableRecord
  2
*D8
340
0
  0
BLOCK_RECORD
  5
3A5A
330
1
100
AcDbSymbolTableRecord
100
AcDbBlockTableRecord
  2
*D9
340
0
  0
BLOCK_RECORD
  5
3A68
330
1
100
AcDbSymbolTableRecord
100
AcDbBlockTableRecord
  2
*D10
340
0
  0
BLOCK_RECORD
  5
3AB8
330
1
100
AcDbSymbolTableRecord
100
AcDbBlockTableRecord
  2
*D11
340
0
  0
BLOCK_RECORD
  5
3AC6
330
1
100
AcDbSymbolTableRecord
100
AcDbBlockTableRecord
  2
*D12
340
0
  0
BLOCK_RECORD
  5
3AD5
330
1
100
AcDbSymbolTableRecord
100
AcDbBlockTableRecord
  2
*D13
340
0
  0
BLOCK_RECORD
  5
3B98
330
1
100
AcDbSymbolTableRecord
100
AcDbBlockTableRecord
  2
*D14
340
0
  0
BLOCK_RECORD
  5
3BA5
330
1
100
AcDbSymbolTableRecord
100
AcDbBlockTableRecord
  2
*D15
340
0
  0
BLOCK_RECORD
  5
3BB7
330
1
100
AcDbSymbolTableRecord
100
AcDbBlockTableRecord
  2
*D16
340
0
  0
BLOCK_RECORD
  5
3C5B
330
1
100
AcDbSymbolTableRecord
100
AcDbBlockTableRecord
  2
*D17
340
0
  0
BLOCK_RECORD
  5
3C67
330
1
100
AcDbSymbolTableRecord
100
AcDbBlockTableRecord
  2
*D18
340
0
  0
BLOCK_RECORD
  5
3C73
330
1
100
AcDbSymbolTableRecord
100
AcDbBlockTableRecord
  2
*D19
340
0
  0
BLOCK_RECORD
  5
3CAB
330
1
100
AcDbSymbolTableRecord
100
AcDbBlockTableRecord
  2
*D20
340
0
  0
BLOCK_RECORD
  5
3CB8
330
1
100
AcDbSymbolTableRecord
100
AcDbBlockTableRecord
  2
*D21
340
0
  0
BLOCK_RECORD
  5
3CCE
330
1
100
AcDbSymbolTableRecord
100
AcDbBlockTableRecord
  2
*D22
340
0
  0
BLOCK_RECORD
  5
3CE5
330
1
100
AcDbSymbolTableRecord
100
AcDbBlockTableRecord
  2
*D23
340
0
  0
ENDTAB
  0
ENDSEC
  0
SECTION
  2
BLOCKS
  0
BLOCK
  5
20
330
1F
100
AcDbEntity
  8
0
100
AcDbBlockBegin
  2
*Model_Space
 70
     0
 10
0.0
 20
0.0
 30
0.0
  3
*Model_Space
  1

  0
ENDBLK
  5
21
330
1F
100
AcDbEntity
  8
0
100
AcDbBlockEnd
  0
BLOCK
  5
1C
330
1B
100
AcDbEntity
 67
     1
  8
0
100
AcDbBlockBegin
  2
*Paper_Space
 70
     0
 10
0.0
 20
0.0
 30
0.0
  3
*Paper_Space
  1

  0
ENDBLK
  5
1D
330
1B
100
AcDbEntity
 67
     1
  8
0
100
AcDbBlockEnd
  0
BLOCK
  5
A0
330
9B
100
AcDbEntity
  8
0
100
AcDbBlockBegin
  2
_Closed
 70
     0
 10
0.0
 20
0.0
 30
0.0
  3
_Closed
  1

  0
LINE
  5
9C
330
9B
100
AcDbEntity
  8
0
 62
     0
370
    -2
100
AcDbLine
 10
-1.0
 20
0.1666666666666666
 30
0.0
 11
0.0
 21
0.0
 31
0.0
  0
LINE
  5
9D
330
9B
100
AcDbEntity
  8
0
 62
     0
370
    -2
100
AcDbLine
 10
0.0
 20
0.0
 30
0.0
 11
-1.0
 21
-0.1666666666666666
 31
0.0
  0
LINE
  5
9E
330
9B
100
AcDbEntity
  8
0
 62
     0
370
    -2
100
AcDbLine
 10
-1.0
 20
0.1666666666666666
 30
0.0
 11
-1.0
 21
-0.1666666666666666
 31
0.0
  0
LINE
  5
9F
330
9B
100
AcDbEntity
  8
0
 62
     0
370
    -2
100
AcDbLine
 10
0.0
 20
0.0
 30
0.0
 11
-1.0
 21
0.0
 31
0.0
  0
ENDBLK
  5
A1
330
9B
100
AcDbEntity
  8
0
100
AcDbBlockEnd
  0
BLOCK
  5
155B
330
1510
100
AcDbEntity
  8
0
100
AcDbBlockBegin
  2
A$C10A573AC
 70
     0
 10
0.0
 20
0.0
 30
0.0
  3
A$C10A573AC
  1

  0
TEXT
  5
1511
330
1510
100
AcDbEntity
  8
文字
100
AcDbText
 10
0.9844302777919438
 20
5.224957122252135
 30
0.0
 40
3.0
  1
Materal : Steel.
 51
15.0
  7
OKANO
100
AcDbText
  0
TEXT
  5
1512
330
1510
100
AcDbEntity
  8
文字
100
AcDbText
 10
-0.1141909619694843
 20
0.7500001922403499
 30
0.0
 40
3.0
  1
Surface treatment : Electro galvanized.
 51
15.0
  7
OKANO
100
AcDbText
  0
TEXT
  5
1513
330
1510
100
AcDbEntity
  8
文字
100
AcDbText
 10
-0.4901926332574931
 20
9.159967445193728
 30
0.0
 40
3.0
  1
5 TORGUE SCREW  M5-6
 51
15.0
  7
OKANO
100
AcDbText
  0
TEXT
  5
1514
330
1510
100
AcDbEntity
  8
文字
100
AcDbText
 10
1.364713526390005
 20
78.88822913323082
 30
0.0
 40
3.0
  1
Special standard,
 51
15.0
  7
OKANO
100
AcDbText
  0
TEXT
  5
1515
330
1510
100
AcDbEntity
  8
文字
100
AcDbText
 10
92.88160823408942
 20
89.92753849837379
 30
0.0
 40
3.0
  1
Screw Type
 51
15.0
  7
OKANO
100
AcDbText
  0
LINE
  5
1516
330
1510
100
AcDbEntity
  8
太線
100
AcDbLine
 10
113.9464587597784
 20
81.93930390144641
 30
0.0
 11
112.4464587597784
 21
81.93930390144641
 31
0.0
  0
LINE
  5
1517
330
1510
100
AcDbEntity
  8
太線
100
AcDbLine
 10
112.4464587597784
 20
76.9393039014464
 30
0.0
 11
121.4644995438761
 21
76.9393039014464
 31
0.0
  0
TEXT
  5
1518
330
1510
100
AcDbEntity
  8
文字
100
AcDbText
 10
93.46068240437217
 20
77.96976862235396
 30
0.0
 40
2.0
  1
17-30
 51
15.0
  7
OKANO
100
AcDbText
  0
LINE
  5
1519
330
1510
100
AcDbEntity
  8
太線
100
AcDbLine
 10
111.9464587597784
 20
81.43930390144641
 30
0.0
 11
111.9464587597784
 21
77.4393039014464
 31
0.0
  0
LINE
  5
151A
330
1510
100
AcDbEntity
  8
太線
100
AcDbLine
 10
91.94645875977846
 20
81.43930390144641
 30
0.0
 11
91.94645875977846
 21
77.43930390144639
 31
0.0
  0
LINE
  5
151B
330
1510
100
AcDbEntity
  8
太線
100
AcDbLine
 10
101.9644995438761
 20
77.4393039014464
 30
0.0
 11
101.9644995438761
 21
81.43930390144641
 31
0.0
  0
LINE
  5
151C
330
1510
100
AcDbEntity
  8
太線
100
AcDbLine
 10
92.44645875977846
 20
76.9393039014464
 30
0.0
 11
101.4644995438761
 21
76.9393039014464
 31
0.0
  0
ARC
  5
151D
330
1510
100
AcDbEntity
  8
太線
100
AcDbCircle
 10
92.44645875977846
 20
77.43930390144639
 30
0.0
 40
0.5
100
AcDbArc
 50
180.0
 51
270.0
  0
ARC
  5
151E
330
1510
100
AcDbEntity
  8
太線
100
AcDbCircle
 10
101.4644995438761
 20
77.4393039014464
 30
0.0
 40
0.5
100
AcDbArc
 50
270.0
 51
0.0
  0
ARC
  5
151F
330
1510
100
AcDbEntity
  8
太線
100
AcDbCircle
 10
112.4464587597784
 20
77.4393039014464
 30
0.0
 40
0.5
100
AcDbArc
 50
180.0
 51
270.0
  0
LINE
  5
1520
330
1510
100
AcDbEntity
  8
想像線
100
AcDbLine
 10
93.94645875977847
 20
81.93930390144641
 30
0.0
 11
99.96449954387617
 21
81.93930390144641
 31
0.0
  0
LINE
  5
1521
330
1510
100
AcDbEntity
  8
極太線
100
AcDbLine
 10
96.38762957111168
 20
85.43930390144641
 30
0.0
 11
97.50528794844525
 21
85.43930390144641
 31
0.0
  0
CIRCLE
  5
1522
330
1510
100
AcDbEntity
  8
太線
100
AcDbCircle
 10
96.94645875977847
 20
85.43930390144641
 30
0.0
 40
0.5588291886667776
  0
LINE
  5
1523
330
1510
100
AcDbEntity
  8
太線
100
AcDbLine
 10
99.46449954387617
 20
86.93930390144641
 30
0.0
 11
94.44645875977846
 21
86.93930390144641
 31
0.0
  0
LINE
  5
1524
330
1510
100
AcDbEntity
  8
太線
100
AcDbLine
 10
93.94645875977847
 20
86.43930390144641
 30
0.0
 11
93.94645875977847
 21
81.93930390144641
 31
0.0
  0
ARC
  5
1525
330
1510
100
AcDbEntity
  8
太線
100
AcDbCircle
 10
92.44645875977846
 20
81.43930390144641
 30
0.0
 40
0.5
100
AcDbArc
 50
90.0
 51
180.0
  0
LINE
  5
1526
330
1510
100
AcDbEntity
  8
太線
100
AcDbLine
 10
93.94645875977847
 20
81.93930390144641
 30
0.0
 11
92.44645875977846
 21
81.93930390144641
 31
0.0
  0
ARC
  5
1527
330
1510
100
AcDbEntity
  8
太線
100
AcDbCircle
 10
94.44645875977846
 20
86.43930390144641
 30
0.0
 40
0.5
100
AcDbArc
 50
90.0
 51
180.0
  0
LINE
  5
1528
330
1510
100
AcDbEntity
  8
太線
100
AcDbLine
 10
99.96449954387617
 20
81.93930390144641
 30
0.0
 11
99.96449954387617
 21
86.43930390144641
 31
0.0
  0
LINE
  5
1529
330
1510
100
AcDbEntity
  8
太線
100
AcDbLine
 10
101.4644995438761
 20
81.93930390144641
 30
0.0
 11
99.96449954387617
 21
81.93930390144641
 31
0.0
  0
ARC
  5
152A
330
1510
100
AcDbEntity
  8
太線
100
AcDbCircle
 10
101.4644995438761
 20
81.43930390144641
 30
0.0
 40
0.5
100
AcDbArc
 50
0.0
 51
90.0
  0
ARC
  5
152B
330
1510
100
AcDbEntity
  8
太線
100
AcDbCircle
 10
99.46449954387617
 20
86.43930390144641
 30
0.0
 40
0.5
100
AcDbArc
 50
0.0
 51
90.0
  0
LINE
  5
152C
330
1510
100
AcDbEntity
  8
極太線
100
AcDbLine
 10
96.94645875977847
 20
85.99813309011318
 30
0.0
 11
96.94645875977847
 21
84.88047471277964
 31
0.0
  0
ARC
  5
152D
330
1510
100
AcDbEntity
  8
太線
100
AcDbCircle
 10
112.4464587597784
 20
81.43930390144641
 30
0.0
 40
0.5
100
AcDbArc
 50
90.0
 51
180.0
  0
TEXT
  5
152E
330
1510
100
AcDbEntity
  8
文字
100
AcDbText
 10
134.3819212586066
 20
78.16263579228063
 30
0.0
 40
2.0
  1
101
 51
15.0
  7
OKANO
100
AcDbText
  0
TEXT
  5
152F
330
1510
100
AcDbEntity
  8
文字
100
AcDbText
 10
113.3422276612066
 20
77.96976862235396
 30
0.0
 40
2.0
  1
38-83
 51
15.0
  7
OKANO
100
AcDbText
  0
LINE
  5
1530
330
1510
100
AcDbEntity
  8
太線
100
AcDbLine
 10
141.9825403279738
 20
77.4393039014464
 30
0.0
 11
141.9825403279738
 21
81.43930390144641
 31
0.0
  0
LINE
  5
1531
330
1510
100
AcDbEntity
  8
太線
100
AcDbLine
 10
131.9644995438761
 20
81.43930390144641
 30
0.0
 11
131.9644995438761
 21
77.4393039014464
 31
0.0
  0
LINE
  5
1532
330
1510
100
AcDbEntity
  8
太線
100
AcDbLine
 10
121.9644995438761
 20
77.4393039014464
 30
0.0
 11
121.9644995438761
 21
81.43930390144641
 31
0.0
  0
ARC
  5
1533
330
1510
100
AcDbEntity
  8
太線
100
AcDbCircle
 10
121.4644995438761
 20
77.4393039014464
 30
0.0
 40
0.5
100
AcDbArc
 50
270.0
 51
0.0
  0
LINE
  5
1534
330
1510
100
AcDbEntity
  8
太線
100
AcDbLine
 10
132.4644995438761
 20
76.9393039014464
 30
0.0
 11
141.4825403279738
 21
76.9393039014464
 31
0.0
  0
ARC
  5
1535
330
1510
100
AcDbEntity
  8
太線
100
AcDbCircle
 10
132.4644995438761
 20
77.4393039014464
 30
0.0
 40
0.5
100
AcDbArc
 50
180.0
 51
270.0
  0
ARC
  5
1536
330
1510
100
AcDbEntity
  8
太線
100
AcDbCircle
 10
141.4825403279738
 20
77.4393039014464
 30
0.0
 40
0.5
100
AcDbArc
 50
270.0
 51
0.0
  0
ARC
  5
1537
330
1510
100
AcDbEntity
  8
太線
100
AcDbCircle
 10
121.4644995438761
 20
81.43930390144641
 30
0.0
 40
0.5
100
AcDbArc
 50
0.0
 51
90.0
  0
LINE
  5
1538
330
1510
100
AcDbEntity
  8
太線
100
AcDbLine
 10
119.9644995438761
 20
81.93930390144641
 30
0.0
 11
119.9644995438761
 21
86.43930390144641
 31
0.0
  0
LINE
  5
1539
330
1510
100
AcDbEntity
  8
太線
100
AcDbLine
 10
113.9464587597784
 20
86.43930390144641
 30
0.0
 11
113.9464587597784
 21
81.93930390144641
 31
0.0
  0
LINE
  5
153A
330
1510
100
AcDbEntity
  8
想像線
100
AcDbLine
 10
113.9464587597784
 20
81.93930390144641
 30
0.0
 11
119.9644995438761
 21
81.93930390144641
 31
0.0
  0
LINE
  5
153B
330
1510
100
AcDbEntity
  8
太線
100
AcDbLine
 10
121.4644995438761
 20
81.93930390144641
 30
0.0
 11
119.9644995438761
 21
81.93930390144641
 31
0.0
  0
LINE
  5
153C
330
1510
100
AcDbEntity
  8
太線
100
AcDbLine
 10
119.4644995438761
 20
86.93930390144641
 30
0.0
 11
114.4464587597784
 21
86.93930390144641
 31
0.0
  0
ARC
  5
153D
330
1510
100
AcDbEntity
  8
太線
100
AcDbCircle
 10
114.4464587597784
 20
86.43930390144641
 30
0.0
 40
0.5
100
AcDbArc
 50
90.0
 51
180.0
  0
CIRCLE
  5
153E
330
1510
100
AcDbEntity
  8
太線
100
AcDbCircle
 10
115.4464587597784
 20
85.43930390144641
 30
0.0
 40
0.5588291886667776
  0
LINE
  5
153F
330
1510
100
AcDbEntity
  8
極太線
100
AcDbLine
 10
115.4464587597784
 20
85.99813309011318
 30
0.0
 11
115.4464587597784
 21
84.88047471277964
 31
0.0
  0
LINE
  5
1540
330
1510
100
AcDbEntity
  8
極太線
100
AcDbLine
 10
114.8876295711116
 20
85.43930390144641
 30
0.0
 11
116.0052879484452
 21
85.43930390144641
 31
0.0
  0
ARC
  5
1541
330
1510
100
AcDbEntity
  8
太線
100
AcDbCircle
 10
119.4644995438761
 20
86.43930390144641
 30
0.0
 40
0.5
100
AcDbArc
 50
0.0
 51
90.0
  0
LINE
  5
1542
330
1510
100
AcDbEntity
  8
極太線
100
AcDbLine
 10
117.9056703552094
 20
85.43930390144641
 30
0.0
 11
119.0233287325429
 21
85.43930390144641
 31
0.0
  0
LINE
  5
1543
330
1510
100
AcDbEntity
  8
極太線
100
AcDbLine
 10
118.4644995438761
 20
85.99813309011318
 30
0.0
 11
118.4644995438761
 21
84.88047471277964
 31
0.0
  0
CIRCLE
  5
1544
330
1510
100
AcDbEntity
  8
太線
100
AcDbCircle
 10
118.4644995438761
 20
85.43930390144641
 30
0.0
 40
0.5588291886667776
  0
LINE
  5
1545
330
1510
100
AcDbEntity
  8
想像線
100
AcDbLine
 10
133.9644995438761
 20
81.93930390144641
 30
0.0
 11
139.9825403279738
 21
81.93930390144641
 31
0.0
  0
LINE
  5
1546
330
1510
100
AcDbEntity
  8
極太線
100
AcDbLine
 10
137.9237111393071
 20
85.43930390144641
 30
0.0
 11
139.0413695166406
 21
85.43930390144641
 31
0.0
  0
CIRCLE
  5
1547
330
1510
100
AcDbEntity
  8
太線
100
AcDbCircle
 10
138.4825403279738
 20
85.43930390144641
 30
0.0
 40
0.5588291886667776
  0
CIRCLE
  5
1548
330
1510
100
AcDbEntity
  8
太線
100
AcDbCircle
 10
138.4825403279738
 20
83.26342923362075
 30
0.0
 40
0.5588291886667776
  0
LINE
  5
1549
330
1510
100
AcDbEntity
  8
極太線
100
AcDbLine
 10
137.9237111393071
 20
83.26342923362075
 30
0.0
 11
139.0413695166406
 21
83.26342923362075
 31
0.0
  0
LINE
  5
154A
330
1510
100
AcDbEntity
  8
太線
100
AcDbLine
 10
139.4825403279738
 20
86.93930390144641
 30
0.0
 11
134.4644995438761
 21
86.93930390144641
 31
0.0
  0
LINE
  5
154B
330
1510
100
AcDbEntity
  8
太線
100
AcDbLine
 10
133.9644995438761
 20
86.43930390144641
 30
0.0
 11
133.9644995438761
 21
81.93930390144641
 31
0.0
  0
ARC
  5
154C
330
1510
100
AcDbEntity
  8
太線
100
AcDbCircle
 10
132.4644995438761
 20
81.43930390144641
 30
0.0
 40
0.5
100
AcDbArc
 50
90.0
 51
180.0
  0
LINE
  5
154D
330
1510
100
AcDbEntity
  8
太線
100
AcDbLine
 10
133.9644995438761
 20
81.93930390144641
 30
0.0
 11
132.4644995438761
 21
81.93930390144641
 31
0.0
  0
LINE
  5
154E
330
1510
100
AcDbEntity
  8
極太線
100
AcDbLine
 10
134.9056703552093
 20
83.26342923362075
 30
0.0
 11
136.0233287325429
 21
83.26342923362075
 31
0.0
  0
LINE
  5
154F
330
1510
100
AcDbEntity
  8
極太線
100
AcDbLine
 10
135.4644995438761
 20
83.82225842228752
 30
0.0
 11
135.4644995438761
 21
82.70460004495395
 31
0.0
  0
CIRCLE
  5
1550
330
1510
100
AcDbEntity
  8
太線
100
AcDbCircle
 10
135.4644995438761
 20
83.26342923362075
 30
0.0
 40
0.5588291886667776
  0
ARC
  5
1551
330
1510
100
AcDbEntity
  8
太線
100
AcDbCircle
 10
134.4644995438761
 20
86.43930390144641
 30
0.0
 40
0.5
100
AcDbArc
 50
90.0
 51
180.0
  0
CIRCLE
  5
1552
330
1510
100
AcDbEntity
  8
太線
100
AcDbCircle
 10
135.4644995438761
 20
85.43930390144641
 30
0.0
 40
0.5588291886667776
  0
LINE
  5
1553
330
1510
100
AcDbEntity
  8
極太線
100
AcDbLine
 10
135.4644995438761
 20
85.99813309011318
 30
0.0
 11
135.4644995438761
 21
84.88047471277964
 31
0.0
  0
LINE
  5
1554
330
1510
100
AcDbEntity
  8
極太線
100
AcDbLine
 10
134.9056703552093
 20
85.43930390144641
 30
0.0
 11
136.0233287325429
 21
85.43930390144641
 31
0.0
  0
LINE
  5
1555
330
1510
100
AcDbEntity
  8
太線
100
AcDbLine
 10
139.9825403279738
 20
81.93930390144641
 30
0.0
 11
139.9825403279738
 21
86.43930390144641
 31
0.0
  0
ARC
  5
1556
330
1510
100
AcDbEntity
  8
太線
100
AcDbCircle
 10
141.4825403279738
 20
81.43930390144641
 30
0.0
 40
0.5
100
AcDbArc
 50
0.0
 51
90.0
  0
LINE
  5
1557
330
1510
100
AcDbEntity
  8
極太線
100
AcDbLine
 10
138.4825403279738
 20
83.82225842228752
 30
0.0
 11
138.4825403279738
 21
82.70460004495395
 31
0.0
  0
LINE
  5
1558
330
1510
100
AcDbEntity
  8
太線
100
AcDbLine
 10
141.4825403279738
 20
81.93930390144641
 30
0.0
 11
139.9825403279738
 21
81.93930390144641
 31
0.0
  0
ARC
  5
1559
330
1510
100
AcDbEntity
  8
太線
100
AcDbCircle
 10
139.4825403279738
 20
86.43930390144641
 30
0.0
 40
0.5
100
AcDbArc
 50
0.0
 51
90.0
  0
LINE
  5
155A
330
1510
100
AcDbEntity
  8
極太線
100
AcDbLine
 10
138.4825403279738
 20
85.99813309011318
 30
0.0
 11
138.4825403279738
 21
84.88047471277964
 31
0.0
  0
ENDBLK
  5
155C
330
1510
100
AcDbEntity
  8
0
100
AcDbBlockEnd
  0
BLOCK
  5
349C
330
3490
100
AcDbEntity
  8
0
100
AcDbBlockBegin
  2
*D2
 70
     1
 10
0.0
 20
0.0
 30
0.0
  3
*D2
  1

  0
LINE
  5
3B7B
330
3490
100
AcDbEntity
  8
寸法線
 62
     0
370
    -2
100
AcDbLine
 10
230.4718473184598
 20
128.7017515462206
 30
0.0
 11
230.4718473184598
 21
114.796654756446
 31
0.0
  0
LINE
  5
3B7C
330
3490
100
AcDbEntity
  8
寸法線
 62
     0
370
    -2
100
AcDbLine
 10
235.2718473184598
 20
128.7017515462206
 30
0.0
 11
235.2718473184598
 21
114.796654756446
 31
0.0
  0
LINE
  5
3B7D
330
3490
100
AcDbEntity
  8
寸法線
 62
     0
370
    -2
100
AcDbLine
 10
227.4718473184598
 20
117.796654756446
 30
0.0
 11
224.4718473184598
 21
117.796654756446
 31
0.0
  0
LINE
  5
3B7E
330
3490
100
AcDbEntity
  8
寸法線
 62
     0
370
    -2
100
AcDbLine
 10
238.2718473184598
 20
117.796654756446
 30
0.0
 11
241.2718473184598
 21
117.796654756446
 31
0.0
  0
LINE
  5
3B7F
330
3490
100
AcDbEntity
  8
寸法線
 62
     0
370
    -2
100
AcDbLine
 10
230.4718473184598
 20
117.796654756446
 30
0.0
 11
235.2718473184598
 21
117.796654756446
 31
0.0
  0
INSERT
  5
3B80
330
3490
100
AcDbEntity
  8
寸法線
 62
     0
370
    -2
100
AcDbBlockReference
  2
_Closed
 10
230.4718473184598
 20
117.796654756446
 30
0.0
 41
3.0
 42
3.0
 43
3.0
  0
INSERT
  5
3B81
330
3490
100
AcDbEntity
  8
寸法線
 62
     0
370
    -2
100
AcDbBlockReference
  2
_Closed
 10
235.2718473184598
 20
117.796654756446
 30
0.0
 41
3.0
 42
3.0
 43
3.0
 50
180.0
  0
MTEXT
  5
3B82
330
3490
100
AcDbEntity
  8
寸法線
 62
     0
100
AcDbMText
 10
232.8718473184598
 20
121.296654756446
 30
0.0
 40
5.0
 41
0.0
 71
     5
 72
     1
  1
4
  7
OKANO
 73
     1
 44
1.0
  0
POINT
  5
3B83
330
3490
100
AcDbEntity
  8
Defpoints
 62
     0
100
AcDbPoint
 10
230.4718473184598
 20
130.7017515462206
 30
0.0
  0
POINT
  5
3B84
330
3490
100
AcDbEntity
  8
Defpoints
 62
     0
100
AcDbPoint
 10
235.2718473184598
 20
130.7017515462206
 30
0.0
  0
POINT
  5
3B85
330
3490
100
AcDbEntity
  8
Defpoints
 62
     0
100
AcDbPoint
 10
235.2718473184598
 20
117.796654756446
 30
0.0
  0
ENDBLK
  5
349D
330
3490
100
AcDbEntity
  8
0
100
AcDbBlockEnd
  0
BLOCK
  5
3617
330
360D
100
AcDbEntity
  8
0
100
AcDbBlockBegin
  2
*D3
 70
     1
 10
0.0
 20
0.0
 30
0.0
  3
*D3
  1

  0
LINE
  5
3B70
330
360D
100
AcDbEntity
  8
寸法線
 62
     0
370
    -2
100
AcDbLine
 10
258.0523063310238
 20
128.7017515462206
 30
0.0
 11
258.0523063310238
 21
108.0507669292021
 31
0.0
  0
LINE
  5
3B71
330
360D
100
AcDbEntity
  8
寸法線
 62
     0
370
    -2
100
AcDbLine
 10
270.0523063310237
 20
134.7017515462206
 30
0.0
 11
270.0523063310237
 21
108.0507669292021
 31
0.0
  0
LINE
  5
3B72
330
360D
100
AcDbEntity
  8
寸法線
 62
     0
370
    -2
100
AcDbLine
 10
255.0523063310238
 20
111.0507669292021
 30
0.0
 11
252.0523063310238
 21
111.0507669292021
 31
0.0
  0
LINE
  5
3B73
330
360D
100
AcDbEntity
  8
寸法線
 62
     0
370
    -2
100
AcDbLine
 10
273.0523063310237
 20
111.0507669292021
 30
0.0
 11
276.0523063310237
 21
111.0507669292021
 31
0.0
  0
LINE
  5
3B74
330
360D
100
AcDbEntity
  8
寸法線
 62
     0
370
    -2
100
AcDbLine
 10
258.0523063310238
 20
111.0507669292021
 30
0.0
 11
270.0523063310237
 21
111.0507669292021
 31
0.0
  0
INSERT
  5
3B75
330
360D
100
AcDbEntity
  8
寸法線
 62
     0
370
    -2
100
AcDbBlockReference
  2
_Closed
 10
258.0523063310238
 20
111.0507669292021
 30
0.0
 41
3.0
 42
3.0
 43
3.0
  0
INSERT
  5
3B76
330
360D
100
AcDbEntity
  8
寸法線
 62
     0
370
    -2
100
AcDbBlockReference
  2
_Closed
 10
270.0523063310237
 20
111.0507669292021
 30
0.0
 41
3.0
 42
3.0
 43
3.0
 50
180.0
  0
MTEXT
  5
3B77
330
360D
100
AcDbEntity
  8
寸法線
 62
     0
100
AcDbMText
 10
264.0828379093288
 20
114.5507669292021
 30
0.0
 40
5.0
 41
0.0
 71
     5
 72
     1
  1
14
  7
OKANO
 73
     1
 44
1.0
  0
POINT
  5
3B78
330
360D
100
AcDbEntity
  8
Defpoints
 62
     0
100
AcDbPoint
 10
258.0523063310238
 20
130.7017515462207
 30
0.0
  0
POINT
  5
3B79
330
360D
100
AcDbEntity
  8
Defpoints
 62
     0
100
AcDbPoint
 10
270.0523063310237
 20
136.7017515462206
 30
0.0
  0
POINT
  5
3B7A
330
360D
100
AcDbEntity
  8
Defpoints
 62
     0
100
AcDbPoint
 10
270.0523063310237
 20
111.0507669292021
 30
0.0
  0
ENDBLK
  5
3618
330
360D
100
AcDbEntity
  8
0
100
AcDbBlockEnd
  0
BLOCK
  5
362E
330
3625
100
AcDbEntity
  8
0
100
AcDbBlockBegin
  2
*D4
 70
     1
 10
0.0
 20
0.0
 30
0.0
  3
*D4
  1

  0
LINE
  5
3B8F
330
3625
100
AcDbEntity
  8
寸法線
 62
     0
370
    -2
100
AcDbLine
 10
292.6315965651409
 20
150.7239886813729
 30
0.0
 11
267.9142921149712
 21
143.8446038181131
 31
0.0
  0
LINE
  5
3B90
330
3625
100
AcDbEntity
  8
寸法線
 62
     0
370
    -2
100
AcDbLine
 10
255.3903205470765
 20
140.3588992743282
 30
0.0
 11
252.5001732621777
 21
139.5545059180701
 31
0.0
  0
MTEXT
  5
3B91
330
3625
100
AcDbEntity
  8
寸法線
 62
     0
100
AcDbMText
 10
289.1855633196605
 20
153.3979125302613
 30
0.0
 40
5.0
 41
0.0
 71
     5
 72
     1
  1
8
  7
OKANO
 11
0.9633824282995998
 21
0.2681311187526848
 31
0.0
 73
     1
 44
1.0
  0
LINE
  5
3B92
330
3625
100
AcDbEntity
  8
寸法線
 62
     0
370
    -2
100
AcDbLine
 10
258.2804678319753
 20
141.1632926305862
 30
0.0
 11
265.0241448300724
 21
143.040210461855
 31
0.0
  0
INSERT
  5
3B93
330
3625
100
AcDbEntity
  8
寸法線
 62
     0
370
    -2
100
AcDbBlockReference
  2
_Closed
 10
258.2804678319753
 20
141.1632926305862
 30
0.0
 41
3.0
 42
3.0
 43
3.0
 50
15.55308774452665
  0
INSERT
  5
3B94
330
3625
100
AcDbEntity
  8
寸法線
 62
     0
370
    -2
100
AcDbBlockReference
  2
_Closed
 10
265.0241448300724
 20
143.040210461855
 30
0.0
 41
3.0
 42
3.0
 43
3.0
 50
195.5530877445266
  0
POINT
  5
3B95
330
3625
100
AcDbEntity
  8
Defpoints
 62
     0
100
AcDbPoint
 10
265.0241448300724
 20
143.040210461855
 30
0.0
  0
POINT
  5
3B96
330
3625
100
AcDbEntity
  8
Defpoints
 62
     0
100
AcDbPoint
 10
258.2804678319753
 20
141.1632926305862
 30
0.0
  0
ENDBLK
  5
362F
330
3625
100
AcDbEntity
  8
0
100
AcDbBlockEnd
  0
BLOCK
  5
3752
330
3746
100
AcDbEntity
  8
0
100
AcDbBlockBegin
  2
*D5
 70
     1
 10
0.0
 20
0.0
 30
0.0
  3
*D5
  1

  0
LINE
  5
37FE
330
3746
100
AcDbEntity
  8
寸法線
 62
     0
370
    -2
100
AcDbLine
 10
236.7962621226733
 20
302.5517645737321
 30
0.0
 11
192.3483213402145
 21
302.5517645737321
 31
0.0
  0
LINE
  5
37FF
330
3746
100
AcDbEntity
  8
寸法線
 62
     0
370
    -2
100
AcDbLine
 10
236.7962621226733
 20
295.8729339700251
 30
0.0
 11
192.3483213402145
 21
295.8729339700251
 31
0.0
  0
LINE
  5
3800
330
3746
100
AcDbEntity
  8
寸法線
 62
     0
370
    -2
100
AcDbLine
 10
195.3483213402145
 20
305.551764573732
 30
0.0
 11
195.3483213402145
 21
308.5517645737321
 31
0.0
  0
LINE
  5
3801
330
3746
100
AcDbEntity
  8
寸法線
 62
     0
370
    -2
100
AcDbLine
 10
195.3483213402145
 20
292.8729339700251
 30
0.0
 11
195.3483213402145
 21
279.9171626040851
 31
0.0
  0
LINE
  5
3802
330
3746
100
AcDbEntity
  8
寸法線
 62
     0
370
    -2
100
AcDbLine
 10
195.3483213402145
 20
302.5517645737321
 30
0.0
 11
195.3483213402145
 21
295.8729339700251
 31
0.0
  0
INSERT
  5
3803
330
3746
100
AcDbEntity
  8
寸法線
 62
     0
370
    -2
100
AcDbBlockReference
  2
_Closed
 10
195.3483213402145
 20
302.5517645737321
 30
0.0
 41
3.0
 42
3.0
 43
3.0
 50
270.0
  0
INSERT
  5
3804
330
3746
100
AcDbEntity
  8
寸法線
 62
     0
370
    -2
100
AcDbBlockReference
  2
_Closed
 10
195.3483213402145
 20
295.8729339700251
 30
0.0
 41
3.0
 42
3.0
 43
3.0
 50
90.0
  0
MTEXT
  5
3805
330
3746
100
AcDbEntity
  8
寸法線
 62
     0
100
AcDbMText
 10
191.8483213402144
 20
284.8950482870551
 30
0.0
 40
5.0
 41
0.0
 71
     5
 72
     1
  1
5.5
  7
OKANO
 11
0.0000000000000001
 21
1.0
 31
0.0
 73
     1
 44
1.0
  0
POINT
  5
3806
330
3746
100
AcDbEntity
  8
Defpoints
 62
     0
100
AcDbPoint
 10
238.7962621226733
 20
302.5517645737321
 30
0.0
  0
POINT
  5
3807
330
3746
100
AcDbEntity
  8
Defpoints
 62
     0
100
AcDbPoint
 10
238.7962621226733
 20
295.8729339700251
 30
0.0
  0
POINT
  5
3808
330
3746
100
AcDbEntity
  8
Defpoints
 62
     0
100
AcDbPoint
 10
195.3483213402145
 20
295.8729339700251
 30
0.0
  0
ENDBLK
  5
3753
330
3746
100
AcDbEntity
  8
0
100
AcDbBlockEnd
  0
BLOCK
  5
3776
330
376B
100
AcDbEntity
  8
0
100
AcDbBlockBegin
  2
*D6
 70
     1
 10
0.0
 20
0.0
 30
0.0
  3
*D6
  1

  0
LINE
  5
3809
330
376B
100
AcDbEntity
  8
寸法線
 62
     0
370
    -2
100
AcDbLine
 10
265.86238270932
 20
305.3346112128363
 30
0.0
 11
313.0954466949655
 21
305.3346112128363
 31
0.0
  0
LINE
  5
380A
330
376B
100
AcDbEntity
  8
寸法線
 62
     0
370
    -2
100
AcDbLine
 10
264.7483320842778
 20
293.6466574188237
 30
0.0
 11
313.0954466949655
 21
293.6466574188237
 31
0.0
  0
LINE
  5
380B
330
376B
100
AcDbEntity
  8
寸法線
 62
     0
370
    -2
100
AcDbLine
 10
310.0954466949655
 20
302.3346112128363
 30
0.0
 11
310.0954466949655
 21
296.6466574188237
 31
0.0
  0
LINE
  5
380C
330
376B
100
AcDbEntity
  8
寸法線
 62
     0
370
    -2
100
AcDbLine
 10
310.0954466949655
 20
293.6466574188237
 30
0.0
 11
310.0954466949655
 21
263.4014668904404
 31
0.0
  0
INSERT
  5
380D
330
376B
100
AcDbEntity
  8
寸法線
 62
     0
370
    -2
100
AcDbBlockReference
  2
_Closed
 10
310.0954466949655
 20
305.3346112128363
 30
0.0
 41
3.0
 42
3.0
 43
3.0
 50
90.0
  0
INSERT
  5
380E
330
376B
100
AcDbEntity
  8
寸法線
 62
     0
370
    -2
100
AcDbBlockReference
  2
_Closed
 10
310.0954466949655
 20
293.6466574188237
 30
0.0
 41
3.0
 42
3.0
 43
3.0
 50
270.0
  0
MTEXT
  5
380F
330
376B
100
AcDbEntity
  8
寸法線
 62
     0
100
AcDbMText
 10
306.5954466949654
 20
277.0240621546321
 30
0.0
 40
5.0
 41
0.0
 71
     5
 72
     1
  1
10mm六角
  7
OKANO
 11
0.0000000000000001
 21
1.0
 31
0.0
 73
     1
 44
1.0
  0
POINT
  5
3810
330
376B
100
AcDbEntity
  8
Defpoints
 62
     0
100
AcDbPoint
 10
263.86238270932
 20
305.3346112128363
 30
0.0
  0
POINT
  5
3811
330
376B
100
AcDbEntity
  8
Defpoints
 62
     0
100
AcDbPoint
 10
262.7483320842778
 20
293.6466574188237
 30
0.0
  0
POINT
  5
3812
330
376B
100
AcDbEntity
  8
Defpoints
 62
     0
100
AcDbPoint
 10
310.0954466949655
 20
293.6466574188237
 30
0.0
  0
ENDBLK
  5
3777
330
376B
100
AcDbEntity
  8
0
100
AcDbBlockEnd
  0
BLOCK
  5
37B4
330
37A9
100
AcDbEntity
  8
0
100
AcDbBlockBegin
  2
*D7
 70
     1
 10
0.0
 20
0.0
 30
0.0
  3
*D7
  1

  0
LINE
  5
3B65
330
37A9
100
AcDbEntity
  8
寸法線
 62
     0
370
    -2
100
AcDbLine
 10
261.9506345419879
 20
137.0510880359954
 30
0.0
 11
261.9506345419879
 21
120.8335221572509
 31
0.0
  0
LINE
  5
3B66
330
37A9
100
AcDbEntity
  8
寸法線
 62
     0
370
    -2
100
AcDbLine
 10
270.1748471827268
 20
137.0510880359954
 30
0.0
 11
270.1748471827268
 21
120.8335221572509
 31
0.0
  0
LINE
  5
3B67
330
37A9
100
AcDbEntity
  8
寸法線
 62
     0
370
    -2
100
AcDbLine
 10
258.9506345419879
 20
123.8335221572509
 30
0.0
 11
255.9506345419879
 21
123.8335221572509
 31
0.0
  0
LINE
  5
3B68
330
37A9
100
AcDbEntity
  8
寸法線
 62
     0
370
    -2
100
AcDbLine
 10
273.1748471827267
 20
123.8335221572509
 30
0.0
 11
276.1748471827268
 21
123.8335221572509
 31
0.0
  0
LINE
  5
3B69
330
37A9
100
AcDbEntity
  8
寸法線
 62
     0
370
    -2
100
AcDbLine
 10
261.9506345419879
 20
123.8335221572509
 30
0.0
 11
270.1748471827268
 21
123.8335221572509
 31
0.0
  0
INSERT
  5
3B6A
330
37A9
100
AcDbEntity
  8
寸法線
 62
     0
370
    -2
100
AcDbBlockReference
  2
_Closed
 10
261.9506345419879
 20
123.8335221572509
 30
0.0
 41
3.0
 42
3.0
 43
3.0
  0
INSERT
  5
3B6B
330
37A9
100
AcDbEntity
  8
寸法線
 62
     0
370
    -2
100
AcDbBlockReference
  2
_Closed
 10
270.1748471827268
 20
123.8335221572509
 30
0.0
 41
3.0
 42
3.0
 43
3.0
 50
180.0
  0
MTEXT
  5
3B6C
330
37A9
100
AcDbEntity
  8
寸法線
 62
     0
100
AcDbMText
 10
266.2150412766695
 20
127.3335221572509
 30
0.0
 40
5.0
 41
0.0
 71
     5
 72
     1
  1
10
  7
OKANO
 73
     1
 44
1.0
  0
POINT
  5
3B6D
330
37A9
100
AcDbEntity
  8
Defpoints
 62
     0
100
AcDbPoint
 10
261.9506345419879
 20
139.0510880359954
 30
0.0
  0
POINT
  5
3B6E
330
37A9
100
AcDbEntity
  8
Defpoints
 62
     0
100
AcDbPoint
 10
270.1748471827268
 20
139.0510880359954
 30
0.0
  0
POINT
  5
3B6F
330
37A9
100
AcDbEntity
  8
Defpoints
 62
     0
100
AcDbPoint
 10
270.1748471827268
 20
123.8335221572509
 30
0.0
  0
ENDBLK
  5
37B5
330
37A9
100
AcDbEntity
  8
0
100
AcDbBlockEnd
  0
BLOCK
  5
388E
330
3883
100
AcDbEntity
  8
0
100
AcDbBlockBegin
  2
*D8
 70
     1
 10
0.0
 20
0.0
 30
0.0
  3
*D8
  1

  0
LINE
  5
3B86
330
3883
100
AcDbEntity
  8
寸法線
 62
     0
370
    -2
100
AcDbLine
 10
213.9267067802127
 20
130.5231790379103
 30
0.0
 11
225.1375386762956
 21
130.5231790379103
 31
0.0
  0
LINE
  5
3B87
330
3883
100
AcDbEntity
  8
寸法線
 62
     0
370
    -2
100
AcDbLine
 10
213.9267067802127
 20
142.000846390434
 30
0.0
 11
225.1375386762956
 21
142.000846390434
 31
0.0
  0
LINE
  5
3B88
330
3883
100
AcDbEntity
  8
寸法線
 62
     0
370
    -2
100
AcDbLine
 10
222.1375386762956
 20
133.5231790379103
 30
0.0
 11
222.1375386762956
 21
139.000846390434
 31
0.0
  0
INSERT
  5
3B89
330
3883
100
AcDbEntity
  8
寸法線
 62
     0
370
    -2
100
AcDbBlockReference
  2
_Closed
 10
222.1375386762956
 20
130.5231790379103
 30
0.0
 41
3.0
 42
3.0
 43
3.0
 50
270.0
  0
INSERT
  5
3B8A
330
3883
100
AcDbEntity
  8
寸法線
 62
     0
370
    -2
100
AcDbBlockReference
  2
_Closed
 10
222.1375386762956
 20
142.000846390434
 30
0.0
 41
3.0
 42
3.0
 43
3.0
 50
90.0
  0
MTEXT
  5
3B8B
330
3883
100
AcDbEntity
  8
寸法線
 62
     0
100
AcDbMText
 10
218.6375386762956
 20
136.2620127141722
 30
0.0
 40
5.0
 41
0.0
 71
     5
 72
     1
  1
11
  7
OKANO
 11
0.0000000000000001
 21
1.0
 31
0.0
 73
     1
 44
1.0
  0
POINT
  5
3B8C
330
3883
100
AcDbEntity
  8
Defpoints
 62
     0
100
AcDbPoint
 10
211.9267067802127
 20
130.5231790379103
 30
0.0
  0
POINT
  5
3B8D
330
3883
100
AcDbEntity
  8
Defpoints
 62
     0
100
AcDbPoint
 10
211.9267067802127
 20
142.000846390434
 30
0.0
  0
POINT
  5
3B8E
330
3883
100
AcDbEntity
  8
Defpoints
 62
     0
100
AcDbPoint
 10
222.1375386762956
 20
142.000846390434
 30
0.0
  0
ENDBLK
  5
388F
330
3883
100
AcDbEntity
  8
0
100
AcDbBlockEnd
  0
BLOCK
  5
3A65
330
3A5A
100
AcDbEntity
  8
0
100
AcDbBlockBegin
  2
*D9
 70
     1
 10
0.0
 20
0.0
 30
0.0
  3
*D9
  1

  0
LINE
  5
3B44
330
3A5A
100
AcDbEntity
  8
寸法線
 62
     0
370
    -2
100
AcDbLine
 10
267.8208983891577
 20
173.0121740810773
 30
0.0
 11
296.7349258136826
 21
173.0121740810773
 31
0.0
  0
LINE
  5
3B45
330
3A5A
100
AcDbEntity
  8
寸法線
 62
     0
370
    -2
100
AcDbLine
 10
267.8208983891577
 20
181.5215918230529
 30
0.0
 11
296.7349258136826
 21
181.5215918230529
 31
0.0
  0
LINE
  5
3B46
330
3A5A
100
AcDbEntity
  8
寸法線
 62
     0
370
    -2
100
AcDbLine
 10
293.7349258136825
 20
176.0121740810773
 30
0.0
 11
293.7349258136825
 21
178.5215918230529
 31
0.0
  0
INSERT
  5
3B47
330
3A5A
100
AcDbEntity
  8
寸法線
 62
     0
370
    -2
100
AcDbBlockReference
  2
_Closed
 10
293.7349258136825
 20
173.0121740810773
 30
0.0
 41
3.0
 42
3.0
 43
3.0
 50
270.0
  0
INSERT
  5
3B48
330
3A5A
100
AcDbEntity
  8
寸法線
 62
     0
370
    -2
100
AcDbBlockReference
  2
_Closed
 10
293.7349258136825
 20
181.5215918230529
 30
0.0
 41
3.0
 42
3.0
 43
3.0
 50
90.0
  0
MTEXT
  5
3B49
330
3A5A
100
AcDbEntity
  8
寸法線
 62
     0
100
AcDbMText
 10
290.2349258136825
 20
177.2668829520651
 30
0.0
 40
5.0
 41
0.0
 71
     5
 72
     1
  1
8
  7
OKANO
 11
0.0000000000000001
 21
1.0
 31
0.0
 73
     1
 44
1.0
  0
POINT
  5
3B4A
330
3A5A
100
AcDbEntity
  8
Defpoints
 62
     0
100
AcDbPoint
 10
265.8208983891577
 20
173.0121740810773
 30
0.0
  0
POINT
  5
3B4B
330
3A5A
100
AcDbEntity
  8
Defpoints
 62
     0
100
AcDbPoint
 10
265.8208983891577
 20
181.5215918230529
 30
0.0
  0
POINT
  5
3B4C
330
3A5A
100
AcDbEntity
  8
Defpoints
 62
     0
100
AcDbPoint
 10
293.7349258136825
 20
181.5215918230529
 30
0.0
  0
ENDBLK
  5
3A66
330
3A5A
100
AcDbEntity
  8
0
100
AcDbBlockEnd
  0
BLOCK
  5
3A74
330
3A68
100
AcDbEntity
  8
0
100
AcDbBlockBegin
  2
*D10
 70
     1
 10
0.0
 20
0.0
 30
0.0
  3
*D10
  1

  0
LINE
  5
3B39
330
3A68
100
AcDbEntity
  8
寸法線
 62
     0
370
    -2
100
AcDbLine
 10
270.0789708838706
 20
181.0121740810773
 30
0.0
 11
270.0789708838706
 21
170.0845197974157
 31
0.0
  0
LINE
  5
3B3A
330
3A68
100
AcDbEntity
  8
寸法線
 62
     0
370
    -2
100
AcDbLine
 10
263.4553032922722
 20
181.0121740810773
 30
0.0
 11
263.4553032922722
 21
170.0845197974157
 31
0.0
  0
LINE
  5
3B3B
330
3A68
100
AcDbEntity
  8
寸法線
 62
     0
370
    -2
100
AcDbLine
 10
273.0789708838706
 20
173.0845197974157
 30
0.0
 11
276.0789708838706
 21
173.0845197974157
 31
0.0
  0
LINE
  5
3B3C
330
3A68
100
AcDbEntity
  8
寸法線
 62
     0
370
    -2
100
AcDbLine
 10
260.4553032922722
 20
173.0845197974157
 30
0.0
 11
257.4553032922722
 21
173.0845197974157
 31
0.0
  0
LINE
  5
3B3D
330
3A68
100
AcDbEntity
  8
寸法線
 62
     0
370
    -2
100
AcDbLine
 10
270.0789708838706
 20
173.0845197974157
 30
0.0
 11
263.4553032922722
 21
173.0845197974157
 31
0.0
  0
INSERT
  5
3B3E
330
3A68
100
AcDbEntity
  8
寸法線
 62
     0
370
    -2
100
AcDbBlockReference
  2
_Closed
 10
270.0789708838706
 20
173.0845197974157
 30
0.0
 41
3.0
 42
3.0
 43
3.0
 50
180.0
  0
INSERT
  5
3B3F
330
3A68
100
AcDbEntity
  8
寸法線
 62
     0
370
    -2
100
AcDbBlockReference
  2
_Closed
 10
263.4553032922722
 20
173.0845197974157
 30
0.0
 41
3.0
 42
3.0
 43
3.0
  0
MTEXT
  5
3B40
330
3A68
100
AcDbEntity
  8
寸法線
 62
     0
100
AcDbMText
 10
266.7671370880714
 20
176.5845197974157
 30
0.0
 40
5.0
 41
0.0
 71
     5
 72
     1
  1
8
  7
OKANO
 73
     1
 44
1.0
  0
POINT
  5
3B41
330
3A68
100
AcDbEntity
  8
Defpoints
 62
     0
100
AcDbPoint
 10
270.0789708838706
 20
183.0121740810773
 30
0.0
  0
POINT
  5
3B42
330
3A68
100
AcDbEntity
  8
Defpoints
 62
     0
100
AcDbPoint
 10
263.4553032922722
 20
183.0121740810773
 30
0.0
  0
POINT
  5
3B43
330
3A68
100
AcDbEntity
  8
Defpoints
 62
     0
100
AcDbPoint
 10
263.4553032922722
 20
173.0845197974157
 30
0.0
  0
ENDBLK
  5
3A75
330
3A68
100
AcDbEntity
  8
0
100
AcDbBlockEnd
  0
BLOCK
  5
3AC3
330
3AB8
100
AcDbEntity
  8
0
100
AcDbBlockBegin
  2
*D11
 70
     1
 10
0.0
 20
0.0
 30
0.0
  3
*D11
  1

  0
LINE
  5
3BE7
330
3AB8
100
AcDbEntity
  8
寸法線
 62
     0
370
    -2
100
AcDbLine
 10
72.31518381531168
 20
237.2519017966256
 30
0.0
 11
72.31518381531168
 21
221.1240476141854
 31
0.0
  0
LINE
  5
3BE8
330
3AB8
100
AcDbEntity
  8
寸法線
 62
     0
370
    -2
100
AcDbLine
 10
82.72380488224575
 20
237.2519017966256
 30
0.0
 11
82.72380488224575
 21
221.1240476141854
 31
0.0
  0
LINE
  5
3BE9
330
3AB8
100
AcDbEntity
  8
寸法線
 62
     0
370
    -2
100
AcDbLine
 10
75.31518381531168
 20
224.1240476141854
 30
0.0
 11
79.72380488224576
 21
224.1240476141854
 31
0.0
  0
INSERT
  5
3BEA
330
3AB8
100
AcDbEntity
  8
寸法線
 62
     0
370
    -2
100
AcDbBlockReference
  2
_Closed
 10
72.31518381531168
 20
224.1240476141854
 30
0.0
 41
3.0
 42
3.0
 43
3.0
 50
180.0
  0
INSERT
  5
3BEB
330
3AB8
100
AcDbEntity
  8
寸法線
 62
     0
370
    -2
100
AcDbBlockReference
  2
_Closed
 10
82.72380488224575
 20
224.1240476141854
 30
0.0
 41
3.0
 42
3.0
 43
3.0
  0
MTEXT
  5
3BEC
330
3AB8
100
AcDbEntity
  8
寸法線
 62
     0
100
AcDbMText
 10
77.51949434877872
 20
227.6240476141854
 30
0.0
 40
5.0
 41
0.0
 71
     5
 72
     1
  1
10
  7
OKANO
 73
     1
 44
1.0
  0
POINT
  5
3BED
330
3AB8
100
AcDbEntity
  8
Defpoints
 62
     0
100
AcDbPoint
 10
72.31518381531168
 20
239.2519017966256
 30
0.0
  0
POINT
  5
3BEE
330
3AB8
100
AcDbEntity
  8
Defpoints
 62
     0
100
AcDbPoint
 10
82.72380488224575
 20
239.2519017966256
 30
0.0
  0
POINT
  5
3BEF
330
3AB8
100
AcDbEntity
  8
Defpoints
 62
     0
100
AcDbPoint
 10
82.72380488224575
 20
224.1240476141854
 30
0.0
  0
ENDBLK
  5
3AC4
330
3AB8
100
AcDbEntity
  8
0
100
AcDbBlockEnd
  0
BLOCK
  5
3AD2
330
3AC6
100
AcDbEntity
  8
0
100
AcDbBlockBegin
  2
*D12
 70
     1
 10
0.0
 20
0.0
 30
0.0
  3
*D12
  1

  0
LINE
  5
3B02
330
3AC6
100
AcDbEntity
  8
寸法線
 62
     0
370
    -2
100
AcDbLine
 10
82.25068586286852
 20
311.2182250339415
 30
0.0
 11
82.25068586286852
 21
339.1647140474841
 31
0.0
  0
LINE
  5
3B03
330
3AC6
100
AcDbEntity
  8
寸法線
 62
     0
370
    -2
100
AcDbLine
 10
86.50875703726274
 20
311.2182250339415
 30
0.0
 11
86.50875703726274
 21
339.1647140474841
 31
0.0
  0
LINE
  5
3B04
330
3AC6
100
AcDbEntity
  8
寸法線
 62
     0
370
    -2
100
AcDbLine
 10
79.25068586286852
 20
336.1647140474841
 30
0.0
 11
76.25068586286852
 21
336.1647140474841
 31
0.0
  0
LINE
  5
3B05
330
3AC6
100
AcDbEntity
  8
寸法線
 62
     0
370
    -2
100
AcDbLine
 10
89.50875703726273
 20
336.1647140474841
 30
0.0
 11
97.00875703726275
 21
336.1647140474841
 31
0.0
  0
LINE
  5
3B06
330
3AC6
100
AcDbEntity
  8
寸法線
 62
     0
370
    -2
100
AcDbLine
 10
82.25068586286852
 20
336.1647140474841
 30
0.0
 11
86.50875703726274
 21
336.1647140474841
 31
0.0
  0
INSERT
  5
3B07
330
3AC6
100
AcDbEntity
  8
寸法線
 62
     0
370
    -2
100
AcDbBlockReference
  2
_Closed
 10
82.25068586286852
 20
336.1647140474841
 30
0.0
 41
3.0
 42
3.0
 43
3.0
  0
INSERT
  5
3B08
330
3AC6
100
AcDbEntity
  8
寸法線
 62
     0
370
    -2
100
AcDbBlockReference
  2
_Closed
 10
86.50875703726274
 20
336.1647140474841
 30
0.0
 41
3.0
 42
3.0
 43
3.0
 50
180.0
  0
MTEXT
  5
3B09
330
3AC6
100
AcDbEntity
  8
寸法線
 62
     0
100
AcDbMText
 10
94.75875703726273
 20
339.6647140474841
 30
0.0
 40
5.0
 41
0.0
 71
     5
 72
     1
  1
4
  7
OKANO
 73
     1
 44
1.0
  0
POINT
  5
3B0A
330
3AC6
100
AcDbEntity
  8
Defpoints
 62
     0
100
AcDbPoint
 10
82.25068586286852
 20
309.2182250339415
 30
0.0
  0
POINT
  5
3B0B
330
3AC6
100
AcDbEntity
  8
Defpoints
 62
     0
100
AcDbPoint
 10
86.50875703726274
 20
309.2182250339415
 30
0.0
  0
POINT
  5
3B0C
330
3AC6
100
AcDbEntity
  8
Defpoints
 62
     0
100
AcDbPoint
 10
86.50875703726274
 20
336.1647140474841
 30
0.0
  0
ENDBLK
  5
3AD3
330
3AC6
100
AcDbEntity
  8
0
100
AcDbBlockEnd
  0
BLOCK
  5
3AE1
330
3AD5
100
AcDbEntity
  8
0
100
AcDbBlockBegin
  2
*D13
 70
     1
 10
0.0
 20
0.0
 30
0.0
  3
*D13
  1

  0
LINE
  5
3AEE
330
3AD5
100
AcDbEntity
  8
寸法線
 62
     0
370
    -2
100
AcDbLine
 10
86.50875703726274
 20
311.2182250339415
 30
0.0
 11
86.50875703726274
 21
331.1280418194038
 31
0.0
  0
LINE
  5
3AEF
330
3AD5
100
AcDbEntity
  8
寸法線
 62
     0
370
    -2
100
AcDbLine
 10
98.33673516232806
 20
307.436261676849
 30
0.0
 11
98.33673516232806
 21
331.1280418194038
 31
0.0
  0
LINE
  5
3AF0
330
3AD5
100
AcDbEntity
  8
寸法線
 62
     0
370
    -2
100
AcDbLine
 10
89.50875703726273
 20
328.1280418194038
 30
0.0
 11
95.33673516232807
 21
328.1280418194038
 31
0.0
  0
INSERT
  5
3AF1
330
3AD5
100
AcDbEntity
  8
寸法線
 62
     0
370
    -2
100
AcDbBlockReference
  2
_Closed
 10
86.50875703726274
 20
328.1280418194038
 30
0.0
 41
3.0
 42
3.0
 43
3.0
 50
180.0
  0
INSERT
  5
3AF2
330
3AD5
100
AcDbEntity
  8
寸法線
 62
     0
370
    -2
100
AcDbBlockReference
  2
_Closed
 10
98.33673516232806
 20
328.1280418194038
 30
0.0
 41
3.0
 42
3.0
 43
3.0
  0
MTEXT
  5
3AF3
330
3AD5
100
AcDbEntity
  8
寸法線
 62
     0
100
AcDbMText
 10
92.4227460997954
 20
331.628533945388
 30
0.0
 40
5.0
 41
0.0
 71
     5
 72
     1
  1
12
  7
OKANO
 73
     1
 44
1.0
  0
POINT
  5
3AF4
330
3AD5
100
AcDbEntity
  8
Defpoints
 62
     0
100
AcDbPoint
 10
86.50875703726274
 20
309.2182250339415
 30
0.0
  0
POINT
  5
3AF5
330
3AD5
100
AcDbEntity
  8
Defpoints
 62
     0
100
AcDbPoint
 10
98.33673516232806
 20
305.436261676849
 30
0.0
  0
POINT
  5
3AF6
330
3AD5
100
AcDbEntity
  8
Defpoints
 62
     0
100
AcDbPoint
 10
98.33673516232806
 20
328.1280418194038
 30
0.0
  0
ENDBLK
  5
3AE2
330
3AD5
100
AcDbEntity
  8
0
100
AcDbBlockEnd
  0
BLOCK
  5
3BA2
330
3B98
100
AcDbEntity
  8
0
100
AcDbBlockBegin
  2
*D14
 70
     1
 10
0.0
 20
0.0
 30
0.0
  3
*D14
  1

  0
LINE
  5
3B99
330
3B98
100
AcDbEntity
  8
寸法線
 62
     0
370
    -2
100
AcDbLine
 10
198.7175090587834
 20
129.9113174576002
 30
0.0
 11
176.310568172337
 21
129.9113174576002
 31
0.0
  0
LINE
  5
3B9A
330
3B98
100
AcDbEntity
  8
寸法線
 62
     0
370
    -2
100
AcDbLine
 10
198.7175090587834
 20
153.4377875444809
 30
0.0
 11
176.310568172337
 21
153.4377875444809
 31
0.0
  0
LINE
  5
3B9B
330
3B98
100
AcDbEntity
  8
寸法線
 62
     0
370
    -2
100
AcDbLine
 10
179.310568172337
 20
132.9113174576002
 30
0.0
 11
179.310568172337
 21
150.4377875444809
 31
0.0
  0
INSERT
  5
3B9C
330
3B98
100
AcDbEntity
  8
寸法線
 62
     0
370
    -2
100
AcDbBlockReference
  2
_Closed
 10
179.310568172337
 20
129.9113174576002
 30
0.0
 41
3.0
 42
3.0
 43
3.0
 50
270.0
  0
INSERT
  5
3B9D
330
3B98
100
AcDbEntity
  8
寸法線
 62
     0
370
    -2
100
AcDbBlockReference
  2
_Closed
 10
179.310568172337
 20
153.4377875444809
 30
0.0
 41
3.0
 42
3.0
 43
3.0
 50
90.0
  0
MTEXT
  5
3B9E
330
3B98
100
AcDbEntity
  8
寸法線
 62
     0
100
AcDbMText
 10
175.8100760463527
 20
141.6745525010406
 30
0.0
 40
5.0
 41
0.0
 71
     5
 72
     1
  1
23.53
  7
OKANO
 11
0.0000000000000001
 21
1.0
 31
0.0
 73
     1
 44
1.0
  0
POINT
  5
3B9F
330
3B98
100
AcDbEntity
  8
Defpoints
 62
     0
100
AcDbPoint
 10
200.7175090587834
 20
129.9113174576002
 30
0.0
  0
POINT
  5
3BA0
330
3B98
100
AcDbEntity
  8
Defpoints
 62
     0
100
AcDbPoint
 10
200.7175090587834
 20
153.4377875444809
 30
0.0
  0
POINT
  5
3BA1
330
3B98
100
AcDbEntity
  8
Defpoints
 62
     0
100
AcDbPoint
 10
179.310568172337
 20
153.4377875444809
 30
0.0
  0
ENDBLK
  5
3BA3
330
3B98
100
AcDbEntity
  8
0
100
AcDbBlockEnd
  0
BLOCK
  5
3BB4
330
3BA5
100
AcDbEntity
  8
0
100
AcDbBlockBegin
  2
*D15
 70
     1
 10
0.0
 20
0.0
 30
0.0
  3
*D15
  1

  0
LINE
  5
3BD2
330
3BA5
100
AcDbEntity
  8
寸法線
 62
     0
370
    -2
100
AcDbLine
 10
198.7175090587834
 20
153.4377875444809
 30
0.0
 11
176.310568172337
 21
153.4377875444809
 31
0.0
  0
LINE
  5
3BD3
330
3BA5
100
AcDbEntity
  8
寸法線
 62
     0
370
    -2
100
AcDbLine
 10
196.0416412881165
 20
158.2500200306628
 30
0.0
 11
176.310568172337
 21
158.2500200306629
 31
0.0
  0
LINE
  5
3BD4
330
3BA5
100
AcDbEntity
  8
寸法線
 62
     0
370
    -2
100
AcDbLine
 10
179.310568172337
 20
150.4377875444809
 30
0.0
 11
179.310568172337
 21
147.4377875444809
 31
0.0
  0
LINE
  5
3BD5
330
3BA5
100
AcDbEntity
  8
寸法線
 62
     0
370
    -2
100
AcDbLine
 10
179.310568172337
 20
161.2500200306629
 30
0.0
 11
179.310568172337
 21
164.2500200306629
 31
0.0
  0
LINE
  5
3BD6
330
3BA5
100
AcDbEntity
  8
寸法線
 62
     0
370
    -2
100
AcDbLine
 10
179.310568172337
 20
153.4377875444809
 30
0.0
 11
179.310568172337
 21
158.2500200306629
 31
0.0
  0
INSERT
  5
3BD7
330
3BA5
100
AcDbEntity
  8
寸法線
 62
     0
370
    -2
100
AcDbBlockReference
  2
_Closed
 10
179.310568172337
 20
153.4377875444809
 30
0.0
 41
3.0
 42
3.0
 43
3.0
 50
90.0
  0
INSERT
  5
3BD8
330
3BA5
100
AcDbEntity
  8
寸法線
 62
     0
370
    -2
100
AcDbBlockReference
  2
_Closed
 10
179.310568172337
 20
158.2500200306629
 30
0.0
 41
3.0
 42
3.0
 43
3.0
 50
270.0
  0
MTEXT
  5
3BD9
330
3BA5
100
AcDbEntity
  8
寸法線
 62
     0
100
AcDbMText
 10
175.810568172337
 20
155.8439037875719
 30
0.0
 40
5.0
 41
0.0
 71
     5
 72
     1
  1
4
  7
OKANO
 11
0.0000000000000001
 21
1.0
 31
0.0
 73
     1
 44
1.0
  0
POINT
  5
3BDA
330
3BA5
100
AcDbEntity
  8
Defpoints
 62
     0
100
AcDbPoint
 10
200.7175090587834
 20
153.4377875444809
 30
0.0
  0
POINT
  5
3BDB
330
3BA5
100
AcDbEntity
  8
Defpoints
 62
     0
100
AcDbPoint
 10
198.0416412881165
 20
158.2500200306628
 30
0.0
  0
POINT
  5
3BDC
330
3BA5
100
AcDbEntity
  8
Defpoints
 62
     0
100
AcDbPoint
 10
179.310568172337
 20
158.2500200306629
 30
0.0
  0
ENDBLK
  5
3BB5
330
3BA5
100
AcDbEntity
  8
0
100
AcDbBlockEnd
  0
BLOCK
  5
3BC1
330
3BB7
100
AcDbEntity
  8
0
100
AcDbBlockBegin
  2
*D16
 70
     1
 10
0.0
 20
0.0
 30
0.0
  3
*D16
  1

  0
LINE
  5
3BDD
330
3BB7
100
AcDbEntity
  8
寸法線
 62
     0
370
    -2
100
AcDbLine
 10
196.0416412881165
 20
158.2500200306628
 30
0.0
 11
176.310568172337
 21
158.2500200306629
 31
0.0
  0
LINE
  5
3BDE
330
3BB7
100
AcDbEntity
  8
寸法線
 62
     0
370
    -2
100
AcDbLine
 10
194.9712944356274
 20
198.3519583421247
 30
0.0
 11
176.3105681723371
 21
198.3519583421247
 31
0.0
  0
LINE
  5
3BDF
330
3BB7
100
AcDbEntity
  8
寸法線
 62
     0
370
    -2
100
AcDbLine
 10
179.310568172337
 20
161.2500200306629
 30
0.0
 11
179.310568172337
 21
195.3519583421247
 31
0.0
  0
INSERT
  5
3BE0
330
3BB7
100
AcDbEntity
  8
寸法線
 62
     0
370
    -2
100
AcDbBlockReference
  2
_Closed
 10
179.310568172337
 20
158.2500200306629
 30
0.0
 41
3.0
 42
3.0
 43
3.0
 50
270.0
  0
INSERT
  5
3BE1
330
3BB7
100
AcDbEntity
  8
寸法線
 62
     0
370
    -2
100
AcDbBlockReference
  2
_Closed
 10
179.310568172337
 20
198.3519583421247
 30
0.0
 41
3.0
 42
3.0
 43
3.0
 50
90.0
  0
MTEXT
  5
3BE2
330
3BB7
100
AcDbEntity
  8
寸法線
 62
     0
100
AcDbMText
 10
175.810568172337
 20
178.3009891863938
 30
0.0
 40
5.0
 41
0.0
 71
     5
 72
     1
  1
40
  7
OKANO
 11
0.0000000000000001
 21
1.0
 31
0.0
 73
     1
 44
1.0
  0
POINT
  5
3BE3
330
3BB7
100
AcDbEntity
  8
Defpoints
 62
     0
100
AcDbPoint
 10
198.0416412881165
 20
158.2500200306628
 30
0.0
  0
POINT
  5
3BE4
330
3BB7
100
AcDbEntity
  8
Defpoints
 62
     0
100
AcDbPoint
 10
196.9712944356274
 20
198.3519583421247
 30
0.0
  0
POINT
  5
3BE5
330
3BB7
100
AcDbEntity
  8
Defpoints
 62
     0
100
AcDbPoint
 10
179.310568172337
 20
198.3519583421247
 30
0.0
  0
ENDBLK
  5
3BC2
330
3BB7
100
AcDbEntity
  8
0
100
AcDbBlockEnd
  0
BLOCK
  5
3C64
330
3C5B
100
AcDbEntity
  8
0
100
AcDbBlockBegin
  2
*D17
 70
     1
 10
0.0
 20
0.0
 30
0.0
  3
*D17
  1

  0
LINE
  5
3C5C
330
3C5B
100
AcDbEntity
  8
寸法線
 62
     0
370
    -2
100
AcDbLine
 10
136.4363921753448
 20
294.0956118070504
 30
0.0
 11
113.1035706535299
 21
288.48138934894
 31
0.0
  0
LINE
  5
3C5D
330
3C5B
100
AcDbEntity
  8
寸法線
 62
     0
370
    -2
100
AcDbLine
 10
103.3810557475157
 20
286.1420082550752
 30
0.0
 11
100.4643012757115
 21
285.4401939269157
 31
0.0
  0
MTEXT
  5
3C5E
330
3C5B
100
AcDbEntity
  8
寸法線
 62
     0
100
AcDbMText
 10
131.2099128345673
 20
296.43793509098
 30
0.0
 40
5.0
 41
0.0
 71
     5
 72
     1
  1
\U+22054
  7
OKANO
 11
0.9722514906014165
 21
0.2339381093864866
 31
0.0
 73
     1
 44
1.0
  0
LINE
  5
3C5F
330
3C5B
100
AcDbEntity
  8
寸法線
 62
     0
370
    -2
100
AcDbLine
 10
106.29781021932
 20
286.8438225832347
 30
0.0
 11
110.1868161817256
 21
287.7795750207805
 31
0.0
  0
INSERT
  5
3C60
330
3C5B
100
AcDbEntity
  8
寸法線
 62
     0
370
    -2
100
AcDbBlockReference
  2
_Closed
 10
106.29781021932
 20
286.8438225832347
 30
0.0
 41
3.0
 42
3.0
 43
3.0
 50
13.52903623143543
  0
INSERT
  5
3C61
330
3C5B
100
AcDbEntity
  8
寸法線
 62
     0
370
    -2
100
AcDbBlockReference
  2
_Closed
 10
110.1868161817256
 20
287.7795750207805
 30
0.0
 41
3.0
 42
3.0
 43
3.0
 50
193.5290362314354
  0
POINT
  5
3C62
330
3C5B
100
AcDbEntity
  8
Defpoints
 62
     0
100
AcDbPoint
 10
110.1868161817256
 20
287.7795750207805
 30
0.0
  0
POINT
  5
3C63
330
3C5B
100
AcDbEntity
  8
Defpoints
 62
     0
100
AcDbPoint
 10
106.29781021932
 20
286.8438225832347
 30
0.0
  0
ENDBLK
  5
3C65
330
3C5B
100
AcDbEntity
  8
0
100
AcDbBlockEnd
  0
BLOCK
  5
3C70
330
3C67
100
AcDbEntity
  8
0
100
AcDbBlockBegin
  2
*D18
 70
     1
 10
0.0
 20
0.0
 30
0.0
  3
*D18
  1

  0
LINE
  5
3C68
330
3C67
100
AcDbEntity
  8
寸法線
 62
     0
370
    -2
100
AcDbLine
 10
179.8413318678043
 20
222.1162318503501
 30
0.0
 11
200.6470774406486
 21
188.0071184476998
 31
0.0
  0
LINE
  5
3C69
330
3C67
100
AcDbEntity
  8
寸法線
 62
     0
370
    -2
100
AcDbLine
 10
206.3752654092292
 20
178.6162791563154
 30
0.0
 11
207.9374984915693
 21
176.055141167756
 31
0.0
  0
MTEXT
  5
3C6A
330
3C67
100
AcDbEntity
  8
寸法線
 62
     0
100
AcDbMText
 10
185.2390211090094
 20
219.9883630939742
 30
0.0
 40
5.0
 41
0.0
 71
     5
 72
     1
  1
\U+22055
  7
OKANO
 11
0.5207443607800534
 21
-0.853712662853125
 31
0.0
 73
     1
 44
1.0
  0
LINE
  5
3C6B
330
3C67
100
AcDbEntity
  8
寸法線
 62
     0
370
    -2
100
AcDbLine
 10
204.813032326889
 20
181.1774171448748
 30
0.0
 11
202.2093105229887
 21
185.4459804591404
 31
0.0
  0
INSERT
  5
3C6C
330
3C67
100
AcDbEntity
  8
寸法線
 62
     0
370
    -2
100
AcDbBlockReference
  2
_Closed
 10
204.813032326889
 20
181.1774171448748
 30
0.0
 41
3.0
 42
3.0
 43
3.0
 50
121.3821950010322
  0
INSERT
  5
3C6D
330
3C67
100
AcDbEntity
  8
寸法線
 62
     0
370
    -2
100
AcDbBlockReference
  2
_Closed
 10
202.2093105229887
 20
185.4459804591404
 30
0.0
 41
3.0
 42
3.0
 43
3.0
 50
301.3821950010322
  0
POINT
  5
3C6E
330
3C67
100
AcDbEntity
  8
Defpoints
 62
     0
100
AcDbPoint
 10
202.2093105229887
 20
185.4459804591404
 30
0.0
  0
POINT
  5
3C6F
330
3C67
100
AcDbEntity
  8
Defpoints
 62
     0
100
AcDbPoint
 10
204.813032326889
 20
181.1774171448748
 30
0.0
  0
ENDBLK
  5
3C71
330
3C67
100
AcDbEntity
  8
0
100
AcDbBlockEnd
  0
BLOCK
  5
3C7C
330
3C73
100
AcDbEntity
  8
0
100
AcDbBlockBegin
  2
*D19
 70
     1
 10
0.0
 20
0.0
 30
0.0
  3
*D19
  1

  0
LINE
  5
3C74
330
3C73
100
AcDbEntity
  8
寸法線
 62
     0
370
    -2
100
AcDbLine
 10
150.275524188775
 20
282.9494360220842
 30
0.0
 11
116.2401604203303
 21
274.3357886835638
 31
0.0
  0
LINE
  5
3C75
330
3C73
100
AcDbEntity
  8
寸法線
 62
     0
370
    -2
100
AcDbLine
 10
100.2444659807153
 20
270.2876089204516
 30
0.0
 11
97.33615790078538
 21
269.5515762362494
 31
0.0
  0
MTEXT
  5
3C76
330
3C73
100
AcDbEntity
  8
寸法線
 62
     0
100
AcDbMText
 10
141.295461429874
 20
284.2871142172208
 30
0.0
 40
5.0
 41
0.0
 71
     5
 72
     1
  1
\U+220510.5
  7
OKANO
 11
0.9694360266433321
 21
0.2453442280674004
 31
0.0
 73
     1
 44
1.0
  0
LINE
  5
3C77
330
3C73
100
AcDbEntity
  8
寸法線
 62
     0
370
    -2
100
AcDbLine
 10
103.1527740606453
 20
271.0236416046538
 30
0.0
 11
113.3318523404003
 21
273.5997559993616
 31
0.0
  0
INSERT
  5
3C78
330
3C73
100
AcDbEntity
  8
寸法線
 62
     0
370
    -2
100
AcDbBlockReference
  2
_Closed
 10
103.1527740606453
 20
271.0236416046538
 30
0.0
 41
3.0
 42
3.0
 43
3.0
 50
14.20217744307614
  0
INSERT
  5
3C79
330
3C73
100
AcDbEntity
  8
寸法線
 62
     0
370
    -2
100
AcDbBlockReference
  2
_Closed
 10
113.3318523404003
 20
273.5997559993616
 30
0.0
 41
3.0
 42
3.0
 43
3.0
 50
194.2021774430761
  0
POINT
  5
3C7A
330
3C73
100
AcDbEntity
  8
Defpoints
 62
     0
100
AcDbPoint
 10
113.3318523404003
 20
273.5997559993616
 30
0.0
  0
POINT
  5
3C7B
330
3C73
100
AcDbEntity
  8
Defpoints
 62
     0
100
AcDbPoint
 10
103.1527740606453
 20
271.0236416046538
 30
0.0
  0
ENDBLK
  5
3C7D
330
3C73
100
AcDbEntity
  8
0
100
AcDbBlockEnd
  0
BLOCK
  5
3CB5
330
3CAB
100
AcDbEntity
  8
0
100
AcDbBlockBegin
  2
*D20
 70
     1
 10
0.0
 20
0.0
 30
0.0
  3
*D20
  1

  0
LINE
  5
3CAC
330
3CAB
100
AcDbEntity
  8
寸法線
 62
     0
370
    -2
100
AcDbLine
 10
86.24231320052286
 20
233.0622221231154
 30
0.0
 11
86.24231320052286
 21
220.8315423145334
 31
0.0
  0
LINE
  5
3CAD
330
3CAB
100
AcDbEntity
  8
寸法線
 62
     0
370
    -2
100
AcDbLine
 10
98.24231320052286
 20
234.0622221231154
 30
0.0
 11
98.24231320052286
 21
220.8315423145334
 31
0.0
  0
LINE
  5
3CAE
330
3CAB
100
AcDbEntity
  8
寸法線
 62
     0
370
    -2
100
AcDbLine
 10
89.24231320052285
 20
223.8315423145333
 30
0.0
 11
95.24231320052285
 21
223.8315423145333
 31
0.0
  0
INSERT
  5
3CAF
330
3CAB
100
AcDbEntity
  8
寸法線
 62
     0
370
    -2
100
AcDbBlockReference
  2
_Closed
 10
86.24231320052286
 20
223.8315423145333
 30
0.0
 41
3.0
 42
3.0
 43
3.0
 50
180.0
  0
INSERT
  5
3CB0
330
3CAB
100
AcDbEntity
  8
寸法線
 62
     0
370
    -2
100
AcDbBlockReference
  2
_Closed
 10
98.24231320052286
 20
223.8315423145333
 30
0.0
 41
3.0
 42
3.0
 43
3.0
  0
MTEXT
  5
3CB1
330
3CAB
100
AcDbEntity
  8
寸法線
 62
     0
100
AcDbMText
 10
92.24231320052286
 20
227.3320344405176
 30
0.0
 40
5.0
 41
0.0
 71
     5
 72
     1
  1
12
  7
OKANO
 73
     1
 44
1.0
  0
POINT
  5
3CB2
330
3CAB
100
AcDbEntity
  8
Defpoints
 62
     0
100
AcDbPoint
 10
86.24231320052286
 20
235.0622221231154
 30
0.0
  0
POINT
  5
3CB3
330
3CAB
100
AcDbEntity
  8
Defpoints
 62
     0
100
AcDbPoint
 10
98.24231320052286
 20
236.0622221231154
 30
0.0
  0
POINT
  5
3CB4
330
3CAB
100
AcDbEntity
  8
Defpoints
 62
     0
100
AcDbPoint
 10
98.24231320052286
 20
223.8315423145333
 30
0.0
  0
ENDBLK
  5
3CB6
330
3CAB
100
AcDbEntity
  8
0
100
AcDbBlockEnd
  0
BLOCK
  5
3CC2
330
3CB8
100
AcDbEntity
  8
0
100
AcDbBlockBegin
  2
*D21
 70
     1
 10
0.0
 20
0.0
 30
0.0
  3
*D21
  1

  0
LINE
  5
3CC4
330
3CB8
100
AcDbEntity
  8
寸法線
 62
     0
370
    -2
100
AcDbLine
 10
98.24231320052286
 20
234.0622221231154
 30
0.0
 11
98.24231320052286
 21
220.8315423145334
 31
0.0
  0
LINE
  5
3CC5
330
3CB8
100
AcDbEntity
  8
寸法線
 62
     0
370
    -2
100
AcDbLine
 10
121.4982067248836
 20
270.3954107040758
 30
0.0
 11
121.4982067248836
 21
220.8315423145334
 31
0.0
  0
LINE
  5
3CC6
330
3CB8
100
AcDbEntity
  8
寸法線
 62
     0
370
    -2
100
AcDbLine
 10
101.2423132005228
 20
223.8315423145333
 30
0.0
 11
118.4982067248836
 21
223.8315423145333
 31
0.0
  0
INSERT
  5
3CC7
330
3CB8
100
AcDbEntity
  8
寸法線
 62
     0
370
    -2
100
AcDbBlockReference
  2
_Closed
 10
98.24231320052286
 20
223.8315423145333
 30
0.0
 41
3.0
 42
3.0
 43
3.0
 50
180.0
  0
INSERT
  5
3CC8
330
3CB8
100
AcDbEntity
  8
寸法線
 62
     0
370
    -2
100
AcDbBlockReference
  2
_Closed
 10
121.4982067248836
 20
223.8315423145333
 30
0.0
 41
3.0
 42
3.0
 43
3.0
  0
MTEXT
  5
3CC9
330
3CB8
100
AcDbEntity
  8
寸法線
 62
     0
100
AcDbMText
 10
109.8702599627032
 20
227.3320344405176
 30
0.0
 40
5.0
 41
0.0
 71
     5
 72
     1
  1
23
  7
OKANO
 73
     1
 44
1.0
  0
POINT
  5
3CCA
330
3CB8
100
AcDbEntity
  8
Defpoints
 62
     0
100
AcDbPoint
 10
98.24231320052286
 20
236.0622221231154
 30
0.0
  0
POINT
  5
3CCB
330
3CB8
100
AcDbEntity
  8
Defpoints
 62
     0
100
AcDbPoint
 10
121.4982067248836
 20
272.3954107040758
 30
0.0
  0
POINT
  5
3CCC
330
3CB8
100
AcDbEntity
  8
Defpoints
 62
     0
100
AcDbPoint
 10
121.4982067248836
 20
223.8315423145333
 30
0.0
  0
ENDBLK
  5
3CC3
330
3CB8
100
AcDbEntity
  8
0
100
AcDbBlockEnd
  0
BLOCK
  5
3CD9
330
3CCE
100
AcDbEntity
  8
0
100
AcDbBlockBegin
  2
*D22
 70
     1
 10
0.0
 20
0.0
 30
0.0
  3
*D22
  1

  0
LINE
  5
3CDB
330
3CCE
100
AcDbEntity
  8
寸法線
 62
     0
370
    -2
100
AcDbLine
 10
108.2423132005228
 20
274.3116988020076
 30
0.0
 11
108.2423132005228
 21
323.5545802019546
 31
0.0
  0
LINE
  5
3CDC
330
3CCE
100
AcDbEntity
  8
寸法線
 62
     0
370
    -2
100
AcDbLine
 10
121.0931884598565
 20
274.3116988020076
 30
0.0
 11
121.0931884598565
 21
323.5545802019546
 31
0.0
  0
LINE
  5
3CDD
330
3CCE
100
AcDbEntity
  8
寸法線
 62
     0
370
    -2
100
AcDbLine
 10
111.2423132005228
 20
320.5545802019546
 30
0.0
 11
118.0931884598565
 21
320.5545802019546
 31
0.0
  0
INSERT
  5
3CDE
330
3CCE
100
AcDbEntity
  8
寸法線
 62
     0
370
    -2
100
AcDbBlockReference
  2
_Closed
 10
108.2423132005228
 20
320.5545802019546
 30
0.0
 41
3.0
 42
3.0
 43
3.0
 50
180.0
  0
INSERT
  5
3CDF
330
3CCE
100
AcDbEntity
  8
寸法線
 62
     0
370
    -2
100
AcDbBlockReference
  2
_Closed
 10
121.0931884598565
 20
320.5545802019546
 30
0.0
 41
3.0
 42
3.0
 43
3.0
  0
MTEXT
  5
3CE0
330
3CCE
100
AcDbEntity
  8
寸法線
 62
     0
100
AcDbMText
 10
114.6677508301896
 20
324.0545802019546
 30
0.0
 40
5.0
 41
0.0
 71
     5
 72
     1
  1
13
  7
OKANO
 73
     1
 44
1.0
  0
POINT
  5
3CE1
330
3CCE
100
AcDbEntity
  8
Defpoints
 62
     0
100
AcDbPoint
 10
108.2423132005228
 20
272.3116988020076
 30
0.0
  0
POINT
  5
3CE2
330
3CCE
100
AcDbEntity
  8
Defpoints
 62
     0
100
AcDbPoint
 10
121.0931884598565
 20
272.3116988020076
 30
0.0
  0
POINT
  5
3CE3
330
3CCE
100
AcDbEntity
  8
Defpoints
 62
     0
100
AcDbPoint
 10
121.0931884598565
 20
320.5545802019546
 30
0.0
  0
ENDBLK
  5
3CDA
330
3CCE
100
AcDbEntity
  8
0
100
AcDbBlockEnd
  0
BLOCK
  5
3CEF
330
3CE5
100
AcDbEntity
  8
0
100
AcDbBlockBegin
  2
*D23
 70
     1
 10
0.0
 20
0.0
 30
0.0
  3
*D23
  1

  0
LINE
  5
3CF1
330
3CE5
100
AcDbEntity
  8
寸法線
 62
     0
370
    -2
100
AcDbLine
 10
196.065691787091
 20
196.965463924752
 30
0.0
 11
196.065691787091
 21
232.6150048835027
 31
0.0
  0
LINE
  5
3CF2
330
3CE5
100
AcDbEntity
  8
寸法線
 62
     0
370
    -2
100
AcDbLine
 10
269.7541673574999
 20
196.965463924752
 30
0.0
 11
269.7541673574999
 21
232.6150048835027
 31
0.0
  0
LINE
  5
3CF3
330
3CE5
100
AcDbEntity
  8
寸法線
 62
     0
370
    -2
100
AcDbLine
 10
199.065691787091
 20
229.6150048835027
 30
0.0
 11
266.7541673574999
 21
229.6150048835027
 31
0.0
  0
INSERT
  5
3CF4
330
3CE5
100
AcDbEntity
  8
寸法線
 62
     0
370
    -2
100
AcDbBlockReference
  2
_Closed
 10
196.065691787091
 20
229.6150048835027
 30
0.0
 41
3.0
 42
3.0
 43
3.0
 50
180.0
  0
INSERT
  5
3CF5
330
3CE5
100
AcDbEntity
  8
寸法線
 62
     0
370
    -2
100
AcDbBlockReference
  2
_Closed
 10
269.7541673574999
 20
229.6150048835027
 30
0.0
 41
3.0
 42
3.0
 43
3.0
  0
MTEXT
  5
3CF6
330
3CE5
100
AcDbEntity
  8
寸法線
 62
     0
100
AcDbMText
 10
232.9099295722954
 20
233.1150048835027
 30
0.0
 40
5.0
 41
0.0
 71
     5
 72
     1
  1
74
  7
OKANO
 73
     1
 44
1.0
  0
POINT
  5
3CF7
330
3CE5
100
AcDbEntity
  8
Defpoints
 62
     0
100
AcDbPoint
 10
196.065691787091
 20
194.965463924752
 30
0.0
  0
POINT
  5
3CF8
330
3CE5
100
AcDbEntity
  8
Defpoints
 62
     0
100
AcDbPoint
 10
269.7541673574999
 20
194.965463924752
 30
0.0
  0
POINT
  5
3CF9
330
3CE5
100
AcDbEntity
  8
Defpoints
 62
     0
100
AcDbPoint
 10
269.7541673574999
 20
229.6150048835027
 30
0.0
  0
ENDBLK
  5
3CF0
330
3CE5
100
AcDbEntity
  8
0
100
AcDbBlockEnd
  0
ENDSEC
  0
SECTION
  2
ENTITIES
  0
TEXT
  5
29C1
330
1F
100
AcDbEntity
  8
文字
100
AcDbText
 10
329.601984358705
 20
53.18538193641962
 30
0.0
 40
3.599999999999999
  1
SET SCREW COUP
 51
15.0
  7
OKANO
100
AcDbText
  0
TEXT
  5
29C2
330
1F
100
AcDbEntity
  8
文字
100
AcDbText
 10
307.8798714561106
 20
46.40057524604258
 30
0.0
 40
4.799999999999999
  1
joint kogyo T.okano
 51
15.0
  7
OKANO
100
AcDbText
  0
TEXT
  5
29C3
330
1F
100
AcDbEntity
  8
文字
100
AcDbText
 10
300.3915584443138
 20
61.15294675333037
 30
0.0
 40
4.799999999999999
  1
F-999-20060303 Auto CAD
 51
15.0
  7
OKANO
100
AcDbText
  0
LINE
  5
29C4
330
1F
100
AcDbEntity
  8
太線
100
AcDbLine
 10
272.9693302626999
 20
60.2321391029
 30
0.0
 11
380.9693302626999
 21
60.2321391029
 31
0.0
  0
LWPOLYLINE
  5
29C5
330
1F
100
AcDbEntity
  8
太線
100
AcDbPolyline
 90
        4
 70
     1
 43
0.0
 10
272.9693302626999
 20
68.63213910290001
 10
380.9693302626999
 20
68.63213910290001
 10
380.9693302626999
 20
43.43213910290001
 10
272.9693302626999
 20
43.43213910290001
  0
TEXT
  5
29C6
330
1F
100
AcDbEntity
  8
文字
100
AcDbText
 10
276.8417138287574
 20
52.03862730404932
 30
0.0
 40
2.399999999999999
  1
CHECK
 51
15.0
  7
OKANO
100
AcDbText
  0
LINE
  5
29C7
330
1F
100
AcDbEntity
  8
太線
100
AcDbLine
 10
296.9693302626999
 20
68.63213910290001
 30
0.0
 11
296.9693302626999
 21
43.43213910290001
 31
0.0
  0
TEXT
  5
29C8
330
1F
100
AcDbEntity
  8
文字
100
AcDbText
 10
276.8417138287574
 20
45.11919969783351
 30
0.0
 40
2.399999999999999
  1
ISSUED
 51
15.0
  7
OKANO
100
AcDbText
  0
TEXT
  5
29C9
330
1F
100
AcDbEntity
  8
文字
100
AcDbText
 10
277.0982282616581
 20
48.45077588710164
 30
0.0
 40
2.399999999999999
  1
APPR
 51
15.0
  7
OKANO
100
AcDbText
  0
TEXT
  5
29CA
330
1F
100
AcDbEntity
  8
文字
100
AcDbText
 10
275.0461182770717
 20
62.03335528166516
 30
0.0
 40
2.399999999999999
  1
FILM NAME
 51
15.0
  7
OKANO
100
AcDbText
  0
TEXT
  5
29CB
330
1F
100
AcDbEntity
  8
文字
100
AcDbText
 10
276.3286871544037
 20
55.62647813080836
 30
0.0
 40
2.399999999999999
  1
DRAWN
 51
15.0
  7
OKANO
100
AcDbText
  0
TEXT
  5
29CC
330
1F
100
AcDbEntity
  8
文字
100
AcDbText
 10
304.2069909911649
 20
53.18538193641962
 30
0.0
 40
4.799999999999999
  1
9-1Z-B
 51
15.0
  7
OKANO
100
AcDbText
  0
TEXT
  5
2E04
330
1F
100
AcDbEntity
  8
文字
100
AcDbText
 10
309.3053243079604
 20
72.00160764548312
 30
0.0
 40
4.799999999999999
  1
JAN 4562182300928
 51
15.0
  7
OKANO
100
AcDbText
  0
TEXT
  5
3123
330
1F
100
AcDbEntity
  8
文字
100
AcDbText
 10
124.4787311523964
 20
61.90215993778043
 30
0.0
 40
4.799999999999999
  1
材質　FCD450
 51
15.0
  7
OKANO
100
AcDbText
  0
TEXT
  5
3124
330
1F
100
AcDbEntity
  8
文字
100
AcDbText
 10
124.8706761084137
 20
71.14824444419832
 30
0.0
 40
4.799999999999999
  1
表面処理　ドブ鍍金
 51
15.0
  7
OKANO
100
AcDbText
  0
LINE
  5
32A1
330
1F
100
AcDbEntity
  8
太線
100
AcDbLine
 10
98.24231320052284
 20
153.5116988020077
 30
0.0
 11
90.83637842946655
 21
153.5116988020077
 31
0.0
  0
LINE
  5
32B3
330
1F
100
AcDbEntity
  8
太線
100
AcDbLine
 10
93.20363158356958
 20
139.1116988020076
 30
0.0
 11
87.783483825841
 21
139.1116988020077
 31
0.0
  0
LINE
  5
32CA
330
1F
100
AcDbEntity
  8
太線
100
AcDbLine
 10
87.783483825841
 20
145.1116988020076
 30
0.0
 11
93.20363158356958
 21
145.1116988020076
 31
0.0
  0
LINE
  5
32CC
330
1F
100
AcDbEntity
  8
太線
100
AcDbLine
 10
93.20363158356958
 20
145.1116988020076
 30
0.0
 11
93.20363158356958
 21
139.1116988020076
 31
0.0
  0
ARC
  5
32E1
330
1F
100
AcDbEntity
  8
太線
100
AcDbCircle
 10
57.44231320052286
 20
272.3116988020076
 30
0.0
 40
25.180459012564
100
AcDbArc
 50
298.7510500883145
 51
59.35476973065304
  0
ARC
  5
32E2
330
1F
100
AcDbEntity
  8
想像線
100
AcDbCircle
 10
57.44231320052286
 20
272.3116988020076
 30
0.0
 40
28.79999999999999
100
AcDbArc
 50
300.3740975814087
 51
58.80151915202834
  0
LINE
  5
32ED
330
1F
100
AcDbEntity
  8
太線
100
AcDbLine
 10
82.62277221308687
 20
297.4921578145717
 30
0.0
 11
82.62277221308687
 21
308.2921578145717
 31
0.0
  0
LINE
  5
32EE
330
1F
100
AcDbEntity
  8
太線
100
AcDbLine
 10
81.42277221308686
 20
309.4921578145717
 30
0.0
 11
73.56083790129521
 21
309.4921578145717
 31
0.0
  0
LINE
  5
32F0
330
1F
100
AcDbEntity
  8
太線
100
AcDbLine
 10
73.56083790129524
 20
235.0622221231154
 30
0.0
 11
81.42277221308686
 21
235.0622221231154
 31
0.0
  0
LINE
  5
32F1
330
1F
100
AcDbEntity
  8
太線
100
AcDbLine
 10
82.62277221308687
 20
236.2622221231154
 30
0.0
 11
82.62277221308687
 21
247.0622221231154
 31
0.0
  0
ARC
  5
32F4
330
1F
100
AcDbEntity
  8
太線
100
AcDbCircle
 10
29.86185418795885
 20
142.1116988020076
 30
0.0
 40
3.0
100
AcDbArc
 50
90.0
 51
270.0
  0
LINE
  5
32F5
330
1F
100
AcDbEntity
  8
太線
100
AcDbLine
 10
29.86185418795885
 20
145.1116988020076
 30
0.0
 11
72.36083790129524
 21
145.1116988020077
 31
0.0
  0
LINE
  5
32F6
330
1F
100
AcDbEntity
  8
太線
100
AcDbLine
 10
29.86185418795885
 20
139.1116988020076
 30
0.0
 11
72.36083790129524
 21
139.1116988020076
 31
0.0
  0
LINE
  5
3319
330
1F
100
AcDbEntity
  8
太線
100
AcDbLine
 10
72.36083790129523
 20
153.5116988020077
 30
0.0
 11
81.62277221308688
 21
153.5116988020077
 31
0.0
  0
LINE
  5
331A
330
1F
100
AcDbEntity
  8
太線
100
AcDbLine
 10
82.62277221308687
 20
152.5116988020077
 30
0.0
 11
82.62277221308687
 21
131.7116988020076
 31
0.0
  0
LINE
  5
3320
330
1F
100
AcDbEntity
  8
破線
100
AcDbLine
 10
32.26185418795886
 20
211.7505829705951
 30
0.0
 11
32.26185418795886
 21
141.5116988020077
 31
0.0
  0
ARC
  5
3325
330
1F
100
AcDbEntity
  8
破線
100
AcDbCircle
 10
72.43254270680485
 20
93.20159177266113
 30
0.0
 40
12.64186524864863
100
AcDbArc
 50
216.2862730650202
 51
323.7137269349798
  0
ARC
  5
3326
330
1F
100
AcDbEntity
  8
破線
100
AcDbCircle
 10
47.25208369424085
 20
73.46476659645947
 30
0.0
 40
19.36220123696722
100
AcDbArc
 50
39.26737976430183
 51
140.7326202356981
  0
ARC
  5
3327
330
1F
100
AcDbEntity
  8
破線
100
AcDbCircle
 10
32.26185418795886
 20
85.71988210345521
 30
0.0
 40
0.0000000000000085
100
AcDbArc
 50
164.9001892943182
 51
243.4349488229219
  0
ARC
  5
3328
330
1F
100
AcDbEntity
  8
破線
100
AcDbCircle
 10
47.25208369424089
 20
103.0288377175447
 30
0.0
 40
22.89774934576607
100
AcDbArc
 50
229.1061622974253
 51
310.8938377025745
  0
ARC
  5
3329
330
1F
100
AcDbEntity
  8
破線
100
AcDbCircle
 10
47.69395276418677
 20
99.55409072489402
 30
0.0
 40
17.15400135104119
100
AcDbArc
 50
225.0573242933069
 51
312.6063077753979
  0
LINE
  5
332A
330
1F
100
AcDbEntity
  8
想像線
100
AcDbLine
 10
82.62277221308687
 20
297.4921578145717
 30
0.0
 11
82.62277221308687
 21
286.2896987990239
 31
0.0
  0
LINE
  5
332B
330
1F
100
AcDbEntity
  8
想像線
100
AcDbLine
 10
82.62277221308687
 20
247.0622221231154
 30
0.0
 11
82.62277221308687
 21
258.3336988049915
 31
0.0
  0
LINE
  5
3344
330
1F
100
AcDbEntity
  8
想像線
100
AcDbLine
 10
72.36083790129523
 20
304.6921578145717
 30
0.0
 11
82.62277221308687
 21
304.6921578145717
 31
0.0
  0
LINE
  5
3345
330
1F
100
AcDbEntity
  8
想像線
100
AcDbLine
 10
72.36083790129526
 20
239.8622221231154
 30
0.0
 11
82.62277221308687
 21
239.8622221231154
 31
0.0
  0
CIRCLE
  5
3346
330
1F
100
AcDbEntity
  8
想像線
100
AcDbCircle
 10
57.44231320052286
 20
272.3116988020076
 30
0.0
 40
24.28627105310443
  0
LINE
  5
3351
330
1F
100
AcDbEntity
  8
太線
100
AcDbLine
 10
70.27731544125848
 20
293.9754527141008
 30
0.0
 11
72.36083790129524
 21
296.9465850561076
 31
0.0
  0
LINE
  5
3352
330
1F
100
AcDbEntity
  8
太線
100
AcDbLine
 10
69.55423578462806
 20
250.2355386422322
 30
0.0
 11
72.36083790129524
 21
247.0622221231154
 31
0.0
  0
LINE
  5
3353
330
1F
100
AcDbEntity
  8
太線
100
AcDbLine
 10
72.36083790129524
 20
247.0622221231154
 30
0.0
 11
72.36083790129524
 21
236.2622221231154
 31
0.0
  0
LINE
  5
3354
330
1F
100
AcDbEntity
  8
太線
100
AcDbLine
 10
72.36083790129523
 20
308.2921578145717
 30
0.0
 11
72.36083790129526
 21
296.9465850561076
 31
0.0
  0
LINE
  5
3355
330
1F
100
AcDbEntity
  8
破線
100
AcDbLine
 10
72.36083790129524
 20
242.2622221231154
 30
0.0
 11
72.47524210093047
 21
242.2622221231154
 31
0.0
  0
LINE
  5
3359
330
1F
100
AcDbEntity
  8
想像線
100
AcDbLine
 10
72.36083790129524
 20
146.234459691102
 30
0.0
 11
82.62277221308687
 21
146.234459691102
 31
0.0
  0
LINE
  5
335A
330
1F
100
AcDbEntity
  8
想像線
100
AcDbLine
 10
72.36083790129524
 20
138.2177892998418
 30
0.0
 11
82.62277221308687
 21
138.2177892998418
 31
0.0
  0
LINE
  5
335B
330
1F
100
AcDbEntity
  8
太線
100
AcDbLine
 10
81.62277221308688
 20
130.7116988020076
 30
0.0
 11
73.56083790129521
 21
130.7116988020077
 31
0.0
  0
LINE
  5
3380
330
1F
100
AcDbEntity
  8
太線
100
AcDbLine
 10
201.6223706395675
 20
130.7017515462206
 30
0.0
 11
264.0523063310237
 21
130.7017515462207
 31
0.0
  0
LINE
  5
3381
330
1F
100
AcDbEntity
  8
太線
100
AcDbLine
 10
270.0523063310237
 20
136.7017515462206
 30
0.0
 11
270.0523063310238
 21
147.5017515462206
 31
0.0
  0
LINE
  5
3383
330
1F
100
AcDbEntity
  8
太線
100
AcDbLine
 10
207.6223706395674
 20
153.5116988020076
 30
0.0
 11
258.0523063310237
 21
153.5116988020077
 31
0.0
  0
LINE
  5
3396
330
1F
100
AcDbEntity
  8
太線
100
AcDbLine
 10
195.6223706395675
 20
147.5017515462206
 30
0.0
 11
195.6223706395675
 21
136.7017515462206
 31
0.0
  0
LINE
  5
33A8
330
1F
100
AcDbEntity
  8
破線
100
AcDbLine
 10
207.6223706395674
 20
130.7017515462206
 30
0.0
 11
207.6223706395674
 21
89.30993484766814
 31
0.0
  0
LINE
  5
33A9
330
1F
100
AcDbEntity
  8
破線
100
AcDbLine
 10
258.0523063310238
 20
130.7017515462206
 30
0.0
 11
258.0523063310238
 21
89.30993484766814
 31
0.0
  0
ARC
  5
33AE
330
1F
100
AcDbEntity
  8
破線
100
AcDbCircle
 10
247.8620768247417
 20
96.79164451687405
 30
0.0
 40
12.64186524864863
100
AcDbArc
 50
216.2862730650202
 51
323.7137269349798
  0
ARC
  5
33AF
330
1F
100
AcDbEntity
  8
破線
100
AcDbCircle
 10
223.1234868821236
 20
103.1441434691069
 30
0.0
 40
17.15400135104119
100
AcDbArc
 50
225.0573242933069
 51
312.6063077753979
  0
ARC
  5
33B0
330
1F
100
AcDbEntity
  8
破線
100
AcDbCircle
 10
222.6816178121778
 20
106.6188904617576
 30
0.0
 40
22.89774934576607
100
AcDbArc
 50
229.1061622974253
 51
310.8938377025745
  0
ARC
  5
33B1
330
1F
100
AcDbEntity
  8
破線
100
AcDbCircle
 10
222.6816178121777
 20
77.0548193406724
 30
0.0
 40
19.36220123696722
100
AcDbArc
 50
39.26737976430183
 51
140.7326202356981
  0
ARC
  5
33B2
330
1F
100
AcDbEntity
  8
破線
100
AcDbCircle
 10
207.6913883058957
 20
89.30993484766814
 30
0.0
 40
0.0000000000000085
100
AcDbArc
 50
164.9001892943182
 51
243.4349488229219
  0
ARC
  5
33B7
330
1F
100
AcDbEntity
  8
太線
100
AcDbCircle
 10
264.0523063310237
 20
136.7017515462206
 30
0.0
 40
6.0
100
AcDbArc
 50
270.0
 51
359.9999999999998
  0
ARC
  5
33B9
330
1F
100
AcDbEntity
  8
太線
100
AcDbCircle
 10
201.6223706395675
 20
136.7017515462206
 30
0.0
 40
6.0
100
AcDbArc
 50
180.0
 51
270.0
  0
ARC
  5
33C4
330
1F
100
AcDbEntity
  8
太線
100
AcDbCircle
 10
73.56083790129524
 20
157.1116988020076
 30
0.0
 40
1.199999999999999
100
AcDbArc
 50
90.0
 51
179.9999999999999
  0
ARC
  5
33C6
330
1F
100
AcDbEntity
  8
太線
100
AcDbCircle
 10
73.56083790129521
 20
131.9116988020077
 30
0.0
 40
1.199999999999999
100
AcDbArc
 50
179.9999999999999
 51
270.0
  0
ARC
  5
33C8
330
1F
100
AcDbEntity
  8
太線
100
AcDbCircle
 10
73.56083790129524
 20
236.2622221231154
 30
0.0
 40
1.199999999999999
100
AcDbArc
 50
180.0
 51
270.0
  0
ARC
  5
33C9
330
1F
100
AcDbEntity
  8
太線
100
AcDbCircle
 10
81.42277221308686
 20
236.2622221231154
 30
0.0
 40
1.199999999999999
100
AcDbArc
 50
270.0000000000002
 51
0.0
  0
ARC
  5
33CA
330
1F
100
AcDbEntity
  8
太線
100
AcDbCircle
 10
73.56083790129521
 20
308.2921578145717
 30
0.0
 40
1.199999999999999
100
AcDbArc
 50
90.0
 51
180.0
  0
ARC
  5
33CB
330
1F
100
AcDbEntity
  8
太線
100
AcDbCircle
 10
81.42277221308686
 20
308.2921578145717
 30
0.0
 40
1.199999999999999
100
AcDbArc
 50
0.0
 51
90.0
  0
ARC
  5
33CC
330
1F
100
AcDbEntity
  8
太線
100
AcDbCircle
 10
81.42277221308686
 20
308.2921578145717
 30
0.0
 40
1.199999999999999
100
AcDbArc
 50
0.0
 51
90.0
  0
LINE
  5
33CD
330
1F
100
AcDbEntity
  8
破線
100
AcDbLine
 10
32.26185418795886
 20
135.5116988020077
 30
0.0
 11
32.26185418795886
 21
85.71988210345521
 31
0.0
  0
LINE
  5
33E5
330
1F
100
AcDbEntity
  8
太線
100
AcDbLine
 10
90.83637842946655
 20
153.5116988020077
 30
0.0
 11
72.36083790129523
 21
153.5116988020077
 31
0.0
  0
DIMENSION
  5
348F
330
1F
100
AcDbEntity
  8
寸法線
100
AcDbDimension
  2
*D2
 10
235.2718473184598
 20
117.796654756446
 30
0.0
 11
232.8718473184598
 21
121.296654756446
 31
0.0
 70
    32
  1
4
 71
     5
 42
4.800000000000011
  3
sunpo
100
AcDbAlignedDimension
 13
230.4718473184598
 23
130.7017515462206
 33
0.0
 14
235.2718473184598
 24
130.7017515462206
 34
0.0
100
AcDbRotatedDimension
1001
ACAD
1000
DSTYLE
1002
{
1070
    40
1040
1.0
1002
}
  0
LINE
  5
3530
330
1F
100
AcDbEntity
  8
太線
100
AcDbLine
 10
73.56083790129524
 20
158.3116988020076
 30
0.0
 11
81.91119324695682
 21
158.3116988020077
 31
0.0
  0
DIMENSION
  5
360C
330
1F
100
AcDbEntity
  8
寸法線
100
AcDbDimension
  2
*D3
 10
270.0523063310237
 20
111.0507669292021
 30
0.0
 11
264.0828379093288
 21
111.0507669292021
 31
0.0
 70
   160
  1
14
 71
     5
 42
11.99999999999994
  3
sunpo
100
AcDbAlignedDimension
 13
258.0523063310238
 23
130.7017515462207
 33
0.0
 14
270.0523063310237
 24
136.7017515462206
 34
0.0
100
AcDbRotatedDimension
1001
ACAD
1000
DSTYLE
1002
{
1070
    40
1040
1.0
1002
}
  0
CIRCLE
  5
3622
330
1F
100
AcDbEntity
  8
太線
100
AcDbCircle
 10
204.0223706395675
 20
142.1017515462206
 30
0.0
 40
3.5
  0
CIRCLE
  5
3623
330
1F
100
AcDbEntity
  8
太線
100
AcDbCircle
 10
261.6523063310238
 20
142.1017515462206
 30
0.0
 40
3.5
  0
DIMENSION
  5
3624
330
1F
100
AcDbEntity
  8
寸法線
100
AcDbDimension
  2
*D4
 10
258.2804678319753
 20
141.1632926305862
 30
0.0
 11
290.1240222352949
 21
150.0260740312127
 31
0.0
 70
   163
  1
8
 71
     5
 42
6.999999999999886
  3
sunpo
100
AcDbDiametricDimension
 15
265.0241448300724
 25
143.040210461855
 35
0.0
 40
0.0
1001
ACAD
1000
DSTYLE
1002
{
1070
    40
1040
1.0
1070
   288
1070
     1
1002
}
  0
CIRCLE
  5
3631
330
1F
100
AcDbEntity
  8
太線
100
AcDbCircle
 10
204.0223706395675
 20
142.1017515462206
 30
0.0
 40
2.726594359338577
  0
LINE
  5
3636
330
1F
100
AcDbEntity
  8
太線
100
AcDbLine
 10
82.78348382584098
 20
147.7408639266065
 30
0.0
 11
87.78348382584098
 21
147.7408639266065
 31
0.0
  0
LINE
  5
3637
330
1F
100
AcDbEntity
  8
太線
100
AcDbLine
 10
87.78348382584098
 20
147.7408639266065
 30
0.0
 11
87.78348382584098
 21
136.4825336774088
 31
0.0
  0
LINE
  5
3638
330
1F
100
AcDbEntity
  8
太線
100
AcDbLine
 10
87.78348382584098
 20
136.4825336774088
 30
0.0
 11
82.78348382584098
 21
136.4825336774088
 31
0.0
  0
LINE
  5
3639
330
1F
100
AcDbEntity
  8
太線
100
AcDbLine
 10
82.78348382584098
 20
136.4825336774088
 30
0.0
 11
82.78348382584098
 21
147.7408639266065
 31
0.0
  0
LWPOLYLINE
  5
3641
330
1F
100
AcDbEntity
  8
太線
100
AcDbPolyline
 90
        6
 70
     1
 43
0.0
 10
204.0223706395675
 20
147.6017515462206
 10
199.2592309187531
 20
144.8517515462206
 10
199.2592309187531
 20
139.3517515462206
 10
204.0223706395675
 20
136.6017515462206
 10
208.7855103603819
 20
139.3517515462206
 10
208.7855103603819
 20
144.8517515462206
  0
CIRCLE
  5
3648
330
1F
100
AcDbEntity
  8
太線
100
AcDbCircle
 10
204.0223706395675
 20
142.1017515462206
 30
0.0
 40
5.5
  0
LINE
  5
364A
330
1F
100
AcDbEntity
  8
構築線
100
AcDbLine
 10
86.42140301388153
 20
144.0116988020077
 30
0.0
 11
84.92140301388152
 21
144.127360047544
 31
0.0
  0
LINE
  5
3652
330
1F
100
AcDbEntity
  8
太線
100
AcDbLine
 10
83.88294203362693
 20
147.7380405202607
 30
0.0
 11
83.88294203362693
 21
136.5820583639775
 31
0.0
  0
LINE
  5
3654
330
1F
100
AcDbEntity
  8
太線
100
AcDbLine
 10
86.24231320052286
 20
130.7116988020076
 30
0.0
 11
86.24231320052286
 21
136.4825336774088
 31
0.0
  0
LINE
  5
3655
330
1F
100
AcDbEntity
  8
太線
100
AcDbLine
 10
86.24231320052286
 20
153.5752226173169
 30
0.0
 11
86.24231320052286
 21
153.7715347410048
 31
0.0
  0
LINE
  5
3657
330
1F
100
AcDbEntity
  8
構築線
100
AcDbLine
 10
83.88294203362693
 20
141.2616988020077
 30
0.0
 11
87.78348382584098
 21
141.2616988020077
 31
0.0
  0
LINE
  5
3672
330
1F
100
AcDbEntity
  8
太線
100
AcDbLine
 10
232.678878756085
 20
247.8116988020077
 30
0.0
 11
258.9823727360499
 21
247.8116988020077
 31
0.0
  0
LINE
  5
3673
330
1F
100
AcDbEntity
  8
太線
100
AcDbLine
 10
232.678878756085
 20
241.8116988020077
 30
0.0
 11
258.9823727360499
 21
241.8116988020077
 31
0.0
  0
LINE
  5
367A
330
1F
100
AcDbEntity
  8
太線
100
AcDbLine
 10
263.9823727360499
 20
250.4408639266065
 30
0.0
 11
263.9823727360499
 21
239.1825336774088
 31
0.0
  0
LINE
  5
367B
330
1F
100
AcDbEntity
  8
太線
100
AcDbLine
 10
258.9823727360499
 20
239.1825336774088
 30
0.0
 11
258.9823727360499
 21
250.4408639266065
 31
0.0
  0
LINE
  5
367C
330
1F
100
AcDbEntity
  8
太線
100
AcDbLine
 10
260.0818309438358
 20
250.4380405202608
 30
0.0
 11
260.0818309438358
 21
239.2820583639775
 31
0.0
  0
LINE
  5
367D
330
1F
100
AcDbEntity
  8
太線
100
AcDbLine
 10
263.9823727360499
 20
242.0616988020077
 30
0.0
 11
260.0818309438358
 21
242.0616988020077
 31
0.0
  0
LINE
  5
367E
330
1F
100
AcDbEntity
  8
太線
100
AcDbLine
 10
260.0818309438358
 20
247.5616988020077
 30
0.0
 11
263.9823727360499
 21
247.5616988020077
 31
0.0
  0
LINE
  5
367F
330
1F
100
AcDbEntity
  8
太線
100
AcDbLine
 10
263.9823727360499
 20
239.1825336774088
 30
0.0
 11
258.9823727360499
 21
239.1825336774088
 31
0.0
  0
LINE
  5
3680
330
1F
100
AcDbEntity
  8
太線
100
AcDbLine
 10
269.4025204937784
 20
247.8116988020077
 30
0.0
 11
269.4025204937784
 21
241.8116988020077
 31
0.0
  0
LINE
  5
3681
330
1F
100
AcDbEntity
  8
太線
100
AcDbLine
 10
269.4025204937784
 20
241.8116988020077
 30
0.0
 11
263.9823727360499
 21
241.8116988020077
 31
0.0
  0
LINE
  5
3682
330
1F
100
AcDbEntity
  8
太線
100
AcDbLine
 10
263.9823727360499
 20
247.8116988020077
 30
0.0
 11
269.4025204937784
 21
247.8116988020077
 31
0.0
  0
LINE
  5
3683
330
1F
100
AcDbEntity
  8
太線
100
AcDbLine
 10
258.9823727360499
 20
250.4408639266065
 30
0.0
 11
263.9823727360499
 21
250.4408639266065
 31
0.0
  0
LINE
  5
368B
330
1F
100
AcDbEntity
  8
太線
100
AcDbLine
 10
232.678878756085
 20
296.8116988020076
 30
0.0
 11
258.9823727360499
 21
296.8116988020075
 31
0.0
  0
LINE
  5
368C
330
1F
100
AcDbEntity
  8
太線
100
AcDbLine
 10
232.678878756085
 20
302.8116988020077
 30
0.0
 11
258.9823727360499
 21
302.8116988020077
 31
0.0
  0
LINE
  5
368E
330
1F
100
AcDbEntity
  8
太線
100
AcDbLine
 10
269.4025204937784
 20
302.8116988020077
 30
0.0
 11
263.9823727360499
 21
302.8116988020076
 31
0.0
  0
LINE
  5
368F
330
1F
100
AcDbEntity
  8
太線
100
AcDbLine
 10
263.9823727360499
 20
296.8116988020076
 30
0.0
 11
269.4025204937784
 21
296.8116988020076
 31
0.0
  0
LINE
  5
3690
330
1F
100
AcDbEntity
  8
太線
100
AcDbLine
 10
263.9823727360499
 20
294.1825336774087
 30
0.0
 11
263.9823727360499
 21
305.4408639266064
 31
0.0
  0
LINE
  5
3692
330
1F
100
AcDbEntity
  8
太線
100
AcDbLine
 10
260.0818309438358
 20
294.1853570837545
 30
0.0
 11
260.0818309438358
 21
305.3413392400378
 31
0.0
  0
LINE
  5
3693
330
1F
100
AcDbEntity
  8
太線
100
AcDbLine
 10
263.9823727360499
 20
305.4408639266064
 30
0.0
 11
258.9823727360499
 21
305.4408639266064
 31
0.0
  0
LINE
  5
3694
330
1F
100
AcDbEntity
  8
太線
100
AcDbLine
 10
258.9823727360499
 20
294.1825336774087
 30
0.0
 11
263.9823727360499
 21
294.1825336774087
 31
0.0
  0
LINE
  5
3695
330
1F
100
AcDbEntity
  8
太線
100
AcDbLine
 10
263.9823727360499
 20
302.5616988020077
 30
0.0
 11
260.0818309438358
 21
302.5616988020077
 31
0.0
  0
LINE
  5
3696
330
1F
100
AcDbEntity
  8
太線
100
AcDbLine
 10
260.0818309438358
 20
297.0616988020077
 30
0.0
 11
263.9823727360499
 21
297.0616988020077
 31
0.0
  0
LINE
  5
3697
330
1F
100
AcDbEntity
  8
太線
100
AcDbLine
 10
269.4025204937784
 20
296.8116988020076
 30
0.0
 11
269.4025204937784
 21
302.8116988020077
 31
0.0
  0
ARC
  5
3699
330
1F
100
AcDbEntity
  8
太線
100
AcDbCircle
 10
232.678878756085
 20
272.3116988020076
 30
0.0
 40
24.49999999999988
100
AcDbArc
 50
90.0
 51
270.0
  0
ARC
  5
369A
330
1F
100
AcDbEntity
  8
太線
100
AcDbCircle
 10
232.678878756085
 20
272.3116988020076
 30
0.0
 40
30.5
100
AcDbArc
 50
90.0
 51
270.0
  0
LINE
  5
369B
330
1F
100
AcDbEntity
  8
太線
100
AcDbLine
 10
258.9823727360499
 20
305.4408639266064
 30
0.0
 11
258.9823727360499
 21
294.1825336774087
 31
0.0
  0
CIRCLE
  5
369C
330
1F
100
AcDbEntity
  8
破線
100
AcDbCircle
 10
232.678878756085
 20
272.3116988020076
 30
0.0
 40
23.24372168253205
  0
CIRCLE
  5
369D
330
1F
100
AcDbEntity
  8
破線
100
AcDbCircle
 10
232.678878756085
 20
272.3116988020076
 30
0.0
 40
21.80390088218211
  0
LINE
  5
36A3
330
1F
100
AcDbEntity
  8
太線
100
AcDbLine
 10
251.7636695385807
 20
302.8116988020077
 30
0.0
 11
251.7636695385807
 21
296.8116988020075
 31
0.0
  0
LINE
  5
36A4
330
1F
100
AcDbEntity
  8
太線
100
AcDbLine
 10
251.7636695385807
 20
301.9422531032136
 30
0.0
 11
258.9823727360499
 21
301.9422531032136
 31
0.0
  0
LINE
  5
36A5
330
1F
100
AcDbEntity
  8
太線
100
AcDbLine
 10
263.9823727360499
 20
301.9422531032136
 30
0.0
 11
269.4025204937784
 21
301.9422531032136
 31
0.0
  0
LINE
  5
36A6
330
1F
100
AcDbEntity
  8
太線
100
AcDbLine
 10
251.7636695385807
 20
297.4197200465845
 30
0.0
 11
258.9823727360499
 21
297.4197200465845
 31
0.0
  0
LINE
  5
36A7
330
1F
100
AcDbEntity
  8
太線
100
AcDbLine
 10
263.9823727360499
 20
297.4197200465845
 30
0.0
 11
269.4025204937784
 21
297.4197200465845
 31
0.0
  0
LINE
  5
36A8
330
1F
100
AcDbEntity
  8
太線
100
AcDbLine
 10
251.7636695385807
 20
247.8116988020077
 30
0.0
 11
251.7636695385807
 21
241.8116988020077
 31
0.0
  0
LINE
  5
36A9
330
1F
100
AcDbEntity
  8
太線
100
AcDbLine
 10
251.7636695385807
 20
247.1253007430707
 30
0.0
 11
258.9823727360499
 21
247.1253007430707
 31
0.0
  0
LINE
  5
36AA
330
1F
100
AcDbEntity
  8
太線
100
AcDbLine
 10
263.9823727360499
 20
247.1253007430707
 30
0.0
 11
269.4025204937784
 21
247.1253007430707
 31
0.0
  0
LINE
  5
36AC
330
1F
100
AcDbEntity
  8
太線
100
AcDbLine
 10
251.7636695385807
 20
242.3443375115038
 30
0.0
 11
258.9823727360499
 21
242.3443375115038
 31
0.0
  0
LINE
  5
36AD
330
1F
100
AcDbEntity
  8
太線
100
AcDbLine
 10
263.9823727360499
 20
242.3443375115038
 30
0.0
 11
269.4025204937784
 21
242.3443375115038
 31
0.0
  0
DIMENSION
  5
3745
330
1F
100
AcDbEntity
  8
寸法線
100
AcDbDimension
  2
*D5
 10
195.3483213402145
 20
295.8729339700251
 30
0.0
 11
191.8483213402144
 21
284.8950482870551
 31
0.0
 70
    33
  1
5.5
 71
     5
 42
6.678830603706956
  3
sunpo
100
AcDbAlignedDimension
 13
238.7962621226733
 23
302.5517645737321
 33
0.0
 14
238.7962621226733
 24
295.8729339700251
 34
0.0
1001
ACAD
1000
DSTYLE
1002
{
1070
    40
1040
1.0
1002
}
  0
DIMENSION
  5
376A
330
1F
100
AcDbEntity
  8
寸法線
100
AcDbDimension
  2
*D6
 10
310.0954466949655
 20
293.6466574188237
 30
0.0
 11
306.5954466949654
 21
277.0240621546321
 31
0.0
 70
    32
  1
10mm六角
 71
     5
 42
11.68795379401262
  3
sunpo
100
AcDbAlignedDimension
 13
263.86238270932
 23
305.3346112128363
 33
0.0
 14
262.7483320842778
 24
293.6466574188237
 34
0.0
 50
90.0
100
AcDbRotatedDimension
1001
ACAD
1000
DSTYLE
1002
{
1070
    40
1040
1.0
1002
}
  0
DIMENSION
  5
37A8
330
1F
100
AcDbEntity
  8
寸法線
100
AcDbDimension
  2
*D7
 10
270.1748471827268
 20
123.8335221572509
 30
0.0
 11
266.2150412766695
 21
123.8335221572509
 31
0.0
 70
   160
  1
10
 71
     5
 42
8.224212640738869
  3
sunpo
100
AcDbAlignedDimension
 13
261.9506345419879
 23
139.0510880359954
 33
0.0
 14
270.1748471827268
 24
139.0510880359954
 34
0.0
100
AcDbRotatedDimension
1001
ACAD
1000
DSTYLE
1002
{
1070
    40
1040
1.0
1002
}
  0
LINE
  5
37F4
330
1F
100
AcDbEntity
  8
太線
100
AcDbLine
 10
93.42927386467556
 20
144.0676865354208
 30
0.0
 11
87.81544471779772
 21
144.0676865354208
 31
0.0
  0
LINE
  5
37F5
330
1F
100
AcDbEntity
  8
太線
100
AcDbLine
 10
93.26416094525086
 20
139.9432478279338
 30
0.0
 11
87.98055651349306
 21
139.9432478279338
 31
0.0
  0
LINE
  5
37F6
330
1F
100
AcDbEntity
  8
太線
100
AcDbLine
 10
72.42578858249828
 20
144.087416199994
 30
0.0
 11
69.66236401913954
 21
144.087416199994
 31
0.0
  0
LINE
  5
37F7
330
1F
100
AcDbEntity
  8
太線
100
AcDbLine
 10
69.66236401913954
 20
144.087416199994
 30
0.0
 11
68.1550407127769
 21
144.087416199994
 31
0.0
  0
LINE
  5
37F8
330
1F
100
AcDbEntity
  8
太線
100
AcDbLine
 10
68.1550407127769
 20
144.087416199994
 30
0.0
 11
67.65259998523254
 21
145.0914756105108
 31
0.0
  0
LINE
  5
37F9
330
1F
100
AcDbEntity
  8
太線
100
AcDbLine
 10
67.4013790595958
 20
145.0914756105108
 30
0.0
 11
67.4013790595958
 21
139.0671166049277
 31
0.0
  0
LINE
  5
37FB
330
1F
100
AcDbEntity
  8
太線
100
AcDbLine
 10
72.36912340806554
 20
139.6827819320527
 30
0.0
 11
67.33613196438534
 21
139.9342251929912
 31
0.0
  0
XLINE
  5
37FC
330
1F
100
AcDbEntity
  8
構築線
100
AcDbXline
 10
57.44231320052286
 20
272.3116988020076
 30
0.0
 11
1.0
 21
0.0
 31
0.0
  0
XLINE
  5
37FD
330
1F
100
AcDbEntity
  8
構築線
100
AcDbXline
 10
232.678878756085
 20
150.5229971651974
 30
0.0
 11
0.0
 21
1.0
 31
0.0
  0
LINE
  5
3814
330
1F
100
AcDbEntity
  8
太線
100
AcDbLine
 10
87.78348382584098
 20
144.8616988020076
 30
0.0
 11
83.88294203362693
 21
144.8616988020076
 31
0.0
  0
LINE
  5
3816
330
1F
100
AcDbEntity
  8
太線
100
AcDbLine
 10
87.783483825841
 20
139.3616988020076
 30
0.0
 11
83.88294203362693
 21
139.3616988020076
 31
0.0
  0
DIMENSION
  5
3882
330
1F
100
AcDbEntity
  8
寸法線
100
AcDbDimension
  2
*D8
 10
222.1375386762956
 20
142.000846390434
 30
0.0
 11
218.6375386762956
 21
136.2620127141722
 31
0.0
 70
    32
  1
11
 71
     5
 42
11.47766735252366
  3
sunpo
100
AcDbAlignedDimension
 13
211.9267067802127
 23
130.5231790379103
 33
0.0
 14
211.9267067802127
 24
142.000846390434
 34
0.0
 50
90.0
100
AcDbRotatedDimension
1001
ACAD
1000
DSTYLE
1002
{
1070
    40
1040
1.0
1002
}
  0
ARC
  5
38A3
330
1F
100
AcDbEntity
  8
破線
100
AcDbCircle
 10
47.25208369424083
 20
191.1039276396374
 30
0.0
 40
25.51453227097006
100
AcDbArc
 50
54.01897339708031
 51
125.9810266029196
  0
ARC
  5
38A4
330
1F
100
AcDbEntity
  8
破線
100
AcDbCircle
 10
47.05316064188257
 20
194.4937983904362
 30
0.0
 40
20.05494671398419
100
AcDbArc
 50
49.25288883713545
 51
128.9582280560769
  0
ARC
  5
38A5
330
1F
100
AcDbEntity
  8
破線
100
AcDbCircle
 10
47.25208369424089
 20
224.5949527678918
 30
0.0
 40
19.74043606764334
100
AcDbArc
 50
220.5916019544362
 51
319.4083980455634
  0
ARC
  5
38A6
330
1F
100
AcDbEntity
  8
破線
100
AcDbCircle
 10
72.43254270680487
 20
204.7566887614902
 30
0.0
 40
12.35942286673825
100
AcDbArc
 50
34.46310753478527
 51
145.5368924652148
  0
LINE
  5
38AA
330
1F
100
AcDbEntity
  8
太線
100
AcDbLine
 10
98.24231320052286
 20
153.5116988020077
 30
0.0
 11
98.24231320052287
 21
157.3116988020077
 31
0.0
  0
LINE
  5
38AC
330
1F
100
AcDbEntity
  8
太線
100
AcDbLine
 10
86.24231320052286
 20
158.3116988020076
 30
0.0
 11
86.24231320052286
 21
187.3116988020076
 31
0.0
  0
LINE
  5
38AD
330
1F
100
AcDbEntity
  8
太線
100
AcDbLine
 10
85.24231320052285
 20
198.4930844625265
 30
0.0
 11
82.91119324695683
 21
198.4930844625266
 31
0.0
  0
LINE
  5
38AE
330
1F
100
AcDbEntity
  8
太線
100
AcDbLine
 10
81.91119324695682
 20
187.3116988020077
 30
0.0
 11
81.91119324695682
 21
158.3116988020077
 31
0.0
  0
LINE
  5
38AF
330
1F
100
AcDbEntity
  8
太線
100
AcDbLine
 10
81.91119324695682
 20
158.3116988020077
 30
0.0
 11
73.56083790129524
 21
158.3116988020076
 31
0.0
  0
LINE
  5
38B0
330
1F
100
AcDbEntity
  8
太線
100
AcDbLine
 10
86.24231320052286
 20
158.3116988020077
 30
0.0
 11
97.24231320052288
 21
158.3116988020077
 31
0.0
  0
LINE
  5
38CD
330
1F
100
AcDbEntity
  8
破線
100
AcDbLine
 10
81.91119324695682
 20
158.3116988020077
 30
0.0
 11
81.91119324695682
 21
212.4570901448913
 31
0.0
  0
LINE
  5
38CE
330
1F
100
AcDbEntity
  8
破線
100
AcDbLine
 10
82.62277221308687
 20
127.1116988020077
 30
0.0
 11
82.62277221308687
 21
85.74938135817502
 31
0.0
  0
LINE
  5
38D6
330
1F
100
AcDbEntity
  8
太線
100
AcDbLine
 10
55.66283299747943
 20
186.0321015061608
 30
0.0
 11
55.66283299747943
 21
180.0321015061609
 31
0.0
  0
LINE
  5
38D7
330
1F
100
AcDbEntity
  8
太線
100
AcDbLine
 10
55.66283299747943
 20
180.0321015061609
 30
0.0
 11
58.44087179701296
 21
182.0321015061608
 31
0.0
  0
LINE
  5
38D8
330
1F
100
AcDbEntity
  8
太線
100
AcDbLine
 10
55.66283299747943
 20
186.0321015061608
 30
0.0
 11
58.44087179701296
 21
184.0321015061608
 31
0.0
  0
LINE
  5
38E1
330
1F
100
AcDbEntity
  8
太線
100
AcDbLine
 10
63.40200875932101
 20
184.0321015061608
 30
0.0
 11
75.17456711346017
 21
184.0321015061608
 31
0.0
  0
LINE
  5
38E2
330
1F
100
AcDbEntity
  8
太線
100
AcDbLine
 10
63.40200875932101
 20
182.0321015061608
 30
0.0
 11
75.17456711346017
 21
182.0321015061608
 31
0.0
  0
LINE
  5
38E3
330
1F
100
AcDbEntity
  8
太線
100
AcDbLine
 10
75.17456711346017
 20
184.0321015061608
 30
0.0
 11
79.14780630061045
 21
183.0321015061608
 31
0.0
  0
LINE
  5
38E4
330
1F
100
AcDbEntity
  8
太線
100
AcDbLine
 10
79.14780630061045
 20
183.0321015061608
 30
0.0
 11
75.17456711346017
 21
182.0321015061608
 31
0.0
  0
LINE
  5
38E6
330
1F
100
AcDbEntity
  8
太線
100
AcDbLine
 10
64.35855687934918
 20
184.3844345007733
 30
0.0
 11
65.23267263536149
 21
181.6393823579227
 31
0.0
  0
LINE
  5
38E7
330
1F
100
AcDbEntity
  8
太線
100
AcDbLine
 10
65.48241945248719
 20
184.3844345007733
 30
0.0
 11
66.35653520849951
 21
181.6393823579227
 31
0.0
  0
LINE
  5
38E8
330
1F
100
AcDbEntity
  8
太線
100
AcDbLine
 10
66.60628455372102
 20
184.3844345007733
 30
0.0
 11
67.48040030973334
 21
181.6393823579227
 31
0.0
  0
LINE
  5
38E9
330
1F
100
AcDbEntity
  8
太線
100
AcDbLine
 10
67.73014712685903
 20
184.3844345007733
 30
0.0
 11
68.60426288287135
 21
181.6393823579227
 31
0.0
  0
LINE
  5
38EC
330
1F
100
AcDbEntity
  8
太線
100
AcDbLine
 10
67.73402143406315
 20
184.3472223379374
 30
0.0
 11
67.57638579670015
 21
184.0637033655282
 31
0.0
  0
LINE
  5
38ED
330
1F
100
AcDbEntity
  8
太線
100
AcDbLine
 10
66.56752125691037
 20
184.3787242090019
 30
0.0
 11
66.47294012730208
 21
184.0322007835209
 31
0.0
  0
LINE
  5
38EE
330
1F
100
AcDbEntity
  8
太線
100
AcDbLine
 10
65.49560347341389
 20
184.3472223379374
 30
0.0
 11
65.33796783605066
 21
184.0322007835209
 31
0.0
  0
LINE
  5
38EF
330
1F
100
AcDbEntity
  8
太線
100
AcDbLine
 10
64.32910329626088
 20
184.3787242090019
 30
0.0
 11
64.20299554479925
 21
184.0322007835209
 31
0.0
  0
LINE
  5
38F0
330
1F
100
AcDbEntity
  8
太線
100
AcDbLine
 10
67.51333128894521
 20
181.638040098104
 30
0.0
 11
67.6079124185535
 21
182.0475679766568
 31
0.0
  0
LINE
  5
38F1
330
1F
100
AcDbEntity
  8
太線
100
AcDbLine
 10
66.37835899769379
 20
181.6695426801112
 30
0.0
 11
66.53599463505702
 21
182.0160661055922
 31
0.0
  0
LINE
  5
38F2
330
1F
100
AcDbEntity
  8
太線
100
AcDbLine
 10
65.24338670644238
 20
181.6695426801112
 30
0.0
 11
65.40102234380561
 21
181.9845635235849
 31
0.0
  0
LINE
  5
38F3
330
1F
100
AcDbEntity
  8
太線
100
AcDbLine
 10
75.30050421843816
 20
184.0006989124564
 30
0.0
 11
75.96257086164815
 21
182.9611293469561
 31
0.0
  0
LINE
  5
38F4
330
1F
100
AcDbEntity
  8
太線
100
AcDbLine
 10
75.96257086164815
 20
182.9611293469561
 30
0.0
 11
78.92610997326255
 21
183.0556356710925
 31
0.0
  0
LINE
  5
38F5
330
1F
100
AcDbEntity
  8
太線
100
AcDbLine
 10
68.61677695834328
 20
181.638040098104
 30
0.0
 11
68.71135808795156
 21
182.0160661055922
 31
0.0
  0
LINE
  5
38F6
330
1F
100
AcDbEntity
  8
太線
100
AcDbLine
 10
72.23850967001135
 20
184.3844345007733
 30
0.0
 11
73.11262542602367
 21
181.6393823579227
 31
0.0
  0
LINE
  5
38F7
330
1F
100
AcDbEntity
  8
太線
100
AcDbLine
 10
69.75174924959469
 20
181.6695426801112
 30
0.0
 11
69.90938488695793
 21
181.9845635235849
 31
0.0
  0
LINE
  5
38F8
330
1F
100
AcDbEntity
  8
太線
100
AcDbLine
 10
70.88672154084611
 20
181.6695426801112
 30
0.0
 11
71.04435717820933
 21
182.0160661055922
 31
0.0
  0
LINE
  5
38F9
330
1F
100
AcDbEntity
  8
太線
100
AcDbLine
 10
72.02169383209753
 20
181.638040098104
 30
0.0
 11
72.11627496170581
 21
182.0475679766568
 31
0.0
  0
LINE
  5
38FA
330
1F
100
AcDbEntity
  8
太線
100
AcDbLine
 10
68.8374658394132
 20
184.3787242090019
 30
0.0
 11
68.71135808795156
 21
184.0322007835209
 31
0.0
  0
LINE
  5
38FB
330
1F
100
AcDbEntity
  8
太線
100
AcDbLine
 10
70.00396601656621
 20
184.3472223379374
 30
0.0
 11
69.84633037920298
 21
184.0322007835209
 31
0.0
  0
LINE
  5
38FC
330
1F
100
AcDbEntity
  8
太線
100
AcDbLine
 10
71.07588380006268
 20
184.3787242090019
 30
0.0
 11
70.9813026704544
 21
184.0322007835209
 31
0.0
  0
LINE
  5
38FD
330
1F
100
AcDbEntity
  8
太線
100
AcDbLine
 10
72.24238397721546
 20
184.3472223379374
 30
0.0
 11
72.08474833985246
 21
184.0637033655282
 31
0.0
  0
LINE
  5
38FE
330
1F
100
AcDbEntity
  8
太線
100
AcDbLine
 10
71.11464709687334
 20
184.3844345007733
 30
0.0
 11
71.98876285288566
 21
181.6393823579227
 31
0.0
  0
LINE
  5
38FF
330
1F
100
AcDbEntity
  8
太線
100
AcDbLine
 10
69.99078199563951
 20
184.3844345007733
 30
0.0
 11
70.86489775165182
 21
181.6393823579227
 31
0.0
  0
LINE
  5
3900
330
1F
100
AcDbEntity
  8
太線
100
AcDbLine
 10
68.86691942250149
 20
184.3844345007733
 30
0.0
 11
69.74103517851381
 21
181.6393823579227
 31
0.0
  0
LINE
  5
3901
330
1F
100
AcDbEntity
  8
太線
100
AcDbLine
 10
73.12513950149559
 20
181.638040098104
 30
0.0
 11
73.21972063110388
 21
182.0160661055922
 31
0.0
  0
LINE
  5
3902
330
1F
100
AcDbEntity
  8
太線
100
AcDbLine
 10
73.38459167937617
 20
184.4474389538451
 30
0.0
 11
74.25870743538848
 21
181.7023868109945
 31
0.0
  0
LINE
  5
3903
330
1F
100
AcDbEntity
  8
太線
100
AcDbLine
 10
73.34582838256551
 20
184.4417286620737
 30
0.0
 11
73.25124725295722
 21
184.0952052365927
 31
0.0
  0
LINE
  5
3904
330
1F
100
AcDbEntity
  8
太線
100
AcDbLine
 10
73.15666612334894
 20
181.732547133183
 30
0.0
 11
73.31430176071217
 21
182.079070558664
 31
0.0
  0
LINE
  5
3905
330
1F
100
AcDbEntity
  8
太線
100
AcDbLine
 10
75.39508408399843
 20
181.7010445511758
 30
0.0
 11
75.48966521360672
 21
182.079070558664
 31
0.0
  0
LINE
  5
3906
330
1F
100
AcDbEntity
  8
太線
100
AcDbLine
 10
74.5123285597183
 20
184.4102267910092
 30
0.0
 11
74.3546929223553
 21
184.1267078186
 31
0.0
  0
LINE
  5
3907
330
1F
100
AcDbEntity
  8
太線
100
AcDbLine
 10
74.29163841460035
 20
181.7010445511758
 30
0.0
 11
74.38621954420864
 21
182.1105724297286
 31
0.0
  0
LINE
  5
3908
330
1F
100
AcDbEntity
  8
太線
100
AcDbLine
 10
74.50845425251419
 20
184.4474389538451
 30
0.0
 11
75.3825700085265
 21
181.7023868109945
 31
0.0
  0
LINE
  5
3909
330
1F
100
AcDbEntity
  8
想像線
100
AcDbLine
 10
55.80819725659194
 20
184.5379547566029
 30
0.0
 11
56.25297025173381
 21
183.4269027463259
 31
0.0
  0
LINE
  5
390A
330
1F
100
AcDbEntity
  8
想像線
100
AcDbLine
 10
56.25297025173381
 20
183.4269027463259
 30
0.0
 11
56.92012848039849
 21
183.4269027463259
 31
0.0
  0
LINE
  5
390B
330
1F
100
AcDbEntity
  8
想像線
100
AcDbLine
 10
56.92012848039849
 20
183.4269027463259
 30
0.0
 11
56.92012848039849
 21
182.7602716823482
 31
0.0
  0
LINE
  5
390C
330
1F
100
AcDbEntity
  8
想像線
100
AcDbLine
 10
56.92012848039849
 20
182.7602716823482
 30
0.0
 11
56.3641622364712
 21
182.7602716823482
 31
0.0
  0
LINE
  5
390D
330
1F
100
AcDbEntity
  8
想像線
100
AcDbLine
 10
56.3641622364712
 20
182.7602716823482
 30
0.0
 11
55.69700400780653
 21
181.7603243754391
 31
0.0
  0
LINE
  5
393E
330
1F
100
AcDbEntity
  8
想像線
100
AcDbLine
 10
81.91119324695682
 20
185.0321015061608
 30
0.0
 11
86.24231320052286
 21
185.0321015061608
 31
0.0
  0
LINE
  5
393F
330
1F
100
AcDbEntity
  8
想像線
100
AcDbLine
 10
81.91119324695682
 20
181.0321015061608
 30
0.0
 11
86.24231320052286
 21
181.0321015061608
 31
0.0
  0
LINE
  5
3967
330
1F
100
AcDbEntity
  8
太線
100
AcDbLine
 10
63.40200875932101
 20
184.0321015061608
 30
0.0
 11
58.44087179701296
 21
184.0321015061608
 31
0.0
  0
LINE
  5
3968
330
1F
100
AcDbEntity
  8
太線
100
AcDbLine
 10
58.44087179701296
 20
182.0321015061608
 30
0.0
 11
63.40200875932101
 21
182.0321015061608
 31
0.0
  0
LINE
  5
3969
330
1F
100
AcDbEntity
  8
太線
100
AcDbLine
 10
58.44087179701296
 20
184.0321015061608
 30
0.0
 11
58.44087179701296
 21
182.0321015061608
 31
0.0
  0
LINE
  5
396A
330
1F
100
AcDbEntity
  8
太線
100
AcDbLine
 10
61.00576049791198
 20
184.3844345007733
 30
0.0
 11
61.87987625392429
 21
181.6393823579227
 31
0.0
  0
LINE
  5
396B
330
1F
100
AcDbEntity
  8
太線
100
AcDbLine
 10
58.75803282354013
 20
184.3844345007733
 30
0.0
 11
59.63214857955245
 21
181.6393823579227
 31
0.0
  0
LINE
  5
396C
330
1F
100
AcDbEntity
  8
太線
100
AcDbLine
 10
59.88189539667814
 20
184.3844345007733
 30
0.0
 11
60.75601115269046
 21
181.6393823579227
 31
0.0
  0
LINE
  5
396D
330
1F
100
AcDbEntity
  8
太線
100
AcDbLine
 10
60.96699720110132
 20
184.3787242090019
 30
0.0
 11
60.87241607149303
 21
184.0322007835209
 31
0.0
  0
LINE
  5
396E
330
1F
100
AcDbEntity
  8
太線
100
AcDbLine
 10
59.89507941760485
 20
184.3472223379374
 30
0.0
 11
59.73744378024162
 21
184.0322007835209
 31
0.0
  0
LINE
  5
396F
330
1F
100
AcDbEntity
  8
太線
100
AcDbLine
 10
58.72857924045184
 20
184.3787242090019
 30
0.0
 11
58.6024714889902
 21
184.0322007835209
 31
0.0
  0
LINE
  5
3970
330
1F
100
AcDbEntity
  8
太線
100
AcDbLine
 10
60.77783494188475
 20
181.6695426801112
 30
0.0
 11
60.93547057924798
 21
182.0160661055922
 31
0.0
  0
LINE
  5
3971
330
1F
100
AcDbEntity
  8
太線
100
AcDbLine
 10
59.64286265063333
 20
181.6695426801112
 30
0.0
 11
59.80049828799656
 21
181.9845635235849
 31
0.0
  0
LINE
  5
3972
330
1F
100
AcDbEntity
  8
太線
100
AcDbLine
 10
63.01625290253423
 20
181.638040098104
 30
0.0
 11
63.11083403214252
 21
182.0160661055922
 31
0.0
  0
LINE
  5
3973
330
1F
100
AcDbEntity
  8
太線
100
AcDbLine
 10
63.23694178360415
 20
184.3787242090019
 30
0.0
 11
63.11083403214252
 21
184.0322007835209
 31
0.0
  0
LINE
  5
3974
330
1F
100
AcDbEntity
  8
太線
100
AcDbLine
 10
63.26639536669245
 20
184.3844345007733
 30
0.0
 11
64.14051112270477
 21
181.6393823579227
 31
0.0
  0
LINE
  5
3975
330
1F
100
AcDbEntity
  8
太線
100
AcDbLine
 10
62.1334973782541
 20
184.3472223379374
 30
0.0
 11
61.9758617408911
 21
184.0637033655282
 31
0.0
  0
LINE
  5
3976
330
1F
100
AcDbEntity
  8
太線
100
AcDbLine
 10
61.91280723313616
 20
181.638040098104
 30
0.0
 11
62.00738836274445
 21
182.0475679766568
 31
0.0
  0
LINE
  5
3977
330
1F
100
AcDbEntity
  8
太線
100
AcDbLine
 10
62.12962307104999
 20
184.3844345007733
 30
0.0
 11
63.00373882706231
 21
181.6393823579227
 31
0.0
  0
LINE
  5
3978
330
1F
100
AcDbEntity
  8
太線
100
AcDbLine
 10
64.27335877824908
 20
181.5832200174018
 30
0.0
 11
64.43657645170151
 21
181.9909428124376
 31
0.0
  0
LINE
  5
3979
330
1F
100
AcDbEntity
  8
太線
100
AcDbLine
 10
58.72394903252734
 20
181.746308851039
 30
0.0
 11
58.72394903252734
 21
183.9480109489132
 31
0.0
  0
LINE
  5
397E
330
1F
100
AcDbEntity
  8
太線
100
AcDbLine
 10
98.24231320052286
 20
308.4921578145716
 30
0.0
 11
98.24231320052286
 21
295.3116988020076
 31
0.0
  0
LINE
  5
3980
330
1F
100
AcDbEntity
  8
太線
100
AcDbLine
 10
97.24231320052286
 20
309.4921578145716
 30
0.0
 11
86.24231320052286
 21
309.4921578145717
 31
0.0
  0
LINE
  5
3981
330
1F
100
AcDbEntity
  8
太線
100
AcDbLine
 10
86.24231320052286
 20
309.4921578145717
 30
0.0
 11
86.24231320052286
 21
235.0622221231154
 31
0.0
  0
LINE
  5
3982
330
1F
100
AcDbEntity
  8
太線
100
AcDbLine
 10
86.24231320052286
 20
235.0622221231154
 30
0.0
 11
97.24231320052286
 21
235.0622221231154
 31
0.0
  0
LINE
  5
3983
330
1F
100
AcDbEntity
  8
太線
100
AcDbLine
 10
81.42277221308686
 20
309.4921578145717
 30
0.0
 11
86.24231320052286
 21
309.4921578145717
 31
0.0
  0
LINE
  5
3984
330
1F
100
AcDbEntity
  8
太線
100
AcDbLine
 10
81.42277221308686
 20
235.0622221231154
 30
0.0
 11
86.24231320052286
 21
235.0622221231154
 31
0.0
  0
LINE
  5
3985
330
1F
100
AcDbEntity
  8
太線
100
AcDbLine
 10
82.62277221308687
 20
286.2896987990239
 30
0.0
 11
82.62277221308687
 21
258.3336988049915
 31
0.0
  0
XLINE
  5
398B
330
1F
100
AcDbEntity
  8
構築線
100
AcDbXline
 10
81.91119324695682
 20
299.6921578145716
 30
0.0
 11
1.0
 21
0.0
 31
0.0
  0
XLINE
  5
398C
330
1F
100
AcDbEntity
  8
構築線
100
AcDbXline
 10
81.91119324695682
 20
244.8622221231154
 30
0.0
 11
1.0
 21
0.0
 31
0.0
  0
LINE
  5
398D
330
1F
100
AcDbEntity
  8
想像線
100
AcDbLine
 10
86.24231320052286
 20
304.6921578145717
 30
0.0
 11
82.62277221308687
 21
304.6921578145717
 31
0.0
  0
LINE
  5
398E
330
1F
100
AcDbEntity
  8
想像線
100
AcDbLine
 10
86.24231320052286
 20
299.6921578145716
 30
0.0
 11
82.62277221308687
 21
299.6921578145716
 31
0.0
  0
LINE
  5
398F
330
1F
100
AcDbEntity
  8
想像線
100
AcDbLine
 10
86.24231320052286
 20
244.8622221231154
 30
0.0
 11
82.62277221308687
 21
244.8622221231154
 31
0.0
  0
LINE
  5
3990
330
1F
100
AcDbEntity
  8
想像線
100
AcDbLine
 10
86.24231320052286
 20
239.8622221231154
 30
0.0
 11
82.62277221308687
 21
239.8622221231154
 31
0.0
  0
ARC
  5
3991
330
1F
100
AcDbEntity
  8
太線
100
AcDbCircle
 10
97.24231320052286
 20
308.4921578145716
 30
0.0
 40
1.0
100
AcDbArc
 50
0.0
 51
90.0
  0
ARC
  5
3992
330
1F
100
AcDbEntity
  8
太線
100
AcDbCircle
 10
97.24231320052286
 20
236.0622221231154
 30
0.0
 40
1.0
100
AcDbArc
 50
270.0
 51
0.0
  0
ARC
  5
3993
330
1F
100
AcDbEntity
  8
破線
100
AcDbCircle
 10
222.6816178121778
 20
195.00751376302
 30
0.0
 40
25.51453227097006
100
AcDbArc
 50
54.01897339708031
 51
125.9810266029196
  0
ARC
  5
3994
330
1F
100
AcDbEntity
  8
破線
100
AcDbCircle
 10
222.4826947598195
 20
198.3973845138188
 30
0.0
 40
20.05494671398419
100
AcDbArc
 50
49.25288883713545
 51
128.9582280560769
  0
ARC
  5
3995
330
1F
100
AcDbEntity
  8
破線
100
AcDbCircle
 10
222.6816178121778
 20
228.4985388912744
 30
0.0
 40
19.74043606764334
100
AcDbArc
 50
220.5916019544362
 51
319.4083980455634
  0
ARC
  5
3996
330
1F
100
AcDbEntity
  8
破線
100
AcDbCircle
 10
247.8620768247418
 20
208.6602748848728
 30
0.0
 40
12.35942286673825
100
AcDbArc
 50
34.46310753478527
 51
145.5368924652148
  0
LINE
  5
3997
330
1F
100
AcDbEntity
  8
破線
100
AcDbLine
 10
258.0523063310238
 20
215.267381428647
 30
0.0
 11
258.0523063310238
 21
198.3116988020077
 31
0.0
  0
LINE
  5
3998
330
1F
100
AcDbEntity
  8
破線
100
AcDbLine
 10
207.6223706395674
 20
215.267381428647
 30
0.0
 11
207.6223706395674
 21
198.3116988020076
 31
0.0
  0
XLINE
  5
399B
330
1F
100
AcDbEntity
  8
構築線
100
AcDbXline
 10
258.0523063310237
 20
153.5116988020077
 30
0.0
 11
1.0
 21
0.0
 31
0.0
  0
LINE
  5
399C
330
1F
100
AcDbEntity
  8
太線
100
AcDbLine
 10
207.6223706395674
 20
153.5116988020076
 30
0.0
 11
196.6223706395675
 21
153.5116988020077
 31
0.0
  0
LINE
  5
399D
330
1F
100
AcDbEntity
  8
太線
100
AcDbLine
 10
195.6223706395675
 20
164.5116988020077
 30
0.0
 11
195.6223706395675
 21
195.3116988020076
 31
0.0
  0
LINE
  5
399E
330
1F
100
AcDbEntity
  8
太線
100
AcDbLine
 10
198.6223706395675
 20
198.3116988020076
 30
0.0
 11
267.0523063310238
 21
198.3116988020077
 31
0.0
  0
LINE
  5
399F
330
1F
100
AcDbEntity
  8
太線
100
AcDbLine
 10
270.0523063310238
 20
195.3116988020076
 30
0.0
 11
270.0523063310238
 21
164.5116988020077
 31
0.0
  0
LINE
  5
39A0
330
1F
100
AcDbEntity
  8
太線
100
AcDbLine
 10
269.0523063310239
 20
153.5116988020077
 30
0.0
 11
258.0523063310238
 21
153.5116988020077
 31
0.0
  0
LINE
  5
39A1
330
1F
100
AcDbEntity
  8
太線
100
AcDbLine
 10
258.0523063310237
 20
153.5116988020077
 30
0.0
 11
207.6223706395674
 21
153.5116988020077
 31
0.0
  0
LINE
  5
39A2
330
1F
100
AcDbEntity
  8
太線
100
AcDbLine
 10
195.6223706395675
 20
158.3116988020076
 30
0.0
 11
270.0523063310238
 21
158.3116988020076
 31
0.0
  0
CIRCLE
  5
39A9
330
1F
100
AcDbEntity
  8
太線
100
AcDbCircle
 10
262.9611667133306
 20
183.3116988020076
 30
0.0
 40
2.5
  0
CIRCLE
  5
39AA
330
1F
100
AcDbEntity
  8
太線
100
AcDbCircle
 10
203.5111714249389
 20
183.3116988020076
 30
0.0
 40
2.5
  0
LINE
  5
39B2
102
{ACAD_REACTORS
330
39B4
102
}
330
1F
100
AcDbEntity
  8
想像線
100
AcDbLine
 10
92.1379115716752
 20
201.6388909713833
 30
0.0
 11
122.1379115716752
 21
201.6388909713833
 31
0.0
  0
LINE
  5
39B3
102
{ACAD_REACTORS
330
39B4
102
}
330
1F
100
AcDbEntity
  8
想像線
100
AcDbLine
 10
122.1379115716752
 20
161.6388909713833
 30
0.0
 11
92.1379115716752
 21
161.6388909713833
 31
0.0
  0
HATCH
  5
39B4
330
1F
100
AcDbEntity
  8
太線
100
AcDbHatch
 10
0.0
 20
0.0
 30
0.0
210
0.0
220
0.0
230
1.0
  2
DOTS
 70
     0
 71
     1
 91
        1
 92
        7
 72
     0
 73
     1
 93
        4
 10
122.1379115716751
 20
201.6388909713833
 10
92.13791157167518
 20
201.6388909713833
 10
92.1379115716752
 20
161.6388909713834
 10
122.1379115716752
 20
161.6388909713834
 97
        4
330
39B2
330
39B5
330
39B3
330
39BD
 75
     0
 76
     1
 52
0.0
 41
1.0
 77
     0
 78
     1
 53
0.0
 43
5.895598371152345
 44
3.327192169375706
 45
0.79375
 46
1.587499999999999
 79
     2
 49
0.0
 49
-1.587499999999999
 47
0.2421968821364848
 98
        1
 10
121.7756897862639
 20
178.4859617543057
  0
LINE
  5
39B5
102
{ACAD_REACTORS
330
39B4
102
}
330
1F
100
AcDbEntity
  8
想像線
100
AcDbLine
 10
92.1379115716752
 20
161.6388909713833
 30
0.0
 11
92.1379115716752
 21
201.6388909713833
 31
0.0
  0
LINE
  5
39BD
102
{ACAD_REACTORS
330
39B4
102
}
330
1F
100
AcDbEntity
  8
想像線
100
AcDbLine
 10
122.1379115716752
 20
201.6388909713833
 30
0.0
 11
122.1379115716752
 21
161.6388909713833
 31
0.0
  0
ARC
  5
39BF
330
1F
100
AcDbEntity
  8
太線
100
AcDbCircle
 10
198.6223706395675
 20
195.3116988020076
 30
0.0
 40
3.0
100
AcDbArc
 50
90.0
 51
180.0
  0
ARC
  5
39C0
330
1F
100
AcDbEntity
  8
太線
100
AcDbCircle
 10
267.0523063310238
 20
195.3116988020076
 30
0.0
 40
3.0
100
AcDbArc
 50
0.0
 51
90.0
  0
ARC
  5
39C1
330
1F
100
AcDbEntity
  8
太線
100
AcDbCircle
 10
269.0523063310239
 20
154.5116988020077
 30
0.0
 40
1.0
100
AcDbArc
 50
270.0
 51
0.0
  0
ARC
  5
39C2
330
1F
100
AcDbEntity
  8
太線
100
AcDbCircle
 10
196.6223706395675
 20
154.5116988020077
 30
0.0
 40
1.0
100
AcDbArc
 50
180.0
 51
269.9999999999998
  0
ARC
  5
39C3
330
1F
100
AcDbEntity
  8
太線
100
AcDbCircle
 10
97.24231320052288
 20
157.3116988020077
 30
0.0
 40
1.0
100
AcDbArc
 50
0.0
 51
90.0000000000001
  0
ARC
  5
39C4
330
1F
100
AcDbEntity
  8
太線
100
AcDbCircle
 10
85.24231320052285
 20
197.4930844625265
 30
0.0
 40
1.0
100
AcDbArc
 50
0.0
 51
90.0
  0
ARC
  5
39C5
330
1F
100
AcDbEntity
  8
太線
100
AcDbCircle
 10
82.91119324695683
 20
197.4930844625266
 30
0.0
 40
1.0
100
AcDbArc
 50
90.0
 51
180.0
  0
ARC
  5
39C6
330
1F
100
AcDbEntity
  8
太線
100
AcDbCircle
 10
81.62277221308688
 20
152.5116988020077
 30
0.0
 40
1.0
100
AcDbArc
 50
0.0
 51
89.99999999999984
  0
ARC
  5
39C7
330
1F
100
AcDbEntity
  8
太線
100
AcDbCircle
 10
81.62277221308688
 20
131.7116988020076
 30
0.0
 40
1.0
100
AcDbArc
 50
269.9999999999997
 51
0.0
  0
LINE
  5
39C9
330
1F
100
AcDbEntity
  8
太線
100
AcDbLine
 10
86.24231320052286
 20
130.7116988020076
 30
0.0
 11
81.62277221308688
 21
130.7116988020076
 31
0.0
  0
ARC
  5
39CA
330
1F
100
AcDbEntity
  8
太線
100
AcDbCircle
 10
97.24231320052286
 20
308.4921578145716
 30
0.0
 40
1.0
100
AcDbArc
 50
0.0
 51
89.99999999999969
  0
ARC
  5
39CB
330
1F
100
AcDbEntity
  8
太線
100
AcDbCircle
 10
97.24231320052286
 20
236.0622221231154
 30
0.0
 40
1.0
100
AcDbArc
 50
270.0
 51
0.0
  0
DIMENSION
  5
3A59
330
1F
100
AcDbEntity
  8
寸法線
100
AcDbDimension
  2
*D9
 10
293.7349258136825
 20
181.5215918230529
 30
0.0
 11
290.2349258136825
 21
177.2668829520651
 31
0.0
 70
    32
  1
8
 71
     5
 42
8.509417741975653
  3
sunpo
100
AcDbAlignedDimension
 13
265.8208983891577
 23
173.0121740810773
 33
0.0
 14
265.8208983891577
 24
181.5215918230529
 34
0.0
 50
90.0
100
AcDbRotatedDimension
1001
ACAD
1000
DSTYLE
1002
{
1070
    40
1040
1.0
1002
}
  0
DIMENSION
  5
3A67
330
1F
100
AcDbEntity
  8
寸法線
100
AcDbDimension
  2
*D10
 10
263.4553032922722
 20
173.0845197974157
 30
0.0
 11
266.7671370880714
 21
176.5845197974157
 31
0.0
 70
    32
  1
8
 71
     5
 42
6.623667591598405
  3
sunpo
100
AcDbAlignedDimension
 13
270.0789708838706
 23
183.0121740810773
 33
0.0
 14
263.4553032922722
 24
183.0121740810773
 34
0.0
100
AcDbRotatedDimension
1001
ACAD
1000
DSTYLE
1002
{
1070
    40
1040
1.0
1002
}
  0
DIMENSION
  5
3AB7
330
1F
100
AcDbEntity
  8
寸法線
100
AcDbDimension
  2
*D11
 10
82.72380488224575
 20
224.1240476141854
 30
0.0
 11
77.51949434877872
 21
227.6240476141854
 31
0.0
 70
    32
  1
10
 71
     5
 42
10.40862106693407
  3
sunpo
100
AcDbAlignedDimension
 13
72.31518381531168
 23
239.2519017966256
 33
0.0
 14
82.72380488224575
 24
239.2519017966256
 34
0.0
100
AcDbRotatedDimension
1001
ACAD
1000
DSTYLE
1002
{
1070
    40
1040
1.0
1002
}
  0
DIMENSION
  5
3AC5
330
1F
100
AcDbEntity
  8
寸法線
100
AcDbDimension
  2
*D12
 10
86.50875703726274
 20
336.1647140474841
 30
0.0
 11
94.75875703726273
 21
336.1647140474841
 31
0.0
 70
   160
  1
4
 71
     5
 42
4.258071174394217
  3
sunpo
100
AcDbAlignedDimension
 13
82.25068586286852
 23
309.2182250339415
 33
0.0
 14
86.50875703726274
 24
309.2182250339415
 34
0.0
100
AcDbRotatedDimension
1001
ACAD
1000
DSTYLE
1002
{
1070
    40
1040
1.0
1002
}
  0
DIMENSION
  5
3AD4
330
1F
100
AcDbEntity
  8
寸法線
100
AcDbDimension
  2
*D13
 10
98.33673516232806
 20
328.1280418194038
 30
0.0
 11
92.4227460997954
 21
331.628533945388
 31
0.0
 70
    32
  1
12
 71
     5
 42
11.82797812506532
  3
sunpo
100
AcDbAlignedDimension
 13
86.50875703726274
 23
309.2182250339415
 33
0.0
 14
98.33673516232806
 24
305.436261676849
 34
0.0
100
AcDbRotatedDimension
1001
ACAD
1000
DSTYLE
1002
{
1070
    40
1040
1.0
1070
   279
1070
     1
1002
}
  0
LINE
  5
3B2A
330
1F
100
AcDbEntity
  8
太線
100
AcDbLine
 10
86.24231320052286
 20
187.3116988020076
 30
0.0
 11
86.24231320052286
 21
197.4930844625265
 31
0.0
  0
LINE
  5
3B2B
330
1F
100
AcDbEntity
  8
太線
100
AcDbLine
 10
81.91119324695682
 20
188.3116988020076
 30
0.0
 11
81.91119324695682
 21
197.4930844625266
 31
0.0
  0
LINE
  5
3B51
330
1F
100
AcDbEntity
  8
太線
100
AcDbLine
 10
195.6223706395675
 20
164.5116988020077
 30
0.0
 11
195.6223706395675
 21
154.4964111448355
 31
0.0
  0
LINE
  5
3B52
330
1F
100
AcDbEntity
  8
太線
100
AcDbLine
 10
270.0523063310238
 20
164.5116988020077
 30
0.0
 11
270.0523063310238
 21
154.5116988020077
 31
0.0
  0
LINE
  5
3B60
330
1F
100
AcDbEntity
  8
太線
100
AcDbLine
 10
72.36083790129524
 20
157.1116988020076
 30
0.0
 11
72.36083790129521
 21
131.9116988020077
 31
0.0
  0
LINE
  5
3B61
330
1F
100
AcDbEntity
  8
太線
100
AcDbLine
 10
86.24231320052286
 20
147.7408639266065
 30
0.0
 11
86.24231320052286
 21
158.3116988020076
 31
0.0
  0
DIMENSION
  5
3B97
330
1F
100
AcDbEntity
  8
寸法線
100
AcDbDimension
  2
*D14
 10
179.310568172337
 20
153.4377875444809
 30
0.0
 11
175.8100760463527
 21
141.6745525010406
 31
0.0
 70
    32
 71
     5
 42
23.52647008688063
  3
sunpo
100
AcDbAlignedDimension
 13
200.7175090587834
 23
129.9113174576002
 33
0.0
 14
200.7175090587834
 24
153.4377875444809
 34
0.0
 50
90.0
100
AcDbRotatedDimension
1001
ACAD
1000
DSTYLE
1002
{
1070
    40
1040
1.0
1002
}
  0
DIMENSION
  5
3BA4
330
1F
100
AcDbEntity
  8
寸法線
100
AcDbDimension
  2
*D15
 10
179.310568172337
 20
158.2500200306629
 30
0.0
 11
175.810568172337
 21
155.8439037875719
 31
0.0
 70
    32
  1
4
 71
     5
 42
4.812232486181983
  3
sunpo
100
AcDbAlignedDimension
 13
200.7175090587834
 23
153.4377875444809
 33
0.0
 14
198.0416412881165
 24
158.2500200306628
 34
0.0
 50
90.0
100
AcDbRotatedDimension
1001
ACAD
1000
DSTYLE
1002
{
1070
    40
1040
1.0
1070
   279
1070
     1
1002
}
  0
DIMENSION
  5
3BB6
330
1F
100
AcDbEntity
  8
寸法線
100
AcDbDimension
  2
*D16
 10
179.310568172337
 20
198.3519583421247
 30
0.0
 11
175.810568172337
 21
178.3009891863938
 31
0.0
 70
    32
  1
40
 71
     5
 42
40.10193831146182
  3
sunpo
100
AcDbAlignedDimension
 13
198.0416412881165
 23
158.2500200306628
 33
0.0
 14
196.9712944356274
 24
198.3519583421247
 34
0.0
 50
90.0
100
AcDbRotatedDimension
1001
ACAD
1000
DSTYLE
1002
{
1070
    40
1040
1.0
1070
   279
1070
     1
1002
}
  0
LEADER
  5
3BF0
330
1F
100
AcDbEntity
  8
寸法線
100
AcDbLeader
  3
sunpo
 76
     2
 10
108.6889208098944
 20
196.8969576388673
 30
0.0
 10
134.0842799661425
 20
220.577989365185
 30
0.0
1001
ACAD
1000
DSTYLE
1002
{
1070
   147
1040
1.0
1070
    77
1070
     0
1002
}
  0
TEXT
  5
3BF1
330
1F
100
AcDbEntity
  8
文字
100
AcDbText
 10
134.0842799661425
 20
223.9609936989563
 30
0.0
 40
4.799999999999999
  1
木材
 51
15.0
  7
OKANO
100
AcDbText
  0
LINE
  5
3C09
330
1F
100
AcDbEntity
  8
太線
100
AcDbLine
 10
98.24231320052284
 20
153.5116988020077
 30
0.0
 11
121.2423132005228
 21
153.5116988020077
 31
0.0
  0
LINE
  5
3C0A
330
1F
100
AcDbEntity
  8
太線
100
AcDbLine
 10
121.2423132005228
 20
153.5116988020077
 30
0.0
 11
121.2423132005228
 21
157.3116988020076
 31
0.0
  0
LINE
  5
3C0B
330
1F
100
AcDbEntity
  8
太線
100
AcDbLine
 10
120.2423132005228
 20
158.3116988020076
 30
0.0
 11
97.24231320052288
 21
158.3116988020076
 31
0.0
  0
ARC
  5
3C0D
330
1F
100
AcDbEntity
  8
太線
100
AcDbCircle
 10
98.24231320052286
 20
272.3116988020076
 30
0.0
 40
23.0
100
AcDbArc
 50
270.0
 51
90.0
  0
XLINE
  5
3C0E
330
1F
100
AcDbEntity
  8
構築線
100
AcDbXline
 10
108.2423132005228
 20
153.5116988020077
 30
0.0
 11
0.0
 21
-1.0
 31
0.0
  0
CIRCLE
  5
3C0F
330
1F
100
AcDbEntity
  8
構築線
100
AcDbCircle
 10
108.2423132005228
 20
272.3116988020076
 30
0.0
 40
10.5
  0
CIRCLE
  5
3C10
330
1F
100
AcDbEntity
  8
構築線
100
AcDbCircle
 10
108.2423132005228
 20
272.3116988020076
 30
0.0
 40
5.25
  0
CIRCLE
  5
3C11
330
1F
100
AcDbEntity
  8
太線
100
AcDbCircle
 10
108.2423132005228
 20
272.3116988020076
 30
0.0
 40
5.25
  0
CIRCLE
  5
3C19
330
1F
100
AcDbEntity
  8
太線
100
AcDbCircle
 10
108.2423132005228
 20
287.3116988020076
 30
0.0
 40
2.0
  0
CIRCLE
  5
3C1A
330
1F
100
AcDbEntity
  8
太線
100
AcDbCircle
 10
108.2423132005228
 20
257.3116988020077
 30
0.0
 40
2.0
  0
LINE
  5
3C1B
330
1F
100
AcDbEntity
  8
太線
100
AcDbLine
 10
98.24231320052286
 20
249.3116988020076
 30
0.0
 11
98.24231320052286
 21
236.0622221231154
 31
0.0
  0
ARC
  5
3C1C
330
1F
100
AcDbEntity
  8
太線
100
AcDbCircle
 10
120.2423132005228
 20
157.3116988020076
 30
0.0
 40
1.0
100
AcDbArc
 50
0.0
 51
90.0
  0
LINE
  5
3C22
330
1F
100
AcDbEntity
  8
想像線
100
AcDbLine
 10
113.4923132005228
 20
158.3116988020076
 30
0.0
 11
113.4923132005228
 21
153.5116988020077
 31
0.0
  0
LINE
  5
3C23
330
1F
100
AcDbEntity
  8
想像線
100
AcDbLine
 10
102.9923132005228
 20
158.3116988020076
 30
0.0
 11
102.9923132005228
 21
153.5116988020077
 31
0.0
  0
LINE
  5
3C24
330
1F
100
AcDbEntity
  8
想像線
100
AcDbLine
 10
110.2423132005228
 20
158.3116988020077
 30
0.0
 11
110.2423132005228
 21
153.5116988020076
 31
0.0
  0
LINE
  5
3C25
330
1F
100
AcDbEntity
  8
想像線
100
AcDbLine
 10
106.2423132005228
 20
158.3116988020076
 30
0.0
 11
106.2423132005228
 21
153.5116988020077
 31
0.0
  0
LINE
  5
3C32
330
1F
100
AcDbEntity
  8
想像線
100
AcDbLine
 10
255.678878756085
 20
158.3116988020076
 30
0.0
 11
255.678878756085
 21
153.5116988020077
 31
0.0
  0
LINE
  5
3C33
330
1F
100
AcDbEntity
  8
想像線
100
AcDbLine
 10
209.678878756085
 20
158.3116988020076
 30
0.0
 11
209.678878756085
 21
153.5116988020077
 31
0.0
  0
LINE
  5
3C34
330
1F
100
AcDbEntity
  8
想像線
100
AcDbLine
 10
215.678878756085
 20
158.3116988020076
 30
0.0
 11
215.678878756085
 21
153.5116988020077
 31
0.0
  0
LINE
  5
3C35
330
1F
100
AcDbEntity
  8
想像線
100
AcDbLine
 10
219.678878756085
 20
158.3116988020076
 30
0.0
 11
219.678878756085
 21
153.5116988020077
 31
0.0
  0
LINE
  5
3C36
330
1F
100
AcDbEntity
  8
想像線
100
AcDbLine
 10
227.428878756085
 20
158.3116988020076
 30
0.0
 11
227.428878756085
 21
153.5116988020077
 31
0.0
  0
LINE
  5
3C37
330
1F
100
AcDbEntity
  8
想像線
100
AcDbLine
 10
237.928878756085
 20
158.3116988020076
 30
0.0
 11
237.928878756085
 21
153.5116988020077
 31
0.0
  0
LINE
  5
3C38
330
1F
100
AcDbEntity
  8
想像線
100
AcDbLine
 10
245.678878756085
 20
158.3116988020076
 30
0.0
 11
245.678878756085
 21
153.5116988020077
 31
0.0
  0
LINE
  5
3C39
330
1F
100
AcDbEntity
  8
想像線
100
AcDbLine
 10
249.678878756085
 20
158.3116988020076
 30
0.0
 11
249.678878756085
 21
153.5116988020077
 31
0.0
  0
LINE
  5
3C3A
330
1F
100
AcDbEntity
  8
太線
100
AcDbLine
 10
255.678878756085
 20
158.3116988020076
 30
0.0
 11
255.678878756085
 21
153.5116988020077
 31
0.0
  0
LINE
  5
3C3B
330
1F
100
AcDbEntity
  8
太線
100
AcDbLine
 10
209.678878756085
 20
158.3116988020076
 30
0.0
 11
209.678878756085
 21
153.5116988020077
 31
0.0
  0
LINE
  5
3C3C
330
1F
100
AcDbEntity
  8
太線
100
AcDbLine
 10
270.0523063310238
 20
147.5017515462206
 30
0.0
 11
270.0523063310238
 21
158.3116988020076
 31
0.0
  0
LINE
  5
3C3D
330
1F
100
AcDbEntity
  8
太線
100
AcDbLine
 10
195.6223706395675
 20
147.5017515462206
 30
0.0
 11
195.6223706395675
 21
158.2500200306628
 31
0.0
  0
DIMENSION
  5
3C5A
330
1F
100
AcDbEntity
  8
寸法線
100
AcDbDimension
  2
*D17
 10
106.29781021932
 20
286.8438225832347
 30
0.0
 11
132.02869621742
 21
293.035054873875
 31
0.0
 70
   163
 71
     5
 42
3.999999999999971
  3
sunpo
100
AcDbDiametricDimension
 15
110.1868161817256
 25
287.7795750207805
 35
0.0
 40
0.0
1001
ACAD
1000
DSTYLE
1002
{
1070
    40
1040
1.0
1070
   288
1070
     1
1002
}
  0
DIMENSION
  5
3C66
330
1F
100
AcDbEntity
  8
寸法線
100
AcDbDimension
  2
*D18
 10
204.813032326889
 20
181.1774171448748
 30
0.0
 11
182.2510267890235
 21
218.165757831244
 31
0.0
 70
   163
 71
     5
 42
5.000000000000014
  3
sunpo
100
AcDbDiametricDimension
 15
202.2093105229887
 25
185.4459804591404
 35
0.0
 40
0.0
1001
ACAD
1000
DSTYLE
1002
{
1070
    40
1040
1.0
1070
   288
1070
     1
1002
}
  0
DIMENSION
  5
3C72
330
1F
100
AcDbEntity
  8
寸法線
100
AcDbDimension
  2
*D19
 10
103.1527740606453
 20
271.0236416046538
 30
0.0
 11
142.1541662281099
 21
280.8940881239692
 31
0.0
 70
   163
 71
     5
 42
10.5
  3
sunpo
100
AcDbDiametricDimension
 15
113.3318523404003
 25
273.5997559993616
 35
0.0
 40
0.0
1001
ACAD
1000
DSTYLE
1002
{
1070
    40
1040
1.0
1070
   288
1070
     1
1002
}
  0
DIMENSION
  5
3CAA
330
1F
100
AcDbEntity
  8
寸法線
100
AcDbDimension
  2
*D20
 10
98.24231320052286
 20
223.8315423145333
 30
0.0
 11
92.24231320052286
 21
227.3320344405176
 31
0.0
 70
    32
 71
     5
 42
12.0
  3
sunpo
100
AcDbAlignedDimension
 13
86.24231320052286
 23
235.0622221231154
 33
0.0
 14
98.24231320052286
 24
236.0622221231154
 34
0.0
100
AcDbRotatedDimension
1001
ACAD
1000
DSTYLE
1002
{
1070
    40
1040
1.0
1002
}
  0
DIMENSION
  5
3CB7
330
1F
100
AcDbEntity
  8
寸法線
100
AcDbDimension
  2
*D21
 10
121.4982067248836
 20
223.8315423145333
 30
0.0
 11
109.8702599627032
 21
227.3320344405176
 31
0.0
 70
    32
  1
23
 71
     5
 42
23.25589352436077
  3
sunpo
100
AcDbAlignedDimension
 13
98.24231320052286
 23
236.0622221231154
 33
0.0
 14
121.4982067248836
 24
272.3954107040758
 34
0.0
100
AcDbRotatedDimension
1001
ACAD
1000
DSTYLE
1002
{
1070
    40
1040
1.0
1070
   279
1070
     1
1002
}
  0
DIMENSION
  5
3CCD
330
1F
100
AcDbEntity
  8
寸法線
100
AcDbDimension
  2
*D22
 10
121.0931884598565
 20
320.5545802019546
 30
0.0
 11
114.6677508301896
 21
324.0545802019546
 31
0.0
 70
    32
  1
13
 71
     5
 42
12.85087525933363
  3
sunpo
100
AcDbAlignedDimension
 13
108.2423132005228
 23
272.3116988020076
 33
0.0
 14
121.0931884598565
 24
272.3116988020076
 34
0.0
100
AcDbRotatedDimension
1001
ACAD
1000
DSTYLE
1002
{
1070
    40
1040
1.0
1002
}
  0
DIMENSION
  5
3CE4
330
1F
100
AcDbEntity
  8
寸法線
100
AcDbDimension
  2
*D23
 10
269.7541673574999
 20
229.6150048835027
 30
0.0
 11
232.9099295722954
 21
233.1150048835027
 31
0.0
 70
    32
  1
74
 71
     5
 42
73.68847557040886
  3
sunpo
100
AcDbAlignedDimension
 13
196.065691787091
 23
194.965463924752
 33
0.0
 14
269.7541673574999
 24
194.965463924752
 34
0.0
100
AcDbRotatedDimension
1001
ACAD
1000
DSTYLE
1002
{
1070
    40
1040
1.0
1002
}
  0
LINE
  5
3D01
330
1F
100
AcDbEntity
  8
太線
100
AcDbLine
 10
108.1933075007659
 20
146.4157606682135
 30
0.0
 11
108.0988011766295
 21
149.379299779828
 31
0.0
  0
LINE
  5
3D02
330
1F
100
AcDbEntity
  8
太線
100
AcDbLine
 10
108.1223353415611
 20
149.6009961071758
 30
0.0
 11
109.1223353415611
 21
145.6277569200256
 31
0.0
  0
LINE
  5
3D03
330
1F
100
AcDbEntity
  8
太線
100
AcDbLine
 10
107.1223353415611
 20
145.6277569200256
 30
0.0
 11
108.1223353415611
 21
149.6009961071758
 31
0.0
  0
LINE
  5
3D04
330
1F
100
AcDbEntity
  8
太線
100
AcDbLine
 10
106.7700023469487
 20
132.5828128776154
 30
0.0
 11
109.5150544897993
 21
133.4569286336277
 31
0.0
  0
LINE
  5
3D05
330
1F
100
AcDbEntity
  8
太線
100
AcDbLine
 10
109.1223353415611
 20
128.8940616035783
 30
0.0
 11
109.1223353415611
 21
133.8551985658864
 31
0.0
  0
LINE
  5
3D06
330
1F
100
AcDbEntity
  8
太線
100
AcDbLine
 10
107.1223353415611
 20
133.8551985658864
 30
0.0
 11
107.1223353415611
 21
128.8940616035783
 31
0.0
  0
LINE
  5
3D07
330
1F
100
AcDbEntity
  8
太線
100
AcDbLine
 10
106.8072145097846
 20
132.5866871848195
 30
0.0
 11
107.0907334821938
 21
132.4290515474565
 31
0.0
  0
LINE
  5
3D08
330
1F
100
AcDbEntity
  8
太線
100
AcDbLine
 10
106.7757126387201
 20
129.1817690470172
 30
0.0
 11
107.1222360642011
 21
129.0556612955556
 31
0.0
  0
LINE
  5
3D09
330
1F
100
AcDbEntity
  8
太線
100
AcDbLine
 10
106.8072145097846
 20
130.3482692241702
 30
0.0
 11
107.1222360642011
 21
130.190633586807
 31
0.0
  0
LINE
  5
3D0A
330
1F
100
AcDbEntity
  8
太線
100
AcDbLine
 10
106.7757126387201
 20
131.4201870076667
 30
0.0
 11
107.1222360642011
 21
131.3256058780584
 31
0.0
  0
LINE
  5
3D0B
330
1F
100
AcDbEntity
  8
太線
100
AcDbLine
 10
106.7700023469487
 20
130.3350852032435
 30
0.0
 11
109.5150544897993
 21
131.2092009592559
 31
0.0
  0
LINE
  5
3D0C
330
1F
100
AcDbEntity
  8
太線
100
AcDbLine
 10
106.7700023469487
 20
129.2112226301055
 30
0.0
 11
109.5150544897993
 21
130.0853383861178
 31
0.0
  0
LINE
  5
3D0D
330
1F
100
AcDbEntity
  8
太線
100
AcDbLine
 10
106.7700023469487
 20
131.4589503044774
 30
0.0
 11
109.5150544897993
 21
132.3330660604897
 31
0.0
  0
LINE
  5
3D0E
330
1F
100
AcDbEntity
  8
想像線
100
AcDbLine
 10
106.6164820911191
 20
126.2613870631573
 30
0.0
 11
107.7275341013961
 21
126.7061600582992
 31
0.0
  0
LINE
  5
3D0F
330
1F
100
AcDbEntity
  8
太線
100
AcDbLine
 10
105.1223353415611
 20
126.1160228040448
 30
0.0
 11
107.1223353415611
 21
128.8940616035783
 31
0.0
  0
LINE
  5
3D10
330
1F
100
AcDbEntity
  8
太線
100
AcDbLine
 10
105.1223353415611
 20
126.1160228040448
 30
0.0
 11
111.1223353415611
 21
126.1160228040448
 31
0.0
  0
LINE
  5
3D11
330
1F
100
AcDbEntity
  8
太線
100
AcDbLine
 10
111.1223353415611
 20
126.1160228040448
 30
0.0
 11
109.1223353415611
 21
128.8940616035783
 31
0.0
  0
LINE
  5
3D12
330
1F
100
AcDbEntity
  8
想像線
100
AcDbLine
 10
108.3941651653738
 20
126.8173520430366
 30
0.0
 11
109.3941124722829
 21
126.1501938143719
 31
0.0
  0
LINE
  5
3D13
330
1F
100
AcDbEntity
  8
想像線
100
AcDbLine
 10
108.3941651653738
 20
127.3733182869639
 30
0.0
 11
108.3941651653738
 21
126.8173520430366
 31
0.0
  0
LINE
  5
3D14
330
1F
100
AcDbEntity
  8
想像線
100
AcDbLine
 10
107.7275341013961
 20
127.3733182869639
 30
0.0
 11
108.3941651653738
 21
127.3733182869639
 31
0.0
  0
LINE
  5
3D15
330
1F
100
AcDbEntity
  8
想像線
100
AcDbLine
 10
107.7275341013961
 20
126.7061600582992
 30
0.0
 11
107.7275341013961
 21
127.3733182869639
 31
0.0
  0
LINE
  5
3D16
330
1F
100
AcDbEntity
  8
太線
100
AcDbLine
 10
109.408127996683
 20
129.1771388390927
 30
0.0
 11
107.2064258988087
 21
129.1771388390927
 31
0.0
  0
LINE
  5
3D17
330
1F
100
AcDbEntity
  8
太線
100
AcDbLine
 10
109.516396749618
 20
132.3659970397015
 30
0.0
 11
109.1068688710652
 21
132.4605781693098
 31
0.0
  0
LINE
  5
3D18
330
1F
100
AcDbEntity
  8
太線
100
AcDbLine
 10
109.4848941676108
 20
130.0960524571987
 30
0.0
 11
109.1698733241371
 21
130.2536880945619
 31
0.0
  0
LINE
  5
3D19
330
1F
100
AcDbEntity
  8
太線
100
AcDbLine
 10
109.4848941676108
 20
131.2310247484501
 30
0.0
 11
109.1383707421298
 21
131.3886603858134
 31
0.0
  0
LINE
  5
3D1A
330
1F
100
AcDbEntity
  8
太線
100
AcDbLine
 10
107.1223353415611
 20
128.8940616035783
 30
0.0
 11
109.1223353415611
 21
128.8940616035783
 31
0.0
  0
LINE
  5
3D1B
330
1F
100
AcDbEntity
  8
太線
100
AcDbLine
 10
106.7700023469487
 20
133.7195851732578
 30
0.0
 11
109.5150544897993
 21
134.5937009292702
 31
0.0
  0
LINE
  5
3D1C
330
1F
100
AcDbEntity
  8
太線
100
AcDbLine
 10
106.7757126387201
 20
133.6901315901695
 30
0.0
 11
107.1222360642011
 21
133.5640238387079
 31
0.0
  0
LINE
  5
3D1D
330
1F
100
AcDbEntity
  8
太線
100
AcDbLine
 10
106.7069978938769
 20
144.9616440590796
 30
0.0
 11
109.4520500367275
 21
145.8357598150919
 31
0.0
  0
LINE
  5
3D1E
330
1F
100
AcDbEntity
  8
太線
100
AcDbLine
 10
106.7442100567128
 20
144.9655183662837
 30
0.0
 11
107.027729029122
 21
144.8078827289207
 31
0.0
  0
LINE
  5
3D1F
330
1F
100
AcDbEntity
  8
太線
100
AcDbLine
 10
106.7127081856483
 20
143.7990181891309
 30
0.0
 11
107.0592316111293
 21
143.7044370595226
 31
0.0
  0
LINE
  5
3D20
330
1F
100
AcDbEntity
  8
太線
100
AcDbLine
 10
106.7069978938769
 20
143.8377814859416
 30
0.0
 11
109.4520500367275
 21
144.7118972419539
 31
0.0
  0
LINE
  5
3D21
330
1F
100
AcDbEntity
  8
太線
100
AcDbLine
 10
106.7700023469487
 20
139.3201092290669
 30
0.0
 11
109.5150544897993
 21
140.1942249850792
 31
0.0
  0
LINE
  5
3D22
330
1F
100
AcDbEntity
  8
太線
100
AcDbLine
 10
106.7700023469487
 20
140.4439718022049
 30
0.0
 11
109.5150544897993
 21
141.3180875582172
 31
0.0
  0
LINE
  5
3D23
330
1F
100
AcDbEntity
  8
太線
100
AcDbLine
 10
106.7700023469487
 20
141.5678369034387
 30
0.0
 11
109.5150544897993
 21
142.441952659451
 31
0.0
  0
LINE
  5
3D24
330
1F
100
AcDbEntity
  8
太線
100
AcDbLine
 10
106.8072145097846
 20
142.6955737837809
 30
0.0
 11
107.0907334821938
 21
142.5379381464179
 31
0.0
  0
LINE
  5
3D25
330
1F
100
AcDbEntity
  8
太線
100
AcDbLine
 10
106.7757126387201
 20
141.5290736066281
 30
0.0
 11
107.1222360642011
 21
141.4344924770198
 31
0.0
  0
LINE
  5
3D26
330
1F
100
AcDbEntity
  8
太線
100
AcDbLine
 10
106.8072145097846
 20
140.4571558231316
 30
0.0
 11
107.1222360642011
 21
140.2995201857684
 31
0.0
  0
LINE
  5
3D27
330
1F
100
AcDbEntity
  8
太線
100
AcDbLine
 10
106.7757126387201
 20
139.2906556459786
 30
0.0
 11
107.1222360642011
 21
139.1645478945169
 31
0.0
  0
LINE
  5
3D28
330
1F
100
AcDbEntity
  8
太線
100
AcDbLine
 10
106.7700023469487
 20
142.6916994765767
 30
0.0
 11
109.5150544897993
 21
143.5658152325891
 31
0.0
  0
LINE
  5
3D29
330
1F
100
AcDbEntity
  8
太線
100
AcDbLine
 10
106.7757126387201
 20
134.7822931028263
 30
0.0
 11
107.1222360642011
 21
134.6561853513646
 31
0.0
  0
LINE
  5
3D2A
330
1F
100
AcDbEntity
  8
太線
100
AcDbLine
 10
106.8072145097846
 20
135.9487932799793
 30
0.0
 11
107.1222360642011
 21
135.7911576426161
 31
0.0
  0
LINE
  5
3D2B
330
1F
100
AcDbEntity
  8
太線
100
AcDbLine
 10
106.7757126387201
 20
137.0207110634757
 30
0.0
 11
107.1222360642011
 21
136.9261299338675
 31
0.0
  0
LINE
  5
3D2C
330
1F
100
AcDbEntity
  8
太線
100
AcDbLine
 10
106.8072145097846
 20
138.1872112406285
 30
0.0
 11
107.0907334821938
 21
138.0295756032655
 31
0.0
  0
LINE
  5
3D2D
330
1F
100
AcDbEntity
  8
太線
100
AcDbLine
 10
106.7700023469487
 20
138.1833369334244
 30
0.0
 11
109.5150544897993
 21
139.0574526894367
 31
0.0
  0
LINE
  5
3D2E
330
1F
100
AcDbEntity
  8
太線
100
AcDbLine
 10
106.7700023469487
 20
137.0594743602864
 30
0.0
 11
109.5150544897993
 21
137.9335901162987
 31
0.0
  0
LINE
  5
3D2F
330
1F
100
AcDbEntity
  8
太線
100
AcDbLine
 10
106.7700023469487
 20
135.9356092590526
 30
0.0
 11
109.5150544897993
 21
136.8097250150649
 31
0.0
  0
LINE
  5
3D30
330
1F
100
AcDbEntity
  8
太線
100
AcDbLine
 10
106.7700023469487
 20
134.8117466859146
 30
0.0
 11
109.5150544897993
 21
135.6858624419269
 31
0.0
  0
LINE
  5
3D31
330
1F
100
AcDbEntity
  8
太線
100
AcDbLine
 10
109.1223353415611
 20
133.8551985658864
 30
0.0
 11
109.1223353415611
 21
145.6277569200256
 31
0.0
  0
LINE
  5
3D32
330
1F
100
AcDbEntity
  8
太線
100
AcDbLine
 10
107.1223353415611
 20
133.8551985658864
 30
0.0
 11
107.1223353415611
 21
145.6277569200256
 31
0.0
  0
LINE
  5
3D33
330
1F
100
AcDbEntity
  8
太線
100
AcDbLine
 10
109.4848941676108
 20
136.8315488042592
 30
0.0
 11
109.1383707421298
 21
136.9891844416224
 31
0.0
  0
LINE
  5
3D34
330
1F
100
AcDbEntity
  8
太線
100
AcDbLine
 10
109.5712168303202
 20
134.7265485848145
 30
0.0
 11
109.1634940352844
 21
134.8897662582669
 31
0.0
  0
LINE
  5
3D35
330
1F
100
AcDbEntity
  8
太線
100
AcDbLine
 10
109.516396749618
 20
133.4694427090996
 30
0.0
 11
109.1383707421298
 21
133.5640238387079
 31
0.0
  0
LINE
  5
3D36
330
1F
100
AcDbEntity
  8
太線
100
AcDbLine
 10
109.4848941676108
 20
135.6965765130078
 30
0.0
 11
109.1698733241371
 21
135.854212150371
 31
0.0
  0
LINE
  5
3D37
330
1F
100
AcDbEntity
  8
太線
100
AcDbLine
 10
109.4848941676108
 20
140.2049390561601
 30
0.0
 11
109.1698733241371
 21
140.3625746935233
 31
0.0
  0
LINE
  5
3D38
330
1F
100
AcDbEntity
  8
太線
100
AcDbLine
 10
109.516396749618
 20
139.0699667649087
 30
0.0
 11
109.1383707421298
 21
139.1645478945169
 31
0.0
  0
LINE
  5
3D39
330
1F
100
AcDbEntity
  8
太線
100
AcDbLine
 10
109.516396749618
 20
137.9665210955106
 30
0.0
 11
109.1068688710652
 21
138.0611022251189
 31
0.0
  0
LINE
  5
3D3A
330
1F
100
AcDbEntity
  8
太線
100
AcDbLine
 10
109.4533922965462
 20
144.7448282211657
 30
0.0
 11
109.0438644179934
 21
144.839409350774
 31
0.0
  0
LINE
  5
3D3B
330
1F
100
AcDbEntity
  8
太線
100
AcDbLine
 10
109.421889714539
 20
143.6098559299143
 30
0.0
 11
109.075366289058
 21
143.7674915672775
 31
0.0
  0
LINE
  5
3D3C
330
1F
100
AcDbEntity
  8
太線
100
AcDbLine
 10
109.516396749618
 20
143.578329308061
 30
0.0
 11
109.1383707421298
 21
143.6729104376693
 31
0.0
  0
LINE
  5
3D3D
330
1F
100
AcDbEntity
  8
太線
100
AcDbLine
 10
109.516396749618
 20
142.4748836386629
 30
0.0
 11
109.1068688710652
 21
142.5694647682712
 31
0.0
  0
LINE
  5
3D3E
330
1F
100
AcDbEntity
  8
太線
100
AcDbLine
 10
109.4848941676108
 20
141.3399113474115
 30
0.0
 11
109.1383707421298
 21
141.4975469847747
 31
0.0
  0
LINE
  5
3D3F
330
1F
100
AcDbEntity
  8
太線
100
AcDbLine
 10
109.4533922965462
 20
145.8482738905638
 30
0.0
 11
109.075366289058
 21
145.9428550201721
 31
0.0
  0
LINE
  5
3D40
330
1F
100
AcDbEntity
  8
太線
100
AcDbLine
 10
107.1537379352656
 20
145.7536940250036
 30
0.0
 11
108.1933075007659
 21
146.4157606682135
 31
0.0
  0
XLINE
  5
3D48
330
1F
100
AcDbEntity
  8
構築線
100
AcDbXline
 10
57.44231320052286
 20
272.3116988020076
 30
0.0
 11
0.0
 21
1.0
 31
0.0
  0
VIEWPORT
  5
2E
330
1B
100
AcDbEntity
 67
     1
  8
0
100
AcDbViewport
 10
188.7757941213046
 20
95.76449694820695
 30
0.0
 40
478.6263568188346
 41
229.3097336527536
 68
     1
 69
     1
 12
188.7757941213046
 22
95.76449694820695
 13
0.0
 23
0.0
 14
10.0
 24
10.0
 15
10.0
 25
10.0
 16
0.0
 26
0.0
 36
1.0
 17
0.0
 27
0.0
 37
0.0
 42
50.0
 43
0.0
 44
0.0
 45
229.3097336527536
 50
0.0
 51
0.0
 72
   100
 90
    32800
  1

281
     0
 71
     1
 74
     0
110
0.0
120
0.0
130
0.0
111
1.0
121
0.0
131
0.0
112
0.0
122
1.0
132
0.0
 79
     0
146
0.0
  0
VIEWPORT
  5
30
330
1B
100
AcDbEntity
 67
     1
  8
70-0-CON
100
AcDbViewport
 10
141.8594093064315
 20
100.3480256368386
 30
0.0
 40
261.6199023344245
 41
192.6196987113174
 68
     2
 69
     2
 12
186.8091426385505
 22
190.8669494732881
 13
0.0
 23
0.0
 14
5.0
 24
5.0
 15
10.0
 25
10.0
 16
0.0
 26
0.0
 36
1.0
 17
0.0
 27
0.0
 37
0.0
 42
50.0
 43
0.0
 44
0.0
 45
315.0131100734321
 50
0.0
 51
0.0
 72
   100
 90
    32864
  1

281
     0
 71
     1
 74
     0
110
0.0
120
0.0
130
0.0
111
1.0
121
0.0
131
0.0
112
0.0
122
1.0
132
0.0
 79
     0
146
0.0
  0
LWPOLYLINE
  5
45
330
1B
100
AcDbEntity
 67
     1
  8
50-0-CON
100
AcDbPolyline
 90
        4
 70
     1
 43
0.0
 10
11.04945813921926
 20
4.038176281179858
 10
272.2125713060605
 20
4.033520706629644
 10
273.4987754093466
 20
195.9297862125246
 10
11.04945813921926
 20
196.6578749924973
  0
LINE
  5
4A
330
1B
100
AcDbEntity
 67
     1
  8
50-0-CON
100
AcDbLine
 10
10.38768783662635
 20
100.3480256368386
 30
0.0
 11
-4.391850629656119
 21
100.3480256368386
 31
0.0
  0
LINE
  5
4B
330
1B
100
AcDbEntity
 67
     1
  8
50-0-CON
100
AcDbLine
 10
141.8594093064315
 20
197.098652626247
 30
0.0
 11
141.8594093064315
 21
202.387980773708
 31
0.0
  0
LINE
  5
4C
330
1B
100
AcDbEntity
 67
     1
  8
50-0-CON
100
AcDbLine
 10
272.4487699456857
 20
100.7888032705883
 30
0.0
 11
278.8458837249377
 21
100.7888032705883
 31
0.0
  0
LINE
  5
4D
330
1B
100
AcDbEntity
 67
     1
  8
50-0-CON
100
AcDbLine
 10
140.9770484758805
 20
4.038176281179858
 30
0.0
 11
140.9770484758805
 21
-3.455038652015446
 31
0.0
  0
ENDSEC
  0
SECTION
  2
OBJECTS
  0
DICTIONARY
  5
C
330
0
100
AcDbDictionary
281
     1
  3
ACAD_GROUP
350
D
  3
ACAD_LAYOUT
350
1A
  3
ACAD_MLINESTYLE
350
17
  3
ACAD_PLOTSETTINGS
350
19
  3
ACAD_PLOTSTYLENAME
350
E
  3
AcadDim
350
13D0
  3
AcDbVariableDictionary
350
6AD
  3
DWGPROPS
350
30F
  0
DICTIONARY
  5
D
102
{ACAD_REACTORS
330
C
102
}
330
C
100
AcDbDictionary
281
     1
  0
DICTIONARY
  5
1A
102
{ACAD_REACTORS
330
C
102
}
330
C
100
AcDbDictionary
281
     1
  3
A4
350
1E
  3
Model
350
22
  0
DICTIONARY
  5
17
102
{ACAD_REACTORS
330
C
102
}
330
C
100
AcDbDictionary
281
     1
  3
Standard
350
18
  0
DICTIONARY
  5
19
102
{ACAD_REACTORS
330
C
102
}
330
C
100
AcDbDictionary
281
     1
  0
ACDBDICTIONARYWDFLT
  5
E
102
{ACAD_REACTORS
330
C
102
}
330
C
100
AcDbDictionary
281
     1
  3
Normal
350
F
100
AcDbDictionaryWithDefault
340
F
  0
XRECORD
  5
13D0
102
{ACAD_REACTORS
330
C
102
}
330
C
100
AcDbXrecord
280
     1
 90
   990106
  3

 60
     0
 61
     0
 62
     1
 63
     3
 64
     0
 65
     0
 66
     0
 67
     3
 68
     1
 69
     0
 70
     0
 71
     0
 72
     0
 40
57.22480144243607
170
     0
  0
DICTIONARY
  5
6AD
102
{ACAD_REACTORS
330
C
102
}
330
C
100
AcDbDictionary
281
     1
  3
SORTENTS
350
6AE
  0
XRECORD
  5
30F
102
{ACAD_REACTORS
330
C
102
}
330
C
100
AcDbXrecord
280
     1
  1
DWGPROPS COOKIE
  2

  3

  4

  6

  7

  8

  9

300
=
301
=
302
=
303
=
304
=
305
=
306
=
307
=
308
=
309
=
 40
0.3303803125
 41
2452362.482225463
 42
2452370.969861285
  1

 90
        0
  0
LAYOUT
  5
1E
102
{ACAD_REACTORS
330
1A
102
}
330
1A
100
AcDbPlotSettings
  1

  2
EPSON PM-920C
  4
A4
  6

 40
3.757083177566528
 41
14.7637300491333
 42
3.757080078125
 43
3.757080078125
 44
209.9733276367187
 45
296.9683227539062
 46
0.0
 47
0.0
 48
0.0
 49
0.0
140
0.0
141
0.0
142
1.0
143
1.0
 70
   688
 72
     1
 73
     1
 74
     5
  7
joint.ctb
 75
    16
147
1.0
148
0.0
149
0.0
100
AcDbLayout
  1
A4
 70
     1
 71
     1
 10
-3.757080078125
 20
-3.757083177566528
 11
293.2112426757812
 21
206.2162444591522
 12
0.0
 22
0.0
 32
0.0
 14
-4.391850629656119
 24
-3.455038652015446
 34
0.0
 15
278.8458837249377
 25
202.387980773708
 35
0.0
146
0.0
 13
0.0
 23
0.0
 33
0.0
 16
1.0
 26
0.0
 36
0.0
 17
0.0
 27
1.0
 37
0.0
 76
     0
330
1B
331
2E
  0
LAYOUT
  5
22
102
{ACAD_REACTORS
330
1A
102
}
330
1A
100
AcDbPlotSettings
  1

  2
EPSON PM-920C
  4
A4
  6

 40
3.757083177566528
 41
14.7637300491333
 42
3.757080078125
 43
3.757080078125
 44
209.9733276367187
 45
296.9683227539062
 46
0.0
 47
0.0
 48
0.0
 49
0.0
140
0.0
141
0.0
142
1.0
143
1.0
 70
 11952
 72
     1
 73
     1
 74
     0
  7

 75
     0
147
1.0
148
-45.64199848979289
149
-84.48806419330498
100
AcDbLayout
  1
Model
 70
     1
 71
     0
 10
0.0
 20
0.0
 11
12.0
 21
9.0
 12
0.0
 22
0.0
 32
0.0
 14
0.0
 24
0.0
 34
0.0
 15
0.0
 25
0.0
 35
0.0
146
0.0
 13
0.0
 23
0.0
 33
0.0
 16
1.0
 26
0.0
 36
0.0
 17
0.0
 27
1.0
 37
0.0
 76
     0
330
1F
  0
MLINESTYLE
  5
18
102
{ACAD_REACTORS
330
17
102
}
330
17
100
AcDbMlineStyle
  2
STANDARD
 70
     0
  3

 62
   256
 51
90.0
 52
90.0
 71
     2
 49
0.5
 62
   256
  6
BYLAYER
 49
-0.5
 62
   256
  6
BYLAYER
  0
ACDBPLACEHOLDER
  5
F
102
{ACAD_REACTORS
330
E
102
}
330
E
  0
DICTIONARYVAR
  5
6AE
102
{ACAD_REACTORS
330
6AD
102
}
330
6AD
100
DictionaryVariables
280
     0
  1
96
  0
ENDSEC
  0
EOF
