  0
SECTION
  2
HEADER
  9
$ACADVER
  1
AC1015
  9
$ACADMAINTVER
 70
     6
  9
$DWGCODEPAGE
  3
ANSI_932
  9
$INSBASE
 10
0.0
 20
0.0
 30
0.0
  9
$EXTMIN
 10
20.05457165127534
 20
-38.49340787712424
 30
0.0
  9
$EXTMAX
 10
348.196544768897
 20
238.1560189655666
 30
0.0
  9
$LIMMIN
 10
0.0
 20
0.0
  9
$LIMMAX
 10
420.0
 20
297.0
  9
$ORTHOMODE
 70
     0
  9
$REGENMODE
 70
     1
  9
$FILLMODE
 70
     1
  9
$QTEXTMODE
 70
     0
  9
$MIRRTEXT
 70
     1
  9
$LTSCALE
 40
1.0
  9
$ATTMODE
 70
     1
  9
$TEXTSIZE
 40
5.0
  9
$TRACEWID
 40
1.0
  9
$TEXTSTYLE
  7
OKANO
  9
$CLAYER
  8
太線
  9
$CELTYPE
  6
ByLayer
  9
$CECOLOR
 62
   256
  9
$CELTSCALE
 40
1.0
  9
$DISPSILH
 70
     0
  9
$DIMSCALE
 40
0.0
  9
$DIMASZ
 40
3.0
  9
$DIMEXO
 40
2.0
  9
$DIMDLI
 40
8.0
  9
$DIMRND
 40
0.0
  9
$DIMDLE
 40
0.0
  9
$DIMEXE
 40
3.0
  9
$DIMTP
 40
0.0
  9
$DIMTM
 40
0.0
  9
$DIMTXT
 40
5.0
  9
$DIMCEN
 40
2.5
  9
$DIMTSZ
 40
0.0
  9
$DIMTOL
 70
     0
  9
$DIMLIM
 70
     0
  9
$DIMTIH
 70
     0
  9
$DIMTOH
 70
     0
  9
$DIMSE1
 70
     0
  9
$DIMSE2
 70
     0
  9
$DIMTAD
 70
     1
  9
$DIMZIN
 70
     8
  9
$DIMBLK
  1
Closed
  9
$DIMASO
 70
     1
  9
$DIMSHO
 70
     1
  9
$DIMPOST
  1

  9
$DIMAPOST
  1

  9
$DIMALT
 70
     0
  9
$DIMALTD
 70
     3
  9
$DIMALTF
 40
0.03937007874016
  9
$DIMLFAC
 40
1.0
  9
$DIMTOFL
 70
     1
  9
$DIMTVP
 40
0.0
  9
$DIMTIX
 70
     0
  9
$DIMSOXD
 70
     0
  9
$DIMSAH
 70
     0
  9
$DIMBLK1
  1

  9
$DIMBLK2
  1

  9
$DIMSTYLE
  2
sunpo
  9
$DIMCLRD
 70
     0
  9
$DIMCLRE
 70
     0
  9
$DIMCLRT
 70
     0
  9
$DIMTFAC
 40
1.0
  9
$DIMGAP
 40
1.0
  9
$DIMJUST
 70
     0
  9
$DIMSD1
 70
     0
  9
$DIMSD2
 70
     0
  9
$DIMTOLJ
 70
     0
  9
$DIMTZIN
 70
     8
  9
$DIMALTZ
 70
     0
  9
$DIMALTTZ
 70
     0
  9
$DIMUPT
 70
     0
  9
$DIMDEC
 70
     2
  9
$DIMTDEC
 70
     2
  9
$DIMALTU
 70
     2
  9
$DIMALTTD
 70
     3
  9
$DIMTXSTY
  7
OKANO
  9
$DIMAUNIT
 70
     0
  9
$DIMADEC
 70
     0
  9
$DIMALTRND
 40
0.0
  9
$DIMAZIN
 70
     0
  9
$DIMDSEP
 70
    46
  9
$DIMATFIT
 70
     3
  9
$DIMFRAC
 70
     0
  9
$DIMLDRBLK
  1
Closed
  9
$DIMLUNIT
 70
     2
  9
$DIMLWD
 70
    -2
  9
$DIMLWE
 70
    -2
  9
$DIMTMOVE
 70
     0
  9
$LUNITS
 70
     2
  9
$LUPREC
 70
     2
  9
$SKETCHINC
 40
1.0
  9
$FILLETRAD
 40
1.0
  9
$AUNITS
 70
     0
  9
$AUPREC
 70
     0
  9
$MENU
  1
.
  9
$ELEVATION
 40
0.0
  9
$PELEVATION
 40
0.0
  9
$THICKNESS
 40
0.0
  9
$LIMCHECK
 70
     0
  9
$CHAMFERA
 40
10.0
  9
$CHAMFERB
 40
10.0
  9
$CHAMFERC
 40
20.0
  9
$CHAMFERD
 40
0.0
  9
$SKPOLY
 70
     0
  9
$TDCREATE
 40
2452362.482225463
  9
$TDUCREATE
 40
2452362.107225463
  9
$TDUPDATE
 40
2455957.565695266
  9
$TDUUPDATE
 40
2455957.190695266
  9
$TDINDWG
 40
2.1528287616
  9
$TDUSRTIMER
 40
2.1528287616
  9
$USRTIMER
 70
     1
  9
$ANGBASE
 50
0.0
  9
$ANGDIR
 70
     0
  9
$PDMODE
 70
     0
  9
$PDSIZE
 40
0.0
  9
$PLINEWID
 40
0.0
  9
$SPLFRAME
 70
     0
  9
$SPLINETYPE
 70
     6
  9
$SPLINESEGS
 70
     8
  9
$HANDSEED
  5
2F8B
  9
$SURFTAB1
 70
     6
  9
$SURFTAB2
 70
     6
  9
$SURFTYPE
 70
     6
  9
$SURFU
 70
     6
  9
$SURFV
 70
     6
  9
$UCSBASE
  2

  9
$UCSNAME
  2

  9
$UCSORG
 10
0.0
 20
0.0
 30
0.0
  9
$UCSXDIR
 10
1.0
 20
0.0
 30
0.0
  9
$UCSYDIR
 10
0.0
 20
1.0
 30
0.0
  9
$UCSORTHOREF
  2

  9
$UCSORTHOVIEW
 70
     0
  9
$UCSORGTOP
 10
0.0
 20
0.0
 30
0.0
  9
$UCSORGBOTTOM
 10
0.0
 20
0.0
 30
0.0
  9
$UCSORGLEFT
 10
0.0
 20
0.0
 30
0.0
  9
$UCSORGRIGHT
 10
0.0
 20
0.0
 30
0.0
  9
$UCSORGFRONT
 10
0.0
 20
0.0
 30
0.0
  9
$UCSORGBACK
 10
0.0
 20
0.0
 30
0.0
  9
$PUCSBASE
  2

  9
$PUCSNAME
  2

  9
$PUCSORG
 10
0.0
 20
0.0
 30
0.0
  9
$PUCSXDIR
 10
1.0
 20
0.0
 30
0.0
  9
$PUCSYDIR
 10
0.0
 20
1.0
 30
0.0
  9
$PUCSORTHOREF
  2

  9
$PUCSORTHOVIEW
 70
     0
  9
$PUCSORGTOP
 10
0.0
 20
0.0
 30
0.0
  9
$PUCSORGBOTTOM
 10
0.0
 20
0.0
 30
0.0
  9
$PUCSORGLEFT
 10
0.0
 20
0.0
 30
0.0
  9
$PUCSORGRIGHT
 10
0.0
 20
0.0
 30
0.0
  9
$PUCSORGFRONT
 10
0.0
 20
0.0
 30
0.0
  9
$PUCSORGBACK
 10
0.0
 20
0.0
 30
0.0
  9
$USERI1
 70
     0
  9
$USERI2
 70
     0
  9
$USERI3
 70
     0
  9
$USERI4
 70
     0
  9
$USERI5
 70
     0
  9
$USERR1
 40
0.0
  9
$USERR2
 40
0.0
  9
$USERR3
 40
0.0
  9
$USERR4
 40
0.0
  9
$USERR5
 40
0.0
  9
$WORLDVIEW
 70
     1
  9
$SHADEDGE
 70
     3
  9
$SHADEDIF
 70
    70
  9
$TILEMODE
 70
     0
  9
$MAXACTVP
 70
    64
  9
$PINSBASE
 10
0.0
 20
0.0
 30
0.0
  9
$PLIMCHECK
 70
     0
  9
$PEXTMIN
 10
-4.391850629656119
 20
-3.455038652015446
 30
0.0
  9
$PEXTMAX
 10
278.8458837249377
 20
202.387980773708
 30
0.0
  9
$PLIMMIN
 10
-3.757080078125
 20
-3.757083177566528
  9
$PLIMMAX
 10
293.2112426757812
 20
206.2162444591522
  9
$UNITMODE
 70
     0
  9
$VISRETAIN
 70
     1
  9
$PLINEGEN
 70
     0
  9
$PSLTSCALE
 70
     1
  9
$TREEDEPTH
 70
  3020
  9
$CMLSTYLE
  2
Standard
  9
$CMLJUST
 70
     0
  9
$CMLSCALE
 40
20.0
  9
$PROXYGRAPHICS
 70
     1
  9
$MEASUREMENT
 70
     1
  9
$CELWEIGHT
370
    -1
  9
$ENDCAPS
280
     0
  9
$JOINSTYLE
280
     0
  9
$LWDISPLAY
290
     0
  9
$INSUNITS
 70
     4
  9
$HYPERLINKBASE
  1

  9
$STYLESHEET
  1

  9
$XEDIT
290
     1
  9
$CEPSNTYPE
380
     0
  9
$PSTYLEMODE
290
     1
  9
$FINGERPRINTGUID
  2
{FF7F33C3-4233-11D6-AEE0-0000F45FD7F4}
  9
$VERSIONGUID
  2
{7B59E623-CB94-4C32-A62A-31BAE69A4F20}
  9
$EXTNAMES
290
     1
  9
$PSVPSCALE
 40
0.0
  9
$OLESTARTUP
290
     0
  0
ENDSEC
  0
SECTION
  2
CLASSES
  0
CLASS
  1
ACDBDICTIONARYWDFLT
  2
AcDbDictionaryWithDefault
  3
AutoCAD 2000
 90
        0
280
     0
281
     0
  0
CLASS
  1
ACDBPLACEHOLDER
  2
AcDbPlaceHolder
  3
AutoCAD 2000
 90
        0
280
     0
281
     0
  0
CLASS
  1
LAYOUT
  2
AcDbLayout
  3
AutoCAD 2000
 90
        0
280
     0
281
     0
  0
CLASS
  1
DICTIONARYVAR
  2
AcDbDictionaryVar
  3
AutoCAD 2000
 90
        0
280
     0
281
     0
  0
ENDSEC
  0
SECTION
  2
TABLES
  0
TABLE
  2
VPORT
  5
8
330
0
100
AcDbSymbolTable
 70
     2
  0
VPORT
  5
2F8A
330
8
100
AcDbSymbolTableRecord
100
AcDbViewportTableRecord
  2
*Active
 70
     0
 10
0.0
 20
0.0
 11
1.0
 21
1.0
 12
81.40778814995668
 22
153.8147896433419
 13
0.0
 23
0.0
 14
5.0
 24
5.0
 15
10.0
 25
10.0
 16
0.0
 26
0.0
 36
1.0
 17
0.0
 27
0.0
 37
0.0
 40
420.4856628545122
 41
2.08724832214765
 42
50.0
 43
0.0
 44
0.0
 50
0.0
 51
0.0
 71
     0
 72
   100
 73
     1
 74
     3
 75
     0
 76
     0
 77
     0
 78
     0
281
     0
 65
     1
110
0.0
120
0.0
130
0.0
111
1.0
121
0.0
131
0.0
112
0.0
122
1.0
132
0.0
 79
     0
146
0.0
  0
ENDTAB
  0
TABLE
  2
LTYPE
  5
5
330
0
100
AcDbSymbolTable
 70
     5
  0
LTYPE
  5
14
330
5
100
AcDbSymbolTableRecord
100
AcDbLinetypeTableRecord
  2
ByBlock
 70
     0
  3

 72
    65
 73
     0
 40
0.0
  0
LTYPE
  5
15
330
5
100
AcDbSymbolTableRecord
100
AcDbLinetypeTableRecord
  2
ByLayer
 70
     0
  3

 72
    65
 73
     0
 40
0.0
  0
LTYPE
  5
16
330
5
100
AcDbSymbolTableRecord
100
AcDbLinetypeTableRecord
  2
Continuous
 70
     0
  3
Solid line
 72
    65
 73
     0
 40
0.0
  0
LTYPE
  5
33
330
5
100
AcDbSymbolTableRecord
100
AcDbLinetypeTableRecord
  2
DASHED2
 70
     0
  3
Dashed (.5x) _ _ _ _ _ _ _ _ _ _ _ _ _ _ _ _ _
 72
    65
 73
     2
 40
9.524999999999998
 49
6.349999999999999
 74
     0
 49
-3.174999999999999
 74
     0
  0
LTYPE
  5
34
330
5
100
AcDbSymbolTableRecord
100
AcDbLinetypeTableRecord
  2
CENTER2
 70
     0
  3
Center (.5x) ___ _ ___ _ ___ _ ___ _ ___ _ ___
 72
    65
 73
     4
 40
28.57499999999999
 49
19.05
 74
     0
 49
-3.174999999999999
 74
     0
 49
3.174999999999999
 74
     0
 49
-3.174999999999999
 74
     0
  0
LTYPE
  5
35
330
5
100
AcDbSymbolTableRecord
100
AcDbLinetypeTableRecord
  2
PHANTOM2
 70
     0
  3
Phantom (.5x) ___ _ _ ___ _ _ ___ _ _ ___ _ _
 72
    65
 73
     6
 40
31.75
 49
15.875
 74
     0
 49
-3.174999999999999
 74
     0
 49
3.174999999999999
 74
     0
 49
-3.174999999999999
 74
     0
 49
3.174999999999999
 74
     0
 49
-3.174999999999999
 74
     0
  0
LTYPE
  5
36
330
5
100
AcDbSymbolTableRecord
100
AcDbLinetypeTableRecord
  2
HIDDEN2
 70
     0
  3
Hidden (.5x) _ _ _ _ _ _ _ _ _ _ _ _ _ _ _ _ _
 72
    65
 73
     2
 40
4.762499999999999
 49
3.174999999999999
 74
     0
 49
-1.587499999999999
 74
     0
  0
ENDTAB
  0
TABLE
  2
LAYER
  5
2
330
0
100
AcDbSymbolTable
 70
    13
  0
LAYER
  5
10
330
2
100
AcDbSymbolTableRecord
100
AcDbLayerTableRecord
  2
0
 70
     0
 62
     7
  6
Continuous
370
    -3
390
F
  0
LAYER
  5
40
330
2
100
AcDbSymbolTableRecord
100
AcDbLayerTableRecord
  2
50-0-CON
 70
     0
 62
     4
  6
Continuous
370
    50
390
F
  0
LAYER
  5
41
330
2
100
AcDbSymbolTableRecord
100
AcDbLayerTableRecord
  2
70-0-CON
 70
     0
 62
   202
  6
Continuous
370
    70
390
F
  0
LAYER
  5
4E
330
2
100
AcDbSymbolTableRecord
100
AcDbLayerTableRecord
  2
極太線
 70
     0
 62
     7
  6
Continuous
370
    70
390
F
  0
LAYER
  5
4F
330
2
100
AcDbSymbolTableRecord
100
AcDbLayerTableRecord
  2
細線
 70
     0
 62
     8
  6
Continuous
370
    18
390
F
  0
LAYER
  5
AB
330
2
100
AcDbSymbolTableRecord
100
AcDbLayerTableRecord
  2
構築線
 70
     0
 62
    -2
  6
Continuous
370
    18
390
F
  0
LAYER
  5
B8
330
2
100
AcDbSymbolTableRecord
100
AcDbLayerTableRecord
  2
太線
 70
     0
 62
     7
  6
Continuous
370
    35
390
F
  0
LAYER
  5
B9
330
2
100
AcDbSymbolTableRecord
100
AcDbLayerTableRecord
  2
寸法線
 70
     0
 62
     5
  6
Continuous
370
    18
390
F
  0
LAYER
  5
BA
330
2
100
AcDbSymbolTableRecord
100
AcDbLayerTableRecord
  2
破線
 70
     0
 62
     8
  6
HIDDEN2
370
    18
390
F
  0
LAYER
  5
BB
330
2
100
AcDbSymbolTableRecord
100
AcDbLayerTableRecord
  2
中心線
 70
     0
 62
     1
  6
CENTER2
370
    18
390
F
  0
LAYER
  5
BC
330
2
100
AcDbSymbolTableRecord
100
AcDbLayerTableRecord
  2
想像線
 70
     0
 62
     8
  6
PHANTOM2
370
    18
390
F
  0
LAYER
  5
BD
330
2
100
AcDbSymbolTableRecord
100
AcDbLayerTableRecord
  2
文字
 70
     0
 62
     7
  6
Continuous
370
    18
390
F
  0
LAYER
  5
180
330
2
100
AcDbSymbolTableRecord
100
AcDbLayerTableRecord
  2
Defpoints
 70
     0
 62
     7
  6
Continuous
290
     0
370
    -3
390
F
  0
ENDTAB
  0
TABLE
  2
STYLE
  5
3
330
0
100
AcDbSymbolTable
 70
     3
  0
STYLE
  5
11
330
3
100
AcDbSymbolTableRecord
100
AcDbTextStyleTableRecord
  2
Standard
 70
     0
 40
0.0
 41
1.0
 50
0.0
 71
     0
 42
3.0
  3
txt
  4

  0
STYLE
  5
32
330
3
100
AcDbSymbolTableRecord
100
AcDbTextStyleTableRecord
  2

 70
     1
 40
0.0
 41
1.0
 50
0.0
 71
     0
 42
2.5
  3
ltypeshp.shx
  4

  0
STYLE
  5
50
330
3
100
AcDbSymbolTableRecord
100
AcDbTextStyleTableRecord
  2
OKANO
 70
     0
 40
0.0
 41
1.0
 50
15.0
 71
     0
 42
5.0
  3
isocp.shx
  4
bigfont.shx
  0
ENDTAB
  0
TABLE
  2
VIEW
  5
6
330
0
100
AcDbSymbolTable
 70
     0
  0
ENDTAB
  0
TABLE
  2
UCS
  5
7
330
0
100
AcDbSymbolTable
 70
     0
  0
ENDTAB
  0
TABLE
  2
APPID
  5
9
330
0
100
AcDbSymbolTable
 70
     1
  0
APPID
  5
12
330
9
100
AcDbSymbolTableRecord
100
AcDbRegAppTableRecord
  2
ACAD
 70
     0
  0
ENDTAB
  0
TABLE
  2
DIMSTYLE
  5
A
330
0
100
AcDbSymbolTable
 70
     2
100
AcDbDimStyleTable
 71
     2
340
A2
340
27
  0
DIMSTYLE
105
27
330
A
100
AcDbSymbolTableRecord
100
AcDbDimStyleTableRecord
  2
ISO-25
 70
     0
 41
2.5
 42
0.625
 43
3.75
 44
1.25
 73
     0
 74
     0
 77
     1
 78
     8
140
2.5
141
2.5
143
0.03937007874016
147
0.625
171
     3
172
     1
271
     2
272
     2
274
     3
283
     0
284
     8
340
11
  0
DIMSTYLE
105
A2
102
{ACAD_REACTORS
330
29F1
330
2C42
330
2CAB
330
2CE6
330
2D4D
330
2D5B
330
2D69
330
2D76
330
2D83
330
2DBA
330
2E08
330
2E17
330
2E24
330
2E96
330
2E9F
330
2EE8
330
2EF5
330
2F26
330
2F33
102
}
330
A
100
AcDbSymbolTableRecord
100
AcDbDimStyleTableRecord
  2
sunpo
 70
     0
 40
0.0
 41
3.0
 42
2.0
 43
8.0
 44
3.0
 73
     0
 74
     0
 77
     1
 78
     8
140
5.0
141
2.5
143
0.03937007874016
147
1.0
171
     3
172
     1
271
     2
272
     2
274
     3
283
     0
284
     8
340
50
341
9B
342
9B
  0
ENDTAB
  0
TABLE
  2
BLOCK_RECORD
  5
1
330
0
100
AcDbSymbolTable
 70
    27
  0
BLOCK_RECORD
  5
1F
330
1
100
AcDbSymbolTableRecord
100
AcDbBlockTableRecord
  2
*Model_Space
340
22
  0
BLOCK_RECORD
  5
1B
330
1
100
AcDbSymbolTableRecord
100
AcDbBlockTableRecord
  2
*Paper_Space
340
1E
  0
BLOCK_RECORD
  5
9B
330
1
100
AcDbSymbolTableRecord
100
AcDbBlockTableRecord
  2
_Closed
340
0
102
{BLKREFS
331
2C47
331
2C48
331
2CB1
331
2CB2
331
2D03
331
2D04
331
2D7B
331
2D7C
331
2DA1
331
2DA2
331
2DAA
331
2DAB
331
2DB4
331
2DB5
331
2DE1
331
2DE2
331
2DEC
331
2DED
331
2DF5
331
2DF6
331
2E4A
331
2E4B
331
2E53
331
2E54
331
2E5E
331
2E5F
331
2E67
331
2E68
331
2E9A
331
2EA5
331
2EA6
331
2EC2
331
2EC3
331
2F0D
331
2F0E
331
2F17
331
2F18
331
2F20
331
2F21
331
2F4B
331
2F4C
331
2F57
331
2F58
331
2F6A
331
2F6B
331
2F74
331
2F75
331
2F7D
331
2F7E
102
}
  0
BLOCK_RECORD
  5
1510
330
1
100
AcDbSymbolTableRecord
100
AcDbBlockTableRecord
  2
A$C10A573AC
340
0
  0
BLOCK_RECORD
  5
29F2
330
1
100
AcDbSymbolTableRecord
100
AcDbBlockTableRecord
  2
*D2
340
0
  0
BLOCK_RECORD
  5
2C43
330
1
100
AcDbSymbolTableRecord
100
AcDbBlockTableRecord
  2
*D4
340
0
  0
BLOCK_RECORD
  5
2CAC
330
1
100
AcDbSymbolTableRecord
100
AcDbBlockTableRecord
  2
*D5
340
0
  0
BLOCK_RECORD
  5
2CE7
330
1
100
AcDbSymbolTableRecord
100
AcDbBlockTableRecord
  2
*D6
340
0
  0
BLOCK_RECORD
  5
2D4E
330
1
100
AcDbSymbolTableRecord
100
AcDbBlockTableRecord
  2
*D8
340
0
  0
BLOCK_RECORD
  5
2D5C
330
1
100
AcDbSymbolTableRecord
100
AcDbBlockTableRecord
  2
*D9
340
0
  0
BLOCK_RECORD
  5
2D6A
330
1
100
AcDbSymbolTableRecord
100
AcDbBlockTableRecord
  2
*D10
340
0
  0
BLOCK_RECORD
  5
2D77
330
1
100
AcDbSymbolTableRecord
100
AcDbBlockTableRecord
  2
*D11
340
0
  0
BLOCK_RECORD
  5
2D84
330
1
100
AcDbSymbolTableRecord
100
AcDbBlockTableRecord
  2
*D12
340
0
  0
BLOCK_RECORD
  5
2DBB
330
1
100
AcDbSymbolTableRecord
100
AcDbBlockTableRecord
  2
*D13
340
0
  0
BLOCK_RECORD
  5
2E09
330
1
100
AcDbSymbolTableRecord
100
AcDbBlockTableRecord
  2
*D14
340
0
  0
BLOCK_RECORD
  5
2E18
330
1
100
AcDbSymbolTableRecord
100
AcDbBlockTableRecord
  2
*D15
340
0
  0
BLOCK_RECORD
  5
2E25
330
1
100
AcDbSymbolTableRecord
100
AcDbBlockTableRecord
  2
*D16
340
0
  0
BLOCK_RECORD
  5
2E97
330
1
100
AcDbSymbolTableRecord
100
AcDbBlockTableRecord
  2
*D17
340
0
  0
BLOCK_RECORD
  5
2EA0
330
1
100
AcDbSymbolTableRecord
100
AcDbBlockTableRecord
  2
*D18
340
0
  0
BLOCK_RECORD
  5
2EE9
330
1
100
AcDbSymbolTableRecord
100
AcDbBlockTableRecord
  2
*D19
340
0
  0
BLOCK_RECORD
  5
2EF6
330
1
100
AcDbSymbolTableRecord
100
AcDbBlockTableRecord
  2
*D20
340
0
  0
BLOCK_RECORD
  5
2F27
330
1
100
AcDbSymbolTableRecord
100
AcDbBlockTableRecord
  2
*D22
340
0
  0
BLOCK_RECORD
  5
2F34
330
1
100
AcDbSymbolTableRecord
100
AcDbBlockTableRecord
  2
*D23
340
0
  0
ENDTAB
  0
ENDSEC
  0
SECTION
  2
BLOCKS
  0
BLOCK
  5
20
330
1F
100
AcDbEntity
  8
0
100
AcDbBlockBegin
  2
*Model_Space
 70
     0
 10
0.0
 20
0.0
 30
0.0
  3
*Model_Space
  1

  0
ENDBLK
  5
21
330
1F
100
AcDbEntity
  8
0
100
AcDbBlockEnd
  0
BLOCK
  5
1C
330
1B
100
AcDbEntity
 67
     1
  8
0
100
AcDbBlockBegin
  2
*Paper_Space
 70
     0
 10
0.0
 20
0.0
 30
0.0
  3
*Paper_Space
  1

  0
ENDBLK
  5
1D
330
1B
100
AcDbEntity
 67
     1
  8
0
100
AcDbBlockEnd
  0
BLOCK
  5
A0
330
9B
100
AcDbEntity
  8
0
100
AcDbBlockBegin
  2
_Closed
 70
     0
 10
0.0
 20
0.0
 30
0.0
  3
_Closed
  1

  0
LINE
  5
9C
330
9B
100
AcDbEntity
  8
0
 62
     0
370
    -2
100
AcDbLine
 10
-1.0
 20
0.1666666666666666
 30
0.0
 11
0.0
 21
0.0
 31
0.0
  0
LINE
  5
9D
330
9B
100
AcDbEntity
  8
0
 62
     0
370
    -2
100
AcDbLine
 10
0.0
 20
0.0
 30
0.0
 11
-1.0
 21
-0.1666666666666666
 31
0.0
  0
LINE
  5
9E
330
9B
100
AcDbEntity
  8
0
 62
     0
370
    -2
100
AcDbLine
 10
-1.0
 20
0.1666666666666666
 30
0.0
 11
-1.0
 21
-0.1666666666666666
 31
0.0
  0
LINE
  5
9F
330
9B
100
AcDbEntity
  8
0
 62
     0
370
    -2
100
AcDbLine
 10
0.0
 20
0.0
 30
0.0
 11
-1.0
 21
0.0
 31
0.0
  0
ENDBLK
  5
A1
330
9B
100
AcDbEntity
  8
0
100
AcDbBlockEnd
  0
BLOCK
  5
155B
330
1510
100
AcDbEntity
  8
0
100
AcDbBlockBegin
  2
A$C10A573AC
 70
     0
 10
0.0
 20
0.0
 30
0.0
  3
A$C10A573AC
  1

  0
TEXT
  5
1511
330
1510
100
AcDbEntity
  8
文字
100
AcDbText
 10
0.9844302777919438
 20
5.224957122252135
 30
0.0
 40
3.0
  1
Materal : Steel.
 51
15.0
  7
OKANO
100
AcDbText
  0
TEXT
  5
1512
330
1510
100
AcDbEntity
  8
文字
100
AcDbText
 10
-0.1141909619694843
 20
0.7500001922403499
 30
0.0
 40
3.0
  1
Surface treatment : Electro galvanized.
 51
15.0
  7
OKANO
100
AcDbText
  0
TEXT
  5
1513
330
1510
100
AcDbEntity
  8
文字
100
AcDbText
 10
-0.4901926332574931
 20
9.159967445193728
 30
0.0
 40
3.0
  1
5 TORGUE SCREW  M5-6
 51
15.0
  7
OKANO
100
AcDbText
  0
TEXT
  5
1514
330
1510
100
AcDbEntity
  8
文字
100
AcDbText
 10
1.364713526390005
 20
78.88822913323082
 30
0.0
 40
3.0
  1
Special standard,
 51
15.0
  7
OKANO
100
AcDbText
  0
TEXT
  5
1515
330
1510
100
AcDbEntity
  8
文字
100
AcDbText
 10
92.88160823408942
 20
89.92753849837379
 30
0.0
 40
3.0
  1
Screw Type
 51
15.0
  7
OKANO
100
AcDbText
  0
LINE
  5
1516
330
1510
100
AcDbEntity
  8
太線
100
AcDbLine
 10
113.9464587597784
 20
81.93930390144641
 30
0.0
 11
112.4464587597784
 21
81.93930390144641
 31
0.0
  0
LINE
  5
1517
330
1510
100
AcDbEntity
  8
太線
100
AcDbLine
 10
112.4464587597784
 20
76.9393039014464
 30
0.0
 11
121.4644995438761
 21
76.9393039014464
 31
0.0
  0
TEXT
  5
1518
330
1510
100
AcDbEntity
  8
文字
100
AcDbText
 10
93.46068240437217
 20
77.96976862235396
 30
0.0
 40
2.0
  1
17-30
 51
15.0
  7
OKANO
100
AcDbText
  0
LINE
  5
1519
330
1510
100
AcDbEntity
  8
太線
100
AcDbLine
 10
111.9464587597784
 20
81.43930390144641
 30
0.0
 11
111.9464587597784
 21
77.4393039014464
 31
0.0
  0
LINE
  5
151A
330
1510
100
AcDbEntity
  8
太線
100
AcDbLine
 10
91.94645875977846
 20
81.43930390144641
 30
0.0
 11
91.94645875977846
 21
77.43930390144639
 31
0.0
  0
LINE
  5
151B
330
1510
100
AcDbEntity
  8
太線
100
AcDbLine
 10
101.9644995438761
 20
77.4393039014464
 30
0.0
 11
101.9644995438761
 21
81.43930390144641
 31
0.0
  0
LINE
  5
151C
330
1510
100
AcDbEntity
  8
太線
100
AcDbLine
 10
92.44645875977846
 20
76.9393039014464
 30
0.0
 11
101.4644995438761
 21
76.9393039014464
 31
0.0
  0
ARC
  5
151D
330
1510
100
AcDbEntity
  8
太線
100
AcDbCircle
 10
92.44645875977846
 20
77.43930390144639
 30
0.0
 40
0.5
100
AcDbArc
 50
180.0
 51
270.0
  0
ARC
  5
151E
330
1510
100
AcDbEntity
  8
太線
100
AcDbCircle
 10
101.4644995438761
 20
77.4393039014464
 30
0.0
 40
0.5
100
AcDbArc
 50
270.0
 51
0.0
  0
ARC
  5
151F
330
1510
100
AcDbEntity
  8
太線
100
AcDbCircle
 10
112.4464587597784
 20
77.4393039014464
 30
0.0
 40
0.5
100
AcDbArc
 50
180.0
 51
270.0
  0
LINE
  5
1520
330
1510
100
AcDbEntity
  8
想像線
100
AcDbLine
 10
93.94645875977847
 20
81.93930390144641
 30
0.0
 11
99.96449954387617
 21
81.93930390144641
 31
0.0
  0
LINE
  5
1521
330
1510
100
AcDbEntity
  8
極太線
100
AcDbLine
 10
96.38762957111168
 20
85.43930390144641
 30
0.0
 11
97.50528794844525
 21
85.43930390144641
 31
0.0
  0
CIRCLE
  5
1522
330
1510
100
AcDbEntity
  8
太線
100
AcDbCircle
 10
96.94645875977847
 20
85.43930390144641
 30
0.0
 40
0.5588291886667776
  0
LINE
  5
1523
330
1510
100
AcDbEntity
  8
太線
100
AcDbLine
 10
99.46449954387617
 20
86.93930390144641
 30
0.0
 11
94.44645875977846
 21
86.93930390144641
 31
0.0
  0
LINE
  5
1524
330
1510
100
AcDbEntity
  8
太線
100
AcDbLine
 10
93.94645875977847
 20
86.43930390144641
 30
0.0
 11
93.94645875977847
 21
81.93930390144641
 31
0.0
  0
ARC
  5
1525
330
1510
100
AcDbEntity
  8
太線
100
AcDbCircle
 10
92.44645875977846
 20
81.43930390144641
 30
0.0
 40
0.5
100
AcDbArc
 50
90.0
 51
180.0
  0
LINE
  5
1526
330
1510
100
AcDbEntity
  8
太線
100
AcDbLine
 10
93.94645875977847
 20
81.93930390144641
 30
0.0
 11
92.44645875977846
 21
81.93930390144641
 31
0.0
  0
ARC
  5
1527
330
1510
100
AcDbEntity
  8
太線
100
AcDbCircle
 10
94.44645875977846
 20
86.43930390144641
 30
0.0
 40
0.5
100
AcDbArc
 50
90.0
 51
180.0
  0
LINE
  5
1528
330
1510
100
AcDbEntity
  8
太線
100
AcDbLine
 10
99.96449954387617
 20
81.93930390144641
 30
0.0
 11
99.96449954387617
 21
86.43930390144641
 31
0.0
  0
LINE
  5
1529
330
1510
100
AcDbEntity
  8
太線
100
AcDbLine
 10
101.4644995438761
 20
81.93930390144641
 30
0.0
 11
99.96449954387617
 21
81.93930390144641
 31
0.0
  0
ARC
  5
152A
330
1510
100
AcDbEntity
  8
太線
100
AcDbCircle
 10
101.4644995438761
 20
81.43930390144641
 30
0.0
 40
0.5
100
AcDbArc
 50
0.0
 51
90.0
  0
ARC
  5
152B
330
1510
100
AcDbEntity
  8
太線
100
AcDbCircle
 10
99.46449954387617
 20
86.43930390144641
 30
0.0
 40
0.5
100
AcDbArc
 50
0.0
 51
90.0
  0
LINE
  5
152C
330
1510
100
AcDbEntity
  8
極太線
100
AcDbLine
 10
96.94645875977847
 20
85.99813309011318
 30
0.0
 11
96.94645875977847
 21
84.88047471277964
 31
0.0
  0
ARC
  5
152D
330
1510
100
AcDbEntity
  8
太線
100
AcDbCircle
 10
112.4464587597784
 20
81.43930390144641
 30
0.0
 40
0.5
100
AcDbArc
 50
90.0
 51
180.0
  0
TEXT
  5
152E
330
1510
100
AcDbEntity
  8
文字
100
AcDbText
 10
134.3819212586066
 20
78.16263579228063
 30
0.0
 40
2.0
  1
101
 51
15.0
  7
OKANO
100
AcDbText
  0
TEXT
  5
152F
330
1510
100
AcDbEntity
  8
文字
100
AcDbText
 10
113.3422276612066
 20
77.96976862235396
 30
0.0
 40
2.0
  1
38-83
 51
15.0
  7
OKANO
100
AcDbText
  0
LINE
  5
1530
330
1510
100
AcDbEntity
  8
太線
100
AcDbLine
 10
141.9825403279738
 20
77.4393039014464
 30
0.0
 11
141.9825403279738
 21
81.43930390144641
 31
0.0
  0
LINE
  5
1531
330
1510
100
AcDbEntity
  8
太線
100
AcDbLine
 10
131.9644995438761
 20
81.43930390144641
 30
0.0
 11
131.9644995438761
 21
77.4393039014464
 31
0.0
  0
LINE
  5
1532
330
1510
100
AcDbEntity
  8
太線
100
AcDbLine
 10
121.9644995438761
 20
77.4393039014464
 30
0.0
 11
121.9644995438761
 21
81.43930390144641
 31
0.0
  0
ARC
  5
1533
330
1510
100
AcDbEntity
  8
太線
100
AcDbCircle
 10
121.4644995438761
 20
77.4393039014464
 30
0.0
 40
0.5
100
AcDbArc
 50
270.0
 51
0.0
  0
LINE
  5
1534
330
1510
100
AcDbEntity
  8
太線
100
AcDbLine
 10
132.4644995438761
 20
76.9393039014464
 30
0.0
 11
141.4825403279738
 21
76.9393039014464
 31
0.0
  0
ARC
  5
1535
330
1510
100
AcDbEntity
  8
太線
100
AcDbCircle
 10
132.4644995438761
 20
77.4393039014464
 30
0.0
 40
0.5
100
AcDbArc
 50
180.0
 51
270.0
  0
ARC
  5
1536
330
1510
100
AcDbEntity
  8
太線
100
AcDbCircle
 10
141.4825403279738
 20
77.4393039014464
 30
0.0
 40
0.5
100
AcDbArc
 50
270.0
 51
0.0
  0
ARC
  5
1537
330
1510
100
AcDbEntity
  8
太線
100
AcDbCircle
 10
121.4644995438761
 20
81.43930390144641
 30
0.0
 40
0.5
100
AcDbArc
 50
0.0
 51
90.0
  0
LINE
  5
1538
330
1510
100
AcDbEntity
  8
太線
100
AcDbLine
 10
119.9644995438761
 20
81.93930390144641
 30
0.0
 11
119.9644995438761
 21
86.43930390144641
 31
0.0
  0
LINE
  5
1539
330
1510
100
AcDbEntity
  8
太線
100
AcDbLine
 10
113.9464587597784
 20
86.43930390144641
 30
0.0
 11
113.9464587597784
 21
81.93930390144641
 31
0.0
  0
LINE
  5
153A
330
1510
100
AcDbEntity
  8
想像線
100
AcDbLine
 10
113.9464587597784
 20
81.93930390144641
 30
0.0
 11
119.9644995438761
 21
81.93930390144641
 31
0.0
  0
LINE
  5
153B
330
1510
100
AcDbEntity
  8
太線
100
AcDbLine
 10
121.4644995438761
 20
81.93930390144641
 30
0.0
 11
119.9644995438761
 21
81.93930390144641
 31
0.0
  0
LINE
  5
153C
330
1510
100
AcDbEntity
  8
太線
100
AcDbLine
 10
119.4644995438761
 20
86.93930390144641
 30
0.0
 11
114.4464587597784
 21
86.93930390144641
 31
0.0
  0
ARC
  5
153D
330
1510
100
AcDbEntity
  8
太線
100
AcDbCircle
 10
114.4464587597784
 20
86.43930390144641
 30
0.0
 40
0.5
100
AcDbArc
 50
90.0
 51
180.0
  0
CIRCLE
  5
153E
330
1510
100
AcDbEntity
  8
太線
100
AcDbCircle
 10
115.4464587597784
 20
85.43930390144641
 30
0.0
 40
0.5588291886667776
  0
LINE
  5
153F
330
1510
100
AcDbEntity
  8
極太線
100
AcDbLine
 10
115.4464587597784
 20
85.99813309011318
 30
0.0
 11
115.4464587597784
 21
84.88047471277964
 31
0.0
  0
LINE
  5
1540
330
1510
100
AcDbEntity
  8
極太線
100
AcDbLine
 10
114.8876295711116
 20
85.43930390144641
 30
0.0
 11
116.0052879484452
 21
85.43930390144641
 31
0.0
  0
ARC
  5
1541
330
1510
100
AcDbEntity
  8
太線
100
AcDbCircle
 10
119.4644995438761
 20
86.43930390144641
 30
0.0
 40
0.5
100
AcDbArc
 50
0.0
 51
90.0
  0
LINE
  5
1542
330
1510
100
AcDbEntity
  8
極太線
100
AcDbLine
 10
117.9056703552094
 20
85.43930390144641
 30
0.0
 11
119.0233287325429
 21
85.43930390144641
 31
0.0
  0
LINE
  5
1543
330
1510
100
AcDbEntity
  8
極太線
100
AcDbLine
 10
118.4644995438761
 20
85.99813309011318
 30
0.0
 11
118.4644995438761
 21
84.88047471277964
 31
0.0
  0
CIRCLE
  5
1544
330
1510
100
AcDbEntity
  8
太線
100
AcDbCircle
 10
118.4644995438761
 20
85.43930390144641
 30
0.0
 40
0.5588291886667776
  0
LINE
  5
1545
330
1510
100
AcDbEntity
  8
想像線
100
AcDbLine
 10
133.9644995438761
 20
81.93930390144641
 30
0.0
 11
139.9825403279738
 21
81.93930390144641
 31
0.0
  0
LINE
  5
1546
330
1510
100
AcDbEntity
  8
極太線
100
AcDbLine
 10
137.9237111393071
 20
85.43930390144641
 30
0.0
 11
139.0413695166406
 21
85.43930390144641
 31
0.0
  0
CIRCLE
  5
1547
330
1510
100
AcDbEntity
  8
太線
100
AcDbCircle
 10
138.4825403279738
 20
85.43930390144641
 30
0.0
 40
0.5588291886667776
  0
CIRCLE
  5
1548
330
1510
100
AcDbEntity
  8
太線
100
AcDbCircle
 10
138.4825403279738
 20
83.26342923362075
 30
0.0
 40
0.5588291886667776
  0
LINE
  5
1549
330
1510
100
AcDbEntity
  8
極太線
100
AcDbLine
 10
137.9237111393071
 20
83.26342923362075
 30
0.0
 11
139.0413695166406
 21
83.26342923362075
 31
0.0
  0
LINE
  5
154A
330
1510
100
AcDbEntity
  8
太線
100
AcDbLine
 10
139.4825403279738
 20
86.93930390144641
 30
0.0
 11
134.4644995438761
 21
86.93930390144641
 31
0.0
  0
LINE
  5
154B
330
1510
100
AcDbEntity
  8
太線
100
AcDbLine
 10
133.9644995438761
 20
86.43930390144641
 30
0.0
 11
133.9644995438761
 21
81.93930390144641
 31
0.0
  0
ARC
  5
154C
330
1510
100
AcDbEntity
  8
太線
100
AcDbCircle
 10
132.4644995438761
 20
81.43930390144641
 30
0.0
 40
0.5
100
AcDbArc
 50
90.0
 51
180.0
  0
LINE
  5
154D
330
1510
100
AcDbEntity
  8
太線
100
AcDbLine
 10
133.9644995438761
 20
81.93930390144641
 30
0.0
 11
132.4644995438761
 21
81.93930390144641
 31
0.0
  0
LINE
  5
154E
330
1510
100
AcDbEntity
  8
極太線
100
AcDbLine
 10
134.9056703552093
 20
83.26342923362075
 30
0.0
 11
136.0233287325429
 21
83.26342923362075
 31
0.0
  0
LINE
  5
154F
330
1510
100
AcDbEntity
  8
極太線
100
AcDbLine
 10
135.4644995438761
 20
83.82225842228752
 30
0.0
 11
135.4644995438761
 21
82.70460004495395
 31
0.0
  0
CIRCLE
  5
1550
330
1510
100
AcDbEntity
  8
太線
100
AcDbCircle
 10
135.4644995438761
 20
83.26342923362075
 30
0.0
 40
0.5588291886667776
  0
ARC
  5
1551
330
1510
100
AcDbEntity
  8
太線
100
AcDbCircle
 10
134.4644995438761
 20
86.43930390144641
 30
0.0
 40
0.5
100
AcDbArc
 50
90.0
 51
180.0
  0
CIRCLE
  5
1552
330
1510
100
AcDbEntity
  8
太線
100
AcDbCircle
 10
135.4644995438761
 20
85.43930390144641
 30
0.0
 40
0.5588291886667776
  0
LINE
  5
1553
330
1510
100
AcDbEntity
  8
極太線
100
AcDbLine
 10
135.4644995438761
 20
85.99813309011318
 30
0.0
 11
135.4644995438761
 21
84.88047471277964
 31
0.0
  0
LINE
  5
1554
330
1510
100
AcDbEntity
  8
極太線
100
AcDbLine
 10
134.9056703552093
 20
85.43930390144641
 30
0.0
 11
136.0233287325429
 21
85.43930390144641
 31
0.0
  0
LINE
  5
1555
330
1510
100
AcDbEntity
  8
太線
100
AcDbLine
 10
139.9825403279738
 20
81.93930390144641
 30
0.0
 11
139.9825403279738
 21
86.43930390144641
 31
0.0
  0
ARC
  5
1556
330
1510
100
AcDbEntity
  8
太線
100
AcDbCircle
 10
141.4825403279738
 20
81.43930390144641
 30
0.0
 40
0.5
100
AcDbArc
 50
0.0
 51
90.0
  0
LINE
  5
1557
330
1510
100
AcDbEntity
  8
極太線
100
AcDbLine
 10
138.4825403279738
 20
83.82225842228752
 30
0.0
 11
138.4825403279738
 21
82.70460004495395
 31
0.0
  0
LINE
  5
1558
330
1510
100
AcDbEntity
  8
太線
100
AcDbLine
 10
141.4825403279738
 20
81.93930390144641
 30
0.0
 11
139.9825403279738
 21
81.93930390144641
 31
0.0
  0
ARC
  5
1559
330
1510
100
AcDbEntity
  8
太線
100
AcDbCircle
 10
139.4825403279738
 20
86.43930390144641
 30
0.0
 40
0.5
100
AcDbArc
 50
0.0
 51
90.0
  0
LINE
  5
155A
330
1510
100
AcDbEntity
  8
極太線
100
AcDbLine
 10
138.4825403279738
 20
85.99813309011318
 30
0.0
 11
138.4825403279738
 21
84.88047471277964
 31
0.0
  0
ENDBLK
  5
155C
330
1510
100
AcDbEntity
  8
0
100
AcDbBlockEnd
  0
BLOCK
  5
29FC
330
29F2
100
AcDbEntity
  8
0
100
AcDbBlockBegin
  2
*D2
 70
     1
 10
0.0
 20
0.0
 30
0.0
  3
*D2
  1

  0
LINE
  5
2EBF
330
29F2
100
AcDbEntity
  8
寸法線
 62
     0
370
    -2
100
AcDbLine
 10
210.2324195332539
 20
100.0240129221247
 30
0.0
 11
204.0546510118342
 21
100.0240129221247
 31
0.0
  0
LINE
  5
2EC0
330
29F2
100
AcDbEntity
  8
寸法線
 62
     0
370
    -2
100
AcDbLine
 10
210.2324195332539
 20
150.6055759632823
 30
0.0
 11
204.0546510118342
 21
150.6055759632823
 31
0.0
  0
LINE
  5
2EC1
330
29F2
100
AcDbEntity
  8
寸法線
 62
     0
370
    -2
100
AcDbLine
 10
207.0546510118342
 20
103.0240129221247
 30
0.0
 11
207.0546510118342
 21
147.6055759632823
 31
0.0
  0
INSERT
  5
2EC2
330
29F2
100
AcDbEntity
  8
寸法線
 62
     0
370
    -2
100
AcDbBlockReference
  2
_Closed
 10
207.0546510118342
 20
100.0240129221247
 30
0.0
 41
3.0
 42
3.0
 43
3.0
 50
270.0
  0
INSERT
  5
2EC3
330
29F2
100
AcDbEntity
  8
寸法線
 62
     0
370
    -2
100
AcDbBlockReference
  2
_Closed
 10
207.0546510118342
 20
150.6055759632823
 30
0.0
 41
3.0
 42
3.0
 43
3.0
 50
90.0
  0
MTEXT
  5
2EC4
330
29F2
100
AcDbEntity
  8
寸法線
 62
     0
100
AcDbMText
 10
203.5546510118342
 20
125.3147944427035
 30
0.0
 40
5.0
 41
0.0
 71
     5
 72
     1
  1
49.6
  7
OKANO
 11
0.0000000000000001
 21
1.0
 31
0.0
 73
     1
 44
1.0
  0
POINT
  5
2EC5
330
29F2
100
AcDbEntity
  8
Defpoints
 62
     0
100
AcDbPoint
 10
212.2324195332539
 20
100.0240129221247
 30
0.0
  0
POINT
  5
2EC6
330
29F2
100
AcDbEntity
  8
Defpoints
 62
     0
100
AcDbPoint
 10
212.2324195332539
 20
150.6055759632823
 30
0.0
  0
POINT
  5
2EC7
330
29F2
100
AcDbEntity
  8
Defpoints
 62
     0
100
AcDbPoint
 10
207.0546510118342
 20
150.6055759632823
 30
0.0
  0
ENDBLK
  5
29FD
330
29F2
100
AcDbEntity
  8
0
100
AcDbBlockEnd
  0
BLOCK
  5
2C4D
330
2C43
100
AcDbEntity
  8
0
100
AcDbBlockBegin
  2
*D4
 70
     1
 10
0.0
 20
0.0
 30
0.0
  3
*D4
  1

  0
LINE
  5
2C44
330
2C43
100
AcDbEntity
  8
寸法線
 62
     0
370
    -2
100
AcDbLine
 10
217.6414745488584
 20
93.47114882569616
 30
0.0
 11
217.6414745488584
 21
72.08747344794608
 31
0.0
  0
LINE
  5
2C45
330
2C43
100
AcDbEntity
  8
寸法線
 62
     0
370
    -2
100
AcDbLine
 10
277.6414745488584
 20
93.47114882569616
 30
0.0
 11
277.6414745488584
 21
72.08747344794608
 31
0.0
  0
LINE
  5
2C46
330
2C43
100
AcDbEntity
  8
寸法線
 62
     0
370
    -2
100
AcDbLine
 10
220.6414745488585
 20
75.08747344794608
 30
0.0
 11
274.6414745488584
 21
75.08747344794608
 31
0.0
  0
INSERT
  5
2C47
330
2C43
100
AcDbEntity
  8
寸法線
 62
     0
370
    -2
100
AcDbBlockReference
  2
_Closed
 10
217.6414745488584
 20
75.08747344794608
 30
0.0
 41
3.0
 42
3.0
 43
3.0
 50
180.0
  0
INSERT
  5
2C48
330
2C43
100
AcDbEntity
  8
寸法線
 62
     0
370
    -2
100
AcDbBlockReference
  2
_Closed
 10
277.6414745488584
 20
75.08747344794608
 30
0.0
 41
3.0
 42
3.0
 43
3.0
  0
MTEXT
  5
2C49
330
2C43
100
AcDbEntity
  8
寸法線
 62
     0
100
AcDbMText
 10
247.6414745488584
 20
78.58747344794608
 30
0.0
 40
5.0
 41
0.0
 71
     5
 72
     1
  1
60
  7
OKANO
 73
     1
 44
1.0
  0
POINT
  5
2C4A
330
2C43
100
AcDbEntity
  8
Defpoints
 62
     0
100
AcDbPoint
 10
217.6414745488584
 20
95.47114882569616
 30
0.0
  0
POINT
  5
2C4B
330
2C43
100
AcDbEntity
  8
Defpoints
 62
     0
100
AcDbPoint
 10
277.6414745488584
 20
95.47114882569616
 30
0.0
  0
POINT
  5
2C4C
330
2C43
100
AcDbEntity
  8
Defpoints
 62
     0
100
AcDbPoint
 10
277.6414745488584
 20
75.08747344794608
 30
0.0
  0
ENDBLK
  5
2C4E
330
2C43
100
AcDbEntity
  8
0
100
AcDbBlockEnd
  0
BLOCK
  5
2CB5
330
2CAC
100
AcDbEntity
  8
0
100
AcDbBlockBegin
  2
*D5
 70
     1
 10
0.0
 20
0.0
 30
0.0
  3
*D5
  1

  0
LINE
  5
2CAD
330
2CAC
100
AcDbEntity
  8
寸法線
 62
     0
370
    -2
100
AcDbLine
 10
71.78641063226454
 20
161.6075803343395
 30
0.0
 11
61.47435267938201
 21
167.8744490284392
 31
0.0
  0
LINE
  5
2CAE
330
2CAC
100
AcDbEntity
  8
寸法線
 62
     0
370
    -2
100
AcDbLine
 10
52.92867537142663
 20
173.0678486229531
 30
0.0
 11
50.36497217904003
 21
174.6258685013072
 31
0.0
  0
MTEXT
  5
2CAF
330
2CAC
100
AcDbEntity
  8
寸法線
 62
     0
100
AcDbMText
 10
69.72992311009644
 20
166.9529917999966
 30
0.0
 40
5.0
 41
0.0
 71
     5
 72
     1
  1
\U+22054
  7
OKANO
 11
0.8545677307955369
 21
-0.5193399594513857
 31
0.0
 73
     1
 44
1.0
  0
LINE
  5
2CB0
330
2CAC
100
AcDbEntity
  8
寸法線
 62
     0
370
    -2
100
AcDbLine
 10
55.49237856381324
 20
171.5098287445989
 30
0.0
 11
58.9106494869954
 21
169.4324689067934
 31
0.0
  0
INSERT
  5
2CB1
330
2CAC
100
AcDbEntity
  8
寸法線
 62
     0
370
    -2
100
AcDbBlockReference
  2
_Closed
 10
55.49237856381324
 20
171.5098287445989
 30
0.0
 41
3.0
 42
3.0
 43
3.0
 50
328.7120123094843
  0
INSERT
  5
2CB2
330
2CAC
100
AcDbEntity
  8
寸法線
 62
     0
370
    -2
100
AcDbBlockReference
  2
_Closed
 10
58.9106494869954
 20
169.4324689067934
 30
0.0
 41
3.0
 42
3.0
 43
3.0
 50
148.7120123094843
  0
POINT
  5
2CB3
330
2CAC
100
AcDbEntity
  8
Defpoints
 62
     0
100
AcDbPoint
 10
58.9106494869954
 20
169.4324689067934
 30
0.0
  0
POINT
  5
2CB4
330
2CAC
100
AcDbEntity
  8
Defpoints
 62
     0
100
AcDbPoint
 10
55.49237856381324
 20
171.5098287445989
 30
0.0
  0
ENDBLK
  5
2CB6
330
2CAC
100
AcDbEntity
  8
0
100
AcDbBlockEnd
  0
BLOCK
  5
2CF1
330
2CE7
100
AcDbEntity
  8
0
100
AcDbBlockBegin
  2
*D6
 70
     1
 10
0.0
 20
0.0
 30
0.0
  3
*D6
  1

  0
LINE
  5
2DF2
330
2CE7
100
AcDbEntity
  8
寸法線
 62
     0
370
    -2
100
AcDbLine
 10
42.19764504413615
 20
110.018220586241
 30
0.0
 11
42.19764504413615
 21
75.2372193184151
 31
0.0
  0
LINE
  5
2DF3
330
2CE7
100
AcDbEntity
  8
寸法線
 62
     0
370
    -2
100
AcDbLine
 10
102.8526438299095
 20
110.018220586241
 30
0.0
 11
102.8526438299095
 21
75.2372193184151
 31
0.0
  0
LINE
  5
2DF4
330
2CE7
100
AcDbEntity
  8
寸法線
 62
     0
370
    -2
100
AcDbLine
 10
45.19764504413615
 20
78.2372193184151
 30
0.0
 11
99.85264382990955
 21
78.2372193184151
 31
0.0
  0
INSERT
  5
2DF5
330
2CE7
100
AcDbEntity
  8
寸法線
 62
     0
370
    -2
100
AcDbBlockReference
  2
_Closed
 10
42.19764504413615
 20
78.2372193184151
 30
0.0
 41
3.0
 42
3.0
 43
3.0
 50
180.0
  0
INSERT
  5
2DF6
330
2CE7
100
AcDbEntity
  8
寸法線
 62
     0
370
    -2
100
AcDbBlockReference
  2
_Closed
 10
102.8526438299095
 20
78.2372193184151
 30
0.0
 41
3.0
 42
3.0
 43
3.0
  0
MTEXT
  5
2DF7
330
2CE7
100
AcDbEntity
  8
寸法線
 62
     0
100
AcDbMText
 10
72.52514443702285
 20
81.73721931841511
 30
0.0
 40
5.0
 41
0.0
 71
     5
 72
     1
  1
57.3
  7
OKANO
 73
     1
 44
1.0
  0
POINT
  5
2DF8
330
2CE7
100
AcDbEntity
  8
Defpoints
 62
     0
100
AcDbPoint
 10
42.19764504413615
 20
112.018220586241
 30
0.0
  0
POINT
  5
2DF9
330
2CE7
100
AcDbEntity
  8
Defpoints
 62
     0
100
AcDbPoint
 10
102.8526438299095
 20
112.018220586241
 30
0.0
  0
POINT
  5
2DFA
330
2CE7
100
AcDbEntity
  8
Defpoints
 62
     0
100
AcDbPoint
 10
102.8526438299095
 20
78.2372193184151
 30
0.0
  0
ENDBLK
  5
2CF2
330
2CE7
100
AcDbEntity
  8
0
100
AcDbBlockEnd
  0
BLOCK
  5
2D59
330
2D4E
100
AcDbEntity
  8
0
100
AcDbBlockBegin
  2
*D8
 70
     1
 10
0.0
 20
0.0
 30
0.0
  3
*D8
  1

  0
LINE
  5
2DA7
330
2D4E
100
AcDbEntity
  8
寸法線
 62
     0
370
    -2
100
AcDbLine
 10
87.20151402540432
 20
163.4711488256961
 30
0.0
 11
87.20151402540432
 21
121.5706657968711
 31
0.0
  0
LINE
  5
2DA8
330
2D4E
100
AcDbEntity
  8
寸法線
 62
     0
370
    -2
100
AcDbLine
 10
102.6691152079036
 20
166.7190534086877
 30
0.0
 11
102.6691152079036
 21
121.5706657968711
 31
0.0
  0
LINE
  5
2DA9
330
2D4E
100
AcDbEntity
  8
寸法線
 62
     0
370
    -2
100
AcDbLine
 10
90.20151402540433
 20
124.5706657968711
 30
0.0
 11
99.6691152079037
 21
124.5706657968711
 31
0.0
  0
INSERT
  5
2DAA
330
2D4E
100
AcDbEntity
  8
寸法線
 62
     0
370
    -2
100
AcDbBlockReference
  2
_Closed
 10
87.20151402540432
 20
124.5706657968711
 30
0.0
 41
3.0
 42
3.0
 43
3.0
 50
180.0
  0
INSERT
  5
2DAB
330
2D4E
100
AcDbEntity
  8
寸法線
 62
     0
370
    -2
100
AcDbBlockReference
  2
_Closed
 10
102.6691152079036
 20
124.5706657968711
 30
0.0
 41
3.0
 42
3.0
 43
3.0
  0
MTEXT
  5
2DAC
330
2D4E
100
AcDbEntity
  8
寸法線
 62
     0
100
AcDbMText
 10
94.93531461665401
 20
128.0706657968711
 30
0.0
 40
5.0
 41
0.0
 71
     5
 72
     1
  1
15.0
  7
OKANO
 73
     1
 44
1.0
  0
POINT
  5
2DAD
330
2D4E
100
AcDbEntity
  8
Defpoints
 62
     0
100
AcDbPoint
 10
87.20151402540432
 20
165.4711488256961
 30
0.0
  0
POINT
  5
2DAE
330
2D4E
100
AcDbEntity
  8
Defpoints
 62
     0
100
AcDbPoint
 10
102.6691152079036
 20
168.7190534086877
 30
0.0
  0
POINT
  5
2DAF
330
2D4E
100
AcDbEntity
  8
Defpoints
 62
     0
100
AcDbPoint
 10
102.6691152079036
 20
124.5706657968711
 30
0.0
  0
ENDBLK
  5
2D5A
330
2D4E
100
AcDbEntity
  8
0
100
AcDbBlockEnd
  0
BLOCK
  5
2D67
330
2D5C
100
AcDbEntity
  8
0
100
AcDbBlockBegin
  2
*D9
 70
     1
 10
0.0
 20
0.0
 30
0.0
  3
*D9
  1

  0
LINE
  5
2DB0
330
2D5C
100
AcDbEntity
  8
寸法線
 62
     0
370
    -2
100
AcDbLine
 10
75.302989768707
 20
154.6309835625678
 30
0.0
 11
136.0607226358583
 21
154.6309835625678
 31
0.0
  0
LINE
  5
2DB1
330
2D5C
100
AcDbEntity
  8
寸法線
 62
     0
370
    -2
100
AcDbLine
 10
75.302989768707
 20
165.4874443548878
 30
0.0
 11
136.0607226358583
 21
165.4874443548878
 31
0.0
  0
LINE
  5
2DB2
330
2D5C
100
AcDbEntity
  8
寸法線
 62
     0
370
    -2
100
AcDbLine
 10
133.0607226358583
 20
157.6309835625678
 30
0.0
 11
133.0607226358583
 21
162.4874443548878
 31
0.0
  0
LINE
  5
2DB3
330
2D5C
100
AcDbEntity
  8
寸法線
 62
     0
370
    -2
100
AcDbLine
 10
133.0607226358583
 20
165.4874443548878
 30
0.0
 11
133.0607226358583
 21
180.1923432570852
 31
0.0
  0
INSERT
  5
2DB4
330
2D5C
100
AcDbEntity
  8
寸法線
 62
     0
370
    -2
100
AcDbBlockReference
  2
_Closed
 10
133.0607226358583
 20
154.6309835625678
 30
0.0
 41
3.0
 42
3.0
 43
3.0
 50
270.0
  0
INSERT
  5
2DB5
330
2D5C
100
AcDbEntity
  8
寸法線
 62
     0
370
    -2
100
AcDbBlockReference
  2
_Closed
 10
133.0607226358583
 20
165.4874443548878
 30
0.0
 41
3.0
 42
3.0
 43
3.0
 50
90.0
  0
MTEXT
  5
2DB6
330
2D5C
100
AcDbEntity
  8
寸法線
 62
     0
100
AcDbMText
 10
129.5607226358583
 20
174.3398938059866
 30
0.0
 40
5.0
 41
0.0
 71
     5
 72
     1
  1
10.0
  7
OKANO
 11
0.0000000000000001
 21
1.0
 31
0.0
 73
     1
 44
1.0
  0
POINT
  5
2DB7
330
2D5C
100
AcDbEntity
  8
Defpoints
 62
     0
100
AcDbPoint
 10
73.30298976870699
 20
154.6309835625678
 30
0.0
  0
POINT
  5
2DB8
330
2D5C
100
AcDbEntity
  8
Defpoints
 62
     0
100
AcDbPoint
 10
73.30298976870699
 20
165.4874443548878
 30
0.0
  0
POINT
  5
2DB9
330
2D5C
100
AcDbEntity
  8
Defpoints
 62
     0
100
AcDbPoint
 10
133.0607226358583
 20
165.4874443548878
 30
0.0
  0
ENDBLK
  5
2D68
330
2D5C
100
AcDbEntity
  8
0
100
AcDbBlockEnd
  0
BLOCK
  5
2D74
330
2D6A
100
AcDbEntity
  8
0
100
AcDbBlockBegin
  2
*D10
 70
     1
 10
0.0
 20
0.0
 30
0.0
  3
*D10
  1

  0
LINE
  5
2D9D
330
2D6A
100
AcDbEntity
  8
寸法線
 62
     0
370
    -2
100
AcDbLine
 10
218.6414745488584
 20
157.4711488256961
 30
0.0
 11
218.6414745488584
 21
217.3415175586931
 31
0.0
  0
LINE
  5
2D9E
330
2D6A
100
AcDbEntity
  8
寸法線
 62
     0
370
    -2
100
AcDbLine
 10
227.6414745488584
 20
202.4711488256961
 30
0.0
 11
227.6414745488584
 21
217.3415175586931
 31
0.0
  0
LINE
  5
2D9F
330
2D6A
100
AcDbEntity
  8
寸法線
 62
     0
370
    -2
100
AcDbLine
 10
221.6414745488584
 20
214.3415175586931
 30
0.0
 11
224.6414745488584
 21
214.3415175586931
 31
0.0
  0
LINE
  5
2DA0
330
2D6A
100
AcDbEntity
  8
寸法線
 62
     0
370
    -2
100
AcDbLine
 10
227.6414745488584
 20
214.3415175586931
 30
0.0
 11
242.3463734510558
 21
214.3415175586931
 31
0.0
  0
INSERT
  5
2DA1
330
2D6A
100
AcDbEntity
  8
寸法線
 62
     0
370
    -2
100
AcDbBlockReference
  2
_Closed
 10
218.6414745488584
 20
214.3415175586931
 30
0.0
 41
3.0
 42
3.0
 43
3.0
 50
180.0
  0
INSERT
  5
2DA2
330
2D6A
100
AcDbEntity
  8
寸法線
 62
     0
370
    -2
100
AcDbBlockReference
  2
_Closed
 10
227.6414745488584
 20
214.3415175586931
 30
0.0
 41
3.0
 42
3.0
 43
3.0
  0
MTEXT
  5
2DA3
330
2D6A
100
AcDbEntity
  8
寸法線
 62
     0
100
AcDbMText
 10
236.4939239999571
 20
217.841517558693
 30
0.0
 40
5.0
 41
0.0
 71
     5
 72
     1
  1
10.0
  7
OKANO
 73
     1
 44
1.0
  0
POINT
  5
2DA4
330
2D6A
100
AcDbEntity
  8
Defpoints
 62
     0
100
AcDbPoint
 10
218.6414745488584
 20
155.4711488256961
 30
0.0
  0
POINT
  5
2DA5
330
2D6A
100
AcDbEntity
  8
Defpoints
 62
     0
100
AcDbPoint
 10
227.6414745488584
 20
200.4711488256961
 30
0.0
  0
POINT
  5
2DA6
330
2D6A
100
AcDbEntity
  8
Defpoints
 62
     0
100
AcDbPoint
 10
227.6414745488584
 20
214.3415175586931
 30
0.0
  0
ENDBLK
  5
2D75
330
2D6A
100
AcDbEntity
  8
0
100
AcDbBlockEnd
  0
BLOCK
  5
2D81
330
2D77
100
AcDbEntity
  8
0
100
AcDbBlockBegin
  2
*D11
 70
     1
 10
0.0
 20
0.0
 30
0.0
  3
*D11
  1

  0
LINE
  5
2D78
330
2D77
100
AcDbEntity
  8
寸法線
 62
     0
370
    -2
100
AcDbLine
 10
215.6414745488584
 20
150.4711488256961
 30
0.0
 11
203.9430092088723
 21
150.4711488256961
 31
0.0
  0
LINE
  5
2D79
330
2D77
100
AcDbEntity
  8
寸法線
 62
     0
370
    -2
100
AcDbLine
 10
225.6414745488584
 20
200.4711488256961
 30
0.0
 11
203.9430092088723
 21
200.4711488256961
 31
0.0
  0
LINE
  5
2D7A
330
2D77
100
AcDbEntity
  8
寸法線
 62
     0
370
    -2
100
AcDbLine
 10
206.9430092088723
 20
153.4711488256961
 30
0.0
 11
206.9430092088723
 21
197.4711488256961
 31
0.0
  0
INSERT
  5
2D7B
330
2D77
100
AcDbEntity
  8
寸法線
 62
     0
370
    -2
100
AcDbBlockReference
  2
_Closed
 10
206.9430092088723
 20
150.4711488256961
 30
0.0
 41
3.0
 42
3.0
 43
3.0
 50
270.0
  0
INSERT
  5
2D7C
330
2D77
100
AcDbEntity
  8
寸法線
 62
     0
370
    -2
100
AcDbBlockReference
  2
_Closed
 10
206.9430092088723
 20
200.4711488256961
 30
0.0
 41
3.0
 42
3.0
 43
3.0
 50
90.0
  0
MTEXT
  5
2D7D
330
2D77
100
AcDbEntity
  8
寸法線
 62
     0
100
AcDbMText
 10
203.4430092088722
 20
175.4711488256962
 30
0.0
 40
5.0
 41
0.0
 71
     5
 72
     1
  1
50
  7
OKANO
 11
0.0000000000000001
 21
1.0
 31
0.0
 73
     1
 44
1.0
  0
POINT
  5
2D7E
330
2D77
100
AcDbEntity
  8
Defpoints
 62
     0
100
AcDbPoint
 10
217.6414745488584
 20
150.4711488256961
 30
0.0
  0
POINT
  5
2D7F
330
2D77
100
AcDbEntity
  8
Defpoints
 62
     0
100
AcDbPoint
 10
227.6414745488584
 20
200.4711488256961
 30
0.0
  0
POINT
  5
2D80
330
2D77
100
AcDbEntity
  8
Defpoints
 62
     0
100
AcDbPoint
 10
206.9430092088723
 20
200.4711488256961
 30
0.0
  0
ENDBLK
  5
2D82
330
2D77
100
AcDbEntity
  8
0
100
AcDbBlockEnd
  0
BLOCK
  5
2D90
330
2D84
100
AcDbEntity
  8
0
100
AcDbBlockBegin
  2
*D12
 70
     1
 10
0.0
 20
0.0
 30
0.0
  3
*D12
  1

  0
LINE
  5
2DDC
330
2D84
100
AcDbEntity
  8
寸法線
 62
     0
370
    -2
100
AcDbLine
 10
228.0062294879787
 20
190.0124030874457
 30
0.0
 11
228.0062294879787
 21
188.646082381521
 31
0.0
  0
LINE
  5
2DDD
330
2D84
100
AcDbEntity
  8
寸法線
 62
     0
370
    -2
100
AcDbLine
 10
232.7721634818121
 20
190.0124030874457
 30
0.0
 11
232.7721634818121
 21
188.646082381521
 31
0.0
  0
LINE
  5
2DDE
330
2D84
100
AcDbEntity
  8
寸法線
 62
     0
370
    -2
100
AcDbLine
 10
225.0062294879787
 20
191.646082381521
 30
0.0
 11
222.0062294879787
 21
191.646082381521
 31
0.0
  0
LINE
  5
2DDF
330
2D84
100
AcDbEntity
  8
寸法線
 62
     0
370
    -2
100
AcDbLine
 10
235.7721634818121
 20
191.646082381521
 30
0.0
 11
238.7721634818122
 21
191.646082381521
 31
0.0
  0
LINE
  5
2DE0
330
2D84
100
AcDbEntity
  8
寸法線
 62
     0
370
    -2
100
AcDbLine
 10
228.0062294879787
 20
191.646082381521
 30
0.0
 11
232.7721634818121
 21
191.646082381521
 31
0.0
  0
INSERT
  5
2DE1
330
2D84
100
AcDbEntity
  8
寸法線
 62
     0
370
    -2
100
AcDbBlockReference
  2
_Closed
 10
228.0062294879787
 20
191.646082381521
 30
0.0
 41
3.0
 42
3.0
 43
3.0
  0
INSERT
  5
2DE2
330
2D84
100
AcDbEntity
  8
寸法線
 62
     0
370
    -2
100
AcDbBlockReference
  2
_Closed
 10
232.7721634818121
 20
191.646082381521
 30
0.0
 41
3.0
 42
3.0
 43
3.0
 50
180.0
  0
MTEXT
  5
2DE3
330
2D84
100
AcDbEntity
  8
寸法線
 62
     0
100
AcDbMText
 10
230.3891964848954
 20
195.146082381521
 30
0.0
 40
5.0
 41
0.0
 71
     5
 72
     1
  1
4
  7
OKANO
 73
     1
 44
1.0
  0
POINT
  5
2DE4
330
2D84
100
AcDbEntity
  8
Defpoints
 62
     0
100
AcDbPoint
 10
228.0062294879787
 20
192.0124030874457
 30
0.0
  0
POINT
  5
2DE5
330
2D84
100
AcDbEntity
  8
Defpoints
 62
     0
100
AcDbPoint
 10
232.7721634818121
 20
192.0124030874457
 30
0.0
  0
POINT
  5
2DE6
330
2D84
100
AcDbEntity
  8
Defpoints
 62
     0
100
AcDbPoint
 10
232.7721634818121
 20
191.646082381521
 30
0.0
  0
ENDBLK
  5
2D91
330
2D84
100
AcDbEntity
  8
0
100
AcDbBlockEnd
  0
BLOCK
  5
2DC7
330
2DBB
100
AcDbEntity
  8
0
100
AcDbBlockBegin
  2
*D13
 70
     1
 10
0.0
 20
0.0
 30
0.0
  3
*D13
  1

  0
LINE
  5
2DE7
330
2DBB
100
AcDbEntity
  8
寸法線
 62
     0
370
    -2
100
AcDbLine
 10
84.29496441266792
 20
-8.192771984457976
 30
0.0
 11
84.29496441266792
 21
-17.98447109645769
 31
0.0
  0
LINE
  5
2DE8
330
2DBB
100
AcDbEntity
  8
寸法線
 62
     0
370
    -2
100
AcDbLine
 10
89.79411960542439
 20
-8.192771984457976
 30
0.0
 11
89.79411960542439
 21
-17.98447109645769
 31
0.0
  0
LINE
  5
2DE9
330
2DBB
100
AcDbEntity
  8
寸法線
 62
     0
370
    -2
100
AcDbLine
 10
81.29496441266793
 20
-14.98447109645769
 30
0.0
 11
78.29496441266792
 21
-14.98447109645769
 31
0.0
  0
LINE
  5
2DEA
330
2DBB
100
AcDbEntity
  8
寸法線
 62
     0
370
    -2
100
AcDbLine
 10
92.79411960542438
 20
-14.98447109645769
 30
0.0
 11
95.79411960542438
 21
-14.98447109645769
 31
0.0
  0
LINE
  5
2DEB
330
2DBB
100
AcDbEntity
  8
寸法線
 62
     0
370
    -2
100
AcDbLine
 10
84.29496441266792
 20
-14.98447109645769
 30
0.0
 11
89.79411960542439
 21
-14.98447109645769
 31
0.0
  0
INSERT
  5
2DEC
330
2DBB
100
AcDbEntity
  8
寸法線
 62
     0
370
    -2
100
AcDbBlockReference
  2
_Closed
 10
84.29496441266792
 20
-14.98447109645769
 30
0.0
 41
3.0
 42
3.0
 43
3.0
  0
INSERT
  5
2DED
330
2DBB
100
AcDbEntity
  8
寸法線
 62
     0
370
    -2
100
AcDbBlockReference
  2
_Closed
 10
89.79411960542439
 20
-14.98447109645769
 30
0.0
 41
3.0
 42
3.0
 43
3.0
 50
180.0
  0
MTEXT
  5
2DEE
330
2DBB
100
AcDbEntity
  8
寸法線
 62
     0
100
AcDbMText
 10
87.04454200904615
 20
-11.48447109645769
 30
0.0
 40
5.0
 41
0.0
 71
     5
 72
     1
  1
4
  7
OKANO
 73
     1
 44
1.0
  0
POINT
  5
2DEF
330
2DBB
100
AcDbEntity
  8
Defpoints
 62
     0
100
AcDbPoint
 10
84.29496441266792
 20
-6.192771984457976
 30
0.0
  0
POINT
  5
2DF0
330
2DBB
100
AcDbEntity
  8
Defpoints
 62
     0
100
AcDbPoint
 10
89.79411960542439
 20
-6.192771984457976
 30
0.0
  0
POINT
  5
2DF1
330
2DBB
100
AcDbEntity
  8
Defpoints
 62
     0
100
AcDbPoint
 10
89.79411960542439
 20
-14.98447109645769
 30
0.0
  0
ENDBLK
  5
2DC8
330
2DBB
100
AcDbEntity
  8
0
100
AcDbBlockEnd
  0
BLOCK
  5
2E15
330
2E09
100
AcDbEntity
  8
0
100
AcDbBlockBegin
  2
*D14
 70
     1
 10
0.0
 20
0.0
 30
0.0
  3
*D14
  1

  0
LINE
  5
2E45
330
2E09
100
AcDbEntity
  8
寸法線
 62
     0
370
    -2
100
AcDbLine
 10
278.6414745488584
 20
95.47114882569616
 30
0.0
 11
299.8207853161941
 21
95.47114882569614
 31
0.0
  0
LINE
  5
2E46
330
2E09
100
AcDbEntity
  8
寸法線
 62
     0
370
    -2
100
AcDbLine
 10
279.6414745488584
 20
100.4711488256961
 30
0.0
 11
299.8207853161941
 21
100.4711488256961
 31
0.0
  0
LINE
  5
2E47
330
2E09
100
AcDbEntity
  8
寸法線
 62
     0
370
    -2
100
AcDbLine
 10
296.8207853161941
 20
92.47114882569615
 30
0.0
 11
296.8207853161941
 21
89.47114882569614
 31
0.0
  0
LINE
  5
2E48
330
2E09
100
AcDbEntity
  8
寸法線
 62
     0
370
    -2
100
AcDbLine
 10
296.8207853161941
 20
103.4711488256961
 30
0.0
 11
296.8207853161941
 21
106.4711488256961
 31
0.0
  0
LINE
  5
2E49
330
2E09
100
AcDbEntity
  8
寸法線
 62
     0
370
    -2
100
AcDbLine
 10
296.8207853161941
 20
95.47114882569614
 30
0.0
 11
296.8207853161941
 21
100.4711488256961
 31
0.0
  0
INSERT
  5
2E4A
330
2E09
100
AcDbEntity
  8
寸法線
 62
     0
370
    -2
100
AcDbBlockReference
  2
_Closed
 10
296.8207853161941
 20
95.47114882569614
 30
0.0
 41
3.0
 42
3.0
 43
3.0
 50
90.0
  0
INSERT
  5
2E4B
330
2E09
100
AcDbEntity
  8
寸法線
 62
     0
370
    -2
100
AcDbBlockReference
  2
_Closed
 10
296.8207853161941
 20
100.4711488256961
 30
0.0
 41
3.0
 42
3.0
 43
3.0
 50
270.0
  0
MTEXT
  5
2E4C
330
2E09
100
AcDbEntity
  8
寸法線
 62
     0
100
AcDbMText
 10
293.3207853161941
 20
97.97114882569621
 30
0.0
 40
5.0
 41
0.0
 71
     5
 72
     1
  1
4
  7
OKANO
 11
0.0000000000000001
 21
1.0
 31
0.0
 73
     1
 44
1.0
  0
POINT
  5
2E4D
330
2E09
100
AcDbEntity
  8
Defpoints
 62
     0
100
AcDbPoint
 10
276.6414745488584
 20
95.47114882569616
 30
0.0
  0
POINT
  5
2E4E
330
2E09
100
AcDbEntity
  8
Defpoints
 62
     0
100
AcDbPoint
 10
277.6414745488584
 20
100.4711488256961
 30
0.0
  0
POINT
  5
2E4F
330
2E09
100
AcDbEntity
  8
Defpoints
 62
     0
100
AcDbPoint
 10
296.8207853161941
 20
100.4711488256961
 30
0.0
  0
ENDBLK
  5
2E16
330
2E09
100
AcDbEntity
  8
0
100
AcDbBlockEnd
  0
BLOCK
  5
2E22
330
2E18
100
AcDbEntity
  8
0
100
AcDbBlockBegin
  2
*D15
 70
     1
 10
0.0
 20
0.0
 30
0.0
  3
*D15
  1

  0
LINE
  5
2E50
330
2E18
100
AcDbEntity
  8
寸法線
 62
     0
370
    -2
100
AcDbLine
 10
279.6414745488584
 20
100.4711488256961
 30
0.0
 11
299.8207853161941
 21
100.4711488256961
 31
0.0
  0
LINE
  5
2E51
330
2E18
100
AcDbEntity
  8
寸法線
 62
     0
370
    -2
100
AcDbLine
 10
279.6414745488584
 20
150.4711488256961
 30
0.0
 11
299.8207853161941
 21
150.4711488256961
 31
0.0
  0
LINE
  5
2E52
330
2E18
100
AcDbEntity
  8
寸法線
 62
     0
370
    -2
100
AcDbLine
 10
296.8207853161941
 20
103.4711488256961
 30
0.0
 11
296.8207853161942
 21
147.4711488256961
 31
0.0
  0
INSERT
  5
2E53
330
2E18
100
AcDbEntity
  8
寸法線
 62
     0
370
    -2
100
AcDbBlockReference
  2
_Closed
 10
296.8207853161941
 20
100.4711488256961
 30
0.0
 41
3.0
 42
3.0
 43
3.0
 50
270.0
  0
INSERT
  5
2E54
330
2E18
100
AcDbEntity
  8
寸法線
 62
     0
370
    -2
100
AcDbBlockReference
  2
_Closed
 10
296.8207853161942
 20
150.4711488256961
 30
0.0
 41
3.0
 42
3.0
 43
3.0
 50
90.0
  0
MTEXT
  5
2E55
330
2E18
100
AcDbEntity
  8
寸法線
 62
     0
100
AcDbMText
 10
293.3207853161941
 20
125.4711488256962
 30
0.0
 40
5.0
 41
0.0
 71
     5
 72
     1
  1
49.3
  7
OKANO
 11
0.0000000000000001
 21
1.0
 31
0.0
 73
     1
 44
1.0
  0
POINT
  5
2E56
330
2E18
100
AcDbEntity
  8
Defpoints
 62
     0
100
AcDbPoint
 10
277.6414745488584
 20
100.4711488256961
 30
0.0
  0
POINT
  5
2E57
330
2E18
100
AcDbEntity
  8
Defpoints
 62
     0
100
AcDbPoint
 10
277.6414745488584
 20
150.4711488256961
 30
0.0
  0
POINT
  5
2E58
330
2E18
100
AcDbEntity
  8
Defpoints
 62
     0
100
AcDbPoint
 10
296.8207853161942
 20
150.4711488256961
 30
0.0
  0
ENDBLK
  5
2E23
330
2E18
100
AcDbEntity
  8
0
100
AcDbBlockEnd
  0
BLOCK
  5
2E31
330
2E25
100
AcDbEntity
  8
0
100
AcDbBlockBegin
  2
*D16
 70
     1
 10
0.0
 20
0.0
 30
0.0
  3
*D16
  1

  0
LINE
  5
2E59
330
2E25
100
AcDbEntity
  8
寸法線
 62
     0
370
    -2
100
AcDbLine
 10
279.6414745488584
 20
150.4711488256961
 30
0.0
 11
299.8207853161941
 21
150.4711488256961
 31
0.0
  0
LINE
  5
2E5A
330
2E25
100
AcDbEntity
  8
寸法線
 62
     0
370
    -2
100
AcDbLine
 10
278.6414745488584
 20
155.4711488256961
 30
0.0
 11
299.8207853161941
 21
155.4711488256961
 31
0.0
  0
LINE
  5
2E5B
330
2E25
100
AcDbEntity
  8
寸法線
 62
     0
370
    -2
100
AcDbLine
 10
296.8207853161942
 20
147.4711488256961
 30
0.0
 11
296.8207853161942
 21
144.4711488256961
 31
0.0
  0
LINE
  5
2E5C
330
2E25
100
AcDbEntity
  8
寸法線
 62
     0
370
    -2
100
AcDbLine
 10
296.8207853161942
 20
158.4711488256961
 30
0.0
 11
296.8207853161942
 21
161.4711488256961
 31
0.0
  0
LINE
  5
2E5D
330
2E25
100
AcDbEntity
  8
寸法線
 62
     0
370
    -2
100
AcDbLine
 10
296.8207853161942
 20
150.4711488256961
 30
0.0
 11
296.8207853161942
 21
155.4711488256961
 31
0.0
  0
INSERT
  5
2E5E
330
2E25
100
AcDbEntity
  8
寸法線
 62
     0
370
    -2
100
AcDbBlockReference
  2
_Closed
 10
296.8207853161942
 20
150.4711488256961
 30
0.0
 41
3.0
 42
3.0
 43
3.0
 50
90.0
  0
INSERT
  5
2E5F
330
2E25
100
AcDbEntity
  8
寸法線
 62
     0
370
    -2
100
AcDbBlockReference
  2
_Closed
 10
296.8207853161942
 20
155.4711488256961
 30
0.0
 41
3.0
 42
3.0
 43
3.0
 50
270.0
  0
MTEXT
  5
2E60
330
2E25
100
AcDbEntity
  8
寸法線
 62
     0
100
AcDbMText
 10
293.3207853161941
 20
152.9711488256961
 30
0.0
 40
5.0
 41
0.0
 71
     5
 72
     1
  1
4
  7
OKANO
 11
0.0000000000000001
 21
1.0
 31
0.0
 73
     1
 44
1.0
  0
POINT
  5
2E61
330
2E25
100
AcDbEntity
  8
Defpoints
 62
     0
100
AcDbPoint
 10
277.6414745488584
 20
150.4711488256961
 30
0.0
  0
POINT
  5
2E62
330
2E25
100
AcDbEntity
  8
Defpoints
 62
     0
100
AcDbPoint
 10
276.6414745488584
 20
155.4711488256961
 30
0.0
  0
POINT
  5
2E63
330
2E25
100
AcDbEntity
  8
Defpoints
 62
     0
100
AcDbPoint
 10
296.8207853161942
 20
155.4711488256961
 30
0.0
  0
ENDBLK
  5
2E32
330
2E25
100
AcDbEntity
  8
0
100
AcDbBlockEnd
  0
BLOCK
  5
2E9D
330
2E97
100
AcDbEntity
  8
0
100
AcDbBlockBegin
  2
*D17
 70
     1
 10
0.0
 20
0.0
 30
0.0
  3
*D17
  1

  0
LINE
  5
2E98
330
2E97
100
AcDbEntity
  8
寸法線
 62
     0
370
    -2
100
AcDbLine
 10
69.04137037085989
 20
171.9503275859889
 30
0.0
 11
47.63883302329783
 21
180.4781718574501
 31
0.0
  0
MTEXT
  5
2E99
330
2E97
100
AcDbEntity
  8
寸法線
 62
     0
100
AcDbMText
 10
64.46452341600561
 20
177.5415770886823
 30
0.0
 40
5.0
 41
0.0
 71
     5
 72
     1
  1
R30
  7
OKANO
 11
0.9289723321113136
 21
-0.3701491674604546
 31
0.0
 73
     1
 44
1.0
  0
INSERT
  5
2E9A
330
2E97
100
AcDbEntity
  8
寸法線
 62
     0
370
    -2
100
AcDbBlockReference
  2
_Closed
 10
44.85191602696389
 20
181.5886193598315
 30
0.0
 41
3.0
 42
3.0
 43
3.0
 50
158.2751828813098
  0
POINT
  5
2E9B
330
2E97
100
AcDbEntity
  8
Defpoints
 62
     0
100
AcDbPoint
 10
44.85191602696389
 20
181.5886193598315
 30
0.0
  0
POINT
  5
2E9C
330
2E97
100
AcDbEntity
  8
Defpoints
 62
     0
100
AcDbPoint
 10
72.72108599030318
 20
170.4841443360179
 30
0.0
  0
ENDBLK
  5
2E9E
330
2E97
100
AcDbEntity
  8
0
100
AcDbBlockEnd
  0
BLOCK
  5
2EA9
330
2EA0
100
AcDbEntity
  8
0
100
AcDbBlockBegin
  2
*D18
 70
     1
 10
0.0
 20
0.0
 30
0.0
  3
*D18
  1

  0
LINE
  5
2EA1
330
2EA0
100
AcDbEntity
  8
寸法線
 62
     0
370
    -2
100
AcDbLine
 10
91.55611669353195
 20
167.2887203160798
 30
0.0
 11
79.47047425583041
 21
176.1120167429291
 31
0.0
  0
LINE
  5
2EA2
330
2EA0
100
AcDbEntity
  8
寸法線
 62
     0
370
    -2
100
AcDbLine
 10
64.93255379497822
 20
186.7256338772493
 30
0.0
 11
62.50956705150287
 21
188.4945700663026
 31
0.0
  0
MTEXT
  5
2EA3
330
2EA0
100
AcDbEntity
  8
寸法線
 62
     0
100
AcDbMText
 10
88.78883791346884
 20
173.6431157739443
 30
0.0
 40
5.0
 41
0.0
 71
     5
 72
     1
  1
\U+220512
  7
OKANO
 11
0.807662247825122
 21
-0.5896453963511216
 31
0.0
 73
     1
 44
1.0
  0
LINE
  5
2EA4
330
2EA0
100
AcDbEntity
  8
寸法線
 62
     0
370
    -2
100
AcDbLine
 10
67.35554053845359
 20
184.9566976881959
 30
0.0
 11
77.04748751235505
 21
177.8809529319824
 31
0.0
  0
INSERT
  5
2EA5
330
2EA0
100
AcDbEntity
  8
寸法線
 62
     0
370
    -2
100
AcDbBlockReference
  2
_Closed
 10
67.35554053845359
 20
184.9566976881959
 30
0.0
 41
3.0
 42
3.0
 43
3.0
 50
323.8681515120217
  0
INSERT
  5
2EA6
330
2EA0
100
AcDbEntity
  8
寸法線
 62
     0
370
    -2
100
AcDbBlockReference
  2
_Closed
 10
77.04748751235505
 20
177.8809529319824
 30
0.0
 41
3.0
 42
3.0
 43
3.0
 50
143.8681515120217
  0
POINT
  5
2EA7
330
2EA0
100
AcDbEntity
  8
Defpoints
 62
     0
100
AcDbPoint
 10
77.04748751235505
 20
177.8809529319824
 30
0.0
  0
POINT
  5
2EA8
330
2EA0
100
AcDbEntity
  8
Defpoints
 62
     0
100
AcDbPoint
 10
67.35554053845359
 20
184.9566976881959
 30
0.0
  0
ENDBLK
  5
2EAA
330
2EA0
100
AcDbEntity
  8
0
100
AcDbBlockEnd
  0
BLOCK
  5
2EF3
330
2EE9
100
AcDbEntity
  8
0
100
AcDbBlockBegin
  2
*D19
 70
     1
 10
0.0
 20
0.0
 30
0.0
  3
*D19
  1

  0
LINE
  5
2F1D
330
2EE9
100
AcDbEntity
  8
寸法線
 62
     0
370
    -2
100
AcDbLine
 10
69.91483121513934
 20
200.4733082663028
 30
0.0
 11
23.05555590324388
 21
200.4733082663028
 31
0.0
  0
LINE
  5
2F1E
330
2EE9
100
AcDbEntity
  8
寸法線
 62
     0
370
    -2
100
AcDbLine
 10
85.20151402540433
 20
181.4188253100892
 30
0.0
 11
23.05555590324388
 21
181.4188253100892
 31
0.0
  0
LINE
  5
2F1F
330
2EE9
100
AcDbEntity
  8
寸法線
 62
     0
370
    -2
100
AcDbLine
 10
26.05555590324389
 20
197.4733082663028
 30
0.0
 11
26.05555590324389
 21
184.4188253100892
 31
0.0
  0
INSERT
  5
2F20
330
2EE9
100
AcDbEntity
  8
寸法線
 62
     0
370
    -2
100
AcDbBlockReference
  2
_Closed
 10
26.05555590324389
 20
200.4733082663028
 30
0.0
 41
3.0
 42
3.0
 43
3.0
 50
90.0
  0
INSERT
  5
2F21
330
2EE9
100
AcDbEntity
  8
寸法線
 62
     0
370
    -2
100
AcDbBlockReference
  2
_Closed
 10
26.05555590324388
 20
181.4188253100892
 30
0.0
 41
3.0
 42
3.0
 43
3.0
 50
270.0
  0
MTEXT
  5
2F22
330
2EE9
100
AcDbEntity
  8
寸法線
 62
     0
100
AcDbMText
 10
22.5550637772596
 20
190.946066788196
 30
0.0
 40
5.0
 41
0.0
 71
     5
 72
     1
  1
20
  7
OKANO
 11
0.0000000000000001
 21
1.0
 31
0.0
 73
     1
 44
1.0
  0
POINT
  5
2F23
330
2EE9
100
AcDbEntity
  8
Defpoints
 62
     0
100
AcDbPoint
 10
71.91483121513934
 20
200.4733082663028
 30
0.0
  0
POINT
  5
2F24
330
2EE9
100
AcDbEntity
  8
Defpoints
 62
     0
100
AcDbPoint
 10
87.20151402540432
 20
181.4188253100892
 30
0.0
  0
POINT
  5
2F25
330
2EE9
100
AcDbEntity
  8
Defpoints
 62
     0
100
AcDbPoint
 10
26.05555590324388
 20
181.4188253100892
 30
0.0
  0
ENDBLK
  5
2EF4
330
2EE9
100
AcDbEntity
  8
0
100
AcDbBlockEnd
  0
BLOCK
  5
2F02
330
2EF6
100
AcDbEntity
  8
0
100
AcDbBlockBegin
  2
*D20
 70
     1
 10
0.0
 20
0.0
 30
0.0
  3
*D20
  1

  0
LINE
  5
2F14
330
2EF6
100
AcDbEntity
  8
寸法線
 62
     0
370
    -2
100
AcDbLine
 10
85.20151402540433
 20
181.4188253100892
 30
0.0
 11
23.05555590324388
 21
181.4188253100892
 31
0.0
  0
LINE
  5
2F15
330
2EF6
100
AcDbEntity
  8
寸法線
 62
     0
370
    -2
100
AcDbLine
 10
55.20151402540432
 20
170.4711488256961
 30
0.0
 11
23.05555590324388
 21
170.4711488256961
 31
0.0
  0
LINE
  5
2F16
330
2EF6
100
AcDbEntity
  8
寸法線
 62
     0
370
    -2
100
AcDbLine
 10
26.05555590324388
 20
178.4188253100892
 30
0.0
 11
26.05555590324388
 21
173.4711488256961
 31
0.0
  0
INSERT
  5
2F17
330
2EF6
100
AcDbEntity
  8
寸法線
 62
     0
370
    -2
100
AcDbBlockReference
  2
_Closed
 10
26.05555590324388
 20
181.4188253100892
 30
0.0
 41
3.0
 42
3.0
 43
3.0
 50
90.0
  0
INSERT
  5
2F18
330
2EF6
100
AcDbEntity
  8
寸法線
 62
     0
370
    -2
100
AcDbBlockReference
  2
_Closed
 10
26.05555590324388
 20
170.4711488256961
 30
0.0
 41
3.0
 42
3.0
 43
3.0
 50
270.0
  0
MTEXT
  5
2F19
330
2EF6
100
AcDbEntity
  8
寸法線
 62
     0
100
AcDbMText
 10
22.55555590324385
 20
175.9449870678927
 30
0.0
 40
5.0
 41
0.0
 71
     5
 72
     1
  1
11
  7
OKANO
 11
0.0000000000000001
 21
1.0
 31
0.0
 73
     1
 44
1.0
  0
POINT
  5
2F1A
330
2EF6
100
AcDbEntity
  8
Defpoints
 62
     0
100
AcDbPoint
 10
87.20151402540432
 20
181.4188253100892
 30
0.0
  0
POINT
  5
2F1B
330
2EF6
100
AcDbEntity
  8
Defpoints
 62
     0
100
AcDbPoint
 10
57.20151402540432
 20
170.4711488256961
 30
0.0
  0
POINT
  5
2F1C
330
2EF6
100
AcDbEntity
  8
Defpoints
 62
     0
100
AcDbPoint
 10
26.05555590324388
 20
170.4711488256961
 30
0.0
  0
ENDBLK
  5
2F03
330
2EF6
100
AcDbEntity
  8
0
100
AcDbBlockEnd
  0
BLOCK
  5
2F31
330
2F27
100
AcDbEntity
  8
0
100
AcDbBlockBegin
  2
*D22
 70
     1
 10
0.0
 20
0.0
 30
0.0
  3
*D22
  1

  0
LINE
  5
2F71
330
2F27
100
AcDbEntity
  8
寸法線
 62
     0
370
    -2
100
AcDbLine
 10
57.20151402540432
 20
172.4711488256961
 30
0.0
 11
57.20151402540433
 21
235.4060189655666
 31
0.0
  0
LINE
  5
2F72
330
2F27
100
AcDbEntity
  8
寸法線
 62
     0
370
    -2
100
AcDbLine
 10
72.20151402540432
 20
183.4188253100892
 30
0.0
 11
72.20151402540432
 21
235.4060189655666
 31
0.0
  0
LINE
  5
2F73
330
2F27
100
AcDbEntity
  8
寸法線
 62
     0
370
    -2
100
AcDbLine
 10
60.20151402540433
 20
232.4060189655666
 30
0.0
 11
69.20151402540432
 21
232.4060189655666
 31
0.0
  0
INSERT
  5
2F74
330
2F27
100
AcDbEntity
  8
寸法線
 62
     0
370
    -2
100
AcDbBlockReference
  2
_Closed
 10
57.20151402540433
 20
232.4060189655666
 30
0.0
 41
3.0
 42
3.0
 43
3.0
 50
180.0
  0
INSERT
  5
2F75
330
2F27
100
AcDbEntity
  8
寸法線
 62
     0
370
    -2
100
AcDbBlockReference
  2
_Closed
 10
72.20151402540432
 20
232.4060189655666
 30
0.0
 41
3.0
 42
3.0
 43
3.0
  0
MTEXT
  5
2F76
330
2F27
100
AcDbEntity
  8
寸法線
 62
     0
100
AcDbMText
 10
64.70151402540432
 20
235.9060189655666
 30
0.0
 40
5.0
 41
0.0
 71
     5
 72
     1
  1
13
  7
OKANO
 73
     1
 44
1.0
  0
POINT
  5
2F77
330
2F27
100
AcDbEntity
  8
Defpoints
 62
     0
100
AcDbPoint
 10
57.20151402540432
 20
170.4711488256961
 30
0.0
  0
POINT
  5
2F78
330
2F27
100
AcDbEntity
  8
Defpoints
 62
     0
100
AcDbPoint
 10
72.20151402540432
 20
181.4188253100892
 30
0.0
  0
POINT
  5
2F79
330
2F27
100
AcDbEntity
  8
Defpoints
 62
     0
100
AcDbPoint
 10
72.20151402540432
 20
232.4060189655666
 30
0.0
  0
ENDBLK
  5
2F32
330
2F27
100
AcDbEntity
  8
0
100
AcDbBlockEnd
  0
BLOCK
  5
2F3E
330
2F34
100
AcDbEntity
  8
0
100
AcDbBlockBegin
  2
*D23
 70
     1
 10
0.0
 20
0.0
 30
0.0
  3
*D23
  1

  0
LINE
  5
2F7A
330
2F34
100
AcDbEntity
  8
寸法線
 62
     0
370
    -2
100
AcDbLine
 10
72.20151402540432
 20
183.4188253100892
 30
0.0
 11
72.20151402540432
 21
235.4060189655666
 31
0.0
  0
LINE
  5
2F7B
330
2F34
100
AcDbEntity
  8
寸法線
 62
     0
370
    -2
100
AcDbLine
 10
87.20151402540432
 20
183.4188253100892
 30
0.0
 11
87.20151402540432
 21
235.4060189655666
 31
0.0
  0
LINE
  5
2F7C
330
2F34
100
AcDbEntity
  8
寸法線
 62
     0
370
    -2
100
AcDbLine
 10
75.20151402540432
 20
232.4060189655666
 30
0.0
 11
84.20151402540431
 21
232.4060189655666
 31
0.0
  0
INSERT
  5
2F7D
330
2F34
100
AcDbEntity
  8
寸法線
 62
     0
370
    -2
100
AcDbBlockReference
  2
_Closed
 10
72.20151402540432
 20
232.4060189655666
 30
0.0
 41
3.0
 42
3.0
 43
3.0
 50
180.0
  0
INSERT
  5
2F7E
330
2F34
100
AcDbEntity
  8
寸法線
 62
     0
370
    -2
100
AcDbBlockReference
  2
_Closed
 10
87.20151402540432
 20
232.4060189655666
 30
0.0
 41
3.0
 42
3.0
 43
3.0
  0
MTEXT
  5
2F7F
330
2F34
100
AcDbEntity
  8
寸法線
 62
     0
100
AcDbMText
 10
79.70151402540432
 20
235.9060189655666
 30
0.0
 40
5.0
 41
0.0
 71
     5
 72
     1
  1
13
  7
OKANO
 73
     1
 44
1.0
  0
POINT
  5
2F80
330
2F34
100
AcDbEntity
  8
Defpoints
 62
     0
100
AcDbPoint
 10
72.20151402540432
 20
181.4188253100892
 30
0.0
  0
POINT
  5
2F81
330
2F34
100
AcDbEntity
  8
Defpoints
 62
     0
100
AcDbPoint
 10
87.20151402540432
 20
181.4188253100892
 30
0.0
  0
POINT
  5
2F82
330
2F34
100
AcDbEntity
  8
Defpoints
 62
     0
100
AcDbPoint
 10
87.20151402540432
 20
232.4060189655666
 30
0.0
  0
ENDBLK
  5
2F3F
330
2F34
100
AcDbEntity
  8
0
100
AcDbBlockEnd
  0
ENDSEC
  0
SECTION
  2
ENTITIES
  0
XLINE
  5
22CA
330
1F
100
AcDbEntity
  8
構築線
370
     5
100
AcDbXline
 10
72.20151402540432
 20
178.0193172078315
 30
0.0
 11
0.0
 21
-1.0
 31
0.0
  0
ARC
  5
28DE
330
1F
100
AcDbEntity
  8
太線
100
AcDbCircle
 10
72.72108599030314
 20
170.4841443360175
 30
0.0
 40
29.99999999999998
100
AcDbArc
 50
356.6269766589525
 51
180.0
  0
XLINE
  5
28EE
330
1F
100
AcDbEntity
  8
構築線
100
AcDbXline
 10
222.6414745488584
 20
210.4788998873083
 30
0.0
 11
0.0
 21
-1.0
 31
0.0
  0
TEXT
  5
29C1
330
1F
100
AcDbEntity
  8
文字
100
AcDbText
 10
287.7440372230388
 20
-28.02053579212097
 30
0.0
 40
3.599999999999999
  1
SET SCREW COUP
 51
15.0
  7
OKANO
100
AcDbText
  0
TEXT
  5
29C2
330
1F
100
AcDbEntity
  8
文字
100
AcDbText
 10
275.1070859623077
 20
-35.52497173398167
 30
0.0
 40
4.799999999999999
  1
joint kogyo T.okano
 51
15.0
  7
OKANO
100
AcDbText
  0
TEXT
  5
29C3
330
1F
100
AcDbEntity
  8
文字
100
AcDbText
 10
267.6187729505109
 20
-20.77260022669388
 30
0.0
 40
4.799999999999999
  1
F-999-20040824 Auto CAD
 51
15.0
  7
OKANO
100
AcDbText
  0
LINE
  5
29C4
330
1F
100
AcDbEntity
  8
太線
100
AcDbLine
 10
240.196544768897
 20
-21.69340787712424
 30
0.0
 11
348.196544768897
 21
-21.69340787712424
 31
0.0
  0
LWPOLYLINE
  5
29C5
330
1F
100
AcDbEntity
  8
太線
100
AcDbPolyline
 90
        4
 70
     1
 43
0.0
 10
240.196544768897
 20
-13.29340787712424
 10
348.196544768897
 20
-13.29340787712424
 10
348.196544768897
 20
-38.49340787712424
 10
240.196544768897
 20
-38.49340787712424
  0
TEXT
  5
29C6
330
1F
100
AcDbEntity
  8
文字
100
AcDbText
 10
244.0689283349545
 20
-29.88691967597492
 30
0.0
 40
2.399999999999999
  1
CHECK
 51
15.0
  7
OKANO
100
AcDbText
  0
LINE
  5
29C7
330
1F
100
AcDbEntity
  8
太線
100
AcDbLine
 10
264.196544768897
 20
-13.29340787712424
 30
0.0
 11
264.196544768897
 21
-38.49340787712424
 31
0.0
  0
TEXT
  5
29C8
330
1F
100
AcDbEntity
  8
文字
100
AcDbText
 10
244.0689283349545
 20
-36.80634728219074
 30
0.0
 40
2.399999999999999
  1
ISSUED
 51
15.0
  7
OKANO
100
AcDbText
  0
TEXT
  5
29C9
330
1F
100
AcDbEntity
  8
文字
100
AcDbText
 10
244.3254427678553
 20
-33.47477109292261
 30
0.0
 40
2.399999999999999
  1
APPR
 51
15.0
  7
OKANO
100
AcDbText
  0
TEXT
  5
29CA
330
1F
100
AcDbEntity
  8
文字
100
AcDbText
 10
242.2733327832688
 20
-19.89219169835908
 30
0.0
 40
2.399999999999999
  1
FILM NAME
 51
15.0
  7
OKANO
100
AcDbText
  0
TEXT
  5
29CB
330
1F
100
AcDbEntity
  8
文字
100
AcDbText
 10
243.5559016606009
 20
-26.29906884921588
 30
0.0
 40
2.399999999999999
  1
DRAWN
 51
15.0
  7
OKANO
100
AcDbText
  0
TEXT
  5
29CC
330
1F
100
AcDbEntity
  8
文字
100
AcDbText
 10
269.2920637006745
 20
-28.93040856875439
 30
0.0
 40
4.799999999999999
  1
9-1Z
 51
15.0
  7
OKANO
100
AcDbText
  0
DIMENSION
  5
29F1
330
1F
100
AcDbEntity
  8
寸法線
100
AcDbDimension
  2
*D2
 10
207.0546510118342
 20
150.6055759632823
 30
0.0
 11
203.5546510118342
 21
125.3147944427035
 31
0.0
 70
    32
  1
49.6
 71
     5
 42
50.58156304115768
  3
sunpo
100
AcDbAlignedDimension
 13
212.2324195332539
 23
100.0240129221247
 33
0.0
 14
212.2324195332539
 24
150.6055759632823
 34
0.0
 50
90.0
100
AcDbRotatedDimension
1001
ACAD
1000
DSTYLE
1002
{
1070
    40
1040
1.0
1002
}
  0
CIRCLE
  5
2A76
330
1F
100
AcDbEntity
  8
太線
 62
     0
100
AcDbCircle
 10
72.20151402540432
 20
181.4188253100892
 30
0.0
 40
6.0
  0
LINE
  5
2AA8
330
1F
100
AcDbEntity
  8
太線
 62
     0
100
AcDbLine
 10
217.6414745488584
 20
100.4711488256961
 30
0.0
 11
217.6414745488584
 21
154.4711488256961
 31
0.0
  0
LINE
  5
2AAC
330
1F
100
AcDbEntity
  8
太線
 62
     0
100
AcDbLine
 10
227.6414745488585
 20
160.4711488256961
 30
0.0
 11
227.6414745488584
 21
200.4711488256961
 31
0.0
  0
LINE
  5
2AAE
330
1F
100
AcDbEntity
  8
太線
 62
     0
100
AcDbLine
 10
232.7914745488584
 20
199.4711488256961
 30
0.0
 11
232.7914745488584
 21
160.4711488256961
 31
0.0
  0
LINE
  5
2AB0
330
1F
100
AcDbEntity
  8
太線
 62
     0
100
AcDbLine
 10
277.6414745488584
 20
154.4711488256961
 30
0.0
 11
277.6414745488584
 21
100.4711488256961
 31
0.0
  0
ARC
  5
2ABB
330
1F
100
AcDbEntity
  8
太線
 62
     0
100
AcDbCircle
 10
237.7914745488584
 20
160.4711488256961
 30
0.0
 40
5.0
100
AcDbArc
 50
180.0
 51
270.0
  0
ARC
  5
2ABC
330
1F
100
AcDbEntity
  8
太線
 62
     0
100
AcDbCircle
 10
222.6414745488585
 20
160.4711488256961
 30
0.0
 40
5.0
100
AcDbArc
 50
270.0
 51
0.0
  0
ARC
  5
2ABD
330
1F
100
AcDbEntity
  8
太線
 62
     0
100
AcDbCircle
 10
276.6414745488584
 20
154.4711488256961
 30
0.0
 40
1.0
100
AcDbArc
 50
0.0
 51
90.0
  0
ARC
  5
2ABE
330
1F
100
AcDbEntity
  8
太線
 62
     0
100
AcDbCircle
 10
218.6414745488584
 20
154.4711488256961
 30
0.0
 40
1.0
100
AcDbArc
 50
90.0
 51
180.0
  0
LINE
  5
2B52
330
1F
100
AcDbEntity
  8
太線
100
AcDbLine
 10
217.6414745488584
 20
100.4711488256961
 30
0.0
 11
217.6414745488584
 21
95.47114882569616
 31
0.0
  0
LINE
  5
2B53
330
1F
100
AcDbEntity
  8
太線
100
AcDbLine
 10
217.6414745488584
 20
95.47114882569616
 30
0.0
 11
277.6414745488584
 21
95.47114882569616
 31
0.0
  0
LINE
  5
2B54
330
1F
100
AcDbEntity
  8
太線
100
AcDbLine
 10
277.6414745488584
 20
95.47114882569616
 30
0.0
 11
277.6414745488584
 21
100.4711488256961
 31
0.0
  0
LINE
  5
2B55
330
1F
100
AcDbEntity
  8
想像線
100
AcDbLine
 10
217.6414745488584
 20
150.4711488256961
 30
0.0
 11
277.6414745488584
 21
150.4711488256961
 31
0.0
  0
LINE
  5
2B56
330
1F
100
AcDbEntity
  8
想像線
100
AcDbLine
 10
217.6414745488584
 20
100.4711488256961
 30
0.0
 11
277.6414745488584
 21
100.4711488256961
 31
0.0
  0
XLINE
  5
2B86
330
1F
100
AcDbEntity
  8
構築線
370
     5
100
AcDbXline
 10
40.70151402540432
 20
125.4711488256961
 30
0.0
 11
1.0
 21
0.0
 31
0.0
  0
LINE
  5
2B89
330
1F
100
AcDbEntity
  8
太線
 62
     0
100
AcDbLine
 10
252.6414745488584
 20
95.47114882569616
 30
0.0
 11
276.6414745488584
 21
95.47114882569616
 31
0.0
  0
ARC
  5
2B8E
330
1F
100
AcDbEntity
  8
太線
 62
     0
100
AcDbCircle
 10
218.6414745488584
 20
96.47114882569619
 30
0.0
 40
1.0
100
AcDbArc
 50
180.0
 51
270.0
  0
LINE
  5
2B8F
330
1F
100
AcDbEntity
  8
太線
 62
     0
100
AcDbLine
 10
218.6414745488584
 20
95.47114882569619
 30
0.0
 11
237.4914745488585
 21
95.47114882569616
 31
0.0
  0
ARC
  5
2B95
330
1F
100
AcDbEntity
  8
太線
 62
     0
100
AcDbCircle
 10
276.6414745488584
 20
96.47114882569617
 30
0.0
 40
1.0
100
AcDbArc
 50
270.0
 51
0.0
  0
CIRCLE
  5
2BEA
330
1F
100
AcDbEntity
  8
太線
100
AcDbCircle
 10
72.20151402540432
 20
125.4711488256961
 30
0.0
 40
30.0
  0
CIRCLE
  5
2BEB
330
1F
100
AcDbEntity
  8
太線
100
AcDbCircle
 10
72.20151402540432
 20
125.4711488256961
 30
0.0
 40
25.0
  0
LINE
  5
2C0E
330
1F
100
AcDbEntity
  8
太線
100
AcDbLine
 10
227.6414745488585
 20
200.4711488256961
 30
0.0
 11
231.7914745488584
 21
200.4711488256961
 31
0.0
  0
LINE
  5
2C11
330
1F
100
AcDbEntity
  8
構築線
100
AcDbLine
 10
227.6414745488585
 20
187.4188253100892
 30
0.0
 11
232.7914745488584
 21
187.4188253100892
 31
0.0
  0
CIRCLE
  5
2C1B
330
1F
100
AcDbEntity
  8
太線
100
AcDbCircle
 10
57.20151402540432
 20
170.4711488256961
 30
0.0
 40
2.0
  0
LINE
  5
2C20
330
1F
100
AcDbEntity
  8
太線
100
AcDbLine
 10
43.28922903500461
 20
57.35022385680919
 30
0.0
 11
101.173488914702
 21
57.35022385680918
 31
0.0
  0
LINE
  5
2C21
330
1F
100
AcDbEntity
  8
太線
100
AcDbLine
 10
102.173488914702
 20
56.35022385680918
 30
0.0
 11
102.173488914702
 21
-2.64977614319082
 31
0.0
  0
LINE
  5
2C22
330
1F
100
AcDbEntity
  8
太線
100
AcDbLine
 10
102.173488914702
 20
-2.64977614319082
 30
0.0
 11
42.2892290350046
 21
-2.64977614319082
 31
0.0
  0
LINE
  5
2C23
330
1F
100
AcDbEntity
  8
太線
100
AcDbLine
 10
42.2892290350046
 20
-2.64977614319082
 30
0.0
 11
42.2892290350046
 21
56.35022385680919
 31
0.0
  0
LINE
  5
2C2A
330
1F
100
AcDbEntity
  8
太線
100
AcDbLine
 10
102.6691152079036
 20
168.7190534086877
 30
0.0
 11
102.6691152079036
 21
124.5706657968711
 31
0.0
  0
LINE
  5
2C2B
330
1F
100
AcDbEntity
  8
太線
100
AcDbLine
 10
42.72108599030316
 20
170.4841443360175
 30
0.0
 11
42.72108599030316
 21
125.0377966110052
 31
0.0
  0
ARC
  5
2C2C
330
1F
100
AcDbEntity
  8
太線
100
AcDbCircle
 10
101.173488914702
 20
56.35022385680918
 30
0.0
 40
1.0
100
AcDbArc
 50
0.0
 51
90.0
  0
ARC
  5
2C2D
330
1F
100
AcDbEntity
  8
太線
100
AcDbCircle
 10
43.28922903500461
 20
56.35022385680919
 30
0.0
 40
1.0
100
AcDbArc
 50
90.0
 51
180.0
  0
ARC
  5
2C2E
330
1F
100
AcDbEntity
  8
太線
100
AcDbCircle
 10
231.7914745488584
 20
199.4711488256961
 30
0.0
 40
1.0
100
AcDbArc
 50
0.0000000000001018
 51
90.0
  0
XLINE
  5
2C2F
330
1F
100
AcDbEntity
  8
構築線
100
AcDbXline
 10
72.20151402540432
 20
181.4188253100892
 30
0.0
 11
1.0
 21
0.0
 31
0.0
  0
CIRCLE
  5
2C30
330
1F
100
AcDbEntity
  8
太線
100
AcDbCircle
 10
87.20151402540432
 20
181.4188253100892
 30
0.0
 40
2.0
  0
LINE
  5
2C39
330
1F
100
AcDbEntity
  8
想像線
100
AcDbLine
 10
227.6414745488585
 20
187.4188253100892
 30
0.0
 11
232.7914745488584
 21
187.4188253100892
 31
0.0
  0
LINE
  5
2C3A
330
1F
100
AcDbEntity
  8
想像線
100
AcDbLine
 10
227.6414745488585
 20
175.4188253100892
 30
0.0
 11
232.7914745488584
 21
175.4188253100892
 31
0.0
  0
LINE
  5
2C3B
330
1F
100
AcDbEntity
  8
想像線
100
AcDbLine
 10
227.6414745488585
 20
183.4188253100892
 30
0.0
 11
232.7914745488584
 21
183.4188253100892
 31
0.0
  0
LINE
  5
2C3C
330
1F
100
AcDbEntity
  8
想像線
100
AcDbLine
 10
227.6414745488585
 20
179.4188253100892
 30
0.0
 11
232.7914745488584
 21
179.4188253100892
 31
0.0
  0
LINE
  5
2C3D
330
1F
100
AcDbEntity
  8
想像線
100
AcDbLine
 10
227.6414745488585
 20
172.4711488256961
 30
0.0
 11
232.7914745488584
 21
172.4711488256961
 31
0.0
  0
LINE
  5
2C3E
330
1F
100
AcDbEntity
  8
想像線
100
AcDbLine
 10
227.6414745488585
 20
168.4711488256962
 30
0.0
 11
232.7914745488584
 21
168.4711488256962
 31
0.0
  0
DIMENSION
  5
2C42
330
1F
100
AcDbEntity
  8
寸法線
100
AcDbDimension
  2
*D4
 10
277.6414745488584
 20
75.08747344794608
 30
0.0
 11
247.6414745488584
 21
78.58747344794608
 31
0.0
 70
    32
 71
     5
 42
59.99999999999997
  3
sunpo
100
AcDbAlignedDimension
 13
217.6414745488584
 23
95.47114882569616
 33
0.0
 14
277.6414745488584
 24
95.47114882569616
 34
0.0
100
AcDbRotatedDimension
1001
ACAD
1000
DSTYLE
1002
{
1070
    40
1040
1.0
1002
}
  0
DIMENSION
  5
2CAB
330
1F
100
AcDbEntity
  8
寸法線
100
AcDbDimension
  2
*D5
 10
55.49237856381324
 20
171.5098287445989
 30
0.0
 11
67.91223325201658
 21
163.9620047422122
 31
0.0
 70
    35
 71
     5
 42
4.000000000000014
  3
sunpo
100
AcDbDiametricDimension
 15
58.9106494869954
 25
169.4324689067934
 35
0.0
 40
0.0
1001
ACAD
1000
DSTYLE
1002
{
1070
    40
1040
1.0
1070
   288
1070
     1
1002
}
  0
DIMENSION
  5
2CE6
330
1F
100
AcDbEntity
  8
寸法線
100
AcDbDimension
  2
*D6
 10
102.8526438299095
 20
78.2372193184151
 30
0.0
 11
72.52514443702285
 21
81.73721931841511
 31
0.0
 70
    32
  1
57.3
 71
     5
 42
60.65499878577338
  3
sunpo
100
AcDbAlignedDimension
 13
42.19764504413615
 23
112.018220586241
 33
0.0
 14
102.8526438299095
 24
112.018220586241
 34
0.0
100
AcDbRotatedDimension
1001
ACAD
1000
DSTYLE
1002
{
1070
    40
1040
1.0
1002
}
  0
LINE
  5
2D22
330
1F
100
AcDbEntity
  8
太線
100
AcDbLine
 10
218.6414745488584
 20
155.4711488256961
 30
0.0
 11
222.6414745488584
 21
155.4711488256961
 31
0.0
  0
LINE
  5
2D23
330
1F
100
AcDbEntity
  8
太線
100
AcDbLine
 10
237.7914745488584
 20
155.4711488256961
 30
0.0
 11
277.6414745488584
 21
155.4711488256961
 31
0.0
  0
LINE
  5
2D2B
330
1F
100
AcDbEntity
  8
太線
100
AcDbLine
 10
54.70151402540432
 20
149.8381346877185
 30
0.0
 11
54.70151402540432
 21
165.4711488256961
 31
0.0
  0
LINE
  5
2D2C
330
1F
100
AcDbEntity
  8
太線
100
AcDbLine
 10
54.70151402540432
 20
165.4711488256961
 30
0.0
 11
59.70151402540432
 21
165.4711488256961
 31
0.0
  0
LINE
  5
2D2D
330
1F
100
AcDbEntity
  8
太線
100
AcDbLine
 10
59.70151402540432
 20
165.4711488256961
 30
0.0
 11
59.70151402540432
 21
152.7429291122854
 31
0.0
  0
LINE
  5
2D2E
330
1F
100
AcDbEntity
  8
太線
100
AcDbLine
 10
84.70151402540432
 20
152.7429291122854
 30
0.0
 11
84.70151402540432
 21
165.4711488256961
 31
0.0
  0
LINE
  5
2D31
330
1F
100
AcDbEntity
  8
太線
100
AcDbLine
 10
84.70151402540432
 20
165.4711488256961
 30
0.0
 11
89.70151402540432
 21
165.4711488256961
 31
0.0
  0
LINE
  5
2D32
330
1F
100
AcDbEntity
  8
太線
100
AcDbLine
 10
89.70151402540432
 20
165.4711488256961
 30
0.0
 11
89.70151402540432
 21
149.8381346877185
 31
0.0
  0
LINE
  5
2D33
330
1F
100
AcDbEntity
  8
太線
100
AcDbLine
 10
42.2892290350046
 20
12.35022385680918
 30
0.0
 11
102.173488914702
 21
12.35022385680918
 31
0.0
  0
LINE
  5
2D34
330
1F
100
AcDbEntity
  8
太線
100
AcDbLine
 10
42.2892290350046
 20
7.350223856809179
 30
0.0
 11
102.173488914702
 21
7.350223856809179
 31
0.0
  0
LINE
  5
2D35
330
1F
100
AcDbEntity
  8
太線
100
AcDbLine
 10
54.70151402540432
 20
7.350223856809179
 30
0.0
 11
54.70151402540432
 21
-2.64977614319082
 31
0.0
  0
LINE
  5
2D36
330
1F
100
AcDbEntity
  8
太線
100
AcDbLine
 10
59.70151402540432
 20
7.350223856809179
 30
0.0
 11
59.70151402540432
 21
-2.64977614319082
 31
0.0
  0
LINE
  5
2D37
330
1F
100
AcDbEntity
  8
太線
100
AcDbLine
 10
84.70151402540432
 20
7.350223856809179
 30
0.0
 11
84.70151402540432
 21
-2.64977614319082
 31
0.0
  0
LINE
  5
2D38
330
1F
100
AcDbEntity
  8
太線
100
AcDbLine
 10
89.70151402540432
 20
7.350223856809179
 30
0.0
 11
89.70151402540432
 21
-2.64977614319082
 31
0.0
  0
LINE
  5
2D3A
330
1F
100
AcDbEntity
  8
想像線
100
AcDbLine
 10
78.20151402540432
 20
12.35022385680918
 30
0.0
 11
78.20151402540432
 21
7.350223856809179
 31
0.0
  0
LINE
  5
2D3B
330
1F
100
AcDbEntity
  8
想像線
100
AcDbLine
 10
67.20151402540432
 20
12.35022385680918
 30
0.0
 11
67.20151402540432
 21
7.350223856809179
 31
0.0
  0
XLINE
  5
2D3C
330
1F
100
AcDbEntity
  8
構築線
370
     5
100
AcDbXline
 10
89.20151402540431
 20
178.0193172078315
 30
0.0
 11
0.0
 21
-1.0
 31
0.0
  0
XLINE
  5
2D3D
330
1F
100
AcDbEntity
  8
構築線
370
     5
100
AcDbXline
 10
89.20151402540431
 20
178.0193172078315
 30
0.0
 11
0.0
 21
-1.0
 31
0.0
  0
LINE
  5
2D42
330
1F
100
AcDbEntity
  8
構築線
100
AcDbLine
 10
89.20151402540431
 20
12.35022385680918
 30
0.0
 11
89.20151402540431
 21
7.350223856809179
 31
0.0
  0
LINE
  5
2D43
330
1F
100
AcDbEntity
  8
想像線
100
AcDbLine
 10
89.20151402540431
 20
12.35022385680918
 30
0.0
 11
89.20151402540431
 21
7.350223856809179
 31
0.0
  0
LINE
  5
2D44
330
1F
100
AcDbEntity
  8
想像線
100
AcDbLine
 10
85.20151402540433
 20
12.35022385680918
 30
0.0
 11
85.20151402540433
 21
7.350223856809179
 31
0.0
  0
LINE
  5
2D45
330
1F
100
AcDbEntity
  8
想像線
100
AcDbLine
 10
59.20151402540432
 20
12.35022385680918
 30
0.0
 11
59.20151402540432
 21
7.350223856809179
 31
0.0
  0
LINE
  5
2D46
330
1F
100
AcDbEntity
  8
想像線
100
AcDbLine
 10
55.20151402540432
 20
12.35022385680918
 30
0.0
 11
55.20151402540432
 21
7.350223856809179
 31
0.0
  0
LINE
  5
2D49
330
1F
100
AcDbEntity
  8
想像線
100
AcDbLine
 10
97.20151402540432
 20
57.35022385680918
 30
0.0
 11
97.20151402540432
 21
-2.64977614319082
 31
0.0
  0
LINE
  5
2D4A
330
1F
100
AcDbEntity
  8
想像線
100
AcDbLine
 10
47.20151402540432
 20
57.35022385680918
 30
0.0
 11
47.20151402540432
 21
-2.64977614319082
 31
0.0
  0
DIMENSION
  5
2D4D
330
1F
100
AcDbEntity
  8
寸法線
100
AcDbDimension
  2
*D8
 10
102.6691152079036
 20
124.5706657968711
 30
0.0
 11
94.93531461665401
 21
128.0706657968711
 31
0.0
 70
    32
  1
15.0
 71
     5
 42
15.46760118249937
  3
sunpo
100
AcDbAlignedDimension
 13
87.20151402540432
 23
165.4711488256961
 33
0.0
 14
102.6691152079036
 24
168.7190534086877
 34
0.0
100
AcDbRotatedDimension
1001
ACAD
1000
DSTYLE
1002
{
1070
    40
1040
1.0
1002
}
  0
DIMENSION
  5
2D5B
330
1F
100
AcDbEntity
  8
寸法線
100
AcDbDimension
  2
*D9
 10
133.0607226358583
 20
165.4874443548878
 30
0.0
 11
129.5607226358583
 21
174.3398938059866
 31
0.0
 70
    32
  1
10.0
 71
     5
 42
10.85646079232003
  3
sunpo
100
AcDbAlignedDimension
 13
73.30298976870699
 23
154.6309835625678
 33
0.0
 14
73.30298976870699
 24
165.4874443548878
 34
0.0
 50
90.0
100
AcDbRotatedDimension
1001
ACAD
1000
DSTYLE
1002
{
1070
    40
1040
1.0
1002
}
  0
DIMENSION
  5
2D69
330
1F
100
AcDbEntity
  8
寸法線
100
AcDbDimension
  2
*D10
 10
227.6414745488584
 20
214.3415175586931
 30
0.0
 11
236.4939239999571
 21
217.841517558693
 31
0.0
 70
    32
  1
10.0
 71
     5
 42
9.000000000000028
  3
sunpo
100
AcDbAlignedDimension
 13
218.6414745488584
 23
155.4711488256961
 33
0.0
 14
227.6414745488584
 24
200.4711488256961
 34
0.0
100
AcDbRotatedDimension
1001
ACAD
1000
DSTYLE
1002
{
1070
    40
1040
1.0
1002
}
  0
DIMENSION
  5
2D76
330
1F
100
AcDbEntity
  8
寸法線
100
AcDbDimension
  2
*D11
 10
206.9430092088723
 20
200.4711488256961
 30
0.0
 11
203.4430092088722
 21
175.4711488256962
 31
0.0
 70
    32
 71
     5
 42
50.0
  3
sunpo
100
AcDbAlignedDimension
 13
217.6414745488584
 23
150.4711488256961
 33
0.0
 14
227.6414745488584
 24
200.4711488256961
 34
0.0
 50
90.0
100
AcDbRotatedDimension
1001
ACAD
1000
DSTYLE
1002
{
1070
    40
1040
1.0
1002
}
  0
DIMENSION
  5
2D83
330
1F
100
AcDbEntity
  8
寸法線
100
AcDbDimension
  2
*D12
 10
232.7721634818121
 20
191.646082381521
 30
0.0
 11
230.3891964848954
 21
195.146082381521
 31
0.0
 70
    32
  1
4
 71
     5
 42
4.765933993833414
  3
sunpo
100
AcDbAlignedDimension
 13
228.0062294879787
 23
192.0124030874457
 33
0.0
 14
232.7721634818121
 24
192.0124030874457
 34
0.0
100
AcDbRotatedDimension
1001
ACAD
1000
DSTYLE
1002
{
1070
    40
1040
1.0
1002
}
  0
DIMENSION
  5
2DBA
330
1F
100
AcDbEntity
  8
寸法線
100
AcDbDimension
  2
*D13
 10
89.79411960542439
 20
-14.98447109645769
 30
0.0
 11
87.04454200904615
 21
-11.48447109645769
 31
0.0
 70
    32
  1
4
 71
     5
 42
5.499155192756461
  3
sunpo
100
AcDbAlignedDimension
 13
84.29496441266792
 23
-6.192771984457976
 33
0.0
 14
89.79411960542439
 24
-6.192771984457976
 34
0.0
100
AcDbRotatedDimension
1001
ACAD
1000
DSTYLE
1002
{
1070
    40
1040
1.0
1002
}
  0
DIMENSION
  5
2E08
330
1F
100
AcDbEntity
  8
寸法線
100
AcDbDimension
  2
*D14
 10
296.8207853161941
 20
100.4711488256961
 30
0.0
 11
293.3207853161941
 21
97.97114882569621
 31
0.0
 70
    32
  1
4
 71
     5
 42
5.0
  3
sunpo
100
AcDbAlignedDimension
 13
276.6414745488584
 23
95.47114882569616
 33
0.0
 14
277.6414745488584
 24
100.4711488256961
 34
0.0
 50
90.0
100
AcDbRotatedDimension
1001
ACAD
1000
DSTYLE
1002
{
1070
    40
1040
1.0
1002
}
  0
DIMENSION
  5
2E17
330
1F
100
AcDbEntity
  8
寸法線
100
AcDbDimension
  2
*D15
 10
296.8207853161942
 20
150.4711488256961
 30
0.0
 11
293.3207853161941
 21
125.4711488256962
 31
0.0
 70
    32
  1
49.3
 71
     5
 42
50.0
  3
sunpo
100
AcDbAlignedDimension
 13
277.6414745488584
 23
100.4711488256961
 33
0.0
 14
277.6414745488584
 24
150.4711488256961
 34
0.0
 50
90.0
100
AcDbRotatedDimension
1001
ACAD
1000
DSTYLE
1002
{
1070
    40
1040
1.0
1070
   279
1070
     1
1002
}
  0
DIMENSION
  5
2E24
330
1F
100
AcDbEntity
  8
寸法線
100
AcDbDimension
  2
*D16
 10
296.8207853161942
 20
155.4711488256961
 30
0.0
 11
293.3207853161941
 21
152.9711488256961
 31
0.0
 70
    32
  1
4
 71
     5
 42
5.0
  3
sunpo
100
AcDbAlignedDimension
 13
277.6414745488584
 23
150.4711488256961
 33
0.0
 14
276.6414745488584
 24
155.4711488256961
 34
0.0
 50
90.0
100
AcDbRotatedDimension
1001
ACAD
1000
DSTYLE
1002
{
1070
    40
1040
1.0
1070
   279
1070
     1
1002
}
  0
LINE
  5
2E6D
330
1F
100
AcDbEntity
  8
太線
100
AcDbLine
 10
217.6414745488584
 20
154.4711488256961
 30
0.0
 11
227.6414745488584
 21
165.4711488256961
 31
0.0
  0
DIMENSION
  5
2E96
330
1F
100
AcDbEntity
  8
寸法線
100
AcDbDimension
  2
*D17
 10
72.72108599030318
 20
170.4841443360179
 30
0.0
 11
63.16900132989403
 21
174.2901739262927
 31
0.0
 70
   164
 71
     5
 42
29.99999999999987
  3
sunpo
100
AcDbRadialDimension
 15
44.85191602696389
 25
181.5886193598315
 35
0.0
 40
0.0
1001
ACAD
1000
DSTYLE
1002
{
1070
    40
1040
1.0
1070
   288
1070
     1
1002
}
  0
DIMENSION
  5
2E9F
330
1F
100
AcDbEntity
  8
寸法線
100
AcDbDimension
  2
*D18
 10
67.35554053845359
 20
184.9566976881959
 30
0.0
 11
86.7247888464189
 21
170.8159004349777
 31
0.0
 70
    35
 71
     5
 42
12.0
  3
sunpo
100
AcDbDiametricDimension
 15
77.04748751235505
 25
177.8809529319824
 35
0.0
 40
0.0
1001
ACAD
1000
DSTYLE
1002
{
1070
    40
1040
1.0
1070
   288
1070
     1
1002
}
  0
TEXT
  5
2ECD
330
1F
100
AcDbEntity
  8
文字
100
AcDbText
 10
166.3736366513165
 20
31.12981019568271
 30
0.0
 40
4.799999999999999
  1
注記　内面バリは最小限にする
 51
15.0
  7
OKANO
100
AcDbText
  0
TEXT
  5
2EDA
330
1F
100
AcDbEntity
  8
文字
100
AcDbText
 10
275.886333861672
 20
-9.703120477107724
 30
0.0
 40
4.799999999999999
  1
JAN 4562182301093
 51
15.0
  7
OKANO
100
AcDbText
  0
DIMENSION
  5
2EE8
330
1F
100
AcDbEntity
  8
寸法線
100
AcDbDimension
  2
*D19
 10
26.05555590324388
 20
181.4188253100892
 30
0.0
 11
22.5550637772596
 21
190.946066788196
 31
0.0
 70
    32
  1
20
 71
     5
 42
19.0544829562136
  3
sunpo
100
AcDbAlignedDimension
 13
71.91483121513934
 23
200.4733082663028
 33
0.0
 14
87.20151402540432
 24
181.4188253100892
 34
0.0
 50
90.0
100
AcDbRotatedDimension
1001
ACAD
1000
DSTYLE
1002
{
1070
    40
1040
1.0
1002
}
  0
DIMENSION
  5
2EF5
330
1F
100
AcDbEntity
  8
寸法線
100
AcDbDimension
  2
*D20
 10
26.05555590324388
 20
170.4711488256961
 30
0.0
 11
22.55555590324385
 21
175.9449870678927
 31
0.0
 70
    32
  1
11
 71
     5
 42
10.94767648439307
  3
sunpo
100
AcDbAlignedDimension
 13
87.20151402540432
 23
181.4188253100892
 33
0.0
 14
57.20151402540432
 24
170.4711488256961
 34
0.0
 50
90.0
100
AcDbRotatedDimension
1001
ACAD
1000
DSTYLE
1002
{
1070
    40
1040
1.0
1070
   279
1070
     1
1002
}
  0
DIMENSION
  5
2F26
330
1F
100
AcDbEntity
  8
寸法線
100
AcDbDimension
  2
*D22
 10
72.20151402540432
 20
232.4060189655666
 30
0.0
 11
64.70151402540432
 21
235.9060189655666
 31
0.0
 70
    32
  1
13
 71
     5
 42
15.0
  3
sunpo
100
AcDbAlignedDimension
 13
57.20151402540432
 23
170.4711488256961
 33
0.0
 14
72.20151402540432
 24
181.4188253100892
 34
0.0
100
AcDbRotatedDimension
1001
ACAD
1000
DSTYLE
1002
{
1070
    40
1040
1.0
1002
}
  0
DIMENSION
  5
2F33
330
1F
100
AcDbEntity
  8
寸法線
100
AcDbDimension
  2
*D23
 10
87.20151402540432
 20
232.4060189655666
 30
0.0
 11
79.70151402540432
 21
235.9060189655666
 31
0.0
 70
    32
  1
13
 71
     5
 42
15.0
  3
sunpo
100
AcDbAlignedDimension
 13
72.20151402540432
 23
181.4188253100892
 33
0.0
 14
87.20151402540432
 24
181.4188253100892
 34
0.0
100
AcDbRotatedDimension
1001
ACAD
1000
DSTYLE
1002
{
1070
    40
1040
1.0
1070
   279
1070
     1
1002
}
  0
VIEWPORT
  5
2E
330
1B
100
AcDbEntity
 67
     1
  8
0
100
AcDbViewport
 10
220.0384819530944
 20
114.381988330847
 30
0.0
 40
552.0369341590154
 41
264.4807176517469
 68
     2
 69
     1
 12
220.0384819530944
 22
114.381988330847
 13
0.0
 23
0.0
 14
10.0
 24
10.0
 15
10.0
 25
10.0
 16
0.0
 26
0.0
 36
1.0
 17
0.0
 27
0.0
 37
0.0
 42
50.0
 43
0.0
 44
0.0
 45
264.4807176517469
 50
0.0
 51
0.0
 72
   100
 90
    32800
  1

281
     0
 71
     1
 74
     0
110
0.0
120
0.0
130
0.0
111
1.0
121
0.0
131
0.0
112
0.0
122
1.0
132
0.0
 79
     0
146
0.0
  0
VIEWPORT
  5
30
330
1B
100
AcDbEntity
 67
     1
  8
70-0-CON
100
AcDbViewport
 10
141.8594093064315
 20
100.3480256368386
 30
0.0
 40
261.6199023344245
 41
192.6196987113174
 68
     1
 69
     2
 12
169.9175654073273
 22
107.9594872681288
 13
0.0
 23
0.0
 14
5.0
 24
5.0
 15
10.0
 25
10.0
 16
0.0
 26
0.0
 36
1.0
 17
0.0
 27
0.0
 37
0.0
 42
50.0
 43
0.0
 44
0.0
 45
318.7827824119468
 50
0.0
 51
0.0
 72
   100
 90
    32864
  1

281
     0
 71
     1
 74
     0
110
0.0
120
0.0
130
0.0
111
1.0
121
0.0
131
0.0
112
0.0
122
1.0
132
0.0
 79
     0
146
0.0
  0
LWPOLYLINE
  5
45
330
1B
100
AcDbEntity
 67
     1
  8
50-0-CON
100
AcDbPolyline
 90
        4
 70
     1
 43
0.0
 10
11.04945813921926
 20
4.038176281179858
 10
272.2125713060605
 20
4.033520706629644
 10
273.4987754093466
 20
195.9297862125246
 10
11.04945813921926
 20
196.6578749924973
  0
LINE
  5
4A
330
1B
100
AcDbEntity
 67
     1
  8
50-0-CON
100
AcDbLine
 10
10.38768783662635
 20
100.3480256368386
 30
0.0
 11
-4.391850629656119
 21
100.3480256368386
 31
0.0
  0
LINE
  5
4B
330
1B
100
AcDbEntity
 67
     1
  8
50-0-CON
100
AcDbLine
 10
141.8594093064315
 20
197.098652626247
 30
0.0
 11
141.8594093064315
 21
202.387980773708
 31
0.0
  0
LINE
  5
4C
330
1B
100
AcDbEntity
 67
     1
  8
50-0-CON
100
AcDbLine
 10
272.4487699456857
 20
100.7888032705883
 30
0.0
 11
278.8458837249377
 21
100.7888032705883
 31
0.0
  0
LINE
  5
4D
330
1B
100
AcDbEntity
 67
     1
  8
50-0-CON
100
AcDbLine
 10
140.9770484758805
 20
4.038176281179858
 30
0.0
 11
140.9770484758805
 21
-3.455038652015446
 31
0.0
  0
ENDSEC
  0
SECTION
  2
OBJECTS
  0
DICTIONARY
  5
C
330
0
100
AcDbDictionary
281
     1
  3
ACAD_GROUP
350
D
  3
ACAD_LAYOUT
350
1A
  3
ACAD_MLINESTYLE
350
17
  3
ACAD_PLOTSETTINGS
350
19
  3
ACAD_PLOTSTYLENAME
350
E
  3
AcadDim
350
13D0
  3
AcDbVariableDictionary
350
6AD
  3
DWGPROPS
350
30F
  0
DICTIONARY
  5
D
102
{ACAD_REACTORS
330
C
102
}
330
C
100
AcDbDictionary
281
     1
  0
DICTIONARY
  5
1A
102
{ACAD_REACTORS
330
C
102
}
330
C
100
AcDbDictionary
281
     1
  3
A4
350
1E
  3
Model
350
22
  0
DICTIONARY
  5
17
102
{ACAD_REACTORS
330
C
102
}
330
C
100
AcDbDictionary
281
     1
  3
Standard
350
18
  0
DICTIONARY
  5
19
102
{ACAD_REACTORS
330
C
102
}
330
C
100
AcDbDictionary
281
     1
  0
ACDBDICTIONARYWDFLT
  5
E
102
{ACAD_REACTORS
330
C
102
}
330
C
100
AcDbDictionary
281
     1
  3
Normal
350
F
100
AcDbDictionaryWithDefault
340
F
  0
XRECORD
  5
13D0
102
{ACAD_REACTORS
330
C
102
}
330
C
100
AcDbXrecord
280
     1
 90
   990106
  3

 60
     0
 61
     0
 62
     1
 63
     3
 64
     0
 65
     0
 66
     0
 67
     3
 68
     1
 69
     0
 70
     0
 71
     0
 72
     0
 40
0.0
170
     0
340
0
  0
DICTIONARY
  5
6AD
102
{ACAD_REACTORS
330
C
102
}
330
C
100
AcDbDictionary
281
     1
  3
SORTENTS
350
6AE
  0
XRECORD
  5
30F
102
{ACAD_REACTORS
330
C
102
}
330
C
100
AcDbXrecord
280
     1
  1
DWGPROPS COOKIE
  2

  3

  4

  6

  7

  8

  9

300
=
301
=
302
=
303
=
304
=
305
=
306
=
307
=
308
=
309
=
 40
0.3303803125
 41
2452362.482225463
 42
2452370.969861285
  1

 90
        0
  0
LAYOUT
  5
1E
102
{ACAD_REACTORS
330
1A
102
}
330
1A
100
AcDbPlotSettings
  1

  2
EPSON PM-920C
  4
A4
  6

 40
3.757083177566528
 41
14.7637300491333
 42
3.757080078125
 43
3.757080078125
 44
209.9733276367187
 45
296.9683227539062
 46
0.0
 47
0.0
 48
0.0
 49
0.0
140
0.0
141
0.0
142
1.0
143
1.0
 70
   688
 72
     1
 73
     1
 74
     5
  7
joint.ctb
 75
    16
147
1.0
148
0.0
149
0.0
100
AcDbLayout
  1
A4
 70
     1
 71
     1
 10
-3.757080078125
 20
-3.757083177566528
 11
293.2112426757812
 21
206.2162444591522
 12
0.0
 22
0.0
 32
0.0
 14
-4.391850629656119
 24
-3.455038652015446
 34
0.0
 15
278.8458837249377
 25
202.387980773708
 35
0.0
146
0.0
 13
0.0
 23
0.0
 33
0.0
 16
1.0
 26
0.0
 36
0.0
 17
0.0
 27
1.0
 37
0.0
 76
     0
330
1B
331
30
  0
LAYOUT
  5
22
102
{ACAD_REACTORS
330
1A
102
}
330
1A
100
AcDbPlotSettings
  1

  2
EPSON PM-920C
  4
A4
  6

 40
3.757083177566528
 41
14.7637300491333
 42
3.757080078125
 43
3.757080078125
 44
209.9733276367187
 45
296.9683227539062
 46
0.0
 47
0.0
 48
0.0
 49
0.0
140
0.0
141
0.0
142
1.0
143
1.0
 70
 11952
 72
     1
 73
     1
 74
     0
  7

 75
     0
147
1.0
148
-45.64199848979289
149
-84.48806419330498
100
AcDbLayout
  1
Model
 70
     1
 71
     0
 10
0.0
 20
0.0
 11
12.0
 21
9.0
 12
0.0
 22
0.0
 32
0.0
 14
0.0
 24
0.0
 34
0.0
 15
0.0
 25
0.0
 35
0.0
146
0.0
 13
0.0
 23
0.0
 33
0.0
 16
1.0
 26
0.0
 36
0.0
 17
0.0
 27
1.0
 37
0.0
 76
     0
330
1F
  0
MLINESTYLE
  5
18
102
{ACAD_REACTORS
330
17
102
}
330
17
100
AcDbMlineStyle
  2
STANDARD
 70
     0
  3

 62
   256
 51
90.0
 52
90.0
 71
     2
 49
0.5
 62
   256
  6
BYLAYER
 49
-0.5
 62
   256
  6
BYLAYER
  0
ACDBPLACEHOLDER
  5
F
102
{ACAD_REACTORS
330
E
102
}
330
E
  0
DICTIONARYVAR
  5
6AE
102
{ACAD_REACTORS
330
6AD
102
}
330
6AD
100
DictionaryVariables
280
     0
  1
96
  0
ENDSEC
  0
EOF
